  0
SECTION
  2
HEADER
  9
$ACADVER
  1
AC1015
  9
$ACADMAINTVER
 70
     6
  9
$DWGCODEPAGE
  3
ANSI_949
  9
$INSBASE
 10
0.0
 20
0.0
 30
0.0
  9
$EXTMIN
 10
1.000000000000000E+20
 20
1.000000000000000E+20
 30
1.000000000000000E+20
  9
$EXTMAX
 10
-1.000000000000000E+20
 20
-1.000000000000000E+20
 30
-1.000000000000000E+20
  9
$LIMMIN
 10
0.0
 20
0.0
  9
$LIMMAX
 10
420.0
 20
297.0
  9
$ORTHOMODE
 70
     1
  9
$REGENMODE
 70
     1
  9
$FILLMODE
 70
     1
  9
$QTEXTMODE
 70
     0
  9
$MIRRTEXT
 70
     1
  9
$LTSCALE
 40
1.0
  9
$ATTMODE
 70
     1
  9
$TEXTSIZE
 40
3.5
  9
$TRACEWID
 40
1.0
  9
$TEXTSTYLE
  7
Standard
  9
$CLAYER
  8
0
  9
$CELTYPE
  6
ByLayer
  9
$CECOLOR
 62
   256
  9
$CELTSCALE
 40
1.0
  9
$DISPSILH
 70
     0
  9
$DIMSCALE
 40
1.0
  9
$DIMASZ
 40
3.302
  9
$DIMEXO
 40
1.0
  9
$DIMDLI
 40
3.75
  9
$DIMRND
 40
0.0
  9
$DIMDLE
 40
0.0
  9
$DIMEXE
 40
1.0
  9
$DIMTP
 40
0.0
  9
$DIMTM
 40
0.0
  9
$DIMTXT
 40
3.5
  9
$DIMCEN
 40
2.5
  9
$DIMTSZ
 40
0.0
  9
$DIMTOL
 70
     0
  9
$DIMLIM
 70
     0
  9
$DIMTIH
 70
     1
  9
$DIMTOH
 70
     1
  9
$DIMSE1
 70
     0
  9
$DIMSE2
 70
     0
  9
$DIMTAD
 70
     1
  9
$DIMZIN
 70
     0
  9
$DIMBLK
  1

  9
$DIMASO
 70
     1
  9
$DIMSHO
 70
     1
  9
$DIMPOST
  1

  9
$DIMAPOST
  1

  9
$DIMALT
 70
     0
  9
$DIMALTD
 70
     3
  9
$DIMALTF
 40
0.0393700787401575
  9
$DIMLFAC
 40
1.0
  9
$DIMTOFL
 70
     1
  9
$DIMTVP
 40
0.0
  9
$DIMTIX
 70
     0
  9
$DIMSOXD
 70
     0
  9
$DIMSAH
 70
     0
  9
$DIMBLK1
  1

  9
$DIMBLK2
  1

  9
$DIMSTYLE
  2
ISO-25
  9
$DIMCLRD
 70
     0
  9
$DIMCLRE
 70
     0
  9
$DIMCLRT
 70
     0
  9
$DIMTFAC
 40
1.0
  9
$DIMGAP
 40
1.524
  9
$DIMJUST
 70
     0
  9
$DIMSD1
 70
     0
  9
$DIMSD2
 70
     0
  9
$DIMTOLJ
 70
     0
  9
$DIMTZIN
 70
     0
  9
$DIMALTZ
 70
     0
  9
$DIMALTTZ
 70
     0
  9
$DIMUPT
 70
     0
  9
$DIMDEC
 70
     2
  9
$DIMTDEC
 70
     2
  9
$DIMALTU
 70
     2
  9
$DIMALTTD
 70
     3
  9
$DIMTXSTY
  7
Standard
  9
$DIMAUNIT
 70
     0
  9
$DIMADEC
 70
     2
  9
$DIMALTRND
 40
0.0
  9
$DIMAZIN
 70
     0
  9
$DIMDSEP
 70
    44
  9
$DIMATFIT
 70
     3
  9
$DIMFRAC
 70
     0
  9
$DIMLDRBLK
  1

  9
$DIMLUNIT
 70
     2
  9
$DIMLWD
 70
    -2
  9
$DIMLWE
 70
    -2
  9
$DIMTMOVE
 70
     0
  9
$LUNITS
 70
     2
  9
$LUPREC
 70
     2
  9
$SKETCHINC
 40
1.0
  9
$FILLETRAD
 40
10.0
  9
$AUNITS
 70
     0
  9
$AUPREC
 70
     2
  9
$MENU
  1
.
  9
$ELEVATION
 40
0.0
  9
$PELEVATION
 40
0.0
  9
$THICKNESS
 40
0.0
  9
$LIMCHECK
 70
     0
  9
$CHAMFERA
 40
0.0
  9
$CHAMFERB
 40
0.0
  9
$CHAMFERC
 40
0.0
  9
$CHAMFERD
 40
0.0
  9
$SKPOLY
 70
     0
  9
$TDCREATE
 40
2458311.464532535
  9
$TDUCREATE
 40
2458311.089532535
  9
$TDUPDATE
 40
2458318.664282685
  9
$TDUUPDATE
 40
2458318.289282685
  9
$TDINDWG
 40
0.0068010764
  9
$TDUSRTIMER
 40
2458318.28911235
  9
$USRTIMER
 70
     1
  9
$ANGBASE
 50
0.0
  9
$ANGDIR
 70
     0
  9
$PDMODE
 70
     0
  9
$PDSIZE
 40
-1.0
  9
$PLINEWID
 40
0.0
  9
$SPLFRAME
 70
     0
  9
$SPLINETYPE
 70
     6
  9
$SPLINESEGS
 70
     8
  9
$HANDSEED
  5
7A3
  9
$SURFTAB1
 70
     6
  9
$SURFTAB2
 70
     6
  9
$SURFTYPE
 70
     6
  9
$SURFU
 70
     6
  9
$SURFV
 70
     6
  9
$UCSBASE
  2

  9
$UCSNAME
  2

  9
$UCSORG
 10
0.0
 20
0.0
 30
0.0
  9
$UCSXDIR
 10
1.0
 20
0.0
 30
0.0
  9
$UCSYDIR
 10
0.0
 20
1.0
 30
0.0
  9
$UCSORTHOREF
  2

  9
$UCSORTHOVIEW
 70
     0
  9
$UCSORGTOP
 10
0.0
 20
0.0
 30
0.0
  9
$UCSORGBOTTOM
 10
0.0
 20
0.0
 30
0.0
  9
$UCSORGLEFT
 10
0.0
 20
0.0
 30
0.0
  9
$UCSORGRIGHT
 10
0.0
 20
0.0
 30
0.0
  9
$UCSORGFRONT
 10
0.0
 20
0.0
 30
0.0
  9
$UCSORGBACK
 10
0.0
 20
0.0
 30
0.0
  9
$PUCSBASE
  2

  9
$PUCSNAME
  2

  9
$PUCSORG
 10
0.0
 20
0.0
 30
0.0
  9
$PUCSXDIR
 10
1.0
 20
0.0
 30
0.0
  9
$PUCSYDIR
 10
0.0
 20
1.0
 30
0.0
  9
$PUCSORTHOREF
  2

  9
$PUCSORTHOVIEW
 70
     0
  9
$PUCSORGTOP
 10
0.0
 20
0.0
 30
0.0
  9
$PUCSORGBOTTOM
 10
0.0
 20
0.0
 30
0.0
  9
$PUCSORGLEFT
 10
0.0
 20
0.0
 30
0.0
  9
$PUCSORGRIGHT
 10
0.0
 20
0.0
 30
0.0
  9
$PUCSORGFRONT
 10
0.0
 20
0.0
 30
0.0
  9
$PUCSORGBACK
 10
0.0
 20
0.0
 30
0.0
  9
$USERI1
 70
     0
  9
$USERI2
 70
     0
  9
$USERI3
 70
     0
  9
$USERI4
 70
     0
  9
$USERI5
 70
     0
  9
$USERR1
 40
0.0
  9
$USERR2
 40
0.0
  9
$USERR3
 40
0.0
  9
$USERR4
 40
0.0
  9
$USERR5
 40
0.0
  9
$WORLDVIEW
 70
     1
  9
$SHADEDGE
 70
     3
  9
$SHADEDIF
 70
    70
  9
$TILEMODE
 70
     1
  9
$MAXACTVP
 70
    64
  9
$PINSBASE
 10
0.0
 20
0.0
 30
0.0
  9
$PLIMCHECK
 70
     0
  9
$PEXTMIN
 10
1.000000000000000E+20
 20
1.000000000000000E+20
 30
1.000000000000000E+20
  9
$PEXTMAX
 10
-1.000000000000000E+20
 20
-1.000000000000000E+20
 30
-1.000000000000000E+20
  9
$PLIMMIN
 10
0.0
 20
0.0
  9
$PLIMMAX
 10
0.0
 20
0.0
  9
$UNITMODE
 70
     0
  9
$VISRETAIN
 70
     1
  9
$PLINEGEN
 70
     0
  9
$PSLTSCALE
 70
     1
  9
$TREEDEPTH
 70
  3020
  9
$CMLSTYLE
  2
Standard
  9
$CMLJUST
 70
     0
  9
$CMLSCALE
 40
20.0
  9
$PROXYGRAPHICS
 70
     1
  9
$MEASUREMENT
 70
     1
  9
$CELWEIGHT
370
    -1
  9
$ENDCAPS
280
     0
  9
$JOINSTYLE
280
     0
  9
$LWDISPLAY
290
     1
  9
$INSUNITS
 70
     4
  9
$HYPERLINKBASE
  1

  9
$STYLESHEET
  1

  9
$XEDIT
290
     1
  9
$CEPSNTYPE
380
     0
  9
$PSTYLEMODE
290
     1
  9
$FINGERPRINTGUID
  2
{67166BEA-91C4-4A27-8AE7-25CADE1F08E6}
  9
$VERSIONGUID
  2
{FAEB1C32-E019-11D5-929B-00C0DF256EC4}
  9
$EXTNAMES
290
     1
  9
$PSVPSCALE
 40
0.0
  9
$OLESTARTUP
290
     0
  0
ENDSEC
  0
SECTION
  2
CLASSES
  0
CLASS
  1
ACDBDICTIONARYWDFLT
  2
AcDbDictionaryWithDefault
  3
ObjectDBX Classes
 90
        0
280
     0
281
     0
  0
CLASS
  1
VISUALSTYLE
  2
AcDbVisualStyle
  3
ObjectDBX Classes
 90
     4095
280
     0
281
     0
  0
CLASS
  1
MATERIAL
  2
AcDbMaterial
  3
ObjectDBX Classes
 90
     1153
280
     0
281
     0
  0
CLASS
  1
SCALE
  2
AcDbScale
  3
ObjectDBX Classes
 90
     1153
280
     0
281
     0
  0
CLASS
  1
SUN
  2
AcDbSun
  3
SCENEOE
 90
     1153
280
     0
281
     0
  0
CLASS
  1
ACDBPLACEHOLDER
  2
AcDbPlaceHolder
  3
ObjectDBX Classes
 90
        0
280
     0
281
     0
  0
CLASS
  1
LAYOUT
  2
AcDbLayout
  3
ObjectDBX Classes
 90
        0
280
     0
281
     0
  0
CLASS
  1
TABLESTYLE
  2
AcDbTableStyle
  3
ObjectDBX Classes
 90
     4095
280
     0
281
     0
  0
CLASS
  1
MLEADERSTYLE
  2
AcDbMLeaderStyle
  3
ACDB_MLEADERSTYLE_CLASS
 90
     4095
280
     0
281
     0
  0
CLASS
  1
RASTERVARIABLES
  2
AcDbRasterVariables
  3
ISM
 90
        0
280
     0
281
     0
  0
CLASS
  1
DIMASSOC
  2
AcDbDimAssoc
  3
"AcDbDimAssoc|Product Desc:     AcDim ARX App For Dimension|Company:          Autodesk, Inc.|WEB Address:      www.autodesk.com"
 90
        0
280
     0
281
     0
  0
ENDSEC
  0
SECTION
  2
TABLES
  0
TABLE
  2
VPORT
  5
8
330
0
100
AcDbSymbolTable
 70
     1
  0
VPORT
  5
29
330
8
100
AcDbSymbolTableRecord
100
AcDbViewportTableRecord
  2
*Active
 70
     0
 10
0.0
 20
0.0
 11
1.0
 21
1.0
 12
-83.02401590178236
 22
-38.88588790500506
 13
0.0
 23
0.0
 14
10.0
 24
10.0
 15
10.0
 25
10.0
 16
0.0
 26
0.0
 36
1.0
 17
0.0
 27
0.0
 37
0.0
 40
414.7165465981731
 41
1.740812379110251
 42
50.0
 43
0.0
 44
0.0
 50
0.0
 51
0.0
 71
    16
 72
  2000
 73
     1
 74
     3
 75
     0
 76
     0
 77
     0
 78
     0
281
     0
 65
     1
110
0.0
120
0.0
130
0.0
111
1.0
121
0.0
131
0.0
112
0.0
122
1.0
132
0.0
 79
     0
146
0.0
  0
ENDTAB
  0
TABLE
  2
LTYPE
  5
5
330
0
100
AcDbSymbolTable
 70
     6
  0
LTYPE
  5
14
330
5
100
AcDbSymbolTableRecord
100
AcDbLinetypeTableRecord
  2
ByBlock
 70
     0
  3

 72
    65
 73
     0
 40
0.0
  0
LTYPE
  5
15
330
5
100
AcDbSymbolTableRecord
100
AcDbLinetypeTableRecord
  2
ByLayer
 70
     0
  3

 72
    65
 73
     0
 40
0.0
  0
LTYPE
  5
16
330
5
100
AcDbSymbolTableRecord
100
AcDbLinetypeTableRecord
  2
Continuous
 70
     0
  3
Solid line
 72
    65
 73
     0
 40
0.0
  0
LTYPE
  5
6A
330
5
100
AcDbSymbolTableRecord
100
AcDbLinetypeTableRecord
  2
HIDDEN
 70
     0
  3
Hidden __ __ __ __ __ __ __ __ __ __ __ __ __ __
 72
    65
 73
     2
 40
1.905
 49
1.27
 74
     0
 49
-0.635
 74
     0
  0
LTYPE
  5
6B
330
5
100
AcDbSymbolTableRecord
100
AcDbLinetypeTableRecord
  2
PHANTOM
 70
     0
  3
Phantom ______  __  __  ______  __  __  ______
 72
    65
 73
     6
 40
12.7
 49
6.35
 74
     0
 49
-1.27
 74
     0
 49
1.27
 74
     0
 49
-1.27
 74
     0
 49
1.27
 74
     0
 49
-1.27
 74
     0
  0
LTYPE
  5
6C
330
5
100
AcDbSymbolTableRecord
100
AcDbLinetypeTableRecord
  2
CENTER
 70
     0
  3
Center ____ _ ____ _ ____ _ ____ _ ____ _ ____
 72
    65
 73
     4
 40
10.16
 49
6.35
 74
     0
 49
-1.27
 74
     0
 49
1.27
 74
     0
 49
-1.27
 74
     0
  0
LTYPE
  5
6D
330
5
100
AcDbSymbolTableRecord
100
AcDbLinetypeTableRecord
  2
CENTERX2
 70
     0
  3
Center (2x) ________  __  ________  __  _____
 72
    65
 73
     4
 40
20.32
 49
12.7
 74
     0
 49
-2.54
 74
     0
 49
2.54
 74
     0
 49
-2.54
 74
     0
  0
LTYPE
  5
6E
330
5
100
AcDbSymbolTableRecord
100
AcDbLinetypeTableRecord
  2
DOT2
 70
     0
  3
Dot (.5x) ........................................
 72
    65
 73
     2
 40
0.635
 49
0.0
 74
     0
 49
-0.635
 74
     0
  0
ENDTAB
  0
TABLE
  2
LAYER
  5
2
102
{ACAD_XDICTIONARY
360
17A
102
}
330
0
100
AcDbSymbolTable
 70
    18
  0
LAYER
  5
10
330
2
100
AcDbSymbolTableRecord
100
AcDbLayerTableRecord
  2
0
 70
     0
 62
     7
  6
Continuous
370
    -3
390
F
  0
LAYER
  5
6F
330
2
100
AcDbSymbolTableRecord
100
AcDbLayerTableRecord
  2
FORMAT
 70
     0
 62
     2
  6
Continuous
370
    -3
390
F
  0
LAYER
  5
70
330
2
100
AcDbSymbolTableRecord
100
AcDbLayerTableRecord
  2
외형선
 70
     0
 62
     4
  6
Continuous
370
    30
390
F
  0
LAYER
  5
71
330
2
100
AcDbSymbolTableRecord
100
AcDbLayerTableRecord
  2
숨은선
 70
     0
 62
     2
  6
HIDDEN
370
    15
390
F
  0
LAYER
  5
72
330
2
100
AcDbSymbolTableRecord
100
AcDbLayerTableRecord
  2
중심선
 70
     0
 62
     1
  6
CENTERX2
370
    -3
390
F
  0
LAYER
  5
73
330
2
100
AcDbSymbolTableRecord
100
AcDbLayerTableRecord
  2
파단선
 70
     0
 62
     4
  6
Continuous
370
    -3
390
F
  0
LAYER
  5
74
330
2
100
AcDbSymbolTableRecord
100
AcDbLayerTableRecord
  2
해칭선
 70
     0
 62
   100
  6
Continuous
370
    -3
390
F
  0
LAYER
  5
75
330
2
100
AcDbSymbolTableRecord
100
AcDbLayerTableRecord
  2
가는실선
 70
     0
 62
     4
  6
Continuous
370
    -3
390
F
  0
LAYER
  5
76
330
2
100
AcDbSymbolTableRecord
100
AcDbLayerTableRecord
  2
치수_보조선
 70
     0
 62
     4
  6
Continuous
370
    -3
390
F
  0
LAYER
  5
77
330
2
100
AcDbSymbolTableRecord
100
AcDbLayerTableRecord
  2
치수문자_일반주서
 70
     0
 62
     7
  6
Continuous
370
    15
390
F
  0
LAYER
  5
78
330
2
100
AcDbSymbolTableRecord
100
AcDbLayerTableRecord
  2
개별주서
 70
     0
 62
   100
  6
Continuous
370
    30
390
F
  0
LAYER
  5
79
330
2
100
AcDbSymbolTableRecord
100
AcDbLayerTableRecord
  2
중간선
 70
     0
 62
     2
  6
Continuous
370
    15
390
F
  0
LAYER
  5
7A
330
2
100
AcDbSymbolTableRecord
100
AcDbLayerTableRecord
  2
윤곽선
 70
     0
 62
     3
  6
Continuous
370
    40
390
F
  0
LAYER
  5
7B
330
2
100
AcDbSymbolTableRecord
100
AcDbLayerTableRecord
  2
중심마크
 70
     0
 62
   100
  6
Continuous
370
    30
390
F
  0
LAYER
  5
7C
330
2
100
AcDbSymbolTableRecord
100
AcDbLayerTableRecord
  2
가상선
 70
     0
 62
     4
  6
PHANTOM
370
    -3
390
F
  0
LAYER
  5
7D
330
2
100
AcDbSymbolTableRecord
100
AcDbLayerTableRecord
  2
특수지정선
 70
     0
 62
     5
  6
CENTERX2
370
    60
390
F
  0
LAYER
  5
7E
330
2
100
AcDbSymbolTableRecord
100
AcDbLayerTableRecord
  2
참조1
 70
     0
 62
    -4
  6
Continuous
370
    -3
390
F
  0
LAYER
  5
181
330
2
100
AcDbSymbolTableRecord
100
AcDbLayerTableRecord
  2
Defpoints
 70
     0
 62
     7
  6
Continuous
290
     0
370
    -3
390
F
  0
ENDTAB
  0
TABLE
  2
STYLE
  5
3
330
0
100
AcDbSymbolTable
 70
     2
  0
STYLE
  5
11
330
3
100
AcDbSymbolTableRecord
100
AcDbTextStyleTableRecord
  2
Standard
 70
     0
 40
0.0
 41
1.0
 50
0.0
 71
     0
 42
3.5
  3
txt
  4

  0
STYLE
  5
94
330
3
100
AcDbSymbolTableRecord
100
AcDbTextStyleTableRecord
  2
SLDTEXTSTYLE0
 70
     0
 40
0.0
 41
0.75
 50
0.0
 71
     0
 42
3.5
  3
TXT
  4

  0
ENDTAB
  0
TABLE
  2
VIEW
  5
6
330
0
100
AcDbSymbolTable
 70
     0
  0
ENDTAB
  0
TABLE
  2
UCS
  5
7
330
0
100
AcDbSymbolTable
 70
     0
  0
ENDTAB
  0
TABLE
  2
APPID
  5
9
330
0
100
AcDbSymbolTable
 70
     1
  0
APPID
  5
12
330
9
100
AcDbSymbolTableRecord
100
AcDbRegAppTableRecord
  2
ACAD
 70
     0
  0
ENDTAB
  0
TABLE
  2
DIMSTYLE
  5
A
330
0
100
AcDbSymbolTable
 70
     5
100
AcDbDimStyleTable
  0
DIMSTYLE
105
27
330
A
100
AcDbSymbolTableRecord
100
AcDbDimStyleTableRecord
  2
ISO-25
 70
     0
 41
2.5
 42
0.625
 43
3.75
 44
1.25
 73
     0
 74
     0
 77
     1
 78
     8
140
2.5
141
2.5
143
0.03937007874016
147
0.625
171
     3
172
     1
178
     0
271
     2
272
     2
274
     3
278
    44
283
     0
284
     8
340
11
  0
DIMSTYLE
105
D5
102
{ACAD_REACTORS
330
5A0
330
5A3
330
708
330
706
102
}
330
A
100
AcDbSymbolTableRecord
100
AcDbDimStyleTableRecord
  2
SLDDIMSTYLE0
 70
     0
 41
3.302
 44
0.0
 45
0.000000001
 73
     0
 74
     0
 77
     1
 78
    12
 79
     3
140
3.5
143
0.0393700787401575
147
0.875
148
0.000000001
170
     1
173
     1
178
     0
271
     2
272
     2
276
     2
284
    12
340
94
  0
DIMSTYLE
105
E8
102
{ACAD_REACTORS
102
}
330
A
100
AcDbSymbolTableRecord
100
AcDbDimStyleTableRecord
  2
SLDDIMSTYLE1
 70
     0
 41
3.302
 44
0.0
 45
0.000000001
 73
     0
 74
     0
 77
     1
 78
     4
 79
     1
140
3.5
143
0.0393700787401575
147
0.875
148
0.000000001
170
     1
173
     1
178
     0
271
     2
272
     2
276
     2
284
    12
340
94
  0
DIMSTYLE
105
1B4
102
{ACAD_REACTORS
102
}
330
A
100
AcDbSymbolTableRecord
100
AcDbDimStyleTableRecord
  2
SLDDIMSTYLE2
 70
     0
 41
3.302
 44
0.0
 45
0.000000001
 73
     0
 74
     0
 77
     1
 78
     4
 79
     1
140
3.5
143
0.0393700787401575
147
0.875
148
0.000000001
170
     1
173
     1
178
     0
271
     2
272
     2
276
     2
284
    12
340
94
  0
DIMSTYLE
105
1B5
102
{ACAD_REACTORS
102
}
330
A
100
AcDbSymbolTableRecord
100
AcDbDimStyleTableRecord
  2
SLDDIMSTYLE3
 70
     0
 41
3.302
 44
0.0
 45
0.000000001
 73
     0
 74
     0
 77
     1
 78
    12
 79
     3
140
3.5
143
0.0393700787401575
147
0.875
148
0.000000001
170
     1
173
     1
178
     0
271
     2
272
     2
276
     2
284
    12
340
94
  0
ENDTAB
  0
TABLE
  2
BLOCK_RECORD
  5
1
330
0
100
AcDbSymbolTable
 70
    44
  0
BLOCK_RECORD
  5
1F
330
1
100
AcDbSymbolTableRecord
100
AcDbBlockTableRecord
  2
*Model_Space
340
22
  0
BLOCK_RECORD
  5
1B
330
1
100
AcDbSymbolTableRecord
100
AcDbBlockTableRecord
  2
*Paper_Space
340
1E
  0
BLOCK_RECORD
  5
23
330
1
100
AcDbSymbolTableRecord
100
AcDbBlockTableRecord
  2
*Paper_Space0
340
26
  0
BLOCK_RECORD
  5
7F
330
1
100
AcDbSymbolTableRecord
100
AcDbBlockTableRecord
  2
블럭10
340
0
102
{BLKREFS
331
6FE
102
}
  0
BLOCK_RECORD
  5
D6
330
1
100
AcDbSymbolTableRecord
100
AcDbBlockTableRecord
  2
_D
340
0
  0
BLOCK_RECORD
  5
E9
330
1
100
AcDbSymbolTableRecord
100
AcDbBlockTableRecord
  2
_D_1
340
0
  0
BLOCK_RECORD
  5
FD
330
1
100
AcDbSymbolTableRecord
100
AcDbBlockTableRecord
  2
_D_2
340
0
  0
BLOCK_RECORD
  5
110
330
1
100
AcDbSymbolTableRecord
100
AcDbBlockTableRecord
  2
_D_3
340
0
  0
BLOCK_RECORD
  5
129
330
1
100
AcDbSymbolTableRecord
100
AcDbBlockTableRecord
  2
SW_DOWELSYMBOL_0
340
0
102
{BLKREFS
331
5EE
102
}
  0
BLOCK_RECORD
  5
238
330
1
100
AcDbSymbolTableRecord
100
AcDbBlockTableRecord
  2
*D7
340
0
  0
BLOCK_RECORD
  5
244
330
1
100
AcDbSymbolTableRecord
100
AcDbBlockTableRecord
  2
*D8
340
0
  0
BLOCK_RECORD
  5
250
330
1
100
AcDbSymbolTableRecord
100
AcDbBlockTableRecord
  2
*D9
340
0
  0
BLOCK_RECORD
  5
282
330
1
100
AcDbSymbolTableRecord
100
AcDbBlockTableRecord
  2
*D10
340
0
  0
BLOCK_RECORD
  5
28E
330
1
100
AcDbSymbolTableRecord
100
AcDbBlockTableRecord
  2
*D11
340
0
  0
BLOCK_RECORD
  5
29A
330
1
100
AcDbSymbolTableRecord
100
AcDbBlockTableRecord
  2
*D12
340
0
  0
BLOCK_RECORD
  5
362
330
1
100
AcDbSymbolTableRecord
100
AcDbBlockTableRecord
  2
*D13
340
0
  0
BLOCK_RECORD
  5
36E
330
1
100
AcDbSymbolTableRecord
100
AcDbBlockTableRecord
  2
*D14
340
0
  0
BLOCK_RECORD
  5
37A
330
1
100
AcDbSymbolTableRecord
100
AcDbBlockTableRecord
  2
*D15
340
0
  0
BLOCK_RECORD
  5
386
330
1
100
AcDbSymbolTableRecord
100
AcDbBlockTableRecord
  2
*D16
340
0
  0
BLOCK_RECORD
  5
3C0
330
1
100
AcDbSymbolTableRecord
100
AcDbBlockTableRecord
  2
*D17
340
0
  0
BLOCK_RECORD
  5
3CC
330
1
100
AcDbSymbolTableRecord
100
AcDbBlockTableRecord
  2
*D18
340
0
  0
BLOCK_RECORD
  5
3D8
330
1
100
AcDbSymbolTableRecord
100
AcDbBlockTableRecord
  2
*D19
340
0
  0
BLOCK_RECORD
  5
3E4
330
1
100
AcDbSymbolTableRecord
100
AcDbBlockTableRecord
  2
*D20
340
0
  0
BLOCK_RECORD
  5
3FB
330
1
100
AcDbSymbolTableRecord
100
AcDbBlockTableRecord
  2
*D21
340
0
  0
BLOCK_RECORD
  5
407
330
1
100
AcDbSymbolTableRecord
100
AcDbBlockTableRecord
  2
*D22
340
0
  0
BLOCK_RECORD
  5
44F
330
1
100
AcDbSymbolTableRecord
100
AcDbBlockTableRecord
  2
*D23
340
0
  0
BLOCK_RECORD
  5
514
330
1
100
AcDbSymbolTableRecord
100
AcDbBlockTableRecord
  2
*D24
340
0
  0
BLOCK_RECORD
  5
520
330
1
100
AcDbSymbolTableRecord
100
AcDbBlockTableRecord
  2
*D25
340
0
  0
BLOCK_RECORD
  5
52C
330
1
100
AcDbSymbolTableRecord
100
AcDbBlockTableRecord
  2
*D26
340
0
  0
BLOCK_RECORD
  5
538
330
1
100
AcDbSymbolTableRecord
100
AcDbBlockTableRecord
  2
*D27
340
0
  0
BLOCK_RECORD
  5
56B
330
1
100
AcDbSymbolTableRecord
100
AcDbBlockTableRecord
  2
*D28
340
0
  0
BLOCK_RECORD
  5
577
330
1
100
AcDbSymbolTableRecord
100
AcDbBlockTableRecord
  2
*D29
340
0
  0
BLOCK_RECORD
  5
583
330
1
100
AcDbSymbolTableRecord
100
AcDbBlockTableRecord
  2
*D30
340
0
  0
BLOCK_RECORD
  5
58F
330
1
100
AcDbSymbolTableRecord
100
AcDbBlockTableRecord
  2
*D31
340
0
  0
BLOCK_RECORD
  5
5A5
330
1
100
AcDbSymbolTableRecord
100
AcDbBlockTableRecord
  2
*D32
340
0
  0
BLOCK_RECORD
  5
5B1
330
1
100
AcDbSymbolTableRecord
100
AcDbBlockTableRecord
  2
*D33
340
0
  0
BLOCK_RECORD
  5
5F4
330
1
100
AcDbSymbolTableRecord
100
AcDbBlockTableRecord
  2
*D34
340
0
  0
BLOCK_RECORD
  5
6B5
330
1
100
AcDbSymbolTableRecord
100
AcDbBlockTableRecord
  2
*D35
340
0
  0
BLOCK_RECORD
  5
6C1
330
1
100
AcDbSymbolTableRecord
100
AcDbBlockTableRecord
  2
*D36
340
0
  0
BLOCK_RECORD
  5
6CD
330
1
100
AcDbSymbolTableRecord
100
AcDbBlockTableRecord
  2
*D37
340
0
  0
BLOCK_RECORD
  5
6D9
330
1
100
AcDbSymbolTableRecord
100
AcDbBlockTableRecord
  2
*D38
340
0
  0
BLOCK_RECORD
  5
70A
330
1
100
AcDbSymbolTableRecord
100
AcDbBlockTableRecord
  2
*D39
340
0
  0
BLOCK_RECORD
  5
716
330
1
100
AcDbSymbolTableRecord
100
AcDbBlockTableRecord
  2
*D40
340
0
  0
BLOCK_RECORD
  5
722
330
1
100
AcDbSymbolTableRecord
100
AcDbBlockTableRecord
  2
*D41
340
0
  0
BLOCK_RECORD
  5
72E
330
1
100
AcDbSymbolTableRecord
100
AcDbBlockTableRecord
  2
*D42
340
0
  0
ENDTAB
  0
ENDSEC
  0
SECTION
  2
BLOCKS
  0
BLOCK
  5
20
330
1F
100
AcDbEntity
  8
0
100
AcDbBlockBegin
  2
*Model_Space
 70
     0
 10
0.0
 20
0.0
 30
0.0
  3
*Model_Space
  1
*Model_Space
  0
ENDBLK
  5
21
330
1F
100
AcDbEntity
  8
0
100
AcDbBlockEnd
  0
BLOCK
  5
1C
330
1B
100
AcDbEntity
 67
     1
  8
0
100
AcDbBlockBegin
  2
*Paper_Space
 70
     0
 10
0.0
 20
0.0
 30
0.0
  3
*Paper_Space
  1
*Paper_Space
  0
ENDBLK
  5
1D
330
1B
100
AcDbEntity
 67
     1
  8
0
100
AcDbBlockEnd
  0
BLOCK
  5
24
330
23
100
AcDbEntity
  8
0
100
AcDbBlockBegin
  2
*Paper_Space0
 70
     0
 10
0.0
 20
0.0
 30
0.0
  3
*Paper_Space0
  1
*Paper_Space0
  0
ENDBLK
  5
25
330
23
100
AcDbEntity
  8
0
100
AcDbBlockEnd
  0
BLOCK
  5
80
330
7F
100
AcDbEntity
  8
0
100
AcDbBlockBegin
  2
블럭10
 70
     2
 10
0.0
 20
0.0
 30
0.0
  3
블럭10
  1
블럭10
  0
ELLIPSE
  5
82
330
7F
100
AcDbEntity
  8
중심선
100
AcDbEllipse
 10
20.54032771741204
 20
12.0471743016438
 30
0.0
 11
6.600054785286829
 21
-1.261213355974178E-13
 31
0.0
210
0.0
220
0.0
230
1.0
 40
0.636358354079598
 41
0.9219305317359503
 42
6.513795318482858
  0
ELLIPSE
  5
83
330
7F
100
AcDbEntity
  8
중심선
100
AcDbEllipse
 10
20.54032771746488
 20
12.04717430159265
 30
0.0
 11
3.960054785062283
 21
1.540847449632565E-10
 31
0.0
210
0.0
220
0.0
230
1.0
 40
0.3939339440162632
 41
1.131841032648279
 42
5.62031148352944
  0
LINE
  5
84
330
7F
100
AcDbEntity
  8
중심선
100
AcDbLine
 10
2.268634060543552
 20
16.24717430164393
 30
0.0
 11
5.714909304380834
 21
16.24717430164393
 31
0.0
  0
LINE
  5
85
330
7F
100
AcDbEntity
  8
중심선
100
AcDbLine
 10
5.245725140726316
 20
7.84717430164391
 30
0.0
 11
8.692000384563599
 21
7.84717430164391
 31
0.0
  0
LINE
  5
86
330
7F
100
AcDbEntity
  8
중심선
100
AcDbLine
 10
15.74043728645272
 20
16.24717430164393
 30
0.0
 11
8.692000384563599
 21
7.84717430164391
 31
0.0
  0
LINE
  5
87
330
7F
100
AcDbEntity
  8
중심선
100
AcDbLine
 10
0.1404042013395286
 20
13.71084872107135
 30
0.0
 11
3.58671253028996
 21
13.71088815037384
 31
0.0
  0
LINE
  5
88
330
7F
100
AcDbEntity
  8
중심선
100
AcDbLine
 10
2.750260043222114
 20
10.84717430164391
 30
0.0
 11
6.196535287059397
 21
10.84717430164391
 31
0.0
  0
LINE
  5
89
330
7F
100
AcDbEntity
  8
중심선
100
AcDbLine
 10
12.29416204261559
 20
16.24717430164393
 30
0.0
 11
5.245725140726316
 21
7.84717430164391
 31
0.0
  0
LINE
  5
8A
330
7F
100
AcDbEntity
  8
중심선
100
AcDbLine
 10
10.72767329541681
 20
16.24717430164393
 30
0.0
 11
6.196535287059397
 21
10.84717430164391
 31
0.0
  0
LINE
  5
8B
330
7F
100
AcDbEntity
  8
중심선
100
AcDbLine
 10
7.28139805157953
 20
16.24717430164393
 30
0.0
 11
2.750260043222114
 21
10.84717430164391
 31
0.0
  0
LINE
  5
8C
330
7F
100
AcDbEntity
  8
중심선
100
AcDbLine
 10
5.714909304380834
 20
16.24717430164393
 30
0.0
 11
3.58671253028996
 21
13.71088815037384
 31
0.0
  0
LINE
  5
8D
330
7F
100
AcDbEntity
  8
중심선
100
AcDbLine
 10
2.268634060543552
 20
16.24717430164393
 30
0.0
 11
0.1404042013395286
 21
13.71084872107135
 31
0.0
  0
LINE
  5
8E
330
7F
100
AcDbEntity
  8
중심선
100
AcDbLine
 10
7.28139805157953
 20
16.24717430164393
 30
0.0
 11
10.72767329541681
 21
16.24717430164393
 31
0.0
  0
LINE
  5
8F
330
7F
100
AcDbEntity
  8
중심선
100
AcDbLine
 10
12.29416204261559
 20
16.24717430164393
 30
0.0
 11
15.74043728645272
 21
16.24717430164393
 31
0.0
  0
LINE
  5
90
330
7F
100
AcDbEntity
  8
중심선
100
AcDbLine
 10
19.22036997980202
 20
11.08717430171403
 30
0.0
 11
23.66174974927406
 21
11.08717430171406
 31
0.0
  0
LINE
  5
91
330
7F
100
AcDbEntity
  8
중심선
100
AcDbLine
 10
19.22039502424796
 20
13.00717430171391
 30
0.0
 11
19.22036997980202
 21
11.08717430171403
 31
0.0
  0
LINE
  5
92
330
7F
100
AcDbEntity
  8
중심선
100
AcDbLine
 10
19.22039502424796
 20
13.00717430171391
 30
0.0
 11
26.96566020931264
 21
13.00717430171391
 31
0.0
  0
LINE
  5
93
330
7F
100
AcDbEntity
  8
중심선
100
AcDbLine
 10
22.22332737316547
 20
13.45928029700563
 30
0.0
 11
24.52862924686651
 21
15.39360700705356
 31
0.0
  0
ATTDEF
  5
95
330
7F
100
AcDbEntity
  8
FORMAT
 62
     2
100
AcDbText
 10
4.408487351596664
 20
2.075366912832191
 30
0.0
 40
4.233333333333333
  1
E1070116
 41
0.75
  7
SLDTEXTSTYLE0
 11
4.408487351596664
 21
-0.0412997538344756
 31
0.0
100
AcDbAttributeDefinition
  3

  2
AUTOATTR0
 70
     0
 74
     1
  0
ENDBLK
  5
81
330
7F
100
AcDbEntity
  8
0
100
AcDbBlockEnd
  0
BLOCK
  5
D7
330
D6
100
AcDbEntity
  8
0
100
AcDbBlockBegin
  2
_D
 70
     0
 10
0.0
 20
0.0
 30
0.0
  3
_D
  1
_D
  0
LINE
  5
D9
330
D6
100
AcDbEntity
  8
치수문자_일반주서
 62
     0
370
    -2
100
AcDbLine
 10
-50.56249999999999
 20
15.87499999999999
 30
0.0
 11
-64.00000000000006
 21
15.87499999999994
 31
0.0
  0
LINE
  5
DA
330
D6
100
AcDbEntity
  8
치수문자_일반주서
 62
     0
370
    -2
100
AcDbLine
 10
-50.56249999999999
 20
-15.87500000000001
 30
0.0
 11
-63.99999999999994
 21
-15.87500000000006
 31
0.0
  0
LINE
  5
DB
330
D6
100
AcDbEntity
  8
치수문자_일반주서
 62
     0
370
    -2
100
AcDbLine
 10
-64.00000000000004
 20
12.57299999999995
 30
0.0
 11
-63.99999999999996
 21
-12.57300000000006
 31
0.0
  0
SOLID
  5
DC
330
D6
100
AcDbEntity
  8
치수문자_일반주서
 62
     0
100
AcDbTrace
 10
-63.44966666666671
 20
12.57299999999995
 30
0.0
 11
-64.55033333333337
 21
12.57299999999994
 31
0.0
 12
-64.00000000000006
 22
15.87499999999994
 32
0.0
 13
-64.00000000000006
 23
15.87499999999994
 33
0.0
  0
SOLID
  5
DD
330
D6
100
AcDbEntity
  8
치수문자_일반주서
 62
     0
100
AcDbTrace
 10
-64.55033333333328
 20
-12.57300000000006
 30
0.0
 11
-63.44966666666662
 21
-12.57300000000005
 31
0.0
 12
-63.99999999999994
 22
-15.87500000000006
 32
0.0
 13
-63.99999999999994
 23
-15.87500000000006
 33
0.0
  0
MTEXT
  5
DE
330
D6
100
AcDbEntity
  8
치수문자_일반주서
 62
     0
100
AcDbMText
 10
-68.375
 20
-0.0000000000000106
 30
0.0
 40
3.5
 41
0.0
 71
     2
 72
     1
  1
\A1;%%c31.75 [1 1/4]
  7
SLDTEXTSTYLE0
 11
-3.580687802255623E-15
 21
1.0
 31
0.0
 73
     1
 44
1.0
  0
POINT
  5
DF
330
D6
100
AcDbEntity
  8
Defpoints
 62
     0
100
AcDbPoint
 10
-50.49999999999999
 20
15.87499999999999
 30
0.0
  0
POINT
  5
E0
330
D6
100
AcDbEntity
  8
Defpoints
 62
     0
100
AcDbPoint
 10
-50.49999999999999
 20
-15.87500000000001
 30
0.0
  0
POINT
  5
E1
330
D6
100
AcDbEntity
  8
Defpoints
 62
     0
100
AcDbPoint
 10
-63.99999999999994
 20
-15.87500000000006
 30
0.0
  0
ENDBLK
  5
D8
330
D6
100
AcDbEntity
  8
0
100
AcDbBlockEnd
  0
BLOCK
  5
EA
330
E9
100
AcDbEntity
  8
0
100
AcDbBlockBegin
  2
_D_1
 70
     0
 10
0.0
 20
0.0
 30
0.0
  3
_D_1
  1
_D_1
  0
LINE
  5
EC
330
E9
100
AcDbEntity
  8
치수문자_일반주서
 62
     0
370
    -2
100
AcDbLine
 10
62.80000000000001
 20
15.93750000000001
 30
0.0
 11
62.80000000000001
 21
29.03792442259352
 31
0.0
  0
LINE
  5
ED
330
E9
100
AcDbEntity
  8
치수문자_일반주서
 62
     0
370
    -2
100
AcDbLine
 10
12.00000000000001
 20
12.50488030853148
 30
0.0
 11
12.00000000000001
 21
29.03792442259352
 31
0.0
  0
LINE
  5
EE
330
E9
100
AcDbEntity
  8
치수문자_일반주서
 62
     0
370
    -2
100
AcDbLine
 10
59.49800000000001
 20
29.03792442259352
 30
0.0
 11
15.30200000000001
 21
29.03792442259352
 31
0.0
  0
SOLID
  5
EF
330
E9
100
AcDbEntity
  8
치수문자_일반주서
 62
     0
100
AcDbTrace
 10
59.49800000000001
 20
28.48759108926019
 30
0.0
 11
59.49800000000001
 21
29.58825775592686
 31
0.0
 12
62.80000000000001
 22
29.03792442259352
 32
0.0
 13
62.80000000000001
 23
29.03792442259352
 33
0.0
  0
SOLID
  5
F0
330
E9
100
AcDbEntity
  8
치수문자_일반주서
 62
     0
100
AcDbTrace
 10
15.30200000000001
 20
29.58825775592686
 30
0.0
 11
15.30200000000001
 21
28.48759108926019
 31
0.0
 12
12.00000000000001
 22
29.03792442259352
 32
0.0
 13
12.00000000000001
 23
29.03792442259352
 33
0.0
  0
MTEXT
  5
F1
330
E9
100
AcDbEntity
  8
치수문자_일반주서
 62
     0
100
AcDbMText
 10
37.40000000000002
 20
33.41292442259352
 30
0.0
 40
3.5
 41
0.0
 71
     2
 72
     1
  1
\A1;50.8 [2]
  7
SLDTEXTSTYLE0
 73
     1
 44
1.0
  0
POINT
  5
F2
330
E9
100
AcDbEntity
  8
Defpoints
 62
     0
100
AcDbPoint
 10
62.80000000000001
 20
15.87500000000001
 30
0.0
  0
POINT
  5
F3
330
E9
100
AcDbEntity
  8
Defpoints
 62
     0
100
AcDbPoint
 10
12.00000000000001
 20
12.44238030853148
 30
0.0
  0
POINT
  5
F4
330
E9
100
AcDbEntity
  8
Defpoints
 62
     0
100
AcDbPoint
 10
12.00000000000001
 20
29.03792442259352
 30
0.0
  0
ENDBLK
  5
EB
330
E9
100
AcDbEntity
  8
0
100
AcDbBlockEnd
  0
BLOCK
  5
FE
330
FD
100
AcDbEntity
  8
0
100
AcDbBlockBegin
  2
_D_2
 70
     0
 10
0.0
 20
0.0
 30
0.0
  3
_D_2
  1
_D_2
  0
LINE
  5
100
330
FD
100
AcDbEntity
  8
치수문자_일반주서
 62
     0
370
    -2
100
AcDbLine
 10
62.80000000000003
 20
15.93750000000001
 30
0.0
 11
62.80000000000003
 21
45.58996586444052
 31
0.0
  0
LINE
  5
101
330
FD
100
AcDbEntity
  8
치수문자_일반주서
 62
     0
370
    -2
100
AcDbLine
 10
-51.5
 20
14.93749999999998
 30
0.0
 11
-51.5
 21
45.58996586444052
 31
0.0
  0
LINE
  5
102
330
FD
100
AcDbEntity
  8
치수문자_일반주서
 62
     0
370
    -2
100
AcDbLine
 10
59.49800000000003
 20
45.58996586444052
 30
0.0
 11
-48.198
 21
45.58996586444052
 31
0.0
  0
SOLID
  5
103
330
FD
100
AcDbEntity
  8
치수문자_일반주서
 62
     0
100
AcDbTrace
 10
59.49800000000003
 20
45.03963253110718
 30
0.0
 11
59.49800000000003
 21
46.14029919777385
 31
0.0
 12
62.80000000000003
 22
45.58996586444052
 32
0.0
 13
62.80000000000003
 23
45.58996586444052
 33
0.0
  0
SOLID
  5
104
330
FD
100
AcDbEntity
  8
치수문자_일반주서
 62
     0
100
AcDbTrace
 10
-48.198
 20
46.14029919777385
 30
0.0
 11
-48.198
 21
45.03963253110718
 31
0.0
 12
-51.5
 22
45.58996586444052
 32
0.0
 13
-51.5
 23
45.58996586444052
 33
0.0
  0
MTEXT
  5
105
330
FD
100
AcDbEntity
  8
치수문자_일반주서
 62
     0
100
AcDbMText
 10
5.649999999999869
 20
49.96496586444052
 30
0.0
 40
3.5
 41
0.0
 71
     2
 72
     1
  1
\A1;114.3 [4 1/2]
  7
SLDTEXTSTYLE0
 73
     1
 44
1.0
  0
POINT
  5
106
330
FD
100
AcDbEntity
  8
Defpoints
 62
     0
100
AcDbPoint
 10
62.80000000000003
 20
15.87500000000001
 30
0.0
  0
POINT
  5
107
330
FD
100
AcDbEntity
  8
Defpoints
 62
     0
100
AcDbPoint
 10
-51.5
 20
14.87499999999998
 30
0.0
  0
POINT
  5
108
330
FD
100
AcDbEntity
  8
Defpoints
 62
     0
100
AcDbPoint
 10
-51.5
 20
45.58996586444052
 30
0.0
  0
ENDBLK
  5
FF
330
FD
100
AcDbEntity
  8
0
100
AcDbBlockEnd
  0
BLOCK
  5
111
330
110
100
AcDbEntity
  8
0
100
AcDbBlockBegin
  2
_D_3
 70
     0
 10
0.0
 20
0.0
 30
0.0
  3
_D_3
  1
_D_3
  0
LINE
  5
113
330
110
100
AcDbEntity
  8
치수문자_일반주서
 62
     0
370
    -2
100
AcDbLine
 10
62.86250000000001
 20
-15.875
 30
0.0
 11
96.80508855801871
 21
-15.87499999999987
 31
0.0
  0
LINE
  5
114
330
110
100
AcDbEntity
  8
치수문자_일반주서
 62
     0
370
    -2
100
AcDbLine
 10
62.86250000000001
 20
15.87500000000001
 30
0.0
 11
96.8050885580186
 21
15.87500000000014
 31
0.0
  0
LINE
  5
115
330
110
100
AcDbEntity
  8
치수문자_일반주서
 62
     0
370
    -2
100
AcDbLine
 10
96.8050885580186
 20
15.87500000000014
 30
0.0
 11
96.80508855801845
 21
56.26973621325037
 31
0.0
  0
LINE
  5
116
330
110
100
AcDbEntity
  8
치수문자_일반주서
 62
     0
370
    -2
100
AcDbLine
 10
96.8050885580187
 20
-12.57299999999987
 30
0.0
 11
96.80508855801861
 21
12.57300000000014
 31
0.0
  0
SOLID
  5
117
330
110
100
AcDbEntity
  8
치수문자_일반주서
 62
     0
100
AcDbTrace
 10
96.25475522468537
 20
-12.57299999999987
 30
0.0
 11
97.35542189135202
 21
-12.57299999999987
 31
0.0
 12
96.80508855801871
 22
-15.87499999999987
 32
0.0
 13
96.80508855801871
 23
-15.87499999999987
 33
0.0
  0
SOLID
  5
118
330
110
100
AcDbEntity
  8
치수문자_일반주서
 62
     0
100
AcDbTrace
 10
97.35542189135194
 20
12.57300000000014
 30
0.0
 11
96.25475522468528
 21
12.57300000000013
 31
0.0
 12
96.8050885580186
 22
15.87500000000014
 32
0.0
 13
96.8050885580186
 23
15.87500000000014
 33
0.0
  0
MTEXT
  5
119
330
110
100
AcDbEntity
  8
치수문자_일반주서
 62
     0
100
AcDbMText
 10
92.43008855801851
 20
40.51973621325035
 30
0.0
 40
3.5
 41
0.0
 71
     2
 72
     1
  1
\A1;%%c31.75 [1 1/4]
  7
SLDTEXTSTYLE0
 11
-3.580687802255623E-15
 21
1.0
 31
0.0
 73
     1
 44
1.0
  0
POINT
  5
11A
330
110
100
AcDbEntity
  8
Defpoints
 62
     0
100
AcDbPoint
 10
62.80000000000001
 20
-15.875
 30
0.0
  0
POINT
  5
11B
330
110
100
AcDbEntity
  8
Defpoints
 62
     0
100
AcDbPoint
 10
62.80000000000001
 20
15.87500000000001
 30
0.0
  0
POINT
  5
11C
330
110
100
AcDbEntity
  8
Defpoints
 62
     0
100
AcDbPoint
 10
96.8050885580186
 20
15.87500000000014
 30
0.0
  0
ENDBLK
  5
112
330
110
100
AcDbEntity
  8
0
100
AcDbBlockEnd
  0
BLOCK
  5
12A
330
129
100
AcDbEntity
  8
0
100
AcDbBlockBegin
  2
SW_DOWELSYMBOL_0
 70
     0
 10
0.0
 20
0.0
 30
0.0
  3
SW_DOWELSYMBOL_0
  1
SW_DOWELSYMBOL_0
  0
CIRCLE
  5
12C
330
129
100
AcDbEntity
  8
해칭선
 62
     0
100
AcDbCircle
 10
0.0
 20
0.0
 30
0.0
 40
2.999999999999996
  0
HATCH
  5
12D
330
129
100
AcDbEntity
  8
0
  6
Continuous
 62
     0
370
     0
100
AcDbHatch
 10
0.0
 20
0.0
 30
0.0
210
0.0
220
0.0
230
1.0
  2
SOLID
 70
     1
 71
     0
 91
        1
 92
        0
 93
        3
 72
     2
 10
0.0
 20
0.0
 40
2.999999999999996
 50
0.0
 51
90.0
 73
     1
 72
     1
 10
0.0
 20
2.999999999999996
 11
0.0
 21
0.0
 72
     1
 10
0.0
 20
0.0
 11
2.999999999999996
 21
0.0
 97
        0
 75
     0
 76
     1
 98
        1
 10
0.0
 20
0.0
  0
HATCH
  5
12E
330
129
100
AcDbEntity
  8
0
  6
Continuous
 62
     0
370
     0
100
AcDbHatch
 10
0.0
 20
0.0
 30
0.0
210
0.0
220
0.0
230
1.0
  2
SOLID
 70
     1
 71
     0
 91
        1
 92
        0
 93
        3
 72
     2
 10
0.0
 20
0.0
 40
2.999999999999996
 50
180.0
 51
270.0000000000007
 73
     1
 72
     1
 10
0.0
 20
-2.999999999999996
 11
0.0
 21
0.0
 72
     1
 10
0.0
 20
0.0
 11
-2.999999999999996
 21
0.0
 97
        0
 75
     0
 76
     1
 98
        1
 10
0.0
 20
0.0
  0
ENDBLK
  5
12B
330
129
100
AcDbEntity
  8
0
100
AcDbBlockEnd
  0
BLOCK
  5
239
330
238
100
AcDbEntity
  8
0
100
AcDbBlockBegin
  2
*D7
 70
     1
 10
0.0
 20
0.0
 30
0.0
  3
*D7
  1
*D8
  0
LINE
  5
23B
330
238
100
AcDbEntity
  8
치수문자_일반주서
 62
     0
370
    -2
100
AcDbLine
 10
79.2
 20
25.63930209048008
 30
0.0
 11
79.2
 21
35.57680209048009
 31
0.0
  0
LINE
  5
23C
330
238
100
AcDbEntity
  8
치수문자_일반주서
 62
     0
370
    -2
100
AcDbLine
 10
53.8
 20
24.5692485541941
 30
0.0
 11
53.8
 21
35.57680209048009
 31
0.0
  0
LINE
  5
23D
330
238
100
AcDbEntity
  8
치수문자_일반주서
 62
     0
370
    -2
100
AcDbLine
 10
75.898
 20
35.57680209048009
 30
0.0
 11
57.102
 21
35.57680209048009
 31
0.0
  0
SOLID
  5
23E
330
238
100
AcDbEntity
  8
치수문자_일반주서
 62
     0
100
AcDbTrace
 10
75.898
 20
35.02646875714676
 30
0.0
 11
75.898
 21
36.12713542381343
 31
0.0
 12
79.2
 22
35.57680209048009
 32
0.0
 13
79.2
 23
35.57680209048009
 33
0.0
  0
SOLID
  5
23F
330
238
100
AcDbEntity
  8
치수문자_일반주서
 62
     0
100
AcDbTrace
 10
57.102
 20
36.12713542381343
 30
0.0
 11
57.102
 21
35.02646875714676
 31
0.0
 12
53.8
 22
35.57680209048009
 32
0.0
 13
53.8
 23
35.57680209048009
 33
0.0
  0
MTEXT
  5
240
330
238
100
AcDbEntity
  8
치수문자_일반주서
 62
     0
100
AcDbMText
 10
66.5
 20
39.95180209048009
 30
0.0
 40
3.5
 41
0.0
 71
     2
 72
     1
  1
\A1;25.40 [1.00]
  7
SLDTEXTSTYLE0
 73
     1
 44
1.0
  0
POINT
  5
241
330
238
100
AcDbEntity
  8
Defpoints
 62
     0
100
AcDbPoint
 10
79.2
 20
25.57680209048008
 30
0.0
  0
POINT
  5
242
330
238
100
AcDbEntity
  8
Defpoints
 62
     0
100
AcDbPoint
 10
53.8
 20
24.5067485541941
 30
0.0
  0
POINT
  5
243
330
238
100
AcDbEntity
  8
Defpoints
 62
     0
100
AcDbPoint
 10
53.8
 20
35.57680209048009
 30
0.0
  0
ENDBLK
  5
23A
330
238
100
AcDbEntity
  8
0
100
AcDbBlockEnd
  0
BLOCK
  5
245
330
244
100
AcDbEntity
  8
0
100
AcDbBlockBegin
  2
*D8
 70
     1
 10
0.0
 20
0.0
 30
0.0
  3
*D8
  1
*D9
  0
LINE
  5
247
330
244
100
AcDbEntity
  8
치수문자_일반주서
 62
     0
370
    -2
100
AcDbLine
 10
79.2
 20
25.63930209048008
 30
0.0
 11
79.20000000000002
 21
49.34335649257072
 31
0.0
  0
LINE
  5
248
330
244
100
AcDbEntity
  8
치수문자_일반주서
 62
     0
370
    -2
100
AcDbLine
 10
2.999999999999993
 20
24.4463992301247
 30
0.0
 11
3.000000000000007
 21
49.34335649257072
 31
0.0
  0
LINE
  5
249
330
244
100
AcDbEntity
  8
치수문자_일반주서
 62
     0
370
    -2
100
AcDbLine
 10
75.89800000000002
 20
49.34335649257072
 30
0.0
 11
6.302000000000007
 21
49.34335649257072
 31
0.0
  0
SOLID
  5
24A
330
244
100
AcDbEntity
  8
치수문자_일반주서
 62
     0
100
AcDbTrace
 10
75.89800000000002
 20
48.79302315923739
 30
0.0
 11
75.89800000000002
 21
49.89368982590405
 31
0.0
 12
79.20000000000002
 22
49.34335649257072
 32
0.0
 13
79.20000000000002
 23
49.34335649257072
 33
0.0
  0
SOLID
  5
24B
330
244
100
AcDbEntity
  8
치수문자_일반주서
 62
     0
100
AcDbTrace
 10
6.302000000000007
 20
49.89368982590405
 30
0.0
 11
6.302000000000007
 21
48.79302315923739
 31
0.0
 12
3.000000000000007
 22
49.34335649257072
 32
0.0
 13
3.000000000000007
 23
49.34335649257072
 33
0.0
  0
MTEXT
  5
24C
330
244
100
AcDbEntity
  8
치수문자_일반주서
 62
     0
100
AcDbMText
 10
41.09999999999999
 20
53.71835649257072
 30
0.0
 40
3.5
 41
0.0
 71
     2
 72
     1
  1
\A1;76.20 [3.00]
  7
SLDTEXTSTYLE0
 73
     1
 44
1.0
  0
POINT
  5
24D
330
244
100
AcDbEntity
  8
Defpoints
 62
     0
100
AcDbPoint
 10
79.2
 20
25.57680209048008
 30
0.0
  0
POINT
  5
24E
330
244
100
AcDbEntity
  8
Defpoints
 62
     0
100
AcDbPoint
 10
2.999999999999993
 20
24.3838992301247
 30
0.0
  0
POINT
  5
24F
330
244
100
AcDbEntity
  8
Defpoints
 62
     0
100
AcDbPoint
 10
2.999999999999993
 20
49.34335649257071
 30
0.0
  0
ENDBLK
  5
246
330
244
100
AcDbEntity
  8
0
100
AcDbBlockEnd
  0
BLOCK
  5
251
330
250
100
AcDbEntity
  8
0
100
AcDbBlockBegin
  2
*D9
 70
     1
 10
0.0
 20
0.0
 30
0.0
  3
*D9
  1
*D10
  0
LINE
  5
253
330
250
100
AcDbEntity
  8
치수문자_일반주서
 62
     0
370
    -2
100
AcDbLine
 10
104.6625
 20
0.0000000000000002
 30
0.0
 11
123.6000000000003
 21
0.0000000000000711
 31
0.0
  0
LINE
  5
254
330
250
100
AcDbEntity
  8
치수문자_일반주서
 62
     0
370
    -2
100
AcDbLine
 10
104.6625
 20
38.06779846024942
 30
0.0
 11
123.6000000000001
 21
38.06779846024949
 31
0.0
  0
LINE
  5
255
330
250
100
AcDbEntity
  8
치수문자_일반주서
 62
     0
370
    -2
100
AcDbLine
 10
123.6000000000001
 20
38.06779846024949
 30
0.0
 11
123.6
 21
90.46779846024957
 31
0.0
  0
LINE
  5
256
330
250
100
AcDbEntity
  8
치수문자_일반주서
 62
     0
370
    -2
100
AcDbLine
 10
123.6000000000002
 20
3.302000000000071
 30
0.0
 11
123.6000000000001
 21
34.76579846024949
 31
0.0
  0
SOLID
  5
257
330
250
100
AcDbEntity
  8
치수문자_일반주서
 62
     0
100
AcDbTrace
 10
123.0496666666669
 20
3.302000000000069
 30
0.0
 11
124.1503333333336
 21
3.302000000000072
 31
0.0
 12
123.6000000000003
 22
0.0000000000000711
 32
0.0
 13
123.6000000000003
 23
0.0000000000000711
 33
0.0
  0
SOLID
  5
258
330
250
100
AcDbEntity
  8
치수문자_일반주서
 62
     0
100
AcDbTrace
 10
124.1503333333335
 20
34.76579846024949
 30
0.0
 11
123.0496666666668
 21
34.76579846024949
 31
0.0
 12
123.6000000000001
 22
38.06779846024949
 32
0.0
 13
123.6000000000001
 23
38.06779846024949
 33
0.0
  0
MTEXT
  5
259
330
250
100
AcDbEntity
  8
치수문자_일반주서
 62
     0
100
AcDbMText
 10
119.225
 20
76.46779846024955
 30
0.0
 40
3.5
 41
0.0
 71
     2
 72
     1
  1
\A1;%%c38.07 [1.50]
  7
SLDTEXTSTYLE0
 11
-3.359734410971242E-15
 21
1.0
 31
0.0
 73
     1
 44
1.0
  0
POINT
  5
25A
330
250
100
AcDbEntity
  8
Defpoints
 62
     0
100
AcDbPoint
 10
104.6
 20
0.0
 30
0.0
  0
POINT
  5
25B
330
250
100
AcDbEntity
  8
Defpoints
 62
     0
100
AcDbPoint
 10
104.6
 20
38.06779846024942
 30
0.0
  0
POINT
  5
25C
330
250
100
AcDbEntity
  8
Defpoints
 62
     0
100
AcDbPoint
 10
123.6
 20
38.06779846024949
 30
0.0
  0
ENDBLK
  5
252
330
250
100
AcDbEntity
  8
0
100
AcDbBlockEnd
  0
BLOCK
  5
283
330
282
100
AcDbEntity
  8
0
100
AcDbBlockBegin
  2
*D10
 70
     1
 10
0.0
 20
0.0
 30
0.0
  3
*D10
  1
*D11
  0
LINE
  5
285
330
282
100
AcDbEntity
  8
치수문자_일반주서
 62
     0
370
    -2
100
AcDbLine
 10
165.2031281524636
 20
-77.46866663302022
 30
0.0
 11
165.2031281524636
 21
-67.5311666330202
 31
0.0
  0
LINE
  5
286
330
282
100
AcDbEntity
  8
치수문자_일반주서
 62
     0
370
    -2
100
AcDbLine
 10
139.8031281524636
 20
-78.5387201693062
 30
0.0
 11
139.8031281524636
 21
-67.5311666330202
 31
0.0
  0
LINE
  5
287
330
282
100
AcDbEntity
  8
치수문자_일반주서
 62
     0
370
    -2
100
AcDbLine
 10
161.9011281524637
 20
-67.5311666330202
 30
0.0
 11
143.1051281524636
 21
-67.5311666330202
 31
0.0
  0
SOLID
  5
288
330
282
100
AcDbEntity
  8
치수문자_일반주서
 62
     0
100
AcDbTrace
 10
161.9011281524637
 20
-68.08149996635353
 30
0.0
 11
161.9011281524637
 21
-66.98083329968688
 31
0.0
 12
165.2031281524636
 22
-67.5311666330202
 32
0.0
 13
165.2031281524636
 23
-67.5311666330202
 33
0.0
  0
SOLID
  5
289
330
282
100
AcDbEntity
  8
치수문자_일반주서
 62
     0
100
AcDbTrace
 10
143.1051281524636
 20
-66.98083329968688
 30
0.0
 11
143.1051281524636
 21
-68.08149996635353
 31
0.0
 12
139.8031281524636
 22
-67.5311666330202
 32
0.0
 13
139.8031281524636
 23
-67.5311666330202
 33
0.0
  0
MTEXT
  5
28A
330
282
100
AcDbEntity
  8
치수문자_일반주서
 62
     0
100
AcDbMText
 10
152.5031281524636
 20
-63.15616663302021
 30
0.0
 40
3.5
 41
0.0
 71
     2
 72
     1
  1
\A1;25.40 [1.00]
  7
SLDTEXTSTYLE0
 73
     1
 44
1.0
  0
POINT
  5
28B
330
282
100
AcDbEntity
  8
Defpoints
 62
     0
100
AcDbPoint
 10
165.2031281524636
 20
-77.53116663302022
 30
0.0
  0
POINT
  5
28C
330
282
100
AcDbEntity
  8
Defpoints
 62
     0
100
AcDbPoint
 10
139.8031281524636
 20
-78.6012201693062
 30
0.0
  0
POINT
  5
28D
330
282
100
AcDbEntity
  8
Defpoints
 62
     0
100
AcDbPoint
 10
139.8031281524636
 20
-67.5311666330202
 30
0.0
  0
ENDBLK
  5
284
330
282
100
AcDbEntity
  8
0
100
AcDbBlockEnd
  0
BLOCK
  5
28F
330
28E
100
AcDbEntity
  8
0
100
AcDbBlockBegin
  2
*D11
 70
     1
 10
0.0
 20
0.0
 30
0.0
  3
*D11
  1
*D12
  0
LINE
  5
291
330
28E
100
AcDbEntity
  8
치수문자_일반주서
 62
     0
370
    -2
100
AcDbLine
 10
165.2031281524636
 20
-77.46866663302022
 30
0.0
 11
165.2031281524636
 21
-53.76461223092959
 31
0.0
  0
LINE
  5
292
330
28E
100
AcDbEntity
  8
치수문자_일반주서
 62
     0
370
    -2
100
AcDbLine
 10
89.00312815246363
 20
-78.6615694933756
 30
0.0
 11
89.00312815246363
 21
-53.76461223092959
 31
0.0
  0
LINE
  5
293
330
28E
100
AcDbEntity
  8
치수문자_일반주서
 62
     0
370
    -2
100
AcDbLine
 10
161.9011281524637
 20
-53.76461223092959
 30
0.0
 11
92.30512815246362
 21
-53.76461223092959
 31
0.0
  0
SOLID
  5
294
330
28E
100
AcDbEntity
  8
치수문자_일반주서
 62
     0
100
AcDbTrace
 10
161.9011281524637
 20
-54.31494556426292
 30
0.0
 11
161.9011281524637
 21
-53.21427889759625
 31
0.0
 12
165.2031281524636
 22
-53.76461223092959
 32
0.0
 13
165.2031281524636
 23
-53.76461223092959
 33
0.0
  0
SOLID
  5
295
330
28E
100
AcDbEntity
  8
치수문자_일반주서
 62
     0
100
AcDbTrace
 10
92.30512815246362
 20
-53.21427889759625
 30
0.0
 11
92.30512815246362
 21
-54.31494556426292
 31
0.0
 12
89.00312815246363
 22
-53.76461223092959
 32
0.0
 13
89.00312815246363
 23
-53.76461223092959
 33
0.0
  0
MTEXT
  5
296
330
28E
100
AcDbEntity
  8
치수문자_일반주서
 62
     0
100
AcDbMText
 10
127.1031281524636
 20
-49.38961223092959
 30
0.0
 40
3.5
 41
0.0
 71
     2
 72
     1
  1
\A1;76.20 [3.00]
  7
SLDTEXTSTYLE0
 73
     1
 44
1.0
  0
POINT
  5
297
330
28E
100
AcDbEntity
  8
Defpoints
 62
     0
100
AcDbPoint
 10
165.2031281524636
 20
-77.53116663302022
 30
0.0
  0
POINT
  5
298
330
28E
100
AcDbEntity
  8
Defpoints
 62
     0
100
AcDbPoint
 10
89.00312815246363
 20
-78.7240694933756
 30
0.0
  0
POINT
  5
299
330
28E
100
AcDbEntity
  8
Defpoints
 62
     0
100
AcDbPoint
 10
89.00312815246363
 20
-53.76461223092959
 30
0.0
  0
ENDBLK
  5
290
330
28E
100
AcDbEntity
  8
0
100
AcDbBlockEnd
  0
BLOCK
  5
29B
330
29A
100
AcDbEntity
  8
0
100
AcDbBlockBegin
  2
*D12
 70
     1
 10
0.0
 20
0.0
 30
0.0
  3
*D12
  1
*D13
  0
LINE
  5
29D
330
29A
100
AcDbEntity
  8
치수문자_일반주서
 62
     0
370
    -2
100
AcDbLine
 10
190.6656281524636
 20
-103.1079687235003
 30
0.0
 11
209.6031281524639
 21
-103.1079687235002
 31
0.0
  0
LINE
  5
29E
330
29A
100
AcDbEntity
  8
치수문자_일반주서
 62
     0
370
    -2
100
AcDbLine
 10
190.6656281524636
 20
-65.04017026325089
 30
0.0
 11
209.6031281524638
 21
-65.04017026325081
 31
0.0
  0
LINE
  5
29F
330
29A
100
AcDbEntity
  8
치수문자_일반주서
 62
     0
370
    -2
100
AcDbLine
 10
209.6031281524638
 20
-65.04017026325081
 30
0.0
 11
209.6031281524636
 21
-12.64017026325074
 31
0.0
  0
LINE
  5
2A0
330
29A
100
AcDbEntity
  8
치수문자_일반주서
 62
     0
370
    -2
100
AcDbLine
 10
209.6031281524639
 20
-99.80596872350023
 30
0.0
 11
209.6031281524638
 21
-68.34217026325081
 31
0.0
  0
SOLID
  5
2A1
330
29A
100
AcDbEntity
  8
치수문자_일반주서
 62
     0
100
AcDbTrace
 10
209.0527948191306
 20
-99.80596872350023
 30
0.0
 11
210.1534614857972
 21
-99.80596872350023
 31
0.0
 12
209.6031281524639
 22
-103.1079687235002
 32
0.0
 13
209.6031281524639
 23
-103.1079687235002
 33
0.0
  0
SOLID
  5
2A2
330
29A
100
AcDbEntity
  8
치수문자_일반주서
 62
     0
100
AcDbTrace
 10
210.1534614857971
 20
-68.34217026325081
 30
0.0
 11
209.0527948191304
 21
-68.34217026325081
 31
0.0
 12
209.6031281524638
 22
-65.04017026325081
 32
0.0
 13
209.6031281524638
 23
-65.04017026325081
 33
0.0
  0
MTEXT
  5
2A3
330
29A
100
AcDbEntity
  8
치수문자_일반주서
 62
     0
100
AcDbMText
 10
205.2281281524636
 20
-26.64017026325076
 30
0.0
 40
3.5
 41
0.0
 71
     2
 72
     1
  1
\A1;%%c38.07 [1.50]
  7
SLDTEXTSTYLE0
 11
-3.733038234412491E-15
 21
1.0
 31
0.0
 73
     1
 44
1.0
  0
POINT
  5
2A4
330
29A
100
AcDbEntity
  8
Defpoints
 62
     0
100
AcDbPoint
 10
190.6031281524636
 20
-103.1079687235003
 30
0.0
  0
POINT
  5
2A5
330
29A
100
AcDbEntity
  8
Defpoints
 62
     0
100
AcDbPoint
 10
190.6031281524636
 20
-65.04017026325089
 30
0.0
  0
POINT
  5
2A6
330
29A
100
AcDbEntity
  8
Defpoints
 62
     0
100
AcDbPoint
 10
209.6031281524637
 20
-65.04017026325081
 30
0.0
  0
ENDBLK
  5
29C
330
29A
100
AcDbEntity
  8
0
100
AcDbBlockEnd
  0
BLOCK
  5
363
330
362
100
AcDbEntity
  8
0
100
AcDbBlockBegin
  2
*D13
 70
     1
 10
0.0
 20
0.0
 30
0.0
  3
*D13
  1
*D15
  0
LINE
  5
365
330
362
100
AcDbEntity
  8
치수문자_일반주서
 62
     0
370
    -2
100
AcDbLine
 10
17.81250000000003
 20
56.32180738881174
 30
0.0
 11
4.374999999999999
 21
56.32180738881169
 31
0.0
  0
LINE
  5
366
330
362
100
AcDbEntity
  8
치수문자_일반주서
 62
     0
370
    -2
100
AcDbLine
 10
17.81250000000003
 20
43.62180738881175
 30
0.0
 11
4.375000000000044
 21
43.6218073888117
 31
0.0
  0
LINE
  5
367
330
362
100
AcDbEntity
  8
치수문자_일반주서
 62
     0
370
    -2
100
AcDbLine
 10
4.375000000000011
 20
53.01980738881169
 30
0.0
 11
4.375000000000032
 21
46.9238073888117
 31
0.0
  0
SOLID
  5
368
330
362
100
AcDbEntity
  8
치수문자_일반주서
 62
     0
100
AcDbTrace
 10
4.925333333333344
 20
53.01980738881169
 30
0.0
 11
3.824666666666677
 21
53.01980738881169
 31
0.0
 12
4.374999999999999
 22
56.32180738881169
 32
0.0
 13
4.374999999999999
 23
56.32180738881169
 33
0.0
  0
SOLID
  5
369
330
362
100
AcDbEntity
  8
치수문자_일반주서
 62
     0
100
AcDbTrace
 10
3.824666666666698
 20
46.9238073888117
 30
0.0
 11
4.925333333333366
 21
46.9238073888117
 31
0.0
 12
4.375000000000044
 22
43.6218073888117
 32
0.0
 13
4.375000000000044
 23
43.6218073888117
 33
0.0
  0
MTEXT
  5
36A
330
362
100
AcDbEntity
  8
치수문자_일반주서
 62
     0
100
AcDbMText
 10
0.0000000000000213
 20
49.97180738881173
 30
0.0
 40
3.5
 41
0.0
 71
     2
 72
     1
  1
\A1;%%c12.7 [0.50]
  7
SLDTEXTSTYLE0
 11
-3.496765431890260E-15
 21
1.0
 31
0.0
 73
     1
 44
1.0
  0
POINT
  5
36B
330
362
100
AcDbEntity
  8
Defpoints
 62
     0
100
AcDbPoint
 10
17.87500000000003
 20
56.32180738881174
 30
0.0
  0
POINT
  5
36C
330
362
100
AcDbEntity
  8
Defpoints
 62
     0
100
AcDbPoint
 10
17.87500000000003
 20
43.62180738881175
 30
0.0
  0
POINT
  5
36D
330
362
100
AcDbEntity
  8
Defpoints
 62
     0
100
AcDbPoint
 10
4.375000000000021
 20
43.6218073888117
 30
0.0
  0
ENDBLK
  5
364
330
362
100
AcDbEntity
  8
0
100
AcDbBlockEnd
  0
BLOCK
  5
36F
330
36E
100
AcDbEntity
  8
0
100
AcDbBlockBegin
  2
*D14
 70
     1
 10
0.0
 20
0.0
 30
0.0
  3
*D14
  1
*D16
  0
LINE
  5
371
330
36E
100
AcDbEntity
  8
치수문자_일반주서
 62
     0
370
    -2
100
AcDbLine
 10
93.07500000000003
 20
56.57721024916712
 30
0.0
 11
93.07500000000003
 21
66.51471024916712
 31
0.0
  0
LINE
  5
372
330
36E
100
AcDbEntity
  8
치수문자_일반주서
 62
     0
370
    -2
100
AcDbLine
 10
67.67500000000004
 20
55.50715671288114
 30
0.0
 11
67.67500000000004
 21
66.51471024916712
 31
0.0
  0
LINE
  5
373
330
36E
100
AcDbEntity
  8
치수문자_일반주서
 62
     0
370
    -2
100
AcDbLine
 10
89.77300000000002
 20
66.51471024916712
 30
0.0
 11
70.97700000000005
 21
66.51471024916712
 31
0.0
  0
SOLID
  5
374
330
36E
100
AcDbEntity
  8
치수문자_일반주서
 62
     0
100
AcDbTrace
 10
89.77300000000002
 20
65.9643769158338
 30
0.0
 11
89.77300000000002
 21
67.06504358250045
 31
0.0
 12
93.07500000000003
 22
66.51471024916712
 32
0.0
 13
93.07500000000003
 23
66.51471024916712
 33
0.0
  0
SOLID
  5
375
330
36E
100
AcDbEntity
  8
치수문자_일반주서
 62
     0
100
AcDbTrace
 10
70.97700000000005
 20
67.06504358250045
 30
0.0
 11
70.97700000000005
 21
65.9643769158338
 31
0.0
 12
67.67500000000004
 22
66.51471024916712
 32
0.0
 13
67.67500000000004
 23
66.51471024916712
 33
0.0
  0
MTEXT
  5
376
330
36E
100
AcDbEntity
  8
치수문자_일반주서
 62
     0
100
AcDbMText
 10
80.37500000000003
 20
70.88971024916712
 30
0.0
 40
3.5
 41
0.0
 71
     2
 72
     1
  1
\A1;25.40 [1.00]
  7
SLDTEXTSTYLE0
 73
     1
 44
1.0
  0
POINT
  5
377
330
36E
100
AcDbEntity
  8
Defpoints
 62
     0
100
AcDbPoint
 10
93.07500000000003
 20
56.51471024916712
 30
0.0
  0
POINT
  5
378
330
36E
100
AcDbEntity
  8
Defpoints
 62
     0
100
AcDbPoint
 10
67.67500000000004
 20
55.44465671288114
 30
0.0
  0
POINT
  5
379
330
36E
100
AcDbEntity
  8
Defpoints
 62
     0
100
AcDbPoint
 10
67.67500000000004
 20
66.51471024916712
 30
0.0
  0
ENDBLK
  5
370
330
36E
100
AcDbEntity
  8
0
100
AcDbBlockEnd
  0
BLOCK
  5
37B
330
37A
100
AcDbEntity
  8
0
100
AcDbBlockBegin
  2
*D15
 70
     1
 10
0.0
 20
0.0
 30
0.0
  3
*D15
  1
*D17
  0
LINE
  5
37D
330
37A
100
AcDbEntity
  8
치수문자_일반주서
 62
     0
370
    -2
100
AcDbLine
 10
93.07500000000003
 20
56.57721024916712
 30
0.0
 11
93.07500000000003
 21
80.28126465125774
 31
0.0
  0
LINE
  5
37E
330
37A
100
AcDbEntity
  8
치수문자_일반주서
 62
     0
370
    -2
100
AcDbLine
 10
16.87500000000003
 20
55.38430738881174
 30
0.0
 11
16.87500000000003
 21
80.28126465125774
 31
0.0
  0
LINE
  5
37F
330
37A
100
AcDbEntity
  8
치수문자_일반주서
 62
     0
370
    -2
100
AcDbLine
 10
89.77300000000002
 20
80.28126465125774
 30
0.0
 11
20.17700000000003
 21
80.28126465125774
 31
0.0
  0
SOLID
  5
380
330
37A
100
AcDbEntity
  8
치수문자_일반주서
 62
     0
100
AcDbTrace
 10
89.77300000000002
 20
79.73093131792442
 30
0.0
 11
89.77300000000002
 21
80.83159798459107
 31
0.0
 12
93.07500000000003
 22
80.28126465125774
 32
0.0
 13
93.07500000000003
 23
80.28126465125774
 33
0.0
  0
SOLID
  5
381
330
37A
100
AcDbEntity
  8
치수문자_일반주서
 62
     0
100
AcDbTrace
 10
20.17700000000003
 20
80.83159798459107
 30
0.0
 11
20.17700000000003
 21
79.73093131792442
 31
0.0
 12
16.87500000000003
 22
80.28126465125774
 32
0.0
 13
16.87500000000003
 23
80.28126465125774
 33
0.0
  0
MTEXT
  5
382
330
37A
100
AcDbEntity
  8
치수문자_일반주서
 62
     0
100
AcDbMText
 10
54.97500000000003
 20
84.65626465125774
 30
0.0
 40
3.5
 41
0.0
 71
     2
 72
     1
  1
\A1;76.20 [3.00]
  7
SLDTEXTSTYLE0
 73
     1
 44
1.0
  0
POINT
  5
383
330
37A
100
AcDbEntity
  8
Defpoints
 62
     0
100
AcDbPoint
 10
93.07500000000003
 20
56.51471024916712
 30
0.0
  0
POINT
  5
384
330
37A
100
AcDbEntity
  8
Defpoints
 62
     0
100
AcDbPoint
 10
16.87500000000003
 20
55.32180738881174
 30
0.0
  0
POINT
  5
385
330
37A
100
AcDbEntity
  8
Defpoints
 62
     0
100
AcDbPoint
 10
16.87500000000003
 20
80.28126465125774
 30
0.0
  0
ENDBLK
  5
37C
330
37A
100
AcDbEntity
  8
0
100
AcDbBlockEnd
  0
BLOCK
  5
387
330
386
100
AcDbEntity
  8
0
100
AcDbBlockBegin
  2
*D16
 70
     1
 10
0.0
 20
0.0
 30
0.0
  3
*D16
  1
*D18
  0
LINE
  5
389
330
386
100
AcDbEntity
  8
치수문자_일반주서
 62
     0
370
    -2
100
AcDbLine
 10
118.5375
 20
30.93790815868703
 30
0.0
 11
137.4750000000003
 21
30.93790815868711
 31
0.0
  0
LINE
  5
38A
330
386
100
AcDbEntity
  8
치수문자_일반주서
 62
     0
370
    -2
100
AcDbLine
 10
118.5375
 20
69.00570661893646
 30
0.0
 11
137.4750000000002
 21
69.00570661893653
 31
0.0
  0
LINE
  5
38B
330
386
100
AcDbEntity
  8
치수문자_일반주서
 62
     0
370
    -2
100
AcDbLine
 10
137.4750000000002
 20
69.00570661893653
 30
0.0
 11
137.475
 21
121.4057066189366
 31
0.0
  0
LINE
  5
38C
330
386
100
AcDbEntity
  8
치수문자_일반주서
 62
     0
370
    -2
100
AcDbLine
 10
137.4750000000003
 20
34.23990815868711
 30
0.0
 11
137.4750000000002
 21
65.70370661893654
 31
0.0
  0
SOLID
  5
38D
330
386
100
AcDbEntity
  8
치수문자_일반주서
 62
     0
100
AcDbTrace
 10
136.924666666667
 20
34.23990815868711
 30
0.0
 11
138.0253333333336
 21
34.23990815868711
 31
0.0
 12
137.4750000000003
 22
30.93790815868711
 32
0.0
 13
137.4750000000003
 23
30.93790815868711
 33
0.0
  0
SOLID
  5
38E
330
386
100
AcDbEntity
  8
치수문자_일반주서
 62
     0
100
AcDbTrace
 10
138.0253333333335
 20
65.70370661893654
 30
0.0
 11
136.9246666666668
 21
65.70370661893654
 31
0.0
 12
137.4750000000002
 22
69.00570661893653
 32
0.0
 13
137.4750000000002
 23
69.00570661893653
 33
0.0
  0
MTEXT
  5
38F
330
386
100
AcDbEntity
  8
치수문자_일반주서
 62
     0
100
AcDbMText
 10
133.1
 20
107.4057066189366
 30
0.0
 40
3.5
 41
0.0
 71
     2
 72
     1
  1
\A1;%%c38.07 [1.50]
  7
SLDTEXTSTYLE0
 11
-3.733038234412491E-15
 21
1.0
 31
0.0
 73
     1
 44
1.0
  0
POINT
  5
390
330
386
100
AcDbEntity
  8
Defpoints
 62
     0
100
AcDbPoint
 10
118.475
 20
30.93790815868703
 30
0.0
  0
POINT
  5
391
330
386
100
AcDbEntity
  8
Defpoints
 62
     0
100
AcDbPoint
 10
118.475
 20
69.00570661893646
 30
0.0
  0
POINT
  5
392
330
386
100
AcDbEntity
  8
Defpoints
 62
     0
100
AcDbPoint
 10
137.4750000000001
 20
69.00570661893653
 30
0.0
  0
ENDBLK
  5
388
330
386
100
AcDbEntity
  8
0
100
AcDbBlockEnd
  0
BLOCK
  5
3C1
330
3C0
100
AcDbEntity
  8
0
100
AcDbBlockBegin
  2
*D17
 70
     1
 10
0.0
 20
0.0
 30
0.0
  3
*D17
  1
*D19
  0
LINE
  5
3C3
330
3C0
100
AcDbEntity
  8
치수문자_일반주서
 62
     0
370
    -2
100
AcDbLine
 10
172.5818320371808
 20
125.0225122005989
 30
0.0
 11
159.1443320371808
 21
125.0225122005989
 31
0.0
  0
LINE
  5
3C4
330
3C0
100
AcDbEntity
  8
치수문자_일반주서
 62
     0
370
    -2
100
AcDbLine
 10
172.5818320371808
 20
112.3225122005989
 30
0.0
 11
159.1443320371808
 21
112.3225122005989
 31
0.0
  0
LINE
  5
3C5
330
3C0
100
AcDbEntity
  8
치수문자_일반주서
 62
     0
370
    -2
100
AcDbLine
 10
159.1443320371808
 20
121.7205122005989
 30
0.0
 11
159.1443320371808
 21
115.6245122005989
 31
0.0
  0
SOLID
  5
3C6
330
3C0
100
AcDbEntity
  8
치수문자_일반주서
 62
     0
100
AcDbTrace
 10
159.6946653705141
 20
121.7205122005989
 30
0.0
 11
158.5939987038475
 21
121.7205122005989
 31
0.0
 12
159.1443320371808
 22
125.0225122005989
 32
0.0
 13
159.1443320371808
 23
125.0225122005989
 33
0.0
  0
SOLID
  5
3C7
330
3C0
100
AcDbEntity
  8
치수문자_일반주서
 62
     0
100
AcDbTrace
 10
158.5939987038475
 20
115.6245122005989
 30
0.0
 11
159.6946653705141
 21
115.6245122005989
 31
0.0
 12
159.1443320371808
 22
112.3225122005989
 32
0.0
 13
159.1443320371808
 23
112.3225122005989
 33
0.0
  0
MTEXT
  5
3C8
330
3C0
100
AcDbEntity
  8
치수문자_일반주서
 62
     0
100
AcDbMText
 10
154.7693320371808
 20
118.6725122005989
 30
0.0
 40
3.5
 41
0.0
 71
     2
 72
     1
  1
\A1;%%c12.7 [0.50]
  7
SLDTEXTSTYLE0
 11
-4.475859752819533E-15
 21
1.0
 31
0.0
 73
     1
 44
1.0
  0
POINT
  5
3C9
330
3C0
100
AcDbEntity
  8
Defpoints
 62
     0
100
AcDbPoint
 10
172.6443320371808
 20
125.0225122005989
 30
0.0
  0
POINT
  5
3CA
330
3C0
100
AcDbEntity
  8
Defpoints
 62
     0
100
AcDbPoint
 10
172.6443320371808
 20
112.3225122005989
 30
0.0
  0
POINT
  5
3CB
330
3C0
100
AcDbEntity
  8
Defpoints
 62
     0
100
AcDbPoint
 10
159.1443320371808
 20
112.3225122005989
 30
0.0
  0
ENDBLK
  5
3C2
330
3C0
100
AcDbEntity
  8
0
100
AcDbBlockEnd
  0
BLOCK
  5
3CD
330
3CC
100
AcDbEntity
  8
0
100
AcDbBlockBegin
  2
*D18
 70
     1
 10
0.0
 20
0.0
 30
0.0
  3
*D18
  1
*D20
  0
LINE
  5
3CF
330
3CC
100
AcDbEntity
  8
치수문자_일반주서
 62
     0
370
    -2
100
AcDbLine
 10
52.79999999999997
 20
19.11250000000002
 30
0.0
 11
52.79999999999997
 21
27.15787164837827
 31
0.0
  0
LINE
  5
3D0
330
3CC
100
AcDbEntity
  8
치수문자_일반주서
 62
     0
370
    -2
100
AcDbLine
 10
2.000000000000014
 20
15.93750000000001
 30
0.0
 11
2.000000000000014
 21
27.15787164837827
 31
0.0
  0
LINE
  5
3D1
330
3CC
100
AcDbEntity
  8
치수문자_일반주서
 62
     0
370
    -2
100
AcDbLine
 10
49.49799999999997
 20
27.15787164837827
 30
0.0
 11
5.302000000000014
 21
27.15787164837827
 31
0.0
  0
SOLID
  5
3D2
330
3CC
100
AcDbEntity
  8
치수문자_일반주서
 62
     0
100
AcDbTrace
 10
49.49799999999997
 20
26.60753831504493
 30
0.0
 11
49.49799999999997
 21
27.7082049817116
 31
0.0
 12
52.79999999999997
 22
27.15787164837827
 32
0.0
 13
52.79999999999997
 23
27.15787164837827
 33
0.0
  0
SOLID
  5
3D3
330
3CC
100
AcDbEntity
  8
치수문자_일반주서
 62
     0
100
AcDbTrace
 10
5.302000000000014
 20
27.7082049817116
 30
0.0
 11
5.302000000000014
 21
26.60753831504493
 31
0.0
 12
2.000000000000014
 22
27.15787164837827
 32
0.0
 13
2.000000000000014
 23
27.15787164837827
 33
0.0
  0
MTEXT
  5
3D4
330
3CC
100
AcDbEntity
  8
치수문자_일반주서
 62
     0
100
AcDbMText
 10
30.02869553787464
 20
31.53287164837827
 30
0.0
 40
3.5
 41
0.0
 71
     2
 72
     1
  1
\A1;50.8 [2]
  7
SLDTEXTSTYLE0
 73
     1
 44
1.0
  0
POINT
  5
3D5
330
3CC
100
AcDbEntity
  8
Defpoints
 62
     0
100
AcDbPoint
 10
52.79999999999997
 20
19.05000000000002
 30
0.0
  0
POINT
  5
3D6
330
3CC
100
AcDbEntity
  8
Defpoints
 62
     0
100
AcDbPoint
 10
2.000000000000014
 20
15.87500000000001
 30
0.0
  0
POINT
  5
3D7
330
3CC
100
AcDbEntity
  8
Defpoints
 62
     0
100
AcDbPoint
 10
2.000000000000014
 20
27.15787164837827
 30
0.0
  0
ENDBLK
  5
3CE
330
3CC
100
AcDbEntity
  8
0
100
AcDbBlockEnd
  0
BLOCK
  5
3D9
330
3D8
100
AcDbEntity
  8
0
100
AcDbBlockBegin
  2
*D19
 70
     1
 10
0.0
 20
0.0
 30
0.0
  3
*D19
  1
*D21
  0
LINE
  5
3DB
330
3D8
100
AcDbEntity
  8
0
  6
Continuous
 62
     0
370
    -2
100
AcDbLine
 10
247.8443320371808
 20
125.2779150609543
 30
0.0
 11
247.8443320371808
 21
148.9819694630449
 31
0.0
  0
LINE
  5
3DC
330
3D8
100
AcDbEntity
  8
0
  6
Continuous
 62
     0
370
    -2
100
AcDbLine
 10
171.6443320371808
 20
124.0850122005989
 30
0.0
 11
171.6443320371808
 21
148.9819694630449
 31
0.0
  0
LINE
  5
3DD
330
3D8
100
AcDbEntity
  8
0
  6
Continuous
 62
     0
370
    -2
100
AcDbLine
 10
244.5423320371808
 20
148.9819694630449
 30
0.0
 11
174.9463320371808
 21
148.9819694630449
 31
0.0
  0
SOLID
  5
3DE
330
3D8
100
AcDbEntity
  8
0
 62
     0
100
AcDbTrace
 10
244.5423320371808
 20
148.4316361297116
 30
0.0
 11
244.5423320371808
 21
149.5323027963782
 31
0.0
 12
247.8443320371808
 22
148.9819694630449
 32
0.0
 13
247.8443320371808
 23
148.9819694630449
 33
0.0
  0
SOLID
  5
3DF
330
3D8
100
AcDbEntity
  8
0
 62
     0
100
AcDbTrace
 10
174.9463320371808
 20
149.5323027963782
 30
0.0
 11
174.9463320371808
 21
148.4316361297116
 31
0.0
 12
171.6443320371808
 22
148.9819694630449
 32
0.0
 13
171.6443320371808
 23
148.9819694630449
 33
0.0
  0
MTEXT
  5
3E0
330
3D8
100
AcDbEntity
  8
0
 62
     0
370
    15
100
AcDbMText
 10
209.7443320371808
 20
153.3569694630449
 30
0.0
 40
3.5
 41
0.0
 71
     2
 72
     1
  1
\A1;76.20 [3.00]
  7
SLDTEXTSTYLE0
 73
     1
 44
1.0
  0
POINT
  5
3E1
330
3D8
100
AcDbEntity
  8
Defpoints
 62
     0
100
AcDbPoint
 10
247.8443320371808
 20
125.2154150609543
 30
0.0
  0
POINT
  5
3E2
330
3D8
100
AcDbEntity
  8
Defpoints
 62
     0
100
AcDbPoint
 10
171.6443320371808
 20
124.0225122005989
 30
0.0
  0
POINT
  5
3E3
330
3D8
100
AcDbEntity
  8
Defpoints
 62
     0
100
AcDbPoint
 10
171.6443320371808
 20
148.9819694630449
 30
0.0
  0
ENDBLK
  5
3DA
330
3D8
100
AcDbEntity
  8
0
100
AcDbBlockEnd
  0
BLOCK
  5
3E5
330
3E4
100
AcDbEntity
  8
0
100
AcDbBlockBegin
  2
*D20
 70
     1
 10
0.0
 20
0.0
 30
0.0
  3
*D20
  1
*D22
  0
LINE
  5
3E7
330
3E4
100
AcDbEntity
  8
치수문자_일반주서
 62
     0
370
    -2
100
AcDbLine
 10
52.86249999999997
 20
-19.04999999999999
 30
0.0
 11
71.80000000000017
 21
-19.04999999999992
 31
0.0
  0
LINE
  5
3E8
330
3E4
100
AcDbEntity
  8
치수문자_일반주서
 62
     0
370
    -2
100
AcDbLine
 10
52.86249999999997
 20
19.05000000000002
 30
0.0
 11
71.80000000000004
 21
19.05000000000009
 31
0.0
  0
LINE
  5
3E9
330
3E4
100
AcDbEntity
  8
치수문자_일반주서
 62
     0
370
    -2
100
AcDbLine
 10
71.80000000000004
 20
19.05000000000009
 30
0.0
 11
71.79999999999993
 21
55.19534697194272
 31
0.0
  0
LINE
  5
3EA
330
3E4
100
AcDbEntity
  8
치수문자_일반주서
 62
     0
370
    -2
100
AcDbLine
 10
71.80000000000015
 20
-15.74799999999992
 30
0.0
 11
71.80000000000005
 21
15.74800000000009
 31
0.0
  0
SOLID
  5
3EB
330
3E4
100
AcDbEntity
  8
치수문자_일반주서
 62
     0
100
AcDbTrace
 10
71.24966666666683
 20
-15.74799999999992
 30
0.0
 11
72.35033333333348
 21
-15.74799999999992
 31
0.0
 12
71.80000000000017
 22
-19.04999999999992
 32
0.0
 13
71.80000000000017
 23
-19.04999999999992
 33
0.0
  0
SOLID
  5
3EC
330
3E4
100
AcDbEntity
  8
치수문자_일반주서
 62
     0
100
AcDbTrace
 10
72.35033333333338
 20
15.74800000000009
 30
0.0
 11
71.24966666666673
 21
15.74800000000009
 31
0.0
 12
71.80000000000004
 22
19.05000000000009
 32
0.0
 13
71.80000000000004
 23
19.05000000000009
 33
0.0
  0
MTEXT
  5
3ED
330
3E4
100
AcDbEntity
  8
치수문자_일반주서
 62
     0
100
AcDbMText
 10
67.42499999999997
 20
40.7578469719427
 30
0.0
 40
3.5
 41
0.0
 71
     2
 72
     1
  1
\A1;%%c38.1 [1 1/2]
  7
SLDTEXTSTYLE0
 11
-3.356894814614646E-15
 21
1.0
 31
0.0
 73
     1
 44
1.0
  0
POINT
  5
3EE
330
3E4
100
AcDbEntity
  8
Defpoints
 62
     0
100
AcDbPoint
 10
52.79999999999997
 20
-19.04999999999999
 30
0.0
  0
POINT
  5
3EF
330
3E4
100
AcDbEntity
  8
Defpoints
 62
     0
100
AcDbPoint
 10
52.79999999999997
 20
19.05000000000002
 30
0.0
  0
POINT
  5
3F0
330
3E4
100
AcDbEntity
  8
Defpoints
 62
     0
100
AcDbPoint
 10
71.80000000000004
 20
19.05000000000009
 30
0.0
  0
ENDBLK
  5
3E6
330
3E4
100
AcDbEntity
  8
0
100
AcDbBlockEnd
  0
BLOCK
  5
3FC
330
3FB
100
AcDbEntity
  8
0
100
AcDbBlockBegin
  2
*D21
 70
     1
 10
0.0
 20
0.0
 30
0.0
  3
*D21
  1
*D23
  0
LINE
  5
3FE
330
3FB
100
AcDbEntity
  8
치수문자_일반주서
 62
     0
370
    -2
100
AcDbLine
 10
-60.56250000000003
 20
15.87500000000002
 30
0.0
 11
-74.00000000000009
 21
15.87499999999997
 31
0.0
  0
LINE
  5
3FF
330
3FB
100
AcDbEntity
  8
치수문자_일반주서
 62
     0
370
    -2
100
AcDbLine
 10
-60.56250000000003
 20
-15.87499999999999
 30
0.0
 11
-73.99999999999997
 21
-15.87500000000004
 31
0.0
  0
LINE
  5
400
330
3FB
100
AcDbEntity
  8
치수문자_일반주서
 62
     0
370
    -2
100
AcDbLine
 10
-74.00000000000007
 20
12.57299999999997
 30
0.0
 11
-73.99999999999999
 21
-12.57300000000004
 31
0.0
  0
SOLID
  5
401
330
3FB
100
AcDbEntity
  8
치수문자_일반주서
 62
     0
100
AcDbTrace
 10
-73.44966666666674
 20
12.57299999999997
 30
0.0
 11
-74.5503333333334
 21
12.57299999999997
 31
0.0
 12
-74.00000000000009
 22
15.87499999999997
 32
0.0
 13
-74.00000000000009
 23
15.87499999999997
 33
0.0
  0
SOLID
  5
402
330
3FB
100
AcDbEntity
  8
치수문자_일반주서
 62
     0
100
AcDbTrace
 10
-74.55033333333331
 20
-12.57300000000004
 30
0.0
 11
-73.44966666666666
 21
-12.57300000000004
 31
0.0
 12
-73.99999999999997
 22
-15.87500000000004
 32
0.0
 13
-73.99999999999997
 23
-15.87500000000004
 33
0.0
  0
MTEXT
  5
403
330
3FB
100
AcDbEntity
  8
치수문자_일반주서
 62
     0
100
AcDbMText
 10
-78.37500000000003
 20
0.0000000000000059
 30
0.0
 40
3.5
 41
0.0
 71
     2
 72
     1
  1
\A1;%%c31.75 [1 1/4]
  7
SLDTEXTSTYLE0
 11
-3.580687802255621E-15
 21
1.0
 31
0.0
 73
     1
 44
1.0
  0
POINT
  5
404
330
3FB
100
AcDbEntity
  8
Defpoints
 62
     0
100
AcDbPoint
 10
-60.50000000000003
 20
15.87500000000002
 30
0.0
  0
POINT
  5
405
330
3FB
100
AcDbEntity
  8
Defpoints
 62
     0
100
AcDbPoint
 10
-60.50000000000003
 20
-15.87499999999999
 30
0.0
  0
POINT
  5
406
330
3FB
100
AcDbEntity
  8
Defpoints
 62
     0
100
AcDbPoint
 10
-73.99999999999997
 20
-15.87500000000004
 30
0.0
  0
ENDBLK
  5
3FD
330
3FB
100
AcDbEntity
  8
0
100
AcDbBlockEnd
  0
BLOCK
  5
408
330
407
100
AcDbEntity
  8
0
100
AcDbBlockBegin
  2
*D22
 70
     1
 10
0.0
 20
0.0
 30
0.0
  3
*D22
  1
*D24
  0
LINE
  5
40A
330
407
100
AcDbEntity
  8
치수문자_일반주서
 62
     0
370
    -2
100
AcDbLine
 10
52.79999999999997
 20
19.11250000000002
 30
0.0
 11
52.79999999999997
 21
45.58996586444055
 31
0.0
  0
LINE
  5
40B
330
407
100
AcDbEntity
  8
치수문자_일반주서
 62
     0
370
    -2
100
AcDbLine
 10
-61.50000000000003
 20
14.93749999999999
 30
0.0
 11
-61.50000000000003
 21
45.58996586444055
 31
0.0
  0
LINE
  5
40C
330
407
100
AcDbEntity
  8
치수문자_일반주서
 62
     0
370
    -2
100
AcDbLine
 10
49.49799999999997
 20
45.58996586444055
 30
0.0
 11
-58.19800000000003
 21
45.58996586444055
 31
0.0
  0
SOLID
  5
40D
330
407
100
AcDbEntity
  8
치수문자_일반주서
 62
     0
100
AcDbTrace
 10
49.49799999999997
 20
45.03963253110722
 30
0.0
 11
49.49799999999997
 21
46.14029919777388
 31
0.0
 12
52.79999999999997
 22
45.58996586444055
 32
0.0
 13
52.79999999999997
 23
45.58996586444055
 33
0.0
  0
SOLID
  5
40E
330
407
100
AcDbEntity
  8
치수문자_일반주서
 62
     0
100
AcDbTrace
 10
-58.19800000000003
 20
46.14029919777388
 30
0.0
 11
-58.19800000000003
 21
45.03963253110722
 31
0.0
 12
-61.50000000000003
 22
45.58996586444055
 32
0.0
 13
-61.50000000000003
 23
45.58996586444055
 33
0.0
  0
MTEXT
  5
40F
330
407
100
AcDbEntity
  8
치수문자_일반주서
 62
     0
100
AcDbMText
 10
-4.350000000000165
 20
49.96496586444055
 30
0.0
 40
3.5
 41
0.0
 71
     2
 72
     1
  1
\A1;114.3 [4 1/2]
  7
SLDTEXTSTYLE0
 73
     1
 44
1.0
  0
POINT
  5
410
330
407
100
AcDbEntity
  8
Defpoints
 62
     0
100
AcDbPoint
 10
52.79999999999997
 20
19.05000000000002
 30
0.0
  0
POINT
  5
411
330
407
100
AcDbEntity
  8
Defpoints
 62
     0
100
AcDbPoint
 10
-61.50000000000003
 20
14.87499999999999
 30
0.0
  0
POINT
  5
412
330
407
100
AcDbEntity
  8
Defpoints
 62
     0
100
AcDbPoint
 10
-61.50000000000003
 20
45.58996586444055
 30
0.0
  0
ENDBLK
  5
409
330
407
100
AcDbEntity
  8
0
100
AcDbBlockEnd
  0
BLOCK
  5
450
330
44F
100
AcDbEntity
  8
0
100
AcDbBlockBegin
  2
*D23
 70
     1
 10
0.0
 20
0.0
 30
0.0
  3
*D23
  1
*D26
  0
LINE
  5
452
330
44F
100
AcDbEntity
  8
0
 62
     0
370
    -2
100
AcDbLine
 10
-65.41646942134602
 20
-0.189457228315008
 30
0.0
 11
-41.37246157525173
 21
-0.1894572283150106
 31
0.0
  0
LINE
  5
453
330
44F
100
AcDbEntity
  8
0
 62
     0
370
    -2
100
AcDbLine
 10
-47.32947277478223
 20
15.68554277168501
 30
0.0
 11
-41.37246157525173
 21
15.68554277168501
 31
0.0
  0
LINE
  5
454
330
44F
100
AcDbEntity
  8
0
 62
     0
370
    -2
100
AcDbLine
 10
-42.37246157525173
 20
18.98754277168501
 30
0.0
 11
-27.43179490858505
 21
18.98754277168501
 31
0.0
  0
LINE
  5
455
330
44F
100
AcDbEntity
  8
0
 62
     0
370
    -2
100
AcDbLine
 10
-42.37246157525173
 20
3.11254277168499
 30
0.0
 11
-42.37246157525173
 21
12.38354277168501
 31
0.0
  0
LINE
  5
456
330
44F
100
AcDbEntity
  8
0
 62
     0
370
    -2
100
AcDbLine
 10
-42.37246157525173
 20
15.68554277168501
 30
0.0
 11
-42.37246157525173
 21
18.98754277168501
 31
0.0
  0
SOLID
  5
457
330
44F
100
AcDbEntity
  8
0
 62
     0
100
AcDbTrace
 10
-42.92279490858506
 20
3.11254277168499
 30
0.0
 11
-41.82212824191839
 21
3.11254277168499
 31
0.0
 12
-42.37246157525173
 22
-0.1894572283150104
 32
0.0
 13
-42.37246157525173
 23
-0.1894572283150104
 33
0.0
  0
SOLID
  5
458
330
44F
100
AcDbEntity
  8
0
 62
     0
100
AcDbTrace
 10
-41.82212824191839
 20
12.38354277168501
 30
0.0
 11
-42.92279490858506
 21
12.38354277168501
 31
0.0
 12
-42.37246157525173
 22
15.68554277168501
 32
0.0
 13
-42.37246157525173
 23
15.68554277168501
 33
0.0
  0
MTEXT
  5
459
330
44F
100
AcDbEntity
  8
0
 62
     0
100
AcDbMText
 10
-34.14012824191839
 20
22.55320943835167
 30
0.0
 40
3.5
 41
0.0
 71
     5
 72
     1
  1
15,88
 73
     1
 44
1.0
  0
POINT
  5
45A
330
44F
100
AcDbEntity
  8
Defpoints
 62
     0
100
AcDbPoint
 10
-66.41646942134602
 20
-0.1894572283150079
 30
0.0
  0
POINT
  5
45B
330
44F
100
AcDbEntity
  8
Defpoints
 62
     0
100
AcDbPoint
 10
-48.32947277478223
 20
15.68554277168501
 30
0.0
  0
POINT
  5
45C
330
44F
100
AcDbEntity
  8
Defpoints
 62
     0
100
AcDbPoint
 10
-42.37246157525173
 20
15.68554277168501
 30
0.0
  0
ENDBLK
  5
451
330
44F
100
AcDbEntity
  8
0
100
AcDbBlockEnd
  0
BLOCK
  5
515
330
514
100
AcDbEntity
  8
0
100
AcDbBlockBegin
  2
*D24
 70
     1
 10
0.0
 20
0.0
 30
0.0
  3
*D24
  1
*D28
  0
LINE
  5
517
330
514
100
AcDbEntity
  8
치수문자_일반주서
 62
     0
370
    -2
100
AcDbLine
 10
17.81250000000003
 20
56.32180738881174
 30
0.0
 11
4.374999999999999
 21
56.32180738881169
 31
0.0
  0
LINE
  5
518
330
514
100
AcDbEntity
  8
치수문자_일반주서
 62
     0
370
    -2
100
AcDbLine
 10
17.81250000000003
 20
43.62180738881175
 30
0.0
 11
4.375000000000044
 21
43.6218073888117
 31
0.0
  0
LINE
  5
519
330
514
100
AcDbEntity
  8
치수문자_일반주서
 62
     0
370
    -2
100
AcDbLine
 10
4.375000000000011
 20
53.01980738881169
 30
0.0
 11
4.375000000000032
 21
46.9238073888117
 31
0.0
  0
SOLID
  5
51A
330
514
100
AcDbEntity
  8
치수문자_일반주서
 62
     0
100
AcDbTrace
 10
4.925333333333344
 20
53.01980738881169
 30
0.0
 11
3.824666666666677
 21
53.01980738881169
 31
0.0
 12
4.374999999999999
 22
56.32180738881169
 32
0.0
 13
4.374999999999999
 23
56.32180738881169
 33
0.0
  0
SOLID
  5
51B
330
514
100
AcDbEntity
  8
치수문자_일반주서
 62
     0
100
AcDbTrace
 10
3.824666666666698
 20
46.9238073888117
 30
0.0
 11
4.925333333333366
 21
46.9238073888117
 31
0.0
 12
4.375000000000044
 22
43.6218073888117
 32
0.0
 13
4.375000000000044
 23
43.6218073888117
 33
0.0
  0
MTEXT
  5
51C
330
514
100
AcDbEntity
  8
치수문자_일반주서
 62
     0
100
AcDbMText
 10
0.0000000000000213
 20
49.97180738881173
 30
0.0
 40
3.5
 41
0.0
 71
     2
 72
     1
  1
\A1;%%c12.7 [0.50]
  7
SLDTEXTSTYLE0
 11
-3.496765431890260E-15
 21
1.0
 31
0.0
 73
     1
 44
1.0
  0
POINT
  5
51D
330
514
100
AcDbEntity
  8
Defpoints
 62
     0
100
AcDbPoint
 10
17.87500000000003
 20
56.32180738881174
 30
0.0
  0
POINT
  5
51E
330
514
100
AcDbEntity
  8
Defpoints
 62
     0
100
AcDbPoint
 10
17.87500000000003
 20
43.62180738881175
 30
0.0
  0
POINT
  5
51F
330
514
100
AcDbEntity
  8
Defpoints
 62
     0
100
AcDbPoint
 10
4.375000000000021
 20
43.6218073888117
 30
0.0
  0
ENDBLK
  5
516
330
514
100
AcDbEntity
  8
0
100
AcDbBlockEnd
  0
BLOCK
  5
521
330
520
100
AcDbEntity
  8
0
100
AcDbBlockBegin
  2
*D25
 70
     1
 10
0.0
 20
0.0
 30
0.0
  3
*D25
  1
*D29
  0
LINE
  5
523
330
520
100
AcDbEntity
  8
치수문자_일반주서
 62
     0
370
    -2
100
AcDbLine
 10
93.07500000000003
 20
56.57721024916712
 30
0.0
 11
93.07500000000003
 21
66.51471024916712
 31
0.0
  0
LINE
  5
524
330
520
100
AcDbEntity
  8
치수문자_일반주서
 62
     0
370
    -2
100
AcDbLine
 10
67.67500000000004
 20
55.50715671288114
 30
0.0
 11
67.67500000000004
 21
66.51471024916712
 31
0.0
  0
LINE
  5
525
330
520
100
AcDbEntity
  8
치수문자_일반주서
 62
     0
370
    -2
100
AcDbLine
 10
89.77300000000002
 20
66.51471024916712
 30
0.0
 11
70.97700000000005
 21
66.51471024916712
 31
0.0
  0
SOLID
  5
526
330
520
100
AcDbEntity
  8
치수문자_일반주서
 62
     0
100
AcDbTrace
 10
89.77300000000002
 20
65.9643769158338
 30
0.0
 11
89.77300000000002
 21
67.06504358250045
 31
0.0
 12
93.07500000000003
 22
66.51471024916712
 32
0.0
 13
93.07500000000003
 23
66.51471024916712
 33
0.0
  0
SOLID
  5
527
330
520
100
AcDbEntity
  8
치수문자_일반주서
 62
     0
100
AcDbTrace
 10
70.97700000000005
 20
67.06504358250045
 30
0.0
 11
70.97700000000005
 21
65.9643769158338
 31
0.0
 12
67.67500000000004
 22
66.51471024916712
 32
0.0
 13
67.67500000000004
 23
66.51471024916712
 33
0.0
  0
MTEXT
  5
528
330
520
100
AcDbEntity
  8
치수문자_일반주서
 62
     0
100
AcDbMText
 10
80.37500000000003
 20
70.88971024916712
 30
0.0
 40
3.5
 41
0.0
 71
     2
 72
     1
  1
\A1;25.40 [1.00]
  7
SLDTEXTSTYLE0
 73
     1
 44
1.0
  0
POINT
  5
529
330
520
100
AcDbEntity
  8
Defpoints
 62
     0
100
AcDbPoint
 10
93.07500000000003
 20
56.51471024916712
 30
0.0
  0
POINT
  5
52A
330
520
100
AcDbEntity
  8
Defpoints
 62
     0
100
AcDbPoint
 10
67.67500000000004
 20
55.44465671288114
 30
0.0
  0
POINT
  5
52B
330
520
100
AcDbEntity
  8
Defpoints
 62
     0
100
AcDbPoint
 10
67.67500000000004
 20
66.51471024916712
 30
0.0
  0
ENDBLK
  5
522
330
520
100
AcDbEntity
  8
0
100
AcDbBlockEnd
  0
BLOCK
  5
52D
330
52C
100
AcDbEntity
  8
0
100
AcDbBlockBegin
  2
*D26
 70
     1
 10
0.0
 20
0.0
 30
0.0
  3
*D26
  1
*D30
  0
LINE
  5
52F
330
52C
100
AcDbEntity
  8
치수문자_일반주서
 62
     0
370
    -2
100
AcDbLine
 10
93.07500000000003
 20
56.57721024916712
 30
0.0
 11
93.07500000000003
 21
80.28126465125774
 31
0.0
  0
LINE
  5
530
330
52C
100
AcDbEntity
  8
치수문자_일반주서
 62
     0
370
    -2
100
AcDbLine
 10
16.87500000000003
 20
55.38430738881174
 30
0.0
 11
16.87500000000003
 21
80.28126465125774
 31
0.0
  0
LINE
  5
531
330
52C
100
AcDbEntity
  8
치수문자_일반주서
 62
     0
370
    -2
100
AcDbLine
 10
89.77300000000002
 20
80.28126465125774
 30
0.0
 11
20.17700000000003
 21
80.28126465125774
 31
0.0
  0
SOLID
  5
532
330
52C
100
AcDbEntity
  8
치수문자_일반주서
 62
     0
100
AcDbTrace
 10
89.77300000000002
 20
79.73093131792442
 30
0.0
 11
89.77300000000002
 21
80.83159798459107
 31
0.0
 12
93.07500000000003
 22
80.28126465125774
 32
0.0
 13
93.07500000000003
 23
80.28126465125774
 33
0.0
  0
SOLID
  5
533
330
52C
100
AcDbEntity
  8
치수문자_일반주서
 62
     0
100
AcDbTrace
 10
20.17700000000003
 20
80.83159798459107
 30
0.0
 11
20.17700000000003
 21
79.73093131792442
 31
0.0
 12
16.87500000000003
 22
80.28126465125774
 32
0.0
 13
16.87500000000003
 23
80.28126465125774
 33
0.0
  0
MTEXT
  5
534
330
52C
100
AcDbEntity
  8
치수문자_일반주서
 62
     0
100
AcDbMText
 10
54.97500000000003
 20
84.65626465125774
 30
0.0
 40
3.5
 41
0.0
 71
     2
 72
     1
  1
\A1;76.20 [3.00]
  7
SLDTEXTSTYLE0
 73
     1
 44
1.0
  0
POINT
  5
535
330
52C
100
AcDbEntity
  8
Defpoints
 62
     0
100
AcDbPoint
 10
93.07500000000003
 20
56.51471024916712
 30
0.0
  0
POINT
  5
536
330
52C
100
AcDbEntity
  8
Defpoints
 62
     0
100
AcDbPoint
 10
16.87500000000003
 20
55.32180738881174
 30
0.0
  0
POINT
  5
537
330
52C
100
AcDbEntity
  8
Defpoints
 62
     0
100
AcDbPoint
 10
16.87500000000003
 20
80.28126465125774
 30
0.0
  0
ENDBLK
  5
52E
330
52C
100
AcDbEntity
  8
0
100
AcDbBlockEnd
  0
BLOCK
  5
539
330
538
100
AcDbEntity
  8
0
100
AcDbBlockBegin
  2
*D27
 70
     1
 10
0.0
 20
0.0
 30
0.0
  3
*D27
  1
*D31
  0
LINE
  5
53B
330
538
100
AcDbEntity
  8
치수문자_일반주서
 62
     0
370
    -2
100
AcDbLine
 10
118.5375
 20
27.76559162033292
 30
0.0
 11
137.4750000000003
 21
27.765591620333
 31
0.0
  0
LINE
  5
53C
330
538
100
AcDbEntity
  8
치수문자_일반주서
 62
     0
370
    -2
100
AcDbLine
 10
118.5375
 20
72.17802315729057
 30
0.0
 11
137.4750000000002
 21
72.17802315729064
 31
0.0
  0
LINE
  5
53D
330
538
100
AcDbEntity
  8
치수문자_일반주서
 62
     0
370
    -2
100
AcDbLine
 10
137.4750000000002
 20
72.17802315729064
 30
0.0
 11
137.475
 21
130.9780231572907
 31
0.0
  0
LINE
  5
53E
330
538
100
AcDbEntity
  8
치수문자_일반주서
 62
     0
370
    -2
100
AcDbLine
 10
137.4750000000003
 20
31.067591620333
 30
0.0
 11
137.4750000000002
 21
68.87602315729063
 31
0.0
  0
SOLID
  5
53F
330
538
100
AcDbEntity
  8
치수문자_일반주서
 62
     0
100
AcDbTrace
 10
136.924666666667
 20
31.067591620333
 30
0.0
 11
138.0253333333336
 21
31.067591620333
 31
0.0
 12
137.4750000000003
 22
27.765591620333
 32
0.0
 13
137.4750000000003
 23
27.765591620333
 33
0.0
  0
SOLID
  5
540
330
538
100
AcDbEntity
  8
치수문자_일반주서
 62
     0
100
AcDbTrace
 10
138.0253333333335
 20
68.87602315729063
 30
0.0
 11
136.9246666666668
 21
68.87602315729063
 31
0.0
 12
137.4750000000002
 22
72.17802315729064
 32
0.0
 13
137.4750000000002
 23
72.17802315729064
 33
0.0
  0
MTEXT
  5
541
330
538
100
AcDbEntity
  8
치수문자_일반주서
 62
     0
100
AcDbMText
 10
133.1
 20
116.9780231572907
 30
0.0
 40
3.5
 41
0.0
 71
     2
 72
     1
  1
\A1;%%c44.41 [1.75]
  7
SLDTEXTSTYLE0
 11
-3.199747058067851E-15
 21
1.0
 31
0.0
 73
     1
 44
1.0
  0
POINT
  5
542
330
538
100
AcDbEntity
  8
Defpoints
 62
     0
100
AcDbPoint
 10
118.475
 20
27.76559162033292
 30
0.0
  0
POINT
  5
543
330
538
100
AcDbEntity
  8
Defpoints
 62
     0
100
AcDbPoint
 10
118.475
 20
72.17802315729057
 30
0.0
  0
POINT
  5
544
330
538
100
AcDbEntity
  8
Defpoints
 62
     0
100
AcDbPoint
 10
137.4750000000001
 20
72.17802315729064
 30
0.0
  0
ENDBLK
  5
53A
330
538
100
AcDbEntity
  8
0
100
AcDbBlockEnd
  0
BLOCK
  5
56C
330
56B
100
AcDbEntity
  8
0
100
AcDbBlockBegin
  2
*D28
 70
     1
 10
0.0
 20
0.0
 30
0.0
  3
*D28
  1
*D32
  0
LINE
  5
56E
330
56B
100
AcDbEntity
  8
치수문자_일반주서
 62
     0
370
    -2
100
AcDbLine
 10
146.423418869952
 20
-4.131607513397768
 30
0.0
 11
132.985918869952
 21
-4.131607513397817
 31
0.0
  0
LINE
  5
56F
330
56B
100
AcDbEntity
  8
치수문자_일반주서
 62
     0
370
    -2
100
AcDbLine
 10
146.423418869952
 20
-16.83160751339776
 30
0.0
 11
132.985918869952
 21
-16.83160751339781
 31
0.0
  0
LINE
  5
570
330
56B
100
AcDbEntity
  8
치수문자_일반주서
 62
     0
370
    -2
100
AcDbLine
 10
132.985918869952
 20
-7.433607513397817
 30
0.0
 11
132.985918869952
 21
-13.52960751339781
 31
0.0
  0
SOLID
  5
571
330
56B
100
AcDbEntity
  8
치수문자_일반주서
 62
     0
100
AcDbTrace
 10
133.5362522032853
 20
-7.433607513397814
 30
0.0
 11
132.4355855366187
 21
-7.43360751339782
 31
0.0
 12
132.985918869952
 22
-4.131607513397817
 32
0.0
 13
132.985918869952
 23
-4.131607513397817
 33
0.0
  0
SOLID
  5
572
330
56B
100
AcDbEntity
  8
치수문자_일반주서
 62
     0
100
AcDbTrace
 10
132.4355855366187
 20
-13.52960751339781
 30
0.0
 11
133.5362522032853
 21
-13.5296075133978
 31
0.0
 12
132.985918869952
 22
-16.83160751339781
 32
0.0
 13
132.985918869952
 23
-16.83160751339781
 33
0.0
  0
MTEXT
  5
573
330
56B
100
AcDbEntity
  8
치수문자_일반주서
 62
     0
100
AcDbMText
 10
128.610918869952
 20
-10.48160751339779
 30
0.0
 40
3.5
 41
0.0
 71
     2
 72
     1
  1
\A1;%%c12.7 [0.50]
  7
SLDTEXTSTYLE0
 11
-4.475859752819533E-15
 21
1.0
 31
0.0
 73
     1
 44
1.0
  0
POINT
  5
574
330
56B
100
AcDbEntity
  8
Defpoints
 62
     0
100
AcDbPoint
 10
146.485918869952
 20
-4.131607513397768
 30
0.0
  0
POINT
  5
575
330
56B
100
AcDbEntity
  8
Defpoints
 62
     0
100
AcDbPoint
 10
146.485918869952
 20
-16.83160751339776
 30
0.0
  0
POINT
  5
576
330
56B
100
AcDbEntity
  8
Defpoints
 62
     0
100
AcDbPoint
 10
132.985918869952
 20
-16.83160751339781
 30
0.0
  0
ENDBLK
  5
56D
330
56B
100
AcDbEntity
  8
0
100
AcDbBlockEnd
  0
BLOCK
  5
578
330
577
100
AcDbEntity
  8
0
100
AcDbBlockBegin
  2
*D29
 70
     1
 10
0.0
 20
0.0
 30
0.0
  3
*D29
  1
*D33
  0
LINE
  5
57A
330
577
100
AcDbEntity
  8
치수문자_일반주서
 62
     0
370
    -2
100
AcDbLine
 10
52.80000000000001
 20
22.2875
 30
0.0
 11
52.80000000000001
 21
35.41756384378157
 31
0.0
  0
LINE
  5
57B
330
577
100
AcDbEntity
  8
치수문자_일반주서
 62
     0
370
    -2
100
AcDbLine
 10
2.0
 20
17.28467548065799
 30
0.0
 11
2.0
 21
35.41756384378157
 31
0.0
  0
LINE
  5
57C
330
577
100
AcDbEntity
  8
치수문자_일반주서
 62
     0
370
    -2
100
AcDbLine
 10
49.49800000000001
 20
35.41756384378157
 30
0.0
 11
5.302
 21
35.41756384378157
 31
0.0
  0
SOLID
  5
57D
330
577
100
AcDbEntity
  8
치수문자_일반주서
 62
     0
100
AcDbTrace
 10
49.49800000000001
 20
34.86723051044824
 30
0.0
 11
49.49800000000001
 21
35.96789717711491
 31
0.0
 12
52.80000000000001
 22
35.41756384378157
 32
0.0
 13
52.80000000000001
 23
35.41756384378157
 33
0.0
  0
SOLID
  5
57E
330
577
100
AcDbEntity
  8
치수문자_일반주서
 62
     0
100
AcDbTrace
 10
5.302
 20
35.96789717711491
 30
0.0
 11
5.302
 21
34.86723051044824
 31
0.0
 12
2.0
 22
35.41756384378157
 32
0.0
 13
2.0
 23
35.41756384378157
 33
0.0
  0
MTEXT
  5
57F
330
577
100
AcDbEntity
  8
치수문자_일반주서
 62
     0
100
AcDbMText
 10
27.43125000000001
 20
39.79256384378157
 30
0.0
 40
3.5
 41
0.0
 71
     2
 72
     1
  1
\A1;50.8 [2]
  7
SLDTEXTSTYLE0
 73
     1
 44
1.0
  0
POINT
  5
580
330
577
100
AcDbEntity
  8
Defpoints
 62
     0
100
AcDbPoint
 10
52.80000000000001
 20
22.225
 30
0.0
  0
POINT
  5
581
330
577
100
AcDbEntity
  8
Defpoints
 62
     0
100
AcDbPoint
 10
2.0
 20
17.22217548065799
 30
0.0
  0
POINT
  5
582
330
577
100
AcDbEntity
  8
Defpoints
 62
     0
100
AcDbPoint
 10
2.0
 20
35.41756384378157
 30
0.0
  0
ENDBLK
  5
579
330
577
100
AcDbEntity
  8
0
100
AcDbBlockEnd
  0
BLOCK
  5
584
330
583
100
AcDbEntity
  8
0
100
AcDbBlockBegin
  2
*D30
 70
     1
 10
0.0
 20
0.0
 30
0.0
  3
*D30
  1
*D34
  0
LINE
  5
586
330
583
100
AcDbEntity
  8
0
  6
Continuous
 62
     0
370
    -2
100
AcDbLine
 10
221.685918869952
 20
-3.876204653042393
 30
0.0
 11
221.685918869952
 21
19.82784974904823
 31
0.0
  0
LINE
  5
587
330
583
100
AcDbEntity
  8
0
  6
Continuous
 62
     0
370
    -2
100
AcDbLine
 10
145.485918869952
 20
-5.069107513397768
 30
0.0
 11
145.485918869952
 21
19.82784974904823
 31
0.0
  0
LINE
  5
588
330
583
100
AcDbEntity
  8
0
  6
Continuous
 62
     0
370
    -2
100
AcDbLine
 10
218.383918869952
 20
19.82784974904823
 30
0.0
 11
148.787918869952
 21
19.82784974904823
 31
0.0
  0
SOLID
  5
589
330
583
100
AcDbEntity
  8
0
 62
     0
100
AcDbTrace
 10
218.383918869952
 20
19.2775164157149
 30
0.0
 11
218.383918869952
 21
20.37818308238157
 31
0.0
 12
221.685918869952
 22
19.82784974904823
 32
0.0
 13
221.685918869952
 23
19.82784974904823
 33
0.0
  0
SOLID
  5
58A
330
583
100
AcDbEntity
  8
0
 62
     0
100
AcDbTrace
 10
148.787918869952
 20
20.37818308238157
 30
0.0
 11
148.787918869952
 21
19.2775164157149
 31
0.0
 12
145.485918869952
 22
19.82784974904823
 32
0.0
 13
145.485918869952
 23
19.82784974904823
 33
0.0
  0
MTEXT
  5
58B
330
583
100
AcDbEntity
  8
0
 62
     0
370
    15
100
AcDbMText
 10
183.585918869952
 20
24.20284974904823
 30
0.0
 40
3.5
 41
0.0
 71
     2
 72
     1
  1
\A1;76.20 [3.00]
  7
SLDTEXTSTYLE0
 73
     1
 44
1.0
  0
POINT
  5
58C
330
583
100
AcDbEntity
  8
Defpoints
 62
     0
100
AcDbPoint
 10
221.685918869952
 20
-3.938704653042393
 30
0.0
  0
POINT
  5
58D
330
583
100
AcDbEntity
  8
Defpoints
 62
     0
100
AcDbPoint
 10
145.485918869952
 20
-5.131607513397768
 30
0.0
  0
POINT
  5
58E
330
583
100
AcDbEntity
  8
Defpoints
 62
     0
100
AcDbPoint
 10
145.485918869952
 20
19.82784974904823
 30
0.0
  0
ENDBLK
  5
585
330
583
100
AcDbEntity
  8
0
100
AcDbBlockEnd
  0
BLOCK
  5
590
330
58F
100
AcDbEntity
  8
0
100
AcDbBlockBegin
  2
*D31
 70
     1
 10
0.0
 20
0.0
 30
0.0
  3
*D31
  1
*D35
  0
LINE
  5
592
330
58F
100
AcDbEntity
  8
치수문자_일반주서
 62
     0
370
    -2
100
AcDbLine
 10
52.86250000000001
 20
-22.22499999999999
 30
0.0
 11
71.80000000000024
 21
-22.22499999999992
 31
0.0
  0
LINE
  5
593
330
58F
100
AcDbEntity
  8
치수문자_일반주서
 62
     0
370
    -2
100
AcDbLine
 10
52.86250000000001
 20
22.225
 30
0.0
 11
71.80000000000008
 21
22.22500000000007
 31
0.0
  0
LINE
  5
594
330
58F
100
AcDbEntity
  8
치수문자_일반주서
 62
     0
370
    -2
100
AcDbLine
 10
71.80000000000008
 20
22.22500000000007
 30
0.0
 11
71.79999999999995
 21
58.77700000000007
 31
0.0
  0
LINE
  5
595
330
58F
100
AcDbEntity
  8
치수문자_일반주서
 62
     0
370
    -2
100
AcDbLine
 10
71.80000000000022
 20
-18.92299999999992
 30
0.0
 11
71.8000000000001
 21
18.92300000000007
 31
0.0
  0
SOLID
  5
596
330
58F
100
AcDbEntity
  8
치수문자_일반주서
 62
     0
100
AcDbTrace
 10
71.2496666666669
 20
-18.92299999999993
 30
0.0
 11
72.35033333333355
 21
-18.92299999999992
 31
0.0
 12
71.80000000000024
 22
-22.22499999999992
 32
0.0
 13
71.80000000000024
 23
-22.22499999999992
 33
0.0
  0
SOLID
  5
597
330
58F
100
AcDbEntity
  8
치수문자_일반주서
 62
     0
100
AcDbTrace
 10
72.35033333333342
 20
18.92300000000008
 30
0.0
 11
71.24966666666677
 21
18.92300000000007
 31
0.0
 12
71.80000000000008
 22
22.22500000000007
 32
0.0
 13
71.80000000000008
 23
22.22500000000007
 33
0.0
  0
MTEXT
  5
598
330
58F
100
AcDbEntity
  8
치수문자_일반주서
 62
     0
100
AcDbMText
 10
67.42500000000001
 20
42.15200000000006
 30
0.0
 40
3.5
 41
0.0
 71
     2
 72
     1
  1
\A1;%%c44.45 [1 3/4]
  7
SLDTEXTSTYLE0
 11
-3.516746948643915E-15
 21
1.0
 31
0.0
 73
     1
 44
1.0
  0
POINT
  5
599
330
58F
100
AcDbEntity
  8
Defpoints
 62
     0
100
AcDbPoint
 10
52.80000000000001
 20
-22.22499999999999
 30
0.0
  0
POINT
  5
59A
330
58F
100
AcDbEntity
  8
Defpoints
 62
     0
100
AcDbPoint
 10
52.80000000000001
 20
22.225
 30
0.0
  0
POINT
  5
59B
330
58F
100
AcDbEntity
  8
Defpoints
 62
     0
100
AcDbPoint
 10
71.80000000000007
 20
22.22500000000008
 30
0.0
  0
ENDBLK
  5
591
330
58F
100
AcDbEntity
  8
0
100
AcDbBlockEnd
  0
BLOCK
  5
5A6
330
5A5
100
AcDbEntity
  8
0
100
AcDbBlockBegin
  2
*D32
 70
     1
 10
0.0
 20
0.0
 30
0.0
  3
*D32
  1
*D36
  0
LINE
  5
5A8
330
5A5
100
AcDbEntity
  8
치수문자_일반주서
 62
     0
370
    -2
100
AcDbLine
 10
-60.56249999999997
 20
15.87500000000002
 30
0.0
 11
-74.00000000000003
 21
15.87499999999997
 31
0.0
  0
LINE
  5
5A9
330
5A5
100
AcDbEntity
  8
치수문자_일반주서
 62
     0
370
    -2
100
AcDbLine
 10
-60.56249999999997
 20
-15.87499999999999
 30
0.0
 11
-73.99999999999991
 21
-15.87500000000004
 31
0.0
  0
LINE
  5
5AA
330
5A5
100
AcDbEntity
  8
치수문자_일반주서
 62
     0
370
    -2
100
AcDbLine
 10
-74.00000000000001
 20
12.57299999999997
 30
0.0
 11
-73.99999999999993
 21
-12.57300000000004
 31
0.0
  0
SOLID
  5
5AB
330
5A5
100
AcDbEntity
  8
치수문자_일반주서
 62
     0
100
AcDbTrace
 10
-73.44966666666669
 20
12.57299999999997
 30
0.0
 11
-74.55033333333334
 21
12.57299999999997
 31
0.0
 12
-74.00000000000003
 22
15.87499999999997
 32
0.0
 13
-74.00000000000003
 23
15.87499999999997
 33
0.0
  0
SOLID
  5
5AC
330
5A5
100
AcDbEntity
  8
치수문자_일반주서
 62
     0
100
AcDbTrace
 10
-74.55033333333326
 20
-12.57300000000004
 30
0.0
 11
-73.4496666666666
 21
-12.57300000000004
 31
0.0
 12
-73.99999999999991
 22
-15.87500000000004
 32
0.0
 13
-73.99999999999991
 23
-15.87500000000004
 33
0.0
  0
MTEXT
  5
5AD
330
5A5
100
AcDbEntity
  8
치수문자_일반주서
 62
     0
100
AcDbMText
 10
-78.37499999999997
 20
0.0000000000000058
 30
0.0
 40
3.5
 41
0.0
 71
     2
 72
     1
  1
\A1;%%c31.75 [1 1/4]
  7
SLDTEXTSTYLE0
 11
-3.580687802255621E-15
 21
1.0
 31
0.0
 73
     1
 44
1.0
  0
POINT
  5
5AE
330
5A5
100
AcDbEntity
  8
Defpoints
 62
     0
100
AcDbPoint
 10
-60.49999999999997
 20
15.87500000000002
 30
0.0
  0
POINT
  5
5AF
330
5A5
100
AcDbEntity
  8
Defpoints
 62
     0
100
AcDbPoint
 10
-60.49999999999997
 20
-15.87499999999999
 30
0.0
  0
POINT
  5
5B0
330
5A5
100
AcDbEntity
  8
Defpoints
 62
     0
100
AcDbPoint
 10
-73.99999999999991
 20
-15.87500000000004
 30
0.0
  0
ENDBLK
  5
5A7
330
5A5
100
AcDbEntity
  8
0
100
AcDbBlockEnd
  0
BLOCK
  5
5B2
330
5B1
100
AcDbEntity
  8
0
100
AcDbBlockBegin
  2
*D33
 70
     1
 10
0.0
 20
0.0
 30
0.0
  3
*D33
  1
*D37
  0
LINE
  5
5B4
330
5B1
100
AcDbEntity
  8
치수문자_일반주서
 62
     0
370
    -2
100
AcDbLine
 10
52.80000000000001
 20
25.46250000000001
 30
0.0
 11
52.80000000000001
 21
55.20335104222216
 31
0.0
  0
LINE
  5
5B5
330
5B1
100
AcDbEntity
  8
치수문자_일반주서
 62
     0
370
    -2
100
AcDbLine
 10
-61.49999999999997
 20
14.93749999999999
 30
0.0
 11
-61.49999999999997
 21
55.20335104222216
 31
0.0
  0
LINE
  5
5B6
330
5B1
100
AcDbEntity
  8
치수문자_일반주서
 62
     0
370
    -2
100
AcDbLine
 10
49.49800000000001
 20
55.20335104222216
 30
0.0
 11
-58.19799999999997
 21
55.20335104222216
 31
0.0
  0
SOLID
  5
5B7
330
5B1
100
AcDbEntity
  8
치수문자_일반주서
 62
     0
100
AcDbTrace
 10
49.49800000000001
 20
54.65301770888883
 30
0.0
 11
49.49800000000001
 21
55.75368437555549
 31
0.0
 12
52.80000000000001
 22
55.20335104222216
 32
0.0
 13
52.80000000000001
 23
55.20335104222216
 33
0.0
  0
SOLID
  5
5B8
330
5B1
100
AcDbEntity
  8
치수문자_일반주서
 62
     0
100
AcDbTrace
 10
-58.19799999999997
 20
55.75368437555549
 30
0.0
 11
-58.19799999999997
 21
54.65301770888883
 31
0.0
 12
-61.49999999999997
 22
55.20335104222216
 32
0.0
 13
-61.49999999999997
 23
55.20335104222216
 33
0.0
  0
MTEXT
  5
5B9
330
5B1
100
AcDbEntity
  8
치수문자_일반주서
 62
     0
100
AcDbMText
 10
-4.350000000000108
 20
59.57835104222216
 30
0.0
 40
3.5
 41
0.0
 71
     2
 72
     1
  1
\A1;114.3 [4 1/2]
  7
SLDTEXTSTYLE0
 73
     1
 44
1.0
  0
POINT
  5
5BA
330
5B1
100
AcDbEntity
  8
Defpoints
 62
     0
100
AcDbPoint
 10
52.80000000000001
 20
25.40000000000001
 30
0.0
  0
POINT
  5
5BB
330
5B1
100
AcDbEntity
  8
Defpoints
 62
     0
100
AcDbPoint
 10
-61.49999999999997
 20
14.87499999999999
 30
0.0
  0
POINT
  5
5BC
330
5B1
100
AcDbEntity
  8
Defpoints
 62
     0
100
AcDbPoint
 10
-61.49999999999997
 20
55.20335104222216
 30
0.0
  0
ENDBLK
  5
5B3
330
5B1
100
AcDbEntity
  8
0
100
AcDbBlockEnd
  0
BLOCK
  5
5F5
330
5F4
100
AcDbEntity
  8
0
100
AcDbBlockBegin
  2
*D34
 70
     1
 10
0.0
 20
0.0
 30
0.0
  3
*D34
  1
*D39
  0
LINE
  5
5F7
330
5F4
100
AcDbEntity
  8
0
 62
     0
370
    -2
100
AcDbLine
 10
195.2859188699521
 20
5.393392486602245
 30
0.0
 11
168.9020132968259
 21
5.393392486602247
 31
0.0
  0
LINE
  5
5F8
330
5F4
100
AcDbEntity
  8
0
 62
     0
370
    -2
100
AcDbLine
 10
183.1988401756991
 20
-10.48160751339776
 30
0.0
 11
168.9020132968259
 21
-10.48160751339776
 31
0.0
  0
LINE
  5
5F9
330
5F4
100
AcDbEntity
  8
0
 62
     0
370
    -2
100
AcDbLine
 10
169.9020132968259
 20
-13.78360751339776
 30
0.0
 11
154.9613466301592
 21
-13.78360751339776
 31
0.0
  0
LINE
  5
5FA
330
5F4
100
AcDbEntity
  8
0
 62
     0
370
    -2
100
AcDbLine
 10
169.9020132968259
 20
2.091392486602247
 30
0.0
 11
169.9020132968259
 21
-7.179607513397764
 31
0.0
  0
LINE
  5
5FB
330
5F4
100
AcDbEntity
  8
0
 62
     0
370
    -2
100
AcDbLine
 10
169.9020132968259
 20
-10.48160751339776
 30
0.0
 11
169.9020132968259
 21
-13.78360751339776
 31
0.0
  0
SOLID
  5
5FC
330
5F4
100
AcDbEntity
  8
0
 62
     0
100
AcDbTrace
 10
170.4523466301592
 20
2.091392486602247
 30
0.0
 11
169.3516799634925
 21
2.091392486602247
 31
0.0
 12
169.9020132968259
 22
5.393392486602247
 32
0.0
 13
169.9020132968259
 23
5.393392486602247
 33
0.0
  0
SOLID
  5
5FD
330
5F4
100
AcDbEntity
  8
0
 62
     0
100
AcDbTrace
 10
169.3516799634925
 20
-7.179607513397764
 30
0.0
 11
170.4523466301592
 21
-7.179607513397764
 31
0.0
 12
169.9020132968259
 22
-10.48160751339776
 32
0.0
 13
169.9020132968259
 23
-10.48160751339776
 33
0.0
  0
MTEXT
  5
5FE
330
5F4
100
AcDbEntity
  8
0
 62
     0
100
AcDbMText
 10
161.6696799634925
 20
-10.2179408467311
 30
0.0
 40
3.5
 41
0.0
 71
     5
 72
     1
  1
15,88
 73
     1
 44
1.0
  0
POINT
  5
5FF
330
5F4
100
AcDbEntity
  8
Defpoints
 62
     0
100
AcDbPoint
 10
196.2859188699521
 20
5.393392486602245
 30
0.0
  0
POINT
  5
600
330
5F4
100
AcDbEntity
  8
Defpoints
 62
     0
100
AcDbPoint
 10
184.1988401756991
 20
-10.48160751339776
 30
0.0
  0
POINT
  5
601
330
5F4
100
AcDbEntity
  8
Defpoints
 62
     0
100
AcDbPoint
 10
169.9020132968259
 20
-10.48160751339776
 30
0.0
  0
ENDBLK
  5
5F6
330
5F4
100
AcDbEntity
  8
0
100
AcDbBlockEnd
  0
BLOCK
  5
6B6
330
6B5
100
AcDbEntity
  8
0
100
AcDbBlockBegin
  2
*D35
 70
     1
 10
0.0
 20
0.0
 30
0.0
  3
*D35
  1
*D41
  0
LINE
  5
6B8
330
6B5
100
AcDbEntity
  8
치수문자_일반주서
 62
     0
370
    -2
100
AcDbLine
 10
17.81250000000003
 20
56.32180738881174
 30
0.0
 11
4.374999999999999
 21
56.32180738881169
 31
0.0
  0
LINE
  5
6B9
330
6B5
100
AcDbEntity
  8
치수문자_일반주서
 62
     0
370
    -2
100
AcDbLine
 10
17.81250000000003
 20
43.62180738881175
 30
0.0
 11
4.375000000000044
 21
43.6218073888117
 31
0.0
  0
LINE
  5
6BA
330
6B5
100
AcDbEntity
  8
치수문자_일반주서
 62
     0
370
    -2
100
AcDbLine
 10
4.375000000000011
 20
53.01980738881169
 30
0.0
 11
4.375000000000032
 21
46.9238073888117
 31
0.0
  0
SOLID
  5
6BB
330
6B5
100
AcDbEntity
  8
치수문자_일반주서
 62
     0
100
AcDbTrace
 10
4.925333333333344
 20
53.01980738881169
 30
0.0
 11
3.824666666666677
 21
53.01980738881169
 31
0.0
 12
4.374999999999999
 22
56.32180738881169
 32
0.0
 13
4.374999999999999
 23
56.32180738881169
 33
0.0
  0
SOLID
  5
6BC
330
6B5
100
AcDbEntity
  8
치수문자_일반주서
 62
     0
100
AcDbTrace
 10
3.824666666666698
 20
46.9238073888117
 30
0.0
 11
4.925333333333366
 21
46.9238073888117
 31
0.0
 12
4.375000000000044
 22
43.6218073888117
 32
0.0
 13
4.375000000000044
 23
43.6218073888117
 33
0.0
  0
MTEXT
  5
6BD
330
6B5
100
AcDbEntity
  8
치수문자_일반주서
 62
     0
100
AcDbMText
 10
0.0000000000000213
 20
49.97180738881173
 30
0.0
 40
3.5
 41
0.0
 71
     2
 72
     1
  1
\A1;%%c12.7 [0.50]
  7
SLDTEXTSTYLE0
 11
-3.496765431890260E-15
 21
1.0
 31
0.0
 73
     1
 44
1.0
  0
POINT
  5
6BE
330
6B5
100
AcDbEntity
  8
Defpoints
 62
     0
100
AcDbPoint
 10
17.87500000000003
 20
56.32180738881174
 30
0.0
  0
POINT
  5
6BF
330
6B5
100
AcDbEntity
  8
Defpoints
 62
     0
100
AcDbPoint
 10
17.87500000000003
 20
43.62180738881175
 30
0.0
  0
POINT
  5
6C0
330
6B5
100
AcDbEntity
  8
Defpoints
 62
     0
100
AcDbPoint
 10
4.375000000000021
 20
43.6218073888117
 30
0.0
  0
ENDBLK
  5
6B7
330
6B5
100
AcDbEntity
  8
0
100
AcDbBlockEnd
  0
BLOCK
  5
6C2
330
6C1
100
AcDbEntity
  8
0
100
AcDbBlockBegin
  2
*D36
 70
     1
 10
0.0
 20
0.0
 30
0.0
  3
*D36
  1
*D42
  0
LINE
  5
6C4
330
6C1
100
AcDbEntity
  8
치수문자_일반주서
 62
     0
370
    -2
100
AcDbLine
 10
93.07500000000003
 20
56.57721024916712
 30
0.0
 11
93.07500000000003
 21
66.51471024916712
 31
0.0
  0
LINE
  5
6C5
330
6C1
100
AcDbEntity
  8
치수문자_일반주서
 62
     0
370
    -2
100
AcDbLine
 10
67.67500000000004
 20
55.50715671288114
 30
0.0
 11
67.67500000000004
 21
66.51471024916712
 31
0.0
  0
LINE
  5
6C6
330
6C1
100
AcDbEntity
  8
치수문자_일반주서
 62
     0
370
    -2
100
AcDbLine
 10
89.77300000000002
 20
66.51471024916712
 30
0.0
 11
70.97700000000005
 21
66.51471024916712
 31
0.0
  0
SOLID
  5
6C7
330
6C1
100
AcDbEntity
  8
치수문자_일반주서
 62
     0
100
AcDbTrace
 10
89.77300000000002
 20
65.9643769158338
 30
0.0
 11
89.77300000000002
 21
67.06504358250045
 31
0.0
 12
93.07500000000003
 22
66.51471024916712
 32
0.0
 13
93.07500000000003
 23
66.51471024916712
 33
0.0
  0
SOLID
  5
6C8
330
6C1
100
AcDbEntity
  8
치수문자_일반주서
 62
     0
100
AcDbTrace
 10
70.97700000000005
 20
67.06504358250045
 30
0.0
 11
70.97700000000005
 21
65.9643769158338
 31
0.0
 12
67.67500000000004
 22
66.51471024916712
 32
0.0
 13
67.67500000000004
 23
66.51471024916712
 33
0.0
  0
MTEXT
  5
6C9
330
6C1
100
AcDbEntity
  8
치수문자_일반주서
 62
     0
100
AcDbMText
 10
80.37500000000003
 20
70.88971024916712
 30
0.0
 40
3.5
 41
0.0
 71
     2
 72
     1
  1
\A1;25.40 [1.00]
  7
SLDTEXTSTYLE0
 73
     1
 44
1.0
  0
POINT
  5
6CA
330
6C1
100
AcDbEntity
  8
Defpoints
 62
     0
100
AcDbPoint
 10
93.07500000000003
 20
56.51471024916712
 30
0.0
  0
POINT
  5
6CB
330
6C1
100
AcDbEntity
  8
Defpoints
 62
     0
100
AcDbPoint
 10
67.67500000000004
 20
55.44465671288114
 30
0.0
  0
POINT
  5
6CC
330
6C1
100
AcDbEntity
  8
Defpoints
 62
     0
100
AcDbPoint
 10
67.67500000000004
 20
66.51471024916712
 30
0.0
  0
ENDBLK
  5
6C3
330
6C1
100
AcDbEntity
  8
0
100
AcDbBlockEnd
  0
BLOCK
  5
6CE
330
6CD
100
AcDbEntity
  8
0
100
AcDbBlockBegin
  2
*D37
 70
     1
 10
0.0
 20
0.0
 30
0.0
  3
*D37
  1
*D43
  0
LINE
  5
6D0
330
6CD
100
AcDbEntity
  8
치수문자_일반주서
 62
     0
370
    -2
100
AcDbLine
 10
93.07500000000003
 20
56.57721024916712
 30
0.0
 11
93.07500000000003
 21
80.28126465125774
 31
0.0
  0
LINE
  5
6D1
330
6CD
100
AcDbEntity
  8
치수문자_일반주서
 62
     0
370
    -2
100
AcDbLine
 10
16.87500000000003
 20
55.38430738881174
 30
0.0
 11
16.87500000000003
 21
80.28126465125774
 31
0.0
  0
LINE
  5
6D2
330
6CD
100
AcDbEntity
  8
치수문자_일반주서
 62
     0
370
    -2
100
AcDbLine
 10
89.77300000000002
 20
80.28126465125774
 30
0.0
 11
20.17700000000003
 21
80.28126465125774
 31
0.0
  0
SOLID
  5
6D3
330
6CD
100
AcDbEntity
  8
치수문자_일반주서
 62
     0
100
AcDbTrace
 10
89.77300000000002
 20
79.73093131792442
 30
0.0
 11
89.77300000000002
 21
80.83159798459107
 31
0.0
 12
93.07500000000003
 22
80.28126465125774
 32
0.0
 13
93.07500000000003
 23
80.28126465125774
 33
0.0
  0
SOLID
  5
6D4
330
6CD
100
AcDbEntity
  8
치수문자_일반주서
 62
     0
100
AcDbTrace
 10
20.17700000000003
 20
80.83159798459107
 30
0.0
 11
20.17700000000003
 21
79.73093131792442
 31
0.0
 12
16.87500000000003
 22
80.28126465125774
 32
0.0
 13
16.87500000000003
 23
80.28126465125774
 33
0.0
  0
MTEXT
  5
6D5
330
6CD
100
AcDbEntity
  8
치수문자_일반주서
 62
     0
100
AcDbMText
 10
54.97500000000003
 20
84.65626465125774
 30
0.0
 40
3.5
 41
0.0
 71
     2
 72
     1
  1
\A1;76.20 [3.00]
  7
SLDTEXTSTYLE0
 73
     1
 44
1.0
  0
POINT
  5
6D6
330
6CD
100
AcDbEntity
  8
Defpoints
 62
     0
100
AcDbPoint
 10
93.07500000000003
 20
56.51471024916712
 30
0.0
  0
POINT
  5
6D7
330
6CD
100
AcDbEntity
  8
Defpoints
 62
     0
100
AcDbPoint
 10
16.87500000000003
 20
55.32180738881174
 30
0.0
  0
POINT
  5
6D8
330
6CD
100
AcDbEntity
  8
Defpoints
 62
     0
100
AcDbPoint
 10
16.87500000000003
 20
80.28126465125774
 30
0.0
  0
ENDBLK
  5
6CF
330
6CD
100
AcDbEntity
  8
0
100
AcDbBlockEnd
  0
BLOCK
  5
6DA
330
6D9
100
AcDbEntity
  8
0
100
AcDbBlockBegin
  2
*D38
 70
     1
 10
0.0
 20
0.0
 30
0.0
  3
*D38
  1
*D44
  0
LINE
  5
6DC
330
6D9
100
AcDbEntity
  8
치수문자_일반주서
 62
     0
370
    -2
100
AcDbLine
 10
118.5375
 20
24.5932750819788
 30
0.0
 11
137.4750000000004
 21
24.59327508197886
 31
0.0
  0
LINE
  5
6DD
330
6D9
100
AcDbEntity
  8
치수문자_일반주서
 62
     0
370
    -2
100
AcDbLine
 10
118.5375
 20
75.35033969564469
 30
0.0
 11
137.4750000000002
 21
75.35033969564476
 31
0.0
  0
LINE
  5
6DE
330
6D9
100
AcDbEntity
  8
치수문자_일반주서
 62
     0
370
    -2
100
AcDbLine
 10
137.4750000000002
 20
75.35033969564476
 30
0.0
 11
137.475
 21
140.7690896956449
 31
0.0
  0
LINE
  5
6DF
330
6D9
100
AcDbEntity
  8
치수문자_일반주서
 62
     0
370
    -2
100
AcDbLine
 10
137.4750000000004
 20
27.89527508197886
 30
0.0
 11
137.4750000000002
 21
72.04833969564476
 31
0.0
  0
SOLID
  5
6E0
330
6D9
100
AcDbEntity
  8
치수문자_일반주서
 62
     0
100
AcDbTrace
 10
136.924666666667
 20
27.89527508197886
 30
0.0
 11
138.0253333333337
 21
27.89527508197886
 31
0.0
 12
137.4750000000004
 22
24.59327508197886
 32
0.0
 13
137.4750000000004
 23
24.59327508197886
 33
0.0
  0
SOLID
  5
6E1
330
6D9
100
AcDbEntity
  8
치수문자_일반주서
 62
     0
100
AcDbTrace
 10
138.0253333333335
 20
72.04833969564476
 30
0.0
 11
136.9246666666669
 21
72.04833969564476
 31
0.0
 12
137.4750000000002
 22
75.35033969564476
 32
0.0
 13
137.4750000000002
 23
75.35033969564476
 33
0.0
  0
MTEXT
  5
6E2
330
6D9
100
AcDbEntity
  8
치수문자_일반주서
 62
     0
100
AcDbMText
 10
133.1
 20
126.5503396956449
 30
0.0
 40
3.5
 41
0.0
 71
     2
 72
     1
  1
\A1;%%c50.76 [2.00]
  7
SLDTEXTSTYLE0
 11
-3.359734410971242E-15
 21
1.0
 31
0.0
 73
     1
 44
1.0
  0
POINT
  5
6E3
330
6D9
100
AcDbEntity
  8
Defpoints
 62
     0
100
AcDbPoint
 10
118.475
 20
24.5932750819788
 30
0.0
  0
POINT
  5
6E4
330
6D9
100
AcDbEntity
  8
Defpoints
 62
     0
100
AcDbPoint
 10
118.475
 20
75.35033969564469
 30
0.0
  0
POINT
  5
6E5
330
6D9
100
AcDbEntity
  8
Defpoints
 62
     0
100
AcDbPoint
 10
137.4750000000001
 20
75.35033969564476
 30
0.0
  0
ENDBLK
  5
6DB
330
6D9
100
AcDbEntity
  8
0
100
AcDbBlockEnd
  0
BLOCK
  5
70B
330
70A
100
AcDbEntity
  8
0
100
AcDbBlockBegin
  2
*D39
 70
     1
 10
0.0
 20
0.0
 30
0.0
  3
*D39
  1
*D45
  0
LINE
  5
70D
330
70A
100
AcDbEntity
  8
치수문자_일반주서
 62
     0
370
    -2
100
AcDbLine
 10
127.6455293197289
 20
-27.1586755149822
 30
0.0
 11
114.2080293197289
 21
-27.15867551498225
 31
0.0
  0
LINE
  5
70E
330
70A
100
AcDbEntity
  8
치수문자_일반주서
 62
     0
370
    -2
100
AcDbLine
 10
127.6455293197289
 20
-39.85867551498219
 30
0.0
 11
114.2080293197289
 21
-39.85867551498224
 31
0.0
  0
LINE
  5
70F
330
70A
100
AcDbEntity
  8
치수문자_일반주서
 62
     0
370
    -2
100
AcDbLine
 10
114.2080293197289
 20
-30.46067551498225
 30
0.0
 11
114.2080293197289
 21
-36.55667551498224
 31
0.0
  0
SOLID
  5
710
330
70A
100
AcDbEntity
  8
치수문자_일반주서
 62
     0
100
AcDbTrace
 10
114.7583626530622
 20
-30.46067551498225
 30
0.0
 11
113.6576959863956
 21
-30.46067551498225
 31
0.0
 12
114.2080293197289
 22
-27.15867551498225
 32
0.0
 13
114.2080293197289
 23
-27.15867551498225
 33
0.0
  0
SOLID
  5
711
330
70A
100
AcDbEntity
  8
치수문자_일반주서
 62
     0
100
AcDbTrace
 10
113.6576959863956
 20
-36.55667551498224
 30
0.0
 11
114.7583626530622
 21
-36.55667551498224
 31
0.0
 12
114.2080293197289
 22
-39.85867551498224
 32
0.0
 13
114.2080293197289
 23
-39.85867551498224
 33
0.0
  0
MTEXT
  5
712
330
70A
100
AcDbEntity
  8
치수문자_일반주서
 62
     0
100
AcDbMText
 10
109.8330293197289
 20
-33.50867551498222
 30
0.0
 40
3.5
 41
0.0
 71
     2
 72
     1
  1
\A1;%%c12.7 [0.50]
  7
SLDTEXTSTYLE0
 11
-3.356894814614650E-15
 21
1.0
 31
0.0
 73
     1
 44
1.0
  0
POINT
  5
713
330
70A
100
AcDbEntity
  8
Defpoints
 62
     0
100
AcDbPoint
 10
127.7080293197289
 20
-27.1586755149822
 30
0.0
  0
POINT
  5
714
330
70A
100
AcDbEntity
  8
Defpoints
 62
     0
100
AcDbPoint
 10
127.7080293197289
 20
-39.85867551498219
 30
0.0
  0
POINT
  5
715
330
70A
100
AcDbEntity
  8
Defpoints
 62
     0
100
AcDbPoint
 10
114.2080293197289
 20
-39.85867551498224
 30
0.0
  0
ENDBLK
  5
70C
330
70A
100
AcDbEntity
  8
0
100
AcDbBlockEnd
  0
BLOCK
  5
717
330
716
100
AcDbEntity
  8
0
100
AcDbBlockBegin
  2
*D40
 70
     1
 10
0.0
 20
0.0
 30
0.0
  3
*D40
  1
*D46
  0
LINE
  5
719
330
716
100
AcDbEntity
  8
치수문자_일반주서
 62
     0
370
    -2
100
AcDbLine
 10
52.80000000000001
 20
25.46250000000001
 30
0.0
 11
52.80000000000001
 21
37.77384989103583
 31
0.0
  0
LINE
  5
71A
330
716
100
AcDbEntity
  8
치수문자_일반주서
 62
     0
370
    -2
100
AcDbLine
 10
2.000000000000057
 20
15.93750000000001
 30
0.0
 11
2.000000000000057
 21
37.77384989103583
 31
0.0
  0
LINE
  5
71B
330
716
100
AcDbEntity
  8
치수문자_일반주서
 62
     0
370
    -2
100
AcDbLine
 10
49.49800000000001
 20
37.77384989103583
 30
0.0
 11
5.302000000000056
 21
37.77384989103583
 31
0.0
  0
SOLID
  5
71C
330
716
100
AcDbEntity
  8
치수문자_일반주서
 62
     0
100
AcDbTrace
 10
49.49800000000001
 20
37.2235165577025
 30
0.0
 11
49.49800000000001
 21
38.32418322436916
 31
0.0
 12
52.80000000000001
 22
37.77384989103583
 32
0.0
 13
52.80000000000001
 23
37.77384989103583
 33
0.0
  0
SOLID
  5
71D
330
716
100
AcDbEntity
  8
치수문자_일반주서
 62
     0
100
AcDbTrace
 10
5.302000000000056
 20
38.32418322436916
 30
0.0
 11
5.302000000000056
 21
37.2235165577025
 31
0.0
 12
2.000000000000057
 22
37.77384989103583
 32
0.0
 13
2.000000000000057
 23
37.77384989103583
 33
0.0
  0
MTEXT
  5
71E
330
716
100
AcDbEntity
  8
치수문자_일반주서
 62
     0
100
AcDbMText
 10
27.40000000000001
 20
42.14884989103583
 30
0.0
 40
3.5
 41
0.0
 71
     2
 72
     1
  1
\A1;50.8 [2]
  7
SLDTEXTSTYLE0
 73
     1
 44
1.0
  0
POINT
  5
71F
330
716
100
AcDbEntity
  8
Defpoints
 62
     0
100
AcDbPoint
 10
52.80000000000001
 20
25.40000000000001
 30
0.0
  0
POINT
  5
720
330
716
100
AcDbEntity
  8
Defpoints
 62
     0
100
AcDbPoint
 10
2.000000000000057
 20
15.87500000000001
 30
0.0
  0
POINT
  5
721
330
716
100
AcDbEntity
  8
Defpoints
 62
     0
100
AcDbPoint
 10
2.000000000000057
 20
37.77384989103583
 30
0.0
  0
ENDBLK
  5
718
330
716
100
AcDbEntity
  8
0
100
AcDbBlockEnd
  0
BLOCK
  5
723
330
722
100
AcDbEntity
  8
0
100
AcDbBlockBegin
  2
*D41
 70
     1
 10
0.0
 20
0.0
 30
0.0
  3
*D41
  1
*D47
  0
LINE
  5
725
330
722
100
AcDbEntity
  8
치수문자_일반주서
 62
     0
370
    -2
100
AcDbLine
 10
202.9080293197289
 20
-26.90327265462683
 30
0.0
 11
202.9080293197289
 21
-3.199218252536198
 31
0.0
  0
LINE
  5
726
330
722
100
AcDbEntity
  8
치수문자_일반주서
 62
     0
370
    -2
100
AcDbLine
 10
126.7080293197289
 20
-28.0961755149822
 30
0.0
 11
126.7080293197289
 21
-3.199218252536198
 31
0.0
  0
LINE
  5
727
330
722
100
AcDbEntity
  8
치수문자_일반주서
 62
     0
370
    -2
100
AcDbLine
 10
199.6060293197289
 20
-3.199218252536198
 30
0.0
 11
130.0100293197289
 21
-3.199218252536198
 31
0.0
  0
SOLID
  5
728
330
722
100
AcDbEntity
  8
치수문자_일반주서
 62
     0
100
AcDbTrace
 10
199.6060293197289
 20
-3.749551585869532
 30
0.0
 11
199.6060293197289
 21
-2.648884919202865
 31
0.0
 12
202.9080293197289
 22
-3.199218252536198
 32
0.0
 13
202.9080293197289
 23
-3.199218252536198
 33
0.0
  0
SOLID
  5
729
330
722
100
AcDbEntity
  8
치수문자_일반주서
 62
     0
100
AcDbTrace
 10
130.0100293197289
 20
-2.648884919202865
 30
0.0
 11
130.0100293197289
 21
-3.749551585869532
 31
0.0
 12
126.7080293197289
 22
-3.199218252536198
 32
0.0
 13
126.7080293197289
 23
-3.199218252536198
 33
0.0
  0
MTEXT
  5
72A
330
722
100
AcDbEntity
  8
치수문자_일반주서
 62
     0
100
AcDbMText
 10
164.8080293197289
 20
1.175781747463802
 30
0.0
 40
3.5
 41
0.0
 71
     2
 72
     1
  1
\A1;76.2 [3]
  7
SLDTEXTSTYLE0
 73
     1
 44
1.0
  0
POINT
  5
72B
330
722
100
AcDbEntity
  8
Defpoints
 62
     0
100
AcDbPoint
 10
202.9080293197289
 20
-26.96577265462683
 30
0.0
  0
POINT
  5
72C
330
722
100
AcDbEntity
  8
Defpoints
 62
     0
100
AcDbPoint
 10
126.7080293197289
 20
-28.1586755149822
 30
0.0
  0
POINT
  5
72D
330
722
100
AcDbEntity
  8
Defpoints
 62
     0
100
AcDbPoint
 10
126.7080293197289
 20
-3.199218252536198
 30
0.0
  0
ENDBLK
  5
724
330
722
100
AcDbEntity
  8
0
100
AcDbBlockEnd
  0
BLOCK
  5
72F
330
72E
100
AcDbEntity
  8
0
100
AcDbBlockBegin
  2
*D42
 70
     1
 10
0.0
 20
0.0
 30
0.0
  3
*D42
  1
*D48
  0
LINE
  5
731
330
72E
100
AcDbEntity
  8
치수문자_일반주서
 62
     0
370
    -2
100
AcDbLine
 10
52.86250000000001
 20
-25.4
 30
0.0
 11
71.80000000000032
 21
-25.39999999999993
 31
0.0
  0
LINE
  5
732
330
72E
100
AcDbEntity
  8
치수문자_일반주서
 62
     0
370
    -2
100
AcDbLine
 10
52.86250000000001
 20
25.40000000000001
 30
0.0
 11
71.80000000000015
 21
25.40000000000008
 31
0.0
  0
LINE
  5
733
330
72E
100
AcDbEntity
  8
치수문자_일반주서
 62
     0
370
    -2
100
AcDbLine
 10
71.80000000000015
 20
25.40000000000008
 30
0.0
 11
71.79999999999995
 21
86.85978230683313
 31
0.0
  0
LINE
  5
734
330
72E
100
AcDbEntity
  8
치수문자_일반주서
 62
     0
370
    -2
100
AcDbLine
 10
71.80000000000031
 20
-22.09799999999994
 30
0.0
 11
71.80000000000017
 21
22.09800000000008
 31
0.0
  0
SOLID
  5
735
330
72E
100
AcDbEntity
  8
치수문자_일반주서
 62
     0
100
AcDbTrace
 10
71.24966666666698
 20
-22.09799999999994
 30
0.0
 11
72.35033333333364
 21
-22.09799999999993
 31
0.0
 12
71.80000000000032
 22
-25.39999999999993
 32
0.0
 13
71.80000000000032
 23
-25.39999999999993
 33
0.0
  0
SOLID
  5
736
330
72E
100
AcDbEntity
  8
치수문자_일반주서
 62
     0
100
AcDbTrace
 10
72.3503333333335
 20
22.09800000000008
 30
0.0
 11
71.24966666666684
 21
22.09800000000007
 31
0.0
 12
71.80000000000015
 22
25.40000000000008
 32
0.0
 13
71.80000000000015
 23
25.40000000000008
 33
0.0
  0
MTEXT
  5
737
330
72E
100
AcDbEntity
  8
치수문자_일반주서
 62
     0
100
AcDbMText
 10
67.42499999999998
 20
76.57853230683311
 30
0.0
 40
3.5
 41
0.0
 71
     2
 72
     1
  1
\A1;%%c50.8 [2]
  7
SLDTEXTSTYLE0
 11
-3.356894814614646E-15
 21
1.0
 31
0.0
 73
     1
 44
1.0
  0
POINT
  5
738
330
72E
100
AcDbEntity
  8
Defpoints
 62
     0
100
AcDbPoint
 10
52.80000000000001
 20
-25.4
 30
0.0
  0
POINT
  5
739
330
72E
100
AcDbEntity
  8
Defpoints
 62
     0
100
AcDbPoint
 10
52.80000000000001
 20
25.40000000000001
 30
0.0
  0
POINT
  5
73A
330
72E
100
AcDbEntity
  8
Defpoints
 62
     0
100
AcDbPoint
 10
71.80000000000015
 20
25.40000000000008
 30
0.0
  0
ENDBLK
  5
730
330
72E
100
AcDbEntity
  8
0
100
AcDbBlockEnd
  0
ENDSEC
  0
SECTION
  2
ENTITIES
  0
LINE
  5
CA
330
1F
100
AcDbEntity
  8
참조1
100
AcDbLine
 10
8.499261314031163
 20
0.0010749287238892
 30
0.0
 11
8.499261314031168
 21
-39.99892507127611
 31
0.0
  0
LINE
  5
CB
330
1F
100
AcDbEntity
  8
참조1
100
AcDbLine
 10
8.499261314031168
 20
-39.99892507127611
 30
0.0
 11
-20.15080122126847
 21
-39.9989250712761
 31
0.0
  0
LINE
  5
122
330
1F
100
AcDbEntity
  8
참조1
100
AcDbLine
 10
77.82153940838579
 20
7.441074928723896
 30
0.0
 11
77.82153940838579
 21
-7.438925071276109
 31
0.0
  0
LINE
  5
123
330
1F
100
AcDbEntity
  8
참조1
100
AcDbLine
 10
90.52153940838579
 20
5.441074928723896
 30
0.0
 11
77.82153940838579
 21
5.441074928723896
 31
0.0
  0
SOLID
  5
124
330
1F
100
AcDbEntity
  8
참조1
100
AcDbTrace
 10
77.82153940838579
 20
5.441074928723896
 30
0.0
 11
84.17153940838578
 21
4.425074928723896
 31
0.0
 12
84.17153940838578
 22
6.457074928723896
 32
0.0
 13
84.17153940838578
 23
6.457074928723896
 33
0.0
  0
LINE
  5
125
330
1F
100
AcDbEntity
  8
참조1
100
AcDbLine
 10
90.52153940838579
 20
-5.438925071276109
 30
0.0
 11
77.82153940838579
 21
-5.438925071276109
 31
0.0
  0
SOLID
  5
126
330
1F
100
AcDbEntity
  8
참조1
100
AcDbTrace
 10
77.82153940838579
 20
-5.438925071276109
 30
0.0
 11
84.17153940838578
 21
-6.454925071276109
 31
0.0
 12
84.17153940838578
 22
-4.422925071276109
 32
0.0
 13
84.17153940838578
 23
-4.422925071276109
 33
0.0
  0
MTEXT
  5
127
330
1F
100
AcDbEntity
  8
참조1
100
AcDbMText
 10
87.20588954101179
 20
11.01136670591222
 30
0.0
 40
3.5
 41
0.0
 71
     1
 72
     1
  1
A
  7
SLDTEXTSTYLE0
 73
     1
 44
1.0
  0
MTEXT
  5
128
330
1F
100
AcDbEntity
  8
참조1
100
AcDbMText
 10
87.20588954101179
 20
0.1313667059122192
 30
0.0
 40
3.5
 41
0.0
 71
     1
 72
     1
  1
A
  7
SLDTEXTSTYLE0
 73
     1
 44
1.0
  0
LINE
  5
54E
330
1F
100
AcDbEntity
  8
외형선
  6
Continuous
370
    15
100
AcDbLine
 10
2.0
 20
-4.633823771526799
 30
0.0
 11
2.0
 21
1.549627179371157
 31
0.0
  0
SPLINE
  5
552
330
1F
100
AcDbEntity
  8
외형선
  6
Continuous
370
    15
100
AcDbSpline
210
0.0
220
0.0
230
1.0
 70
    24
 71
     3
 72
    14
 73
    10
 74
     0
 42
0.000000001
 43
0.00000001
 40
0.0
 40
0.0
 40
0.0
 40
0.0
 40
0.25
 40
0.25
 40
0.5
 40
0.5
 40
0.75
 40
0.75
 40
1.0
 40
1.0
 40
1.0
 40
1.0
 10
2.0
 20
17.22217548065799
 30
0.0
 10
2.0
 20
16.6071701030713
 30
0.0
 10
2.0
 20
15.80743170569369
 30
0.0
 10
2.0
 20
13.85662721161125
 30
0.0
 10
2.0
 20
12.70570818255719
 30
0.0
 10
2.0
 20
10.12401457535315
 30
0.0
 10
2.0
 20
8.693985511946778
 30
0.0
 10
2.0
 20
5.666041909229762
 30
0.0
 10
2.0
 20
4.06912262190972
 30
0.0
 10
2.0
 20
2.450629710070423
 30
0.0
  0
SPLINE
  5
559
330
1F
100
AcDbEntity
  8
외형선
  6
Continuous
370
    15
100
AcDbSpline
210
0.0
220
0.0
230
1.0
 70
    24
 71
     3
 72
    19
 73
    15
 74
     0
 42
0.000000001
 43
0.00000001
 40
0.0
 40
0.0
 40
0.0
 40
0.0
 40
0.0460033691543345
 40
0.1317035855782754
 40
0.2198935787100524
 40
0.3080835718418293
 40
0.3937837882657701
 40
0.479484004689711
 40
0.567673997821488
 40
0.655863990953265
 40
0.7417477371092408
 40
0.8279319954766325
 40
0.9141162538440242
 40
1.0
 40
1.0
 40
1.0
 40
1.0
 10
2.0
 20
-4.688988876947114
 30
0.0
 10
2.0
 20
-5.009056972218829
 30
0.0
 10
2.0
 20
-5.925383679401357
 30
0.0
 10
2.0
 20
-7.36075515361258
 30
0.0
 10
2.0
 20
-8.983055260652286
 30
0.0
 10
2.0
 20
-10.4851942935097
 30
0.0
 10
2.0
 20
-11.8488689493518
 30
0.0
 10
2.0
 20
-13.0807263802857
 30
0.0
 10
2.0
 20
-14.17952976479737
 30
0.0
 10
2.0
 20
-15.12572821808727
 30
0.0
 10
2.0
 20
-15.90515212995395
 30
0.0
 10
2.0
 20
-16.51520120949846
 30
0.0
 10
2.0
 20
-16.97554466036214
 30
0.0
 10
2.0
 20
-17.14006098169164
 30
0.0
 10
2.0
 20
-17.222175480658
 30
0.0
  0
LINE
  5
59C
330
1F
100
AcDbEntity
  8
외형선
  6
Continuous
370
    15
100
AcDbLine
 10
-60.49999999999994
 20
-15.87500000000001
 30
0.0
 11
2.000000000000057
 21
-15.87500000000001
 31
0.0
  0
LINE
  5
59D
330
1F
100
AcDbEntity
  8
외형선
  6
Continuous
370
    15
100
AcDbLine
 10
-61.49999999999997
 20
-14.87499999999998
 30
0.0
 11
-60.49999999999997
 21
-15.87499999999998
 31
0.0
  0
LINE
  5
59E
330
1F
100
AcDbEntity
  8
외형선
  6
Continuous
370
    15
100
AcDbLine
 10
-60.49999999999997
 20
13.48739999999999
 30
0.0
 11
-60.49999999999997
 21
-15.87499999999999
 31
0.0
  0
LINE
  5
59F
330
1F
100
AcDbEntity
  8
외형선
  6
Continuous
370
    15
100
AcDbLine
 10
-61.49999999999997
 20
13.48739999999999
 30
0.0
 11
-61.49999999999997
 21
-14.87499999999998
 31
0.0
  0
DIMENSION
  5
5A0
330
1F
100
AcDbEntity
  8
치수문자_일반주서
100
AcDbDimension
  2
*D32
 10
-73.99999999999991
 20
-15.87500000000004
 30
0.0
 11
-73.99999999999997
 21
0.0000000000000213
 31
0.0
 70
   160
  1
%%c<>
 71
     2
 42
31.75000000000001
 52
-270.0
  3
SLDDIMSTYLE0
100
AcDbAlignedDimension
 13
-60.49999999999997
 23
15.87500000000002
 33
0.0
 14
-60.49999999999997
 24
-15.87499999999999
 34
0.0
 50
90.0000000000002
100
AcDbRotatedDimension
1001
ACAD
1000
DSTYLE
1002
{
1070
   171
1070
     6
1070
   273
1070
     7
1002
}
  0
LINE
  5
5A1
102
{ACAD_REACTORS
102
}
330
1F
100
AcDbEntity
  8
외형선
  6
Continuous
370
    15
100
AcDbLine
 10
2.000000000000057
 20
15.87500000000001
 30
0.0
 11
-23.58732499999994
 21
15.87500000000001
 31
0.0
  0
DIMENSION
  5
5A3
330
1F
100
AcDbEntity
  8
치수문자_일반주서
100
AcDbDimension
  2
*D33
 10
-61.49999999999997
 20
55.20335104222216
 30
0.0
 11
-4.350000000000108
 21
55.20335104222216
 31
0.0
 70
   160
  1
<>
 71
     2
 42
114.3
  3
SLDDIMSTYLE0
100
AcDbAlignedDimension
 13
52.80000000000001
 23
25.40000000000001
 33
0.0
 14
-61.49999999999997
 24
14.87499999999999
 34
0.0
 50
0.0000000000000036
100
AcDbRotatedDimension
1001
ACAD
1000
DSTYLE
1002
{
1070
   171
1070
     6
1070
   273
1070
     7
1002
}
  0
LINE
  5
5A4
102
{ACAD_REACTORS
102
}
330
1F
100
AcDbEntity
  8
중심선
100
AcDbLine
 10
-66.41646942134598
 20
-0.0000000000000071
 30
0.0
 11
58.84998005740732
 21
0.0000000000000071
 31
0.0
  0
CIRCLE
  5
5ED
330
1F
100
AcDbEntity
  8
해칭선
100
AcDbCircle
 10
0.0
 20
0.0
 30
0.0
 40
2.999999999999995
  0
INSERT
  5
5EE
330
1F
100
AcDbEntity
  8
해칭선
100
AcDbBlockReference
  2
SW_DOWELSYMBOL_0
 10
0.0
 20
0.0
 30
0.0
  0
SPLINE
  5
6E7
330
1F
100
AcDbEntity
  8
0
  6
Continuous
 62
     1
370
    15
100
AcDbSpline
210
0.0
220
0.0
230
1.0
 70
     8
 71
     3
 72
    68
 73
    64
 74
     0
 42
0.000000001
 43
0.00000001
 40
0.0
 40
0.0
 40
0.0
 40
0.0
 40
0.0290018037468194
 40
0.0540782637698982
 40
0.0752589381824866
 40
0.0925482209641024
 40
0.1059354627877385
 40
0.1154420714830687
 40
0.1250152770802991
 40
0.1363611824740543
 40
0.1500506040437601
 40
0.1656878218056041
 40
0.1808687820433217
 40
0.2082909651747804
 40
0.2324791632878363
 40
0.2432239664322067
 40
0.2528169408140386
 40
0.2622377467445939
 40
0.2761398665682908
 40
0.2949821359066701
 40
0.314629310566162
 40
0.333157113981408
 40
0.3484745633023005
 40
0.3629640827280334
 40
0.3762866354685606
 40
0.3878661722958067
 40
0.3976890019289785
 40
0.4057618680438843
 40
0.4148232831645071
 40
0.427045642758815
 40
0.4463569376821972
 40
0.4654169220534216
 40
0.4831348851777774
 40
0.499400578432008
 40
0.5128418852159987
 40
0.5218926724851053
 40
0.5313063917907029
 40
0.5436095808260935
 40
0.5587998149295279
 40
0.5764125075832234
 40
0.5939466560640179
 40
0.6140240418962083
 40
0.6335035746533384
 40
0.6515769113619444
 40
0.6652990469284668
 40
0.6774601987900637
 40
0.6923249638276242
 40
0.7106576665578187
 40
0.7321453639781244
 40
0.7564834849638813
 40
0.7837237720214708
 40
0.8019608726418412
 40
0.8158125664845505
 40
0.8251624349974808
 40
0.8334132427779612
 40
0.8426197880046398
 40
0.8634287666076875
 40
0.8863061091227282
 40
0.9035335010087261
 40
0.92156416309224
 40
0.9426989996747644
 40
0.968818020708514
 40
1.0
 40
1.0
 40
1.0
 40
1.0
 10
43.36110775440076
 20
17.37239433321773
 30
0.0
 10
42.96879395442897
 20
17.33934867166806
 30
0.0
 10
42.23726534535857
 20
17.27773002141667
 30
0.0
 10
41.21707292737761
 20
17.19936764612098
 30
0.0
 10
40.35245950182602
 20
17.137126879377
 30
0.0
 10
39.64258369443786
 20
17.08934773162763
 30
0.0
 10
39.08793238055202
 20
17.05411896316014
 30
0.0
 10
38.63332515122789
 20
17.02667825915554
 30
0.0
 10
38.20007259651425
 20
17.00177113158968
 30
0.0
 10
37.71251927213723
 20
16.97444042718957
 30
0.0
 10
37.1443282455038
 20
16.94425650572756
 30
0.0
 10
36.52832080410133
 20
16.91364540737747
 30
0.0
 10
35.72356939408203
 20
16.87657006586478
 30
0.0
 10
34.80400107216957
 20
16.83885629892655
 30
0.0
 10
33.95308968293455
 20
16.80922627588055
 30
0.0
 10
33.34361204315945
 20
16.79048493596401
 30
0.0
 10
32.93525693680803
 20
16.77891056241928
 30
0.0
 10
32.48188874985823
 20
16.76708381935473
 30
0.0
 10
31.900750277703
 20
16.75353923975046
 30
0.0
 10
31.17853085868231
 20
16.73952441949223
 30
0.0
 10
30.39283610770258
 20
16.72788724543829
 30
0.0
 10
29.65608310231744
 20
16.72033509641071
 30
0.0
 10
28.99049083082025
 20
16.71622010623421
 30
0.0
 10
28.396648995481
 20
16.7146724735375
 30
0.0
 10
27.85433617606145
 20
16.71506517052266
 30
0.0
 10
27.37626899041973
 20
16.71683531151529
 30
0.0
 10
26.97045895830576
 20
16.71937631287859
 30
0.0
 10
26.59930562611092
 20
16.72249424972112
 30
0.0
 10
26.19492751430667
 20
16.726719786156
 30
0.0
 10
25.63562362550809
 20
16.73398876052467
 30
0.0
 10
24.93852880352352
 20
16.74568055842101
 30
0.0
 10
24.16589739555246
 20
16.76219803540827
 30
0.0
 10
23.4353292975722
 20
16.78104129635027
 30
0.0
 10
22.78204661032999
 20
16.80051762086564
 30
0.0
 10
22.24818592903935
 20
16.81831179774117
 30
0.0
 10
21.80877634906668
 20
16.83412566803248
 30
0.0
 10
21.38508543164448
 20
16.8502979080023
 30
0.0
 10
20.87682910609988
 20
16.87100130909679
 30
0.0
 10
20.25566727749759
 20
16.89832004828535
 30
0.0
 10
19.56248454729962
 20
16.93149348645601
 30
0.0
 10
18.80193544313727
 20
16.97104789387871
 30
0.0
 10
18.01567878578771
 20
17.01546605668207
 30
0.0
 10
17.2217185664679
 20
17.06394915723292
 30
0.0
 10
16.51506484847255
 20
17.11014772260558
 30
0.0
 10
15.90934890132368
 20
17.15195800258478
 30
0.0
 10
15.34826486037269
 20
17.19235179039854
 30
0.0
 10
14.72385061165383
 20
17.23923682245715
 30
0.0
 10
13.97112641793476
 20
17.29861989059537
 30
0.0
 10
13.0878339351641
 20
17.37232617740926
 30
0.0
 10
12.081652015911
 20
17.46163403203274
 30
0.0
 10
11.11965480768981
 20
17.55246600039398
 30
0.0
 10
10.301694932358
 20
17.63376456608356
 30
0.0
 10
9.730656260007805
 20
17.69252147528787
 30
0.0
 10
9.297041617576241
 20
17.73823781983481
 30
0.0
 10
8.929439042571943
 20
17.77769785066702
 30
0.0
 10
8.407327488132495
 20
17.83473023304163
 30
0.0
 10
7.693413230014528
 20
17.91490484892744
 30
0.0
 10
6.859147372001473
 20
18.01255530161708
 30
0.0
 10
6.054148492373884
 20
18.11045085673369
 30
0.0
 10
5.269573449524671
 20
18.20871028582993
 30
0.0
 10
4.350889895914804
 20
18.32748271757982
 30
0.0
 10
3.244747402951475
 20
18.47434110963726
 30
0.0
 10
2.438657105695256
 20
18.58425955910003
 30
0.0
 10
2.0
 20
18.64407482926017
 30
0.0
  0
SPLINE
  5
6E8
330
1F
100
AcDbEntity
  8
0
  6
Continuous
 62
     1
370
    15
100
AcDbSpline
210
0.0
220
0.0
230
1.0
 70
     8
 71
     3
 72
    30
 73
    26
 74
     0
 42
0.000000001
 43
0.00000001
 40
0.0
 40
0.0
 40
0.0
 40
0.0
 40
0.0746207522435957
 40
0.1383244419131206
 40
0.1912431910090307
 40
0.2352987573159691
 40
0.2769968597337133
 40
0.329098824049198
 40
0.3785138654562915
 40
0.4224999342151151
 40
0.4480684377133504
 40
0.4724380683109173
 40
0.5090563018677987
 40
0.560405496528844
 40
0.6150603279212822
 40
0.6654161909555558
 40
0.7115451976334356
 40
0.7534776746873285
 40
0.7957754661772545
 40
0.8314126462107949
 40
0.8603680125253865
 40
0.8898818935289879
 40
0.9318205739681958
 40
0.9827865908126924
 40
1.0
 40
1.0
 40
1.0
 40
1.0
 10
2.0
 20
-18.64407482926018
 30
0.0
 10
2.400910477154099
 20
-18.5893864957501
 30
0.0
 10
3.144077978714961
 20
-18.48801076601683
 30
0.0
 10
4.173715014128902
 20
-18.35087299831856
 30
0.0
 10
5.038554956522802
 20
-18.2383275661618
 30
0.0
 10
5.777442771508589
 20
-18.14485445344976
 30
0.0
 10
6.508182188243296
 20
-18.05489654812546
 30
0.0
 10
7.262240066216805
 20
-17.96496964080711
 30
0.0
 10
8.015973536413725
 20
-17.87845096213247
 30
0.0
 10
8.632186140130784
 20
-17.80997276443346
 30
0.0
 10
9.122583694548041
 20
-17.75685533888936
 30
0.0
 10
9.57780283770353
 20
-17.70849050929517
 30
0.0
 10
10.16915086670332
 20
-17.64716774282534
 30
0.0
 10
10.92008576209849
 20
-17.57204824073205
 30
0.0
 10
11.74309095428106
 20
-17.49336995991403
 30
0.0
 10
12.53817946341854
 20
-17.42082554399485
 30
0.0
 10
13.26613483002404
 20
-17.35744428646706
 30
0.0
 10
13.95157337985765
 20
-17.30042677957153
 30
0.0
 10
14.5817261552084
 20
-17.25033066998584
 30
0.0
 10
15.14372044903894
 20
-17.20756692938476
 30
0.0
 10
15.63852672033326
 20
-17.17132174455843
 30
0.0
 10
16.16678147964527
 20
-17.13394350141159
 30
0.0
 10
16.81110873154546
 20
-17.09055797040485
 30
0.0
 10
17.39071616232525
 20
-17.0531777469946
 30
0.0
 10
17.7493828690981
 20
-17.03222045976481
 30
0.0
 10
17.83993623900568
 20
-17.02692932750485
 30
0.0
  0
SPLINE
  5
6E9
330
1F
100
AcDbEntity
  8
0
  6
Continuous
 62
     1
370
    15
100
AcDbSpline
210
0.0
220
0.0
230
1.0
 70
     8
 71
     3
 72
    38
 73
    34
 74
     0
 42
0.000000001
 43
0.00000001
 40
0.0
 40
0.0
 40
0.0
 40
0.0
 40
0.0625
 40
0.0625
 40
0.125
 40
0.125
 40
0.1875000000000001
 40
0.1875000000000001
 40
0.2500000000000001
 40
0.2500000000000001
 40
0.3125000000000001
 40
0.3125000000000001
 40
0.375
 40
0.375
 40
0.4375
 40
0.4375
 40
0.4999999999999999
 40
0.4999999999999999
 40
0.5624999999999999
 40
0.5624999999999999
 40
0.6249999999999999
 40
0.6249999999999999
 40
0.6874999999999999
 40
0.6874999999999999
 40
0.7499999999999999
 40
0.7499999999999999
 40
0.8125
 40
0.8125
 40
0.875
 40
0.875
 40
0.9375
 40
0.9375
 40
1.0
 40
1.0
 40
1.0
 40
1.0
 10
52.80000000000001
 20
-24.10309807849026
 30
0.0
 10
51.7439568367576
 20
-23.91048852296222
 30
0.0
 10
50.68416676238104
 20
-23.69673213503308
 30
0.0
 10
48.56535200058423
 20
-23.22846184838078
 30
0.0
 10
47.50834267563465
 20
-22.97412633652698
 30
0.0
 10
45.39375400769609
 20
-22.42602871799303
 30
0.0
 10
44.33347869057746
 20
-22.13200554526765
 30
0.0
 10
42.21523787961496
 20
-21.50623827156957
 30
0.0
 10
41.15973792383423
 20
-21.17477941104008
 30
0.0
 10
39.04321705417578
 20
-20.47513496322106
 30
0.0
 10
37.98274425201652
 20
-20.10697000493879
 30
0.0
 10
35.86565082458677
 20
-19.33681862571914
 30
0.0
 10
34.81038749726753
 20
-18.93503696772648
 30
0.0
 10
32.69250630693261
 20
-18.09837982444974
 30
0.0
 10
31.63212395636404
 20
-17.66376191917271
 30
0.0
 10
29.51675030987576
 20
-16.76537604590013
 30
0.0
 10
28.46045065698047
 20
-16.30144976589455
 30
0.0
 10
26.34178225410639
 20
-15.34520923187898
 30
0.0
 10
25.28177820980173
 20
-14.85322746332297
 30
0.0
 10
23.1686951911808
 20
-13.84544819133281
 30
0.0
 10
22.11008719286448
 20
-13.32877984491895
 30
0.0
 10
19.9912053961433
 20
-12.27291066135125
 30
0.0
 10
18.93331068557433
 20
-11.73411088586577
 30
0.0
 10
16.81958579342577
 20
-10.63746129217618
 30
0.0
 10
15.75945727988113
 20
-10.07885898892652
 30
0.0
 10
13.64093610067431
 20
-8.945417160545084
 30
0.0
 10
12.58502361483005
 20
-8.371037870101055
 30
0.0
 10
10.46915434086139
 20
-7.208029086718966
 30
0.0
 10
9.408721333557253
 20
-6.619298957744022
 30
0.0
 10
7.291134457645057
 20
-5.431972354692569
 30
0.0
 10
6.235931827699403
 20
-4.833753632327294
 30
0.0
 10
4.118489465515637
 20
-3.628641940907272
 30
0.0
 10
3.058039865024227
 20
-3.022080553435558
 30
0.0
 10
1.999999999998295
 20
-2.413882525699734
 30
0.0
  0
SPLINE
  5
6EA
330
1F
100
AcDbEntity
  8
외형선
  6
Continuous
370
    15
100
AcDbSpline
210
0.0
220
0.0
230
1.0
 70
    24
 71
     3
 72
     8
 73
     4
 74
     0
 42
0.000000001
 43
0.00000001
 40
0.0
 40
0.0
 40
0.0
 40
0.0
 40
1.0
 40
1.0
 40
1.0
 40
1.0
 10
2.0
 20
-0.7526883584795598
 30
0.0
 10
2.0
 20
-1.204777485562886
 30
0.0
 10
2.0
 20
-1.761616704011274
 30
0.0
 10
2.0
 20
-2.413882525692586
 30
0.0
  0
SPLINE
  5
6EB
330
1F
100
AcDbEntity
  8
0
  6
Continuous
 62
     1
370
    15
100
AcDbSpline
210
0.0
220
0.0
230
1.0
 70
     8
 71
     3
 72
    38
 73
    34
 74
     0
 42
0.000000001
 43
0.00000001
 40
0.0
 40
0.0
 40
0.0
 40
0.0
 40
0.0625
 40
0.0625
 40
0.1250000000000001
 40
0.1250000000000001
 40
0.1875000000000001
 40
0.1875000000000001
 40
0.2500000000000001
 40
0.2500000000000001
 40
0.3125000000000001
 40
0.3125000000000001
 40
0.3750000000000002
 40
0.3750000000000002
 40
0.4375000000000002
 40
0.4375000000000002
 40
0.5000000000000002
 40
0.5000000000000002
 40
0.5625000000000002
 40
0.5625000000000002
 40
0.6250000000000002
 40
0.6250000000000002
 40
0.6875000000000003
 40
0.6875000000000003
 40
0.7500000000000003
 40
0.7500000000000003
 40
0.8125000000000002
 40
0.8125000000000002
 40
0.8750000000000001
 40
0.8750000000000001
 40
0.9375000000000001
 40
0.9375000000000001
 40
1.0
 40
1.0
 40
1.0
 40
1.0
 10
52.80000000000001
 20
-20.0398955149527
 30
0.0
 10
51.74395683675763
 20
-19.84679153746212
 30
0.0
 10
50.6841667623811
 20
-19.63606662379321
 30
0.0
 10
48.56535200058437
 20
-19.180909812304
 30
0.0
 10
47.50834267563482
 20
-18.93664708859334
 30
0.0
 10
45.39375400769632
 20
-18.41567774149982
 30
0.0
 10
44.33347869057775
 20
-18.13872657700506
 30
0.0
 10
42.21523787961533
 20
-17.55399780924641
 30
0.0
 10
41.15973792383465
 20
-17.24648186927599
 30
0.0
 10
39.04321705417624
 20
-16.60153661066585
 30
0.0
 10
37.98274425201703
 20
-16.26413066418431
 30
0.0
 10
35.86565082458733
 20
-15.56207787830598
 30
0.0
 10
34.81038749726812
 20
-15.19761352056184
 30
0.0
 10
32.6925063069333
 20
-14.44209871601337
 30
0.0
 10
31.63212395636475
 20
-14.05128471205735
 30
0.0
 10
29.51675030987656
 20
-13.24662278444652
 30
0.0
 10
28.46045065698127
 20
-12.83263030499449
 30
0.0
 10
26.34178225410727
 20
-11.98228954869317
 30
0.0
 10
25.28177820980267
 20
-11.54623952880369
 30
0.0
 10
23.16869519118183
 20
-10.65583586842356
 30
0.0
 10
22.11008719286554
 20
-10.20071197869292
 30
0.0
 10
19.99120539614441
 20
-9.273292001552015
 30
0.0
 10
18.93331068557546
 20
-8.801347705884154
 30
0.0
 10
16.819585793427
 20
-7.843332007490055
 30
0.0
 10
15.75945727988238
 20
-7.356604473184426
 30
0.0
 10
13.64093610067562
 20
-6.371477857402375
 30
0.0
 10
12.58502361483141
 20
-5.873476356723984
 30
0.0
 10
10.46915434086281
 20
-4.867518688519176
 30
0.0
 10
9.40872133355873
 20
-4.35947784303314
 30
0.0
 10
7.291134457646592
 20
-3.337230739162493
 30
0.0
 10
6.235931827700995
 20
-2.82334696697022
 30
0.0
 10
4.118489465517285
 20
-1.790433869975857
 30
0.0
 10
3.058039865025876
 20
-1.271691451427735
 30
0.0
 10
2.0
 20
-0.7526883584795598
 30
0.0
  0
LINE
  5
6EC
330
1F
100
AcDbEntity
  8
0
  6
Continuous
 62
     1
370
    15
100
AcDbLine
 10
52.7999999999997
 20
-24.10309807849026
 30
0.0
 11
52.80000000000001
 21
-20.0398955149527
 31
0.0
  0
SPLINE
  5
6ED
330
1F
100
AcDbEntity
  8
0
  6
Continuous
 62
     1
370
    15
100
AcDbSpline
210
0.0
220
0.0
230
1.0
 70
     8
 71
     3
 72
    38
 73
    34
 74
     0
 42
0.000000001
 43
0.00000001
 40
0.0
 40
0.0
 40
0.0
 40
0.0
 40
0.0624999999999999
 40
0.0624999999999999
 40
0.1249999999999999
 40
0.1249999999999999
 40
0.1874999999999998
 40
0.1874999999999998
 40
0.2499999999999998
 40
0.2499999999999998
 40
0.3124999999999997
 40
0.3124999999999997
 40
0.3749999999999997
 40
0.3749999999999997
 40
0.4374999999999996
 40
0.4374999999999996
 40
0.4999999999999996
 40
0.4999999999999996
 40
0.5624999999999996
 40
0.5624999999999996
 40
0.6249999999999997
 40
0.6249999999999997
 40
0.6874999999999997
 40
0.6874999999999997
 40
0.7499999999999998
 40
0.7499999999999998
 40
0.8124999999999998
 40
0.8124999999999998
 40
0.8749999999999999
 40
0.8749999999999999
 40
0.9374999999999999
 40
0.9374999999999999
 40
1.0
 40
1.0
 40
1.0
 40
1.0
 10
52.80000000000001
 20
-25.39999999999999
 30
0.0
 10
51.74395683675766
 20
-25.35343420748155
 30
0.0
 10
50.6841667623811
 20
-25.30628025492125
 30
0.0
 10
48.56535200058437
 20
-25.16808889419372
 30
0.0
 10
47.50834267563482
 20
-25.0771268642267
 30
0.0
 10
45.39375400769634
 20
-24.85187686306605
 30
0.0
 10
44.33347869057775
 20
-24.71746217696386
 30
0.0
 10
42.21523787961533
 20
-24.40602823059501
 30
0.0
 10
41.15973792383463
 20
-24.22917718744959
 30
0.0
 10
39.04321705417624
 20
-23.8334512580954
 30
0.0
 10
37.98274425201703
 20
-23.61456455744316
 30
0.0
 10
35.86565082458733
 20
-23.13644096799853
 30
0.0
 10
34.81038749726812
 20
-22.87735371018972
 30
0.0
 10
32.6925063069333
 20
-22.31932651616259
 30
0.0
 10
31.63212395636475
 20
-22.02053765629699
 30
0.0
 10
29.51675030987656
 20
-21.38578676844228
 30
0.0
 10
28.46045065698127
 20
-21.04972776272706
 30
0.0
 10
26.3417822541073
 20
-20.34099908602428
 30
0.0
 10
25.28177820980267
 20
-19.96856186230848
 30
0.0
 10
23.16869519118183
 20
-19.1905394008805
 30
0.0
 10
22.11008719286554
 20
-18.78428634820933
 30
0.0
 10
19.99120539614441
 20
-17.93963564985879
 30
0.0
 10
18.93331068557546
 20
-17.50156142277763
 30
0.0
 10
16.819585793427
 20
-16.59612808826976
 30
0.0
 10
15.75945727988238
 20
-16.12814108523146
 30
0.0
 10
13.64093610067562
 20
-15.16521359885537
 30
0.0
 10
12.58502361483141
 20
-14.67067721482607
 30
0.0
 10
10.46915434086281
 20
-13.65639366911644
 30
0.0
 10
9.40872133355873
 20
-13.13654597336373
 30
0.0
 10
7.291134457646592
 20
-12.07547714332232
 30
0.0
 10
6.235931827700995
 20
-11.53460838914456
 30
0.0
 10
4.118489465517285
 20
-10.43259779016437
 30
0.0
 10
3.058039865025904
 20
-9.871744579937022
 30
0.0
 10
2.000000000000028
 20
-9.30323779693849
 30
0.0
  0
LINE
  5
6EE
330
1F
100
AcDbEntity
  8
0
  6
Continuous
 62
     1
370
    15
100
AcDbLine
 10
52.80000000000001
 20
-25.4
 30
0.0
 11
52.79999999999993
 21
-24.10309807849023
 31
0.0
  0
LINE
  5
6EF
330
1F
100
AcDbEntity
  8
외형선
  6
Continuous
370
    15
100
AcDbLine
 10
2.0
 20
-9.303237796938468
 30
0.0
 11
2.0
 21
-2.413882525695904
 31
0.0
  0
SPLINE
  5
6F0
330
1F
100
AcDbEntity
  8
0
  6
Continuous
 62
     1
370
    15
100
AcDbSpline
210
0.0
220
0.0
230
1.0
 70
     8
 71
     3
 72
    38
 73
    34
 74
     0
 42
0.000000001
 43
0.00000001
 40
0.0
 40
0.0
 40
0.0
 40
0.0
 40
0.0625
 40
0.0625
 40
0.1250000000000001
 40
0.1250000000000001
 40
0.1875000000000001
 40
0.1875000000000001
 40
0.2500000000000001
 40
0.2500000000000001
 40
0.3125000000000001
 40
0.3125000000000001
 40
0.3750000000000002
 40
0.3750000000000002
 40
0.4375000000000002
 40
0.4375000000000002
 40
0.5000000000000002
 40
0.5000000000000002
 40
0.5625000000000002
 40
0.5625000000000002
 40
0.6250000000000002
 40
0.6250000000000002
 40
0.6875000000000003
 40
0.6875000000000003
 40
0.7500000000000003
 40
0.7500000000000003
 40
0.8125000000000002
 40
0.8125000000000002
 40
0.8750000000000001
 40
0.8750000000000001
 40
0.9375000000000001
 40
0.9375000000000001
 40
1.0
 40
1.0
 40
1.0
 40
1.0
 10
52.80000000000001
 20
0.0
 30
0.0
 10
51.74395683675763
 20
0.4884631165532554
 30
0.0
 10
50.6841667623811
 20
0.9775034171039181
 30
0.0
 10
48.56535200058437
 20
1.952919846257196
 30
0.0
 10
47.50834267563482
 20
2.43898688268736
 30
0.0
 10
45.39375400769632
 20
3.406137308851584
 30
0.0
 10
44.33347869057775
 20
3.887627969339796
 30
0.0
 10
42.21523787961533
 20
4.842671954208704
 30
0.0
 10
41.15973792383465
 20
5.315862121491236
 30
0.0
 10
39.04321705417624
 20
6.253023983048884
 30
0.0
 10
37.98274425201703
 20
6.716903497757464
 30
0.0
 10
35.86565082458733
 20
7.631636087267324
 30
0.0
 10
34.81038749726812
 20
8.082307834670821
 30
0.0
 10
32.6925063069333
 20
8.969886494767813
 30
0.0
 10
31.63212395636475
 20
9.406463189606491
 30
0.0
 10
29.51675030987656
 20
10.26180299196132
 30
0.0
 10
28.46045065698127
 20
10.68075771912773
 30
0.0
 10
26.34178225410727
 20
11.50019412629345
 30
0.0
 10
25.28177820980267
 20
11.90035246524566
 30
0.0
 10
23.16869519118183
 20
12.67848107004753
 30
0.0
 10
22.11008719286554
 20
13.05713607595201
 30
0.0
 10
19.99120539614441
 20
13.79130219903389
 30
0.0
 10
18.93331068557546
 20
14.14654155921756
 30
0.0
 10
16.819585793427
 20
14.83165811483408
 30
0.0
 10
15.75945727988238
 20
15.16198722658618
 30
0.0
 10
13.64093610067562
 20
15.79555084702108
 30
0.0
 10
12.58502361483141
 20
16.09856411117921
 30
0.0
 10
10.46915434086281
 20
16.67653545334867
 30
0.0
 10
9.40872133355873
 20
16.95150844938839
 30
0.0
 10
7.291134457646592
 20
17.4712593690602
 30
0.0
 10
6.235931827700995
 20
17.7159126075401
 30
0.0
 10
4.118489465517285
 20
18.17459841906464
 30
0.0
 10
3.058039865025876
 20
18.38846471206109
 30
0.0
 10
2.0
 20
18.58602999787495
 30
0.0
  0
SPLINE
  5
6F1
330
1F
100
AcDbEntity
  8
0
  6
Continuous
 62
     1
370
    15
100
AcDbSpline
210
0.0
220
0.0
230
1.0
 70
    24
 71
     3
 72
    14
 73
    10
 74
     0
 42
0.000000001
 43
0.00000001
 40
0.0
 40
0.0
 40
0.0
 40
0.0
 40
0.25
 40
0.25
 40
0.5
 40
0.5
 40
0.75
 40
0.75
 40
1.0
 40
1.0
 40
1.0
 40
1.0
 10
52.80000000000001
 20
-20.03989551495268
 30
0.0
 10
52.79999999999998
 20
-18.95557336052246
 30
0.0
 10
52.80000000000001
 20
-17.67202380632717
 30
0.0
 10
52.79999999999998
 20
-14.75713589577274
 30
0.0
 10
52.79999999999998
 20
-13.1262083448734
 30
0.0
 10
52.79999999999998
 20
-9.623740089790282
 30
0.0
 10
52.80000000000001
 20
-7.753210792117308
 30
0.0
 10
52.80000000000001
 20
-3.913653825697807
 30
0.0
 10
52.80000000000001
 20
-1.945765085460714
 30
0.0
 10
52.80000000000001
 20
0.0
 30
0.0
  0
SPLINE
  5
6F2
330
1F
100
AcDbEntity
  8
외형선
  6
Continuous
370
    15
100
AcDbSpline
210
0.0
220
0.0
230
1.0
 70
    24
 71
     3
 72
    14
 73
    10
 74
     0
 42
0.000000001
 43
0.00000001
 40
0.0
 40
0.0
 40
0.0
 40
0.0
 40
0.25
 40
0.25
 40
0.5
 40
0.5
 40
0.75
 40
0.75
 40
1.0
 40
1.0
 40
1.0
 40
1.0
 10
2.0
 20
18.58602999787495
 30
0.0
 10
2.0
 20
17.59245334497323
 30
0.0
 10
2.0
 20
16.39576368792098
 30
0.0
 10
2.0
 20
13.63954679332132
 30
0.0
 10
2.0
 20
12.08037135390204
 30
0.0
 10
2.0
 20
8.700451179837962
 30
0.0
 10
2.0
 20
6.880682463538243
 30
0.0
 10
2.0
 20
3.11878617576842
 30
0.0
 10
2.0
 20
1.177802316400523
 30
0.0
 10
2.0
 20
-0.7526883584795598
 30
0.0
  0
SPLINE
  5
6F3
330
1F
100
AcDbEntity
  8
0
  6
Continuous
 62
     1
370
    15
100
AcDbSpline
210
0.0
220
0.0
230
1.0
 70
    24
 71
     3
 72
    10
 73
     6
 74
     0
 42
0.000000001
 43
0.00000001
 40
0.0
 40
0.0
 40
0.0
 40
0.0
 40
0.5
 40
0.5
 40
1.0
 40
1.0
 40
1.0
 40
1.0
 10
47.80000000000001
 20
13.02321813694331
 30
0.0
 10
47.80000000000001
 20
13.71820767828032
 30
0.0
 10
47.80000000000001
 20
14.34397502627872
 30
0.0
 10
47.80000000000001
 20
15.44274489391832
 30
0.0
 10
47.80000000000001
 20
15.9157308934945
 30
0.0
 10
47.80000000000001
 20
16.30935131046915
 30
0.0
  0
SPLINE
  5
6F4
330
1F
100
AcDbEntity
  8
0
  6
Continuous
 62
     1
370
    15
100
AcDbSpline
210
0.0
220
0.0
230
1.0
 70
     8
 71
     3
 72
    10
 73
     6
 74
     0
 42
0.000000001
 43
0.00000001
 40
0.0
 40
0.0
 40
0.0
 40
0.0
 40
0.5
 40
0.5
 40
1.0
 40
1.0
 40
1.0
 40
1.0
 10
47.80000000000001
 20
13.02321813694333
 30
0.0
 10
48.69431931368737
 20
12.47562514837291
 30
0.0
 10
49.56006898428248
 20
11.86799396800355
 30
0.0
 10
51.22914897846303
 20
10.52155934460767
 30
0.0
 10
52.03253921924454
 20
9.782881815653447
 30
0.0
 10
52.80000000000001
 20
8.96869967485275
 30
0.0
  0
SPLINE
  5
6F5
330
1F
100
AcDbEntity
  8
0
  6
Continuous
 62
     1
370
    15
100
AcDbSpline
210
0.0
220
0.0
230
1.0
 70
     8
 71
     3
 72
    10
 73
     6
 74
     0
 42
0.000000001
 43
0.00000001
 40
0.0
 40
0.0
 40
0.0
 40
0.0
 40
0.4754448093526855
 40
0.9506961765258551
 40
1.0
 40
1.0
 40
1.0
 40
1.0
 10
52.80000000000001
 20
17.77999999999999
 30
0.0
 10
51.30373493084113
 20
17.75876986550826
 30
0.0
 10
48.31181357144038
 20
17.71631823433805
 30
0.0
 10
45.16493126952639
 20
17.55077540581357
 30
0.0
 10
43.51421312581712
 20
17.37989889337943
 30
0.0
 10
43.35905935474764
 20
17.36383792295126
 30
0.0
  0
SPLINE
  5
6F6
330
1F
100
AcDbEntity
  8
0
  6
Continuous
 62
     1
370
    15
100
AcDbSpline
210
0.0
220
0.0
230
1.0
 70
     8
 71
     3
 72
     8
 73
     4
 74
     0
 42
0.000000001
 43
0.00000001
 40
0.0
 40
0.0
 40
0.0
 40
0.0
 40
1.0
 40
1.0
 40
1.0
 40
1.0
 10
52.80000000000001
 20
17.78000000000001
 30
0.0
 10
51.12698159360298
 20
17.32658360122463
 30
0.0
 10
49.46025984458774
 20
16.836686499873
 30
0.0
 10
47.80000000000001
 20
16.30935131046915
 30
0.0
  0
SPLINE
  5
6F7
330
1F
100
AcDbEntity
  8
0
  6
Continuous
 62
     1
370
    15
100
AcDbSpline
210
0.0
220
0.0
230
1.0
 70
    24
 71
     3
 72
    10
 73
     6
 74
     0
 42
0.000000001
 43
0.00000001
 40
0.0
 40
0.0
 40
0.0
 40
0.0
 40
0.5
 40
0.5
 40
1.0
 40
1.0
 40
1.0
 40
1.0
 10
52.80000000000001
 20
-0.0000000000000071
 30
0.0
 10
52.79999999999998
 20
1.585610116459101
 30
0.0
 10
52.80000000000001
 20
3.156497691851285
 30
0.0
 10
52.79999999999998
 20
6.17691532178673
 30
0.0
 10
52.80000000000001
 20
7.625879162438544
 30
0.0
 10
52.80000000000001
 20
8.968699674852758
 30
0.0
  0
SPLINE
  5
6F8
330
1F
100
AcDbEntity
  8
외형선
  6
Continuous
370
    15
100
AcDbSpline
210
0.0
220
0.0
230
1.0
 70
    24
 71
     3
 72
    17
 73
    13
 74
     0
 42
0.000000001
 43
0.00000001
 40
0.0
 40
0.0
 40
0.0
 40
0.0
 40
0.0801773907786315
 40
0.1849712710776708
 40
0.2897651513767101
 40
0.3916004946237912
 40
0.4934358378708722
 40
0.5982297181699116
 40
0.703023598468951
 40
0.8050770253339938
 40
0.9074875430615392
 40
1.0
 40
1.0
 40
1.0
 40
1.0
 10
2.0
 20
-9.363187997277414
 30
0.0
 10
2.0
 20
-9.813567845675223
 30
0.0
 10
2.0
 20
-10.85260556212975
 30
0.0
 10
2.0
 20
-12.31321547439575
 30
0.0
 10
2.0
 20
-13.74280127739598
 30
0.0
 10
2.0
 20
-14.9907249900211
 30
0.0
 10
2.0
 20
-16.07141994922628
 30
0.0
 10
2.0
 20
-16.97967633510424
 30
0.0
 10
2.0
 20
-17.70103264204827
 30
0.0
 10
2.0
 20
-18.21744218747529
 30
0.0
 10
2.0
 20
-18.5452239122799
 30
0.0
 10
2.0
 20
-18.60538272231014
 30
0.0
 10
2.0
 20
-18.6339347148699
 30
0.0
  0
LINE
  5
6F9
330
1F
100
AcDbEntity
  8
0
  6
Continuous
 62
     1
370
    15
100
AcDbLine
 10
52.80000000000001
 20
8.998684775022227
 30
0.0
 11
52.80000000000001
 21
17.77999999999999
 31
0.0
  0
SPLINE
  5
6FA
330
1F
100
AcDbEntity
  8
0
  6
Continuous
 62
     1
370
    15
100
AcDbSpline
210
0.0
220
0.0
230
1.0
 70
     8
 71
     3
 72
    17
 73
    13
 74
     0
 42
0.000000001
 43
0.00000001
 40
0.0
 40
0.0
 40
0.0
 40
0.0
 40
0.0119297730726179
 40
0.1281979486262417
 40
0.2444027213328074
 40
0.3606340944610263
 40
0.4672426703369559
 40
0.5737592257315232
 40
0.6803143103393141
 40
0.7869110263119613
 40
0.8934231854451237
 40
1.0
 40
1.0
 40
1.0
 40
1.0
 10
17.8396810958358
 20
17.0268165598381
 30
0.0
 10
17.97871079494189
 20
17.08847036898648
 30
0.0
 10
19.47273101770983
 20
17.75100534007974
 30
0.0
 10
22.32115669739318
 20
18.87827858484339
 30
0.0
 10
26.38435360991653
 20
20.38124667340019
 30
0.0
 10
30.33523479867986
 20
21.65899218058068
 30
0.0
 10
34.1740823561662
 20
22.73578420871358
 30
0.0
 10
37.89883721627123
 20
23.61791369619053
 30
0.0
 10
41.62403186799821
 20
24.33143336149462
 30
0.0
 10
45.34978988952403
 20
24.86686963548994
 30
0.0
 10
49.07451047408944
 20
25.23763748814645
 30
0.0
 10
51.55791898622761
 20
25.33155786816864
 30
0.0
 10
52.80000000000001
 20
25.40000000000001
 30
0.0
  0
SPLINE
  5
6FB
330
1F
100
AcDbEntity
  8
0
  6
Continuous
 62
     1
370
    15
100
AcDbSpline
210
0.0
220
0.0
230
1.0
 70
    24
 71
     3
 72
    14
 73
    10
 74
     0
 42
0.000000001
 43
0.00000001
 40
0.0
 40
0.0
 40
0.0
 40
0.0
 40
0.25
 40
0.25
 40
0.5
 40
0.5
 40
0.75
 40
0.75
 40
1.0
 40
1.0
 40
1.0
 40
1.0
 10
52.80000000000001
 20
17.77999999999999
 30
0.0
 10
52.79999999999998
 20
18.31888966145289
 30
0.0
 10
52.80000000000001
 20
18.90012989484099
 30
0.0
 10
52.79999999999998
 20
20.12433773570246
 30
0.0
 10
52.80000000000001
 20
20.76718330402
 30
0.0
 10
52.79999999999998
 20
22.08103249361049
 30
0.0
 10
52.80000000000001
 20
22.75181509401222
 30
0.0
 10
52.80000000000001
 20
24.08266931494268
 30
0.0
 10
52.80000000000001
 20
24.74249878809517
 30
0.0
 10
52.80000000000001
 20
25.40000000000001
 30
0.0
  0
INSERT
  5
6FE
330
1F
100
AcDbEntity
  8
0
  6
Continuous
 62
     1
370
    15
100
AcDbBlockReference
 66
     1
  2
블럭10
 10
-11.9402729321252
 20
-52.04717430164394
 30
0.0
  0
ATTRIB
  5
6FF
330
6FE
100
AcDbEntity
  8
FORMAT
 62
     2
100
AcDbText
 10
-21.12156822086649
 20
-49.97180738881174
 30
0.0
 40
4.233333333333333
  1
E1070200 [ 2 FLUTE ]
 41
0.75
  7
SLDTEXTSTYLE0
 11
-21.12156822086649
 21
-52.08847405547841
 31
0.0
100
AcDbAttribute
  2
AUTOATTR0
 70
     0
 74
     1
  0
SEQEND
  5
700
330
6FE
100
AcDbEntity
  8
0
  6
Continuous
 62
     7
  0
HATCH
  5
701
330
1F
100
AcDbEntity
  8
중심선
100
AcDbHatch
 10
0.0
 20
0.0
 30
0.0
210
0.0
220
0.0
230
1.0
  2
SOLID
 70
     1
 71
     0
 91
        1
 92
        0
 93
        4
 72
     1
 10
-6.225363627744372
 20
-35.79999999999999
 11
-9.671638871581656
 21
-35.79999999999999
 72
     1
 10
-9.67163887158165
 20
-35.79999999999999
 11
-11.79986873078568
 21
-38.33632558057259
 72
     1
 10
-11.79986873078568
 20
-38.3363255805726
 11
-8.353560401835246
 21
-38.33628615127011
 72
     1
 10
-8.353560401835239
 20
-38.33628615127011
 11
-6.225363627744365
 21
-35.8
 97
        0
 75
     0
 76
     1
 98
        1
 10
-1.740578832126943
 20
-0.0010749287238951
  0
HATCH
  5
702
330
1F
100
AcDbEntity
  8
중심선
100
AcDbHatch
 10
0.0
 20
0.0
 30
0.0
210
0.0
220
0.0
230
1.0
  2
SOLID
 70
     1
 71
     0
 91
        1
 92
        0
 93
        4
 72
     1
 10
-1.212599636708433
 20
-35.79999999999999
 11
-4.658874880545717
 21
-35.79999999999999
 72
     1
 10
-4.658874880545682
 20
-35.79999999999999
 11
-9.19001288890307
 21
-41.20000000000001
 72
     1
 10
-9.190012888903084
 20
-41.20000000000002
 11
-5.743737645065799
 21
-41.20000000000002
 72
     1
 10
-5.743737645065806
 20
-41.20000000000002
 11
-1.212599636708418
 21
-35.8
 97
        0
 75
     0
 76
     1
 98
        1
 10
-1.740578832126943
 20
-0.0010749287238951
  0
HATCH
  5
703
330
1F
100
AcDbEntity
  8
0
  6
Continuous
 62
     1
370
    15
100
AcDbHatch
 10
0.0
 20
0.0
 30
0.0
210
0.0
220
0.0
230
1.0
  2
SOLID
 70
     1
 71
     0
 91
        1
 92
        0
 93
        4
 72
     1
 10
3.800164354327478
 20
-35.80000000000002
 11
0.3538891104903854
 21
-35.79999999999999
 72
     1
 10
0.3538891104903996
 20
-35.79999999999999
 11
-6.694547791398875
 21
-44.20000000000001
 72
     1
 10
-6.69454779139889
 20
-44.20000000000002
 11
-3.248272547561605
 21
-44.20000000000002
 72
     1
 10
-3.248272547561612
 20
-44.20000000000002
 11
3.800164354327471
 21
-35.80000000000003
 97
        0
 75
     0
 76
     1
 98
        1
 10
-1.740578832126943
 20
-0.0010749287238951
  0
HATCH
  5
704
330
1F
100
AcDbEntity
  8
0
  6
Continuous
 62
     1
370
    15
100
AcDbHatch
 10
0.0
 20
0.0
 30
0.0
210
0.0
220
0.0
230
1.0
  2
SOLID
 70
     1
 71
     0
 91
        1
 92
        0
 93
        6
 72
     3
 10
8.600054785339694
 20
-40.00000000005128
 11
3.960054785062255
 21
1.541025085316505E-10
 40
0.3939339440162656
 50
17.09539180608443
 51
320.0019657685079
 73
     0
 72
     1
 10
10.28305444104029
 20
-38.58789400463829
 11
12.58835631474136
 21
-36.65356729459037
 72
     3
 10
8.60005478528683
 20
-40.00000000000015
 11
6.600054785286829
 21
-1.278976924368180E-13
 40
0.636358354079598
 50
39.99873849337402
 51
368.4976242363724
 73
     1
 72
     1
 10
15.02538727718743
 20
-39.03999999993002
 11
7.280122092122753
 21
-39.03999999993002
 72
     1
 10
7.280122092122753
 20
-39.03999999993002
 11
7.280097047676819
 21
-40.95999999992991
 72
     1
 10
7.280097047676804
 20
-40.95999999992991
 11
11.72147681714884
 21
-40.95999999992988
 97
        0
 75
     0
 76
     1
 98
        1
 10
-1.740578832126943
 20
-0.0010749287238951
  0
DIMENSION
  5
706
330
1F
100
AcDbEntity
  8
치수문자_일반주서
100
AcDbDimension
  2
*D40
 10
2.000000000000057
 20
37.77384989103583
 30
0.0
 11
27.40000000000001
 21
37.77384989103583
 31
0.0
 70
   160
  1
<>
 71
     2
 42
50.79999999999995
  3
SLDDIMSTYLE0
100
AcDbAlignedDimension
 13
52.80000000000001
 23
25.40000000000001
 33
0.0
 14
2.000000000000057
 24
15.87500000000001
 34
0.0
100
AcDbRotatedDimension
1001
ACAD
1000
DSTYLE
1002
{
1070
   171
1070
     6
1070
   273
1070
     7
1002
}
  0
DIMENSION
  5
708
330
1F
100
AcDbEntity
  8
치수문자_일반주서
100
AcDbDimension
  2
*D42
 10
71.80000000000015
 20
25.40000000000008
 30
0.0
 11
71.79999999999998
 21
76.57853230683313
 31
0.0
 70
   160
  1
%%c<>
 71
     2
 42
50.8
 52
-270.0
  3
SLDDIMSTYLE0
100
AcDbAlignedDimension
 13
52.80000000000001
 23
-25.4
 33
0.0
 14
52.80000000000001
 24
25.40000000000001
 34
0.0
 50
90.0000000000002
100
AcDbRotatedDimension
1001
ACAD
1000
DSTYLE
1002
{
1070
   171
1070
     6
1070
   273
1070
     7
1002
}
  0
LINE
  5
79B
330
1F
100
AcDbEntity
  8
외형선
  6
Continuous
370
    15
100
AcDbLine
 10
-46.41240000000008
 20
15.875
 30
0.0
 11
-41.46892499999998
 21
15.875
 31
0.0
  0
LINE
  5
79C
330
1F
100
AcDbEntity
  8
외형선
  6
Continuous
370
    15
100
AcDbLine
 10
-39.08132499999996
 20
13.48739999999999
 30
0.0
 11
-25.97492499999996
 21
13.48739999999999
 31
0.0
  0
LINE
  5
79D
330
1F
100
AcDbEntity
  8
외형선
  6
Continuous
370
    15
100
AcDbLine
 10
-25.97492499999996
 20
13.48739999999999
 30
0.0
 11
-23.58732499999994
 21
15.87500000000001
 31
0.0
  0
LINE
  5
79E
330
1F
100
AcDbEntity
  8
외형선
  6
Continuous
370
    15
100
AcDbLine
 10
-39.08132499999996
 20
13.48739999999999
 30
0.0
 11
-41.46892499999998
 21
15.87500000000001
 31
0.0
  0
LINE
  5
79F
330
1F
100
AcDbEntity
  8
외형선
  6
Continuous
370
    15
100
AcDbLine
 10
-61.49999999999997
 20
13.48739999999999
 30
0.0
 11
-48.79999999999998
 21
13.48739999999999
 31
0.0
  0
LINE
  5
7A0
330
1F
100
AcDbEntity
  8
외형선
  6
Continuous
370
    15
100
AcDbLine
 10
-48.79999999999998
 20
13.48739999999999
 30
0.0
 11
-46.41240000000008
 21
15.87499999999999
 31
0.0
  0
LINE
  5
7A1
102
{ACAD_REACTORS
102
}
330
1F
100
AcDbEntity
  8
외형선
  6
Continuous
370
    15
100
AcDbLine
 10
-41.46892499999998
 20
15.87500000000001
 30
0.0
 11
-46.41240000000005
 21
15.87500000000001
 31
0.0
  0
ENDSEC
  0
SECTION
  2
OBJECTS
  0
DICTIONARY
  5
C
330
0
100
AcDbDictionary
281
     1
  3
ACAD_GROUP
350
D
  3
ACAD_IMAGE_VARS
350
153
  3
ACAD_LAYOUT
350
1A
  3
ACAD_MLINESTYLE
350
17
  3
ACAD_PLOTSETTINGS
350
19
  3
ACAD_PLOTSTYLENAME
350
E
  3
ACAD_SCALELIST
350
47
  3
APPDATA
350
151
  3
DWGPROPS
350
7A2
  0
DICTIONARY
  5
17A
330
2
100
AcDbDictionary
280
     1
281
     1
  3
ACAD_LAYERSTATES
360
17B
  0
DICTIONARY
  5
D
102
{ACAD_REACTORS
330
C
102
}
330
C
100
AcDbDictionary
281
     1
  0
RASTERVARIABLES
  5
153
102
{ACAD_REACTORS
330
C
102
}
330
C
100
AcDbRasterVariables
 90
        0
 70
     1
 71
     1
 72
     1
  0
DICTIONARY
  5
1A
102
{ACAD_REACTORS
330
C
102
}
330
C
100
AcDbDictionary
281
     1
  3
Layout1
350
1E
  3
Layout2
350
26
  3
Model
350
22
  0
DICTIONARY
  5
17
102
{ACAD_REACTORS
330
C
102
}
330
C
100
AcDbDictionary
281
     1
  3
Standard
350
18
  0
DICTIONARY
  5
19
102
{ACAD_REACTORS
330
C
102
}
330
C
100
AcDbDictionary
281
     1
  0
ACDBDICTIONARYWDFLT
  5
E
102
{ACAD_REACTORS
330
C
102
}
330
C
100
AcDbDictionary
281
     1
  3
Normal
350
F
100
AcDbDictionaryWithDefault
340
F
  0
DICTIONARY
  5
47
102
{ACAD_REACTORS
330
C
102
}
330
C
100
AcDbDictionary
281
     1
  3
A0
350
48
  3
A1
350
49
  3
A2
350
4A
  3
A3
350
4B
  3
A4
350
4C
  3
A5
350
4D
  3
A6
350
4E
  3
A7
350
4F
  3
A8
350
50
  3
A9
350
51
  3
B0
350
52
  3
B1
350
53
  3
B2
350
54
  3
B3
350
55
  3
B4
350
56
  3
B5
350
57
  3
B6
350
58
  3
B7
350
59
  3
B8
350
5A
  3
B9
350
5B
  3
C0
350
5C
  3
C1
350
5D
  3
C2
350
5E
  3
C3
350
5F
  3
C4
350
60
  3
C5
350
61
  3
C6
350
62
  3
C7
350
63
  3
C8
350
64
  3
C9
350
65
  3
D0
350
66
  3
D1
350
67
  3
D2
350
68
  0
DICTIONARY
  5
151
102
{ACAD_REACTORS
330
C
102
}
330
C
100
AcDbDictionary
281
     1
  0
XRECORD
  5
7A2
102
{ACAD_REACTORS
330
C
102
}
330
C
100
AcDbXrecord
280
     1
  1
DWGPROPS COOKIE
  2

  3

  4

  6

  7

  8
12016016
  9

300
=
301
=
302
=
303
=
304
=
305
=
306
=
307
=
308
=
309
=
 40
0.0
 41
2458311.089532535
 42
2458318.289282685
  1

 90
        0
  0
DICTIONARY
  5
17B
102
{ACAD_REACTORS
330
17A
102
}
330
17A
100
AcDbDictionary
281
     1
  0
LAYOUT
  5
1E
102
{ACAD_REACTORS
330
1A
102
}
330
1A
100
AcDbPlotSettings
  1

  2
none_device
  4

  6

 40
0.0
 41
0.0
 42
0.0
 43
0.0
 44
0.0
 45
0.0
 46
0.0
 47
0.0
 48
0.0
 49
0.0
140
0.0
141
0.0
142
1.0
143
1.0
 70
   688
 72
     1
 73
     0
 74
     5
  7

 75
    16
147
1.0
148
0.0
149
0.0
100
AcDbLayout
  1
Layout1
 70
     1
 71
     1
 10
0.0
 20
0.0
 11
420.0
 21
297.0
 12
0.0
 22
0.0
 32
0.0
 14
1.000000000000000E+20
 24
1.000000000000000E+20
 34
1.000000000000000E+20
 15
-1.000000000000000E+20
 25
-1.000000000000000E+20
 35
-1.000000000000000E+20
146
0.0
 13
0.0
 23
0.0
 33
0.0
 16
1.0
 26
0.0
 36
0.0
 17
0.0
 27
1.0
 37
0.0
 76
     0
330
1B
  0
LAYOUT
  5
26
102
{ACAD_REACTORS
330
1A
102
}
330
1A
100
AcDbPlotSettings
  1

  2
none_device
  4

  6

 40
0.0
 41
0.0
 42
0.0
 43
0.0
 44
0.0
 45
0.0
 46
0.0
 47
0.0
 48
0.0
 49
0.0
140
0.0
141
0.0
142
1.0
143
1.0
 70
   688
 72
     1
 73
     0
 74
     5
  7

 75
    16
147
1.0
148
0.0
149
0.0
100
AcDbLayout
  1
Layout2
 70
     1
 71
     2
 10
0.0
 20
0.0
 11
0.0
 21
0.0
 12
0.0
 22
0.0
 32
0.0
 14
0.0
 24
0.0
 34
0.0
 15
0.0
 25
0.0
 35
0.0
146
0.0
 13
0.0
 23
0.0
 33
0.0
 16
1.0
 26
0.0
 36
0.0
 17
0.0
 27
1.0
 37
0.0
 76
     0
330
23
  0
LAYOUT
  5
22
102
{ACAD_REACTORS
330
1A
102
}
330
1A
100
AcDbPlotSettings
  1

  2
none_device
  4
ANSI_A_(11.00_x_8.50_Inches)
  6

 40
6.35
 41
19.05
 42
6.35000508
 43
19.05000254
 44
279.4
 45
215.9
 46
104.9176848056163
 47
34.44669527120154
 48
0.0
 49
0.0
140
0.0
141
0.0
142
0.0406917368828658
143
1.0
 70
  1696
 72
     0
 73
     0
 74
     0
  7

 75
     0
147
0.0235690232323232
148
0.0
149
0.0
100
AcDbLayout
  1
Model
 70
     1
 71
     0
 10
0.0
 20
0.0
 11
420.0
 21
297.0
 12
0.0
 22
0.0
 32
0.0
 14
1.000000000000000E+20
 24
1.000000000000000E+20
 34
1.000000000000000E+20
 15
-1.000000000000000E+20
 25
-1.000000000000000E+20
 35
-1.000000000000000E+20
146
0.0
 13
0.0
 23
0.0
 33
0.0
 16
1.0
 26
0.0
 36
0.0
 17
0.0
 27
1.0
 37
0.0
 76
     0
330
1F
331
29
  0
MLINESTYLE
  5
18
102
{ACAD_REACTORS
330
17
102
}
330
17
100
AcDbMlineStyle
  2
Standard
 70
     0
  3

 62
   256
 51
90.0
 52
90.0
 71
     2
 49
0.5
 62
   256
  6
BYLAYER
 49
-0.5
 62
   256
  6
BYLAYER
  0
ACDBPLACEHOLDER
  5
F
102
{ACAD_REACTORS
330
E
102
}
330
E
  0
SCALE
  5
48
102
{ACAD_REACTORS
330
47
102
}
330
47
100
AcDbScale
 70
     0
300
1:1
140
1.0
141
1.0
290
     1
  0
SCALE
  5
49
102
{ACAD_REACTORS
330
47
102
}
330
47
100
AcDbScale
 70
     0
300
1:2
140
1.0
141
2.0
290
     0
  0
SCALE
  5
4A
102
{ACAD_REACTORS
330
47
102
}
330
47
100
AcDbScale
 70
     0
300
1:4
140
1.0
141
4.0
290
     0
  0
SCALE
  5
4B
102
{ACAD_REACTORS
330
47
102
}
330
47
100
AcDbScale
 70
     0
300
1:5
140
1.0
141
5.0
290
     0
  0
SCALE
  5
4C
102
{ACAD_REACTORS
330
47
102
}
330
47
100
AcDbScale
 70
     0
300
1:8
140
1.0
141
8.0
290
     0
  0
SCALE
  5
4D
102
{ACAD_REACTORS
330
47
102
}
330
47
100
AcDbScale
 70
     0
300
1:10
140
1.0
141
10.0
290
     0
  0
SCALE
  5
4E
102
{ACAD_REACTORS
330
47
102
}
330
47
100
AcDbScale
 70
     0
300
1:16
140
1.0
141
16.0
290
     0
  0
SCALE
  5
4F
102
{ACAD_REACTORS
330
47
102
}
330
47
100
AcDbScale
 70
     0
300
1:20
140
1.0
141
20.0
290
     0
  0
SCALE
  5
50
102
{ACAD_REACTORS
330
47
102
}
330
47
100
AcDbScale
 70
     0
300
1:30
140
1.0
141
30.0
290
     0
  0
SCALE
  5
51
102
{ACAD_REACTORS
330
47
102
}
330
47
100
AcDbScale
 70
     0
300
1:40
140
1.0
141
40.0
290
     0
  0
SCALE
  5
52
102
{ACAD_REACTORS
330
47
102
}
330
47
100
AcDbScale
 70
     0
300
1:50
140
1.0
141
50.0
290
     0
  0
SCALE
  5
53
102
{ACAD_REACTORS
330
47
102
}
330
47
100
AcDbScale
 70
     0
300
1:100
140
1.0
141
100.0
290
     0
  0
SCALE
  5
54
102
{ACAD_REACTORS
330
47
102
}
330
47
100
AcDbScale
 70
     0
300
2:1
140
2.0
141
1.0
290
     0
  0
SCALE
  5
55
102
{ACAD_REACTORS
330
47
102
}
330
47
100
AcDbScale
 70
     0
300
4:1
140
4.0
141
1.0
290
     0
  0
SCALE
  5
56
102
{ACAD_REACTORS
330
47
102
}
330
47
100
AcDbScale
 70
     0
300
8:1
140
8.0
141
1.0
290
     0
  0
SCALE
  5
57
102
{ACAD_REACTORS
330
47
102
}
330
47
100
AcDbScale
 70
     0
300
10:1
140
10.0
141
1.0
290
     0
  0
SCALE
  5
58
102
{ACAD_REACTORS
330
47
102
}
330
47
100
AcDbScale
 70
     0
300
100:1
140
100.0
141
1.0
290
     0
  0
SCALE
  5
59
102
{ACAD_REACTORS
330
47
102
}
330
47
100
AcDbScale
 70
     0
300
1/128" = 1'-0"
140
0.0078125
141
12.0
290
     0
  0
SCALE
  5
5A
102
{ACAD_REACTORS
330
47
102
}
330
47
100
AcDbScale
 70
     0
300
1/64" = 1'-0"
140
0.015625
141
12.0
290
     0
  0
SCALE
  5
5B
102
{ACAD_REACTORS
330
47
102
}
330
47
100
AcDbScale
 70
     0
300
1/32" = 1'-0"
140
0.03125
141
12.0
290
     0
  0
SCALE
  5
5C
102
{ACAD_REACTORS
330
47
102
}
330
47
100
AcDbScale
 70
     0
300
1/16" = 1'-0"
140
0.0625
141
12.0
290
     0
  0
SCALE
  5
5D
102
{ACAD_REACTORS
330
47
102
}
330
47
100
AcDbScale
 70
     0
300
3/32" = 1'-0"
140
0.09375
141
12.0
290
     0
  0
SCALE
  5
5E
102
{ACAD_REACTORS
330
47
102
}
330
47
100
AcDbScale
 70
     0
300
1/8" = 1'-0"
140
0.125
141
12.0
290
     0
  0
SCALE
  5
5F
102
{ACAD_REACTORS
330
47
102
}
330
47
100
AcDbScale
 70
     0
300
3/16" = 1'-0"
140
0.1875
141
12.0
290
     0
  0
SCALE
  5
60
102
{ACAD_REACTORS
330
47
102
}
330
47
100
AcDbScale
 70
     0
300
1/4" = 1'-0"
140
0.25
141
12.0
290
     0
  0
SCALE
  5
61
102
{ACAD_REACTORS
330
47
102
}
330
47
100
AcDbScale
 70
     0
300
3/8" = 1'-0"
140
0.375
141
12.0
290
     0
  0
SCALE
  5
62
102
{ACAD_REACTORS
330
47
102
}
330
47
100
AcDbScale
 70
     0
300
1/2" = 1'-0"
140
0.5
141
12.0
290
     0
  0
SCALE
  5
63
102
{ACAD_REACTORS
330
47
102
}
330
47
100
AcDbScale
 70
     0
300
3/4" = 1'-0"
140
0.75
141
12.0
290
     0
  0
SCALE
  5
64
102
{ACAD_REACTORS
330
47
102
}
330
47
100
AcDbScale
 70
     0
300
1" = 1'-0"
140
1.0
141
12.0
290
     0
  0
SCALE
  5
65
102
{ACAD_REACTORS
330
47
102
}
330
47
100
AcDbScale
 70
     0
300
1-1/2" = 1'-0"
140
1.5
141
12.0
290
     0
  0
SCALE
  5
66
102
{ACAD_REACTORS
330
47
102
}
330
47
100
AcDbScale
 70
     0
300
3" = 1'-0"
140
3.0
141
12.0
290
     0
  0
SCALE
  5
67
102
{ACAD_REACTORS
330
47
102
}
330
47
100
AcDbScale
 70
     0
300
6" = 1'-0"
140
6.0
141
12.0
290
     0
  0
SCALE
  5
68
102
{ACAD_REACTORS
330
47
102
}
330
47
100
AcDbScale
 70
     0
300
1'-0" = 1'-0"
140
12.0
141
12.0
290
     0
  0
ENDSEC
  0
EOF
