  0
SECTION
  2
HEADER
  9
$ACADVER
  1
AC1015
  9
$ACADMAINTVER
 70
     6
  9
$DWGCODEPAGE
  3
ANSI_949
  9
$INSBASE
 10
0.0
 20
0.0
 30
0.0
  9
$EXTMIN
 10
1.000000000000000E+20
 20
1.000000000000000E+20
 30
1.000000000000000E+20
  9
$EXTMAX
 10
-1.000000000000000E+20
 20
-1.000000000000000E+20
 30
-1.000000000000000E+20
  9
$LIMMIN
 10
0.0
 20
0.0
  9
$LIMMAX
 10
420.0
 20
297.0
  9
$ORTHOMODE
 70
     1
  9
$REGENMODE
 70
     1
  9
$FILLMODE
 70
     1
  9
$QTEXTMODE
 70
     0
  9
$MIRRTEXT
 70
     1
  9
$LTSCALE
 40
1.0
  9
$ATTMODE
 70
     1
  9
$TEXTSIZE
 40
3.5
  9
$TRACEWID
 40
1.0
  9
$TEXTSTYLE
  7
Standard
  9
$CLAYER
  8
0
  9
$CELTYPE
  6
ByLayer
  9
$CECOLOR
 62
   256
  9
$CELTSCALE
 40
1.0
  9
$DISPSILH
 70
     0
  9
$DIMSCALE
 40
1.0
  9
$DIMASZ
 40
3.302
  9
$DIMEXO
 40
1.0
  9
$DIMDLI
 40
3.75
  9
$DIMRND
 40
0.0
  9
$DIMDLE
 40
0.0
  9
$DIMEXE
 40
1.0
  9
$DIMTP
 40
0.0
  9
$DIMTM
 40
0.0
  9
$DIMTXT
 40
3.5
  9
$DIMCEN
 40
2.5
  9
$DIMTSZ
 40
0.0
  9
$DIMTOL
 70
     0
  9
$DIMLIM
 70
     0
  9
$DIMTIH
 70
     1
  9
$DIMTOH
 70
     1
  9
$DIMSE1
 70
     0
  9
$DIMSE2
 70
     0
  9
$DIMTAD
 70
     1
  9
$DIMZIN
 70
     0
  9
$DIMBLK
  1

  9
$DIMASO
 70
     1
  9
$DIMSHO
 70
     1
  9
$DIMPOST
  1

  9
$DIMAPOST
  1

  9
$DIMALT
 70
     0
  9
$DIMALTD
 70
     3
  9
$DIMALTF
 40
0.0393700787401575
  9
$DIMLFAC
 40
1.0
  9
$DIMTOFL
 70
     1
  9
$DIMTVP
 40
0.0
  9
$DIMTIX
 70
     0
  9
$DIMSOXD
 70
     0
  9
$DIMSAH
 70
     0
  9
$DIMBLK1
  1

  9
$DIMBLK2
  1

  9
$DIMSTYLE
  2
ISO-25
  9
$DIMCLRD
 70
     0
  9
$DIMCLRE
 70
     0
  9
$DIMCLRT
 70
     0
  9
$DIMTFAC
 40
1.0
  9
$DIMGAP
 40
1.524
  9
$DIMJUST
 70
     0
  9
$DIMSD1
 70
     0
  9
$DIMSD2
 70
     0
  9
$DIMTOLJ
 70
     0
  9
$DIMTZIN
 70
     0
  9
$DIMALTZ
 70
     0
  9
$DIMALTTZ
 70
     0
  9
$DIMUPT
 70
     0
  9
$DIMDEC
 70
     2
  9
$DIMTDEC
 70
     2
  9
$DIMALTU
 70
     2
  9
$DIMALTTD
 70
     3
  9
$DIMTXSTY
  7
Standard
  9
$DIMAUNIT
 70
     0
  9
$DIMADEC
 70
     2
  9
$DIMALTRND
 40
0.0
  9
$DIMAZIN
 70
     0
  9
$DIMDSEP
 70
    44
  9
$DIMATFIT
 70
     3
  9
$DIMFRAC
 70
     0
  9
$DIMLDRBLK
  1

  9
$DIMLUNIT
 70
     2
  9
$DIMLWD
 70
    -2
  9
$DIMLWE
 70
    -2
  9
$DIMTMOVE
 70
     0
  9
$LUNITS
 70
     2
  9
$LUPREC
 70
     2
  9
$SKETCHINC
 40
1.0
  9
$FILLETRAD
 40
10.0
  9
$AUNITS
 70
     0
  9
$AUPREC
 70
     2
  9
$MENU
  1
.
  9
$ELEVATION
 40
0.0
  9
$PELEVATION
 40
0.0
  9
$THICKNESS
 40
0.0
  9
$LIMCHECK
 70
     0
  9
$CHAMFERA
 40
0.0
  9
$CHAMFERB
 40
0.0
  9
$CHAMFERC
 40
0.0
  9
$CHAMFERD
 40
0.0
  9
$SKPOLY
 70
     0
  9
$TDCREATE
 40
2458311.572414595
  9
$TDUCREATE
 40
2458311.197414595
  9
$TDUPDATE
 40
2458318.663980938
  9
$TDUUPDATE
 40
2458318.288980938
  9
$TDINDWG
 40
0.0016023264
  9
$TDUSRTIMER
 40
2458318.288820949
  9
$USRTIMER
 70
     1
  9
$ANGBASE
 50
0.0
  9
$ANGDIR
 70
     0
  9
$PDMODE
 70
     0
  9
$PDSIZE
 40
-1.0
  9
$PLINEWID
 40
0.0
  9
$SPLFRAME
 70
     0
  9
$SPLINETYPE
 70
     6
  9
$SPLINESEGS
 70
     8
  9
$HANDSEED
  5
331
  9
$SURFTAB1
 70
     6
  9
$SURFTAB2
 70
     6
  9
$SURFTYPE
 70
     6
  9
$SURFU
 70
     6
  9
$SURFV
 70
     6
  9
$UCSBASE
  2

  9
$UCSNAME
  2

  9
$UCSORG
 10
0.0
 20
0.0
 30
0.0
  9
$UCSXDIR
 10
1.0
 20
0.0
 30
0.0
  9
$UCSYDIR
 10
0.0
 20
1.0
 30
0.0
  9
$UCSORTHOREF
  2

  9
$UCSORTHOVIEW
 70
     0
  9
$UCSORGTOP
 10
0.0
 20
0.0
 30
0.0
  9
$UCSORGBOTTOM
 10
0.0
 20
0.0
 30
0.0
  9
$UCSORGLEFT
 10
0.0
 20
0.0
 30
0.0
  9
$UCSORGRIGHT
 10
0.0
 20
0.0
 30
0.0
  9
$UCSORGFRONT
 10
0.0
 20
0.0
 30
0.0
  9
$UCSORGBACK
 10
0.0
 20
0.0
 30
0.0
  9
$PUCSBASE
  2

  9
$PUCSNAME
  2

  9
$PUCSORG
 10
0.0
 20
0.0
 30
0.0
  9
$PUCSXDIR
 10
1.0
 20
0.0
 30
0.0
  9
$PUCSYDIR
 10
0.0
 20
1.0
 30
0.0
  9
$PUCSORTHOREF
  2

  9
$PUCSORTHOVIEW
 70
     0
  9
$PUCSORGTOP
 10
0.0
 20
0.0
 30
0.0
  9
$PUCSORGBOTTOM
 10
0.0
 20
0.0
 30
0.0
  9
$PUCSORGLEFT
 10
0.0
 20
0.0
 30
0.0
  9
$PUCSORGRIGHT
 10
0.0
 20
0.0
 30
0.0
  9
$PUCSORGFRONT
 10
0.0
 20
0.0
 30
0.0
  9
$PUCSORGBACK
 10
0.0
 20
0.0
 30
0.0
  9
$USERI1
 70
     0
  9
$USERI2
 70
     0
  9
$USERI3
 70
     0
  9
$USERI4
 70
     0
  9
$USERI5
 70
     0
  9
$USERR1
 40
0.0
  9
$USERR2
 40
0.0
  9
$USERR3
 40
0.0
  9
$USERR4
 40
0.0
  9
$USERR5
 40
0.0
  9
$WORLDVIEW
 70
     1
  9
$SHADEDGE
 70
     3
  9
$SHADEDIF
 70
    70
  9
$TILEMODE
 70
     1
  9
$MAXACTVP
 70
    64
  9
$PINSBASE
 10
0.0
 20
0.0
 30
0.0
  9
$PLIMCHECK
 70
     0
  9
$PEXTMIN
 10
1.000000000000000E+20
 20
1.000000000000000E+20
 30
1.000000000000000E+20
  9
$PEXTMAX
 10
-1.000000000000000E+20
 20
-1.000000000000000E+20
 30
-1.000000000000000E+20
  9
$PLIMMIN
 10
0.0
 20
0.0
  9
$PLIMMAX
 10
0.0
 20
0.0
  9
$UNITMODE
 70
     0
  9
$VISRETAIN
 70
     1
  9
$PLINEGEN
 70
     0
  9
$PSLTSCALE
 70
     1
  9
$TREEDEPTH
 70
  3020
  9
$CMLSTYLE
  2
Standard
  9
$CMLJUST
 70
     0
  9
$CMLSCALE
 40
20.0
  9
$PROXYGRAPHICS
 70
     1
  9
$MEASUREMENT
 70
     1
  9
$CELWEIGHT
370
    -1
  9
$ENDCAPS
280
     0
  9
$JOINSTYLE
280
     0
  9
$LWDISPLAY
290
     1
  9
$INSUNITS
 70
     4
  9
$HYPERLINKBASE
  1

  9
$STYLESHEET
  1

  9
$XEDIT
290
     1
  9
$CEPSNTYPE
380
     0
  9
$PSTYLEMODE
290
     1
  9
$FINGERPRINTGUID
  2
{2EB31CC0-CC15-4636-A0AB-15897691C7E8}
  9
$VERSIONGUID
  2
{FAEB1C32-E019-11D5-929B-00C0DF256EC4}
  9
$EXTNAMES
290
     1
  9
$PSVPSCALE
 40
0.0
  9
$OLESTARTUP
290
     0
  0
ENDSEC
  0
SECTION
  2
CLASSES
  0
CLASS
  1
ACDBDICTIONARYWDFLT
  2
AcDbDictionaryWithDefault
  3
ObjectDBX Classes
 90
        0
280
     0
281
     0
  0
CLASS
  1
VISUALSTYLE
  2
AcDbVisualStyle
  3
ObjectDBX Classes
 90
     4095
280
     0
281
     0
  0
CLASS
  1
MATERIAL
  2
AcDbMaterial
  3
ObjectDBX Classes
 90
     1153
280
     0
281
     0
  0
CLASS
  1
SCALE
  2
AcDbScale
  3
ObjectDBX Classes
 90
     1153
280
     0
281
     0
  0
CLASS
  1
SUN
  2
AcDbSun
  3
SCENEOE
 90
     1153
280
     0
281
     0
  0
CLASS
  1
ACDBPLACEHOLDER
  2
AcDbPlaceHolder
  3
ObjectDBX Classes
 90
        0
280
     0
281
     0
  0
CLASS
  1
LAYOUT
  2
AcDbLayout
  3
ObjectDBX Classes
 90
        0
280
     0
281
     0
  0
CLASS
  1
TABLESTYLE
  2
AcDbTableStyle
  3
ObjectDBX Classes
 90
     4095
280
     0
281
     0
  0
CLASS
  1
MLEADERSTYLE
  2
AcDbMLeaderStyle
  3
ACDB_MLEADERSTYLE_CLASS
 90
     4095
280
     0
281
     0
  0
CLASS
  1
RASTERVARIABLES
  2
AcDbRasterVariables
  3
ISM
 90
        0
280
     0
281
     0
  0
ENDSEC
  0
SECTION
  2
TABLES
  0
TABLE
  2
VPORT
  5
8
330
0
100
AcDbSymbolTable
 70
     1
  0
VPORT
  5
29
330
8
100
AcDbSymbolTableRecord
100
AcDbViewportTableRecord
  2
*Active
 70
     0
 10
0.0
 20
0.0
 11
1.0
 21
1.0
 12
-69.46406504193733
 22
-32.53974938427163
 13
0.0
 23
0.0
 14
10.0
 24
10.0
 15
10.0
 25
10.0
 16
0.0
 26
0.0
 36
1.0
 17
0.0
 27
0.0
 37
0.0
 40
146.8712979355827
 41
1.740812379110251
 42
50.0
 43
0.0
 44
0.0
 50
0.0
 51
0.0
 71
    16
 72
  2000
 73
     1
 74
     3
 75
     0
 76
     0
 77
     0
 78
     0
281
     0
 65
     1
110
0.0
120
0.0
130
0.0
111
1.0
121
0.0
131
0.0
112
0.0
122
1.0
132
0.0
 79
     0
146
0.0
  0
ENDTAB
  0
TABLE
  2
LTYPE
  5
5
330
0
100
AcDbSymbolTable
 70
     6
  0
LTYPE
  5
14
330
5
100
AcDbSymbolTableRecord
100
AcDbLinetypeTableRecord
  2
ByBlock
 70
     0
  3

 72
    65
 73
     0
 40
0.0
  0
LTYPE
  5
15
330
5
100
AcDbSymbolTableRecord
100
AcDbLinetypeTableRecord
  2
ByLayer
 70
     0
  3

 72
    65
 73
     0
 40
0.0
  0
LTYPE
  5
16
330
5
100
AcDbSymbolTableRecord
100
AcDbLinetypeTableRecord
  2
Continuous
 70
     0
  3
Solid line
 72
    65
 73
     0
 40
0.0
  0
LTYPE
  5
6A
330
5
100
AcDbSymbolTableRecord
100
AcDbLinetypeTableRecord
  2
HIDDEN
 70
     0
  3
Hidden __ __ __ __ __ __ __ __ __ __ __ __ __ __
 72
    65
 73
     2
 40
1.905
 49
1.27
 74
     0
 49
-0.635
 74
     0
  0
LTYPE
  5
6B
330
5
100
AcDbSymbolTableRecord
100
AcDbLinetypeTableRecord
  2
PHANTOM
 70
     0
  3
Phantom ______  __  __  ______  __  __  ______
 72
    65
 73
     6
 40
12.7
 49
6.35
 74
     0
 49
-1.27
 74
     0
 49
1.27
 74
     0
 49
-1.27
 74
     0
 49
1.27
 74
     0
 49
-1.27
 74
     0
  0
LTYPE
  5
6C
330
5
100
AcDbSymbolTableRecord
100
AcDbLinetypeTableRecord
  2
CENTER
 70
     0
  3
Center ____ _ ____ _ ____ _ ____ _ ____ _ ____
 72
    65
 73
     4
 40
10.16
 49
6.35
 74
     0
 49
-1.27
 74
     0
 49
1.27
 74
     0
 49
-1.27
 74
     0
  0
LTYPE
  5
6D
330
5
100
AcDbSymbolTableRecord
100
AcDbLinetypeTableRecord
  2
CENTERX2
 70
     0
  3
Center (2x) ________  __  ________  __  _____
 72
    65
 73
     4
 40
20.32
 49
12.7
 74
     0
 49
-2.54
 74
     0
 49
2.54
 74
     0
 49
-2.54
 74
     0
  0
LTYPE
  5
6E
330
5
100
AcDbSymbolTableRecord
100
AcDbLinetypeTableRecord
  2
DOT2
 70
     0
  3
Dot (.5x) ........................................
 72
    65
 73
     2
 40
0.635
 49
0.0
 74
     0
 49
-0.635
 74
     0
  0
ENDTAB
  0
TABLE
  2
LAYER
  5
2
102
{ACAD_XDICTIONARY
360
1F7
102
}
330
0
100
AcDbSymbolTable
 70
    18
  0
LAYER
  5
10
330
2
100
AcDbSymbolTableRecord
100
AcDbLayerTableRecord
  2
0
 70
     0
 62
     7
  6
Continuous
370
    -3
390
F
  0
LAYER
  5
6F
330
2
100
AcDbSymbolTableRecord
100
AcDbLayerTableRecord
  2
FORMAT
 70
     0
 62
     2
  6
Continuous
370
    -3
390
F
  0
LAYER
  5
70
330
2
100
AcDbSymbolTableRecord
100
AcDbLayerTableRecord
  2
외형선
 70
     0
 62
     4
  6
Continuous
370
    30
390
F
  0
LAYER
  5
71
330
2
100
AcDbSymbolTableRecord
100
AcDbLayerTableRecord
  2
숨은선
 70
     0
 62
     2
  6
HIDDEN
370
    15
390
F
  0
LAYER
  5
72
330
2
100
AcDbSymbolTableRecord
100
AcDbLayerTableRecord
  2
중심선
 70
     0
 62
     1
  6
CENTERX2
370
    -3
390
F
  0
LAYER
  5
73
330
2
100
AcDbSymbolTableRecord
100
AcDbLayerTableRecord
  2
파단선
 70
     0
 62
     4
  6
Continuous
370
    -3
390
F
  0
LAYER
  5
74
330
2
100
AcDbSymbolTableRecord
100
AcDbLayerTableRecord
  2
해칭선
 70
     0
 62
   100
  6
Continuous
370
    -3
390
F
  0
LAYER
  5
75
330
2
100
AcDbSymbolTableRecord
100
AcDbLayerTableRecord
  2
가는실선
 70
     0
 62
     4
  6
Continuous
370
    -3
390
F
  0
LAYER
  5
76
330
2
100
AcDbSymbolTableRecord
100
AcDbLayerTableRecord
  2
치수_보조선
 70
     0
 62
     4
  6
Continuous
370
    -3
390
F
  0
LAYER
  5
77
330
2
100
AcDbSymbolTableRecord
100
AcDbLayerTableRecord
  2
치수문자_일반주서
 70
     0
 62
     7
  6
Continuous
370
    15
390
F
  0
LAYER
  5
78
330
2
100
AcDbSymbolTableRecord
100
AcDbLayerTableRecord
  2
개별주서
 70
     0
 62
   100
  6
Continuous
370
    30
390
F
  0
LAYER
  5
79
330
2
100
AcDbSymbolTableRecord
100
AcDbLayerTableRecord
  2
중간선
 70
     0
 62
     2
  6
Continuous
370
    15
390
F
  0
LAYER
  5
7A
330
2
100
AcDbSymbolTableRecord
100
AcDbLayerTableRecord
  2
윤곽선
 70
     0
 62
     3
  6
Continuous
370
    40
390
F
  0
LAYER
  5
7B
330
2
100
AcDbSymbolTableRecord
100
AcDbLayerTableRecord
  2
중심마크
 70
     0
 62
   100
  6
Continuous
370
    30
390
F
  0
LAYER
  5
7C
330
2
100
AcDbSymbolTableRecord
100
AcDbLayerTableRecord
  2
가상선
 70
     0
 62
     4
  6
PHANTOM
370
    -3
390
F
  0
LAYER
  5
7D
330
2
100
AcDbSymbolTableRecord
100
AcDbLayerTableRecord
  2
특수지정선
 70
     0
 62
     5
  6
CENTERX2
370
    60
390
F
  0
LAYER
  5
7E
330
2
100
AcDbSymbolTableRecord
100
AcDbLayerTableRecord
  2
참조1
 70
     0
 62
    -4
  6
Continuous
370
    -3
390
F
  0
LAYER
  5
13E
330
2
100
AcDbSymbolTableRecord
100
AcDbLayerTableRecord
  2
Defpoints
 70
     0
 62
     7
  6
Continuous
290
     0
370
    -3
390
F
  0
ENDTAB
  0
TABLE
  2
STYLE
  5
3
330
0
100
AcDbSymbolTable
 70
     2
  0
STYLE
  5
11
330
3
100
AcDbSymbolTableRecord
100
AcDbTextStyleTableRecord
  2
Standard
 70
     0
 40
0.0
 41
1.0
 50
0.0
 71
     0
 42
3.5
  3
txt
  4

  0
STYLE
  5
94
330
3
100
AcDbSymbolTableRecord
100
AcDbTextStyleTableRecord
  2
SLDTEXTSTYLE0
 70
     0
 40
0.0
 41
0.75
 50
0.0
 71
     0
 42
3.5
  3
TXT
  4

  0
ENDTAB
  0
TABLE
  2
VIEW
  5
6
330
0
100
AcDbSymbolTable
 70
     0
  0
ENDTAB
  0
TABLE
  2
UCS
  5
7
330
0
100
AcDbSymbolTable
 70
     0
  0
ENDTAB
  0
TABLE
  2
APPID
  5
9
330
0
100
AcDbSymbolTable
 70
     1
  0
APPID
  5
12
330
9
100
AcDbSymbolTableRecord
100
AcDbRegAppTableRecord
  2
ACAD
 70
     0
  0
ENDTAB
  0
TABLE
  2
DIMSTYLE
  5
A
330
0
100
AcDbSymbolTable
 70
     5
100
AcDbDimStyleTable
  0
DIMSTYLE
105
27
330
A
100
AcDbSymbolTableRecord
100
AcDbDimStyleTableRecord
  2
ISO-25
 70
     0
 41
2.5
 42
0.625
 43
3.75
 44
1.25
 73
     0
 74
     0
 77
     1
 78
     8
140
2.5
141
2.5
143
0.03937007874016
147
0.625
171
     3
172
     1
178
     0
271
     2
272
     2
274
     3
278
    44
283
     0
284
     8
340
11
  0
DIMSTYLE
105
C0
330
A
100
AcDbSymbolTableRecord
100
AcDbDimStyleTableRecord
  2
SLDDIMSTYLE0
 70
     0
 41
3.302
 44
0.0
 45
0.000000001
 73
     0
 74
     0
 77
     1
 78
     4
 79
     1
140
3.5
147
0.875
172
     1
173
     1
178
     0
271
     2
272
     2
276
     2
284
    12
289
     0
340
94
  0
DIMSTYLE
105
CE
330
A
100
AcDbSymbolTableRecord
100
AcDbDimStyleTableRecord
  2
SLDDIMSTYLE1
 70
     0
 41
3.302
 44
0.0
 45
0.000000001
 73
     0
 74
     0
 77
     1
 78
     4
 79
     1
140
3.5
143
0.0393700787401575
147
0.875
148
0.000000001
170
     1
172
     1
173
     1
178
     0
271
     2
272
     2
276
     2
284
    12
289
     0
340
94
  0
DIMSTYLE
105
E4
330
A
100
AcDbSymbolTableRecord
100
AcDbDimStyleTableRecord
  2
SLDDIMSTYLE2
 70
     0
 41
3.302
 44
0.0
 45
0.000000001
 73
     0
 74
     0
 77
     1
 78
     4
 79
     1
140
3.5
143
0.0393700787401575
147
0.875
148
0.000000001
170
     1
173
     1
178
     0
271
     2
272
     2
276
     2
284
    12
340
94
  0
DIMSTYLE
105
F8
102
{ACAD_REACTORS
330
F7
330
CD
330
26A
330
26C
102
}
330
A
100
AcDbSymbolTableRecord
100
AcDbDimStyleTableRecord
  2
SLDDIMSTYLE3
 70
     0
 41
3.302
 44
0.0
 45
0.000000001
 73
     0
 74
     0
 77
     1
 78
    12
 79
     3
140
3.5
143
0.0393700787401575
147
0.875
148
0.000000001
170
     1
173
     1
178
     0
271
     2
272
     2
276
     2
284
    12
340
94
  0
ENDTAB
  0
TABLE
  2
BLOCK_RECORD
  5
1
330
0
100
AcDbSymbolTable
 70
    16
  0
BLOCK_RECORD
  5
1F
330
1
100
AcDbSymbolTableRecord
100
AcDbBlockTableRecord
  2
*Model_Space
340
22
  0
BLOCK_RECORD
  5
1B
330
1
100
AcDbSymbolTableRecord
100
AcDbBlockTableRecord
  2
*Paper_Space
340
1E
  0
BLOCK_RECORD
  5
23
330
1
100
AcDbSymbolTableRecord
100
AcDbBlockTableRecord
  2
*Paper_Space0
340
26
  0
BLOCK_RECORD
  5
7F
330
1
100
AcDbSymbolTableRecord
100
AcDbBlockTableRecord
  2
블럭10
340
0
102
{BLKREFS
331
B8
102
}
  0
BLOCK_RECORD
  5
C1
330
1
100
AcDbSymbolTableRecord
100
AcDbBlockTableRecord
  2
_D
340
0
  0
BLOCK_RECORD
  5
CF
330
1
100
AcDbSymbolTableRecord
100
AcDbBlockTableRecord
  2
_D_1
340
0
  0
BLOCK_RECORD
  5
E5
330
1
100
AcDbSymbolTableRecord
100
AcDbBlockTableRecord
  2
_D_2
340
0
  0
BLOCK_RECORD
  5
F9
330
1
100
AcDbSymbolTableRecord
100
AcDbBlockTableRecord
  2
_D_3
340
0
  0
BLOCK_RECORD
  5
112
330
1
100
AcDbSymbolTableRecord
100
AcDbBlockTableRecord
  2
SW_DOWELSYMBOL_0
340
0
102
{BLKREFS
331
26E
102
}
  0
BLOCK_RECORD
  5
1FB
330
1
100
AcDbSymbolTableRecord
100
AcDbBlockTableRecord
  2
*D7
340
0
  0
BLOCK_RECORD
  5
207
330
1
100
AcDbSymbolTableRecord
100
AcDbBlockTableRecord
  2
*D8
340
0
  0
BLOCK_RECORD
  5
213
330
1
100
AcDbSymbolTableRecord
100
AcDbBlockTableRecord
  2
*D9
340
0
  0
BLOCK_RECORD
  5
21F
330
1
100
AcDbSymbolTableRecord
100
AcDbBlockTableRecord
  2
*D10
340
0
  0
BLOCK_RECORD
  5
26F
330
1
100
AcDbSymbolTableRecord
100
AcDbBlockTableRecord
  2
*D11
340
0
  0
BLOCK_RECORD
  5
27B
330
1
100
AcDbSymbolTableRecord
100
AcDbBlockTableRecord
  2
*D12
340
0
  0
BLOCK_RECORD
  5
287
330
1
100
AcDbSymbolTableRecord
100
AcDbBlockTableRecord
  2
*D13
340
0
  0
BLOCK_RECORD
  5
293
330
1
100
AcDbSymbolTableRecord
100
AcDbBlockTableRecord
  2
*D14
340
0
  0
ENDTAB
  0
ENDSEC
  0
SECTION
  2
BLOCKS
  0
BLOCK
  5
20
330
1F
100
AcDbEntity
  8
0
100
AcDbBlockBegin
  2
*Model_Space
 70
     0
 10
0.0
 20
0.0
 30
0.0
  3
*Model_Space
  1
*Model_Space
  0
ENDBLK
  5
21
330
1F
100
AcDbEntity
  8
0
100
AcDbBlockEnd
  0
BLOCK
  5
1C
330
1B
100
AcDbEntity
 67
     1
  8
0
100
AcDbBlockBegin
  2
*Paper_Space
 70
     0
 10
0.0
 20
0.0
 30
0.0
  3
*Paper_Space
  1
*Paper_Space
  0
ENDBLK
  5
1D
330
1B
100
AcDbEntity
 67
     1
  8
0
100
AcDbBlockEnd
  0
BLOCK
  5
24
330
23
100
AcDbEntity
  8
0
100
AcDbBlockBegin
  2
*Paper_Space0
 70
     0
 10
0.0
 20
0.0
 30
0.0
  3
*Paper_Space0
  1
*Paper_Space0
  0
ENDBLK
  5
25
330
23
100
AcDbEntity
  8
0
100
AcDbBlockEnd
  0
BLOCK
  5
80
330
7F
100
AcDbEntity
  8
0
100
AcDbBlockBegin
  2
블럭10
 70
     2
 10
0.0
 20
0.0
 30
0.0
  3
블럭10
  1
블럭10
  0
ELLIPSE
  5
82
330
7F
100
AcDbEntity
  8
중심선
100
AcDbEllipse
 10
20.54032771741204
 20
12.0471743016438
 30
0.0
 11
6.600054785286829
 21
-1.261213355974178E-13
 31
0.0
210
0.0
220
0.0
230
1.0
 40
0.636358354079598
 41
0.9219305317359503
 42
6.513795318482858
  0
ELLIPSE
  5
83
330
7F
100
AcDbEntity
  8
중심선
100
AcDbEllipse
 10
20.54032771746488
 20
12.04717430159265
 30
0.0
 11
3.960054785062283
 21
1.540847449632565E-10
 31
0.0
210
0.0
220
0.0
230
1.0
 40
0.3939339440162632
 41
1.131841032648279
 42
5.62031148352944
  0
LINE
  5
84
330
7F
100
AcDbEntity
  8
중심선
100
AcDbLine
 10
2.268634060543552
 20
16.24717430164393
 30
0.0
 11
5.714909304380834
 21
16.24717430164393
 31
0.0
  0
LINE
  5
85
330
7F
100
AcDbEntity
  8
중심선
100
AcDbLine
 10
5.245725140726316
 20
7.84717430164391
 30
0.0
 11
8.692000384563599
 21
7.84717430164391
 31
0.0
  0
LINE
  5
86
330
7F
100
AcDbEntity
  8
중심선
100
AcDbLine
 10
15.74043728645272
 20
16.24717430164393
 30
0.0
 11
8.692000384563599
 21
7.84717430164391
 31
0.0
  0
LINE
  5
87
330
7F
100
AcDbEntity
  8
중심선
100
AcDbLine
 10
0.1404042013395286
 20
13.71084872107135
 30
0.0
 11
3.58671253028996
 21
13.71088815037384
 31
0.0
  0
LINE
  5
88
330
7F
100
AcDbEntity
  8
중심선
100
AcDbLine
 10
2.750260043222114
 20
10.84717430164391
 30
0.0
 11
6.196535287059397
 21
10.84717430164391
 31
0.0
  0
LINE
  5
89
330
7F
100
AcDbEntity
  8
중심선
100
AcDbLine
 10
12.29416204261559
 20
16.24717430164393
 30
0.0
 11
5.245725140726316
 21
7.84717430164391
 31
0.0
  0
LINE
  5
8A
330
7F
100
AcDbEntity
  8
중심선
100
AcDbLine
 10
10.72767329541681
 20
16.24717430164393
 30
0.0
 11
6.196535287059397
 21
10.84717430164391
 31
0.0
  0
LINE
  5
8B
330
7F
100
AcDbEntity
  8
중심선
100
AcDbLine
 10
7.28139805157953
 20
16.24717430164393
 30
0.0
 11
2.750260043222114
 21
10.84717430164391
 31
0.0
  0
LINE
  5
8C
330
7F
100
AcDbEntity
  8
중심선
100
AcDbLine
 10
5.714909304380834
 20
16.24717430164393
 30
0.0
 11
3.58671253028996
 21
13.71088815037384
 31
0.0
  0
LINE
  5
8D
330
7F
100
AcDbEntity
  8
중심선
100
AcDbLine
 10
2.268634060543552
 20
16.24717430164393
 30
0.0
 11
0.1404042013395286
 21
13.71084872107135
 31
0.0
  0
LINE
  5
8E
330
7F
100
AcDbEntity
  8
중심선
100
AcDbLine
 10
7.28139805157953
 20
16.24717430164393
 30
0.0
 11
10.72767329541681
 21
16.24717430164393
 31
0.0
  0
LINE
  5
8F
330
7F
100
AcDbEntity
  8
중심선
100
AcDbLine
 10
12.29416204261559
 20
16.24717430164393
 30
0.0
 11
15.74043728645272
 21
16.24717430164393
 31
0.0
  0
LINE
  5
90
330
7F
100
AcDbEntity
  8
중심선
100
AcDbLine
 10
19.22036997980202
 20
11.08717430171403
 30
0.0
 11
23.66174974927406
 21
11.08717430171406
 31
0.0
  0
LINE
  5
91
330
7F
100
AcDbEntity
  8
중심선
100
AcDbLine
 10
19.22039502424796
 20
13.00717430171391
 30
0.0
 11
19.22036997980202
 21
11.08717430171403
 31
0.0
  0
LINE
  5
92
330
7F
100
AcDbEntity
  8
중심선
100
AcDbLine
 10
19.22039502424796
 20
13.00717430171391
 30
0.0
 11
26.96566020931264
 21
13.00717430171391
 31
0.0
  0
LINE
  5
93
330
7F
100
AcDbEntity
  8
중심선
100
AcDbLine
 10
22.22332737316547
 20
13.45928029700563
 30
0.0
 11
24.52862924686651
 21
15.39360700705356
 31
0.0
  0
ATTDEF
  5
95
330
7F
100
AcDbEntity
  8
FORMAT
 62
     2
100
AcDbText
 10
4.408487351596664
 20
2.075366912832191
 30
0.0
 40
4.233333333333333
  1
E1070956
 41
0.75
  7
SLDTEXTSTYLE0
 11
4.408487351596664
 21
-0.0412997538344756
 31
0.0
100
AcDbAttributeDefinition
  3

  2
AUTOATTR0
 70
     0
 74
     1
  0
ENDBLK
  5
81
330
7F
100
AcDbEntity
  8
0
100
AcDbBlockEnd
  0
BLOCK
  5
C2
330
C1
100
AcDbEntity
  8
0
100
AcDbBlockBegin
  2
_D
 70
     0
 10
0.0
 20
0.0
 30
0.0
  3
_D
  1
_D
  0
LINE
  5
C4
330
C1
100
AcDbEntity
  8
0
  6
Continuous
 62
     0
370
    -2
100
AcDbLine
 10
-46.12192116787307
 20
6.351074928723888
 30
0.0
 11
-59.5594211678731
 21
6.351074928723839
 31
0.0
  0
LINE
  5
C5
330
C1
100
AcDbEntity
  8
0
  6
Continuous
 62
     0
370
    -2
100
AcDbLine
 10
-46.12192116787307
 20
-6.348925071276101
 30
0.0
 11
-59.55942116787305
 21
-6.34892507127615
 31
0.0
  0
LINE
  5
C6
330
C1
100
AcDbEntity
  8
0
  6
Continuous
 62
     0
370
    -2
100
AcDbLine
 10
-59.55942116787308
 20
3.049074928723839
 30
0.0
 11
-59.55942116787307
 21
-3.04692507127615
 31
0.0
  0
SOLID
  5
C7
330
C1
100
AcDbEntity
  8
0
 62
     0
100
AcDbTrace
 10
-59.00908783453975
 20
3.049074928723841
 30
0.0
 11
-60.10975450120642
 21
3.049074928723837
 31
0.0
 12
-59.5594211678731
 22
6.351074928723839
 32
0.0
 13
-59.5594211678731
 23
6.351074928723839
 33
0.0
  0
SOLID
  5
C8
330
C1
100
AcDbEntity
  8
0
 62
     0
100
AcDbTrace
 10
-60.1097545012064
 20
-3.046925071276152
 30
0.0
 11
-59.00908783453973
 21
-3.046925071276148
 31
0.0
 12
-59.55942116787305
 22
-6.34892507127615
 32
0.0
 13
-59.55942116787305
 23
-6.34892507127615
 33
0.0
  0
MTEXT
  5
C9
330
C1
100
AcDbEntity
  8
0
 62
     0
370
    15
100
AcDbMText
 10
-63.93442116787308
 20
0.0010749287238743
 30
0.0
 40
3.5
 41
0.0
 71
     2
 72
     1
  1
\A1;%%c12.7 [0.50]
  7
SLDTEXTSTYLE0
 11
-3.356894814614650E-15
 21
1.0
 31
0.0
 73
     1
 44
1.0
  0
POINT
  5
CA
330
C1
100
AcDbEntity
  8
Defpoints
 62
     0
100
AcDbPoint
 10
-46.05942116787307
 20
6.351074928723888
 30
0.0
  0
POINT
  5
CB
330
C1
100
AcDbEntity
  8
Defpoints
 62
     0
100
AcDbPoint
 10
-46.05942116787307
 20
-6.348925071276101
 30
0.0
  0
POINT
  5
CC
330
C1
100
AcDbEntity
  8
Defpoints
 62
     0
100
AcDbPoint
 10
-59.55942116787305
 20
-6.348925071276148
 30
0.0
  0
ENDBLK
  5
C3
330
C1
100
AcDbEntity
  8
0
100
AcDbBlockEnd
  0
BLOCK
  5
D0
330
CF
100
AcDbEntity
  8
0
100
AcDbBlockBegin
  2
_D_1
 70
     0
 10
0.0
 20
0.0
 30
0.0
  3
_D_1
  1
_D_1
  0
LINE
  5
D2
330
CF
100
AcDbEntity
  8
0
  6
Continuous
 62
     0
370
    -2
100
AcDbLine
 10
59.62499999999999
 20
11.17500000000001
 30
0.0
 11
59.62499999999999
 21
27.46150723449421
 31
0.0
  0
LINE
  5
D3
330
CF
100
AcDbEntity
  8
0
  6
Continuous
 62
     0
370
    -2
100
AcDbLine
 10
12.00000000000001
 20
10.5154664701979
 30
0.0
 11
12.00000000000001
 21
27.46150723449421
 31
0.0
  0
LINE
  5
D4
330
CF
100
AcDbEntity
  8
0
  6
Continuous
 62
     0
370
    -2
100
AcDbLine
 10
56.32299999999999
 20
27.46150723449421
 30
0.0
 11
15.30200000000001
 21
27.46150723449421
 31
0.0
  0
SOLID
  5
D5
330
CF
100
AcDbEntity
  8
0
 62
     0
100
AcDbTrace
 10
56.32299999999999
 20
26.91117390116087
 30
0.0
 11
56.32299999999999
 21
28.01184056782754
 31
0.0
 12
59.62499999999999
 22
27.46150723449421
 32
0.0
 13
59.62499999999999
 23
27.46150723449421
 33
0.0
  0
SOLID
  5
D6
330
CF
100
AcDbEntity
  8
0
 62
     0
100
AcDbTrace
 10
15.30200000000001
 20
28.01184056782754
 30
0.0
 11
15.30200000000001
 21
26.91117390116087
 31
0.0
 12
12.00000000000001
 22
27.46150723449421
 32
0.0
 13
12.00000000000001
 23
27.46150723449421
 33
0.0
  0
MTEXT
  5
D7
330
CF
100
AcDbEntity
  8
0
 62
     0
370
    15
100
AcDbMText
 10
35.56371550477072
 20
31.83650723449421
 30
0.0
 40
3.5
 41
0.0
 71
     2
 72
     1
  1
\A1;47.63 [1 7/8]
  7
SLDTEXTSTYLE0
 73
     1
 44
1.0
  0
POINT
  5
D8
330
CF
100
AcDbEntity
  8
Defpoints
 62
     0
100
AcDbPoint
 10
59.62499999999999
 20
11.11250000000001
 30
0.0
  0
POINT
  5
D9
330
CF
100
AcDbEntity
  8
Defpoints
 62
     0
100
AcDbPoint
 10
12.00000000000001
 20
10.4529664701979
 30
0.0
  0
POINT
  5
DA
330
CF
100
AcDbEntity
  8
Defpoints
 62
     0
100
AcDbPoint
 10
12.00000000000001
 20
27.46150723449421
 30
0.0
  0
ENDBLK
  5
D1
330
CF
100
AcDbEntity
  8
0
100
AcDbBlockEnd
  0
BLOCK
  5
E6
330
E5
100
AcDbEntity
  8
0
100
AcDbBlockBegin
  2
_D_2
 70
     0
 10
0.0
 20
0.0
 30
0.0
  3
_D_2
  1
_D_2
  0
LINE
  5
E8
330
E5
100
AcDbEntity
  8
0
  6
Continuous
 62
     0
370
    -2
100
AcDbLine
 10
29.14057883212694
 20
6.606477789079263
 30
0.0
 11
29.14057883212694
 21
30.3105321911699
 31
0.0
  0
LINE
  5
E9
330
E5
100
AcDbEntity
  8
0
  6
Continuous
 62
     0
370
    -2
100
AcDbLine
 10
-47.05942116787307
 20
5.413574928723888
 30
0.0
 11
-47.05942116787308
 21
30.3105321911699
 31
0.0
  0
LINE
  5
EA
330
E5
100
AcDbEntity
  8
0
  6
Continuous
 62
     0
370
    -2
100
AcDbLine
 10
25.83857883212694
 20
30.3105321911699
 30
0.0
 11
-43.75742116787308
 21
30.3105321911699
 31
0.0
  0
SOLID
  5
EB
330
E5
100
AcDbEntity
  8
0
 62
     0
100
AcDbTrace
 10
25.83857883212694
 20
29.76019885783656
 30
0.0
 11
25.83857883212694
 21
30.86086552450323
 31
0.0
 12
29.14057883212694
 22
30.3105321911699
 32
0.0
 13
29.14057883212694
 23
30.3105321911699
 33
0.0
  0
SOLID
  5
EC
330
E5
100
AcDbEntity
  8
0
 62
     0
100
AcDbTrace
 10
-43.75742116787308
 20
30.86086552450323
 30
0.0
 11
-43.75742116787308
 21
29.76019885783656
 31
0.0
 12
-47.05942116787308
 22
30.3105321911699
 32
0.0
 13
-47.05942116787308
 23
30.3105321911699
 33
0.0
  0
MTEXT
  5
ED
330
E5
100
AcDbEntity
  8
0
 62
     0
370
    15
100
AcDbMText
 10
-8.959421167873067
 20
34.6855321911699
 30
0.0
 40
3.5
 41
0.0
 71
     2
 72
     1
  1
\A1;76.20 [3.00]
  7
SLDTEXTSTYLE0
 73
     1
 44
1.0
  0
POINT
  5
EE
330
E5
100
AcDbEntity
  8
Defpoints
 62
     0
100
AcDbPoint
 10
29.14057883212694
 20
6.543977789079263
 30
0.0
  0
POINT
  5
EF
330
E5
100
AcDbEntity
  8
Defpoints
 62
     0
100
AcDbPoint
 10
-47.05942116787307
 20
5.351074928723888
 30
0.0
  0
POINT
  5
F0
330
E5
100
AcDbEntity
  8
Defpoints
 62
     0
100
AcDbPoint
 10
-47.05942116787307
 20
30.3105321911699
 30
0.0
  0
ENDBLK
  5
E7
330
E5
100
AcDbEntity
  8
0
100
AcDbBlockEnd
  0
BLOCK
  5
FA
330
F9
100
AcDbEntity
  8
0
100
AcDbBlockBegin
  2
_D_3
 70
     0
 10
0.0
 20
0.0
 30
0.0
  3
_D_3
  1
_D_3
  0
LINE
  5
FC
330
F9
100
AcDbEntity
  8
0
  6
Continuous
 62
     0
370
    -2
100
AcDbLine
 10
59.6875
 20
-11.11249999999999
 30
0.0
 11
78.62500000000016
 21
-11.11249999999993
 31
0.0
  0
LINE
  5
FD
330
F9
100
AcDbEntity
  8
0
  6
Continuous
 62
     0
370
    -2
100
AcDbLine
 10
59.68749999999999
 20
11.11250000000002
 30
0.0
 11
78.62500000000009
 21
11.11250000000009
 31
0.0
  0
LINE
  5
FE
330
F9
100
AcDbEntity
  8
0
  6
Continuous
 62
     0
370
    -2
100
AcDbLine
 10
78.62500000000009
 20
11.11250000000009
 30
0.0
 11
78.62499999999997
 21
47.94060788423953
 31
0.0
  0
LINE
  5
FF
330
F9
100
AcDbEntity
  8
0
  6
Continuous
 62
     0
370
    -2
100
AcDbLine
 10
78.62500000000014
 20
-7.810499999999927
 30
0.0
 11
78.6250000000001
 21
7.81050000000009
 31
0.0
  0
SOLID
  5
100
330
F9
100
AcDbEntity
  8
0
 62
     0
100
AcDbTrace
 10
78.07466666666681
 20
-7.810499999999928
 30
0.0
 11
79.17533333333347
 21
-7.810499999999925
 31
0.0
 12
78.62500000000016
 22
-11.11249999999993
 32
0.0
 13
78.62500000000016
 23
-11.11249999999993
 33
0.0
  0
SOLID
  5
101
330
F9
100
AcDbEntity
  8
0
 62
     0
100
AcDbTrace
 10
79.17533333333343
 20
7.810500000000092
 30
0.0
 11
78.07466666666677
 21
7.810500000000088
 31
0.0
 12
78.62500000000009
 22
11.11250000000009
 32
0.0
 13
78.62500000000009
 23
11.11250000000009
 33
0.0
  0
MTEXT
  5
102
330
F9
100
AcDbEntity
  8
0
 62
     0
370
    15
100
AcDbMText
 10
74.25000000000001
 20
33.50310788423951
 30
0.0
 40
3.5
 41
0.0
 71
     2
 72
     1
  1
\A1;%%c22.23 [7/8]
  7
SLDTEXTSTYLE0
 11
-3.197042680585376E-15
 21
1.0
 31
0.0
 73
     1
 44
1.0
  0
POINT
  5
103
330
F9
100
AcDbEntity
  8
Defpoints
 62
     0
100
AcDbPoint
 10
59.625
 20
-11.11249999999999
 30
0.0
  0
POINT
  5
104
330
F9
100
AcDbEntity
  8
Defpoints
 62
     0
100
AcDbPoint
 10
59.62499999999999
 20
11.11250000000002
 30
0.0
  0
POINT
  5
105
330
F9
100
AcDbEntity
  8
Defpoints
 62
     0
100
AcDbPoint
 10
78.62500000000009
 20
11.11250000000009
 30
0.0
  0
ENDBLK
  5
FB
330
F9
100
AcDbEntity
  8
0
100
AcDbBlockEnd
  0
BLOCK
  5
113
330
112
100
AcDbEntity
  8
0
100
AcDbBlockBegin
  2
SW_DOWELSYMBOL_0
 70
     0
 10
0.0
 20
0.0
 30
0.0
  3
SW_DOWELSYMBOL_0
  1
SW_DOWELSYMBOL_0
  0
CIRCLE
  5
115
330
112
100
AcDbEntity
  8
해칭선
 62
     0
100
AcDbCircle
 10
0.0
 20
0.0
 30
0.0
 40
3.000000000000001
  0
HATCH
  5
116
330
112
100
AcDbEntity
  8
0
  6
Continuous
 62
     0
370
     0
100
AcDbHatch
 10
0.0
 20
0.0
 30
0.0
210
0.0
220
0.0
230
1.0
  2
SOLID
 70
     1
 71
     0
 91
        1
 92
        0
 93
        3
 72
     2
 10
0.0
 20
0.0
 40
3.000000000000001
 50
0.0
 51
90.0
 73
     1
 72
     1
 10
0.0
 20
3.000000000000001
 11
0.0
 21
0.0
 72
     1
 10
0.0
 20
0.0
 11
3.000000000000001
 21
0.0
 97
        0
 75
     0
 76
     1
 98
        1
 10
0.0
 20
0.0
  0
HATCH
  5
117
330
112
100
AcDbEntity
  8
0
  6
Continuous
 62
     0
370
     0
100
AcDbHatch
 10
0.0
 20
0.0
 30
0.0
210
0.0
220
0.0
230
1.0
  2
SOLID
 70
     1
 71
     0
 91
        1
 92
        0
 93
        3
 72
     2
 10
0.0
 20
0.0
 40
3.000000000000001
 50
180.0
 51
270.0000000000007
 73
     1
 72
     1
 10
0.0
 20
-3.000000000000001
 11
0.0
 21
0.0
 72
     1
 10
0.0
 20
0.0
 11
-3.000000000000001
 21
0.0
 97
        0
 75
     0
 76
     1
 98
        1
 10
0.0
 20
0.0
  0
ENDBLK
  5
114
330
112
100
AcDbEntity
  8
0
100
AcDbBlockEnd
  0
BLOCK
  5
1FC
330
1FB
100
AcDbEntity
  8
0
100
AcDbBlockBegin
  2
*D7
 70
     1
 10
0.0
 20
0.0
 30
0.0
  3
*D7
  1
*D8
  0
LINE
  5
1FE
330
1FB
100
AcDbEntity
  8
치수문자_일반주서
 62
     0
370
    -2
100
AcDbLine
 10
17.81250000000005
 20
59.49680738881175
 30
0.0
 11
4.37500000000001
 21
59.4968073888117
 31
0.0
  0
LINE
  5
1FF
330
1FB
100
AcDbEntity
  8
치수문자_일반주서
 62
     0
370
    -2
100
AcDbLine
 10
17.81250000000005
 20
40.44680738881173
 30
0.0
 11
4.375000000000076
 21
40.44680738881168
 31
0.0
  0
LINE
  5
200
330
1FB
100
AcDbEntity
  8
치수문자_일반주서
 62
     0
370
    -2
100
AcDbLine
 10
4.375000000000021
 20
56.1948073888117
 30
0.0
 11
4.375000000000065
 21
43.74880738881168
 31
0.0
  0
SOLID
  5
201
330
1FB
100
AcDbEntity
  8
치수문자_일반주서
 62
     0
100
AcDbTrace
 10
4.925333333333355
 20
56.1948073888117
 30
0.0
 11
3.824666666666688
 21
56.1948073888117
 31
0.0
 12
4.37500000000001
 22
59.4968073888117
 32
0.0
 13
4.37500000000001
 23
59.4968073888117
 33
0.0
  0
SOLID
  5
202
330
1FB
100
AcDbEntity
  8
치수문자_일반주서
 62
     0
100
AcDbTrace
 10
3.824666666666732
 20
43.74880738881168
 30
0.0
 11
4.925333333333398
 21
43.74880738881168
 31
0.0
 12
4.375000000000076
 22
40.44680738881168
 32
0.0
 13
4.375000000000076
 23
40.44680738881168
 33
0.0
  0
MTEXT
  5
203
330
1FB
100
AcDbEntity
  8
치수문자_일반주서
 62
     0
100
AcDbMText
 10
0.0000000000000426
 20
49.97180738881173
 30
0.0
 40
3.5
 41
0.0
 71
     2
 72
     1
  1
\A1;%%c19.05
  7
SLDTEXTSTYLE0
 11
-3.496765431890255E-15
 21
1.0
 31
0.0
 73
     1
 44
1.0
  0
POINT
  5
204
330
1FB
100
AcDbEntity
  8
Defpoints
 62
     0
100
AcDbPoint
 10
17.87500000000005
 20
59.49680738881175
 30
0.0
  0
POINT
  5
205
330
1FB
100
AcDbEntity
  8
Defpoints
 62
     0
100
AcDbPoint
 10
17.87500000000005
 20
40.44680738881173
 30
0.0
  0
POINT
  5
206
330
1FB
100
AcDbEntity
  8
Defpoints
 62
     0
100
AcDbPoint
 10
4.375000000000085
 20
40.44680738881168
 30
0.0
  0
ENDBLK
  5
1FD
330
1FB
100
AcDbEntity
  8
0
100
AcDbBlockEnd
  0
BLOCK
  5
208
330
207
100
AcDbEntity
  8
0
100
AcDbBlockBegin
  2
*D8
 70
     1
 10
0.0
 20
0.0
 30
0.0
  3
*D8
  1
*D9
  0
LINE
  5
20A
330
207
100
AcDbEntity
  8
치수문자_일반주서
 62
     0
370
    -2
100
AcDbLine
 10
115.2999999999995
 20
59.55930738881175
 30
0.0
 11
115.2999999999995
 21
72.66509873469703
 31
0.0
  0
LINE
  5
20B
330
207
100
AcDbEntity
  8
치수문자_일반주서
 62
     0
370
    -2
100
AcDbLine
 10
74.02500000000005
 20
59.07931470631096
 30
0.0
 11
74.02500000000005
 21
72.66509873469703
 31
0.0
  0
LINE
  5
20C
330
207
100
AcDbEntity
  8
치수문자_일반주서
 62
     0
370
    -2
100
AcDbLine
 10
111.9979999999995
 20
72.66509873469703
 30
0.0
 11
77.32700000000006
 21
72.66509873469703
 31
0.0
  0
SOLID
  5
20D
330
207
100
AcDbEntity
  8
치수문자_일반주서
 62
     0
100
AcDbTrace
 10
111.9979999999995
 20
72.1147654013637
 30
0.0
 11
111.9979999999995
 21
73.21543206803035
 31
0.0
 12
115.2999999999995
 22
72.66509873469703
 32
0.0
 13
115.2999999999995
 23
72.66509873469703
 33
0.0
  0
SOLID
  5
20E
330
207
100
AcDbEntity
  8
치수문자_일반주서
 62
     0
100
AcDbTrace
 10
77.32700000000006
 20
73.21543206803035
 30
0.0
 11
77.32700000000006
 21
72.1147654013637
 31
0.0
 12
74.02500000000005
 22
72.66509873469703
 32
0.0
 13
74.02500000000005
 23
72.66509873469703
 33
0.0
  0
MTEXT
  5
20F
330
207
100
AcDbEntity
  8
치수문자_일반주서
 62
     0
100
AcDbMText
 10
94.66250000000005
 20
77.04009873469703
 30
0.0
 40
3.5
 41
0.0
 71
     2
 72
     1
  1
\A1;41.28
  7
SLDTEXTSTYLE0
 73
     1
 44
1.0
  0
POINT
  5
210
330
207
100
AcDbEntity
  8
Defpoints
 62
     0
100
AcDbPoint
 10
115.2999999999995
 20
59.49680738881175
 30
0.0
  0
POINT
  5
211
330
207
100
AcDbEntity
  8
Defpoints
 62
     0
100
AcDbPoint
 10
74.02500000000005
 20
59.01681470631096
 30
0.0
  0
POINT
  5
212
330
207
100
AcDbEntity
  8
Defpoints
 62
     0
100
AcDbPoint
 10
74.02500000000005
 20
72.66509873469703
 30
0.0
  0
ENDBLK
  5
209
330
207
100
AcDbEntity
  8
0
100
AcDbBlockEnd
  0
BLOCK
  5
214
330
213
100
AcDbEntity
  8
0
100
AcDbBlockBegin
  2
*D9
 70
     1
 10
0.0
 20
0.0
 30
0.0
  3
*D9
  1
*D10
  0
LINE
  5
216
330
213
100
AcDbEntity
  8
치수문자_일반주서
 62
     0
370
    -2
100
AcDbLine
 10
115.2999999999995
 20
59.55930738881175
 30
0.0
 11
115.2999999999995
 21
89.5359987336297
 31
0.0
  0
LINE
  5
217
330
213
100
AcDbEntity
  8
치수문자_일반주서
 62
     0
370
    -2
100
AcDbLine
 10
16.87500000000006
 20
58.55930738881173
 30
0.0
 11
16.87500000000006
 21
89.5359987336297
 31
0.0
  0
LINE
  5
218
330
213
100
AcDbEntity
  8
치수문자_일반주서
 62
     0
370
    -2
100
AcDbLine
 10
111.9979999999995
 20
89.5359987336297
 30
0.0
 11
20.17700000000006
 21
89.5359987336297
 31
0.0
  0
SOLID
  5
219
330
213
100
AcDbEntity
  8
치수문자_일반주서
 62
     0
100
AcDbTrace
 10
111.9979999999995
 20
88.98566540029637
 30
0.0
 11
111.9979999999995
 21
90.08633206696302
 31
0.0
 12
115.2999999999995
 22
89.5359987336297
 32
0.0
 13
115.2999999999995
 23
89.5359987336297
 33
0.0
  0
SOLID
  5
21A
330
213
100
AcDbEntity
  8
치수문자_일반주서
 62
     0
100
AcDbTrace
 10
20.17700000000006
 20
90.08633206696302
 30
0.0
 11
20.17700000000006
 21
88.98566540029637
 31
0.0
 12
16.87500000000006
 22
89.5359987336297
 32
0.0
 13
16.87500000000006
 23
89.5359987336297
 33
0.0
  0
MTEXT
  5
21B
330
213
100
AcDbEntity
  8
치수문자_일반주서
 62
     0
100
AcDbMText
 10
66.08749999999992
 20
93.9109987336297
 30
0.0
 40
3.5
 41
0.0
 71
     2
 72
     1
  1
\A1;98.43
  7
SLDTEXTSTYLE0
 73
     1
 44
1.0
  0
POINT
  5
21C
330
213
100
AcDbEntity
  8
Defpoints
 62
     0
100
AcDbPoint
 10
115.2999999999995
 20
59.49680738881175
 30
0.0
  0
POINT
  5
21D
330
213
100
AcDbEntity
  8
Defpoints
 62
     0
100
AcDbPoint
 10
16.87500000000006
 20
58.49680738881173
 30
0.0
  0
POINT
  5
21E
330
213
100
AcDbEntity
  8
Defpoints
 62
     0
100
AcDbPoint
 10
16.87500000000006
 20
89.5359987336297
 30
0.0
  0
ENDBLK
  5
215
330
213
100
AcDbEntity
  8
0
100
AcDbBlockEnd
  0
BLOCK
  5
220
330
21F
100
AcDbEntity
  8
0
100
AcDbBlockBegin
  2
*D10
 70
     1
 10
0.0
 20
0.0
 30
0.0
  3
*D10
  1
*D11
  0
LINE
  5
222
330
21F
100
AcDbEntity
  8
치수문자_일반주서
 62
     0
370
    -2
100
AcDbLine
 10
115.3625000000001
 20
40.44680738881175
 30
0.0
 11
130.2124861683417
 21
40.44680738881181
 31
0.0
  0
LINE
  5
223
330
21F
100
AcDbEntity
  8
치수문자_일반주서
 62
     0
370
    -2
100
AcDbLine
 10
115.3624999999995
 20
59.49680738881175
 30
0.0
 11
130.2124861683416
 21
59.4968073888118
 31
0.0
  0
LINE
  5
224
330
21F
100
AcDbEntity
  8
치수문자_일반주서
 62
     0
370
    -2
100
AcDbLine
 10
130.2124861683416
 20
59.4968073888118
 30
0.0
 11
130.2124861683415
 21
89.35901851909998
 31
0.0
  0
LINE
  5
225
330
21F
100
AcDbEntity
  8
치수문자_일반주서
 62
     0
370
    -2
100
AcDbLine
 10
130.2124861683417
 20
40.44680738881181
 30
0.0
 11
130.2124861683416
 21
59.4968073888118
 31
0.0
  0
LINE
  5
226
330
21F
100
AcDbEntity
  8
치수문자_일반주서
 62
     0
370
    -2
100
AcDbLine
 10
130.2124861683417
 20
37.14480738881181
 30
0.0
 11
130.2124861683417
 21
33.84280738881181
 31
0.0
  0
LINE
  5
227
330
21F
100
AcDbEntity
  8
치수문자_일반주서
 62
     0
370
    -2
100
AcDbLine
 10
130.2124861683416
 20
62.7988073888118
 30
0.0
 11
130.2124861683416
 21
66.1008073888118
 31
0.0
  0
SOLID
  5
228
330
21F
100
AcDbEntity
  8
치수문자_일반주서
 62
     0
100
AcDbTrace
 10
130.762819501675
 20
37.14480738881181
 30
0.0
 11
129.6621528350084
 21
37.14480738881181
 31
0.0
 12
130.2124861683417
 22
40.44680738881181
 32
0.0
 13
130.2124861683417
 23
40.44680738881181
 33
0.0
  0
SOLID
  5
229
330
21F
100
AcDbEntity
  8
치수문자_일반주서
 62
     0
100
AcDbTrace
 10
129.6621528350083
 20
62.7988073888118
 30
0.0
 11
130.762819501675
 21
62.7988073888118
 31
0.0
 12
130.2124861683416
 22
59.4968073888118
 32
0.0
 13
130.2124861683416
 23
59.4968073888118
 33
0.0
  0
MTEXT
  5
22A
330
21F
100
AcDbEntity
  8
치수문자_일반주서
 62
     0
100
AcDbMText
 10
125.8374861683416
 20
82.57776851909996
 30
0.0
 40
3.5
 41
0.0
 71
     2
 72
     1
  1
\A1;%%c19.05
  7
SLDTEXTSTYLE0
 11
-2.983906501879686E-15
 21
1.0
 31
0.0
 73
     1
 44
1.0
  0
POINT
  5
22B
330
21F
100
AcDbEntity
  8
Defpoints
 62
     0
100
AcDbPoint
 10
115.3000000000001
 20
40.44680738881175
 30
0.0
  0
POINT
  5
22C
330
21F
100
AcDbEntity
  8
Defpoints
 62
     0
100
AcDbPoint
 10
115.2999999999995
 20
59.49680738881175
 30
0.0
  0
POINT
  5
22D
330
21F
100
AcDbEntity
  8
Defpoints
 62
     0
100
AcDbPoint
 10
130.2124861683417
 20
59.4968073888118
 30
0.0
  0
ENDBLK
  5
221
330
21F
100
AcDbEntity
  8
0
100
AcDbBlockEnd
  0
BLOCK
  5
270
330
26F
100
AcDbEntity
  8
0
100
AcDbBlockBegin
  2
*D11
 70
     1
 10
0.0
 20
0.0
 30
0.0
  3
*D11
  1
*D12
  0
LINE
  5
272
330
26F
100
AcDbEntity
  8
0
  6
Continuous
 62
     0
370
    -2
100
AcDbLine
 10
-44.21249999999998
 20
9.525000000000006
 30
0.0
 11
-57.65000000000002
 21
9.524999999999956
 31
0.0
  0
LINE
  5
273
330
26F
100
AcDbEntity
  8
0
  6
Continuous
 62
     0
370
    -2
100
AcDbLine
 10
-44.21249999999998
 20
-9.525000000000006
 30
0.0
 11
-57.64999999999996
 21
-9.525000000000055
 31
0.0
  0
LINE
  5
274
330
26F
100
AcDbEntity
  8
0
  6
Continuous
 62
     0
370
    -2
100
AcDbLine
 10
-57.65000000000001
 20
6.222999999999956
 30
0.0
 11
-57.64999999999997
 21
-6.223000000000056
 31
0.0
  0
SOLID
  5
275
330
26F
100
AcDbEntity
  8
0
 62
     0
100
AcDbTrace
 10
-57.09966666666667
 20
6.222999999999958
 30
0.0
 11
-58.20033333333334
 21
6.222999999999955
 31
0.0
 12
-57.65000000000002
 22
9.524999999999956
 32
0.0
 13
-57.65000000000002
 23
9.524999999999956
 33
0.0
  0
SOLID
  5
276
330
26F
100
AcDbEntity
  8
0
 62
     0
100
AcDbTrace
 10
-58.2003333333333
 20
-6.223000000000058
 30
0.0
 11
-57.09966666666664
 21
-6.223000000000054
 31
0.0
 12
-57.64999999999996
 22
-9.525000000000055
 32
0.0
 13
-57.64999999999996
 23
-9.525000000000055
 33
0.0
  0
MTEXT
  5
277
330
26F
100
AcDbEntity
  8
0
 62
     0
370
    15
100
AcDbMText
 10
-62.02499999999999
 20
-0.0000000000000065
 30
0.0
 40
3.5
 41
0.0
 71
     2
 72
     1
  1
\A1;%%c19.05 [3/4]
  7
SLDTEXTSTYLE0
 11
-3.356894814614645E-15
 21
1.0
 31
0.0
 73
     1
 44
1.0
  0
POINT
  5
278
330
26F
100
AcDbEntity
  8
Defpoints
 62
     0
100
AcDbPoint
 10
-44.14999999999998
 20
9.525000000000006
 30
0.0
  0
POINT
  5
279
330
26F
100
AcDbEntity
  8
Defpoints
 62
     0
100
AcDbPoint
 10
-44.14999999999998
 20
-9.525000000000006
 30
0.0
  0
POINT
  5
27A
330
26F
100
AcDbEntity
  8
Defpoints
 62
     0
100
AcDbPoint
 10
-57.64999999999995
 20
-9.525000000000055
 30
0.0
  0
ENDBLK
  5
271
330
26F
100
AcDbEntity
  8
0
100
AcDbBlockEnd
  0
BLOCK
  5
27C
330
27B
100
AcDbEntity
  8
0
100
AcDbBlockBegin
  2
*D12
 70
     1
 10
0.0
 20
0.0
 30
0.0
  3
*D12
  1
*D13
  0
LINE
  5
27E
330
27B
100
AcDbEntity
  8
치수문자_일반주서
 62
     0
370
    -2
100
AcDbLine
 10
207.9503988352293
 20
-40.64388467480167
 30
0.0
 11
207.9503988352293
 21
-27.53809332891639
 31
0.0
  0
LINE
  5
27F
330
27B
100
AcDbEntity
  8
치수문자_일반주서
 62
     0
370
    -2
100
AcDbLine
 10
166.6753988352299
 20
-41.12387735730245
 30
0.0
 11
166.6753988352299
 21
-27.53809332891639
 31
0.0
  0
LINE
  5
280
330
27B
100
AcDbEntity
  8
치수문자_일반주서
 62
     0
370
    -2
100
AcDbLine
 10
204.6483988352293
 20
-27.53809332891639
 30
0.0
 11
169.9773988352299
 21
-27.53809332891639
 31
0.0
  0
SOLID
  5
281
330
27B
100
AcDbEntity
  8
치수문자_일반주서
 62
     0
100
AcDbTrace
 10
204.6483988352293
 20
-28.08842666224972
 30
0.0
 11
204.6483988352293
 21
-26.98775999558305
 31
0.0
 12
207.9503988352293
 22
-27.53809332891639
 32
0.0
 13
207.9503988352293
 23
-27.53809332891639
 33
0.0
  0
SOLID
  5
282
330
27B
100
AcDbEntity
  8
치수문자_일반주서
 62
     0
100
AcDbTrace
 10
169.9773988352299
 20
-26.98775999558305
 30
0.0
 11
169.9773988352299
 21
-28.08842666224972
 31
0.0
 12
166.6753988352299
 22
-27.53809332891639
 32
0.0
 13
166.6753988352299
 23
-27.53809332891639
 33
0.0
  0
MTEXT
  5
283
330
27B
100
AcDbEntity
  8
치수문자_일반주서
 62
     0
100
AcDbMText
 10
187.3128988352299
 20
-23.16309332891639
 30
0.0
 40
3.5
 41
0.0
 71
     2
 72
     1
  1
\A1;41.28
  7
SLDTEXTSTYLE0
 73
     1
 44
1.0
  0
POINT
  5
284
330
27B
100
AcDbEntity
  8
Defpoints
 62
     0
100
AcDbPoint
 10
207.9503988352293
 20
-40.70638467480167
 30
0.0
  0
POINT
  5
285
330
27B
100
AcDbEntity
  8
Defpoints
 62
     0
100
AcDbPoint
 10
166.6753988352299
 20
-41.18637735730245
 30
0.0
  0
POINT
  5
286
330
27B
100
AcDbEntity
  8
Defpoints
 62
     0
100
AcDbPoint
 10
166.6753988352299
 20
-27.53809332891639
 30
0.0
  0
ENDBLK
  5
27D
330
27B
100
AcDbEntity
  8
0
100
AcDbBlockEnd
  0
BLOCK
  5
288
330
287
100
AcDbEntity
  8
0
100
AcDbBlockBegin
  2
*D13
 70
     1
 10
0.0
 20
0.0
 30
0.0
  3
*D13
  1
*D14
  0
LINE
  5
28A
330
287
100
AcDbEntity
  8
0
  6
Continuous
 62
     0
370
    -2
100
AcDbLine
 10
59.62499999999999
 20
11.17500000000001
 30
0.0
 11
59.62499999999999
 21
39.56419134481796
 31
0.0
  0
LINE
  5
28B
330
287
100
AcDbEntity
  8
0
  6
Continuous
 62
     0
370
    -2
100
AcDbLine
 10
-45.14999999999998
 20
8.587499999999991
 30
0.0
 11
-45.14999999999998
 21
39.56419134481796
 31
0.0
  0
LINE
  5
28C
330
287
100
AcDbEntity
  8
0
  6
Continuous
 62
     0
370
    -2
100
AcDbLine
 10
56.32299999999999
 20
39.56419134481796
 30
0.0
 11
-41.84799999999998
 21
39.56419134481796
 31
0.0
  0
SOLID
  5
28D
330
287
100
AcDbEntity
  8
0
 62
     0
100
AcDbTrace
 10
56.32299999999999
 20
39.01385801148462
 30
0.0
 11
56.32299999999999
 21
40.11452467815129
 31
0.0
 12
59.62499999999999
 22
39.56419134481796
 32
0.0
 13
59.62499999999999
 23
39.56419134481796
 33
0.0
  0
SOLID
  5
28E
330
287
100
AcDbEntity
  8
0
 62
     0
100
AcDbTrace
 10
-41.84799999999998
 20
40.11452467815129
 30
0.0
 11
-41.84799999999998
 21
39.01385801148462
 31
0.0
 12
-45.14999999999998
 22
39.56419134481796
 32
0.0
 13
-45.14999999999998
 23
39.56419134481796
 33
0.0
  0
MTEXT
  5
28F
330
287
100
AcDbEntity
  8
0
 62
     0
370
    15
100
AcDbMText
 10
4.062499999999888
 20
43.93919134481796
 30
0.0
 40
3.5
 41
0.0
 71
     2
 72
     1
  1
\A1;104.78 [4 1/8]
  7
SLDTEXTSTYLE0
 73
     1
 44
1.0
  0
POINT
  5
290
330
287
100
AcDbEntity
  8
Defpoints
 62
     0
100
AcDbPoint
 10
59.62499999999999
 20
11.11250000000001
 30
0.0
  0
POINT
  5
291
330
287
100
AcDbEntity
  8
Defpoints
 62
     0
100
AcDbPoint
 10
-45.14999999999998
 20
8.524999999999991
 30
0.0
  0
POINT
  5
292
330
287
100
AcDbEntity
  8
Defpoints
 62
     0
100
AcDbPoint
 10
-45.14999999999998
 20
39.56419134481796
 30
0.0
  0
ENDBLK
  5
289
330
287
100
AcDbEntity
  8
0
100
AcDbBlockEnd
  0
BLOCK
  5
294
330
293
100
AcDbEntity
  8
0
100
AcDbBlockBegin
  2
*D14
 70
     1
 10
0.0
 20
0.0
 30
0.0
  3
*D14
  1
*D15
  0
LINE
  5
296
330
293
100
AcDbEntity
  8
치수문자_일반주서
 62
     0
370
    -2
100
AcDbLine
 10
208.0128988352299
 20
-59.75638467480167
 30
0.0
 11
222.8628850035715
 21
-59.75638467480161
 31
0.0
  0
LINE
  5
297
330
293
100
AcDbEntity
  8
치수문자_일반주서
 62
     0
370
    -2
100
AcDbLine
 10
208.0128988352293
 20
-40.70638467480167
 30
0.0
 11
222.8628850035714
 21
-40.70638467480161
 31
0.0
  0
LINE
  5
298
330
293
100
AcDbEntity
  8
치수문자_일반주서
 62
     0
370
    -2
100
AcDbLine
 10
222.8628850035714
 20
-40.70638467480161
 30
0.0
 11
222.8628850035714
 21
-10.84417354451344
 31
0.0
  0
LINE
  5
299
330
293
100
AcDbEntity
  8
치수문자_일반주서
 62
     0
370
    -2
100
AcDbLine
 10
222.8628850035715
 20
-59.75638467480161
 30
0.0
 11
222.8628850035714
 21
-40.70638467480161
 31
0.0
  0
LINE
  5
29A
330
293
100
AcDbEntity
  8
치수문자_일반주서
 62
     0
370
    -2
100
AcDbLine
 10
222.8628850035715
 20
-63.05838467480161
 30
0.0
 11
222.8628850035715
 21
-66.36038467480161
 31
0.0
  0
LINE
  5
29B
330
293
100
AcDbEntity
  8
치수문자_일반주서
 62
     0
370
    -2
100
AcDbLine
 10
222.8628850035714
 20
-37.40438467480161
 30
0.0
 11
222.8628850035714
 21
-34.10238467480161
 31
0.0
  0
SOLID
  5
29C
330
293
100
AcDbEntity
  8
치수문자_일반주서
 62
     0
100
AcDbTrace
 10
223.4132183369048
 20
-63.05838467480161
 30
0.0
 11
222.3125516702382
 21
-63.05838467480161
 31
0.0
 12
222.8628850035715
 22
-59.75638467480161
 32
0.0
 13
222.8628850035715
 23
-59.75638467480161
 33
0.0
  0
SOLID
  5
29D
330
293
100
AcDbEntity
  8
치수문자_일반주서
 62
     0
100
AcDbTrace
 10
222.3125516702381
 20
-37.40438467480161
 30
0.0
 11
223.4132183369048
 21
-37.40438467480161
 31
0.0
 12
222.8628850035714
 22
-40.70638467480161
 32
0.0
 13
222.8628850035714
 23
-40.70638467480161
 33
0.0
  0
MTEXT
  5
29E
330
293
100
AcDbEntity
  8
치수문자_일반주서
 62
     0
100
AcDbMText
 10
218.4878850035714
 20
-17.62542354451345
 30
0.0
 40
3.5
 41
0.0
 71
     2
 72
     1
  1
\A1;%%c19.05
  7
SLDTEXTSTYLE0
 11
-2.983906501879686E-15
 21
1.0
 31
0.0
 73
     1
 44
1.0
  0
POINT
  5
29F
330
293
100
AcDbEntity
  8
Defpoints
 62
     0
100
AcDbPoint
 10
207.9503988352299
 20
-59.75638467480167
 30
0.0
  0
POINT
  5
2A0
330
293
100
AcDbEntity
  8
Defpoints
 62
     0
100
AcDbPoint
 10
207.9503988352293
 20
-40.70638467480167
 30
0.0
  0
POINT
  5
2A1
330
293
100
AcDbEntity
  8
Defpoints
 62
     0
100
AcDbPoint
 10
222.8628850035714
 20
-40.70638467480161
 30
0.0
  0
ENDBLK
  5
295
330
293
100
AcDbEntity
  8
0
100
AcDbBlockEnd
  0
ENDSEC
  0
SECTION
  2
ENTITIES
  0
SPLINE
  5
96
330
1F
100
AcDbEntity
  8
0
  6
Continuous
 62
     1
370
    15
100
AcDbSpline
210
0.0
220
0.0
230
1.0
 70
     8
 71
     3
 72
    17
 73
    13
 74
     0
 42
0.000000001
 43
0.00000001
 40
0.0
 40
0.0
 40
0.0
 40
0.0
 40
0.1337685995256757
 40
0.2547594108402225
 40
0.358034240203669
 40
0.4348866221284859
 40
0.4983537360360498
 40
0.5625299806222382
 40
0.6400419476403276
 40
0.7425116201349949
 40
0.8635840379455235
 40
1.0
 40
1.0
 40
1.0
 40
1.0
 10
30.83465495595636
 20
2.847583155189291
 30
0.0
 10
30.70461727519844
 20
2.908616927820086
 30
0.0
 10
30.45696331863175
 20
3.02485443058166
 30
0.0
 10
30.08317730775848
 20
3.204594095161891
 30
0.0
 10
29.76255293167546
 20
3.361315657357073
 30
0.0
 10
29.50851497104091
 20
3.487052742305767
 30
0.0
 10
29.29845738361688
 20
3.59208387250534
 30
0.0
 10
29.08788888520632
 20
3.698104095099306
 30
0.0
 10
28.83301076227549
 20
3.827465176297173
 30
0.0
 10
28.51220564291712
 20
3.991809327678484
 30
0.0
 10
28.13660774538167
 20
4.186630771812843
 30
0.0
 10
27.88565989141522
 20
4.31919800484601
 30
0.0
 10
27.75270906488748
 20
4.389431413594788
 30
0.0
  0
SPLINE
  5
97
330
1F
100
AcDbEntity
  8
0
  6
Continuous
 62
     1
370
    15
100
AcDbSpline
210
0.0
220
0.0
230
1.0
 70
     8
 71
     3
 72
    24
 73
    20
 74
     0
 42
0.000000001
 43
0.00000001
 40
0.0
 40
0.0
 40
0.0
 40
0.0
 40
0.078199654790718
 40
0.1443092272341407
 40
0.2004144253644278
 40
0.2494408725216127
 40
0.2923767063727131
 40
0.3240953710794954
 40
0.3631720030697693
 40
0.410799916017255
 40
0.4600647423253761
 40
0.5045930526754566
 40
0.5989308222461287
 40
0.6948312614269987
 40
0.7806719505013323
 40
0.8505458794601123
 40
0.9167332575313454
 40
0.9862537512918892
 40
1.0
 40
1.0
 40
1.0
 40
1.0
 10
27.1610773538904
 20
8.830424421401556
 30
0.0
 10
26.93973198091424
 20
8.818747317896882
 30
0.0
 10
26.53126240631666
 20
8.797198453165926
 30
0.0
 10
25.93113163131481
 20
8.769671566858825
 30
0.0
 10
25.40380621145122
 20
8.750255850135865
 30
0.0
 10
24.95073991929889
 20
8.734776134815117
 30
0.0
 10
24.57150716665156
 20
8.723004704347137
 30
0.0
 10
24.23343515863393
 20
8.713752420982964
 30
0.0
 10
23.87772468262572
 20
8.705006366150275
 30
0.0
 10
23.46830855816548
 20
8.696466515743907
 30
0.0
 10
23.04193273085459
 20
8.689336856095416
 30
0.0
 10
22.47474172928625
 20
8.682137702376274
 30
0.0
 10
21.7666047217952
 20
8.677432574478793
 30
0.0
 10
20.93437491671531
 20
8.678745586146764
 30
0.0
 10
20.17559714908613
 20
8.685914792361867
 30
0.0
 10
19.50643176766667
 20
8.696672965063122
 30
0.0
 10
18.88670999896797
 20
8.710561293882975
 30
0.0
 10
18.43611391768504
 20
8.722542886675829
 30
0.0
 10
18.18501337220756
 20
8.730996487144743
 30
0.0
 10
18.14355996059878
 20
8.73239206587257
 30
0.0
  0
SPLINE
  5
98
330
1F
100
AcDbEntity
  8
0
  6
Continuous
 62
     1
370
    15
100
AcDbSpline
210
0.0
220
0.0
230
1.0
 70
     8
 71
     3
 72
    48
 73
    44
 74
     0
 42
0.000000001
 43
0.00000001
 40
0.0
 40
0.0
 40
0.0
 40
0.0
 40
0.0285459041674677
 40
0.0530817945319652
 40
0.0739916810596127
 40
0.0970068153800638
 40
0.1187083284873154
 40
0.1410565609197436
 40
0.1644583556765683
 40
0.1851648044095563
 40
0.2014146647082799
 40
0.2163958065844863
 40
0.2362114087549983
 40
0.2592221631592829
 40
0.2819436550099956
 40
0.3034075829546711
 40
0.3236559659696003
 40
0.3451114921997817
 40
0.365424942708933
 40
0.3852604376949407
 40
0.4057157091253693
 40
0.4271373746694184
 40
0.4525649131365636
 40
0.4827555069760626
 40
0.514812536393825
 40
0.549691148155152
 40
0.5766425371558692
 40
0.5989251329919669
 40
0.6256223721291866
 40
0.6547404409680384
 40
0.6899507737339885
 40
0.7222119694750984
 40
0.7527267212013871
 40
0.7778749890763893
 40
0.8027466957962663
 40
0.8295174855372692
 40
0.8592529549503811
 40
0.8901781361377353
 40
0.9213813444519723
 40
0.9377994554194568
 40
0.9560256560102042
 40
0.9766445259968617
 40
1.0
 40
1.0
 40
1.0
 40
1.0
 10
55.49653038762251
 20
7.600422386188287
 30
0.0
 10
55.33916079714253
 20
7.586723621540234
 30
0.0
 10
55.04652826329697
 20
7.561250439604092
 30
0.0
 10
54.60351061963055
 20
7.523980932204299
 30
0.0
 10
54.16479495438882
 20
7.491012834896135
 30
0.0
 10
53.717231293075
 20
7.464496816189463
 30
0.0
 10
53.27123141932115
 20
7.439926262990478
 30
0.0
 10
52.81494699227891
 20
7.414788587312919
 30
0.0
 10
52.37893010986038
 20
7.393467464395825
 30
0.0
 10
51.98526921433584
 20
7.376415346998737
 30
0.0
 10
51.64653242794716
 20
7.363361228174675
 30
0.0
 10
51.31319703470444
 20
7.351850236119192
 30
0.0
 10
50.93420591361566
 20
7.340457586449789
 30
0.0
 10
50.50339918185502
 20
7.329879471155104
 30
0.0
 10
50.06347270066173
 20
7.321688128746597
 30
0.0
 10
49.64345937283346
 20
7.316289475252648
 30
0.0
 10
49.23476425438015
 20
7.313257213697741
 30
0.0
 10
48.83256162308188
 20
7.31242043534457
 30
0.0
 10
48.43168738876429
 20
7.313742569638827
 30
0.0
 10
48.03511928982023
 20
7.317108466454435
 30
0.0
 10
47.62828537596609
 20
7.322687742902263
 30
0.0
 10
47.18111455340187
 20
7.331157859877631
 30
0.0
 10
46.67730545168833
 20
7.343936631736718
 30
0.0
 10
46.11427868523872
 20
7.362431628005679
 30
0.0
 10
45.48806587494033
 20
7.387754034552511
 30
0.0
 10
44.87479977353382
 20
7.417704334019782
 30
0.0
 10
44.32586605729918
 20
7.448814340815223
 30
0.0
 10
43.8300201577023
 20
7.479993770305702
 30
0.0
 10
43.32050030962347
 20
7.51517840937132
 30
0.0
 10
42.72685300850817
 20
7.56041468883005
 30
0.0
 10
42.096446896763
 20
7.613418063460175
 30
0.0
 10
41.45683763162702
 20
7.67233384032661
 30
0.0
 10
40.88216649111428
 20
7.72955755276406
 30
0.0
 10
40.359545928146
 20
7.785139505679852
 30
0.0
 10
39.8755323349074
 20
7.839126113894769
 30
0.0
 10
39.34408316635444
 20
7.901881628083236
 30
0.0
 10
38.76366066556889
 20
7.974481244316149
 30
0.0
 10
38.1492090855542
 20
8.055320966472472
 30
0.0
 10
37.62698522914838
 20
8.125041503673511
 30
0.0
 10
37.185459713351
 20
8.186609778351237
 30
0.0
 10
36.83110511815315
 20
8.239789864025092
 30
0.0
 10
36.45618283972508
 20
8.298800816606711
 30
0.0
 10
36.21254248246277
 20
8.33752274463092
 30
0.0
 10
36.08314121086051
 20
8.358088576915556
 30
0.0
  0
SPLINE
  5
99
330
1F
100
AcDbEntity
  8
0
  6
Continuous
 62
     1
370
    15
100
AcDbSpline
210
0.0
220
0.0
230
1.0
 70
     8
 71
     3
 72
    25
 73
    21
 74
     0
 42
0.000000001
 43
0.00000001
 40
0.0
 40
0.0
 40
0.0
 40
0.0
 40
0.0549346436865565
 40
0.1034324937316573
 40
0.1463025221917043
 40
0.2038105856461558
 40
0.2593317204753606
 40
0.3144948119093949
 40
0.368998441668542
 40
0.4197812707659974
 40
0.4666838210617342
 40
0.5363579747575374
 40
0.607302052847315
 40
0.6816577193711689
 40
0.7339399966548097
 40
0.7896883509874913
 40
0.8491689982717224
 40
0.9094396763599946
 40
0.9615706695326209
 40
1.0
 40
1.0
 40
1.0
 40
1.0
 10
36.0831412108605
 20
-8.358088576915556
 30
0.0
 10
36.21254919819072
 20
-8.337520821173364
 30
0.0
 10
36.45620220001467
 20
-8.298795271609105
 30
0.0
 10
36.83104133845052
 20
-8.239808131225917
 30
0.0
 10
37.23719738632251
 20
-8.178812620615368
 30
0.0
 10
37.68466676286209
 20
-8.11767818356497
 30
0.0
 10
38.15997078687264
 20
-8.053892251115137
 30
0.0
 10
38.629656740605
 20
-7.992052758501935
 30
0.0
 10
39.0834885733815
 20
-7.934305858084198
 30
0.0
 10
39.51071284859876
 20
-7.882035073664255
 30
0.0
 10
39.97192644902248
 20
-7.828187215647886
 30
0.0
 10
40.47488280478232
 20
-7.772429230842529
 30
0.0
 10
41.07206322034511
 20
-7.710108109001218
 30
0.0
 10
41.62020401978995
 20
-7.65704159467573
 30
0.0
 10
42.12657189529508
 20
-7.611242914787438
 30
0.0
 10
42.59136338554393
 20
-7.571772977955665
 30
0.0
 10
43.07804034854345
 20
-7.533272596026
 30
0.0
 10
43.55471070335424
 20
-7.498742897338121
 30
0.0
 10
43.97318783664132
 20
-7.470721715640357
 30
0.0
 10
44.22460037358549
 20
-7.455559268048248
 30
0.0
 10
44.33128744224348
 20
-7.449125073847179
 30
0.0
  0
SPLINE
  5
9A
330
1F
100
AcDbEntity
  8
0
  6
Continuous
 62
     1
370
    15
100
AcDbSpline
210
0.0
220
0.0
230
1.0
 70
     8
 71
     3
 72
    41
 73
    37
 74
     0
 42
0.000000001
 43
0.00000001
 40
0.0
 40
0.0
 40
0.0
 40
0.0
 40
0.0321209865663424
 40
0.0587570395641239
 40
0.0800420759076658
 40
0.0960430792663114
 40
0.1089979265274455
 40
0.1367670229426352
 40
0.1673035731910961
 40
0.2024761511646061
 40
0.2377280544143831
 40
0.2790351804923423
 40
0.3090338224157084
 40
0.3354947430247812
 40
0.3578793435640263
 40
0.382172348927608
 40
0.4137176996639466
 40
0.4474308968351668
 40
0.4770542314618438
 40
0.5021994572548718
 40
0.5269886791630444
 40
0.5478998664655691
 40
0.5773773479863495
 40
0.6140789055209772
 40
0.6482352818253504
 40
0.6786582175707567
 40
0.7090614038107697
 40
0.7458977979688785
 40
0.7797569876082233
 40
0.8110438782324589
 40
0.8267827357072198
 40
0.8434996120017271
 40
0.8682393844343146
 40
0.9025699202342482
 40
0.9464277168817135
 40
1.0
 40
1.0
 40
1.0
 40
1.0
 10
12.00000000000001
 20
-9.101137395535176
 30
0.0
 10
12.16442766310978
 20
-9.08719218512702
 30
0.0
 10
12.4652055575503
 20
-9.061683028426927
 30
0.0
 10
12.87502630688674
 20
-9.028319455286997
 30
0.0
 10
13.20169175643698
 20
-9.002654227362356
 30
0.0
 10
13.45631939609749
 20
-8.983386268414112
 30
0.0
 10
13.7358787167415
 20
-8.96286297533213
 30
0.0
 10
14.09382228627825
 20
-8.937406854108456
 30
0.0
 10
14.56598456266059
 20
-8.905706924407344
 30
0.0
 10
15.07610563289225
 20
-8.873705339310643
 30
0.0
 10
15.64085337304703
 20
-8.84096795658478
 30
0.0
 10
16.17905610342519
 20
-8.81254600957055
 30
0.0
 10
16.67286353604884
 20
-8.788995548744396
 30
0.0
 10
17.07115278147155
 20
-8.771597393247724
 30
0.0
 10
17.44073366690084
 20
-8.75673493741542
 30
0.0
 10
17.83602999988116
 20
-8.742146777060285
 30
0.0
 10
18.28846245103342
 20
-8.727241028284112
 30
0.0
 10
18.7677943183352
 20
-8.713670221546511
 30
0.0
 10
19.21480676131492
 20
-8.703029481916829
 30
0.0
 10
19.61680422770401
 20
-8.695044178084014
 30
0.0
 10
19.97468937949125
 20
-8.689242679986478
 30
0.0
 10
20.35472864436251
 20
-8.684341158529822
 30
0.0
 10
20.79618217392984
 20
-8.680260099549248
 30
0.0
 10
21.30520777418391
 20
-8.677986153708101
 30
0.0
 10
21.81742748820474
 20
-8.678348698437755
 30
0.0
 10
22.29454645502549
 20
-8.680938604450137
 30
0.0
 10
22.78571957103492
 20
-8.685743207363906
 30
0.0
 10
23.29739474417331
 20
-8.693246115825506
 30
0.0
 10
23.80724833559481
 20
-8.703303052659123
 30
0.0
 10
24.20966597046014
 20
-8.712954888001658
 30
0.0
 10
24.53404111567673
 20
-8.721982294949179
 30
0.0
 10
24.82676416000788
 20
-8.730845898472921
 30
0.0
 10
25.21169430214597
 20
-8.743547969511333
 30
0.0
 10
25.73286865591341
 20
-8.763021404035698
 30
0.0
 10
26.3985414459673
 20
-8.791347971733718
 30
0.0
 10
26.89054655710752
 20
-8.816560965327888
 30
0.0
 10
27.1610773538904
 20
-8.83042442140156
 30
0.0
  0
SPLINE
  5
9B
330
1F
100
AcDbEntity
  8
0
  6
Continuous
 62
     1
370
    15
100
AcDbSpline
210
0.0
220
0.0
230
1.0
 70
     8
 71
     3
 72
    60
 73
    56
 74
     0
 42
0.000000001
 43
0.00000001
 40
0.0
 40
0.0
 40
0.0
 40
0.0
 40
0.0624999999999994
 40
0.0624999999999994
 40
0.0937499999999993
 40
0.0937499999999993
 40
0.1249999999999991
 40
0.1249999999999991
 40
0.156249999999999
 40
0.156249999999999
 40
0.1874999999999989
 40
0.1874999999999989
 40
0.2187499999999988
 40
0.2187499999999988
 40
0.2499999999999986
 40
0.2499999999999986
 40
0.312499999999998
 40
0.312499999999998
 40
0.3437499999999979
 40
0.3437499999999979
 40
0.3749999999999977
 40
0.3749999999999977
 40
0.4062499999999978
 40
0.4062499999999978
 40
0.4374999999999978
 40
0.4374999999999978
 40
0.4687499999999978
 40
0.4687499999999978
 40
0.4999999999999979
 40
0.4999999999999979
 40
0.562499999999998
 40
0.562499999999998
 40
0.624999999999998
 40
0.624999999999998
 40
0.6562499999999982
 40
0.6562499999999982
 40
0.6874999999999983
 40
0.6874999999999983
 40
0.7187499999999984
 40
0.7187499999999984
 40
0.7499999999999986
 40
0.7499999999999986
 40
0.7812499999999988
 40
0.7812499999999988
 40
0.8124999999999989
 40
0.8124999999999989
 40
0.8749999999999993
 40
0.8749999999999993
 40
0.9062499999999996
 40
0.9062499999999996
 40
0.9374999999999997
 40
0.9374999999999997
 40
0.9687499999999999
 40
0.9687499999999999
 40
1.0
 40
1.0
 40
1.0
 40
1.0
 10
59.625
 20
-11.11249999999998
 30
0.0
 10
58.63656306642991
 20
-11.07959034957736
 30
0.0
 10
57.63808578100021
 20
-11.01158294856033
 30
0.0
 10
56.15200475228352
 20
-10.84450454066798
 30
0.0
 10
55.65772966844204
 20
-10.77801238681825
 30
0.0
 10
54.66428932977604
 20
-10.62345223264548
 30
0.0
 10
54.16670912021443
 20
-10.53543920959371
 30
0.0
 10
53.1742880770266
 20
-10.33875774377145
 30
0.0
 10
52.68076761985915
 20
-10.23021168021934
 30
0.0
 10
51.68850597078563
 20
-9.992587289641527
 30
0.0
 10
51.19094215330822
 20
-9.863569016308524
 30
0.0
 10
50.19740750081749
 20
-9.586251334365588
 30
0.0
 10
49.70294458639496
 20
-9.438115904699117
 30
0.0
 10
48.71244806035415
 20
-9.123219884698347
 30
0.0
 10
48.21519668297157
 20
-8.956308062766627
 30
0.0
 10
46.72410771226467
 20
-8.429326897879054
 30
0.0
 10
45.73624180630968
 20
-8.043719004667455
 30
0.0
 10
44.24525082187139
 20
-7.418397955925864
 30
0.0
 10
43.74790477896279
 20
-7.202288410637403
 30
0.0
 10
42.75696708327163
 20
-6.756711790918963
 30
0.0
 10
42.26285904932296
 20
-6.527186208427654
 30
0.0
 10
41.26952024015614
 20
-6.054790031056267
 30
0.0
 10
40.77192726718338
 20
-5.812162609330283
 30
0.0
 10
39.77935402087469
 20
-5.316232925650437
 30
0.0
 10
39.2858127647903
 20
-5.063189194528717
 30
0.0
 10
38.2937176969678
 20
-4.546674400332607
 30
0.0
 10
37.79617389984848
 20
-4.283362595341453
 30
0.0
 10
36.80255215149273
 20
-3.748976548841079
 30
0.0
 10
36.30788063033727
 20
-3.478164308160157
 30
0.0
 10
34.82248279764847
 20
-2.65591415683155
 30
0.0
 10
33.82395389301391
 20
-2.093406381159253
 30
0.0
 10
31.84596867277318
 20
-0.9597882895211004
 30
0.0
 10
30.84866342948965
 20
-0.385299241642144
 30
0.0
 10
29.36194210382973
 20
0.473552885322491
 30
0.0
 10
28.86798033505094
 20
0.7593409979943606
 30
0.0
 10
27.87475026859796
 20
1.329853556816826
 30
0.0
 10
27.37714816119784
 20
1.614255061237952
 30
0.0
 10
26.38442990644514
 20
2.178800831656114
 30
0.0
 10
25.89084705302939
 20
2.458660257090779
 30
0.0
 10
24.89892574956473
 20
3.013822770373651
 30
0.0
 10
24.40140560059014
 20
3.28896424706787
 30
0.0
 10
23.40770397643968
 20
3.831890602364418
 30
0.0
 10
22.91280307743705
 20
4.099447779778362
 30
0.0
 10
21.92277629878764
 20
4.625922156090092
 30
0.0
 10
21.42563406952524
 20
4.88518860295274
 30
0.0
 10
19.93449049635067
 20
5.64753488968099
 30
0.0
 10
18.9465555964004
 20
6.134216826988461
 30
0.0
 10
17.45570597252851
 20
6.826173066695551
 30
0.0
 10
16.95827975590041
 20
7.05030830362824
 30
0.0
 10
15.96692951091254
 20
7.483572242656543
 30
0.0
 10
15.47309321904767
 20
7.692710381069483
 30
0.0
 10
14.47997910588896
 20
8.096004291093635
 30
0.0
 10
13.98237149326761
 20
8.289909496119673
 30
0.0
 10
12.98951542825779
 20
8.660502578503756
 30
0.0
 10
12.49587018010118
 20
8.837018006833706
 30
0.0
 10
11.99999999999989
 20
9.004828892702719
 30
0.0
  0
SPLINE
  5
9C
330
1F
100
AcDbEntity
  8
0
  6
Continuous
 62
     1
370
    15
100
AcDbSpline
210
0.0
220
0.0
230
1.0
 70
     8
 71
     3
 72
    16
 73
    12
 74
     0
 42
0.000000001
 43
0.00000001
 40
0.0
 40
0.0
 40
0.0
 40
0.0
 40
0.0131797059926596
 40
0.139776676469256
 40
0.2664303786321115
 40
0.3929649532371045
 40
0.519474447625555
 40
0.6396386131050015
 40
0.7598417524526149
 40
0.8799100562824516
 40
1.0
 40
1.0
 40
1.0
 40
1.0
 10
32.01825756316714
 20
-1.057083649349457
 30
0.0
 10
31.93031676387479
 20
-1.022214444954225
 30
0.0
 10
30.99766525723422
 20
-0.6524109376371953
 30
0.0
 10
29.21976978101218
 20
0.0711960918543255
 30
0.0
 10
26.6852777177477
 20
1.092234540879232
 30
0.0
 10
24.15177486560872
 20
2.097508435321089
 30
0.0
 10
21.66160388760854
 20
3.04924891931112
 30
0.0
 10
19.21347125681909
 20
3.934955198231684
 30
0.0
 10
16.80811959349067
 20
4.741548997871265
 30
0.0
 10
14.40378032935892
 20
5.481906846962994
 30
0.0
 10
12.80130824098925
 20
5.901082876212904
 30
0.0
 10
12.00000000000001
 20
6.110689776140147
 30
0.0
  0
SPLINE
  5
9D
330
1F
100
AcDbEntity
  8
외형선
  6
Continuous
370
    15
100
AcDbSpline
210
0.0
220
0.0
230
1.0
 70
    24
 71
     3
 72
    10
 73
     6
 74
     0
 42
0.000000001
 43
0.00000001
 40
0.0
 40
0.0
 40
0.0
 40
0.0
 40
0.5
 40
0.5
 40
1.0
 40
1.0
 40
1.0
 40
1.0
 10
12.00000000000001
 20
9.004828892702676
 30
0.0
 10
12.00000000000001
 20
8.655755902745348
 30
0.0
 10
12.00000000000001
 20
8.20632325147404
 30
0.0
 10
12.00000000000001
 20
7.201672124633112
 30
0.0
 10
12.00000000000001
 20
6.649560265495223
 30
0.0
 10
12.00000000000001
 20
6.110689776140147
 30
0.0
  0
SPLINE
  5
9E
330
1F
100
AcDbEntity
  8
0
  6
Continuous
 62
     1
370
    15
100
AcDbSpline
210
0.0
220
0.0
230
1.0
 70
     8
 71
     3
 72
    60
 73
    56
 74
     0
 42
0.000000001
 43
0.00000001
 40
0.0
 40
0.0
 40
0.0
 40
0.0
 40
0.0624999999999999
 40
0.0624999999999999
 40
0.09375
 40
0.09375
 40
0.1250000000000001
 40
0.1250000000000001
 40
0.1562500000000002
 40
0.1562500000000002
 40
0.1875000000000004
 40
0.1875000000000004
 40
0.2187500000000005
 40
0.2187500000000005
 40
0.2500000000000006
 40
0.2500000000000006
 40
0.3125000000000005
 40
0.3125000000000005
 40
0.3437500000000004
 40
0.3437500000000004
 40
0.3750000000000004
 40
0.3750000000000004
 40
0.4062500000000004
 40
0.4062500000000004
 40
0.4375000000000003
 40
0.4375000000000003
 40
0.4687500000000003
 40
0.4687500000000003
 40
0.5000000000000002
 40
0.5000000000000002
 40
0.5625000000000002
 40
0.5625000000000002
 40
0.6250000000000003
 40
0.6250000000000003
 40
0.6562500000000003
 40
0.6562500000000003
 40
0.6875000000000002
 40
0.6875000000000002
 40
0.7187500000000002
 40
0.7187500000000002
 40
0.7500000000000001
 40
0.7500000000000001
 40
0.7812500000000001
 40
0.7812500000000001
 40
0.8125000000000001
 40
0.8125000000000001
 40
0.8750000000000001
 40
0.8750000000000001
 40
0.90625
 40
0.90625
 40
0.9375
 40
0.9375
 40
0.9687499999999999
 40
0.9687499999999999
 40
1.0
 40
1.0
 40
1.0
 40
1.0
 10
59.62500000000001
 20
-10.54510540933948
 30
0.0
 10
58.63656306642986
 20
-10.36462553176177
 30
0.0
 10
57.63808578100009
 20
-10.14136019165035
 30
0.0
 10
56.15200475228332
 20
-9.748113717577152
 30
0.0
 10
55.65772966844182
 20
-9.607302423804644
 30
0.0
 10
54.66428932977577
 20
-9.306342065834617
 30
0.0
 10
54.16670912021412
 20
-9.146329321407197
 30
0.0
 10
53.17428807702624
 20
-8.80869174216567
 30
0.0
 10
52.68076761985878
 20
-8.631246948093075
 30
0.0
 10
51.6885059707852
 20
-8.258903975259415
 30
0.0
 10
51.19094215330775
 20
-8.064124761614401
 30
0.0
 10
50.19740750081695
 20
-7.659075802990763
 30
0.0
 10
49.70294458639441
 20
-7.449030499504757
 30
0.0
 10
48.71244806035352
 20
-7.014327193170261
 30
0.0
 10
48.21519668297093
 20
-6.789473653645771
 30
0.0
 10
46.72410771226397
 20
-6.0953544972127
 30
0.0
 10
45.73624180630885
 20
-5.607416680840159
 30
0.0
 10
44.24525082187051
 20
-4.843441940412989
 30
0.0
 10
43.74790477896187
 20
-4.583630571557157
 30
0.0
 10
42.75696708327068
 20
-4.056058060051667
 30
0.0
 10
42.26285904932197
 20
-3.788216821336074
 30
0.0
 10
41.2695202401551
 20
-3.244593973147529
 30
0.0
 10
40.77192726718231
 20
-2.969102428383008
 30
0.0
 10
39.77935402087356
 20
-2.413233154535669
 30
0.0
 10
39.28581276478915
 20
-2.133133363679686
 30
0.0
 10
38.2937176969666
 20
-1.56830176946387
 30
0.0
 10
37.79617389984725
 20
-1.283755485330753
 30
0.0
 10
36.80255215149145
 20
-0.7129477785794391
 30
0.0
 10
36.30788063033596
 20
-0.4269591143493398
 30
0.0
 10
34.82248279764708
 20
0.4316913466377551
 30
0.0
 10
33.82395389301247
 20
1.006264943661603
 30
0.0
 10
31.84596867277164
 20
2.139213796037357
 30
0.0
 10
30.84866342948803
 20
2.7009749746305
 30
0.0
 10
29.36194210382805
 20
3.522424797951284
 30
0.0
 10
28.8679803350492
 20
3.792714693703006
 30
0.0
 10
27.87475026859617
 20
4.326160304995662
 30
0.0
 10
27.37714816119602
 20
4.58900512148819
 30
0.0
 10
26.38442990644327
 20
5.104587370972087
 30
0.0
 10
25.89084705302749
 20
5.357074933780558
 30
0.0
 10
24.89892574956279
 20
5.851692071144949
 30
0.0
 10
24.40140560058816
 20
6.093667226487312
 30
0.0
 10
23.40770397643764
 20
6.564760838994794
 30
0.0
 10
22.912803077435
 20
6.793687930936199
 30
0.0
 10
21.92277629878551
 20
7.237618469636278
 30
0.0
 10
21.4256340695231
 20
7.452910025377605
 30
0.0
 10
19.93449049634844
 20
8.07578174196092
 30
0.0
 10
18.94655559639811
 20
8.459617524519437
 30
0.0
 10
17.45570597252614
 20
8.983727799141665
 30
0.0
 10
16.958279755898
 20
9.14968498804263
 30
0.0
 10
15.96692951091009
 20
9.462666209934262
 30
0.0
 10
15.47309321904519
 20
9.609709346089378
 30
0.0
 10
14.47997910588642
 20
9.884889528097695
 30
0.0
 10
13.98237149326503
 20
10.01284238682135
 30
0.0
 10
12.98951542825516
 20
10.24833188250888
 30
0.0
 10
12.49587018009854
 20
10.35577426883475
 30
0.0
 10
11.99999999999718
 20
10.45296647020987
 30
0.0
  0
SPLINE
  5
9F
330
1F
100
AcDbEntity
  8
0
  6
Continuous
 62
     1
370
    15
100
AcDbSpline
210
0.0
220
0.0
230
1.0
 70
     8
 71
     3
 72
    21
 73
    17
 74
     0
 42
0.000000001
 43
0.00000001
 40
0.0
 40
0.0
 40
0.0
 40
0.0
 40
0.073319368570432
 40
0.1465563775953126
 40
0.2199186193588284
 40
0.293187299118994
 40
0.366446882611221
 40
0.43981385976212
 40
0.5130543666883408
 40
0.5863590574188761
 40
0.6596926223408796
 40
0.7329275244381175
 40
0.806282680831289
 40
0.8795618442285622
 40
0.9528137198569948
 40
1.0
 40
1.0
 40
1.0
 40
1.0
 10
59.62500000000001
 20
-8.767454287791804
 30
0.0
 10
58.92086846620898
 20
-8.62881143158073
 30
0.0
 10
57.51339634860729
 20
-8.351681456487672
 30
0.0
 10
55.40221880001343
 20
-7.806275016173018
 30
0.0
 10
53.29029289701497
 20
-7.176118435898871
 30
0.0
 10
51.17903653957698
 20
-6.45655256787991
 30
0.0
 10
49.06782650323844
 20
-5.659586964773962
 30
0.0
 10
46.95586730317831
 20
-4.796286191168884
 30
0.0
 10
44.84470469219976
 20
-3.873048217265987
 30
0.0
 10
42.73321146995456
 20
-2.904511954705437
 30
0.0
 10
40.62149883277235
 20
-1.901652100190154
 30
0.0
 10
38.51030485524234
 20
-0.8737778654796589
 30
0.0
 10
36.39842809660918
 20
0.1622851714391179
 30
0.0
 10
34.28711710632908
 20
1.196587554709005
 30
0.0
 10
32.42728760415228
 20
2.100027754349798
 30
0.0
 10
31.27054631128836
 20
2.640239665826281
 30
0.0
 10
30.81734841608277
 20
2.851888461245339
 30
0.0
  0
LINE
  5
A0
330
1F
100
AcDbEntity
  8
0
  6
Continuous
 62
     1
370
    15
100
AcDbLine
 10
59.62499999999972
 20
-10.54510540933949
 30
0.0
 11
59.62500000000001
 21
-8.767454287791804
 31
0.0
  0
LINE
  5
A1
330
1F
100
AcDbEntity
  8
외형선
  6
Continuous
370
    15
100
AcDbLine
 10
12.00000000000001
 20
9.004828892702676
 30
0.0
 11
12.00000000000001
 21
10.4529664701979
 31
0.0
  0
LINE
  5
A2
330
1F
100
AcDbEntity
  8
0
  6
Continuous
 62
     1
370
    15
100
AcDbLine
 10
59.625
 20
-11.11249999999999
 30
0.0
 11
59.62499999999996
 21
-10.54510540933947
 31
0.0
  0
SPLINE
  5
A3
330
1F
100
AcDbEntity
  8
0
  6
Continuous
 62
     1
370
    15
100
AcDbSpline
210
0.0
220
0.0
230
1.0
 70
     8
 71
     3
 72
    10
 73
     6
 74
     0
 42
0.000000001
 43
0.00000001
 40
0.0
 40
0.0
 40
0.0
 40
0.0
 40
0.5
 40
0.5
 40
1.0
 40
1.0
 40
1.0
 40
1.0
 10
59.62500000000001
 20
-2.969737237754423
 30
0.0
 10
58.76942494795371
 20
-2.297114754807681
 30
0.0
 10
57.92494764956615
 20
-1.604994341206973
 30
0.0
 10
56.25786042874405
 20
-0.1823341551849979
 30
0.0
 10
55.43523187812705
 20
0.5481728889002391
 30
0.0
 10
54.62500000000001
 20
1.300459967754864
 30
0.0
  0
LINE
  5
A4
330
1F
100
AcDbEntity
  8
0
  6
Continuous
 62
     1
370
    15
100
AcDbLine
 10
54.62500000000001
 20
2.937719435296591
 30
0.0
 11
59.62500000000001
 21
0.0000000000000048
 31
0.0
  0
LINE
  5
A5
330
1F
100
AcDbEntity
  8
0
  6
Continuous
 62
     1
370
    15
100
AcDbLine
 10
59.62500000000001
 20
0.0000000000000048
 30
0.0
 11
59.62500000000001
 21
-2.969737237754424
 31
0.0
  0
SPLINE
  5
A6
330
1F
100
AcDbEntity
  8
0
  6
Continuous
 62
     1
370
    15
100
AcDbSpline
210
0.0
220
0.0
230
1.0
 70
     8
 71
     3
 72
    21
 73
    17
 74
     0
 42
0.000000001
 43
0.00000001
 40
0.0
 40
0.0
 40
0.0
 40
0.0
 40
0.0697890878086511
 40
0.1396410546789932
 40
0.2093835049907524
 40
0.2792692664704294
 40
0.3560894284746987
 40
0.4329778505387324
 40
0.5098969869286537
 40
0.5867111868534813
 40
0.663653282119993
 40
0.7405145600727447
 40
0.8173468106665508
 40
0.894304016707963
 40
0.9711293792110168
 40
1.0
 40
1.0
 40
1.0
 40
1.0
 10
54.62500000000001
 20
2.283536363151124
 30
0.0
 10
53.98614728625544
 20
2.566663426945007
 30
0.0
 10
52.70786626076867
 20
3.133172648339982
 30
0.0
 10
50.79054424762674
 20
3.944299521334387
 30
0.0
 10
48.87342290956867
 20
4.720373179207274
 30
0.0
 10
46.89115395603693
 20
5.470915771913954
 30
0.0
 10
44.84468092995792
 20
6.188074882492092
 30
0.0
 10
42.73318338948504
 20
6.852170788730244
 30
0.0
 10
40.6215093384771
 20
7.433751071813587
 30
0.0
 10
38.51024764546306
 20
7.927012182841237
 30
0.0
 10
36.39842791240444
 20
8.323888115067302
 30
0.0
 10
34.28709221456717
 20
8.620897070799007
 30
0.0
 10
32.17587580625192
 20
8.816037253810013
 30
0.0
 10
30.0639438153442
 20
8.898076024241728
 30
0.0
 10
28.39217660018816
 20
8.898792006898432
 30
0.0
 10
27.42451585046751
 20
8.835241552382353
 30
0.0
 10
27.16020148688022
 20
8.817882888257607
 30
0.0
  0
SPLINE
  5
A7
330
1F
100
AcDbEntity
  8
0
  6
Continuous
 62
     1
370
    15
100
AcDbSpline
210
0.0
220
0.0
230
1.0
 70
    24
 71
     3
 72
     8
 73
     4
 74
     0
 42
0.000000001
 43
0.00000001
 40
0.0
 40
0.0
 40
0.0
 40
0.0
 40
1.0
 40
1.0
 40
1.0
 40
1.0
 10
54.62500000000001
 20
1.300459967738046
 30
0.0
 10
54.62500000000001
 20
1.631923426794617
 30
0.0
 10
54.62500000000001
 20
1.960107858706741
 30
0.0
 10
54.62500000000001
 20
2.283536363151127
 30
0.0
  0
SPLINE
  5
A8
330
1F
100
AcDbEntity
  8
0
  6
Continuous
 62
     1
370
    15
100
AcDbSpline
210
0.0
220
0.0
230
1.0
 70
    24
 71
     3
 72
    10
 73
     6
 74
     0
 42
0.000000001
 43
0.00000001
 40
0.0
 40
0.0
 40
0.0
 40
0.0
 40
0.5
 40
0.5
 40
1.0
 40
1.0
 40
1.0
 40
1.0
 10
59.62500000000001
 20
-8.7674542877918
 30
0.0
 10
59.62500000000001
 20
-8.09536056030478
 30
0.0
 10
59.62500000000003
 20
-7.246144364910634
 30
0.0
 10
59.62500000000001
 20
-5.271798438561929
 30
0.0
 10
59.62500000000001
 20
-4.148378960907679
 30
0.0
 10
59.62500000000001
 20
-2.969737237754779
 30
0.0
  0
SPLINE
  5
A9
330
1F
100
AcDbEntity
  8
0
  6
Continuous
 62
     1
370
    15
100
AcDbSpline
210
0.0
220
0.0
230
1.0
 70
    24
 71
     3
 72
    10
 73
     6
 74
     0
 42
0.000000001
 43
0.00000001
 40
0.0
 40
0.0
 40
0.0
 40
0.0
 40
0.5
 40
0.5
 40
1.0
 40
1.0
 40
1.0
 40
1.0
 10
54.625
 20
2.283536363151129
 30
0.0
 10
54.625
 20
3.059531527112048
 30
0.0
 10
54.62500000000001
 20
3.796003738630715
 30
0.0
 10
54.625
 20
5.109618802043824
 30
0.0
 10
54.625
 20
5.685937379830196
 30
0.0
 10
54.625
 20
6.150941962892354
 30
0.0
  0
SPLINE
  5
AA
330
1F
100
AcDbEntity
  8
0
  6
Continuous
 62
     1
370
    15
100
AcDbSpline
210
0.0
220
0.0
230
1.0
 70
     8
 71
     3
 72
     9
 73
     5
 74
     0
 42
0.000000001
 43
0.00000001
 40
0.0
 40
0.0
 40
0.0
 40
0.0
 40
0.6136000750551516
 40
1.0
 40
1.0
 40
1.0
 40
1.0
 10
59.62500000000001
 20
7.778749999999995
 30
0.0
 10
58.77997973123238
 20
7.769968048780411
 30
0.0
 10
57.4028282230751
 20
7.755655874488721
 30
0.0
 10
56.02585661927332
 20
7.632499089707706
 30
0.0
 10
55.49379489491312
 20
7.584911317311873
 30
0.0
  0
SPLINE
  5
AB
330
1F
100
AcDbEntity
  8
0
  6
Continuous
 62
     1
370
    15
100
AcDbSpline
210
0.0
220
0.0
230
1.0
 70
     8
 71
     3
 72
     8
 73
     4
 74
     0
 42
0.000000001
 43
0.00000001
 40
0.0
 40
0.0
 40
0.0
 40
0.0
 40
1.0
 40
1.0
 40
1.0
 40
1.0
 10
59.62500000000001
 20
7.778750000000001
 30
0.0
 10
57.94260329326733
 20
7.32262660266252
 30
0.0
 10
56.27320935698125
 20
6.785132929390495
 30
0.0
 10
54.62500000000001
 20
6.150941962891938
 30
0.0
  0
SPLINE
  5
AC
330
1F
100
AcDbEntity
  8
0
  6
Continuous
 62
     1
370
    15
100
AcDbSpline
210
0.0
220
0.0
230
1.0
 70
     8
 71
     3
 72
    18
 73
    14
 74
     0
 42
0.000000001
 43
0.00000001
 40
0.0
 40
0.0
 40
0.0
 40
0.0
 40
0.0746388440065448
 40
0.162255442963616
 40
0.2500145363973659
 40
0.3376232804356973
 40
0.4252878086223796
 40
0.5130178627513035
 40
0.6006130097089496
 40
0.7004862910218854
 40
0.8003911201387606
 40
0.9001868014356662
 40
0.9999999999999999
 40
0.9999999999999999
 40
0.9999999999999999
 40
0.9999999999999999
 10
36.08444698961473
 20
-8.351382733363476
 30
0.0
 10
35.48523588795626
 20
-8.44127833476902
 30
0.0
 10
34.18262644883118
 20
-8.636700046086762
 30
0.0
 10
32.17588054347208
 20
-8.81319453905968
 30
0.0
 10
30.06395885325097
 20
-8.902822045439024
 30
0.0
 10
27.95274943500188
 20
-8.882865065039287
 30
0.0
 10
25.84134125779965
 20
-8.7567081429073
 30
0.0
 10
23.72960198666533
 20
-8.52546502675201
 30
0.0
 10
21.52080961076902
 20
-8.175569894545717
 30
0.0
 10
19.2134616108122
 20
-7.695981128397368
 30
0.0
 10
16.80808631801566
 20
-7.074664143918971
 30
0.0
 10
14.40379221488325
 20
-6.348513979518897
 30
0.0
 10
12.80131094845494
 20
-5.783508772445141
 30
0.0
 10
12.00000000000002
 20
-5.500981377057024
 30
0.0
  0
SPLINE
  5
AD
330
1F
100
AcDbEntity
  8
외형선
  6
Continuous
370
    15
100
AcDbSpline
210
0.0
220
0.0
230
1.0
 70
    24
 71
     3
 72
    14
 73
    10
 74
     0
 42
0.000000001
 43
0.00000001
 40
0.0
 40
0.0
 40
0.0
 40
0.0
 40
0.25
 40
0.25
 40
0.5
 40
0.5
 40
0.75
 40
0.75
 40
1.0
 40
1.0
 40
1.0
 40
1.0
 10
12.0
 20
6.110689776140148
 30
0.0
 10
12.0
 20
5.350893878645135
 30
0.0
 10
12.0
 20
4.489979842379479
 30
0.0
 10
12.0
 20
2.622362476871725
 30
0.0
 10
12.0
 20
1.616283573455217
 30
0.0
 10
12.0
 20
-0.4474451678372166
 30
0.0
 10
12.0
 20
-1.503995364758955
 30
0.0
 10
12.0
 20
-3.56392466612271
 30
0.0
 10
12.0
 20
-4.566409232248552
 30
0.0
 10
12.0
 20
-5.500981377057014
 30
0.0
  0
SPLINE
  5
AE
330
1F
100
AcDbEntity
  8
외형선
  6
Continuous
370
    15
100
AcDbSpline
210
0.0
220
0.0
230
1.0
 70
    24
 71
     3
 72
    17
 73
    13
 74
     0
 42
0.000000001
 43
0.00000001
 40
0.0
 40
0.0
 40
0.0
 40
0.0
 40
0.0972424158600814
 40
0.1946245674552751
 40
0.2918669833153565
 40
0.3987521256935123
 40
0.505637268071668
 40
0.6156276550922694
 40
0.7256180421128708
 40
0.8221962530144745
 40
0.9187744639160782
 40
0.9999999999999999
 40
0.9999999999999999
 40
0.9999999999999999
 40
0.9999999999999999
 10
12.00000000000001
 20
-5.500981377057022
 30
0.0
 10
12.00000000000001
 20
-5.714594346224987
 30
0.0
 10
12.00000000000001
 20
-6.142127242846681
 30
0.0
 10
12.00000000000001
 20
-6.717167983925949
 30
0.0
 10
12.00000000000001
 20
-7.257013368180163
 30
0.0
 10
12.00000000000001
 20
-7.746047568917345
 30
0.0
 10
12.00000000000001
 20
-8.180108669320006
 30
0.0
 10
12.00000000000001
 20
-8.536945649198433
 30
0.0
 10
12.00000000000001
 20
-8.801798554223282
 30
0.0
 10
12.00000000000001
 20
-8.977633598952032
 30
0.0
 10
12.00000000000001
 20
-9.079520141904517
 30
0.0
 10
12.00000000000001
 20
-9.090698362567029
 30
0.0
 10
12.00000000000001
 20
-9.095804874556624
 30
0.0
  0
LINE
  5
AF
330
1F
100
AcDbEntity
  8
0
  6
Continuous
 62
     1
370
    15
100
AcDbLine
 10
59.62500000000001
 20
0.0000000000000048
 30
0.0
 11
59.62500000000001
 21
7.778750000000002
 31
0.0
  0
SPLINE
  5
B0
330
1F
100
AcDbEntity
  8
0
  6
Continuous
 62
     1
370
    15
100
AcDbSpline
210
0.0
220
0.0
230
1.0
 70
     8
 71
     3
 72
    16
 73
    12
 74
     0
 42
0.000000001
 43
0.00000001
 40
0.0
 40
0.0
 40
0.0
 40
0.0
 40
0.0134588029025065
 40
0.1412931254613708
 40
0.2692777859021624
 40
0.3970441713777058
 40
0.517754077273474
 40
0.6382186424304525
 40
0.7588931429218917
 40
0.879404904657859
 40
1.0
 40
1.0
 40
1.0
 40
1.0
 10
44.33124808176119
 20
7.449107623133959
 30
0.0
 10
44.39985694790088
 20
7.479639149120128
 30
0.0
 10
45.12012614282548
 20
7.800165035630243
 30
0.0
 10
46.49254629254312
 20
8.339471986113864
 30
0.0
 10
48.44889565503358
 20
9.048976439106632
 30
0.0
 10
50.36704908145703
 20
9.64795908928085
 30
0.0
 10
52.24897542069639
 20
10.14192118265403
 30
0.0
 10
54.0926461946928
 20
10.53485562760156
 30
0.0
 10
55.93713657588066
 20
10.82805851116316
 30
0.0
 10
57.78090623311657
 20
11.02996264169962
 30
0.0
 10
59.0101604555931
 20
11.07872051934164
 30
0.0
 10
59.62499999999999
 20
11.11250000000001
 30
0.0
  0
SPLINE
  5
B1
330
1F
100
AcDbEntity
  8
0
  6
Continuous
 62
     1
370
    15
100
AcDbSpline
210
0.0
220
0.0
230
1.0
 70
    24
 71
     3
 72
    10
 73
     6
 74
     0
 42
0.000000001
 43
0.00000001
 40
0.0
 40
0.0
 40
0.0
 40
0.0
 40
0.5
 40
0.5
 40
1.0
 40
1.0
 40
1.0
 40
1.0
 10
59.62500000000001
 20
7.778749999999998
 30
0.0
 10
59.62500000000001
 20
8.250278453771273
 30
0.0
 10
59.625
 20
8.79823818528584
 30
0.0
 10
59.625
 20
9.9478562261775
 30
0.0
 10
59.625
 20
10.54657855534386
 30
0.0
 10
59.62499999999999
 20
11.11250000000001
 30
0.0
  0
SPLINE
  5
B2
330
1F
100
AcDbEntity
  8
0
  6
Continuous
 62
     1
370
    15
100
AcDbSpline
210
0.0
220
0.0
230
1.0
 70
     8
 71
     3
 72
    11
 73
     7
 74
     0
 42
0.000000001
 43
0.00000001
 40
0.0
 40
0.0
 40
0.0
 40
0.0
 40
0.0997358270087929
 40
0.3997539730214286
 40
0.7001162670789197
 40
1.0
 40
1.0
 40
1.0
 40
1.0
 10
18.14362126368851
 20
-8.732369775995597
 30
0.0
 10
17.93936280349332
 20
-8.807629445670376
 30
0.0
 10
17.12066872499465
 20
-9.109279844158795
 30
0.0
 10
15.68723725594203
 20
-9.55378204051273
 30
0.0
 10
13.84290004695285
 20
-10.06455757540493
 30
0.0
 10
12.61397341816648
 20
-10.32356567216622
 30
0.0
 10
11.99999999999718
 20
-10.45296647020987
 30
0.0
  0
SPLINE
  5
B3
330
1F
100
AcDbEntity
  8
외형선
  6
Continuous
370
    15
100
AcDbSpline
210
0.0
220
0.0
230
1.0
 70
    24
 71
     3
 72
    12
 73
     8
 74
     0
 42
0.000000001
 43
0.00000001
 40
0.0
 40
0.0
 40
0.0
 40
0.0
 40
0.1911015544798097
 40
0.4099571230378583
 40
0.6285584488676443
 40
0.847414017425692
 40
1.0
 40
1.0
 40
1.0
 40
1.0
 10
12.00000000000001
 20
-9.10113739553518
 30
0.0
 10
12.00000000000001
 20
-9.192041500645534
 30
0.0
 10
12.00000000000001
 20
-9.38705187355858
 30
0.0
 10
12.00000000000001
 20
-9.676936837363371
 30
0.0
 10
12.00000000000001
 20
-9.972257510672748
 30
0.0
 10
12.00000000000001
 20
-10.23063406318912
 30
0.0
 10
12.00000000000001
 20
-10.38822787041178
 30
0.0
 10
12.00000000000001
 20
-10.4529664701979
 30
0.0
  0
LINE
  5
B5
330
1F
100
AcDbEntity
  8
참조1
100
AcDbLine
 10
2.153078832126946
 20
0.0010749287238892
 30
0.0
 11
2.153078832126952
 21
-39.99892507127611
 31
0.0
  0
LINE
  5
B6
330
1F
100
AcDbEntity
  8
참조1
100
AcDbLine
 10
2.153078832126952
 20
-39.99892507127611
 30
0.0
 11
-22.53075298218174
 21
-39.9989250712761
 31
0.0
  0
INSERT
  5
B8
330
1F
100
AcDbEntity
  8
0
  6
Continuous
 62
     7
100
AcDbBlockReference
 66
     1
  2
블럭10
 10
-3.527772932125185
 20
-52.04717430164393
 30
0.0
  0
ATTRIB
  5
B9
330
B8
100
AcDbEntity
  8
FORMAT
 62
     2
100
AcDbText
 10
-12.70906822086647
 20
-49.97180738881174
 30
0.0
 40
4.233333333333333
  1
E1070956 [ 2 FLUTE ]
 41
0.75
  7
SLDTEXTSTYLE0
 11
-12.70906822086647
 21
-52.08847405547841
 31
0.0
100
AcDbAttribute
  2
AUTOATTR0
 70
     0
 74
     1
  0
SEQEND
  5
BA
330
B8
100
AcDbEntity
  8
0
  6
Continuous
 62
     7
  0
HATCH
  5
BB
330
1F
100
AcDbEntity
  8
중심선
100
AcDbHatch
 10
0.0
 20
0.0
 30
0.0
210
0.0
220
0.0
230
1.0
  2
SOLID
 70
     1
 71
     0
 91
        1
 92
        0
 93
        4
 72
     1
 10
2.187136372255657
 20
-35.8
 11
-1.259138871581625
 21
-35.8
 72
     1
 10
-1.259138871581625
 20
-35.8
 11
-3.387368730785647
 21
-38.3363255805726
 72
     1
 10
-3.387368730785647
 20
-38.3363255805726
 11
0.058939598164784
 21
-38.33628615127011
 72
     1
 10
0.058939598164784
 20
-38.33628615127011
 11
2.187136372255657
 21
-35.8
 97
        0
 75
     0
 76
     1
 98
        1
 10
8.259421167873073
 20
-0.0010749287238943
  0
HATCH
  5
BC
330
1F
100
AcDbEntity
  8
중심선
100
AcDbHatch
 10
0.0
 20
0.0
 30
0.0
210
0.0
220
0.0
230
1.0
  2
SOLID
 70
     1
 71
     0
 91
        1
 92
        0
 93
        4
 72
     1
 10
7.199900363291636
 20
-35.8
 11
3.753625119454354
 21
-35.8
 72
     1
 10
3.753625119454354
 20
-35.8
 11
-0.7775128889030625
 21
-41.20000000000002
 72
     1
 10
-0.7775128889030629
 20
-41.20000000000002
 11
2.66876235493422
 21
-41.20000000000002
 72
     1
 10
2.66876235493422
 20
-41.20000000000002
 11
7.199900363291636
 21
-35.8
 97
        0
 75
     0
 76
     1
 98
        1
 10
8.259421167873073
 20
-0.0010749287238943
  0
HATCH
  5
BD
330
1F
100
AcDbEntity
  8
중심선
100
AcDbHatch
 10
0.0
 20
0.0
 30
0.0
210
0.0
220
0.0
230
1.0
  2
SOLID
 70
     1
 71
     0
 91
        1
 92
        0
 93
        4
 72
     1
 10
12.2126643543275
 20
-35.80000000000003
 11
8.766389110490389
 21
-35.8
 72
     1
 10
8.766389110490389
 20
-35.8
 11
1.717952208601139
 21
-44.20000000000002
 72
     1
 10
1.717952208601139
 20
-44.20000000000002
 11
5.164227452438421
 21
-44.20000000000002
 72
     1
 10
5.164227452438421
 20
-44.20000000000002
 11
12.2126643543275
 21
-35.80000000000003
 97
        0
 75
     0
 76
     1
 98
        1
 10
8.259421167873073
 20
-0.0010749287238943
  0
HATCH
  5
BE
330
1F
100
AcDbEntity
  8
중심선
100
AcDbHatch
 10
0.0
 20
0.0
 30
0.0
210
0.0
220
0.0
230
1.0
  2
SOLID
 70
     1
 71
     0
 91
        1
 92
        0
 93
        6
 72
     3
 10
17.0125547853397
 20
-40.00000000005127
 11
3.960054785062283
 21
1.540882976769353E-10
 40
0.3939339440162628
 50
17.09539180608436
 51
320.0019657685082
 73
     0
 72
     1
 10
18.69555444104027
 20
-38.58789400463833
 11
21.00085631474131
 21
-36.65356729459038
 72
     3
 10
17.01255478528686
 20
-40.00000000000015
 11
6.600054785286829
 21
-1.278976924368180E-13
 40
0.636358354079598
 50
39.99873849337426
 51
368.4976242363724
 73
     1
 72
     1
 10
23.43788727718746
 20
-39.03999999993002
 11
15.69262209212278
 21
-39.03999999993002
 72
     1
 10
15.69262209212278
 20
-39.03999999993002
 11
15.69259704767684
 21
-40.95999999992991
 72
     1
 10
15.69259704767684
 20
-40.95999999992991
 11
20.13397681714888
 21
-40.95999999992988
 97
        0
 75
     0
 76
     1
 98
        1
 10
8.259421167873073
 20
-0.0010749287238943
  0
DIMENSION
  5
CD
330
1F
100
AcDbEntity
  8
0
  6
Continuous
 62
     0
370
    15
100
AcDbDimension
  2
_D_1
 10
12.00000000000001
 20
27.46150723449421
 30
0.0
 11
35.56371550477072
 21
27.46150723449421
 31
0.0
 70
   160
  1
<>
 71
     2
 42
47.62499999999997
  3
SLDDIMSTYLE3
100
AcDbAlignedDimension
 13
59.62499999999999
 23
11.11250000000001
 33
0.0
 14
12.00000000000001
 24
10.4529664701979
 34
0.0
100
AcDbRotatedDimension
1001
ACAD
1000
DSTYLE
1002
{
1070
   171
1070
     6
1070
   273
1070
     7
1002
}
  0
DIMENSION
  5
F7
330
1F
100
AcDbEntity
  8
0
  6
Continuous
 62
     0
370
    15
100
AcDbDimension
  2
_D_3
 10
78.62500000000009
 20
11.11250000000009
 30
0.0
 11
78.62500000000001
 21
33.50310788423953
 31
0.0
 70
   160
  1
%%c<>
 71
     2
 42
22.22500000000001
 52
-270.0
  3
SLDDIMSTYLE3
100
AcDbAlignedDimension
 13
59.625
 23
-11.11249999999999
 33
0.0
 14
59.62499999999999
 24
11.11250000000002
 34
0.0
 50
90.0000000000002
100
AcDbRotatedDimension
1001
ACAD
1000
DSTYLE
1002
{
1070
   171
1070
     6
1070
   273
1070
     7
1002
}
  0
LINE
  5
10B
330
1F
100
AcDbEntity
  8
참조1
100
AcDbLine
 10
75.44158764747253
 20
7.441074928723896
 30
0.0
 11
75.44158764747253
 21
-7.438925071276109
 31
0.0
  0
LINE
  5
10C
330
1F
100
AcDbEntity
  8
참조1
100
AcDbLine
 10
88.14158764747253
 20
5.441074928723896
 30
0.0
 11
75.44158764747253
 21
5.441074928723896
 31
0.0
  0
SOLID
  5
10D
330
1F
100
AcDbEntity
  8
참조1
100
AcDbTrace
 10
75.44158764747253
 20
5.441074928723896
 30
0.0
 11
81.79158764747253
 21
4.425074928723896
 31
0.0
 12
81.79158764747253
 22
6.457074928723896
 32
0.0
 13
81.79158764747253
 23
6.457074928723896
 33
0.0
  0
LINE
  5
10E
330
1F
100
AcDbEntity
  8
참조1
100
AcDbLine
 10
88.14158764747253
 20
-5.438925071276109
 30
0.0
 11
75.44158764747253
 21
-5.438925071276109
 31
0.0
  0
SOLID
  5
10F
330
1F
100
AcDbEntity
  8
참조1
100
AcDbTrace
 10
75.44158764747253
 20
-5.438925071276109
 30
0.0
 11
81.79158764747253
 21
-6.454925071276109
 31
0.0
 12
81.79158764747253
 22
-4.422925071276109
 32
0.0
 13
81.79158764747253
 23
-4.422925071276109
 33
0.0
  0
MTEXT
  5
110
330
1F
100
AcDbEntity
  8
참조1
100
AcDbMText
 10
84.82593778009851
 20
11.01136670591222
 30
0.0
 40
3.5
 41
0.0
 71
     1
 72
     1
  1
A
  7
SLDTEXTSTYLE0
 73
     1
 44
1.0
  0
MTEXT
  5
111
330
1F
100
AcDbEntity
  8
참조1
100
AcDbMText
 10
84.82593778009851
 20
0.1313667059122201
 30
0.0
 40
3.5
 41
0.0
 71
     1
 72
     1
  1
A
  7
SLDTEXTSTYLE0
 73
     1
 44
1.0
  0
LINE
  5
22F
330
1F
100
AcDbEntity
  8
외형선
  6
Continuous
370
    15
100
AcDbLine
 10
12.00000000000001
 20
9.524999999999999
 30
0.0
 11
-11.65692499999998
 21
9.524999999999999
 31
0.0
  0
LINE
  5
230
330
1F
100
AcDbEntity
  8
외형선
  6
Continuous
370
    15
100
AcDbLine
 10
-44.14999999999998
 20
-9.525000000000006
 30
0.0
 11
12.00000000000001
 21
-9.524999999999999
 31
0.0
  0
LINE
  5
231
330
1F
100
AcDbEntity
  8
외형선
  6
Continuous
370
    15
100
AcDbLine
 10
-44.14999999999998
 20
9.524999999999991
 30
0.0
 11
-45.14999999999998
 21
8.524999999999991
 31
0.0
  0
LINE
  5
232
330
1F
100
AcDbEntity
  8
외형선
  6
Continuous
370
    15
100
AcDbLine
 10
-45.14999999999998
 20
-8.525000000000006
 30
0.0
 11
-44.14999999999998
 21
-9.525000000000006
 31
0.0
  0
LINE
  5
23F
330
1F
100
AcDbEntity
  8
외형선
  6
Continuous
370
    15
100
AcDbLine
 10
-44.14999999999998
 20
9.524999999999991
 30
0.0
 11
-44.14999999999998
 21
-9.525000000000006
 31
0.0
  0
LINE
  5
241
330
1F
100
AcDbEntity
  8
외형선
  6
Continuous
370
    15
100
AcDbLine
 10
-45.14999999999998
 20
8.524999999999991
 30
0.0
 11
-45.14999999999998
 21
-8.525000000000006
 31
0.0
  0
LINE
  5
261
330
1F
100
AcDbEntity
  8
중심선
100
AcDbLine
 10
-52.14999999999998
 20
-0.0000000000000072
 30
0.0
 11
66.62500000000001
 21
0.000000000000009
 31
0.0
  0
CIRCLE
  5
262
330
1F
100
AcDbEntity
  8
해칭선
100
AcDbCircle
 10
0.0
 20
0.0
 30
0.0
 40
2.999999999999995
  0
DIMENSION
  5
26A
330
1F
100
AcDbEntity
  8
0
  6
Continuous
 62
     0
370
    15
100
AcDbDimension
  2
*D11
 10
-57.64999999999996
 20
-9.525000000000055
 30
0.0
 11
-57.64999999999999
 21
0.000000000000008
 31
0.0
 70
   160
  1
%%c<>
 71
     2
 42
19.05000000000001
 52
-270.0
  3
SLDDIMSTYLE3
100
AcDbAlignedDimension
 13
-44.14999999999998
 23
9.525000000000006
 33
0.0
 14
-44.14999999999998
 24
-9.525000000000006
 34
0.0
 50
90.0000000000002
100
AcDbRotatedDimension
1001
ACAD
1000
DSTYLE
1002
{
1070
   171
1070
     6
1070
   273
1070
     7
1002
}
  0
DIMENSION
  5
26C
330
1F
100
AcDbEntity
  8
0
  6
Continuous
 62
     0
370
    15
100
AcDbDimension
  2
*D13
 10
-45.14999999999998
 20
39.56419134481796
 30
0.0
 11
4.062499999999888
 21
39.56419134481796
 31
0.0
 70
   160
  1
<>
 71
     2
 42
104.775
  3
SLDDIMSTYLE3
100
AcDbAlignedDimension
 13
59.62499999999999
 23
11.11250000000001
 33
0.0
 14
-45.14999999999998
 24
8.524999999999991
 34
0.0
 50
0.0000000000000041
100
AcDbRotatedDimension
1001
ACAD
1000
DSTYLE
1002
{
1070
   171
1070
     6
1070
   273
1070
     7
1002
}
  0
INSERT
  5
26E
330
1F
100
AcDbEntity
  8
해칭선
100
AcDbBlockReference
  2
SW_DOWELSYMBOL_0
 10
0.0
 20
0.0
 30
0.0
  0
LINE
  5
32C
330
1F
100
AcDbEntity
  8
외형선
  6
Continuous
370
    15
100
AcDbLine
 10
-25.14432499999995
 20
7.61999999999999
 30
0.0
 11
-13.56192499999995
 21
7.61999999999999
 31
0.0
  0
LINE
  5
32D
330
1F
100
AcDbEntity
  8
외형선
  6
Continuous
370
    15
100
AcDbLine
 10
-25.14432499999995
 20
7.619999999999976
 30
0.0
 11
-27.0493250000001
 21
9.525000000000006
 31
0.0
  0
LINE
  5
32E
330
1F
100
AcDbEntity
  8
외형선
  6
Continuous
370
    15
100
AcDbLine
 10
-13.56192499999995
 20
7.619999999999976
 30
0.0
 11
-11.65692499999997
 21
9.525000000000006
 31
0.0
  0
LINE
  5
32F
330
1F
100
AcDbEntity
  8
외형선
  6
Continuous
370
    15
100
AcDbLine
 10
-27.04932500000009
 20
9.524999999999999
 30
0.0
 11
-44.14999999999998
 21
9.524999999999999
 31
0.0
  0
ENDSEC
  0
SECTION
  2
OBJECTS
  0
DICTIONARY
  5
C
330
0
100
AcDbDictionary
281
     1
  3
ACAD_GROUP
350
D
  3
ACAD_IMAGE_VARS
350
13C
  3
ACAD_LAYOUT
350
1A
  3
ACAD_MLINESTYLE
350
17
  3
ACAD_PLOTSETTINGS
350
19
  3
ACAD_PLOTSTYLENAME
350
E
  3
ACAD_SCALELIST
350
47
  3
APPDATA
350
13A
  3
DWGPROPS
350
330
  0
DICTIONARY
  5
1F7
330
2
100
AcDbDictionary
280
     1
281
     1
  3
ACAD_LAYERSTATES
360
1F8
  0
DICTIONARY
  5
D
102
{ACAD_REACTORS
330
C
102
}
330
C
100
AcDbDictionary
281
     1
  0
RASTERVARIABLES
  5
13C
102
{ACAD_REACTORS
330
C
102
}
330
C
100
AcDbRasterVariables
 90
        0
 70
     1
 71
     1
 72
     1
  0
DICTIONARY
  5
1A
102
{ACAD_REACTORS
330
C
102
}
330
C
100
AcDbDictionary
281
     1
  3
Layout1
350
1E
  3
Layout2
350
26
  3
Model
350
22
  0
DICTIONARY
  5
17
102
{ACAD_REACTORS
330
C
102
}
330
C
100
AcDbDictionary
281
     1
  3
Standard
350
18
  0
DICTIONARY
  5
19
102
{ACAD_REACTORS
330
C
102
}
330
C
100
AcDbDictionary
281
     1
  0
ACDBDICTIONARYWDFLT
  5
E
102
{ACAD_REACTORS
330
C
102
}
330
C
100
AcDbDictionary
281
     1
  3
Normal
350
F
100
AcDbDictionaryWithDefault
340
F
  0
DICTIONARY
  5
47
102
{ACAD_REACTORS
330
C
102
}
330
C
100
AcDbDictionary
281
     1
  3
A0
350
48
  3
A1
350
49
  3
A2
350
4A
  3
A3
350
4B
  3
A4
350
4C
  3
A5
350
4D
  3
A6
350
4E
  3
A7
350
4F
  3
A8
350
50
  3
A9
350
51
  3
B0
350
52
  3
B1
350
53
  3
B2
350
54
  3
B3
350
55
  3
B4
350
56
  3
B5
350
57
  3
B6
350
58
  3
B7
350
59
  3
B8
350
5A
  3
B9
350
5B
  3
C0
350
5C
  3
C1
350
5D
  3
C2
350
5E
  3
C3
350
5F
  3
C4
350
60
  3
C5
350
61
  3
C6
350
62
  3
C7
350
63
  3
C8
350
64
  3
C9
350
65
  3
D0
350
66
  3
D1
350
67
  3
D2
350
68
  0
DICTIONARY
  5
13A
102
{ACAD_REACTORS
330
C
102
}
330
C
100
AcDbDictionary
281
     1
  0
XRECORD
  5
330
102
{ACAD_REACTORS
330
C
102
}
330
C
100
AcDbXrecord
280
     1
  1
DWGPROPS COOKIE
  2

  3

  4

  6

  7

  8
12016016
  9

300
=
301
=
302
=
303
=
304
=
305
=
306
=
307
=
308
=
309
=
 40
0.0
 41
2458311.197414595
 42
2458318.288980938
  1

 90
        0
  0
DICTIONARY
  5
1F8
102
{ACAD_REACTORS
330
1F7
102
}
330
1F7
100
AcDbDictionary
281
     1
  0
LAYOUT
  5
1E
102
{ACAD_REACTORS
330
1A
102
}
330
1A
100
AcDbPlotSettings
  1

  2
none_device
  4

  6

 40
0.0
 41
0.0
 42
0.0
 43
0.0
 44
0.0
 45
0.0
 46
0.0
 47
0.0
 48
0.0
 49
0.0
140
0.0
141
0.0
142
1.0
143
1.0
 70
   688
 72
     1
 73
     0
 74
     5
  7

 75
    16
147
1.0
148
0.0
149
0.0
100
AcDbLayout
  1
Layout1
 70
     1
 71
     1
 10
0.0
 20
0.0
 11
420.0
 21
297.0
 12
0.0
 22
0.0
 32
0.0
 14
1.000000000000000E+20
 24
1.000000000000000E+20
 34
1.000000000000000E+20
 15
-1.000000000000000E+20
 25
-1.000000000000000E+20
 35
-1.000000000000000E+20
146
0.0
 13
0.0
 23
0.0
 33
0.0
 16
1.0
 26
0.0
 36
0.0
 17
0.0
 27
1.0
 37
0.0
 76
     0
330
1B
  0
LAYOUT
  5
26
102
{ACAD_REACTORS
330
1A
102
}
330
1A
100
AcDbPlotSettings
  1

  2
none_device
  4

  6

 40
0.0
 41
0.0
 42
0.0
 43
0.0
 44
0.0
 45
0.0
 46
0.0
 47
0.0
 48
0.0
 49
0.0
140
0.0
141
0.0
142
1.0
143
1.0
 70
   688
 72
     1
 73
     0
 74
     5
  7

 75
    16
147
1.0
148
0.0
149
0.0
100
AcDbLayout
  1
Layout2
 70
     1
 71
     2
 10
0.0
 20
0.0
 11
0.0
 21
0.0
 12
0.0
 22
0.0
 32
0.0
 14
0.0
 24
0.0
 34
0.0
 15
0.0
 25
0.0
 35
0.0
146
0.0
 13
0.0
 23
0.0
 33
0.0
 16
1.0
 26
0.0
 36
0.0
 17
0.0
 27
1.0
 37
0.0
 76
     0
330
23
  0
LAYOUT
  5
22
102
{ACAD_REACTORS
330
1A
102
}
330
1A
100
AcDbPlotSettings
  1

  2
none_device
  4
ANSI_A_(11.00_x_8.50_Inches)
  6

 40
6.35
 41
19.05
 42
6.35000508
 43
19.05000254
 44
279.4
 45
215.9
 46
111.5354592427306
 47
96.84991333250808
 48
0.0
 49
0.0
140
0.0
141
0.0
142
0.0715194751484015
143
1.0
 70
  1696
 72
     0
 73
     0
 74
     0
  7

 75
     0
147
0.0235690232323232
148
0.0
149
0.0
100
AcDbLayout
  1
Model
 70
     1
 71
     0
 10
0.0
 20
0.0
 11
420.0
 21
297.0
 12
0.0
 22
0.0
 32
0.0
 14
1.000000000000000E+20
 24
1.000000000000000E+20
 34
1.000000000000000E+20
 15
-1.000000000000000E+20
 25
-1.000000000000000E+20
 35
-1.000000000000000E+20
146
0.0
 13
0.0
 23
0.0
 33
0.0
 16
1.0
 26
0.0
 36
0.0
 17
0.0
 27
1.0
 37
0.0
 76
     0
330
1F
331
29
  0
MLINESTYLE
  5
18
102
{ACAD_REACTORS
330
17
102
}
330
17
100
AcDbMlineStyle
  2
Standard
 70
     0
  3

 62
   256
 51
90.0
 52
90.0
 71
     2
 49
0.5
 62
   256
  6
BYLAYER
 49
-0.5
 62
   256
  6
BYLAYER
  0
ACDBPLACEHOLDER
  5
F
102
{ACAD_REACTORS
330
E
102
}
330
E
  0
SCALE
  5
48
102
{ACAD_REACTORS
330
47
102
}
330
47
100
AcDbScale
 70
     0
300
1:1
140
1.0
141
1.0
290
     1
  0
SCALE
  5
49
102
{ACAD_REACTORS
330
47
102
}
330
47
100
AcDbScale
 70
     0
300
1:2
140
1.0
141
2.0
290
     0
  0
SCALE
  5
4A
102
{ACAD_REACTORS
330
47
102
}
330
47
100
AcDbScale
 70
     0
300
1:4
140
1.0
141
4.0
290
     0
  0
SCALE
  5
4B
102
{ACAD_REACTORS
330
47
102
}
330
47
100
AcDbScale
 70
     0
300
1:5
140
1.0
141
5.0
290
     0
  0
SCALE
  5
4C
102
{ACAD_REACTORS
330
47
102
}
330
47
100
AcDbScale
 70
     0
300
1:8
140
1.0
141
8.0
290
     0
  0
SCALE
  5
4D
102
{ACAD_REACTORS
330
47
102
}
330
47
100
AcDbScale
 70
     0
300
1:10
140
1.0
141
10.0
290
     0
  0
SCALE
  5
4E
102
{ACAD_REACTORS
330
47
102
}
330
47
100
AcDbScale
 70
     0
300
1:16
140
1.0
141
16.0
290
     0
  0
SCALE
  5
4F
102
{ACAD_REACTORS
330
47
102
}
330
47
100
AcDbScale
 70
     0
300
1:20
140
1.0
141
20.0
290
     0
  0
SCALE
  5
50
102
{ACAD_REACTORS
330
47
102
}
330
47
100
AcDbScale
 70
     0
300
1:30
140
1.0
141
30.0
290
     0
  0
SCALE
  5
51
102
{ACAD_REACTORS
330
47
102
}
330
47
100
AcDbScale
 70
     0
300
1:40
140
1.0
141
40.0
290
     0
  0
SCALE
  5
52
102
{ACAD_REACTORS
330
47
102
}
330
47
100
AcDbScale
 70
     0
300
1:50
140
1.0
141
50.0
290
     0
  0
SCALE
  5
53
102
{ACAD_REACTORS
330
47
102
}
330
47
100
AcDbScale
 70
     0
300
1:100
140
1.0
141
100.0
290
     0
  0
SCALE
  5
54
102
{ACAD_REACTORS
330
47
102
}
330
47
100
AcDbScale
 70
     0
300
2:1
140
2.0
141
1.0
290
     0
  0
SCALE
  5
55
102
{ACAD_REACTORS
330
47
102
}
330
47
100
AcDbScale
 70
     0
300
4:1
140
4.0
141
1.0
290
     0
  0
SCALE
  5
56
102
{ACAD_REACTORS
330
47
102
}
330
47
100
AcDbScale
 70
     0
300
8:1
140
8.0
141
1.0
290
     0
  0
SCALE
  5
57
102
{ACAD_REACTORS
330
47
102
}
330
47
100
AcDbScale
 70
     0
300
10:1
140
10.0
141
1.0
290
     0
  0
SCALE
  5
58
102
{ACAD_REACTORS
330
47
102
}
330
47
100
AcDbScale
 70
     0
300
100:1
140
100.0
141
1.0
290
     0
  0
SCALE
  5
59
102
{ACAD_REACTORS
330
47
102
}
330
47
100
AcDbScale
 70
     0
300
1/128" = 1'-0"
140
0.0078125
141
12.0
290
     0
  0
SCALE
  5
5A
102
{ACAD_REACTORS
330
47
102
}
330
47
100
AcDbScale
 70
     0
300
1/64" = 1'-0"
140
0.015625
141
12.0
290
     0
  0
SCALE
  5
5B
102
{ACAD_REACTORS
330
47
102
}
330
47
100
AcDbScale
 70
     0
300
1/32" = 1'-0"
140
0.03125
141
12.0
290
     0
  0
SCALE
  5
5C
102
{ACAD_REACTORS
330
47
102
}
330
47
100
AcDbScale
 70
     0
300
1/16" = 1'-0"
140
0.0625
141
12.0
290
     0
  0
SCALE
  5
5D
102
{ACAD_REACTORS
330
47
102
}
330
47
100
AcDbScale
 70
     0
300
3/32" = 1'-0"
140
0.09375
141
12.0
290
     0
  0
SCALE
  5
5E
102
{ACAD_REACTORS
330
47
102
}
330
47
100
AcDbScale
 70
     0
300
1/8" = 1'-0"
140
0.125
141
12.0
290
     0
  0
SCALE
  5
5F
102
{ACAD_REACTORS
330
47
102
}
330
47
100
AcDbScale
 70
     0
300
3/16" = 1'-0"
140
0.1875
141
12.0
290
     0
  0
SCALE
  5
60
102
{ACAD_REACTORS
330
47
102
}
330
47
100
AcDbScale
 70
     0
300
1/4" = 1'-0"
140
0.25
141
12.0
290
     0
  0
SCALE
  5
61
102
{ACAD_REACTORS
330
47
102
}
330
47
100
AcDbScale
 70
     0
300
3/8" = 1'-0"
140
0.375
141
12.0
290
     0
  0
SCALE
  5
62
102
{ACAD_REACTORS
330
47
102
}
330
47
100
AcDbScale
 70
     0
300
1/2" = 1'-0"
140
0.5
141
12.0
290
     0
  0
SCALE
  5
63
102
{ACAD_REACTORS
330
47
102
}
330
47
100
AcDbScale
 70
     0
300
3/4" = 1'-0"
140
0.75
141
12.0
290
     0
  0
SCALE
  5
64
102
{ACAD_REACTORS
330
47
102
}
330
47
100
AcDbScale
 70
     0
300
1" = 1'-0"
140
1.0
141
12.0
290
     0
  0
SCALE
  5
65
102
{ACAD_REACTORS
330
47
102
}
330
47
100
AcDbScale
 70
     0
300
1-1/2" = 1'-0"
140
1.5
141
12.0
290
     0
  0
SCALE
  5
66
102
{ACAD_REACTORS
330
47
102
}
330
47
100
AcDbScale
 70
     0
300
3" = 1'-0"
140
3.0
141
12.0
290
     0
  0
SCALE
  5
67
102
{ACAD_REACTORS
330
47
102
}
330
47
100
AcDbScale
 70
     0
300
6" = 1'-0"
140
6.0
141
12.0
290
     0
  0
SCALE
  5
68
102
{ACAD_REACTORS
330
47
102
}
330
47
100
AcDbScale
 70
     0
300
1'-0" = 1'-0"
140
12.0
141
12.0
290
     0
  0
ENDSEC
  0
EOF
