  0
SECTION
  2
HEADER
  9
$ACADVER
  1
AC1015
  9
$ACADMAINTVER
 70
     6
  9
$DWGCODEPAGE
  3
ANSI_949
  9
$INSBASE
 10
0.0
 20
0.0
 30
0.0
  9
$EXTMIN
 10
1.000000000000000E+20
 20
1.000000000000000E+20
 30
1.000000000000000E+20
  9
$EXTMAX
 10
-1.000000000000000E+20
 20
-1.000000000000000E+20
 30
-1.000000000000000E+20
  9
$LIMMIN
 10
0.0
 20
0.0
  9
$LIMMAX
 10
420.0
 20
297.0
  9
$ORTHOMODE
 70
     1
  9
$REGENMODE
 70
     1
  9
$FILLMODE
 70
     1
  9
$QTEXTMODE
 70
     0
  9
$MIRRTEXT
 70
     1
  9
$LTSCALE
 40
1.0
  9
$ATTMODE
 70
     1
  9
$TEXTSIZE
 40
3.5
  9
$TRACEWID
 40
1.0
  9
$TEXTSTYLE
  7
Standard
  9
$CLAYER
  8
0
  9
$CELTYPE
  6
ByLayer
  9
$CECOLOR
 62
   256
  9
$CELTSCALE
 40
1.0
  9
$DISPSILH
 70
     0
  9
$DIMSCALE
 40
1.0
  9
$DIMASZ
 40
3.302
  9
$DIMEXO
 40
1.0
  9
$DIMDLI
 40
3.75
  9
$DIMRND
 40
0.0
  9
$DIMDLE
 40
0.0
  9
$DIMEXE
 40
1.0
  9
$DIMTP
 40
0.0
  9
$DIMTM
 40
0.0
  9
$DIMTXT
 40
3.5
  9
$DIMCEN
 40
2.5
  9
$DIMTSZ
 40
0.0
  9
$DIMTOL
 70
     0
  9
$DIMLIM
 70
     0
  9
$DIMTIH
 70
     1
  9
$DIMTOH
 70
     1
  9
$DIMSE1
 70
     0
  9
$DIMSE2
 70
     0
  9
$DIMTAD
 70
     1
  9
$DIMZIN
 70
     0
  9
$DIMBLK
  1

  9
$DIMASO
 70
     1
  9
$DIMSHO
 70
     1
  9
$DIMPOST
  1

  9
$DIMAPOST
  1

  9
$DIMALT
 70
     0
  9
$DIMALTD
 70
     3
  9
$DIMALTF
 40
0.0393700787401575
  9
$DIMLFAC
 40
1.0
  9
$DIMTOFL
 70
     1
  9
$DIMTVP
 40
0.0
  9
$DIMTIX
 70
     0
  9
$DIMSOXD
 70
     0
  9
$DIMSAH
 70
     0
  9
$DIMBLK1
  1

  9
$DIMBLK2
  1

  9
$DIMSTYLE
  2
ISO-25
  9
$DIMCLRD
 70
     0
  9
$DIMCLRE
 70
     0
  9
$DIMCLRT
 70
     0
  9
$DIMTFAC
 40
1.0
  9
$DIMGAP
 40
1.524
  9
$DIMJUST
 70
     0
  9
$DIMSD1
 70
     0
  9
$DIMSD2
 70
     0
  9
$DIMTOLJ
 70
     0
  9
$DIMTZIN
 70
     0
  9
$DIMALTZ
 70
     0
  9
$DIMALTTZ
 70
     0
  9
$DIMUPT
 70
     0
  9
$DIMDEC
 70
     2
  9
$DIMTDEC
 70
     2
  9
$DIMALTU
 70
     2
  9
$DIMALTTD
 70
     3
  9
$DIMTXSTY
  7
Standard
  9
$DIMAUNIT
 70
     0
  9
$DIMADEC
 70
     2
  9
$DIMALTRND
 40
0.0
  9
$DIMAZIN
 70
     0
  9
$DIMDSEP
 70
    44
  9
$DIMATFIT
 70
     3
  9
$DIMFRAC
 70
     0
  9
$DIMLDRBLK
  1

  9
$DIMLUNIT
 70
     2
  9
$DIMLWD
 70
    -2
  9
$DIMLWE
 70
    -2
  9
$DIMTMOVE
 70
     0
  9
$LUNITS
 70
     2
  9
$LUPREC
 70
     2
  9
$SKETCHINC
 40
1.0
  9
$FILLETRAD
 40
10.0
  9
$AUNITS
 70
     0
  9
$AUPREC
 70
     2
  9
$MENU
  1
.
  9
$ELEVATION
 40
0.0
  9
$PELEVATION
 40
0.0
  9
$THICKNESS
 40
0.0
  9
$LIMCHECK
 70
     0
  9
$CHAMFERA
 40
0.0
  9
$CHAMFERB
 40
0.0
  9
$CHAMFERC
 40
0.0
  9
$CHAMFERD
 40
0.0
  9
$SKPOLY
 70
     0
  9
$TDCREATE
 40
2458311.572626389
  9
$TDUCREATE
 40
2458311.197626389
  9
$TDUPDATE
 40
2458318.663805139
  9
$TDUUPDATE
 40
2458318.288805139
  9
$TDINDWG
 40
0.0024861227
  9
$TDUSRTIMER
 40
2458318.288695336
  9
$USRTIMER
 70
     1
  9
$ANGBASE
 50
0.0
  9
$ANGDIR
 70
     0
  9
$PDMODE
 70
     0
  9
$PDSIZE
 40
-1.0
  9
$PLINEWID
 40
0.0
  9
$SPLFRAME
 70
     0
  9
$SPLINETYPE
 70
     6
  9
$SPLINESEGS
 70
     8
  9
$HANDSEED
  5
2EF
  9
$SURFTAB1
 70
     6
  9
$SURFTAB2
 70
     6
  9
$SURFTYPE
 70
     6
  9
$SURFU
 70
     6
  9
$SURFV
 70
     6
  9
$UCSBASE
  2

  9
$UCSNAME
  2

  9
$UCSORG
 10
0.0
 20
0.0
 30
0.0
  9
$UCSXDIR
 10
1.0
 20
0.0
 30
0.0
  9
$UCSYDIR
 10
0.0
 20
1.0
 30
0.0
  9
$UCSORTHOREF
  2

  9
$UCSORTHOVIEW
 70
     0
  9
$UCSORGTOP
 10
0.0
 20
0.0
 30
0.0
  9
$UCSORGBOTTOM
 10
0.0
 20
0.0
 30
0.0
  9
$UCSORGLEFT
 10
0.0
 20
0.0
 30
0.0
  9
$UCSORGRIGHT
 10
0.0
 20
0.0
 30
0.0
  9
$UCSORGFRONT
 10
0.0
 20
0.0
 30
0.0
  9
$UCSORGBACK
 10
0.0
 20
0.0
 30
0.0
  9
$PUCSBASE
  2

  9
$PUCSNAME
  2

  9
$PUCSORG
 10
0.0
 20
0.0
 30
0.0
  9
$PUCSXDIR
 10
1.0
 20
0.0
 30
0.0
  9
$PUCSYDIR
 10
0.0
 20
1.0
 30
0.0
  9
$PUCSORTHOREF
  2

  9
$PUCSORTHOVIEW
 70
     0
  9
$PUCSORGTOP
 10
0.0
 20
0.0
 30
0.0
  9
$PUCSORGBOTTOM
 10
0.0
 20
0.0
 30
0.0
  9
$PUCSORGLEFT
 10
0.0
 20
0.0
 30
0.0
  9
$PUCSORGRIGHT
 10
0.0
 20
0.0
 30
0.0
  9
$PUCSORGFRONT
 10
0.0
 20
0.0
 30
0.0
  9
$PUCSORGBACK
 10
0.0
 20
0.0
 30
0.0
  9
$USERI1
 70
     0
  9
$USERI2
 70
     0
  9
$USERI3
 70
     0
  9
$USERI4
 70
     0
  9
$USERI5
 70
     0
  9
$USERR1
 40
0.0
  9
$USERR2
 40
0.0
  9
$USERR3
 40
0.0
  9
$USERR4
 40
0.0
  9
$USERR5
 40
0.0
  9
$WORLDVIEW
 70
     1
  9
$SHADEDGE
 70
     3
  9
$SHADEDIF
 70
    70
  9
$TILEMODE
 70
     1
  9
$MAXACTVP
 70
    64
  9
$PINSBASE
 10
0.0
 20
0.0
 30
0.0
  9
$PLIMCHECK
 70
     0
  9
$PEXTMIN
 10
1.000000000000000E+20
 20
1.000000000000000E+20
 30
1.000000000000000E+20
  9
$PEXTMAX
 10
-1.000000000000000E+20
 20
-1.000000000000000E+20
 30
-1.000000000000000E+20
  9
$PLIMMIN
 10
0.0
 20
0.0
  9
$PLIMMAX
 10
0.0
 20
0.0
  9
$UNITMODE
 70
     0
  9
$VISRETAIN
 70
     1
  9
$PLINEGEN
 70
     0
  9
$PSLTSCALE
 70
     1
  9
$TREEDEPTH
 70
  3020
  9
$CMLSTYLE
  2
Standard
  9
$CMLJUST
 70
     0
  9
$CMLSCALE
 40
20.0
  9
$PROXYGRAPHICS
 70
     1
  9
$MEASUREMENT
 70
     1
  9
$CELWEIGHT
370
    -1
  9
$ENDCAPS
280
     0
  9
$JOINSTYLE
280
     0
  9
$LWDISPLAY
290
     1
  9
$INSUNITS
 70
     4
  9
$HYPERLINKBASE
  1

  9
$STYLESHEET
  1

  9
$XEDIT
290
     1
  9
$CEPSNTYPE
380
     0
  9
$PSTYLEMODE
290
     1
  9
$FINGERPRINTGUID
  2
{FBA252C5-C44F-41AC-A02D-47FA947B6AA7}
  9
$VERSIONGUID
  2
{FAEB1C32-E019-11D5-929B-00C0DF256EC4}
  9
$EXTNAMES
290
     1
  9
$PSVPSCALE
 40
0.0
  9
$OLESTARTUP
290
     0
  0
ENDSEC
  0
SECTION
  2
CLASSES
  0
CLASS
  1
ACDBDICTIONARYWDFLT
  2
AcDbDictionaryWithDefault
  3
ObjectDBX Classes
 90
        0
280
     0
281
     0
  0
CLASS
  1
VISUALSTYLE
  2
AcDbVisualStyle
  3
ObjectDBX Classes
 90
     4095
280
     0
281
     0
  0
CLASS
  1
MATERIAL
  2
AcDbMaterial
  3
ObjectDBX Classes
 90
     1153
280
     0
281
     0
  0
CLASS
  1
SCALE
  2
AcDbScale
  3
ObjectDBX Classes
 90
     1153
280
     0
281
     0
  0
CLASS
  1
SUN
  2
AcDbSun
  3
SCENEOE
 90
     1153
280
     0
281
     0
  0
CLASS
  1
ACDBPLACEHOLDER
  2
AcDbPlaceHolder
  3
ObjectDBX Classes
 90
        0
280
     0
281
     0
  0
CLASS
  1
LAYOUT
  2
AcDbLayout
  3
ObjectDBX Classes
 90
        0
280
     0
281
     0
  0
CLASS
  1
TABLESTYLE
  2
AcDbTableStyle
  3
ObjectDBX Classes
 90
     4095
280
     0
281
     0
  0
CLASS
  1
MLEADERSTYLE
  2
AcDbMLeaderStyle
  3
ACDB_MLEADERSTYLE_CLASS
 90
     4095
280
     0
281
     0
  0
CLASS
  1
RASTERVARIABLES
  2
AcDbRasterVariables
  3
ISM
 90
        0
280
     0
281
     0
  0
ENDSEC
  0
SECTION
  2
TABLES
  0
TABLE
  2
VPORT
  5
8
330
0
100
AcDbSymbolTable
 70
     1
  0
VPORT
  5
29
330
8
100
AcDbSymbolTableRecord
100
AcDbViewportTableRecord
  2
*Active
 70
     0
 10
0.0
 20
0.0
 11
1.0
 21
1.0
 12
15.28067687990963
 22
-10.86510533468452
 13
0.0
 23
0.0
 14
10.0
 24
10.0
 15
10.0
 25
10.0
 16
0.0
 26
0.0
 36
1.0
 17
0.0
 27
0.0
 37
0.0
 40
192.9319272298527
 41
1.740812379110251
 42
50.0
 43
0.0
 44
0.0
 50
0.0
 51
0.0
 71
    16
 72
  2000
 73
     1
 74
     3
 75
     0
 76
     0
 77
     0
 78
     0
281
     0
 65
     1
110
0.0
120
0.0
130
0.0
111
1.0
121
0.0
131
0.0
112
0.0
122
1.0
132
0.0
 79
     0
146
0.0
  0
ENDTAB
  0
TABLE
  2
LTYPE
  5
5
330
0
100
AcDbSymbolTable
 70
     6
  0
LTYPE
  5
14
330
5
100
AcDbSymbolTableRecord
100
AcDbLinetypeTableRecord
  2
ByBlock
 70
     0
  3

 72
    65
 73
     0
 40
0.0
  0
LTYPE
  5
15
330
5
100
AcDbSymbolTableRecord
100
AcDbLinetypeTableRecord
  2
ByLayer
 70
     0
  3

 72
    65
 73
     0
 40
0.0
  0
LTYPE
  5
16
330
5
100
AcDbSymbolTableRecord
100
AcDbLinetypeTableRecord
  2
Continuous
 70
     0
  3
Solid line
 72
    65
 73
     0
 40
0.0
  0
LTYPE
  5
6A
330
5
100
AcDbSymbolTableRecord
100
AcDbLinetypeTableRecord
  2
HIDDEN
 70
     0
  3
Hidden __ __ __ __ __ __ __ __ __ __ __ __ __ __
 72
    65
 73
     2
 40
1.905
 49
1.27
 74
     0
 49
-0.635
 74
     0
  0
LTYPE
  5
6B
330
5
100
AcDbSymbolTableRecord
100
AcDbLinetypeTableRecord
  2
PHANTOM
 70
     0
  3
Phantom ______  __  __  ______  __  __  ______
 72
    65
 73
     6
 40
12.7
 49
6.35
 74
     0
 49
-1.27
 74
     0
 49
1.27
 74
     0
 49
-1.27
 74
     0
 49
1.27
 74
     0
 49
-1.27
 74
     0
  0
LTYPE
  5
6C
330
5
100
AcDbSymbolTableRecord
100
AcDbLinetypeTableRecord
  2
CENTER
 70
     0
  3
Center ____ _ ____ _ ____ _ ____ _ ____ _ ____
 72
    65
 73
     4
 40
10.16
 49
6.35
 74
     0
 49
-1.27
 74
     0
 49
1.27
 74
     0
 49
-1.27
 74
     0
  0
LTYPE
  5
6D
330
5
100
AcDbSymbolTableRecord
100
AcDbLinetypeTableRecord
  2
CENTERX2
 70
     0
  3
Center (2x) ________  __  ________  __  _____
 72
    65
 73
     4
 40
20.32
 49
12.7
 74
     0
 49
-2.54
 74
     0
 49
2.54
 74
     0
 49
-2.54
 74
     0
  0
LTYPE
  5
6E
330
5
100
AcDbSymbolTableRecord
100
AcDbLinetypeTableRecord
  2
DOT2
 70
     0
  3
Dot (.5x) ........................................
 72
    65
 73
     2
 40
0.635
 49
0.0
 74
     0
 49
-0.635
 74
     0
  0
ENDTAB
  0
TABLE
  2
LAYER
  5
2
102
{ACAD_XDICTIONARY
360
1E6
102
}
330
0
100
AcDbSymbolTable
 70
    18
  0
LAYER
  5
10
330
2
100
AcDbSymbolTableRecord
100
AcDbLayerTableRecord
  2
0
 70
     0
 62
     7
  6
Continuous
370
    -3
390
F
  0
LAYER
  5
6F
330
2
100
AcDbSymbolTableRecord
100
AcDbLayerTableRecord
  2
FORMAT
 70
     0
 62
     2
  6
Continuous
370
    -3
390
F
  0
LAYER
  5
70
330
2
100
AcDbSymbolTableRecord
100
AcDbLayerTableRecord
  2
외형선
 70
     0
 62
     4
  6
Continuous
370
    30
390
F
  0
LAYER
  5
71
330
2
100
AcDbSymbolTableRecord
100
AcDbLayerTableRecord
  2
숨은선
 70
     0
 62
     2
  6
HIDDEN
370
    15
390
F
  0
LAYER
  5
72
330
2
100
AcDbSymbolTableRecord
100
AcDbLayerTableRecord
  2
중심선
 70
     0
 62
     1
  6
CENTERX2
370
    -3
390
F
  0
LAYER
  5
73
330
2
100
AcDbSymbolTableRecord
100
AcDbLayerTableRecord
  2
파단선
 70
     0
 62
     4
  6
Continuous
370
    -3
390
F
  0
LAYER
  5
74
330
2
100
AcDbSymbolTableRecord
100
AcDbLayerTableRecord
  2
해칭선
 70
     0
 62
   100
  6
Continuous
370
    -3
390
F
  0
LAYER
  5
75
330
2
100
AcDbSymbolTableRecord
100
AcDbLayerTableRecord
  2
가는실선
 70
     0
 62
     4
  6
Continuous
370
    -3
390
F
  0
LAYER
  5
76
330
2
100
AcDbSymbolTableRecord
100
AcDbLayerTableRecord
  2
치수_보조선
 70
     0
 62
     4
  6
Continuous
370
    -3
390
F
  0
LAYER
  5
77
330
2
100
AcDbSymbolTableRecord
100
AcDbLayerTableRecord
  2
치수문자_일반주서
 70
     0
 62
     7
  6
Continuous
370
    15
390
F
  0
LAYER
  5
78
330
2
100
AcDbSymbolTableRecord
100
AcDbLayerTableRecord
  2
개별주서
 70
     0
 62
   100
  6
Continuous
370
    30
390
F
  0
LAYER
  5
79
330
2
100
AcDbSymbolTableRecord
100
AcDbLayerTableRecord
  2
중간선
 70
     0
 62
     2
  6
Continuous
370
    15
390
F
  0
LAYER
  5
7A
330
2
100
AcDbSymbolTableRecord
100
AcDbLayerTableRecord
  2
윤곽선
 70
     0
 62
     3
  6
Continuous
370
    40
390
F
  0
LAYER
  5
7B
330
2
100
AcDbSymbolTableRecord
100
AcDbLayerTableRecord
  2
중심마크
 70
     0
 62
   100
  6
Continuous
370
    30
390
F
  0
LAYER
  5
7C
330
2
100
AcDbSymbolTableRecord
100
AcDbLayerTableRecord
  2
가상선
 70
     0
 62
     4
  6
PHANTOM
370
    -3
390
F
  0
LAYER
  5
7D
330
2
100
AcDbSymbolTableRecord
100
AcDbLayerTableRecord
  2
특수지정선
 70
     0
 62
     5
  6
CENTERX2
370
    60
390
F
  0
LAYER
  5
7E
330
2
100
AcDbSymbolTableRecord
100
AcDbLayerTableRecord
  2
참조1
 70
     0
 62
    -4
  6
Continuous
370
    -3
390
F
  0
LAYER
  5
13E
330
2
100
AcDbSymbolTableRecord
100
AcDbLayerTableRecord
  2
Defpoints
 70
     0
 62
     7
  6
Continuous
290
     0
370
    -3
390
F
  0
ENDTAB
  0
TABLE
  2
STYLE
  5
3
330
0
100
AcDbSymbolTable
 70
     2
  0
STYLE
  5
11
330
3
100
AcDbSymbolTableRecord
100
AcDbTextStyleTableRecord
  2
Standard
 70
     0
 40
0.0
 41
1.0
 50
0.0
 71
     0
 42
3.5
  3
txt
  4

  0
STYLE
  5
94
330
3
100
AcDbSymbolTableRecord
100
AcDbTextStyleTableRecord
  2
SLDTEXTSTYLE0
 70
     0
 40
0.0
 41
0.75
 50
0.0
 71
     0
 42
3.5
  3
TXT
  4

  0
ENDTAB
  0
TABLE
  2
VIEW
  5
6
330
0
100
AcDbSymbolTable
 70
     0
  0
ENDTAB
  0
TABLE
  2
UCS
  5
7
330
0
100
AcDbSymbolTable
 70
     0
  0
ENDTAB
  0
TABLE
  2
APPID
  5
9
330
0
100
AcDbSymbolTable
 70
     1
  0
APPID
  5
12
330
9
100
AcDbSymbolTableRecord
100
AcDbRegAppTableRecord
  2
ACAD
 70
     0
  0
ENDTAB
  0
TABLE
  2
DIMSTYLE
  5
A
330
0
100
AcDbSymbolTable
 70
     5
100
AcDbDimStyleTable
  0
DIMSTYLE
105
27
330
A
100
AcDbSymbolTableRecord
100
AcDbDimStyleTableRecord
  2
ISO-25
 70
     0
 41
2.5
 42
0.625
 43
3.75
 44
1.25
 73
     0
 74
     0
 77
     1
 78
     8
140
2.5
141
2.5
143
0.03937007874016
147
0.625
171
     3
172
     1
178
     0
271
     2
272
     2
274
     3
278
    44
283
     0
284
     8
340
11
  0
DIMSTYLE
105
C0
330
A
100
AcDbSymbolTableRecord
100
AcDbDimStyleTableRecord
  2
SLDDIMSTYLE0
 70
     0
 41
3.302
 44
0.0
 45
0.000000001
 73
     0
 74
     0
 77
     1
 78
     4
 79
     1
140
3.5
147
0.875
172
     1
173
     1
178
     0
271
     2
272
     2
276
     2
284
    12
289
     0
340
94
  0
DIMSTYLE
105
CE
330
A
100
AcDbSymbolTableRecord
100
AcDbDimStyleTableRecord
  2
SLDDIMSTYLE1
 70
     0
 41
3.302
 44
0.0
 45
0.000000001
 73
     0
 74
     0
 77
     1
 78
     4
 79
     1
140
3.5
143
0.0393700787401575
147
0.875
148
0.000000001
170
     1
172
     1
173
     1
178
     0
271
     2
272
     2
276
     2
284
    12
289
     0
340
94
  0
DIMSTYLE
105
E4
330
A
100
AcDbSymbolTableRecord
100
AcDbDimStyleTableRecord
  2
SLDDIMSTYLE2
 70
     0
 41
3.302
 44
0.0
 45
0.000000001
 73
     0
 74
     0
 77
     1
 78
     4
 79
     1
140
3.5
143
0.0393700787401575
147
0.875
148
0.000000001
170
     1
173
     1
178
     0
271
     2
272
     2
276
     2
284
    12
340
94
  0
DIMSTYLE
105
F8
102
{ACAD_REACTORS
330
F7
330
233
330
234
330
CD
102
}
330
A
100
AcDbSymbolTableRecord
100
AcDbDimStyleTableRecord
  2
SLDDIMSTYLE3
 70
     0
 41
3.302
 44
0.0
 45
0.000000001
 73
     0
 74
     0
 77
     1
 78
    12
 79
     3
140
3.5
143
0.0393700787401575
147
0.875
148
0.000000001
170
     1
173
     1
178
     0
271
     2
272
     2
276
     2
284
    12
340
94
  0
ENDTAB
  0
TABLE
  2
BLOCK_RECORD
  5
1
330
0
100
AcDbSymbolTable
 70
    16
  0
BLOCK_RECORD
  5
1F
330
1
100
AcDbSymbolTableRecord
100
AcDbBlockTableRecord
  2
*Model_Space
340
22
  0
BLOCK_RECORD
  5
1B
330
1
100
AcDbSymbolTableRecord
100
AcDbBlockTableRecord
  2
*Paper_Space
340
1E
  0
BLOCK_RECORD
  5
23
330
1
100
AcDbSymbolTableRecord
100
AcDbBlockTableRecord
  2
*Paper_Space0
340
26
  0
BLOCK_RECORD
  5
7F
330
1
100
AcDbSymbolTableRecord
100
AcDbBlockTableRecord
  2
블럭10
340
0
102
{BLKREFS
331
B8
102
}
  0
BLOCK_RECORD
  5
C1
330
1
100
AcDbSymbolTableRecord
100
AcDbBlockTableRecord
  2
_D
340
0
  0
BLOCK_RECORD
  5
CF
330
1
100
AcDbSymbolTableRecord
100
AcDbBlockTableRecord
  2
_D_1
340
0
  0
BLOCK_RECORD
  5
E5
330
1
100
AcDbSymbolTableRecord
100
AcDbBlockTableRecord
  2
_D_2
340
0
  0
BLOCK_RECORD
  5
F9
330
1
100
AcDbSymbolTableRecord
100
AcDbBlockTableRecord
  2
_D_3
340
0
  0
BLOCK_RECORD
  5
112
330
1
100
AcDbSymbolTableRecord
100
AcDbBlockTableRecord
  2
SW_DOWELSYMBOL_0
340
0
102
{BLKREFS
331
235
102
}
  0
BLOCK_RECORD
  5
1C6
330
1
100
AcDbSymbolTableRecord
100
AcDbBlockTableRecord
  2
*D7
340
0
  0
BLOCK_RECORD
  5
1D3
330
1
100
AcDbSymbolTableRecord
100
AcDbBlockTableRecord
  2
*D8
340
0
  0
BLOCK_RECORD
  5
1EA
330
1
100
AcDbSymbolTableRecord
100
AcDbBlockTableRecord
  2
*D9
340
0
  0
BLOCK_RECORD
  5
1F6
330
1
100
AcDbSymbolTableRecord
100
AcDbBlockTableRecord
  2
*D10
340
0
  0
BLOCK_RECORD
  5
236
330
1
100
AcDbSymbolTableRecord
100
AcDbBlockTableRecord
  2
*D11
340
0
  0
BLOCK_RECORD
  5
242
330
1
100
AcDbSymbolTableRecord
100
AcDbBlockTableRecord
  2
*D12
340
0
  0
BLOCK_RECORD
  5
24F
330
1
100
AcDbSymbolTableRecord
100
AcDbBlockTableRecord
  2
*D13
340
0
  0
BLOCK_RECORD
  5
25B
330
1
100
AcDbSymbolTableRecord
100
AcDbBlockTableRecord
  2
*D14
340
0
  0
ENDTAB
  0
ENDSEC
  0
SECTION
  2
BLOCKS
  0
BLOCK
  5
20
330
1F
100
AcDbEntity
  8
0
100
AcDbBlockBegin
  2
*Model_Space
 70
     0
 10
0.0
 20
0.0
 30
0.0
  3
*Model_Space
  1
*Model_Space
  0
ENDBLK
  5
21
330
1F
100
AcDbEntity
  8
0
100
AcDbBlockEnd
  0
BLOCK
  5
1C
330
1B
100
AcDbEntity
 67
     1
  8
0
100
AcDbBlockBegin
  2
*Paper_Space
 70
     0
 10
0.0
 20
0.0
 30
0.0
  3
*Paper_Space
  1
*Paper_Space
  0
ENDBLK
  5
1D
330
1B
100
AcDbEntity
 67
     1
  8
0
100
AcDbBlockEnd
  0
BLOCK
  5
24
330
23
100
AcDbEntity
  8
0
100
AcDbBlockBegin
  2
*Paper_Space0
 70
     0
 10
0.0
 20
0.0
 30
0.0
  3
*Paper_Space0
  1
*Paper_Space0
  0
ENDBLK
  5
25
330
23
100
AcDbEntity
  8
0
100
AcDbBlockEnd
  0
BLOCK
  5
80
330
7F
100
AcDbEntity
  8
0
100
AcDbBlockBegin
  2
블럭10
 70
     2
 10
0.0
 20
0.0
 30
0.0
  3
블럭10
  1
블럭10
  0
ELLIPSE
  5
82
330
7F
100
AcDbEntity
  8
중심선
100
AcDbEllipse
 10
20.54032771741204
 20
12.0471743016438
 30
0.0
 11
6.600054785286829
 21
-1.261213355974178E-13
 31
0.0
210
0.0
220
0.0
230
1.0
 40
0.636358354079598
 41
0.9219305317359503
 42
6.513795318482858
  0
ELLIPSE
  5
83
330
7F
100
AcDbEntity
  8
중심선
100
AcDbEllipse
 10
20.54032771746488
 20
12.04717430159265
 30
0.0
 11
3.960054785062283
 21
1.540847449632565E-10
 31
0.0
210
0.0
220
0.0
230
1.0
 40
0.3939339440162632
 41
1.131841032648279
 42
5.62031148352944
  0
LINE
  5
84
330
7F
100
AcDbEntity
  8
중심선
100
AcDbLine
 10
2.268634060543552
 20
16.24717430164393
 30
0.0
 11
5.714909304380834
 21
16.24717430164393
 31
0.0
  0
LINE
  5
85
330
7F
100
AcDbEntity
  8
중심선
100
AcDbLine
 10
5.245725140726316
 20
7.84717430164391
 30
0.0
 11
8.692000384563599
 21
7.84717430164391
 31
0.0
  0
LINE
  5
86
330
7F
100
AcDbEntity
  8
중심선
100
AcDbLine
 10
15.74043728645272
 20
16.24717430164393
 30
0.0
 11
8.692000384563599
 21
7.84717430164391
 31
0.0
  0
LINE
  5
87
330
7F
100
AcDbEntity
  8
중심선
100
AcDbLine
 10
0.1404042013395286
 20
13.71084872107135
 30
0.0
 11
3.58671253028996
 21
13.71088815037384
 31
0.0
  0
LINE
  5
88
330
7F
100
AcDbEntity
  8
중심선
100
AcDbLine
 10
2.750260043222114
 20
10.84717430164391
 30
0.0
 11
6.196535287059397
 21
10.84717430164391
 31
0.0
  0
LINE
  5
89
330
7F
100
AcDbEntity
  8
중심선
100
AcDbLine
 10
12.29416204261559
 20
16.24717430164393
 30
0.0
 11
5.245725140726316
 21
7.84717430164391
 31
0.0
  0
LINE
  5
8A
330
7F
100
AcDbEntity
  8
중심선
100
AcDbLine
 10
10.72767329541681
 20
16.24717430164393
 30
0.0
 11
6.196535287059397
 21
10.84717430164391
 31
0.0
  0
LINE
  5
8B
330
7F
100
AcDbEntity
  8
중심선
100
AcDbLine
 10
7.28139805157953
 20
16.24717430164393
 30
0.0
 11
2.750260043222114
 21
10.84717430164391
 31
0.0
  0
LINE
  5
8C
330
7F
100
AcDbEntity
  8
중심선
100
AcDbLine
 10
5.714909304380834
 20
16.24717430164393
 30
0.0
 11
3.58671253028996
 21
13.71088815037384
 31
0.0
  0
LINE
  5
8D
330
7F
100
AcDbEntity
  8
중심선
100
AcDbLine
 10
2.268634060543552
 20
16.24717430164393
 30
0.0
 11
0.1404042013395286
 21
13.71084872107135
 31
0.0
  0
LINE
  5
8E
330
7F
100
AcDbEntity
  8
중심선
100
AcDbLine
 10
7.28139805157953
 20
16.24717430164393
 30
0.0
 11
10.72767329541681
 21
16.24717430164393
 31
0.0
  0
LINE
  5
8F
330
7F
100
AcDbEntity
  8
중심선
100
AcDbLine
 10
12.29416204261559
 20
16.24717430164393
 30
0.0
 11
15.74043728645272
 21
16.24717430164393
 31
0.0
  0
LINE
  5
90
330
7F
100
AcDbEntity
  8
중심선
100
AcDbLine
 10
19.22036997980202
 20
11.08717430171403
 30
0.0
 11
23.66174974927406
 21
11.08717430171406
 31
0.0
  0
LINE
  5
91
330
7F
100
AcDbEntity
  8
중심선
100
AcDbLine
 10
19.22039502424796
 20
13.00717430171391
 30
0.0
 11
19.22036997980202
 21
11.08717430171403
 31
0.0
  0
LINE
  5
92
330
7F
100
AcDbEntity
  8
중심선
100
AcDbLine
 10
19.22039502424796
 20
13.00717430171391
 30
0.0
 11
26.96566020931264
 21
13.00717430171391
 31
0.0
  0
LINE
  5
93
330
7F
100
AcDbEntity
  8
중심선
100
AcDbLine
 10
22.22332737316547
 20
13.45928029700563
 30
0.0
 11
24.52862924686651
 21
15.39360700705356
 31
0.0
  0
ATTDEF
  5
95
330
7F
100
AcDbEntity
  8
FORMAT
 62
     2
100
AcDbText
 10
4.408487351596664
 20
2.075366912832191
 30
0.0
 40
4.233333333333333
  1
E1070964
 41
0.75
  7
SLDTEXTSTYLE0
 11
4.408487351596664
 21
-0.0412997538344756
 31
0.0
100
AcDbAttributeDefinition
  3

  2
AUTOATTR0
 70
     0
 74
     1
  0
ENDBLK
  5
81
330
7F
100
AcDbEntity
  8
0
100
AcDbBlockEnd
  0
BLOCK
  5
C2
330
C1
100
AcDbEntity
  8
0
100
AcDbBlockBegin
  2
_D
 70
     0
 10
0.0
 20
0.0
 30
0.0
  3
_D
  1
_D
  0
LINE
  5
C4
330
C1
100
AcDbEntity
  8
0
  6
Continuous
 62
     0
370
    -2
100
AcDbLine
 10
-46.12192116787307
 20
6.351074928723888
 30
0.0
 11
-59.5594211678731
 21
6.351074928723839
 31
0.0
  0
LINE
  5
C5
330
C1
100
AcDbEntity
  8
0
  6
Continuous
 62
     0
370
    -2
100
AcDbLine
 10
-46.12192116787307
 20
-6.348925071276101
 30
0.0
 11
-59.55942116787305
 21
-6.34892507127615
 31
0.0
  0
LINE
  5
C6
330
C1
100
AcDbEntity
  8
0
  6
Continuous
 62
     0
370
    -2
100
AcDbLine
 10
-59.55942116787308
 20
3.049074928723839
 30
0.0
 11
-59.55942116787307
 21
-3.04692507127615
 31
0.0
  0
SOLID
  5
C7
330
C1
100
AcDbEntity
  8
0
 62
     0
100
AcDbTrace
 10
-59.00908783453975
 20
3.049074928723841
 30
0.0
 11
-60.10975450120642
 21
3.049074928723837
 31
0.0
 12
-59.5594211678731
 22
6.351074928723839
 32
0.0
 13
-59.5594211678731
 23
6.351074928723839
 33
0.0
  0
SOLID
  5
C8
330
C1
100
AcDbEntity
  8
0
 62
     0
100
AcDbTrace
 10
-60.1097545012064
 20
-3.046925071276152
 30
0.0
 11
-59.00908783453973
 21
-3.046925071276148
 31
0.0
 12
-59.55942116787305
 22
-6.34892507127615
 32
0.0
 13
-59.55942116787305
 23
-6.34892507127615
 33
0.0
  0
MTEXT
  5
C9
330
C1
100
AcDbEntity
  8
0
 62
     0
370
    15
100
AcDbMText
 10
-63.93442116787308
 20
0.0010749287238743
 30
0.0
 40
3.5
 41
0.0
 71
     2
 72
     1
  1
\A1;%%c12.7 [1/2]
  7
SLDTEXTSTYLE0
 11
-3.356894814614650E-15
 21
1.0
 31
0.0
 73
     1
 44
1.0
  0
POINT
  5
CA
330
C1
100
AcDbEntity
  8
Defpoints
 62
     0
100
AcDbPoint
 10
-46.05942116787307
 20
6.351074928723888
 30
0.0
  0
POINT
  5
CB
330
C1
100
AcDbEntity
  8
Defpoints
 62
     0
100
AcDbPoint
 10
-46.05942116787307
 20
-6.348925071276101
 30
0.0
  0
POINT
  5
CC
330
C1
100
AcDbEntity
  8
Defpoints
 62
     0
100
AcDbPoint
 10
-59.55942116787308
 20
-6.348925071276148
 30
0.0
  0
ENDBLK
  5
C3
330
C1
100
AcDbEntity
  8
0
100
AcDbBlockEnd
  0
BLOCK
  5
D0
330
CF
100
AcDbEntity
  8
0
100
AcDbBlockBegin
  2
_D_1
 70
     0
 10
0.0
 20
0.0
 30
0.0
  3
_D_1
  1
_D_1
  0
LINE
  5
D2
330
CF
100
AcDbEntity
  8
0
  6
Continuous
 62
     0
370
    -2
100
AcDbLine
 10
59.62500001395789
 20
12.7625
 30
0.0
 11
59.62500001395789
 21
16.54290286035538
 31
0.0
  0
LINE
  5
D3
330
CF
100
AcDbEntity
  8
0
  6
Continuous
 62
     0
370
    -2
100
AcDbLine
 10
12.0
 20
5.535349324069391
 30
0.0
 11
12.0
 21
16.54290286035538
 31
0.0
  0
LINE
  5
D4
330
CF
100
AcDbEntity
  8
0
  6
Continuous
 62
     0
370
    -2
100
AcDbLine
 10
56.32300001395789
 20
16.54290286035538
 30
0.0
 11
15.302
 21
16.54290286035538
 31
0.0
  0
SOLID
  5
D5
330
CF
100
AcDbEntity
  8
0
 62
     0
100
AcDbTrace
 10
56.32300001395789
 20
15.99256952702204
 30
0.0
 11
56.32300001395789
 21
17.09323619368871
 31
0.0
 12
59.62500001395789
 22
16.54290286035538
 32
0.0
 13
59.62500001395789
 23
16.54290286035538
 33
0.0
  0
SOLID
  5
D6
330
CF
100
AcDbEntity
  8
0
 62
     0
100
AcDbTrace
 10
15.302
 20
17.09323619368871
 30
0.0
 11
15.302
 21
15.99256952702204
 31
0.0
 12
12.0
 22
16.54290286035538
 32
0.0
 13
12.0
 23
16.54290286035538
 33
0.0
  0
MTEXT
  5
D7
330
CF
100
AcDbEntity
  8
0
 62
     0
370
    15
100
AcDbMText
 10
35.81250000697895
 20
20.91790286035538
 30
0.0
 40
3.5
 41
0.0
 71
     2
 72
     1
  1
\A1;47.63 [1 7/8]
  7
SLDTEXTSTYLE0
 73
     1
 44
1.0
  0
POINT
  5
D8
330
CF
100
AcDbEntity
  8
Defpoints
 62
     0
100
AcDbPoint
 10
59.62500001395789
 20
12.7
 30
0.0
  0
POINT
  5
D9
330
CF
100
AcDbEntity
  8
Defpoints
 62
     0
100
AcDbPoint
 10
12.0
 20
5.472849324069391
 30
0.0
  0
POINT
  5
DA
330
CF
100
AcDbEntity
  8
Defpoints
 62
     0
100
AcDbPoint
 10
12.0
 20
16.54290286035538
 30
0.0
  0
ENDBLK
  5
D1
330
CF
100
AcDbEntity
  8
0
100
AcDbBlockEnd
  0
BLOCK
  5
E6
330
E5
100
AcDbEntity
  8
0
100
AcDbBlockBegin
  2
_D_2
 70
     0
 10
0.0
 20
0.0
 30
0.0
  3
_D_2
  1
_D_2
  0
LINE
  5
E8
330
E5
100
AcDbEntity
  8
0
  6
Continuous
 62
     0
370
    -2
100
AcDbLine
 10
29.14057883212694
 20
6.606477789079263
 30
0.0
 11
29.14057883212694
 21
30.3105321911699
 31
0.0
  0
LINE
  5
E9
330
E5
100
AcDbEntity
  8
0
  6
Continuous
 62
     0
370
    -2
100
AcDbLine
 10
-47.05942116787307
 20
5.413574928723888
 30
0.0
 11
-47.05942116787308
 21
30.3105321911699
 31
0.0
  0
LINE
  5
EA
330
E5
100
AcDbEntity
  8
0
  6
Continuous
 62
     0
370
    -2
100
AcDbLine
 10
25.83857883212694
 20
30.3105321911699
 30
0.0
 11
-43.75742116787308
 21
30.3105321911699
 31
0.0
  0
SOLID
  5
EB
330
E5
100
AcDbEntity
  8
0
 62
     0
100
AcDbTrace
 10
25.83857883212694
 20
29.76019885783656
 30
0.0
 11
25.83857883212694
 21
30.86086552450323
 31
0.0
 12
29.14057883212694
 22
30.3105321911699
 32
0.0
 13
29.14057883212694
 23
30.3105321911699
 33
0.0
  0
SOLID
  5
EC
330
E5
100
AcDbEntity
  8
0
 62
     0
100
AcDbTrace
 10
-43.75742116787308
 20
30.86086552450323
 30
0.0
 11
-43.75742116787308
 21
29.76019885783656
 31
0.0
 12
-47.05942116787308
 22
30.3105321911699
 32
0.0
 13
-47.05942116787308
 23
30.3105321911699
 33
0.0
  0
MTEXT
  5
ED
330
E5
100
AcDbEntity
  8
0
 62
     0
370
    15
100
AcDbMText
 10
-8.959421167873067
 20
34.6855321911699
 30
0.0
 40
3.5
 41
0.0
 71
     2
 72
     1
  1
\A1;76.2 [3]
  7
SLDTEXTSTYLE0
 73
     1
 44
1.0
  0
POINT
  5
EE
330
E5
100
AcDbEntity
  8
Defpoints
 62
     0
100
AcDbPoint
 10
29.14057883212694
 20
6.543977789079263
 30
0.0
  0
POINT
  5
EF
330
E5
100
AcDbEntity
  8
Defpoints
 62
     0
100
AcDbPoint
 10
-47.05942116787307
 20
5.351074928723888
 30
0.0
  0
POINT
  5
F0
330
E5
100
AcDbEntity
  8
Defpoints
 62
     0
100
AcDbPoint
 10
-47.05942116787307
 20
30.3105321911699
 30
0.0
  0
ENDBLK
  5
E7
330
E5
100
AcDbEntity
  8
0
100
AcDbBlockEnd
  0
BLOCK
  5
FA
330
F9
100
AcDbEntity
  8
0
100
AcDbBlockBegin
  2
_D_3
 70
     0
 10
0.0
 20
0.0
 30
0.0
  3
_D_3
  1
_D_3
  0
LINE
  5
FC
330
F9
100
AcDbEntity
  8
0
  6
Continuous
 62
     0
370
    -2
100
AcDbLine
 10
59.68749999999999
 20
-12.7
 30
0.0
 11
78.62500000000017
 21
-12.69999999999992
 31
0.0
  0
LINE
  5
FD
330
F9
100
AcDbEntity
  8
0
  6
Continuous
 62
     0
370
    -2
100
AcDbLine
 10
59.68750001395789
 20
12.7
 30
0.0
 11
78.62500000000009
 21
12.70000000000007
 31
0.0
  0
LINE
  5
FE
330
F9
100
AcDbEntity
  8
0
  6
Continuous
 62
     0
370
    -2
100
AcDbLine
 10
78.62500000000009
 20
12.70000000000007
 30
0.0
 11
78.62499999999997
 21
48.35176615341658
 31
0.0
  0
LINE
  5
FF
330
F9
100
AcDbEntity
  8
0
  6
Continuous
 62
     0
370
    -2
100
AcDbLine
 10
78.62500000000016
 20
-9.397999999999925
 30
0.0
 11
78.6250000000001
 21
9.398000000000074
 31
0.0
  0
SOLID
  5
100
330
F9
100
AcDbEntity
  8
0
 62
     0
100
AcDbTrace
 10
78.07466666666683
 20
-9.397999999999927
 30
0.0
 11
79.17533333333348
 21
-9.397999999999923
 31
0.0
 12
78.62500000000017
 22
-12.69999999999992
 32
0.0
 13
78.62500000000017
 23
-12.69999999999992
 33
0.0
  0
SOLID
  5
101
330
F9
100
AcDbEntity
  8
0
 62
     0
100
AcDbTrace
 10
79.17533333333343
 20
9.398000000000076
 30
0.0
 11
78.07466666666677
 21
9.398000000000073
 31
0.0
 12
78.62500000000009
 22
12.70000000000007
 32
0.0
 13
78.62500000000009
 23
12.70000000000007
 33
0.0
  0
MTEXT
  5
102
330
F9
100
AcDbEntity
  8
0
 62
     0
370
    15
100
AcDbMText
 10
74.25
 20
38.28926615341656
 30
0.0
 40
3.5
 41
0.0
 71
     2
 72
     1
  1
\A1;%%c25.4 [1]
  7
SLDTEXTSTYLE0
 11
-3.356894814614647E-15
 21
1.0
 31
0.0
 73
     1
 44
1.0
  0
POINT
  5
103
330
F9
100
AcDbEntity
  8
Defpoints
 62
     0
100
AcDbPoint
 10
59.62499999999999
 20
-12.7
 30
0.0
  0
POINT
  5
104
330
F9
100
AcDbEntity
  8
Defpoints
 62
     0
100
AcDbPoint
 10
59.62500001395789
 20
12.7
 30
0.0
  0
POINT
  5
105
330
F9
100
AcDbEntity
  8
Defpoints
 62
     0
100
AcDbPoint
 10
78.62500000000009
 20
12.70000000000008
 30
0.0
  0
ENDBLK
  5
FB
330
F9
100
AcDbEntity
  8
0
100
AcDbBlockEnd
  0
BLOCK
  5
113
330
112
100
AcDbEntity
  8
0
100
AcDbBlockBegin
  2
SW_DOWELSYMBOL_0
 70
     0
 10
0.0
 20
0.0
 30
0.0
  3
SW_DOWELSYMBOL_0
  1
SW_DOWELSYMBOL_0
  0
CIRCLE
  5
115
330
112
100
AcDbEntity
  8
해칭선
 62
     0
100
AcDbCircle
 10
0.0
 20
0.0
 30
0.0
 40
3.000000000000001
  0
HATCH
  5
116
330
112
100
AcDbEntity
  8
0
  6
Continuous
 62
     0
370
     0
100
AcDbHatch
 10
0.0
 20
0.0
 30
0.0
210
0.0
220
0.0
230
1.0
  2
SOLID
 70
     1
 71
     0
 91
        1
 92
        0
 93
        3
 72
     2
 10
0.0
 20
0.0
 40
3.000000000000001
 50
0.0
 51
90.0
 73
     1
 72
     1
 10
0.0
 20
3.000000000000001
 11
0.0
 21
0.0
 72
     1
 10
0.0
 20
0.0
 11
3.000000000000001
 21
0.0
 97
        0
 75
     0
 76
     1
 98
        1
 10
0.0
 20
0.0
  0
HATCH
  5
117
330
112
100
AcDbEntity
  8
0
  6
Continuous
 62
     0
370
     0
100
AcDbHatch
 10
0.0
 20
0.0
 30
0.0
210
0.0
220
0.0
230
1.0
  2
SOLID
 70
     1
 71
     0
 91
        1
 92
        0
 93
        3
 72
     2
 10
0.0
 20
0.0
 40
3.000000000000001
 50
180.0
 51
270.0000000000007
 73
     1
 72
     1
 10
0.0
 20
-3.000000000000001
 11
0.0
 21
0.0
 72
     1
 10
0.0
 20
0.0
 11
-3.000000000000001
 21
0.0
 97
        0
 75
     0
 76
     1
 98
        1
 10
0.0
 20
0.0
  0
ENDBLK
  5
114
330
112
100
AcDbEntity
  8
0
100
AcDbBlockEnd
  0
BLOCK
  5
1C7
330
1C6
100
AcDbEntity
  8
0
100
AcDbBlockBegin
  2
*D7
 70
     1
 10
0.0
 20
0.0
 30
0.0
  3
*D7
  1
*D8
  0
LINE
  5
1C8
330
1C6
100
AcDbEntity
  8
0
  6
Continuous
 62
     0
370
    -2
100
AcDbLine
 10
17.81250000000006
 20
59.49680738881175
 30
0.0
 11
4.37500000000001
 21
59.4968073888117
 31
0.0
  0
LINE
  5
1C9
330
1C6
100
AcDbEntity
  8
0
  6
Continuous
 62
     0
370
    -2
100
AcDbLine
 10
17.81250000000006
 20
40.44680738881174
 30
0.0
 11
4.375000000000076
 21
40.44680738881169
 31
0.0
  0
LINE
  5
1CA
330
1C6
100
AcDbEntity
  8
0
  6
Continuous
 62
     0
370
    -2
100
AcDbLine
 10
4.375000000000021
 20
56.1948073888117
 30
0.0
 11
4.375000000000065
 21
43.74880738881169
 31
0.0
  0
SOLID
  5
1CB
330
1C6
100
AcDbEntity
  8
0
 62
     0
100
AcDbTrace
 10
4.925333333333355
 20
56.1948073888117
 30
0.0
 11
3.824666666666688
 21
56.1948073888117
 31
0.0
 12
4.37500000000001
 22
59.4968073888117
 32
0.0
 13
4.37500000000001
 23
59.4968073888117
 33
0.0
  0
SOLID
  5
1CC
330
1C6
100
AcDbEntity
  8
0
 62
     0
100
AcDbTrace
 10
3.824666666666732
 20
43.74880738881169
 30
0.0
 11
4.925333333333398
 21
43.74880738881169
 31
0.0
 12
4.375000000000076
 22
40.44680738881169
 32
0.0
 13
4.375000000000076
 23
40.44680738881169
 33
0.0
  0
MTEXT
  5
1CD
330
1C6
100
AcDbEntity
  8
0
 62
     0
370
    15
100
AcDbMText
 10
0.0000000000000426
 20
49.97180738881174
 30
0.0
 40
3.5
 41
0.0
 71
     2
 72
     1
  1
\A1;%%c19.05 [3/4]
  7
SLDTEXTSTYLE0
 11
-3.496765431890255E-15
 21
1.0
 31
0.0
 73
     1
 44
1.0
  0
POINT
  5
1CE
330
1C6
100
AcDbEntity
  8
Defpoints
 62
     0
100
AcDbPoint
 10
17.87500000000006
 20
59.49680738881175
 30
0.0
  0
POINT
  5
1CF
330
1C6
100
AcDbEntity
  8
Defpoints
 62
     0
100
AcDbPoint
 10
17.87500000000006
 20
40.44680738881174
 30
0.0
  0
POINT
  5
1D0
330
1C6
100
AcDbEntity
  8
Defpoints
 62
     0
100
AcDbPoint
 10
4.375000000000078
 20
40.44680738881169
 30
0.0
  0
ENDBLK
  5
1D1
330
1C6
100
AcDbEntity
  8
0
100
AcDbBlockEnd
  0
BLOCK
  5
1D4
330
1D3
100
AcDbEntity
  8
0
100
AcDbBlockBegin
  2
*D8
 70
     1
 10
0.0
 20
0.0
 30
0.0
  3
*D8
  1
*D9
  0
LINE
  5
1D5
330
1D3
100
AcDbEntity
  8
0
  6
Continuous
 62
     0
370
    -2
100
AcDbLine
 10
121.65
 20
61.14680738881175
 30
0.0
 11
121.65
 21
89.5359987336297
 31
0.0
  0
LINE
  5
1D6
330
1D3
100
AcDbEntity
  8
0
  6
Continuous
 62
     0
370
    -2
100
AcDbLine
 10
16.87500000000006
 20
58.55930738881174
 30
0.0
 11
16.87500000000006
 21
89.5359987336297
 31
0.0
  0
LINE
  5
1D7
330
1D3
100
AcDbEntity
  8
0
  6
Continuous
 62
     0
370
    -2
100
AcDbLine
 10
118.348
 20
89.5359987336297
 30
0.0
 11
20.17700000000006
 21
89.5359987336297
 31
0.0
  0
SOLID
  5
1D8
330
1D3
100
AcDbEntity
  8
0
 62
     0
100
AcDbTrace
 10
118.348
 20
88.98566540029637
 30
0.0
 11
118.348
 21
90.08633206696302
 31
0.0
 12
121.65
 22
89.5359987336297
 32
0.0
 13
121.65
 23
89.5359987336297
 33
0.0
  0
SOLID
  5
1D9
330
1D3
100
AcDbEntity
  8
0
 62
     0
100
AcDbTrace
 10
20.17700000000006
 20
90.08633206696302
 30
0.0
 11
20.17700000000006
 21
88.98566540029637
 31
0.0
 12
16.87500000000006
 22
89.5359987336297
 32
0.0
 13
16.87500000000006
 23
89.5359987336297
 33
0.0
  0
MTEXT
  5
1DA
330
1D3
100
AcDbEntity
  8
0
 62
     0
370
    15
100
AcDbMText
 10
66.08749999999992
 20
93.9109987336297
 30
0.0
 40
3.5
 41
0.0
 71
     2
 72
     1
  1
\A1;104.78 [4 1/8]
  7
SLDTEXTSTYLE0
 73
     1
 44
1.0
  0
POINT
  5
1DB
330
1D3
100
AcDbEntity
  8
Defpoints
 62
     0
100
AcDbPoint
 10
121.65
 20
61.08430738881175
 30
0.0
  0
POINT
  5
1DC
330
1D3
100
AcDbEntity
  8
Defpoints
 62
     0
100
AcDbPoint
 10
16.87500000000006
 20
58.49680738881174
 30
0.0
  0
POINT
  5
1DD
330
1D3
100
AcDbEntity
  8
Defpoints
 62
     0
100
AcDbPoint
 10
16.87500000000006
 20
89.5359987336297
 30
0.0
  0
ENDBLK
  5
1DE
330
1D3
100
AcDbEntity
  8
0
100
AcDbBlockEnd
  0
BLOCK
  5
1EB
330
1EA
100
AcDbEntity
  8
0
100
AcDbBlockBegin
  2
*D9
 70
     1
 10
0.0
 20
0.0
 30
0.0
  3
*D9
  1
*D10
  0
LINE
  5
1ED
330
1EA
100
AcDbEntity
  8
0
  6
Continuous
 62
     0
370
    -2
100
AcDbLine
 10
121.65
 20
61.14680738881175
 30
0.0
 11
121.65
 21
77.43331462330596
 31
0.0
  0
LINE
  5
1EE
330
1EA
100
AcDbEntity
  8
0
  6
Continuous
 62
     0
370
    -2
100
AcDbLine
 10
74.02500000000005
 20
60.48727385900965
 30
0.0
 11
74.02500000000005
 21
77.43331462330596
 31
0.0
  0
LINE
  5
1EF
330
1EA
100
AcDbEntity
  8
0
  6
Continuous
 62
     0
370
    -2
100
AcDbLine
 10
118.348
 20
77.43331462330596
 30
0.0
 11
77.32700000000006
 21
77.43331462330596
 31
0.0
  0
SOLID
  5
1F0
330
1EA
100
AcDbEntity
  8
0
 62
     0
100
AcDbTrace
 10
118.348
 20
76.88298128997263
 30
0.0
 11
118.348
 21
77.98364795663929
 31
0.0
 12
121.65
 22
77.43331462330596
 32
0.0
 13
121.65
 23
77.43331462330596
 33
0.0
  0
SOLID
  5
1F1
330
1EA
100
AcDbEntity
  8
0
 62
     0
100
AcDbTrace
 10
77.32700000000006
 20
77.98364795663929
 30
0.0
 11
77.32700000000006
 21
76.88298128997263
 31
0.0
 12
74.02500000000005
 22
77.43331462330596
 32
0.0
 13
74.02500000000005
 23
77.43331462330596
 33
0.0
  0
MTEXT
  5
1F2
330
1EA
100
AcDbEntity
  8
0
 62
     0
370
    15
100
AcDbMText
 10
97.58871550477076
 20
81.80831462330596
 30
0.0
 40
3.5
 41
0.0
 71
     2
 72
     1
  1
\A1;47.63 [1 7/8]
  7
SLDTEXTSTYLE0
 73
     1
 44
1.0
  0
POINT
  5
1F3
330
1EA
100
AcDbEntity
  8
Defpoints
 62
     0
100
AcDbPoint
 10
121.65
 20
61.08430738881175
 30
0.0
  0
POINT
  5
1F4
330
1EA
100
AcDbEntity
  8
Defpoints
 62
     0
100
AcDbPoint
 10
74.02500000000005
 20
60.42477385900965
 30
0.0
  0
POINT
  5
1F5
330
1EA
100
AcDbEntity
  8
Defpoints
 62
     0
100
AcDbPoint
 10
74.02500000000005
 20
77.43331462330596
 30
0.0
  0
ENDBLK
  5
1EC
330
1EA
100
AcDbEntity
  8
0
100
AcDbBlockEnd
  0
BLOCK
  5
1F7
330
1F6
100
AcDbEntity
  8
0
100
AcDbBlockBegin
  2
*D10
 70
     1
 10
0.0
 20
0.0
 30
0.0
  3
*D10
  1
*D11
  0
LINE
  5
1F9
330
1F6
100
AcDbEntity
  8
0
  6
Continuous
 62
     0
370
    -2
100
AcDbLine
 10
121.7125
 20
38.85930738881176
 30
0.0
 11
140.6500000000002
 21
38.85930738881183
 31
0.0
  0
LINE
  5
1FA
330
1F6
100
AcDbEntity
  8
0
  6
Continuous
 62
     0
370
    -2
100
AcDbLine
 10
121.7125
 20
61.08430738881177
 30
0.0
 11
140.6500000000001
 21
61.08430738881184
 31
0.0
  0
LINE
  5
1FB
330
1F6
100
AcDbEntity
  8
0
  6
Continuous
 62
     0
370
    -2
100
AcDbLine
 10
140.6500000000001
 20
61.08430738881184
 30
0.0
 11
140.65
 21
97.91241527305127
 31
0.0
  0
LINE
  5
1FC
330
1F6
100
AcDbEntity
  8
0
  6
Continuous
 62
     0
370
    -2
100
AcDbLine
 10
140.6500000000002
 20
42.16130738881183
 30
0.0
 11
140.6500000000001
 21
57.78230738881184
 31
0.0
  0
SOLID
  5
1FD
330
1F6
100
AcDbEntity
  8
0
 62
     0
100
AcDbTrace
 10
140.0996666666669
 20
42.16130738881183
 30
0.0
 11
141.2003333333335
 21
42.16130738881183
 31
0.0
 12
140.6500000000002
 22
38.85930738881183
 32
0.0
 13
140.6500000000002
 23
38.85930738881183
 33
0.0
  0
SOLID
  5
1FE
330
1F6
100
AcDbEntity
  8
0
 62
     0
100
AcDbTrace
 10
141.2003333333334
 20
57.78230738881184
 30
0.0
 11
140.0996666666668
 21
57.78230738881184
 31
0.0
 12
140.6500000000001
 22
61.08430738881184
 32
0.0
 13
140.6500000000001
 23
61.08430738881184
 33
0.0
  0
MTEXT
  5
1FF
330
1F6
100
AcDbEntity
  8
0
 62
     0
370
    15
100
AcDbMText
 10
136.275
 20
83.47491527305125
 30
0.0
 40
3.5
 41
0.0
 71
     2
 72
     1
  1
\A1;%%c22.23 [7/8]
  7
SLDTEXTSTYLE0
 11
-3.836451216702452E-15
 21
1.0
 31
0.0
 73
     1
 44
1.0
  0
POINT
  5
200
330
1F6
100
AcDbEntity
  8
Defpoints
 62
     0
100
AcDbPoint
 10
121.65
 20
38.85930738881176
 30
0.0
  0
POINT
  5
201
330
1F6
100
AcDbEntity
  8
Defpoints
 62
     0
100
AcDbPoint
 10
121.65
 20
61.08430738881177
 30
0.0
  0
POINT
  5
202
330
1F6
100
AcDbEntity
  8
Defpoints
 62
     0
100
AcDbPoint
 10
140.6500000000001
 20
61.08430738881184
 30
0.0
  0
ENDBLK
  5
1F8
330
1F6
100
AcDbEntity
  8
0
100
AcDbBlockEnd
  0
BLOCK
  5
237
330
236
100
AcDbEntity
  8
0
100
AcDbBlockBegin
  2
*D11
 70
     1
 10
0.0
 20
0.0
 30
0.0
  3
*D11
  1
*D12
  0
LINE
  5
239
330
236
100
AcDbEntity
  8
0
  6
Continuous
 62
     0
370
    -2
100
AcDbLine
 10
215.0426785649888
 20
-39.5662405096641
 30
0.0
 11
215.0426785649888
 21
-23.27973327516989
 31
0.0
  0
LINE
  5
23A
330
236
100
AcDbEntity
  8
0
  6
Continuous
 62
     0
370
    -2
100
AcDbLine
 10
167.4176785649888
 20
-40.2257740394662
 30
0.0
 11
167.4176785649888
 21
-23.27973327516989
 31
0.0
  0
LINE
  5
23B
330
236
100
AcDbEntity
  8
0
  6
Continuous
 62
     0
370
    -2
100
AcDbLine
 10
211.7406785649888
 20
-23.27973327516989
 30
0.0
 11
170.7196785649888
 21
-23.27973327516989
 31
0.0
  0
SOLID
  5
23C
330
236
100
AcDbEntity
  8
0
 62
     0
100
AcDbTrace
 10
211.7406785649888
 20
-23.83006660850322
 30
0.0
 11
211.7406785649888
 21
-22.72939994183655
 31
0.0
 12
215.0426785649888
 22
-23.27973327516989
 32
0.0
 13
215.0426785649888
 23
-23.27973327516989
 33
0.0
  0
SOLID
  5
23D
330
236
100
AcDbEntity
  8
0
 62
     0
100
AcDbTrace
 10
170.7196785649888
 20
-22.72939994183655
 30
0.0
 11
170.7196785649888
 21
-23.83006660850322
 31
0.0
 12
167.4176785649888
 22
-23.27973327516989
 32
0.0
 13
167.4176785649888
 23
-23.27973327516989
 33
0.0
  0
MTEXT
  5
23E
330
236
100
AcDbEntity
  8
0
 62
     0
370
    15
100
AcDbMText
 10
190.9813940697595
 20
-18.90473327516989
 30
0.0
 40
3.5
 41
0.0
 71
     2
 72
     1
  1
\A1;47.63 [1 7/8]
  7
SLDTEXTSTYLE0
 73
     1
 44
1.0
  0
POINT
  5
23F
330
236
100
AcDbEntity
  8
Defpoints
 62
     0
100
AcDbPoint
 10
215.0426785649888
 20
-39.6287405096641
 30
0.0
  0
POINT
  5
240
330
236
100
AcDbEntity
  8
Defpoints
 62
     0
100
AcDbPoint
 10
167.4176785649888
 20
-40.2882740394662
 30
0.0
  0
POINT
  5
241
330
236
100
AcDbEntity
  8
Defpoints
 62
     0
100
AcDbPoint
 10
167.4176785649888
 20
-23.27973327516989
 30
0.0
  0
ENDBLK
  5
238
330
236
100
AcDbEntity
  8
0
100
AcDbBlockEnd
  0
BLOCK
  5
243
330
242
100
AcDbEntity
  8
0
100
AcDbBlockBegin
  2
*D12
 70
     1
 10
0.0
 20
0.0
 30
0.0
  3
*D12
  1
*D13
  0
LINE
  5
245
330
242
100
AcDbEntity
  8
0
  6
Continuous
 62
     0
370
    -2
100
AcDbLine
 10
215.1051785649888
 20
-61.85374050966409
 30
0.0
 11
234.042678564989
 21
-61.85374050966402
 31
0.0
  0
LINE
  5
246
330
242
100
AcDbEntity
  8
0
  6
Continuous
 62
     0
370
    -2
100
AcDbLine
 10
215.1051785649888
 20
-39.62874050966408
 30
0.0
 11
234.0426785649889
 21
-39.62874050966401
 31
0.0
  0
LINE
  5
247
330
242
100
AcDbEntity
  8
0
  6
Continuous
 62
     0
370
    -2
100
AcDbLine
 10
234.0426785649889
 20
-39.62874050966401
 30
0.0
 11
234.0426785649888
 21
-2.800632625424583
 31
0.0
  0
LINE
  5
248
330
242
100
AcDbEntity
  8
0
  6
Continuous
 62
     0
370
    -2
100
AcDbLine
 10
234.042678564989
 20
-58.55174050966402
 30
0.0
 11
234.0426785649889
 21
-42.93074050966401
 31
0.0
  0
SOLID
  5
249
330
242
100
AcDbEntity
  8
0
 62
     0
100
AcDbTrace
 10
233.4923452316557
 20
-58.55174050966402
 30
0.0
 11
234.5930118983223
 21
-58.55174050966402
 31
0.0
 12
234.042678564989
 22
-61.85374050966402
 32
0.0
 13
234.042678564989
 23
-61.85374050966402
 33
0.0
  0
SOLID
  5
24A
330
242
100
AcDbEntity
  8
0
 62
     0
100
AcDbTrace
 10
234.5930118983222
 20
-42.93074050966401
 30
0.0
 11
233.4923452316556
 21
-42.93074050966401
 31
0.0
 12
234.0426785649889
 22
-39.62874050966401
 32
0.0
 13
234.0426785649889
 23
-39.62874050966401
 33
0.0
  0
MTEXT
  5
24B
330
242
100
AcDbEntity
  8
0
 62
     0
370
    15
100
AcDbMText
 10
229.6676785649888
 20
-17.2381326254246
 30
0.0
 40
3.5
 41
0.0
 71
     2
 72
     1
  1
\A1;%%c22.23 [7/8]
  7
SLDTEXTSTYLE0
 11
-3.836451216702452E-15
 21
1.0
 31
0.0
 73
     1
 44
1.0
  0
POINT
  5
24C
330
242
100
AcDbEntity
  8
Defpoints
 62
     0
100
AcDbPoint
 10
215.0426785649888
 20
-61.85374050966409
 30
0.0
  0
POINT
  5
24D
330
242
100
AcDbEntity
  8
Defpoints
 62
     0
100
AcDbPoint
 10
215.0426785649888
 20
-39.62874050966408
 30
0.0
  0
POINT
  5
24E
330
242
100
AcDbEntity
  8
Defpoints
 62
     0
100
AcDbPoint
 10
234.0426785649889
 20
-39.62874050966401
 30
0.0
  0
ENDBLK
  5
244
330
242
100
AcDbEntity
  8
0
100
AcDbBlockEnd
  0
BLOCK
  5
250
330
24F
100
AcDbEntity
  8
0
100
AcDbBlockBegin
  2
*D13
 70
     1
 10
0.0
 20
0.0
 30
0.0
  3
*D13
  1
*D14
  0
LINE
  5
252
330
24F
100
AcDbEntity
  8
0
  6
Continuous
 62
     0
370
    -2
100
AcDbLine
 10
-44.21249999999999
 20
9.525000000000006
 30
0.0
 11
-57.65000000000003
 21
9.524999999999956
 31
0.0
  0
LINE
  5
253
330
24F
100
AcDbEntity
  8
0
  6
Continuous
 62
     0
370
    -2
100
AcDbLine
 10
-44.21249999999999
 20
-9.525000000000006
 30
0.0
 11
-57.64999999999997
 21
-9.525000000000055
 31
0.0
  0
LINE
  5
254
330
24F
100
AcDbEntity
  8
0
  6
Continuous
 62
     0
370
    -2
100
AcDbLine
 10
-57.65000000000002
 20
6.222999999999956
 30
0.0
 11
-57.64999999999998
 21
-6.223000000000056
 31
0.0
  0
SOLID
  5
255
330
24F
100
AcDbEntity
  8
0
 62
     0
100
AcDbTrace
 10
-57.09966666666669
 20
6.222999999999958
 30
0.0
 11
-58.20033333333335
 21
6.222999999999955
 31
0.0
 12
-57.65000000000003
 22
9.524999999999956
 32
0.0
 13
-57.65000000000003
 23
9.524999999999956
 33
0.0
  0
SOLID
  5
256
330
24F
100
AcDbEntity
  8
0
 62
     0
100
AcDbTrace
 10
-58.20033333333332
 20
-6.223000000000058
 30
0.0
 11
-57.09966666666665
 21
-6.223000000000054
 31
0.0
 12
-57.64999999999997
 22
-9.525000000000055
 32
0.0
 13
-57.64999999999997
 23
-9.525000000000055
 33
0.0
  0
MTEXT
  5
257
330
24F
100
AcDbEntity
  8
0
 62
     0
370
    15
100
AcDbMText
 10
-62.02500000000001
 20
-0.0000000000000074
 30
0.0
 40
3.5
 41
0.0
 71
     2
 72
     1
  1
\A1;%%c19.05 [3/4]
  7
SLDTEXTSTYLE0
 11
-3.356894814614645E-15
 21
1.0
 31
0.0
 73
     1
 44
1.0
  0
POINT
  5
258
330
24F
100
AcDbEntity
  8
Defpoints
 62
     0
100
AcDbPoint
 10
-44.14999999999999
 20
9.525000000000006
 30
0.0
  0
POINT
  5
259
330
24F
100
AcDbEntity
  8
Defpoints
 62
     0
100
AcDbPoint
 10
-44.14999999999999
 20
-9.525000000000006
 30
0.0
  0
POINT
  5
25A
330
24F
100
AcDbEntity
  8
Defpoints
 62
     0
100
AcDbPoint
 10
-57.64999999999996
 20
-9.525000000000055
 30
0.0
  0
ENDBLK
  5
251
330
24F
100
AcDbEntity
  8
0
100
AcDbBlockEnd
  0
BLOCK
  5
25C
330
25B
100
AcDbEntity
  8
0
100
AcDbBlockBegin
  2
*D14
 70
     1
 10
0.0
 20
0.0
 30
0.0
  3
*D14
  1
*D15
  0
LINE
  5
25E
330
25B
100
AcDbEntity
  8
0
  6
Continuous
 62
     0
370
    -2
100
AcDbLine
 10
59.62500001395789
 20
12.7625
 30
0.0
 11
59.62500001395789
 21
39.56419134481794
 31
0.0
  0
LINE
  5
25F
330
25B
100
AcDbEntity
  8
0
  6
Continuous
 62
     0
370
    -2
100
AcDbLine
 10
-45.14999999999999
 20
8.587499999999991
 30
0.0
 11
-45.14999999999999
 21
39.56419134481794
 31
0.0
  0
LINE
  5
260
330
25B
100
AcDbEntity
  8
0
  6
Continuous
 62
     0
370
    -2
100
AcDbLine
 10
56.32300001395789
 20
39.56419134481794
 30
0.0
 11
-41.84799999999999
 21
39.56419134481794
 31
0.0
  0
SOLID
  5
261
330
25B
100
AcDbEntity
  8
0
 62
     0
100
AcDbTrace
 10
56.32300001395789
 20
39.01385801148461
 30
0.0
 11
56.32300001395789
 21
40.11452467815128
 31
0.0
 12
59.62500001395789
 22
39.56419134481794
 32
0.0
 13
59.62500001395789
 23
39.56419134481794
 33
0.0
  0
SOLID
  5
262
330
25B
100
AcDbEntity
  8
0
 62
     0
100
AcDbTrace
 10
-41.84799999999999
 20
40.11452467815128
 30
0.0
 11
-41.84799999999999
 21
39.01385801148461
 31
0.0
 12
-45.14999999999999
 22
39.56419134481794
 32
0.0
 13
-45.14999999999999
 23
39.56419134481794
 33
0.0
  0
MTEXT
  5
263
330
25B
100
AcDbEntity
  8
0
 62
     0
370
    15
100
AcDbMText
 10
4.062499999999886
 20
43.93919134481794
 30
0.0
 40
3.5
 41
0.0
 71
     2
 72
     1
  1
\A1;104.78 [4 1/8]
  7
SLDTEXTSTYLE0
 73
     1
 44
1.0
  0
POINT
  5
264
330
25B
100
AcDbEntity
  8
Defpoints
 62
     0
100
AcDbPoint
 10
59.62500001395789
 20
12.7
 30
0.0
  0
POINT
  5
265
330
25B
100
AcDbEntity
  8
Defpoints
 62
     0
100
AcDbPoint
 10
-45.14999999999999
 20
8.524999999999991
 30
0.0
  0
POINT
  5
266
330
25B
100
AcDbEntity
  8
Defpoints
 62
     0
100
AcDbPoint
 10
-45.14999999999999
 20
39.56419134481794
 30
0.0
  0
ENDBLK
  5
25D
330
25B
100
AcDbEntity
  8
0
100
AcDbBlockEnd
  0
ENDSEC
  0
SECTION
  2
ENTITIES
  0
SPLINE
  5
96
330
1F
100
AcDbEntity
  8
0
  6
Continuous
 62
     1
370
    15
100
AcDbSpline
210
0.0
220
0.0
230
1.0
 70
     8
 71
     3
 72
    19
 73
    15
 74
     0
 42
0.000000001
 43
0.00000001
 40
0.0
 40
0.0
 40
0.0
 40
0.0
 40
0.1106418020674654
 40
0.211622267183968
 40
0.3016626550665927
 40
0.372373191898214
 40
0.4425319878603553
 40
0.5242193419547362
 40
0.6075344566568338
 40
0.6701523988149144
 40
0.715522668623527
 40
0.7853246515192497
 40
0.8801840591827456
 40
1.0
 40
1.0
 40
1.0
 40
1.0
 10
26.72247746760646
 20
3.254352336302311
 30
0.0
 10
26.60352939563488
 20
3.310214035908122
 30
0.0
 10
26.37601989924727
 20
3.41705954364961
 30
0.0
 10
26.01161903420408
 20
3.59156768327824
 30
0.0
 10
25.6865048944246
 20
3.749301676292231
 30
0.0
 10
25.4101725589545
 20
3.884656528304381
 30
0.0
 10
25.1553923146442
 20
4.010636235474081
 30
0.0
 10
24.8778861677728
 20
4.149109849728331
 30
0.0
 10
24.61006013635207
 20
4.284170397260312
 30
0.0
 10
24.38489046453552
 20
4.398750063861252
 30
0.0
 10
24.17564714352499
 20
4.505934514081346
 30
0.0
 10
23.92829311847674
 20
4.633566125224537
 30
0.0
 10
23.59330206092463
 20
4.808001549604271
 30
0.0
 10
23.34059634960369
 20
4.941820289889446
 30
0.0
 10
23.19955466612168
 20
5.016508037596472
 30
0.0
  0
SPLINE
  5
97
330
1F
100
AcDbEntity
  8
0
  6
Continuous
 62
     1
370
    15
100
AcDbSpline
210
0.0
220
0.0
230
1.0
 70
     8
 71
     3
 72
    29
 73
    25
 74
     0
 42
0.000000001
 43
0.00000001
 40
0.0
 40
0.0
 40
0.0
 40
0.0
 40
0.0736659913137919
 40
0.1337614546992583
 40
0.1752827947048787
 40
0.2063447751722823
 40
0.2277038762434823
 40
0.2472948761800597
 40
0.2677932745229442
 40
0.311227381935256
 40
0.3583670609470524
 40
0.4176454148538764
 40
0.4784715941586683
 40
0.5315018001194474
 40
0.5870506157243258
 40
0.6538015605925657
 40
0.7226246787931248
 40
0.7879791251222875
 40
0.8178047289921557
 40
0.844569337936729
 40
0.8724887270457211
 40
0.9113057803908571
 40
0.9614015021560937
 40
0.9999999999999999
 40
0.9999999999999999
 40
0.9999999999999999
 40
0.9999999999999999
 10
22.5249044929601
 20
10.09191476709971
 30
0.0
 10
22.27525589643657
 20
10.07899790526304
 30
0.0
 10
21.82194821891723
 20
10.05554368712778
 30
0.0
 10
21.22467459019744
 20
10.02882562235983
 30
0.0
 10
20.76953546209084
 20
10.01029790640501
 30
0.0
 10
20.44423157571319
 20
9.998162847533193
 30
0.0
 10
20.1924865040975
 20
9.989420781960272
 30
0.0
 10
19.97797197965292
 20
9.982204334491298
 30
0.0
 10
19.68814129770521
 20
9.972941173246358
 30
0.0
 10
19.31314093376035
 20
9.962096353355928
 30
0.0
 10
18.81329543129691
 20
9.949251858618062
 30
0.0
 10
18.23689477610288
 20
9.937224264514825
 30
0.0
 10
17.63531645877186
 20
9.927993879102932
 30
0.0
 10
17.04995101237603
 20
9.921730959412681
 30
0.0
 10
16.44810474727667
 20
9.91812622192333
 30
0.0
 10
15.79204874584916
 20
9.91764124781827
 30
0.0
 10
15.09683592052529
 20
9.92121450504306
 30
0.0
 10
14.52722638004422
 20
9.92730070923402
 30
0.0
 10
14.10815604695158
 20
9.933624204200756
 30
0.0
 10
13.82104376066958
 20
9.938733029954555
 30
0.0
 10
13.50642313191581
 20
9.945039184820484
 30
0.0
 10
13.10727662676574
 20
9.954133641123324
 30
0.0
 10
12.6710664046324
 20
9.965406299408068
 30
0.0
 10
12.3665916938043
 20
9.97519211207837
 30
0.0
 10
12.23408851015589
 20
9.97945076242695
 30
0.0
  0
SPLINE
  5
98
330
1F
100
AcDbEntity
  8
0
  6
Continuous
 62
     1
370
    15
100
AcDbSpline
210
0.0
220
0.0
230
1.0
 70
     8
 71
     3
 72
    51
 73
    47
 74
     0
 42
0.000000001
 43
0.00000001
 40
0.0
 40
0.0
 40
0.0
 40
0.0
 40
0.0251304554120967
 40
0.045871718815954
 40
0.0630205807763942
 40
0.0784214689886416
 40
0.0934927322207537
 40
0.1082946205363765
 40
0.1229124337012052
 40
0.1374389873598833
 40
0.1650675508725597
 40
0.1915961465625966
 40
0.2141473208478931
 40
0.2353243230494672
 40
0.2584438712364099
 40
0.2859735342434132
 40
0.3276900014993069
 40
0.3686412715469786
 40
0.4082873673642681
 40
0.4441750947362377
 40
0.4761027509456631
 40
0.493764162445822
 40
0.5110571914513645
 40
0.529098642723799
 40
0.5481323919543825
 40
0.5715194220249701
 40
0.6005594527537729
 40
0.6307785360069598
 40
0.6585032608827301
 40
0.6831516548145425
 40
0.7042434673355012
 40
0.7221327248708148
 40
0.7413769825370259
 40
0.7599729121161679
 40
0.7793469542858523
 40
0.8004899327032016
 40
0.8219469392797247
 40
0.8320964557596485
 40
0.8419713970366399
 40
0.8516715147103501
 40
0.8619422918063806
 40
0.8755769546921109
 40
0.8978724183623028
 40
0.9260176636940585
 40
0.9600182048335142
 40
1.0
 40
1.0
 40
1.0
 40
1.0
 10
54.90652672117563
 20
8.686197787739601
 30
0.0
 10
54.77110220950788
 20
8.673938140388593
 30
0.0
 10
54.52390592841617
 20
8.651560070160802
 30
0.0
 10
54.1248583180848
 20
8.613870984345128
 30
0.0
 10
53.73623755651013
 20
8.582295037649361
 30
0.0
 10
53.36290306162928
 20
8.560031668573792
 30
0.0
 10
53.02450628619827
 20
8.54140960847169
 30
0.0
 10
52.68244874109727
 20
8.521315162073222
 30
0.0
 10
52.34421781937396
 20
8.501825954945485
 30
0.0
 10
51.90785256394267
 20
8.477586146499204
 30
0.0
 10
51.38245185718582
 20
8.450991679770631
 30
0.0
 10
50.81630341750409
 20
8.426774190111727
 30
0.0
 10
50.30333566279135
 20
8.407885116359218
 30
0.0
 10
49.80567598457144
 20
8.392230306570275
 30
0.0
 10
49.26891777156245
 20
8.378425338204838
 30
0.0
 10
48.5789265845634
 20
8.36517034392735
 30
0.0
 10
47.75577379907501
 20
8.35679799707149
 30
0.0
 10
46.84274309578251
 20
8.357317933059054
 30
0.0
 10
45.97263409873093
 20
8.366892074321614
 30
0.0
 10
45.17015368288505
 20
8.383610133274043
 30
0.0
 10
44.53176850090052
 20
8.402544602314176
 30
0.0
 10
44.03231760896757
 20
8.420515844416139
 30
0.0
 10
43.63661819109782
 20
8.436520721132446
 30
0.0
 10
43.23063322199523
 20
8.454769290084272
 30
0.0
 10
42.7791429758222
 20
8.477195923591761
 30
0.0
 10
42.24543257567506
 20
8.506591979158848
 30
0.0
 10
41.62813678825825
 20
8.544730465791977
 30
0.0
 10
40.97846334018191
 20
8.589801554384188
 30
0.0
 10
40.36186887630733
 20
8.636915937617498
 30
0.0
 10
39.81346722925716
 20
8.6823266407014
 30
0.0
 10
39.33815646266282
 20
8.724329118315646
 30
0.0
 10
38.90272595603841
 20
8.764877985050395
 30
0.0
 10
38.48676028968332
 20
8.805498392367058
 30
0.0
 10
38.05783880703245
 20
8.849361065084008
 30
0.0
 10
37.6246267223642
 20
8.895747746720126
 30
0.0
 10
37.19432736518132
 20
8.943187650809659
 30
0.0
 10
36.82680421203305
 20
8.984425747174356
 30
0.0
 10
36.51880807838528
 20
9.020951543677405
 30
0.0
 10
36.29410590571761
 20
9.048487014403946
 30
0.0
 10
36.06577939534632
 20
9.077344099841012
 30
0.0
 10
35.80877972080972
 20
9.11049877062483
 30
0.0
 10
35.45643265964648
 20
9.156176971255265
 30
0.0
 10
34.97154148514947
 20
9.220817593124673
 30
0.0
 10
34.33636373397376
 20
9.309061916345174
 30
0.0
 10
33.57154646727889
 20
9.420256131026306
 30
0.0
 10
33.01895027555658
 20
9.505849992743709
 30
0.0
 10
32.72031429228812
 20
9.552106929433863
 30
0.0
  0
SPLINE
  5
99
330
1F
100
AcDbEntity
  8
0
  6
Continuous
 62
     1
370
    15
100
AcDbSpline
210
0.0
220
0.0
230
1.0
 70
     8
 71
     3
 72
    26
 73
    22
 74
     0
 42
0.000000001
 43
0.00000001
 40
0.0
 40
0.0
 40
0.0
 40
0.0
 40
0.063583910115642
 40
0.1189190225544293
 40
0.1659766045333176
 40
0.209288593503327
 40
0.2422230076358778
 40
0.2649100703989828
 40
0.2842863584017712
 40
0.3052917571580561
 40
0.3279620832763391
 40
0.3523258819004672
 40
0.4266524432947589
 40
0.5081627419528653
 40
0.6062711519662359
 40
0.6946652625734513
 40
0.7672926973806556
 40
0.8352006790491607
 40
0.906054976383306
 40
0.9817732010816794
 40
1.0
 40
1.0
 40
1.0
 40
1.0
 10
32.72031429228812
 20
-9.552106929433869
 30
0.0
 10
32.91728718352618
 20
-9.52142533701306
 30
0.0
 10
33.28567949619065
 20
-9.464042502669276
 30
0.0
 10
33.80101496516215
 20
-9.38697817734289
 30
0.0
 10
34.25483722266695
 20
-9.320867981867174
 30
0.0
 10
34.64131099752612
 20
-9.266293832073808
 30
0.0
 10
34.95397297126229
 20
-9.223359209652076
 30
0.0
 10
35.19494335022745
 20
-9.191084240855032
 30
0.0
 10
35.39797293574925
 20
-9.164258222926627
 30
0.0
 10
35.60018031416835
 20
-9.137833174671895
 30
0.0
 10
35.81752890510334
 20
-9.10986088972726
 30
0.0
 10
36.20322990875289
 20
-9.06108067259515
 30
0.0
 10
36.77086998887108
 20
-8.992033348658955
 30
0.0
 10
37.56611656273638
 20
-8.901234062728774
 30
0.0
 10
38.40312021082138
 20
-8.81280436435034
 30
0.0
 10
39.22059433859874
 20
-8.734352159802933
 30
0.0
 10
39.94058209200465
 20
-8.671246365842443
 30
0.0
 10
40.60480078533563
 20
-8.617683745786765
 30
0.0
 10
41.2794941629261
 20
-8.56857105720954
 30
0.0
 10
41.79810713781233
 20
-8.533306310285017
 30
0.0
 10
42.09376486295512
 20
-8.516665785766456
 30
0.0
 10
42.15112707009889
 20
-8.513437264631238
 30
0.0
  0
SPLINE
  5
9A
330
1F
100
AcDbEntity
  8
0
  6
Continuous
 62
     1
370
    15
100
AcDbSpline
210
0.0
220
0.0
230
1.0
 70
     8
 71
     3
 72
    31
 73
    27
 74
     0
 42
0.000000001
 43
0.00000001
 40
0.0
 40
0.0
 40
0.0
 40
0.0
 40
0.0574873701841404
 40
0.1049571906218379
 40
0.1423835214866773
 40
0.1697633824323296
 40
0.1941659373064624
 40
0.2212828292433231
 40
0.2511595840612874
 40
0.2838049314427525
 40
0.3367309795098376
 40
0.3895022097922638
 40
0.4386201655588521
 40
0.4803105560672007
 40
0.5307046075554722
 40
0.5885216526211448
 40
0.645201475830394
 40
0.6986626581003921
 40
0.7236630205112007
 40
0.7471980336531925
 40
0.7694830961348103
 40
0.7916106467032181
 40
0.8237949279758733
 40
0.8692163733771288
 40
0.927973977821579
 40
1.0
 40
1.0
 40
1.0
 40
1.0
 10
11.99999999999999
 20
-9.98676114389575
 30
0.0
 10
12.20186035897553
 20
-9.980216558374716
 30
0.0
 10
12.57040559087819
 20
-9.96826782410714
 30
0.0
 10
13.06883410566625
 20
-9.955073297489394
 30
0.0
 10
13.46114117578322
 20
-9.946017552388374
 30
0.0
 10
13.7690981131199
 20
-9.939741717791572
 30
0.0
 10
14.04202043331501
 20
-9.93474597505917
 30
0.0
 10
14.32772189079109
 20
-9.930238643818083
 30
0.0
 10
14.64406991202702
 20
-9.926100455331728
 30
0.0
 10
15.05385270121745
 20
-9.921926465989804
 30
0.0
 10
15.54421718733985
 20
-9.918701423333713
 30
0.0
 10
16.08936666126914
 20
-9.917634081747927
 30
0.0
 10
16.59349939486855
 20
-9.918926775852839
 30
0.0
 10
17.08939103512758
 20
-9.922173897892138
 30
0.0
 10
17.61916122780292
 20
-9.927807881195443
 30
0.0
 10
18.20509909473011
 20
-9.936687639819077
 30
0.0
 10
18.79766522797722
 20
-9.94883160799341
 30
0.0
 10
19.25892015855063
 20
-9.96067275682572
 30
0.0
 10
19.60971622276212
 20
-9.970668051394581
 30
0.0
 10
19.85912175305373
 20
-9.978333965937301
 30
0.0
 10
20.10123204833944
 20
-9.986309039521984
 30
0.0
 10
20.37511205681081
 20
-9.995691928402737
 30
0.0
 10
20.72940435737737
 20
-10.00868429015681
 30
0.0
 10
21.20780965391443
 20
-10.02807348262412
 30
0.0
 10
21.82196614498026
 20
-10.05554369090157
 30
0.0
 10
22.27526226271658
 20
-10.07899790660326
 30
0.0
 10
22.5249044929601
 20
-10.09191476709973
 30
0.0
  0
SPLINE
  5
9B
330
1F
100
AcDbEntity
  8
0
  6
Continuous
 62
     1
370
    15
100
AcDbSpline
210
0.0
220
0.0
230
1.0
 70
     8
 71
     3
 72
    56
 73
    52
 74
     0
 42
0.000000001
 43
0.00000001
 40
0.0
 40
0.0
 40
0.0
 40
0.0
 40
0.0625
 40
0.0625
 40
0.0937500000000001
 40
0.0937500000000001
 40
0.1250000000000003
 40
0.1250000000000003
 40
0.1875000000000006
 40
0.1875000000000006
 40
0.2187500000000008
 40
0.2187500000000008
 40
0.2500000000000009
 40
0.2500000000000009
 40
0.2812500000000011
 40
0.2812500000000011
 40
0.3125000000000013
 40
0.3125000000000013
 40
0.3750000000000014
 40
0.3750000000000014
 40
0.4062500000000015
 40
0.4062500000000015
 40
0.4375000000000016
 40
0.4375000000000016
 40
0.4687500000000016
 40
0.4687500000000016
 40
0.5000000000000017
 40
0.5000000000000017
 40
0.5625000000000016
 40
0.5625000000000016
 40
0.5937500000000016
 40
0.5937500000000016
 40
0.6250000000000016
 40
0.6250000000000016
 40
0.6875000000000013
 40
0.6875000000000013
 40
0.7500000000000011
 40
0.7500000000000011
 40
0.781250000000001
 40
0.781250000000001
 40
0.8125000000000009
 40
0.8125000000000009
 40
0.8750000000000006
 40
0.8750000000000006
 40
0.9062500000000004
 40
0.9062500000000004
 40
0.9375000000000003
 40
0.9375000000000003
 40
0.9687500000000002
 40
0.9687500000000002
 40
1.0
 40
1.0
 40
1.0
 40
1.0
 10
59.62499999999999
 20
-12.05154903924513
 30
0.0
 10
58.6361834392331
 20
-11.87104697245602
 30
0.0
 10
57.63904358796808
 20
-11.6531767790355
 30
0.0
 10
56.15128833109987
 20
-11.27462321806506
 30
0.0
 10
55.65746172818007
 20
-11.13993373849421
 30
0.0
 10
54.66507170126368
 20
-10.85334375487339
 30
0.0
 10
54.16774059639602
 20
-10.70153878940697
 30
0.0
 10
52.67745892614943
 20
-10.22212889767959
 30
0.0
 10
51.68928941301133
 20
-9.870926279284948
 30
0.0
 10
50.19849670872335
 20
-9.299579848440006
 30
0.0
 10
49.70137966849742
 20
-9.101850635004686
 30
0.0
 10
48.71018170590277
 20
-8.693225671739743
 30
0.0
 10
48.21608284956671
 20
-8.48234409111467
 30
0.0
 10
47.22322547968225
 20
-8.04729976446661
 30
0.0
 10
46.72585220724459
 20
-7.823324061669306
 30
0.0
 10
45.7326307287342
 20
-7.363998652995151
 30
0.0
 10
45.23802157320819
 20
-7.1288518428379
 30
0.0
 10
43.752253060889
 20
-6.407362355369816
 30
0.0
 10
42.75494311049464
 20
-5.90418205836755
 30
0.0
 10
41.26923273255699
 20
-5.126450027155186
 30
0.0
 10
40.7745894478835
 20
-4.863207948507753
 30
0.0
 10
39.78135071608854
 20
-4.32900161116311
 30
0.0
 10
39.28397853975063
 20
-4.058250629388377
 30
0.0
 10
38.29114278253462
 20
-3.511314236413471
 30
0.0
 10
37.79706426778948
 20
-3.235390825332606
 30
0.0
 10
36.80583187637369
 20
-2.678465981075303
 30
0.0
 10
36.30870727878447
 20
-2.397464136215733
 30
0.0
 10
34.81792113210024
 20
-1.549717013395932
 30
0.0
 10
33.82976297222265
 20
-0.9791782283970821
 30
0.0
 10
32.33946196860767
 20
-0.1199598806033171
 30
0.0
 10
31.84213415172114
 20
0.1668643435650925
 30
0.0
 10
30.84977009061117
 20
0.7393802861474048
 30
0.0
 10
30.35595003586115
 20
1.024838917483047
 30
0.0
 10
28.86814964180569
 20
1.879435589687497
 30
0.0
 10
27.87111276364246
 20
2.446132364894104
 30
0.0
 10
25.89338532484177
 20
3.558112016662209
 30
0.0
 10
24.89623685570285
 20
4.106463278424983
 30
0.0
 10
23.40852706600189
 20
4.906237808097332
 30
0.0
 10
22.9146932159427
 20
5.168925543194317
 30
0.0
 10
21.92227744361664
 20
5.686856460460293
 30
0.0
 10
21.4249431618094
 20
5.941871016380989
 30
0.0
 10
19.93468115678539
 20
6.692421684509283
 30
0.0
 10
18.94649970024106
 20
7.172998283587276
 30
0.0
 10
17.45570077058304
 20
7.860234626675125
 30
0.0
 10
16.95859139860249
 20
8.083504677234513
 30
0.0
 10
15.96742808434236
 20
8.516928536535215
 30
0.0
 10
15.47330818764731
 20
8.727107722813747
 30
0.0
 10
14.48042942583782
 20
9.134484781807847
 30
0.0
 10
13.98305516837337
 20
9.331476183864538
 30
0.0
 10
12.98985116416117
 20
9.710707846452497
 30
0.0
 10
12.49527543939225
 20
9.892802458985816
 30
0.0
 10
11.99999999999498
 20
10.06731288541648
 30
0.0
  0
SPLINE
  5
9C
330
1F
100
AcDbEntity
  8
0
  6
Continuous
 62
     1
370
    15
100
AcDbSpline
210
0.0
220
0.0
230
1.0
 70
     8
 71
     3
 72
    20
 73
    16
 74
     0
 42
0.000000001
 43
0.00000001
 40
0.0
 40
0.0
 40
0.0
 40
0.0
 40
0.0769928409915236
 40
0.1539142311855755
 40
0.2308744363727848
 40
0.3078936377378678
 40
0.3848247133482395
 40
0.4617619279226781
 40
0.5387852985408309
 40
0.6157357349413923
 40
0.6926596279134744
 40
0.7696649718770565
 40
0.8466444243776621
 40
0.9235646785683349
 40
1.0
 40
1.0
 40
1.0
 40
1.0
 10
59.625
 20
-10.01994775747634
 30
0.0
 10
58.78004788063904
 20
-9.852939086816505
 30
0.0
 10
57.09092777329838
 20
-9.519076732668996
 30
0.0
 10
54.5578118512697
 20
-8.855983448663062
 30
0.0
 10
52.0241116078704
 20
-8.085198159969195
 30
0.0
 10
49.48974686727216
 20
-7.205518854255788
 30
0.0
 10
46.95643210451897
 20
-6.229954823970433
 30
0.0
 10
44.42302474188439
 20
-5.171593541702908
 30
0.0
 10
41.88861423748747
 20
-4.046108336820851
 30
0.0
 10
39.35503199104407
 20
-2.865794755435736
 30
0.0
 10
36.8218491533633
 20
-1.6472195122129
 30
0.0
 10
34.28763933506724
 20
-0.4078586442443618
 30
0.0
 10
31.75371152543313
 20
0.8365309029906375
 30
0.0
 10
29.22653739960077
 20
2.070932152554685
 30
0.0
 10
27.54362911504511
 20
2.866150019476837
 30
0.0
 10
26.70483577383132
 20
3.262501655338351
 30
0.0
  0
LINE
  5
9D
330
1F
100
AcDbEntity
  8
0
  6
Continuous
 62
     1
370
    15
100
AcDbLine
 10
59.62499999999971
 20
-12.05154903924513
 30
0.0
 11
59.625
 21
-10.01994775747634
 31
0.0
  0
SPLINE
  5
9E
330
1F
100
AcDbEntity
  8
0
  6
Continuous
 62
     1
370
    15
100
AcDbSpline
210
0.0
220
0.0
230
1.0
 70
     8
 71
     3
 72
    56
 73
    52
 74
     0
 42
0.000000001
 43
0.00000001
 40
0.0
 40
0.0
 40
0.0
 40
0.0
 40
0.0312499999999999
 40
0.0312499999999999
 40
0.0624999999999999
 40
0.0624999999999999
 40
0.0937499999999998
 40
0.0937499999999998
 40
0.1249999999999998
 40
0.1249999999999998
 40
0.1874999999999997
 40
0.1874999999999997
 40
0.2187499999999997
 40
0.2187499999999997
 40
0.2499999999999997
 40
0.2499999999999997
 40
0.3124999999999996
 40
0.3124999999999996
 40
0.3749999999999994
 40
0.3749999999999994
 40
0.4062499999999993
 40
0.4062499999999993
 40
0.4374999999999991
 40
0.4374999999999991
 40
0.499999999999999
 40
0.499999999999999
 40
0.5312499999999991
 40
0.5312499999999991
 40
0.562499999999999
 40
0.562499999999999
 40
0.593749999999999
 40
0.593749999999999
 40
0.624999999999999
 40
0.624999999999999
 40
0.6874999999999989
 40
0.6874999999999989
 40
0.7187499999999991
 40
0.7187499999999991
 40
0.7499999999999992
 40
0.7499999999999992
 40
0.7812499999999993
 40
0.7812499999999993
 40
0.8124999999999996
 40
0.8124999999999996
 40
0.8749999999999998
 40
0.8749999999999998
 40
0.9062499999999999
 40
0.9062499999999999
 40
0.9375
 40
0.9375
 40
1.0
 40
1.0
 40
1.0
 40
1.0
 10
11.99999999999987
 20
7.537548759959338
 30
0.0
 10
12.49527543939708
 20
7.307153890770209
 30
0.0
 10
12.98985116416598
 20
7.071127415118865
 30
0.0
 10
13.98305516837808
 20
6.58799696319851
 30
0.0
 10
14.48042942584248
 20
6.341086571818646
 30
0.0
 10
15.47330818765186
 20
5.838273638902492
 30
0.0
 10
15.96742808434684
 20
5.582616682376377
 30
0.0
 10
16.95859139860688
 20
5.062686813279901
 30
0.0
 10
17.45570077058739
 20
4.798392144035881
 30
0.0
 10
18.94649970024525
 20
3.995208237446619
 30
0.0
 10
19.93468115678947
 20
3.446944735205104
 30
0.0
 10
21.42494316181334
 20
2.609829358058544
 30
0.0
 10
21.92227744362051
 20
2.328474013331602
 30
0.0
 10
22.91469321594648
 20
1.763064943563055
 30
0.0
 10
23.40852706600561
 20
1.479252648007778
 30
0.0
 10
24.89623685570643
 20
0.6238988321309605
 30
0.0
 10
25.89338532484525
 20
0.0489893228196181
 30
0.0
 10
27.87111276364571
 20
-1.094454516678555
 30
0.0
 10
28.86814964180886
 20
-1.66614475251176
 30
0.0
 10
30.35595003586416
 20
-2.511973167263237
 30
0.0
 10
30.84977009061412
 20
-2.791817489074571
 30
0.0
 10
31.84213415172399
 20
-3.347710899040737
 30
0.0
 10
32.33946196861049
 20
-3.623526252444149
 30
0.0
 10
33.8297629722253
 20
-4.441729068396074
 30
0.0
 10
34.8179211321028
 20
-4.974323438579438
 30
0.0
 10
36.30870727878687
 20
-5.749556921416485
 30
0.0
 10
36.80583187637605
 20
-6.003802629896843
 30
0.0
 10
37.79706426779172
 20
-6.502242390099689
 30
0.0
 10
38.29114278253682
 20
-6.746443688494844
 30
0.0
 10
39.28397853975274
 20
-7.224948483931366
 30
0.0
 10
39.78135071609056
 20
-7.459015748046403
 30
0.0
 10
40.77458944788544
 20
-7.915168684411337
 30
0.0
 10
41.26923273255889
 20
-8.137077743782886
 30
0.0
 10
42.75494311049637
 20
-8.78398059365322
 30
0.0
 10
43.75225306089065
 20
-9.190656318474494
 30
0.0
 10
45.23802157320966
 20
-9.755439701951145
 30
0.0
 10
45.7326307287356
 20
-9.936333910828466
 30
0.0
 10
46.72585220724591
 20
-10.28316390152795
 30
0.0
 10
47.22322547968353
 20
-10.44893996274305
 30
0.0
 10
48.21608284956789
 20
-10.7640820189988
 30
0.0
 10
48.71018170590386
 20
-10.91332126514919
 30
0.0
 10
49.70137966849845
 20
-11.19524950811473
 30
0.0
 10
50.19849670872433
 20
-11.32791943384975
 30
0.0
 10
51.68928941301214
 20
-11.69961214544477
 30
0.0
 10
52.67745892615019
 20
-11.91197852579442
 30
0.0
 10
54.16774059639658
 20
-12.17566964848386
 30
0.0
 10
54.66507170126417
 20
-12.25435894525721
 30
0.0
 10
55.6574617281805
 20
-12.39280313298008
 30
0.0
 10
56.15128833110022
 20
-12.45252664887763
 30
0.0
 10
57.63904358796829
 20
-12.60334472487239
 30
0.0
 10
58.6361834392332
 20
-12.66574572737604
 30
0.0
 10
59.62499999999999
 20
-12.7
 30
0.0
  0
SPLINE
  5
9F
330
1F
100
AcDbEntity
  8
0
  6
Continuous
 62
     1
370
    15
100
AcDbSpline
210
0.0
220
0.0
230
1.0
 70
     8
 71
     3
 72
    14
 73
    10
 74
     0
 42
0.000000001
 43
0.00000001
 40
0.0
 40
0.0
 40
0.0
 40
0.0
 40
0.0859503407370353
 40
0.243732648902954
 40
0.4013323799956696
 40
0.5509709094918847
 40
0.7007664583478013
 40
0.8503508659349974
 40
1.0
 40
1.0
 40
1.0
 40
1.0
 10
28.06831900167395
 20
-1.205034734983898
 30
0.0
 10
27.60796130370548
 20
-1.020986622453623
 30
0.0
 10
26.30250747761757
 20
-0.4990743925785008
 30
0.0
 10
24.1526269695811
 20
0.3722095543551793
 30
0.0
 10
21.66216166857686
 20
1.375486714371627
 30
0.0
 10
19.2143876011284
 20
2.344879894794908
 30
0.0
 10
16.80898306757797
 20
3.266669551246813
 30
0.0
 10
14.40427402683293
 20
4.155508816743204
 30
0.0
 10
12.80154023675709
 20
4.70360915611164
 30
0.0
 10
11.99999999999999
 20
4.977718604919877
 30
0.0
  0
SPLINE
  5
A0
330
1F
100
AcDbEntity
  8
외형선
  6
Continuous
370
    15
100
AcDbSpline
210
0.0
220
0.0
230
1.0
 70
    24
 71
     3
 72
    10
 73
     6
 74
     0
 42
0.000000001
 43
0.00000001
 40
0.0
 40
0.0
 40
0.0
 40
0.0
 40
0.5
 40
0.5
 40
1.0
 40
1.0
 40
1.0
 40
1.0
 10
12.0
 20
7.537548759959403
 30
0.0
 10
12.0
 20
7.316259266277975
 30
0.0
 10
12.0
 20
6.965113397966664
 30
0.0
 10
12.0
 20
6.07405157572749
 30
0.0
 10
12.0
 20
5.537238951506761
 30
0.0
 10
12.0
 20
4.977718604919877
 30
0.0
  0
LINE
  5
A1
330
1F
100
AcDbEntity
  8
외형선
  6
Continuous
370
    15
100
AcDbLine
 10
12.0
 20
7.537548759959407
 30
0.0
 11
12.0
 21
10.06731288540401
 31
0.0
  0
LINE
  5
A2
330
1F
100
AcDbEntity
  8
0
  6
Continuous
 62
     1
370
    15
100
AcDbLine
 10
59.62499999999999
 20
-12.7
 30
0.0
 11
59.62499999999995
 21
-12.05154903924512
 31
0.0
  0
SPLINE
  5
A3
330
1F
100
AcDbEntity
  8
0
  6
Continuous
 62
     1
370
    15
100
AcDbSpline
210
0.0
220
0.0
230
1.0
 70
     8
 71
     3
 72
    10
 73
     6
 74
     0
 42
0.000000001
 43
0.00000001
 40
0.0
 40
0.0
 40
0.0
 40
0.0
 40
0.5
 40
0.5
 40
1.0
 40
1.0
 40
1.0
 40
1.0
 10
59.625
 20
-3.393985414576485
 30
0.0
 10
58.77440223300545
 20
-2.725276500219905
 30
0.0
 10
57.93243926415032
 20
-2.038875865003506
 30
0.0
 10
56.26554037091924
 20
-0.6311881139455284
 30
0.0
 10
55.44060326807885
 20
0.0900965873561403
 30
0.0
 10
54.62500000000167
 20
0.8305052561804317
 30
0.0
  0
LINE
  5
A4
330
1F
100
AcDbEntity
  8
0
  6
Continuous
 62
     1
370
    15
100
AcDbLine
 10
54.625
 20
2.93771943529659
 30
0.0
 11
59.625
 21
0.000000000000004
 31
0.0
  0
LINE
  5
A5
330
1F
100
AcDbEntity
  8
0
  6
Continuous
 62
     1
370
    15
100
AcDbLine
 10
59.625
 20
0.000000000000004
 30
0.0
 11
59.625
 21
-3.393985414576485
 31
0.0
  0
SPLINE
  5
A6
330
1F
100
AcDbEntity
  8
0
  6
Continuous
 62
     1
370
    15
100
AcDbSpline
210
0.0
220
0.0
230
1.0
 70
     8
 71
     3
 72
    20
 73
    16
 74
     0
 42
0.000000001
 43
0.00000001
 40
0.0
 40
0.0
 40
0.0
 40
0.0
 40
0.079617175725982
 40
0.1592885139366766
 40
0.2388705490970379
 40
0.3177663814728037
 40
0.3967517989113732
 40
0.4756613776232879
 40
0.554543357797844
 40
0.6335100327206186
 40
0.7124497814376325
 40
0.7913279773649786
 40
0.8702592905583971
 40
0.9492327790063929
 40
1.0
 40
1.0
 40
1.0
 40
1.0
 10
54.62499999999999
 20
2.289784744250642
 30
0.0
 10
53.77305058352811
 20
2.670253436061025
 30
0.0
 10
52.06857218095224
 20
3.431449647372119
 30
0.0
 10
49.51199728167133
 20
4.517351073128783
 30
0.0
 10
46.96384912782089
 20
5.542846558284065
 30
0.0
 10
44.42301244112364
 20
6.490597310231403
 30
0.0
 10
41.88865074480453
 20
7.348655272032706
 30
0.0
 10
39.35505608525906
 20
8.110243232064196
 30
0.0
 10
36.8218448535755
 20
8.76438938500152
 30
0.0
 10
34.28766694409691
 20
9.301861455499504
 30
0.0
 10
31.75375634584169
 20
9.715972063388495
 30
0.0
 10
29.22064860070846
 20
10.00293729911328
 30
0.0
 10
26.68682994953874
 20
10.15168457010945
 30
0.0
 10
24.45348872560805
 20
10.18218529229016
 30
0.0
 10
23.06528515849626
 20
10.10618707694474
 30
0.0
 10
22.52208451176788
 20
10.07644916191277
 30
0.0
  0
SPLINE
  5
A7
330
1F
100
AcDbEntity
  8
0
  6
Continuous
 62
     1
370
    15
100
AcDbSpline
210
0.0
220
0.0
230
1.0
 70
    24
 71
     3
 72
     8
 73
     4
 74
     0
 42
0.000000001
 43
0.00000001
 40
0.0
 40
0.0
 40
0.0
 40
0.0
 40
1.0
 40
1.0
 40
1.0
 40
1.0
 10
54.625
 20
0.8305052561693558
 30
0.0
 10
54.625
 20
1.322728240362233
 30
0.0
 10
54.625
 20
1.810406971894848
 30
0.0
 10
54.625
 20
2.289784744250647
 30
0.0
  0
SPLINE
  5
A8
330
1F
100
AcDbEntity
  8
0
  6
Continuous
 62
     1
370
    15
100
AcDbSpline
210
0.0
220
0.0
230
1.0
 70
    24
 71
     3
 72
    12
 73
     8
 74
     0
 42
0.000000001
 43
0.00000001
 40
0.0
 40
0.0
 40
0.0
 40
0.0
 40
0.5000000000000003
 40
0.5000000000000003
 40
0.7500000000000001
 40
0.7500000000000001
 40
1.0
 40
1.0
 40
1.0
 40
1.0
 10
59.625
 20
-10.01994775747634
 30
0.0
 10
59.625
 20
-9.25184064034832
 30
0.0
 10
59.625
 20
-8.28130784561215
 30
0.0
 10
59.62500000000001
 20
-6.589011337313264
 30
0.0
 10
59.62500000000003
 20
-5.986484557406007
 30
0.0
 10
59.625
 20
-4.725678605577806
 30
0.0
 10
59.62499999999999
 20
-4.067494970664261
 30
0.0
 10
59.625
 20
-3.393985414576892
 30
0.0
  0
SPLINE
  5
A9
330
1F
100
AcDbEntity
  8
0
  6
Continuous
 62
     1
370
    15
100
AcDbSpline
210
0.0
220
0.0
230
1.0
 70
    24
 71
     3
 72
    10
 73
     6
 74
     0
 42
0.000000001
 43
0.00000001
 40
0.0
 40
0.0
 40
0.0
 40
0.0
 40
0.5000000000000001
 40
0.5000000000000001
 40
1.0
 40
1.0
 40
1.0
 40
1.0
 10
54.625
 20
2.28978474425064
 30
0.0
 10
54.62500000000001
 20
3.318117051978201
 30
0.0
 10
54.62500000000003
 20
4.293337801787544
 30
0.0
 10
54.62500000000001
 20
6.003026800807384
 30
0.0
 10
54.625
 20
6.735761112039309
 30
0.0
 10
54.62499999999999
 20
7.298596457508379
 30
0.0
  0
SPLINE
  5
AA
330
1F
100
AcDbEntity
  8
0
  6
Continuous
 62
     1
370
    15
100
AcDbSpline
210
0.0
220
0.0
230
1.0
 70
     8
 71
     3
 72
     9
 73
     5
 74
     0
 42
0.000000001
 43
0.00000001
 40
0.0
 40
0.0
 40
0.0
 40
0.0
 40
0.5370816996144533
 40
1.0
 40
1.0
 40
1.0
 40
1.0
 10
59.625
 20
8.889999999999997
 30
0.0
 10
58.78005933657214
 20
8.880845413800756
 30
0.0
 10
57.20685238494005
 20
8.863800360495437
 30
0.0
 10
55.6338809649272
 20
8.737688562633378
 30
0.0
 10
54.90572370861981
 20
8.679309103508507
 30
0.0
  0
SPLINE
  5
AB
330
1F
100
AcDbEntity
  8
0
  6
Continuous
 62
     1
370
    15
100
AcDbSpline
210
0.0
220
0.0
230
1.0
 70
     8
 71
     3
 72
     8
 73
     4
 74
     0
 42
0.000000001
 43
0.00000001
 40
0.0
 40
0.0
 40
0.0
 40
0.0
 40
1.0
 40
1.0
 40
1.0
 40
1.0
 10
59.625
 20
8.890000000000002
 30
0.0
 10
57.94435188656207
 20
8.434389401781292
 30
0.0
 10
56.27704233969716
 20
7.907363561684508
 30
0.0
 10
54.625
 20
7.298596457508377
 30
0.0
  0
SPLINE
  5
AC
330
1F
100
AcDbEntity
  8
0
  6
Continuous
 62
     1
370
    15
100
AcDbSpline
210
0.0
220
0.0
230
1.0
 70
     8
 71
     3
 72
    16
 73
    12
 74
     0
 42
0.000000001
 43
0.00000001
 40
0.0
 40
0.0
 40
0.0
 40
0.0
 40
0.0469593965880694
 40
0.1691303088286094
 40
0.2913834920285125
 40
0.4137019985952231
 40
0.5358826495043588
 40
0.6518905611986864
 40
0.7680170326775432
 40
0.8839840807265279
 40
1.0
 40
1.0
 40
1.0
 40
1.0
 10
32.72650953339279
 20
-9.536056431648353
 30
0.0
 10
32.4020565325073
 20
-9.5909761928315
 30
0.0
 10
31.2334973041702
 20
-9.788776778967211
 30
0.0
 10
29.22066358779279
 20
-9.997005010728563
 30
0.0
 10
26.68682054865473
 20
-10.15642191205987
 30
0.0
 10
24.15258243211892
 20
-10.17328265007895
 30
0.0
 10
21.66216085497331
 20
-10.0592707164653
 30
0.0
 10
19.21442913073101
 20
-9.82155880815456
 30
0.0
 10
16.80891866362031
 20
-9.469468310290615
 30
0.0
 10
14.40429624907317
 20
-9.010736451960634
 30
0.0
 10
12.80154463214092
 20
-8.615614033492324
 30
0.0
 10
12.0
 20
-8.418011204572391
 30
0.0
  0
SPLINE
  5
AD
330
1F
100
AcDbEntity
  8
외형선
  6
Continuous
370
    15
100
AcDbSpline
210
0.0
220
0.0
230
1.0
 70
    24
 71
     3
 72
    14
 73
    10
 74
     0
 42
0.000000001
 43
0.00000001
 40
0.0
 40
0.0
 40
0.0
 40
0.0
 40
0.25
 40
0.25
 40
0.5
 40
0.5
 40
0.75
 40
0.75
 40
1.0
 40
1.0
 40
1.0
 40
1.0
 10
11.99999999999999
 20
4.977718604919877
 30
0.0
 10
11.99999999999999
 20
3.932847092254978
 30
0.0
 10
11.99999999999999
 20
2.803303777241806
 30
0.0
 10
11.99999999999999
 20
0.4635114361871819
 30
0.0
 10
11.99999999999999
 20
-0.7457570628985972
 30
0.0
 10
11.99999999999999
 20
-3.126564463806191
 30
0.0
 10
11.99999999999999
 20
-4.296834771907482
 30
0.0
 10
11.99999999999999
 20
-6.488031404743698
 30
0.0
 10
11.99999999999999
 20
-7.508185913212987
 30
0.0
 10
11.99999999999999
 20
-8.418011204572391
 30
0.0
  0
SPLINE
  5
AE
330
1F
100
AcDbEntity
  8
외형선
  6
Continuous
370
    15
100
AcDbSpline
210
0.0
220
0.0
230
1.0
 70
    24
 71
     3
 72
    14
 73
    10
 74
     0
 42
0.000000001
 43
0.00000001
 40
0.0
 40
0.0
 40
0.0
 40
0.0
 40
0.1177933758217464
 40
0.2355867516434929
 40
0.3549106882137087
 40
0.4742346247839246
 40
0.6479541726422343
 40
0.8216737205005441
 40
0.9999999999999999
 40
0.9999999999999999
 40
0.9999999999999999
 40
0.9999999999999999
 10
11.99999999999999
 20
-8.418011204572387
 30
0.0
 10
12.0
 20
-8.535046625395335
 30
0.0
 10
12.0
 20
-8.769117467041234
 30
0.0
 10
12.0
 20
-9.070567995505991
 30
0.0
 10
12.0
 20
-9.333914224996928
 30
0.0
 10
12.0
 20
-9.588167378922604
 30
0.0
 10
12.0
 20
-9.803658163647832
 30
0.0
 10
12.0
 20
-9.957844262864262
 30
0.0
 10
12.0
 20
-9.976893297074138
 30
0.0
 10
12.0
 20
-9.986542448220739
 30
0.0
  0
LINE
  5
AF
330
1F
100
AcDbEntity
  8
0
  6
Continuous
 62
     1
370
    15
100
AcDbLine
 10
59.625
 20
0.000000000000004
 30
0.0
 11
59.625
 21
8.89
 31
0.0
  0
SPLINE
  5
B0
330
1F
100
AcDbEntity
  8
0
  6
Continuous
 62
     1
370
    15
100
AcDbSpline
210
0.0
220
0.0
230
1.0
 70
     8
 71
     3
 72
    10
 73
     6
 74
     0
 42
0.000000001
 43
0.00000001
 40
0.0
 40
0.0
 40
0.0
 40
0.0
 40
0.5
 40
0.5
 40
1.0
 40
1.0
 40
1.0
 40
1.0
 10
59.625
 20
8.889999999999997
 30
0.0
 10
59.625
 20
9.428889661452882
 30
0.0
 10
59.62499999999999
 20
10.05512935461238
 30
0.0
 10
59.62499999999999
 20
11.36897854420286
 30
0.0
 10
59.62499999999999
 20
12.05323263467869
 30
0.0
 10
59.62500001395789
 20
12.7
 30
0.0
  0
SPLINE
  5
B1
330
1F
100
AcDbEntity
  8
0
  6
Continuous
 62
     1
370
    15
100
AcDbSpline
210
0.0
220
0.0
230
1.0
 70
     8
 71
     3
 72
    17
 73
    13
 74
     0
 42
0.000000001
 43
0.00000001
 40
0.0
 40
0.0
 40
0.0
 40
0.0
 40
0.0756207500017744
 40
0.1808645082724272
 40
0.2816344305468466
 40
0.3825661878816276
 40
0.483741520859131
 40
0.5850806918635891
 40
0.6884812425231984
 40
0.7920567561238901
 40
0.8958296828735756
 40
1.0
 40
1.0
 40
1.0
 40
1.0
 10
42.15084224127807
 20
8.513241838849016
 30
0.0
 10
42.5913728790385
 20
8.701219028011042
 30
0.0
 10
43.64500375648431
 20
9.150809939016618
 30
0.0
 10
45.28503560490153
 20
9.780401952851287
 30
0.0
 10
47.07332753513712
 20
10.40819037995431
 30
0.0
 10
48.83715535781468
 20
10.95961465493557
 30
0.0
 10
50.60487633089011
 20
11.44145060926233
 30
0.0
 10
52.38660786302782
 20
11.85275286428318
 30
0.0
 10
54.18251937112941
 20
12.1889861421234
 30
0.0
 10
55.99251415181914
 20
12.44386022781728
 30
0.0
 10
57.80702944805807
 20
12.6210615783109
 30
0.0
 10
59.01823825496707
 20
12.66650234848792
 30
0.0
 10
59.62500001395789
 20
12.7
 30
0.0
  0
LINE
  5
B2
330
1F
100
AcDbEntity
  8
외형선
  6
Continuous
370
    15
100
AcDbLine
 10
12.23416254339974
 20
-9.979422974997435
 30
0.0
 11
11.99999999999498
 21
-10.06731288541648
 31
0.0
  0
LINE
  5
B3
330
1F
100
AcDbEntity
  8
외형선
  6
Continuous
370
    15
100
AcDbLine
 10
12.0
 20
-10.02728665696494
 30
0.0
 11
12.0
 21
-10.06731288540401
 31
0.0
  0
LINE
  5
B5
330
1F
100
AcDbEntity
  8
참조1
100
AcDbLine
 10
2.153078832126946
 20
0.0010749287238892
 30
0.0
 11
2.153078832126952
 21
-39.99892507127611
 31
0.0
  0
LINE
  5
B6
330
1F
100
AcDbEntity
  8
참조1
100
AcDbLine
 10
2.153078832126952
 20
-39.99892507127611
 30
0.0
 11
-22.53075298218174
 21
-39.9989250712761
 31
0.0
  0
INSERT
  5
B8
330
1F
100
AcDbEntity
  8
0
  6
Continuous
 62
     7
100
AcDbBlockReference
 66
     1
  2
블럭10
 10
-3.527772932125202
 20
-52.04717430164393
 30
0.0
  0
ATTRIB
  5
B9
330
B8
100
AcDbEntity
  8
FORMAT
 62
     2
100
AcDbText
 10
-12.70906822086648
 20
-49.97180738881174
 30
0.0
 40
4.233333333333333
  1
E1070964 [ 2 FLUTE ]
 41
0.75
  7
SLDTEXTSTYLE0
 11
-12.70906822086648
 21
-52.08847405547841
 31
0.0
100
AcDbAttribute
  2
AUTOATTR0
 70
     0
 74
     1
  0
SEQEND
  5
BA
330
B8
100
AcDbEntity
  8
0
  6
Continuous
 62
     7
  0
HATCH
  5
BB
330
1F
100
AcDbEntity
  8
중심선
100
AcDbHatch
 10
0.0
 20
0.0
 30
0.0
210
0.0
220
0.0
230
1.0
  2
SOLID
 70
     1
 71
     0
 91
        1
 92
        0
 93
        4
 72
     1
 10
2.187136372255641
 20
-35.8
 11
-1.259138871581641
 21
-35.8
 72
     1
 10
-1.259138871581641
 20
-35.8
 11
-3.387368730785663
 21
-38.3363255805726
 72
     1
 10
-3.387368730785663
 20
-38.3363255805726
 11
0.058939598164768
 21
-38.3362861512701
 72
     1
 10
0.058939598164768
 20
-38.3362861512701
 11
2.187136372255641
 21
-35.8
 97
        0
 75
     0
 76
     1
 98
        1
 10
8.259421167873057
 20
-0.0010749287238951
  0
HATCH
  5
BC
330
1F
100
AcDbEntity
  8
중심선
100
AcDbHatch
 10
0.0
 20
0.0
 30
0.0
210
0.0
220
0.0
230
1.0
  2
SOLID
 70
     1
 71
     0
 91
        1
 92
        0
 93
        4
 72
     1
 10
7.19990036329162
 20
-35.8
 11
3.753625119454338
 21
-35.8
 72
     1
 10
3.753625119454338
 20
-35.8
 11
-0.7775128889030785
 21
-41.20000000000002
 72
     1
 10
-0.7775128889030789
 20
-41.20000000000002
 11
2.668762354934205
 21
-41.20000000000002
 72
     1
 10
2.668762354934205
 20
-41.20000000000002
 11
7.19990036329162
 21
-35.8
 97
        0
 75
     0
 76
     1
 98
        1
 10
8.259421167873057
 20
-0.0010749287238951
  0
HATCH
  5
BD
330
1F
100
AcDbEntity
  8
중심선
100
AcDbHatch
 10
0.0
 20
0.0
 30
0.0
210
0.0
220
0.0
230
1.0
  2
SOLID
 70
     1
 71
     0
 91
        1
 92
        0
 93
        4
 72
     1
 10
12.21266435432749
 20
-35.80000000000003
 11
8.76638911049037
 21
-35.8
 72
     1
 10
8.766389110490373
 20
-35.8
 11
1.717952208601123
 21
-44.20000000000002
 72
     1
 10
1.717952208601123
 20
-44.20000000000002
 11
5.164227452438405
 21
-44.20000000000002
 72
     1
 10
5.164227452438405
 20
-44.20000000000002
 11
12.21266435432749
 21
-35.80000000000003
 97
        0
 75
     0
 76
     1
 98
        1
 10
8.259421167873057
 20
-0.0010749287238951
  0
HATCH
  5
BE
330
1F
100
AcDbEntity
  8
중심선
100
AcDbHatch
 10
0.0
 20
0.0
 30
0.0
210
0.0
220
0.0
230
1.0
  2
SOLID
 70
     1
 71
     0
 91
        1
 92
        0
 93
        6
 72
     3
 10
17.01255478533969
 20
-40.00000000005127
 11
3.960054785062283
 21
1.540882976769353E-10
 40
0.3939339440162628
 50
17.09539180608436
 51
320.0019657685082
 73
     0
 72
     1
 10
18.69555444104026
 20
-38.58789400463832
 11
21.0008563147413
 21
-36.65356729459039
 72
     3
 10
17.01255478528684
 20
-40.00000000000014
 11
6.600054785286829
 21
-1.278976924368180E-13
 40
0.636358354079598
 50
39.99873849337426
 51
368.4976242363724
 73
     1
 72
     1
 10
23.43788727718745
 20
-39.03999999993002
 11
15.69262209212276
 21
-39.03999999993002
 72
     1
 10
15.69262209212276
 20
-39.03999999993002
 11
15.69259704767683
 21
-40.95999999992991
 72
     1
 10
15.69259704767683
 20
-40.95999999992991
 11
20.13397681714887
 21
-40.95999999992988
 97
        0
 75
     0
 76
     1
 98
        1
 10
8.259421167873057
 20
-0.0010749287238951
  0
DIMENSION
  5
CD
330
1F
100
AcDbEntity
  8
0
  6
Continuous
 62
     0
370
    15
100
AcDbDimension
  2
_D_1
 10
12.0
 20
16.54290286035538
 30
0.0
 11
35.81250000697895
 21
16.54290286035538
 31
0.0
 70
   160
  1
<>
 71
     2
 42
47.62500001395789
  3
SLDDIMSTYLE3
100
AcDbAlignedDimension
 13
59.62500001395789
 23
12.7
 33
0.0
 14
12.0
 24
5.472849324069391
 34
0.0
100
AcDbRotatedDimension
1001
ACAD
1000
DSTYLE
1002
{
1070
   171
1070
     6
1070
   273
1070
     7
1002
}
  0
DIMENSION
  5
F7
330
1F
100
AcDbEntity
  8
0
  6
Continuous
 62
     0
370
    15
100
AcDbDimension
  2
_D_3
 10
78.62500000000009
 20
12.70000000000007
 30
0.0
 11
78.625
 21
38.28926615341658
 31
0.0
 70
   160
  1
%%c<>
 71
     2
 42
25.4
 52
-270.0
  3
SLDDIMSTYLE3
100
AcDbAlignedDimension
 13
59.62499999999999
 23
-12.7
 33
0.0
 14
59.62500001395789
 24
12.7
 34
0.0
 50
90.0000000000002
100
AcDbRotatedDimension
1001
ACAD
1000
DSTYLE
1002
{
1070
   171
1070
     6
1070
   273
1070
     7
1002
}
  0
LINE
  5
10B
330
1F
100
AcDbEntity
  8
참조1
100
AcDbLine
 10
75.44158764747253
 20
7.441074928723896
 30
0.0
 11
75.44158764747253
 21
-7.438925071276109
 31
0.0
  0
LINE
  5
10C
330
1F
100
AcDbEntity
  8
참조1
100
AcDbLine
 10
88.14158764747253
 20
5.441074928723896
 30
0.0
 11
75.44158764747253
 21
5.441074928723896
 31
0.0
  0
SOLID
  5
10D
330
1F
100
AcDbEntity
  8
참조1
100
AcDbTrace
 10
75.44158764747253
 20
5.441074928723896
 30
0.0
 11
81.79158764747253
 21
4.425074928723896
 31
0.0
 12
81.79158764747253
 22
6.457074928723896
 32
0.0
 13
81.79158764747253
 23
6.457074928723896
 33
0.0
  0
LINE
  5
10E
330
1F
100
AcDbEntity
  8
참조1
100
AcDbLine
 10
88.14158764747253
 20
-5.438925071276109
 30
0.0
 11
75.44158764747253
 21
-5.438925071276109
 31
0.0
  0
SOLID
  5
10F
330
1F
100
AcDbEntity
  8
참조1
100
AcDbTrace
 10
75.44158764747253
 20
-5.438925071276109
 30
0.0
 11
81.79158764747253
 21
-6.454925071276109
 31
0.0
 12
81.79158764747253
 22
-4.422925071276109
 32
0.0
 13
81.79158764747253
 23
-4.422925071276109
 33
0.0
  0
MTEXT
  5
110
330
1F
100
AcDbEntity
  8
참조1
100
AcDbMText
 10
84.82593778009851
 20
11.01136670591222
 30
0.0
 40
3.5
 41
0.0
 71
     1
 72
     1
  1
A
  7
SLDTEXTSTYLE0
 73
     1
 44
1.0
  0
MTEXT
  5
111
330
1F
100
AcDbEntity
  8
참조1
100
AcDbMText
 10
84.82593778009851
 20
0.1313667059122201
 30
0.0
 40
3.5
 41
0.0
 71
     1
 72
     1
  1
A
  7
SLDTEXTSTYLE0
 73
     1
 44
1.0
  0
LINE
  5
22B
330
1F
100
AcDbEntity
  8
외형선
  6
Continuous
370
    15
100
AcDbLine
 10
12.0
 20
9.524999999999999
 30
0.0
 11
-11.65692499999999
 21
9.524999999999999
 31
0.0
  0
LINE
  5
22C
330
1F
100
AcDbEntity
  8
외형선
  6
Continuous
370
    15
100
AcDbLine
 10
-44.14999999999999
 20
-9.525000000000006
 30
0.0
 11
12.0
 21
-9.524999999999999
 31
0.0
  0
LINE
  5
22D
330
1F
100
AcDbEntity
  8
외형선
  6
Continuous
370
    15
100
AcDbLine
 10
-44.14999999999999
 20
9.524999999999991
 30
0.0
 11
-45.14999999999999
 21
8.524999999999991
 31
0.0
  0
LINE
  5
22E
330
1F
100
AcDbEntity
  8
외형선
  6
Continuous
370
    15
100
AcDbLine
 10
-45.14999999999999
 20
-8.525000000000006
 30
0.0
 11
-44.14999999999999
 21
-9.525000000000006
 31
0.0
  0
LINE
  5
22F
330
1F
100
AcDbEntity
  8
외형선
  6
Continuous
370
    15
100
AcDbLine
 10
-44.14999999999999
 20
9.524999999999991
 30
0.0
 11
-44.14999999999999
 21
-9.525000000000006
 31
0.0
  0
LINE
  5
230
330
1F
100
AcDbEntity
  8
외형선
  6
Continuous
370
    15
100
AcDbLine
 10
-45.14999999999999
 20
8.524999999999991
 30
0.0
 11
-45.14999999999999
 21
-8.525000000000006
 31
0.0
  0
LINE
  5
231
330
1F
100
AcDbEntity
  8
중심선
100
AcDbLine
 10
-52.14999999999999
 20
-0.0000000000000071
 30
0.0
 11
66.625
 21
0.0000000000000081
 31
0.0
  0
CIRCLE
  5
232
330
1F
100
AcDbEntity
  8
해칭선
100
AcDbCircle
 10
0.0
 20
0.0
 30
0.0
 40
2.999999999999995
  0
DIMENSION
  5
233
330
1F
100
AcDbEntity
  8
0
  6
Continuous
 62
     0
370
    15
100
AcDbDimension
  2
*D13
 10
-57.64999999999997
 20
-9.525000000000055
 30
0.0
 11
-57.65000000000001
 21
0.0000000000000071
 31
0.0
 70
   160
  1
%%c<>
 71
     2
 42
19.05000000000001
 52
-270.0
  3
SLDDIMSTYLE3
100
AcDbAlignedDimension
 13
-44.14999999999999
 23
9.525000000000006
 33
0.0
 14
-44.14999999999999
 24
-9.525000000000006
 34
0.0
 50
90.0000000000002
100
AcDbRotatedDimension
1001
ACAD
1000
DSTYLE
1002
{
1070
   171
1070
     6
1070
   273
1070
     7
1002
}
  0
DIMENSION
  5
234
330
1F
100
AcDbEntity
  8
0
  6
Continuous
 62
     0
370
    15
100
AcDbDimension
  2
*D14
 10
-45.14999999999999
 20
39.56419134481794
 30
0.0
 11
4.062499999999886
 21
39.56419134481794
 31
0.0
 70
   160
  1
<>
 71
     2
 42
104.7750000139579
  3
SLDDIMSTYLE3
100
AcDbAlignedDimension
 13
59.62500001395789
 23
12.7
 33
0.0
 14
-45.14999999999999
 24
8.524999999999991
 34
0.0
 50
0.0000000000000041
100
AcDbRotatedDimension
1001
ACAD
1000
DSTYLE
1002
{
1070
   171
1070
     6
1070
   273
1070
     7
1002
}
  0
INSERT
  5
235
330
1F
100
AcDbEntity
  8
해칭선
100
AcDbBlockReference
  2
SW_DOWELSYMBOL_0
 10
0.0
 20
0.0
 30
0.0
  0
LINE
  5
2EA
330
1F
100
AcDbEntity
  8
외형선
  6
Continuous
370
    15
100
AcDbLine
 10
-25.14432499999997
 20
7.61999999999999
 30
0.0
 11
-13.56192499999996
 21
7.61999999999999
 31
0.0
  0
LINE
  5
2EB
330
1F
100
AcDbEntity
  8
외형선
  6
Continuous
370
    15
100
AcDbLine
 10
-25.14432499999997
 20
7.619999999999976
 30
0.0
 11
-27.04932500000011
 21
9.525000000000006
 31
0.0
  0
LINE
  5
2EC
330
1F
100
AcDbEntity
  8
외형선
  6
Continuous
370
    15
100
AcDbLine
 10
-13.56192499999996
 20
7.619999999999976
 30
0.0
 11
-11.65692499999999
 21
9.525000000000006
 31
0.0
  0
LINE
  5
2ED
330
1F
100
AcDbEntity
  8
외형선
  6
Continuous
370
    15
100
AcDbLine
 10
-27.0493250000001
 20
9.524999999999999
 30
0.0
 11
-44.14999999999999
 21
9.524999999999999
 31
0.0
  0
ENDSEC
  0
SECTION
  2
OBJECTS
  0
DICTIONARY
  5
C
330
0
100
AcDbDictionary
281
     1
  3
ACAD_GROUP
350
D
  3
ACAD_IMAGE_VARS
350
13C
  3
ACAD_LAYOUT
350
1A
  3
ACAD_MLINESTYLE
350
17
  3
ACAD_PLOTSETTINGS
350
19
  3
ACAD_PLOTSTYLENAME
350
E
  3
ACAD_SCALELIST
350
47
  3
APPDATA
350
13A
  3
DWGPROPS
350
2EE
  0
DICTIONARY
  5
1E6
330
2
100
AcDbDictionary
280
     1
281
     1
  3
ACAD_LAYERSTATES
360
1E7
  0
DICTIONARY
  5
D
102
{ACAD_REACTORS
330
C
102
}
330
C
100
AcDbDictionary
281
     1
  0
RASTERVARIABLES
  5
13C
102
{ACAD_REACTORS
330
C
102
}
330
C
100
AcDbRasterVariables
 90
        0
 70
     1
 71
     1
 72
     1
  0
DICTIONARY
  5
1A
102
{ACAD_REACTORS
330
C
102
}
330
C
100
AcDbDictionary
281
     1
  3
Layout1
350
1E
  3
Layout2
350
26
  3
Model
350
22
  0
DICTIONARY
  5
17
102
{ACAD_REACTORS
330
C
102
}
330
C
100
AcDbDictionary
281
     1
  3
Standard
350
18
  0
DICTIONARY
  5
19
102
{ACAD_REACTORS
330
C
102
}
330
C
100
AcDbDictionary
281
     1
  0
ACDBDICTIONARYWDFLT
  5
E
102
{ACAD_REACTORS
330
C
102
}
330
C
100
AcDbDictionary
281
     1
  3
Normal
350
F
100
AcDbDictionaryWithDefault
340
F
  0
DICTIONARY
  5
47
102
{ACAD_REACTORS
330
C
102
}
330
C
100
AcDbDictionary
281
     1
  3
A0
350
48
  3
A1
350
49
  3
A2
350
4A
  3
A3
350
4B
  3
A4
350
4C
  3
A5
350
4D
  3
A6
350
4E
  3
A7
350
4F
  3
A8
350
50
  3
A9
350
51
  3
B0
350
52
  3
B1
350
53
  3
B2
350
54
  3
B3
350
55
  3
B4
350
56
  3
B5
350
57
  3
B6
350
58
  3
B7
350
59
  3
B8
350
5A
  3
B9
350
5B
  3
C0
350
5C
  3
C1
350
5D
  3
C2
350
5E
  3
C3
350
5F
  3
C4
350
60
  3
C5
350
61
  3
C6
350
62
  3
C7
350
63
  3
C8
350
64
  3
C9
350
65
  3
D0
350
66
  3
D1
350
67
  3
D2
350
68
  0
DICTIONARY
  5
13A
102
{ACAD_REACTORS
330
C
102
}
330
C
100
AcDbDictionary
281
     1
  0
XRECORD
  5
2EE
102
{ACAD_REACTORS
330
C
102
}
330
C
100
AcDbXrecord
280
     1
  1
DWGPROPS COOKIE
  2

  3

  4

  6

  7

  8
12016016
  9

300
=
301
=
302
=
303
=
304
=
305
=
306
=
307
=
308
=
309
=
 40
0.0
 41
2458311.197626389
 42
2458318.288805139
  1

 90
        0
  0
DICTIONARY
  5
1E7
102
{ACAD_REACTORS
330
1E6
102
}
330
1E6
100
AcDbDictionary
281
     1
  0
LAYOUT
  5
1E
102
{ACAD_REACTORS
330
1A
102
}
330
1A
100
AcDbPlotSettings
  1

  2
none_device
  4

  6

 40
0.0
 41
0.0
 42
0.0
 43
0.0
 44
0.0
 45
0.0
 46
0.0
 47
0.0
 48
0.0
 49
0.0
140
0.0
141
0.0
142
1.0
143
1.0
 70
   688
 72
     1
 73
     0
 74
     5
  7

 75
    16
147
1.0
148
0.0
149
0.0
100
AcDbLayout
  1
Layout1
 70
     1
 71
     1
 10
0.0
 20
0.0
 11
420.0
 21
297.0
 12
0.0
 22
0.0
 32
0.0
 14
1.000000000000000E+20
 24
1.000000000000000E+20
 34
1.000000000000000E+20
 15
-1.000000000000000E+20
 25
-1.000000000000000E+20
 35
-1.000000000000000E+20
146
0.0
 13
0.0
 23
0.0
 33
0.0
 16
1.0
 26
0.0
 36
0.0
 17
0.0
 27
1.0
 37
0.0
 76
     0
330
1B
  0
LAYOUT
  5
26
102
{ACAD_REACTORS
330
1A
102
}
330
1A
100
AcDbPlotSettings
  1

  2
none_device
  4

  6

 40
0.0
 41
0.0
 42
0.0
 43
0.0
 44
0.0
 45
0.0
 46
0.0
 47
0.0
 48
0.0
 49
0.0
140
0.0
141
0.0
142
1.0
143
1.0
 70
   688
 72
     1
 73
     0
 74
     5
  7

 75
    16
147
1.0
148
0.0
149
0.0
100
AcDbLayout
  1
Layout2
 70
     1
 71
     2
 10
0.0
 20
0.0
 11
0.0
 21
0.0
 12
0.0
 22
0.0
 32
0.0
 14
0.0
 24
0.0
 34
0.0
 15
0.0
 25
0.0
 35
0.0
146
0.0
 13
0.0
 23
0.0
 33
0.0
 16
1.0
 26
0.0
 36
0.0
 17
0.0
 27
1.0
 37
0.0
 76
     0
330
23
  0
LAYOUT
  5
22
102
{ACAD_REACTORS
330
1A
102
}
330
1A
100
AcDbPlotSettings
  1

  2
none_device
  4
ANSI_A_(11.00_x_8.50_Inches)
  6

 40
6.35
 41
19.05
 42
6.35000508
 43
19.05000254
 44
279.4
 45
215.9
 46
111.5354592427306
 47
92.50265853467127
 48
0.0
 49
0.0
140
0.0
141
0.0
142
0.0715194751484015
143
1.0
 70
  1696
 72
     0
 73
     0
 74
     0
  7

 75
     0
147
0.0235690232323232
148
0.0
149
0.0
100
AcDbLayout
  1
Model
 70
     1
 71
     0
 10
0.0
 20
0.0
 11
420.0
 21
297.0
 12
0.0
 22
0.0
 32
0.0
 14
1.000000000000000E+20
 24
1.000000000000000E+20
 34
1.000000000000000E+20
 15
-1.000000000000000E+20
 25
-1.000000000000000E+20
 35
-1.000000000000000E+20
146
0.0
 13
0.0
 23
0.0
 33
0.0
 16
1.0
 26
0.0
 36
0.0
 17
0.0
 27
1.0
 37
0.0
 76
     0
330
1F
331
29
  0
MLINESTYLE
  5
18
102
{ACAD_REACTORS
330
17
102
}
330
17
100
AcDbMlineStyle
  2
Standard
 70
     0
  3

 62
   256
 51
90.0
 52
90.0
 71
     2
 49
0.5
 62
   256
  6
BYLAYER
 49
-0.5
 62
   256
  6
BYLAYER
  0
ACDBPLACEHOLDER
  5
F
102
{ACAD_REACTORS
330
E
102
}
330
E
  0
SCALE
  5
48
102
{ACAD_REACTORS
330
47
102
}
330
47
100
AcDbScale
 70
     0
300
1:1
140
1.0
141
1.0
290
     1
  0
SCALE
  5
49
102
{ACAD_REACTORS
330
47
102
}
330
47
100
AcDbScale
 70
     0
300
1:2
140
1.0
141
2.0
290
     0
  0
SCALE
  5
4A
102
{ACAD_REACTORS
330
47
102
}
330
47
100
AcDbScale
 70
     0
300
1:4
140
1.0
141
4.0
290
     0
  0
SCALE
  5
4B
102
{ACAD_REACTORS
330
47
102
}
330
47
100
AcDbScale
 70
     0
300
1:5
140
1.0
141
5.0
290
     0
  0
SCALE
  5
4C
102
{ACAD_REACTORS
330
47
102
}
330
47
100
AcDbScale
 70
     0
300
1:8
140
1.0
141
8.0
290
     0
  0
SCALE
  5
4D
102
{ACAD_REACTORS
330
47
102
}
330
47
100
AcDbScale
 70
     0
300
1:10
140
1.0
141
10.0
290
     0
  0
SCALE
  5
4E
102
{ACAD_REACTORS
330
47
102
}
330
47
100
AcDbScale
 70
     0
300
1:16
140
1.0
141
16.0
290
     0
  0
SCALE
  5
4F
102
{ACAD_REACTORS
330
47
102
}
330
47
100
AcDbScale
 70
     0
300
1:20
140
1.0
141
20.0
290
     0
  0
SCALE
  5
50
102
{ACAD_REACTORS
330
47
102
}
330
47
100
AcDbScale
 70
     0
300
1:30
140
1.0
141
30.0
290
     0
  0
SCALE
  5
51
102
{ACAD_REACTORS
330
47
102
}
330
47
100
AcDbScale
 70
     0
300
1:40
140
1.0
141
40.0
290
     0
  0
SCALE
  5
52
102
{ACAD_REACTORS
330
47
102
}
330
47
100
AcDbScale
 70
     0
300
1:50
140
1.0
141
50.0
290
     0
  0
SCALE
  5
53
102
{ACAD_REACTORS
330
47
102
}
330
47
100
AcDbScale
 70
     0
300
1:100
140
1.0
141
100.0
290
     0
  0
SCALE
  5
54
102
{ACAD_REACTORS
330
47
102
}
330
47
100
AcDbScale
 70
     0
300
2:1
140
2.0
141
1.0
290
     0
  0
SCALE
  5
55
102
{ACAD_REACTORS
330
47
102
}
330
47
100
AcDbScale
 70
     0
300
4:1
140
4.0
141
1.0
290
     0
  0
SCALE
  5
56
102
{ACAD_REACTORS
330
47
102
}
330
47
100
AcDbScale
 70
     0
300
8:1
140
8.0
141
1.0
290
     0
  0
SCALE
  5
57
102
{ACAD_REACTORS
330
47
102
}
330
47
100
AcDbScale
 70
     0
300
10:1
140
10.0
141
1.0
290
     0
  0
SCALE
  5
58
102
{ACAD_REACTORS
330
47
102
}
330
47
100
AcDbScale
 70
     0
300
100:1
140
100.0
141
1.0
290
     0
  0
SCALE
  5
59
102
{ACAD_REACTORS
330
47
102
}
330
47
100
AcDbScale
 70
     0
300
1/128" = 1'-0"
140
0.0078125
141
12.0
290
     0
  0
SCALE
  5
5A
102
{ACAD_REACTORS
330
47
102
}
330
47
100
AcDbScale
 70
     0
300
1/64" = 1'-0"
140
0.015625
141
12.0
290
     0
  0
SCALE
  5
5B
102
{ACAD_REACTORS
330
47
102
}
330
47
100
AcDbScale
 70
     0
300
1/32" = 1'-0"
140
0.03125
141
12.0
290
     0
  0
SCALE
  5
5C
102
{ACAD_REACTORS
330
47
102
}
330
47
100
AcDbScale
 70
     0
300
1/16" = 1'-0"
140
0.0625
141
12.0
290
     0
  0
SCALE
  5
5D
102
{ACAD_REACTORS
330
47
102
}
330
47
100
AcDbScale
 70
     0
300
3/32" = 1'-0"
140
0.09375
141
12.0
290
     0
  0
SCALE
  5
5E
102
{ACAD_REACTORS
330
47
102
}
330
47
100
AcDbScale
 70
     0
300
1/8" = 1'-0"
140
0.125
141
12.0
290
     0
  0
SCALE
  5
5F
102
{ACAD_REACTORS
330
47
102
}
330
47
100
AcDbScale
 70
     0
300
3/16" = 1'-0"
140
0.1875
141
12.0
290
     0
  0
SCALE
  5
60
102
{ACAD_REACTORS
330
47
102
}
330
47
100
AcDbScale
 70
     0
300
1/4" = 1'-0"
140
0.25
141
12.0
290
     0
  0
SCALE
  5
61
102
{ACAD_REACTORS
330
47
102
}
330
47
100
AcDbScale
 70
     0
300
3/8" = 1'-0"
140
0.375
141
12.0
290
     0
  0
SCALE
  5
62
102
{ACAD_REACTORS
330
47
102
}
330
47
100
AcDbScale
 70
     0
300
1/2" = 1'-0"
140
0.5
141
12.0
290
     0
  0
SCALE
  5
63
102
{ACAD_REACTORS
330
47
102
}
330
47
100
AcDbScale
 70
     0
300
3/4" = 1'-0"
140
0.75
141
12.0
290
     0
  0
SCALE
  5
64
102
{ACAD_REACTORS
330
47
102
}
330
47
100
AcDbScale
 70
     0
300
1" = 1'-0"
140
1.0
141
12.0
290
     0
  0
SCALE
  5
65
102
{ACAD_REACTORS
330
47
102
}
330
47
100
AcDbScale
 70
     0
300
1-1/2" = 1'-0"
140
1.5
141
12.0
290
     0
  0
SCALE
  5
66
102
{ACAD_REACTORS
330
47
102
}
330
47
100
AcDbScale
 70
     0
300
3" = 1'-0"
140
3.0
141
12.0
290
     0
  0
SCALE
  5
67
102
{ACAD_REACTORS
330
47
102
}
330
47
100
AcDbScale
 70
     0
300
6" = 1'-0"
140
6.0
141
12.0
290
     0
  0
SCALE
  5
68
102
{ACAD_REACTORS
330
47
102
}
330
47
100
AcDbScale
 70
     0
300
1'-0" = 1'-0"
140
12.0
141
12.0
290
     0
  0
ENDSEC
  0
EOF
