  0
SECTION
  2
HEADER
  9
$ACADVER
  1
AC1015
  9
$ACADMAINTVER
 70
     6
  9
$DWGCODEPAGE
  3
ANSI_949
  9
$INSBASE
 10
0.0
 20
0.0
 30
0.0
  9
$EXTMIN
 10
1.000000000000000E+20
 20
1.000000000000000E+20
 30
1.000000000000000E+20
  9
$EXTMAX
 10
-1.000000000000000E+20
 20
-1.000000000000000E+20
 30
-1.000000000000000E+20
  9
$LIMMIN
 10
0.0
 20
0.0
  9
$LIMMAX
 10
420.0
 20
297.0
  9
$ORTHOMODE
 70
     1
  9
$REGENMODE
 70
     1
  9
$FILLMODE
 70
     1
  9
$QTEXTMODE
 70
     0
  9
$MIRRTEXT
 70
     1
  9
$LTSCALE
 40
1.0
  9
$ATTMODE
 70
     1
  9
$TEXTSIZE
 40
3.5
  9
$TRACEWID
 40
1.0
  9
$TEXTSTYLE
  7
Standard
  9
$CLAYER
  8
0
  9
$CELTYPE
  6
ByLayer
  9
$CECOLOR
 62
   256
  9
$CELTSCALE
 40
1.0
  9
$DISPSILH
 70
     0
  9
$DIMSCALE
 40
1.0
  9
$DIMASZ
 40
3.302
  9
$DIMEXO
 40
1.0
  9
$DIMDLI
 40
3.75
  9
$DIMRND
 40
0.0
  9
$DIMDLE
 40
0.0
  9
$DIMEXE
 40
1.0
  9
$DIMTP
 40
0.0
  9
$DIMTM
 40
0.0
  9
$DIMTXT
 40
3.5
  9
$DIMCEN
 40
2.5
  9
$DIMTSZ
 40
0.0
  9
$DIMTOL
 70
     0
  9
$DIMLIM
 70
     0
  9
$DIMTIH
 70
     1
  9
$DIMTOH
 70
     1
  9
$DIMSE1
 70
     0
  9
$DIMSE2
 70
     0
  9
$DIMTAD
 70
     1
  9
$DIMZIN
 70
     0
  9
$DIMBLK
  1

  9
$DIMASO
 70
     1
  9
$DIMSHO
 70
     1
  9
$DIMPOST
  1

  9
$DIMAPOST
  1

  9
$DIMALT
 70
     0
  9
$DIMALTD
 70
     3
  9
$DIMALTF
 40
0.0393700787401575
  9
$DIMLFAC
 40
1.0
  9
$DIMTOFL
 70
     1
  9
$DIMTVP
 40
0.0
  9
$DIMTIX
 70
     0
  9
$DIMSOXD
 70
     0
  9
$DIMSAH
 70
     0
  9
$DIMBLK1
  1

  9
$DIMBLK2
  1

  9
$DIMSTYLE
  2
ISO-25
  9
$DIMCLRD
 70
     0
  9
$DIMCLRE
 70
     0
  9
$DIMCLRT
 70
     0
  9
$DIMTFAC
 40
1.0
  9
$DIMGAP
 40
1.524
  9
$DIMJUST
 70
     0
  9
$DIMSD1
 70
     0
  9
$DIMSD2
 70
     0
  9
$DIMTOLJ
 70
     0
  9
$DIMTZIN
 70
     0
  9
$DIMALTZ
 70
     0
  9
$DIMALTTZ
 70
     0
  9
$DIMUPT
 70
     0
  9
$DIMDEC
 70
     2
  9
$DIMTDEC
 70
     2
  9
$DIMALTU
 70
     2
  9
$DIMALTTD
 70
     3
  9
$DIMTXSTY
  7
Standard
  9
$DIMAUNIT
 70
     0
  9
$DIMADEC
 70
     2
  9
$DIMALTRND
 40
0.0
  9
$DIMAZIN
 70
     0
  9
$DIMDSEP
 70
    44
  9
$DIMATFIT
 70
     3
  9
$DIMFRAC
 70
     0
  9
$DIMLDRBLK
  1

  9
$DIMLUNIT
 70
     2
  9
$DIMLWD
 70
    -2
  9
$DIMLWE
 70
    -2
  9
$DIMTMOVE
 70
     0
  9
$LUNITS
 70
     2
  9
$LUPREC
 70
     2
  9
$SKETCHINC
 40
1.0
  9
$FILLETRAD
 40
10.0
  9
$AUNITS
 70
     0
  9
$AUPREC
 70
     2
  9
$MENU
  1
.
  9
$ELEVATION
 40
0.0
  9
$PELEVATION
 40
0.0
  9
$THICKNESS
 40
0.0
  9
$LIMCHECK
 70
     0
  9
$CHAMFERA
 40
0.0
  9
$CHAMFERB
 40
0.0
  9
$CHAMFERC
 40
0.0
  9
$CHAMFERD
 40
0.0
  9
$SKPOLY
 70
     0
  9
$TDCREATE
 40
2458311.464744144
  9
$TDUCREATE
 40
2458311.089744144
  9
$TDUPDATE
 40
2458318.663396667
  9
$TDUUPDATE
 40
2458318.288396667
  9
$TDINDWG
 40
0.0015297917
  9
$TDUSRTIMER
 40
2458318.288247639
  9
$USRTIMER
 70
     1
  9
$ANGBASE
 50
0.0
  9
$ANGDIR
 70
     0
  9
$PDMODE
 70
     0
  9
$PDSIZE
 40
-1.0
  9
$PLINEWID
 40
0.0
  9
$SPLFRAME
 70
     0
  9
$SPLINETYPE
 70
     6
  9
$SPLINESEGS
 70
     8
  9
$HANDSEED
  5
1F7
  9
$SURFTAB1
 70
     6
  9
$SURFTAB2
 70
     6
  9
$SURFTYPE
 70
     6
  9
$SURFU
 70
     6
  9
$SURFV
 70
     6
  9
$UCSBASE
  2

  9
$UCSNAME
  2

  9
$UCSORG
 10
0.0
 20
0.0
 30
0.0
  9
$UCSXDIR
 10
1.0
 20
0.0
 30
0.0
  9
$UCSYDIR
 10
0.0
 20
1.0
 30
0.0
  9
$UCSORTHOREF
  2

  9
$UCSORTHOVIEW
 70
     0
  9
$UCSORGTOP
 10
0.0
 20
0.0
 30
0.0
  9
$UCSORGBOTTOM
 10
0.0
 20
0.0
 30
0.0
  9
$UCSORGLEFT
 10
0.0
 20
0.0
 30
0.0
  9
$UCSORGRIGHT
 10
0.0
 20
0.0
 30
0.0
  9
$UCSORGFRONT
 10
0.0
 20
0.0
 30
0.0
  9
$UCSORGBACK
 10
0.0
 20
0.0
 30
0.0
  9
$PUCSBASE
  2

  9
$PUCSNAME
  2

  9
$PUCSORG
 10
0.0
 20
0.0
 30
0.0
  9
$PUCSXDIR
 10
1.0
 20
0.0
 30
0.0
  9
$PUCSYDIR
 10
0.0
 20
1.0
 30
0.0
  9
$PUCSORTHOREF
  2

  9
$PUCSORTHOVIEW
 70
     0
  9
$PUCSORGTOP
 10
0.0
 20
0.0
 30
0.0
  9
$PUCSORGBOTTOM
 10
0.0
 20
0.0
 30
0.0
  9
$PUCSORGLEFT
 10
0.0
 20
0.0
 30
0.0
  9
$PUCSORGRIGHT
 10
0.0
 20
0.0
 30
0.0
  9
$PUCSORGFRONT
 10
0.0
 20
0.0
 30
0.0
  9
$PUCSORGBACK
 10
0.0
 20
0.0
 30
0.0
  9
$USERI1
 70
     0
  9
$USERI2
 70
     0
  9
$USERI3
 70
     0
  9
$USERI4
 70
     0
  9
$USERI5
 70
     0
  9
$USERR1
 40
0.0
  9
$USERR2
 40
0.0
  9
$USERR3
 40
0.0
  9
$USERR4
 40
0.0
  9
$USERR5
 40
0.0
  9
$WORLDVIEW
 70
     1
  9
$SHADEDGE
 70
     3
  9
$SHADEDIF
 70
    70
  9
$TILEMODE
 70
     1
  9
$MAXACTVP
 70
    64
  9
$PINSBASE
 10
0.0
 20
0.0
 30
0.0
  9
$PLIMCHECK
 70
     0
  9
$PEXTMIN
 10
1.000000000000000E+20
 20
1.000000000000000E+20
 30
1.000000000000000E+20
  9
$PEXTMAX
 10
-1.000000000000000E+20
 20
-1.000000000000000E+20
 30
-1.000000000000000E+20
  9
$PLIMMIN
 10
0.0
 20
0.0
  9
$PLIMMAX
 10
0.0
 20
0.0
  9
$UNITMODE
 70
     0
  9
$VISRETAIN
 70
     1
  9
$PLINEGEN
 70
     0
  9
$PSLTSCALE
 70
     1
  9
$TREEDEPTH
 70
  3020
  9
$CMLSTYLE
  2
Standard
  9
$CMLJUST
 70
     0
  9
$CMLSCALE
 40
20.0
  9
$PROXYGRAPHICS
 70
     1
  9
$MEASUREMENT
 70
     1
  9
$CELWEIGHT
370
    -1
  9
$ENDCAPS
280
     0
  9
$JOINSTYLE
280
     0
  9
$LWDISPLAY
290
     1
  9
$INSUNITS
 70
     4
  9
$HYPERLINKBASE
  1

  9
$STYLESHEET
  1

  9
$XEDIT
290
     1
  9
$CEPSNTYPE
380
     0
  9
$PSTYLEMODE
290
     1
  9
$FINGERPRINTGUID
  2
{A999816E-B158-49B3-82B4-D3F38FBD960B}
  9
$VERSIONGUID
  2
{FAEB1C32-E019-11D5-929B-00C0DF256EC4}
  9
$EXTNAMES
290
     1
  9
$PSVPSCALE
 40
0.0
  9
$OLESTARTUP
290
     0
  0
ENDSEC
  0
SECTION
  2
CLASSES
  0
CLASS
  1
ACDBDICTIONARYWDFLT
  2
AcDbDictionaryWithDefault
  3
ObjectDBX Classes
 90
        0
280
     0
281
     0
  0
CLASS
  1
VISUALSTYLE
  2
AcDbVisualStyle
  3
ObjectDBX Classes
 90
     4095
280
     0
281
     0
  0
CLASS
  1
MATERIAL
  2
AcDbMaterial
  3
ObjectDBX Classes
 90
     1153
280
     0
281
     0
  0
CLASS
  1
SCALE
  2
AcDbScale
  3
ObjectDBX Classes
 90
     1153
280
     0
281
     0
  0
CLASS
  1
SUN
  2
AcDbSun
  3
SCENEOE
 90
     1153
280
     0
281
     0
  0
CLASS
  1
ACDBPLACEHOLDER
  2
AcDbPlaceHolder
  3
ObjectDBX Classes
 90
        0
280
     0
281
     0
  0
CLASS
  1
LAYOUT
  2
AcDbLayout
  3
ObjectDBX Classes
 90
        0
280
     0
281
     0
  0
CLASS
  1
TABLESTYLE
  2
AcDbTableStyle
  3
ObjectDBX Classes
 90
     4095
280
     0
281
     0
  0
CLASS
  1
MLEADERSTYLE
  2
AcDbMLeaderStyle
  3
ACDB_MLEADERSTYLE_CLASS
 90
     4095
280
     0
281
     0
  0
CLASS
  1
RASTERVARIABLES
  2
AcDbRasterVariables
  3
ISM
 90
        0
280
     0
281
     0
  0
ENDSEC
  0
SECTION
  2
TABLES
  0
TABLE
  2
VPORT
  5
8
330
0
100
AcDbSymbolTable
 70
     1
  0
VPORT
  5
29
330
8
100
AcDbSymbolTableRecord
100
AcDbViewportTableRecord
  2
*Active
 70
     0
 10
0.0
 20
0.0
 11
1.0
 21
1.0
 12
-16.37032650162453
 22
-15.4489292169597
 13
0.0
 23
0.0
 14
10.0
 24
10.0
 15
10.0
 25
10.0
 16
0.0
 26
0.0
 36
1.0
 17
0.0
 27
0.0
 37
0.0
 40
182.2193718582652
 41
1.740812379110251
 42
50.0
 43
0.0
 44
0.0
 50
0.0
 51
0.0
 71
    16
 72
  2000
 73
     1
 74
     3
 75
     0
 76
     0
 77
     0
 78
     0
281
     0
 65
     1
110
0.0
120
0.0
130
0.0
111
1.0
121
0.0
131
0.0
112
0.0
122
1.0
132
0.0
 79
     0
146
0.0
  0
ENDTAB
  0
TABLE
  2
LTYPE
  5
5
330
0
100
AcDbSymbolTable
 70
     6
  0
LTYPE
  5
14
330
5
100
AcDbSymbolTableRecord
100
AcDbLinetypeTableRecord
  2
ByBlock
 70
     0
  3

 72
    65
 73
     0
 40
0.0
  0
LTYPE
  5
15
330
5
100
AcDbSymbolTableRecord
100
AcDbLinetypeTableRecord
  2
ByLayer
 70
     0
  3

 72
    65
 73
     0
 40
0.0
  0
LTYPE
  5
16
330
5
100
AcDbSymbolTableRecord
100
AcDbLinetypeTableRecord
  2
Continuous
 70
     0
  3
Solid line
 72
    65
 73
     0
 40
0.0
  0
LTYPE
  5
6A
330
5
100
AcDbSymbolTableRecord
100
AcDbLinetypeTableRecord
  2
HIDDEN
 70
     0
  3
Hidden __ __ __ __ __ __ __ __ __ __ __ __ __ __
 72
    65
 73
     2
 40
1.905
 49
1.27
 74
     0
 49
-0.635
 74
     0
  0
LTYPE
  5
6B
330
5
100
AcDbSymbolTableRecord
100
AcDbLinetypeTableRecord
  2
PHANTOM
 70
     0
  3
Phantom ______  __  __  ______  __  __  ______
 72
    65
 73
     6
 40
12.7
 49
6.35
 74
     0
 49
-1.27
 74
     0
 49
1.27
 74
     0
 49
-1.27
 74
     0
 49
1.27
 74
     0
 49
-1.27
 74
     0
  0
LTYPE
  5
6C
330
5
100
AcDbSymbolTableRecord
100
AcDbLinetypeTableRecord
  2
CENTER
 70
     0
  3
Center ____ _ ____ _ ____ _ ____ _ ____ _ ____
 72
    65
 73
     4
 40
10.16
 49
6.35
 74
     0
 49
-1.27
 74
     0
 49
1.27
 74
     0
 49
-1.27
 74
     0
  0
LTYPE
  5
6D
330
5
100
AcDbSymbolTableRecord
100
AcDbLinetypeTableRecord
  2
CENTERX2
 70
     0
  3
Center (2x) ________  __  ________  __  _____
 72
    65
 73
     4
 40
20.32
 49
12.7
 74
     0
 49
-2.54
 74
     0
 49
2.54
 74
     0
 49
-2.54
 74
     0
  0
LTYPE
  5
6E
330
5
100
AcDbSymbolTableRecord
100
AcDbLinetypeTableRecord
  2
DOT2
 70
     0
  3
Dot (.5x) ........................................
 72
    65
 73
     2
 40
0.635
 49
0.0
 74
     0
 49
-0.635
 74
     0
  0
ENDTAB
  0
TABLE
  2
LAYER
  5
2
102
{ACAD_XDICTIONARY
360
181
102
}
330
0
100
AcDbSymbolTable
 70
    18
  0
LAYER
  5
10
330
2
100
AcDbSymbolTableRecord
100
AcDbLayerTableRecord
  2
0
 70
     0
 62
     7
  6
Continuous
370
    -3
390
F
  0
LAYER
  5
6F
330
2
100
AcDbSymbolTableRecord
100
AcDbLayerTableRecord
  2
FORMAT
 70
     0
 62
     2
  6
Continuous
370
    -3
390
F
  0
LAYER
  5
70
330
2
100
AcDbSymbolTableRecord
100
AcDbLayerTableRecord
  2
외형선
 70
     0
 62
     4
  6
Continuous
370
    30
390
F
  0
LAYER
  5
71
330
2
100
AcDbSymbolTableRecord
100
AcDbLayerTableRecord
  2
숨은선
 70
     0
 62
     2
  6
HIDDEN
370
    15
390
F
  0
LAYER
  5
72
330
2
100
AcDbSymbolTableRecord
100
AcDbLayerTableRecord
  2
중심선
 70
     0
 62
     1
  6
CENTERX2
370
    -3
390
F
  0
LAYER
  5
73
330
2
100
AcDbSymbolTableRecord
100
AcDbLayerTableRecord
  2
파단선
 70
     0
 62
     4
  6
Continuous
370
    -3
390
F
  0
LAYER
  5
74
330
2
100
AcDbSymbolTableRecord
100
AcDbLayerTableRecord
  2
해칭선
 70
     0
 62
   100
  6
Continuous
370
    -3
390
F
  0
LAYER
  5
75
330
2
100
AcDbSymbolTableRecord
100
AcDbLayerTableRecord
  2
가는실선
 70
     0
 62
     4
  6
Continuous
370
    -3
390
F
  0
LAYER
  5
76
330
2
100
AcDbSymbolTableRecord
100
AcDbLayerTableRecord
  2
치수_보조선
 70
     0
 62
     4
  6
Continuous
370
    -3
390
F
  0
LAYER
  5
77
330
2
100
AcDbSymbolTableRecord
100
AcDbLayerTableRecord
  2
치수문자_일반주서
 70
     0
 62
     7
  6
Continuous
370
    15
390
F
  0
LAYER
  5
78
330
2
100
AcDbSymbolTableRecord
100
AcDbLayerTableRecord
  2
개별주서
 70
     0
 62
   100
  6
Continuous
370
    30
390
F
  0
LAYER
  5
79
330
2
100
AcDbSymbolTableRecord
100
AcDbLayerTableRecord
  2
중간선
 70
     0
 62
     2
  6
Continuous
370
    15
390
F
  0
LAYER
  5
7A
330
2
100
AcDbSymbolTableRecord
100
AcDbLayerTableRecord
  2
윤곽선
 70
     0
 62
     3
  6
Continuous
370
    40
390
F
  0
LAYER
  5
7B
330
2
100
AcDbSymbolTableRecord
100
AcDbLayerTableRecord
  2
중심마크
 70
     0
 62
   100
  6
Continuous
370
    30
390
F
  0
LAYER
  5
7C
330
2
100
AcDbSymbolTableRecord
100
AcDbLayerTableRecord
  2
가상선
 70
     0
 62
     4
  6
PHANTOM
370
    -3
390
F
  0
LAYER
  5
7D
330
2
100
AcDbSymbolTableRecord
100
AcDbLayerTableRecord
  2
특수지정선
 70
     0
 62
     5
  6
CENTERX2
370
    60
390
F
  0
LAYER
  5
7E
330
2
100
AcDbSymbolTableRecord
100
AcDbLayerTableRecord
  2
참조1
 70
     0
 62
    -4
  6
Continuous
370
    -3
390
F
  0
LAYER
  5
188
330
2
100
AcDbSymbolTableRecord
100
AcDbLayerTableRecord
  2
Defpoints
 70
     0
 62
     7
  6
Continuous
290
     0
370
    -3
390
F
  0
ENDTAB
  0
TABLE
  2
STYLE
  5
3
330
0
100
AcDbSymbolTable
 70
     2
  0
STYLE
  5
11
330
3
100
AcDbSymbolTableRecord
100
AcDbTextStyleTableRecord
  2
Standard
 70
     0
 40
0.0
 41
1.0
 50
0.0
 71
     0
 42
3.5
  3
txt
  4

  0
STYLE
  5
94
330
3
100
AcDbSymbolTableRecord
100
AcDbTextStyleTableRecord
  2
SLDTEXTSTYLE0
 70
     0
 40
0.0
 41
0.75
 50
0.0
 71
     0
 42
3.5
  3
TXT
  4

  0
ENDTAB
  0
TABLE
  2
VIEW
  5
6
330
0
100
AcDbSymbolTable
 70
     0
  0
ENDTAB
  0
TABLE
  2
UCS
  5
7
330
0
100
AcDbSymbolTable
 70
     0
  0
ENDTAB
  0
TABLE
  2
APPID
  5
9
330
0
100
AcDbSymbolTable
 70
     1
  0
APPID
  5
12
330
9
100
AcDbSymbolTableRecord
100
AcDbRegAppTableRecord
  2
ACAD
 70
     0
  0
ENDTAB
  0
TABLE
  2
DIMSTYLE
  5
A
330
0
100
AcDbSymbolTable
 70
     4
100
AcDbDimStyleTable
  0
DIMSTYLE
105
27
330
A
100
AcDbSymbolTableRecord
100
AcDbDimStyleTableRecord
  2
ISO-25
 70
     0
 41
2.5
 42
0.625
 43
3.75
 44
1.25
 73
     0
 74
     0
 77
     1
 78
     8
140
2.5
141
2.5
143
0.03937007874016
147
0.625
171
     3
172
     1
178
     0
271
     2
272
     2
274
     3
278
    44
283
     0
284
     8
340
11
  0
DIMSTYLE
105
D9
102
{ACAD_REACTORS
330
D8
330
ED
330
102
330
115
102
}
330
A
100
AcDbSymbolTableRecord
100
AcDbDimStyleTableRecord
  2
SLDDIMSTYLE0
 70
     0
 41
3.302
 44
0.0
 45
0.000000001
 73
     0
 74
     0
 77
     1
 78
     4
 79
     1
140
3.5
143
0.0393700787401575
147
0.875
148
0.000000001
170
     1
172
     1
173
     1
178
     0
271
     2
272
     2
276
     2
284
    12
289
     0
340
94
  0
DIMSTYLE
105
EE
330
A
100
AcDbSymbolTableRecord
100
AcDbDimStyleTableRecord
  2
SLDDIMSTYLE1
 70
     0
 41
3.302
 44
0.0
 45
0.000000001
 73
     0
 74
     0
 77
     1
 78
     4
 79
     1
140
3.5
143
0.0393700787401575
147
0.875
148
0.000000001
170
     1
173
     1
178
     0
271
     2
272
     2
276
     2
284
    12
340
94
  0
DIMSTYLE
105
116
330
A
100
AcDbSymbolTableRecord
100
AcDbDimStyleTableRecord
  2
SLDDIMSTYLE2
 70
     0
 41
3.302
 44
0.0
 45
0.000000001
 73
     0
 74
     0
 77
     1
 78
    12
 79
     3
140
3.5
143
0.0393700787401575
147
0.875
148
0.000000001
170
     1
173
     1
178
     0
271
     2
272
     2
276
     2
284
    12
340
94
  0
ENDTAB
  0
TABLE
  2
BLOCK_RECORD
  5
1
330
0
100
AcDbSymbolTable
 70
     8
  0
BLOCK_RECORD
  5
1F
330
1
100
AcDbSymbolTableRecord
100
AcDbBlockTableRecord
  2
*Model_Space
340
22
  0
BLOCK_RECORD
  5
1B
330
1
100
AcDbSymbolTableRecord
100
AcDbBlockTableRecord
  2
*Paper_Space
340
1E
  0
BLOCK_RECORD
  5
23
330
1
100
AcDbSymbolTableRecord
100
AcDbBlockTableRecord
  2
*Paper_Space0
340
26
  0
BLOCK_RECORD
  5
7F
330
1
100
AcDbSymbolTableRecord
100
AcDbBlockTableRecord
  2
블럭10
340
0
102
{BLKREFS
331
D1
102
}
  0
BLOCK_RECORD
  5
DA
330
1
100
AcDbSymbolTableRecord
100
AcDbBlockTableRecord
  2
_D
340
0
  0
BLOCK_RECORD
  5
EF
330
1
100
AcDbSymbolTableRecord
100
AcDbBlockTableRecord
  2
_D_1
340
0
  0
BLOCK_RECORD
  5
103
330
1
100
AcDbSymbolTableRecord
100
AcDbBlockTableRecord
  2
_D_2
340
0
  0
BLOCK_RECORD
  5
117
330
1
100
AcDbSymbolTableRecord
100
AcDbBlockTableRecord
  2
_D_3
340
0
  0
BLOCK_RECORD
  5
130
330
1
100
AcDbSymbolTableRecord
100
AcDbBlockTableRecord
  2
SW_DOWELSYMBOL_0
340
0
102
{BLKREFS
331
136
102
}
  0
ENDTAB
  0
ENDSEC
  0
SECTION
  2
BLOCKS
  0
BLOCK
  5
20
330
1F
100
AcDbEntity
  8
0
100
AcDbBlockBegin
  2
*Model_Space
 70
     0
 10
0.0
 20
0.0
 30
0.0
  3
*Model_Space
  1
*Model_Space
  0
ENDBLK
  5
21
330
1F
100
AcDbEntity
  8
0
100
AcDbBlockEnd
  0
BLOCK
  5
1C
330
1B
100
AcDbEntity
 67
     1
  8
0
100
AcDbBlockBegin
  2
*Paper_Space
 70
     0
 10
0.0
 20
0.0
 30
0.0
  3
*Paper_Space
  1
*Paper_Space
  0
ENDBLK
  5
1D
330
1B
100
AcDbEntity
 67
     1
  8
0
100
AcDbBlockEnd
  0
BLOCK
  5
24
330
23
100
AcDbEntity
  8
0
100
AcDbBlockBegin
  2
*Paper_Space0
 70
     0
 10
0.0
 20
0.0
 30
0.0
  3
*Paper_Space0
  1
*Paper_Space0
  0
ENDBLK
  5
25
330
23
100
AcDbEntity
  8
0
100
AcDbBlockEnd
  0
BLOCK
  5
80
330
7F
100
AcDbEntity
  8
0
100
AcDbBlockBegin
  2
블럭10
 70
     2
 10
0.0
 20
0.0
 30
0.0
  3
블럭10
  1
블럭10
  0
ELLIPSE
  5
82
330
7F
100
AcDbEntity
  8
중심선
100
AcDbEllipse
 10
20.54032771741204
 20
12.0471743016438
 30
0.0
 11
6.600054785286829
 21
-1.261213355974178E-13
 31
0.0
210
0.0
220
0.0
230
1.0
 40
0.636358354079598
 41
0.9219305317359503
 42
6.513795318482858
  0
ELLIPSE
  5
83
330
7F
100
AcDbEntity
  8
중심선
100
AcDbEllipse
 10
20.54032771746488
 20
12.04717430159265
 30
0.0
 11
3.960054785062283
 21
1.540847449632565E-10
 31
0.0
210
0.0
220
0.0
230
1.0
 40
0.3939339440162632
 41
1.131841032648279
 42
5.62031148352944
  0
LINE
  5
84
330
7F
100
AcDbEntity
  8
중심선
100
AcDbLine
 10
2.268634060543552
 20
16.24717430164393
 30
0.0
 11
5.714909304380834
 21
16.24717430164393
 31
0.0
  0
LINE
  5
85
330
7F
100
AcDbEntity
  8
중심선
100
AcDbLine
 10
5.245725140726316
 20
7.84717430164391
 30
0.0
 11
8.692000384563599
 21
7.84717430164391
 31
0.0
  0
LINE
  5
86
330
7F
100
AcDbEntity
  8
중심선
100
AcDbLine
 10
15.74043728645272
 20
16.24717430164393
 30
0.0
 11
8.692000384563599
 21
7.84717430164391
 31
0.0
  0
LINE
  5
87
330
7F
100
AcDbEntity
  8
중심선
100
AcDbLine
 10
0.1404042013395286
 20
13.71084872107135
 30
0.0
 11
3.58671253028996
 21
13.71088815037384
 31
0.0
  0
LINE
  5
88
330
7F
100
AcDbEntity
  8
중심선
100
AcDbLine
 10
2.750260043222114
 20
10.84717430164391
 30
0.0
 11
6.196535287059397
 21
10.84717430164391
 31
0.0
  0
LINE
  5
89
330
7F
100
AcDbEntity
  8
중심선
100
AcDbLine
 10
12.29416204261559
 20
16.24717430164393
 30
0.0
 11
5.245725140726316
 21
7.84717430164391
 31
0.0
  0
LINE
  5
8A
330
7F
100
AcDbEntity
  8
중심선
100
AcDbLine
 10
10.72767329541681
 20
16.24717430164393
 30
0.0
 11
6.196535287059397
 21
10.84717430164391
 31
0.0
  0
LINE
  5
8B
330
7F
100
AcDbEntity
  8
중심선
100
AcDbLine
 10
7.28139805157953
 20
16.24717430164393
 30
0.0
 11
2.750260043222114
 21
10.84717430164391
 31
0.0
  0
LINE
  5
8C
330
7F
100
AcDbEntity
  8
중심선
100
AcDbLine
 10
5.714909304380834
 20
16.24717430164393
 30
0.0
 11
3.58671253028996
 21
13.71088815037384
 31
0.0
  0
LINE
  5
8D
330
7F
100
AcDbEntity
  8
중심선
100
AcDbLine
 10
2.268634060543552
 20
16.24717430164393
 30
0.0
 11
0.1404042013395286
 21
13.71084872107135
 31
0.0
  0
LINE
  5
8E
330
7F
100
AcDbEntity
  8
중심선
100
AcDbLine
 10
7.28139805157953
 20
16.24717430164393
 30
0.0
 11
10.72767329541681
 21
16.24717430164393
 31
0.0
  0
LINE
  5
8F
330
7F
100
AcDbEntity
  8
중심선
100
AcDbLine
 10
12.29416204261559
 20
16.24717430164393
 30
0.0
 11
15.74043728645272
 21
16.24717430164393
 31
0.0
  0
LINE
  5
90
330
7F
100
AcDbEntity
  8
중심선
100
AcDbLine
 10
19.22036997980202
 20
11.08717430171403
 30
0.0
 11
23.66174974927406
 21
11.08717430171406
 31
0.0
  0
LINE
  5
91
330
7F
100
AcDbEntity
  8
중심선
100
AcDbLine
 10
19.22039502424796
 20
13.00717430171391
 30
0.0
 11
19.22036997980202
 21
11.08717430171403
 31
0.0
  0
LINE
  5
92
330
7F
100
AcDbEntity
  8
중심선
100
AcDbLine
 10
19.22039502424796
 20
13.00717430171391
 30
0.0
 11
26.96566020931264
 21
13.00717430171391
 31
0.0
  0
LINE
  5
93
330
7F
100
AcDbEntity
  8
중심선
100
AcDbLine
 10
22.22332737316547
 20
13.45928029700563
 30
0.0
 11
24.52862924686651
 21
15.39360700705356
 31
0.0
  0
ATTDEF
  5
95
330
7F
100
AcDbEntity
  8
FORMAT
 62
     2
100
AcDbText
 10
4.408487351596664
 20
2.075366912832191
 30
0.0
 40
4.233333333333333
  1
E1070980
 41
0.75
  7
SLDTEXTSTYLE0
 11
4.408487351596664
 21
-0.0412997538344756
 31
0.0
100
AcDbAttributeDefinition
  3

  2
AUTOATTR0
 70
     0
 74
     1
  0
ENDBLK
  5
81
330
7F
100
AcDbEntity
  8
0
100
AcDbBlockEnd
  0
BLOCK
  5
DB
330
DA
100
AcDbEntity
  8
0
100
AcDbBlockBegin
  2
_D
 70
     0
 10
0.0
 20
0.0
 30
0.0
  3
_D
  1
_D
  0
LINE
  5
DD
330
DA
100
AcDbEntity
  8
치수문자_일반주서
 62
     0
370
    -2
100
AcDbLine
 10
-50.5625
 20
12.69999999999999
 30
0.0
 11
-64.00000000000006
 21
12.69999999999994
 31
0.0
  0
LINE
  5
DE
330
DA
100
AcDbEntity
  8
치수문자_일반주서
 62
     0
370
    -2
100
AcDbLine
 10
-50.5625
 20
-12.70000000000002
 30
0.0
 11
-63.99999999999997
 21
-12.70000000000007
 31
0.0
  0
LINE
  5
DF
330
DA
100
AcDbEntity
  8
치수문자_일반주서
 62
     0
370
    -2
100
AcDbLine
 10
-64.00000000000004
 20
9.397999999999936
 30
0.0
 11
-63.99999999999999
 21
-9.39800000000007
 31
0.0
  0
SOLID
  5
E0
330
DA
100
AcDbEntity
  8
치수문자_일반주서
 62
     0
100
AcDbTrace
 10
-63.44966666666671
 20
9.397999999999938
 30
0.0
 11
-64.55033333333337
 21
9.397999999999934
 31
0.0
 12
-64.00000000000006
 22
12.69999999999994
 32
0.0
 13
-64.00000000000006
 23
12.69999999999994
 33
0.0
  0
SOLID
  5
E1
330
DA
100
AcDbEntity
  8
치수문자_일반주서
 62
     0
100
AcDbTrace
 10
-64.55033333333331
 20
-9.398000000000073
 30
0.0
 11
-63.44966666666665
 21
-9.398000000000069
 31
0.0
 12
-63.99999999999997
 22
-12.70000000000007
 32
0.0
 13
-63.99999999999997
 23
-12.70000000000007
 33
0.0
  0
MTEXT
  5
E2
330
DA
100
AcDbEntity
  8
치수문자_일반주서
 62
     0
100
AcDbMText
 10
-68.37500000000001
 20
-0.0000000000000177
 30
0.0
 40
3.5
 41
0.0
 71
     2
 72
     1
  1
\A1;%%c25.40 [1]
  7
SLDTEXTSTYLE0
 11
-3.356894814614646E-15
 21
1.0
 31
0.0
 73
     1
 44
1.0
  0
POINT
  5
E3
330
DA
100
AcDbEntity
  8
Defpoints
 62
     0
100
AcDbPoint
 10
-50.5
 20
12.69999999999999
 30
0.0
  0
POINT
  5
E4
330
DA
100
AcDbEntity
  8
Defpoints
 62
     0
100
AcDbPoint
 10
-50.5
 20
-12.70000000000002
 30
0.0
  0
POINT
  5
E5
330
DA
100
AcDbEntity
  8
Defpoints
 62
     0
100
AcDbPoint
 10
-63.99999999999997
 20
-12.70000000000007
 30
0.0
  0
ENDBLK
  5
DC
330
DA
100
AcDbEntity
  8
0
100
AcDbBlockEnd
  0
BLOCK
  5
F0
330
EF
100
AcDbEntity
  8
0
100
AcDbBlockBegin
  2
_D_1
 70
     0
 10
0.0
 20
0.0
 30
0.0
  3
_D_1
  1
_D_1
  0
LINE
  5
F2
330
EF
100
AcDbEntity
  8
치수문자_일반주서
 62
     0
370
    -2
100
AcDbLine
 10
88.20000000000002
 20
12.76250000000001
 30
0.0
 11
88.20000000000002
 21
25.86560788423941
 31
0.0
  0
LINE
  5
F3
330
EF
100
AcDbEntity
  8
치수문자_일반주서
 62
     0
370
    -2
100
AcDbLine
 10
11.99999999999999
 20
8.57553246200085
 30
0.0
 11
11.99999999999999
 21
25.86560788423941
 31
0.0
  0
LINE
  5
F4
330
EF
100
AcDbEntity
  8
치수문자_일반주서
 62
     0
370
    -2
100
AcDbLine
 10
84.89800000000002
 20
25.86560788423941
 30
0.0
 11
15.30199999999999
 21
25.86560788423941
 31
0.0
  0
SOLID
  5
F5
330
EF
100
AcDbEntity
  8
치수문자_일반주서
 62
     0
100
AcDbTrace
 10
84.89800000000002
 20
25.31527455090608
 30
0.0
 11
84.89800000000002
 21
26.41594121757275
 31
0.0
 12
88.20000000000002
 22
25.86560788423941
 32
0.0
 13
88.20000000000002
 23
25.86560788423941
 33
0.0
  0
SOLID
  5
F6
330
EF
100
AcDbEntity
  8
치수문자_일반주서
 62
     0
100
AcDbTrace
 10
15.30199999999999
 20
26.41594121757275
 30
0.0
 11
15.30199999999999
 21
25.31527455090608
 31
0.0
 12
11.99999999999999
 22
25.86560788423941
 32
0.0
 13
11.99999999999999
 23
25.86560788423941
 33
0.0
  0
MTEXT
  5
F7
330
EF
100
AcDbEntity
  8
치수문자_일반주서
 62
     0
100
AcDbMText
 10
50.10000000000001
 20
30.24060788423941
 30
0.0
 40
3.5
 41
0.0
 71
     2
 72
     1
  1
\A1;76.20 [3]
  7
SLDTEXTSTYLE0
 73
     1
 44
1.0
  0
POINT
  5
F8
330
EF
100
AcDbEntity
  8
Defpoints
 62
     0
100
AcDbPoint
 10
88.20000000000002
 20
12.70000000000001
 30
0.0
  0
POINT
  5
F9
330
EF
100
AcDbEntity
  8
Defpoints
 62
     0
100
AcDbPoint
 10
11.99999999999999
 20
8.51303246200085
 30
0.0
  0
POINT
  5
FA
330
EF
100
AcDbEntity
  8
Defpoints
 62
     0
100
AcDbPoint
 10
11.99999999999999
 20
25.86560788423941
 30
0.0
  0
ENDBLK
  5
F1
330
EF
100
AcDbEntity
  8
0
100
AcDbBlockEnd
  0
BLOCK
  5
104
330
103
100
AcDbEntity
  8
0
100
AcDbBlockBegin
  2
_D_2
 70
     0
 10
0.0
 20
0.0
 30
0.0
  3
_D_2
  1
_D_2
  0
LINE
  5
106
330
103
100
AcDbEntity
  8
치수문자_일반주서
 62
     0
370
    -2
100
AcDbLine
 10
88.2
 20
12.76250000000001
 30
0.0
 11
88.20000000000002
 21
42.57707860462924
 31
0.0
  0
LINE
  5
107
330
103
100
AcDbEntity
  8
치수문자_일반주서
 62
     0
370
    -2
100
AcDbLine
 10
-51.49999999999998
 20
11.76249999999998
 30
0.0
 11
-51.49999999999996
 21
42.57707860462924
 31
0.0
  0
LINE
  5
108
330
103
100
AcDbEntity
  8
치수문자_일반주서
 62
     0
370
    -2
100
AcDbLine
 10
84.89800000000002
 20
42.57707860462924
 30
0.0
 11
-48.19799999999996
 21
42.57707860462924
 31
0.0
  0
SOLID
  5
109
330
103
100
AcDbEntity
  8
치수문자_일반주서
 62
     0
100
AcDbTrace
 10
84.89800000000002
 20
42.0267452712959
 30
0.0
 11
84.89800000000002
 21
43.12741193796257
 31
0.0
 12
88.20000000000002
 22
42.57707860462924
 32
0.0
 13
88.20000000000002
 23
42.57707860462924
 33
0.0
  0
SOLID
  5
10A
330
103
100
AcDbEntity
  8
치수문자_일반주서
 62
     0
100
AcDbTrace
 10
-48.19799999999996
 20
43.12741193796257
 30
0.0
 11
-48.19799999999996
 21
42.0267452712959
 31
0.0
 12
-51.49999999999996
 22
42.57707860462924
 32
0.0
 13
-51.49999999999996
 23
42.57707860462924
 33
0.0
  0
MTEXT
  5
10B
330
103
100
AcDbEntity
  8
치수문자_일반주서
 62
     0
100
AcDbMText
 10
18.35
 20
46.95207860462924
 30
0.0
 40
3.5
 41
0.0
 71
     2
 72
     1
  1
\A1;139.70 [5 1/2]
  7
SLDTEXTSTYLE0
 73
     1
 44
1.0
  0
POINT
  5
10C
330
103
100
AcDbEntity
  8
Defpoints
 62
     0
100
AcDbPoint
 10
88.2
 20
12.70000000000001
 30
0.0
  0
POINT
  5
10D
330
103
100
AcDbEntity
  8
Defpoints
 62
     0
100
AcDbPoint
 10
-51.49999999999998
 20
11.69999999999998
 30
0.0
  0
POINT
  5
10E
330
103
100
AcDbEntity
  8
Defpoints
 62
     0
100
AcDbPoint
 10
-51.49999999999998
 20
42.57707860462924
 30
0.0
  0
ENDBLK
  5
105
330
103
100
AcDbEntity
  8
0
100
AcDbBlockEnd
  0
BLOCK
  5
118
330
117
100
AcDbEntity
  8
0
100
AcDbBlockBegin
  2
_D_3
 70
     0
 10
0.0
 20
0.0
 30
0.0
  3
_D_3
  1
_D_3
  0
LINE
  5
11A
330
117
100
AcDbEntity
  8
치수문자_일반주서
 62
     0
370
    -2
100
AcDbLine
 10
88.26249999999997
 20
-12.7
 30
0.0
 11
114.6816729396522
 21
-12.6999999999999
 31
0.0
  0
LINE
  5
11B
330
117
100
AcDbEntity
  8
치수문자_일반주서
 62
     0
370
    -2
100
AcDbLine
 10
88.26250000000002
 20
12.70000000000001
 30
0.0
 11
114.6816729396521
 21
12.70000000000011
 31
0.0
  0
LINE
  5
11C
330
117
100
AcDbEntity
  8
치수문자_일반주서
 62
     0
370
    -2
100
AcDbLine
 10
114.6816729396521
 20
12.70000000000011
 30
0.0
 11
114.681672939652
 21
44.44951615341657
 31
0.0
  0
LINE
  5
11D
330
117
100
AcDbEntity
  8
치수문자_일반주서
 62
     0
370
    -2
100
AcDbLine
 10
114.6816729396522
 20
-12.6999999999999
 30
0.0
 11
114.6816729396521
 21
12.70000000000011
 31
0.0
  0
LINE
  5
11E
330
117
100
AcDbEntity
  8
치수문자_일반주서
 62
     0
370
    -2
100
AcDbLine
 10
114.6816729396522
 20
-16.0019999999999
 30
0.0
 11
114.6816729396522
 21
-19.3039999999999
 31
0.0
  0
LINE
  5
11F
330
117
100
AcDbEntity
  8
치수문자_일반주서
 62
     0
370
    -2
100
AcDbLine
 10
114.6816729396521
 20
16.00200000000011
 30
0.0
 11
114.6816729396521
 21
19.30400000000011
 31
0.0
  0
SOLID
  5
120
330
117
100
AcDbEntity
  8
치수문자_일반주서
 62
     0
100
AcDbTrace
 10
115.2320062729856
 20
-16.00199999999989
 30
0.0
 11
114.1313396063189
 21
-16.0019999999999
 31
0.0
 12
114.6816729396522
 22
-12.6999999999999
 32
0.0
 13
114.6816729396522
 23
-12.6999999999999
 33
0.0
  0
SOLID
  5
121
330
117
100
AcDbEntity
  8
치수문자_일반주서
 62
     0
100
AcDbTrace
 10
114.1313396063188
 20
16.00200000000011
 30
0.0
 11
115.2320062729854
 21
16.00200000000011
 31
0.0
 12
114.6816729396521
 22
12.70000000000011
 32
0.0
 13
114.6816729396521
 23
12.70000000000011
 33
0.0
  0
MTEXT
  5
122
330
117
100
AcDbEntity
  8
치수문자_일반주서
 62
     0
100
AcDbMText
 10
110.3066729396521
 20
33.29326615341655
 30
0.0
 40
3.5
 41
0.0
 71
     2
 72
     1
  1
\A1;%%c25.40 [1]
  7
SLDTEXTSTYLE0
 11
-3.356894814614646E-15
 21
1.0
 31
0.0
 73
     1
 44
1.0
  0
POINT
  5
123
330
117
100
AcDbEntity
  8
Defpoints
 62
     0
100
AcDbPoint
 10
88.19999999999997
 20
-12.7
 30
0.0
  0
POINT
  5
18B
330
117
100
AcDbEntity
  8
Defpoints
 62
     0
100
AcDbPoint
 10
88.20000000000002
 20
12.70000000000001
 30
0.0
  0
POINT
  5
18C
330
117
100
AcDbEntity
  8
Defpoints
 62
     0
100
AcDbPoint
 10
114.6816729396521
 20
12.70000000000011
 30
0.0
  0
ENDBLK
  5
119
330
117
100
AcDbEntity
  8
0
100
AcDbBlockEnd
  0
BLOCK
  5
131
330
130
100
AcDbEntity
  8
0
100
AcDbBlockBegin
  2
SW_DOWELSYMBOL_0
 70
     0
 10
0.0
 20
0.0
 30
0.0
  3
SW_DOWELSYMBOL_0
  1
SW_DOWELSYMBOL_0
  0
CIRCLE
  5
133
330
130
100
AcDbEntity
  8
해칭선
 62
     0
100
AcDbCircle
 10
0.0
 20
0.0
 30
0.0
 40
2.999999999999996
  0
HATCH
  5
134
330
130
100
AcDbEntity
  8
0
  6
Continuous
 62
     0
370
     0
100
AcDbHatch
 10
0.0
 20
0.0
 30
0.0
210
0.0
220
0.0
230
1.0
  2
SOLID
 70
     1
 71
     0
 91
        1
 92
        0
 93
        3
 72
     2
 10
0.0
 20
0.0
 40
2.999999999999996
 50
0.0
 51
90.0
 73
     1
 72
     1
 10
0.0
 20
2.999999999999996
 11
0.0
 21
0.0
 72
     1
 10
0.0
 20
0.0
 11
2.999999999999996
 21
0.0
 97
        0
 75
     0
 76
     1
 98
        1
 10
0.0
 20
0.0
  0
HATCH
  5
135
330
130
100
AcDbEntity
  8
0
  6
Continuous
 62
     0
370
     0
100
AcDbHatch
 10
0.0
 20
0.0
 30
0.0
210
0.0
220
0.0
230
1.0
  2
SOLID
 70
     1
 71
     0
 91
        1
 92
        0
 93
        3
 72
     2
 10
0.0
 20
0.0
 40
2.999999999999996
 50
180.0
 51
270.0000000000007
 73
     1
 72
     1
 10
0.0
 20
-2.999999999999996
 11
0.0
 21
0.0
 72
     1
 10
0.0
 20
0.0
 11
-2.999999999999996
 21
0.0
 97
        0
 75
     0
 76
     1
 98
        1
 10
0.0
 20
0.0
  0
ENDBLK
  5
132
330
130
100
AcDbEntity
  8
0
100
AcDbBlockEnd
  0
ENDSEC
  0
SECTION
  2
ENTITIES
  0
LINE
  5
96
330
1F
100
AcDbEntity
  8
외형선
  6
Continuous
370
    15
100
AcDbLine
 10
8.949887971419855
 20
12.7
 30
0.0
 11
-14.06992499999997
 21
12.7
 31
0.0
  0
LINE
  5
97
330
1F
100
AcDbEntity
  8
외형선
  6
Continuous
370
    15
100
AcDbLine
 10
-50.49999999999999
 20
-12.70000000000001
 30
0.0
 11
8.949887971419855
 21
-12.7
 31
0.0
  0
LINE
  5
99
330
1F
100
AcDbEntity
  8
외형선
  6
Continuous
370
    15
100
AcDbLine
 10
-51.49999999999998
 20
-11.7
 30
0.0
 11
-50.49999999999999
 21
-12.7
 31
0.0
  0
SPLINE
  5
9A
330
1F
100
AcDbEntity
  8
외형선
  6
Continuous
370
    15
100
AcDbSpline
210
0.0
220
0.0
230
1.0
 70
     8
 71
     3
 72
     9
 73
     5
 74
     0
 42
0.000000001
 43
0.00000001
 40
0.0
 40
0.0
 40
0.0
 40
0.0
 40
0.5272468837083789
 40
1.0
 40
1.0
 40
1.0
 40
1.0
 10
11.99999999999998
 20
8.512839623332546
 30
0.0
 10
11.46162004385785
 20
8.483246099620304
 30
0.0
 10
10.44050456119167
 20
8.427117700142448
 30
0.0
 10
9.428356063538
 20
8.397865081970195
 30
0.0
 10
8.949859707122348
 20
8.384035815569575
 30
0.0
  0
SPLINE
  5
9B
330
1F
100
AcDbEntity
  8
0
  6
Continuous
 62
     1
370
    15
100
AcDbSpline
210
0.0
220
0.0
230
1.0
 70
     8
 71
     3
 72
     9
 73
     5
 74
     0
 42
0.000000001
 43
0.00000001
 40
0.0
 40
0.0
 40
0.0
 40
0.0
 40
0.4150865623207972
 40
1.0
 40
1.0
 40
1.0
 40
1.0
 10
55.29752477325674
 20
3.254330164068425
 30
0.0
 10
54.81055481527318
 20
3.485761921524558
 30
0.0
 10
53.63737793558608
 20
4.043312510881566
 30
0.0
 10
52.46209016553131
 20
4.65731804625872
 30
0.0
 10
51.77464855568626
 20
5.016458134710232
 30
0.0
  0
LINE
  5
9C
330
1F
100
AcDbEntity
  8
0
  6
Continuous
 62
     1
370
    15
100
AcDbLine
 10
48.22499943985362
 20
3.602409757546113
 30
0.0
 11
48.13710648766112
 21
3.651197403067989
 31
0.0
  0
LINE
  5
9D
330
1F
100
AcDbEntity
  8
0
  6
Continuous
 62
     1
370
    15
100
AcDbLine
 10
26.15405200957098
 20
12.7
 30
0.0
 11
19.9979459602177
 21
12.7
 31
0.0
  0
SPLINE
  5
9E
330
1F
100
AcDbEntity
  8
0
  6
Continuous
 62
     1
370
    15
100
AcDbSpline
210
0.0
220
0.0
230
1.0
 70
     8
 71
     3
 72
    18
 73
    14
 74
     0
 42
0.000000001
 43
0.00000001
 40
0.0
 40
0.0
 40
0.0
 40
0.0
 40
0.1286017165570917
 40
0.2310868144623311
 40
0.3144771403673715
 40
0.3936236093257308
 40
0.4680646686268405
 40
0.5335454806144759
 40
0.6361655329744333
 40
0.7723756047191757
 40
0.8964551686466902
 40
0.9690239626255835
 40
1.0
 40
1.0
 40
1.0
 40
1.0
 10
51.09989248573843
 20
10.09191412607258
 30
0.0
 10
50.66465685818822
 20
10.06980486129772
 30
0.0
 10
49.88257387046667
 20
10.03007631253718
 30
0.0
 10
48.79339760362361
 20
9.988611875678153
 30
0.0
 10
47.86310398659658
 20
9.960681139324533
 30
0.0
 10
47.0379466058507
 20
9.941348861427942
 30
0.0
 10
46.28101605222458
 20
9.928693675225489
 30
0.0
 10
45.44206300523461
 20
9.919710433065422
 30
0.0
 10
44.38937130959217
 20
9.916135901475792
 30
0.0
 10
43.13426543538526
 20
9.924801507756122
 30
0.0
 10
41.98294597515679
 20
9.94613221100658
 30
0.0
 10
41.19575176470441
 20
9.966517808372457
 30
0.0
 10
40.83764193321294
 20
9.97847713158391
 30
0.0
 10
40.73051129830394
 20
9.982054832546181
 30
0.0
  0
SPLINE
  5
9F
330
1F
100
AcDbEntity
  8
0
  6
Continuous
 62
     1
370
    15
100
AcDbSpline
210
0.0
220
0.0
230
1.0
 70
     8
 71
     3
 72
    29
 73
    25
 74
     0
 42
0.000000001
 43
0.00000001
 40
0.0
 40
0.0
 40
0.0
 40
0.0
 40
0.0710918719482916
 40
0.1229114652617962
 40
0.1571900768168025
 40
0.1917439996510473
 40
0.2337329248089754
 40
0.276604356402284
 40
0.3115293554663346
 40
0.363961167945423
 40
0.4255337313860997
 40
0.4998882588653314
 40
0.5441972242940724
 40
0.5788053300050234
 40
0.6131160223714202
 40
0.6522659264244572
 40
0.695607741678581
 40
0.7428903504645227
 40
0.7780446864074553
 40
0.806249788739868
 40
0.830172121252904
 40
0.8685329182264236
 40
0.9251640504800619
 40
1.0
 40
1.0
 40
1.0
 40
1.0
 10
31.99798755558203
 20
-10.56817126844926
 30
0.0
 10
32.44872751002396
 20
-10.52429656942189
 30
0.0
 10
33.22801643200916
 20
-10.44844115307703
 30
0.0
 10
34.22564890620118
 20
-10.36203268559572
 30
0.0
 10
34.9986687160505
 20
-10.29978063564183
 30
0.0
 10
35.70768901355793
 20
-10.24626397224707
 30
0.0
 10
36.46911360721745
 20
-10.19303324411514
 30
0.0
 10
37.23134841961836
 20
-10.14445176179822
 30
0.0
 10
38.06026978615079
 20
-10.09649487778459
 30
0.0
 10
39.00875205494923
 20
-10.04808950472869
 30
0.0
 10
40.2083963697013
 20
-9.997423925997804
 30
0.0
 10
41.35573570023895
 20
-9.961032978270664
 30
0.0
 10
42.33172286894609
 20
-9.93936163963563
 30
0.0
 10
43.05289907056365
 20
-9.927868569156763
 30
0.0
 10
43.74107666919896
 20
-9.9206752090178
 30
0.0
 10
44.48466221511116
 20
-9.917255572292817
 30
0.0
 10
45.31067116345368
 20
-9.918924693080388
 30
0.0
 10
46.11183070637627
 20
-9.926343494927753
 30
0.0
 10
46.8159206616513
 20
-9.93747394080682
 30
0.0
 10
47.36960065533402
 20
-9.949026685627514
 30
0.0
 10
47.93889408775156
 20
-9.963142078790971
 30
0.0
 10
48.69621522215174
 20
-9.985883097518391
 30
0.0
 10
49.77963927218831
 20
-10.02574639933642
 30
0.0
 10
50.62097367284807
 20
-10.06791193557238
 30
0.0
 10
51.09989248573843
 20
-10.09191412607258
 30
0.0
  0
SPLINE
  5
A0
330
1F
100
AcDbEntity
  8
0
  6
Continuous
 62
     1
370
    15
100
AcDbSpline
210
0.0
220
0.0
230
1.0
 70
     8
 71
     3
 72
    19
 73
    15
 74
     0
 42
0.000000001
 43
0.00000001
 40
0.0
 40
0.0
 40
0.0
 40
0.0
 40
0.11412583130748
 40
0.2193783205257474
 40
0.3181934942600793
 40
0.3978635322259058
 40
0.458227397522017
 40
0.5189570308432123
 40
0.5900438529794161
 40
0.6657595298954493
 40
0.7565765637363864
 40
0.8629866309283499
 40
0.9732818097919661
 40
1.0
 40
1.0
 40
1.0
 40
1.0
 10
61.29543711919219
 20
-9.552087619516936
 30
0.0
 10
61.63461619562294
 20
-9.499058944159193
 30
0.0
 10
62.28660300082203
 20
-9.397124600230136
 30
0.0
 10
63.3116102348571
 20
-9.25083596351893
 30
0.0
 10
64.22982670591459
 20
-9.130077145714292
 30
0.0
 10
65.01087100448453
 20
-9.031027908971465
 30
0.0
 10
65.63213146253003
 20
-8.958767742005179
 30
0.0
 10
66.21456707582867
 20
-8.893813260610203
 30
0.0
 10
66.86708768277119
 20
-8.82457240245952
 30
0.0
 10
67.62009930231194
 20
-8.75060713799588
 30
0.0
 10
68.48461951971056
 20
-8.67293359097517
 30
0.0
 10
69.45857612894632
 20
-8.596046098203924
 30
0.0
 10
70.228853141769
 20
-8.541822653672396
 30
0.0
 10
70.6625768498214
 20
-8.517169049877785
 30
0.0
 10
70.74715481916843
 20
-8.512361492192273
 30
0.0
  0
SPLINE
  5
A1
330
1F
100
AcDbEntity
  8
0
  6
Continuous
 62
     1
370
    15
100
AcDbSpline
210
0.0
220
0.0
230
1.0
 70
     8
 71
     3
 72
     9
 73
     5
 74
     0
 42
0.000000001
 43
0.00000001
 40
0.0
 40
0.0
 40
0.0
 40
0.0
 40
0.4997951371057253
 40
1.0
 40
1.0
 40
1.0
 40
1.0
 10
14.37576089984392
 20
8.68619692404794
 30
0.0
 10
13.97922675482109
 20
8.653401222244627
 30
0.0
 10
13.18583339105382
 20
8.587782933132754
 30
0.0
 10
12.39538575261192
 20
8.537827549268965
 30
0.0
 10
11.99999999999998
 20
8.512839623332546
 30
0.0
  0
SPLINE
  5
A2
330
1F
100
AcDbEntity
  8
0
  6
Continuous
 62
     1
370
    15
100
AcDbSpline
210
0.0
220
0.0
230
1.0
 70
     8
 71
     3
 72
     9
 73
     5
 74
     0
 42
0.000000001
 43
0.00000001
 40
0.0
 40
0.0
 40
0.0
 40
0.0
 40
0.5002048628942747
 40
1.0
 40
1.0
 40
1.0
 40
1.0
 10
11.99999999999998
 20
-8.51283962333255
 30
0.0
 10
12.39538575261192
 20
-8.537827549268972
 30
0.0
 10
13.18583339105382
 20
-8.587782933132761
 30
0.0
 10
13.97922675482109
 20
-8.65340122224463
 30
0.0
 10
14.37576089984392
 20
-8.686196924047943
 30
0.0
  0
SPLINE
  5
A3
330
1F
100
AcDbEntity
  8
0
  6
Continuous
 62
     1
370
    15
100
AcDbSpline
210
0.0
220
0.0
230
1.0
 70
     8
 71
     3
 72
    35
 73
    31
 74
     0
 42
0.000000001
 43
0.00000001
 40
0.0
 40
0.0
 40
0.0
 40
0.0
 40
0.0500735828275643
 40
0.0917841285450387
 40
0.1251355762556216
 40
0.1523759110127863
 40
0.1703536497194515
 40
0.1866503582447425
 40
0.2051862393583284
 40
0.2264319535691678
 40
0.2506290521907227
 40
0.2863953040574507
 40
0.3154199381350619
 40
0.3396656845599695
 40
0.3724014285231458
 40
0.413015504127733
 40
0.4528586681234711
 40
0.4900557082868582
 40
0.5224383435712621
 40
0.5581576430378109
 40
0.6099411521247772
 40
0.6699756376937873
 40
0.7195983676046117
 40
0.7592691834129144
 40
0.7924225679487853
 40
0.8194112768543496
 40
0.8533649884711272
 40
0.8978853576785738
 40
0.9467709712429438
 40
1.0
 40
1.0
 40
1.0
 40
1.0
 10
83.48155049174072
 20
8.68619983178089
 30
0.0
 10
83.10757918628265
 20
8.655347649075846
 30
0.0
 10
82.42209537557707
 20
8.598796059527194
 30
0.0
 10
81.49447960367513
 20
8.536004402244327
 30
0.0
 10
80.75093749961383
 20
8.49152499565419
 30
0.0
 10
80.18035622481487
 20
8.462010143952005
 30
0.0
 10
79.789988000042
 20
8.441442274182409
 30
0.0
 10
79.43503099210469
 20
8.42341129919245
 30
0.0
 10
79.01965264956425
 20
8.406866809120814
 30
0.0
 10
78.53465794174232
 20
8.391981404389101
 30
0.0
 10
77.91129064399847
 20
8.378058304487897
 30
0.0
 10
77.22981248682142
 20
8.366305308632853
 30
0.0
 10
76.54971184812325
 20
8.359099915814284
 30
0.0
 10
75.91008538714581
 20
8.356671416016086
 30
0.0
 10
75.18450232634635
 20
8.359251202593079
 30
0.0
 10
74.34291720840984
 20
8.370201174500592
 30
0.0
 10
73.46872554470787
 20
8.390714813543307
 30
0.0
 10
72.65540820385057
 20
8.41783875853876
 30
0.0
 10
71.87266015013199
 20
8.450857744276625
 30
0.0
 10
70.98152501323639
 20
8.496127869432595
 30
0.0
 10
69.88552177466538
 20
8.564088601284974
 30
0.0
 10
68.68565087614401
 20
8.655157819868212
 30
0.0
 10
67.57508049963843
 20
8.754162966099189
 30
0.0
 10
66.6647699107879
 20
8.845110310790604
 30
0.0
 10
65.93319610526916
 20
8.924946273330843
 30
0.0
 10
65.27463496914008
 20
8.999355390942457
 30
0.0
 10
64.46530577799331
 20
9.099353042358365
 30
0.0
 10
63.49936350387532
 20
9.225498838813206
 30
0.0
 10
62.38159748724068
 20
9.382286261591853
 30
0.0
 10
61.66761360417058
 20
9.493904615978828
 30
0.0
 10
61.29543711919219
 20
9.552087619516929
 30
0.0
  0
LINE
  5
A4
330
1F
100
AcDbEntity
  8
0
  6
Continuous
 62
     1
370
    15
100
AcDbLine
 10
19.99798071206072
 20
-12.70000000000001
 30
0.0
 11
26.15405200957099
 21
-12.70000000000001
 31
0.0
  0
SPLINE
  5
A5
330
1F
100
AcDbEntity
  8
외형선
  6
Continuous
370
    15
100
AcDbSpline
210
0.0
220
0.0
230
1.0
 70
     8
 71
     3
 72
     8
 73
     4
 74
     0
 42
0.000000001
 43
0.00000001
 40
0.0
 40
0.0
 40
0.0
 40
0.0
 40
1.0
 40
1.0
 40
1.0
 40
1.0
 10
8.949887971419848
 20
11.13157217680332
 30
0.0
 10
9.96636664444171
 20
11.41408834953116
 30
0.0
 10
10.9860095324541
 20
11.66111313751621
 30
0.0
 10
11.99999999999999
 20
11.86966172288474
 30
0.0
  0
SPLINE
  5
A6
330
1F
100
AcDbEntity
  8
외형선
  6
Continuous
370
    15
100
AcDbSpline
210
0.0
220
0.0
230
1.0
 70
     8
 71
     3
 72
     8
 73
     4
 74
     0
 42
0.000000001
 43
0.00000001
 40
0.0
 40
0.0
 40
0.0
 40
0.0
 40
1.0
 40
1.0
 40
1.0
 40
1.0
 10
12.00000000000023
 20
-10.16055704493489
 30
0.0
 10
10.98597052775541
 20
-9.808745999042763
 30
0.0
 10
9.966288055017019
 20
-9.423676129651748
 30
0.0
 10
8.94977067020783
 20
-9.010065947039001
 30
0.0
  0
LINE
  5
A7
330
1F
100
AcDbEntity
  8
외형선
  6
Continuous
370
    15
100
AcDbLine
 10
12.0
 20
-10.1605570449348
 30
0.0
 11
12.0
 21
-11.86966172288474
 31
0.0
  0
SPLINE
  5
A8
330
1F
100
AcDbEntity
  8
외형선
  6
Continuous
370
    15
100
AcDbSpline
210
0.0
220
0.0
230
1.0
 70
     8
 71
     3
 72
     8
 73
     4
 74
     0
 42
0.000000001
 43
0.00000001
 40
0.0
 40
0.0
 40
0.0
 40
0.0
 40
1.0
 40
1.0
 40
1.0
 40
1.0
 10
8.949887971419848
 20
-11.13157217680332
 30
0.0
 10
9.96636664444171
 20
-11.41408834953116
 30
0.0
 10
10.9860095324541
 20
-11.66111313751622
 30
0.0
 10
11.99999999999999
 20
-11.86966172288474
 30
0.0
  0
LINE
  5
A9
330
1F
100
AcDbEntity
  8
외형선
  6
Continuous
370
    15
100
AcDbLine
 10
8.949887971419855
 20
-12.7
 30
0.0
 11
8.949887971419848
 21
-11.13157073255064
 31
0.0
  0
LINE
  5
AA
330
1F
100
AcDbEntity
  8
외형선
  6
Continuous
370
    15
100
AcDbLine
 10
-50.49999999999999
 20
10.795
 30
0.0
 11
-50.49999999999999
 21
-12.70000000000001
 31
0.0
  0
LINE
  5
AB
330
1F
100
AcDbEntity
  8
외형선
  6
Continuous
370
    15
100
AcDbLine
 10
8.949887971419855
 20
-9.009682352070392
 30
0.0
 11
8.949887971419855
 21
12.7
 31
0.0
  0
LINE
  5
AC
330
1F
100
AcDbEntity
  8
외형선
  6
Continuous
370
    15
100
AcDbLine
 10
-51.49999999999998
 20
10.795
 30
0.0
 11
-51.49999999999998
 21
-11.69999999999998
 31
0.0
  0
SPLINE
  5
AD
330
1F
100
AcDbEntity
  8
외형선
  6
Continuous
370
    15
100
AcDbSpline
210
0.0
220
0.0
230
1.0
 70
     8
 71
     3
 72
     8
 73
     4
 74
     0
 42
0.000000001
 43
0.00000001
 40
0.0
 40
0.0
 40
0.0
 40
0.0
 40
1.0
 40
1.0
 40
1.0
 40
1.0
 10
12.00000000000027
 20
-8.2304290167441
 30
0.0
 10
10.98597052775544
 20
-7.907898043294402
 30
0.0
 10
9.966288055017033
 20
-7.558356791931755
 30
0.0
 10
8.949770670207826
 20
-7.1860961821706
 30
0.0
  0
SPLINE
  5
AE
330
1F
100
AcDbEntity
  8
외형선
  6
Continuous
370
    15
100
AcDbSpline
210
0.0
220
0.0
230
1.0
 70
     8
 71
     3
 72
     8
 73
     4
 74
     0
 42
0.000000001
 43
0.00000001
 40
0.0
 40
0.0
 40
0.0
 40
0.0
 40
1.0
 40
1.0
 40
1.0
 40
1.0
 10
12.00000000000001
 20
3.220028955827956
 30
0.0
 10
10.98599528800025
 20
3.664960899859863
 30
0.0
 10
9.966337943712313
 20
4.100381386744367
 30
0.0
 10
8.949845133198968
 20
4.520840176673836
 30
0.0
  0
SPLINE
  5
AF
330
1F
100
AcDbEntity
  8
외형선
  6
Continuous
370
    15
100
AcDbSpline
210
0.0
220
0.0
230
1.0
 70
    24
 71
     3
 72
    14
 73
    10
 74
     0
 42
0.000000001
 43
0.00000001
 40
0.0
 40
0.0
 40
0.0
 40
0.0
 40
0.25
 40
0.25
 40
0.5
 40
0.5
 40
0.75
 40
0.75
 40
1.0
 40
1.0
 40
1.0
 40
1.0
 10
12.00000000000001
 20
3.220028955827944
 30
0.0
 10
12.00000000000001
 20
2.261423300166601
 30
0.0
 10
12.00000000000001
 20
1.258686053751037
 30
0.0
 10
12.00000000000001
 20
-0.7707581836896858
 30
0.0
 10
12.00000000000001
 20
-1.79694387648175
 30
0.0
 10
12.00000000000001
 20
-3.798195106817387
 30
0.0
 10
12.00000000000001
 20
-4.772682743755819
 30
0.0
 10
12.00000000000001
 20
-6.602614276719477
 30
0.0
 10
12.00000000000001
 20
-7.457693979151266
 30
0.0
 10
12.00000000000001
 20
-8.230429016744017
 30
0.0
  0
SPLINE
  5
B0
330
1F
100
AcDbEntity
  8
외형선
  6
Continuous
370
    15
100
AcDbSpline
210
0.0
220
0.0
230
1.0
 70
    24
 71
     3
 72
    16
 73
    12
 74
     0
 42
0.000000001
 43
0.00000001
 40
0.0
 40
0.0
 40
0.0
 40
0.0
 40
0.059159862289013
 40
0.1547480622073074
 40
0.2503362621256018
 40
0.435955457199023
 40
0.5315436571173173
 40
0.6271318570356118
 40
0.8108736731688998
 40
0.90543683658445
 40
1.0
 40
1.0
 40
1.0
 40
1.0
 10
11.99999999999999
 20
8.470935508291161
 30
0.0
 10
11.99999999999999
 20
8.482591229406072
 30
0.0
 10
11.99999999999999
 20
8.513079810453634
 30
0.0
 10
11.99999999999999
 20
8.378501130832715
 30
0.0
 10
11.99999999999999
 20
8.098073897880912
 30
0.0
 10
11.99999999999999
 20
7.60821146280927
 30
0.0
 10
11.99999999999999
 20
6.941414742398552
 30
0.0
 10
11.99999999999999
 20
6.159482262859542
 30
0.0
 10
11.99999999999999
 20
5.211084242663746
 30
0.0
 10
11.99999999999999
 20
4.128562451730594
 30
0.0
 10
11.99999999999999
 20
3.522873454462168
 30
0.0
 10
11.99999999999999
 20
3.220028955827955
 30
0.0
  0
SPLINE
  5
B1
330
1F
100
AcDbEntity
  8
외형선
  6
Continuous
370
    15
100
AcDbSpline
210
0.0
220
0.0
230
1.0
 70
    24
 71
     3
 72
     8
 73
     4
 74
     0
 42
0.000000001
 43
0.00000001
 40
0.0
 40
0.0
 40
0.0
 40
0.0
 40
1.0
 40
1.0
 40
1.0
 40
1.0
 10
12.00000000000001
 20
-8.23042901674402
 30
0.0
 10
12.00000000000001
 20
-8.853456005165048
 30
0.0
 10
12.00000000000001
 20
-9.500876716818514
 30
0.0
 10
12.00000000000001
 20
-10.16055704492232
 30
0.0
  0
SPLINE
  5
B2
330
1F
100
AcDbEntity
  8
외형선
  6
Continuous
370
    15
100
AcDbSpline
210
0.0
220
0.0
230
1.0
 70
    24
 71
     3
 72
    12
 73
     8
 74
     0
 42
0.000000001
 43
0.00000001
 40
0.0
 40
0.0
 40
0.0
 40
0.0
 40
0.1950064195898379
 40
0.4208024764167452
 40
0.653146634188144
 40
0.8501204943106231
 40
0.9999999999999999
 40
0.9999999999999999
 40
0.9999999999999999
 40
0.9999999999999999
 10
11.99999999999999
 20
11.86966172288474
 30
0.0
 10
11.99999999999999
 20
11.62799157066195
 30
0.0
 10
11.99999999999999
 20
11.10649387461041
 30
0.0
 10
11.99999999999999
 20
10.32526155606037
 30
0.0
 10
11.99999999999999
 20
9.59551455353571
 30
0.0
 10
11.99999999999999
 20
9.001418654591076
 30
0.0
 10
11.99999999999999
 20
8.6996698513676
 30
0.0
 10
11.99999999999999
 20
8.569280568958195
 30
0.0
  0
SPLINE
  5
B3
330
1F
100
AcDbEntity
  8
0
  6
Continuous
 62
     1
370
    15
100
AcDbSpline
210
0.0
220
0.0
230
1.0
 70
     8
 71
     3
 72
    25
 73
    21
 74
     0
 42
0.000000001
 43
0.00000001
 40
0.0
 40
0.0
 40
0.0
 40
0.0
 40
0.0550298400091455
 40
0.1100563696206696
 40
0.1650800493651612
 40
0.2201013411723226
 40
0.2751207081454231
 40
0.3301386143345224
 40
0.3851555245086991
 40
0.4456783430845015
 40
0.5062009451712179
 40
0.5667232622908019
 40
0.6272452260046971
 40
0.6877667679233056
 40
0.748287819715446
 40
0.8088083131177941
 40
0.8693281799442996
 40
0.9298473520955847
 40
0.9903657615683125
 40
1.0
 40
1.0
 40
1.0
 40
1.0
 10
88.2
 20
-12.05154903924513
 30
0.0
 10
87.06187543670619
 20
-11.81630575132174
 30
0.0
 10
84.7856947756065
 20
-11.34583332686666
 30
0.0
 10
81.37157034935564
 20
-10.28975886900082
 30
0.0
 10
77.95765531088728
 20
-9.00716956291044
 30
0.0
 10
74.54391662889142
 20
-7.502532761630593
 30
0.0
 10
71.13032955751287
 20
-5.819081851702838
 30
0.0
 10
67.71681932811742
 20
-3.9953937700314
 30
0.0
 10
64.18962742937701
 20
-2.011734291650046
 30
0.0
 10
60.54810516891296
 20
0.0917807252954902
 30
0.0
 10
56.79285920358431
 20
2.258432095777145
 30
0.0
 10
53.03759621340807
 20
4.359404503059407
 30
0.0
 10
49.28236977472181
 20
6.333684687417115
 30
0.0
 10
45.52717201961226
 20
8.123654225923294
 30
0.0
 10
41.77201139121188
 20
9.678102976161604
 30
0.0
 10
38.0168925051719
 20
10.948762325195
 30
0.0
 10
34.26181894472749
 20
11.91019230850934
 30
0.0
 10
30.50680221424694
 20
12.49154216440963
 30
0.0
 10
27.80420786063588
 20
12.73948786802143
 30
0.0
 10
26.35330774755821
 20
12.68348244560948
 30
0.0
 10
26.15405200957098
 20
12.67579108100527
 30
0.0
  0
SPLINE
  5
B4
330
1F
100
AcDbEntity
  8
0
  6
Continuous
 62
     1
370
    15
100
AcDbSpline
210
0.0
220
0.0
230
1.0
 70
     8
 71
     3
 72
    16
 73
    12
 74
     0
 42
0.000000001
 43
0.00000001
 40
0.0
 40
0.0
 40
0.0
 40
0.0
 40
0.1202242372408562
 40
0.2404614047035915
 40
0.3607087002868735
 40
0.4809633110950926
 40
0.6012224164264369
 40
0.7214831907788191
 40
0.8417428068667986
 40
0.9619984386425902
 40
1.0
 40
1.0
 40
1.0
 40
1.0
 10
88.2
 20
-10.01994775747635
 30
0.0
 10
86.87946451634629
 20
-9.747419619014014
 30
0.0
 10
84.23825152429245
 20
-9.202334031449663
 30
0.0
 10
80.27616588312287
 20
-8.000074383590075
 30
0.0
 10
76.31370257727396
 20
-6.562211095667326
 30
0.0
 10
72.35096095487356
 20
-4.905554643379139
 30
0.0
 10
68.38804987124828
 20
-3.092364999579071
 30
0.0
 10
64.42507477555988
 20
-1.176481536716121
 30
0.0
 10
60.46214634890431
 20
0.769302550259356
 30
0.0
 10
57.40279759074662
 20
2.275454814486059
 30
0.0
 10
55.66445325789272
 20
3.073525757257505
 30
0.0
 10
55.24703274437677
 20
3.265162808938112
 30
0.0
  0
LINE
  5
B5
330
1F
100
AcDbEntity
  8
0
  6
Continuous
 62
     1
370
    15
100
AcDbLine
 10
88.2
 20
-12.05154903924514
 30
0.0
 11
88.2
 21
-10.01994775747635
 31
0.0
  0
SPLINE
  5
B6
330
1F
100
AcDbEntity
  8
0
  6
Continuous
 62
     1
370
    15
100
AcDbSpline
210
0.0
220
0.0
230
1.0
 70
     8
 71
     3
 72
    76
 73
    72
 74
     0
 42
0.000000001
 43
0.00000001
 40
0.0
 40
0.0
 40
0.0
 40
0.0
 40
0.0312500000000002
 40
0.0312500000000002
 40
0.0625000000000004
 40
0.0625000000000004
 40
0.0937500000000008
 40
0.0937500000000008
 40
0.125000000000001
 40
0.125000000000001
 40
0.1562500000000013
 40
0.1562500000000013
 40
0.1875000000000016
 40
0.1875000000000016
 40
0.2187500000000019
 40
0.2187500000000019
 40
0.2500000000000021
 40
0.2500000000000021
 40
0.2812500000000024
 40
0.2812500000000024
 40
0.3125000000000027
 40
0.3125000000000027
 40
0.343750000000003
 40
0.343750000000003
 40
0.3750000000000032
 40
0.3750000000000032
 40
0.4062500000000036
 40
0.4062500000000036
 40
0.4375000000000037
 40
0.4375000000000037
 40
0.4687500000000039
 40
0.4687500000000039
 40
0.500000000000004
 40
0.500000000000004
 40
0.515625000000004
 40
0.515625000000004
 40
0.531250000000004
 40
0.531250000000004
 40
0.5625000000000039
 40
0.5625000000000039
 40
0.5781250000000038
 40
0.5781250000000038
 40
0.5937500000000036
 40
0.5937500000000036
 40
0.6093750000000034
 40
0.6093750000000034
 40
0.6250000000000033
 40
0.6250000000000033
 40
0.6562500000000031
 40
0.6562500000000031
 40
0.6875000000000028
 40
0.6875000000000028
 40
0.7187500000000024
 40
0.7187500000000024
 40
0.7500000000000022
 40
0.7500000000000022
 40
0.781250000000002
 40
0.781250000000002
 40
0.8125000000000017
 40
0.8125000000000017
 40
0.8437500000000013
 40
0.8437500000000013
 40
0.8750000000000011
 40
0.8750000000000011
 40
0.9062500000000009
 40
0.9062500000000009
 40
0.9375000000000006
 40
0.9375000000000006
 40
0.9687500000000002
 40
0.9687500000000002
 40
1.0
 40
1.0
 40
1.0
 40
1.0
 10
11.99999999999995
 20
11.86966172288474
 30
0.0
 10
12.79179960216355
 20
12.03251205749019
 30
0.0
 10
13.58839925986629
 20
12.17247791193195
 30
0.0
 10
15.17724146841674
 20
12.4040317496747
 30
0.0
 10
15.96740976504842
 20
12.49562447449935
 30
0.0
 10
17.55696600152404
 20
12.63002815685482
 30
0.0
 10
18.35281136793351
 20
12.67263907325753
 30
0.0
 10
19.9353182914042
 20
12.70819774321785
 30
0.0
 10
20.7317516107158
 20
12.70120940574067
 30
0.0
 10
22.32103039854427
 20
12.63760893365525
 30
0.0
 10
23.11114107818989
 20
12.58114412660665
 30
0.0
 10
24.70032503259993
 20
12.41912271911731
 30
0.0
 10
25.49680115419768
 20
12.31354590165327
 30
0.0
 10
27.07957163680855
 20
12.05530476616404
 30
0.0
 10
27.87511350216556
 20
11.90215256319928
 30
0.0
 10
29.46474486954708
 20
11.54999990118034
 30
0.0
 10
30.25494846219618
 20
11.35137531651757
 30
0.0
 10
31.84367615153334
 20
10.90991920294371
 30
0.0
 10
32.64030868483759
 20
10.66716858622898
 30
0.0
 10
34.22415200285069
 20
10.14200657788912
 30
0.0
 10
35.01849187791921
 20
9.858838329855786
 30
0.0
 10
36.60839176296367
 20
9.254919201428352
 30
0.0
 10
37.39883878224062
 20
8.934870143589803
 30
0.0
 10
38.9870263039132
 20
8.260190788109751
 30
0.0
 10
39.78377289834223
 20
7.905632045312535
 30
0.0
 10
41.36860600825541
 20
7.168358818052229
 30
0.0
 10
42.16189367878011
 20
6.784872035725575
 30
0.0
 10
43.75197797224234
 20
5.992310537904705
 30
0.0
 10
44.54281888889893
 20
5.584250371495041
 30
0.0
 10
46.13038243548187
 20
4.746940008629275
 30
0.0
 10
46.92720072017691
 20
4.317635113586911
 30
0.0
 10
48.51294040465947
 20
3.445273157909341
 30
0.0
 10
49.30532584142355
 20
3.001604325564144
 30
0.0
 10
50.49796426150414
 20
2.32784653385913
 30
0.0
 10
50.89544357895165
 20
2.102024748901242
 30
0.0
 10
51.68852443640641
 20
1.648906810709157
 30
0.0
 10
52.08360958544249
 20
1.421710917577452
 30
0.0
 10
53.27375149090569
 20
0.7374416219652539
 30
0.0
 10
54.0705990822614
 20
0.2782722219468631
 30
0.0
 10
55.26052124405448
 20
-0.4089282307689598
 30
0.0
 10
55.65559001761804
 20
-0.6376049238009371
 30
0.0
 10
56.44882536232249
 20
-1.094708825247424
 30
0.0
 10
56.84634546399363
 20
-1.323010981721584
 30
0.0
 10
57.64144579763979
 20
-1.778110072695462
 30
0.0
 10
58.0390251759072
 20
-2.004906518326997
 30
0.0
 10
58.83249676054974
 20
-2.456000597905253
 30
0.0
 10
59.22759194129468
 20
-2.680149583018335
 30
0.0
 10
60.41714041254555
 20
-3.349151247893314
 30
0.0
 10
61.21397492174563
 20
-3.790179038097814
 30
0.0
 10
62.80127748060998
 20
-4.654544455742472
 30
0.0
 10
63.59230897076328
 20
-5.078013873824496
 30
0.0
 10
65.18244158293855
 20
-5.904898244953077
 30
0.0
 10
65.97536619030765
 20
-6.30722473875477
 30
0.0
 10
67.56055613922855
 20
-7.085624309271976
 30
0.0
 10
68.3573351797828
 20
-7.462402203808162
 30
0.0
 10
69.94529376352287
 20
-8.184459121048926
 30
0.0
 10
70.73587377914343
 20
-8.529708608672026
 30
0.0
 10
72.32585418590547
 20
-9.186827399077595
 30
0.0
 10
73.11977361554568
 20
-9.49789764289129
 30
0.0
 10
74.70400560502115
 20
-10.08136232844348
 30
0.0
 10
75.50068680030205
 20
-10.35450350657077
 30
0.0
 10
77.08921764181508
 20
-10.85870768497767
 30
0.0
 10
77.87949663023308
 20
-11.08969308487833
 30
0.0
 10
79.46924070813425
 20
-11.50835552092365
 30
0.0
 10
80.26430481971889
 20
-11.69556895794636
 30
0.0
 10
81.84749573800364
 20
-12.02318389230771
 30
0.0
 10
82.64403672877906
 20
-12.16414303136129
 30
0.0
 10
84.23305596015867
 20
-12.39772127079145
 30
0.0
 10
85.02318442171912
 20
-12.49033128703365
 30
0.0
 10
86.61260808899321
 20
-12.62679275966111
 30
0.0
 10
87.40896654095273
 20
-12.67045028330776
 30
0.0
 10
88.19999999999996
 20
-12.69999999999999
 30
0.0
  0
SPLINE
  5
B7
330
1F
100
AcDbEntity
  8
0
  6
Continuous
 62
     1
370
    15
100
AcDbSpline
210
0.0
220
0.0
230
1.0
 70
     8
 71
     3
 72
    19
 73
    15
 74
     0
 42
0.000000001
 43
0.00000001
 40
0.0
 40
0.0
 40
0.0
 40
0.0
 40
0.0034598231117992
 40
0.0971783904185694
 40
0.1908891520336843
 40
0.2845898327695697
 40
0.3782867266946668
 40
0.4719941047428068
 40
0.5657101123825362
 40
0.6594324687922437
 40
0.7585630865617564
 40
0.857694166554654
 40
0.9568144123797216
 40
1.0
 40
1.0
 40
1.0
 40
1.0
 10
56.64561797938789
 20
-1.207388638395166
 30
0.0
 10
56.59685569307447
 20
-1.188192294770235
 30
0.0
 10
55.22723639638043
 20
-0.6490116155526687
 30
0.0
 10
52.5368907152096
 20
0.4545651991544882
 30
0.0
 10
48.57473524508385
 20
2.041549051170449
 30
0.0
 10
44.61293856783652
 20
3.568808959090045
 30
0.0
 10
40.65121694528195
 20
4.978952723519074
 30
0.0
 10
36.68921559534458
 20
6.22828511214199
 30
0.0
 10
32.72680852221495
 20
7.276322117569144
 30
0.0
 10
28.68799329567726
 20
8.103344192883073
 30
0.0
 10
24.57262399048007
 20
8.671080983443467
 30
0.0
 10
20.38123108454248
 20
8.917141737315143
 30
0.0
 10
16.97835029880299
 20
8.910529023242248
 30
0.0
 10
14.97271962649899
 20
8.70808734598186
 30
0.0
 10
14.36407037414092
 20
8.646652318480461
 30
0.0
  0
SPLINE
  5
B8
330
1F
100
AcDbEntity
  8
외형선
  6
Continuous
370
    15
100
AcDbSpline
210
0.0
220
0.0
230
1.0
 70
    24
 71
     3
 72
    12
 73
     8
 74
     0
 42
0.000000001
 43
0.00000001
 40
0.0
 40
0.0
 40
0.0
 40
0.0
 40
0.1950064195898376
 40
0.4208024764167445
 40
0.6531466341881439
 40
0.8501204943106225
 40
1.0
 40
1.0
 40
1.0
 40
1.0
 10
11.99999999999999
 20
11.86966172288473
 30
0.0
 10
11.99999999999999
 20
11.62799157066195
 30
0.0
 10
11.99999999999999
 20
11.1064938746104
 30
0.0
 10
11.99999999999999
 20
10.32526155606037
 30
0.0
 10
11.99999999999999
 20
9.59551455353571
 30
0.0
 10
11.99999999999999
 20
9.001418654591076
 30
0.0
 10
11.99999999999999
 20
8.699669851367604
 30
0.0
 10
11.99999999999999
 20
8.569280568958195
 30
0.0
  0
LINE
  5
B9
330
1F
100
AcDbEntity
  8
0
  6
Continuous
 62
     1
370
    15
100
AcDbLine
 10
88.19999999999997
 20
-12.7
 30
0.0
 11
88.2
 21
-12.05154903924514
 31
0.0
  0
SPLINE
  5
BA
330
1F
100
AcDbEntity
  8
0
  6
Continuous
 62
     1
370
    15
100
AcDbSpline
210
0.0
220
0.0
230
1.0
 70
     8
 71
     3
 72
    10
 73
     6
 74
     0
 42
0.000000001
 43
0.00000001
 40
0.0
 40
0.0
 40
0.0
 40
0.0
 40
0.5
 40
0.5
 40
1.0
 40
1.0
 40
1.0
 40
1.0
 10
88.2
 20
-3.393985414576482
 30
0.0
 10
87.3494022330054
 20
-2.725276500219902
 30
0.0
 10
86.50743926415034
 20
-2.038875865003501
 30
0.0
 10
84.84054037091926
 20
-0.6311881139455234
 30
0.0
 10
84.0156032680788
 20
0.0900965873561364
 30
0.0
 10
83.20000000000165
 20
0.8305052561804277
 30
0.0
  0
LINE
  5
BB
330
1F
100
AcDbEntity
  8
0
  6
Continuous
 62
     1
370
    15
100
AcDbLine
 10
83.2
 20
2.937719435296597
 30
0.0
 11
88.2
 21
0.0000000000000071
 31
0.0
  0
LINE
  5
BC
330
1F
100
AcDbEntity
  8
0
  6
Continuous
 62
     1
370
    15
100
AcDbLine
 10
88.2
 20
0.0000000000000071
 30
0.0
 11
88.2
 21
-3.393985414576483
 31
0.0
  0
SPLINE
  5
BD
330
1F
100
AcDbEntity
  8
0
  6
Continuous
 62
     1
370
    15
100
AcDbSpline
210
0.0
220
0.0
230
1.0
 70
     8
 71
     3
 72
    16
 73
    12
 74
     0
 42
0.000000001
 43
0.00000001
 40
0.0
 40
0.0
 40
0.0
 40
0.0
 40
0.1153375832475814
 40
0.230675310232895
 40
0.3460131566927741
 40
0.4613510983588477
 40
0.5847824890563104
 40
0.7082126745536961
 40
0.8316387138290409
 40
0.955057670301026
 40
1.0
 40
1.0
 40
1.0
 40
1.0
 10
83.20000000000002
 20
2.289784744250623
 30
0.0
 10
81.96567587859707
 20
2.83895538442602
 30
0.0
 10
79.49702609753328
 20
3.937297349172484
 30
0.0
 10
75.79405333359729
 20
5.456182138766683
 30
0.0
 10
72.09105723705754
 20
6.825359795516476
 30
0.0
 10
68.30151633721118
 20
8.028230237751933
 30
0.0
 10
64.42508470372658
 20
9.012256558429792
 30
0.0
 10
60.46217465660467
 20
9.732285490169437
 30
0.0
 10
56.49939707133581
 20
10.11583399296007
 30
0.0
 10
53.37663520196688
 20
10.22341672534325
 30
0.0
 10
51.57482795020773
 20
10.08958960508743
 30
0.0
 10
51.09385386522516
 20
10.05386581906756
 30
0.0
  0
SPLINE
  5
BE
330
1F
100
AcDbEntity
  8
0
  6
Continuous
 62
     1
370
    15
100
AcDbSpline
210
0.0
220
0.0
230
1.0
 70
    24
 71
     3
 72
     8
 73
     4
 74
     0
 42
0.000000001
 43
0.00000001
 40
0.0
 40
0.0
 40
0.0
 40
0.0
 40
1.0
 40
1.0
 40
1.0
 40
1.0
 10
83.19999999999999
 20
0.8305052561693356
 30
0.0
 10
83.19999999999999
 20
1.32272824036222
 30
0.0
 10
83.19999999999999
 20
1.810406971894842
 30
0.0
 10
83.19999999999999
 20
2.289784744250648
 30
0.0
  0
SPLINE
  5
BF
330
1F
100
AcDbEntity
  8
0
  6
Continuous
 62
     1
370
    15
100
AcDbSpline
210
0.0
220
0.0
230
1.0
 70
    24
 71
     3
 72
    12
 73
     8
 74
     0
 42
0.000000001
 43
0.00000001
 40
0.0
 40
0.0
 40
0.0
 40
0.0
 40
0.4999999999999998
 40
0.4999999999999998
 40
0.7499999999999999
 40
0.7499999999999999
 40
1.0
 40
1.0
 40
1.0
 40
1.0
 10
88.2
 20
-10.01994775747635
 30
0.0
 10
88.20000000000002
 20
-9.251840640348327
 30
0.0
 10
88.19999999999997
 20
-8.281307845612147
 30
0.0
 10
88.19999999999999
 20
-6.589011337313262
 30
0.0
 10
88.20000000000002
 20
-5.986484557406003
 30
0.0
 10
88.20000000000003
 20
-4.725678605577803
 30
0.0
 10
88.20000000000002
 20
-4.067494970664261
 30
0.0
 10
88.20000000000002
 20
-3.393985414576891
 30
0.0
  0
SPLINE
  5
C0
330
1F
100
AcDbEntity
  8
0
  6
Continuous
 62
     1
370
    15
100
AcDbSpline
210
0.0
220
0.0
230
1.0
 70
     8
 71
     3
 72
    13
 73
     9
 74
     0
 42
0.000000001
 43
0.00000001
 40
0.0
 40
0.0
 40
0.0
 40
0.0
 40
0.1620198010134459
 40
0.3295924005653867
 40
0.4971744203793562
 40
0.6647689634554131
 40
0.8323791227012334
 40
1.0
 40
1.0
 40
1.0
 40
1.0
 10
32.00561487353444
 20
-10.5417707029993
 30
0.0
 10
30.9250868592293
 20
-10.63872531620875
 30
0.0
 10
28.72699860158837
 20
-10.83595740459368
 30
0.0
 10
25.41179423857259
 20
-10.78394635839043
 30
0.0
 10
22.05924390668141
 20
-10.51123858144789
 30
0.0
 10
18.70644613581721
 20
-9.983407980951236
 30
0.0
 10
15.35332695275975
 20
-9.239864611422444
 30
0.0
 10
13.11779947578422
 20
-8.566914720185746
 30
0.0
 10
12.00000000000001
 20
-8.230429016744017
 30
0.0
  0
SPLINE
  5
C1
330
1F
100
AcDbEntity
  8
0
  6
Continuous
 62
     1
370
    15
100
AcDbSpline
210
0.0
220
0.0
230
1.0
 70
     8
 71
     3
 72
    20
 73
    16
 74
     0
 42
0.000000001
 43
0.00000001
 40
0.0
 40
0.0
 40
0.0
 40
0.0
 40
0.01708642905801
 40
0.0974603113683147
 40
0.1778295814233207
 40
0.2581923318846746
 40
0.3385466623828837
 40
0.4188978303724844
 40
0.499257755155481
 40
0.5796248876016693
 40
0.6599973226586742
 40
0.7450068409079333
 40
0.8300167450704761
 40
0.9150176003282477
 40
1.0
 40
1.0
 40
1.0
 40
1.0
 10
61.30457407342263
 20
-9.524938843839443
 30
0.0
 10
61.02375936045109
 20
-9.577070983229078
 30
0.0
 10
59.42200341307947
 20
-9.87443063163544
 30
0.0
 10
56.49939664555699
 20
-10.11299517087565
 30
0.0
 10
52.53687824109063
 20
-10.20647238513011
 30
0.0
 10
48.57472258458807
 20
-9.943605454530196
 30
0.0
 10
44.61292788009878
 20
-9.365963047471785
 30
0.0
 10
40.6512147890918
 20
-8.483341201080151
 30
0.0
 10
36.68921124062707
 20
-7.326763436717639
 30
0.0
 10
32.7267996438894
 20
-5.93287760374496
 30
0.0
 10
28.68800505242758
 20
-4.31666093057429
 30
0.0
 10
24.57261445850257
 20
-2.519086237928448
 30
0.0
 10
20.38121797905936
 20
-0.599373075101873
 30
0.0
 10
16.19029603770203
 20
1.350293624363173
 30
0.0
 10
13.39666424160477
 20
2.596828958685506
 30
0.0
 10
12.00000000000001
 20
3.220028955827944
 30
0.0
  0
SPLINE
  5
C2
330
1F
100
AcDbEntity
  8
외형선
  6
Continuous
370
    15
100
AcDbSpline
210
0.0
220
0.0
230
1.0
 70
    24
 71
     3
 72
    14
 73
    10
 74
     0
 42
0.000000001
 43
0.00000001
 40
0.0
 40
0.0
 40
0.0
 40
0.0
 40
0.25
 40
0.25
 40
0.5
 40
0.5
 40
0.75
 40
0.75
 40
1.0
 40
1.0
 40
1.0
 40
1.0
 10
12.00000000000001
 20
3.220028955827944
 30
0.0
 10
12.00000000000001
 20
2.261423300166601
 30
0.0
 10
12.00000000000001
 20
1.258686053751037
 30
0.0
 10
12.00000000000001
 20
-0.7707581836896858
 30
0.0
 10
12.00000000000001
 20
-1.79694387648175
 30
0.0
 10
12.00000000000001
 20
-3.798195106817387
 30
0.0
 10
12.00000000000001
 20
-4.772682743755819
 30
0.0
 10
12.00000000000001
 20
-6.602614276719477
 30
0.0
 10
12.00000000000001
 20
-7.457693979151266
 30
0.0
 10
12.00000000000001
 20
-8.230429016744017
 30
0.0
  0
SPLINE
  5
C3
330
1F
100
AcDbEntity
  8
외형선
  6
Continuous
370
    15
100
AcDbSpline
210
0.0
220
0.0
230
1.0
 70
    24
 71
     3
 72
    16
 73
    12
 74
     0
 42
0.000000001
 43
0.00000001
 40
0.0
 40
0.0
 40
0.0
 40
0.0
 40
0.0595350261627288
 40
0.1550851098932402
 40
0.2506351936237516
 40
0.4361803722798572
 40
0.5317304560103686
 40
0.6272805397408799
 40
0.8109490880694248
 40
0.9054745440347124
 40
1.0
 40
1.0
 40
1.0
 40
1.0
 10
11.99999999999999
 20
8.470811756848173
 30
0.0
 10
11.99999999999999
 20
8.48256796500765
 30
0.0
 10
11.99999999999999
 20
8.513192169813694
 30
0.0
 10
11.99999999999999
 20
8.378532994435982
 30
0.0
 10
11.99999999999999
 20
8.098055862657692
 30
0.0
 10
11.99999999999999
 20
7.608214411533853
 30
0.0
 10
11.99999999999999
 20
6.941414187730679
 30
0.0
 10
11.99999999999999
 20
6.159482573316755
 30
0.0
 10
11.99999999999999
 20
5.211084192356549
 30
0.0
 10
11.99999999999999
 20
4.128562460759547
 30
0.0
 10
11.99999999999999
 20
3.522873457471818
 30
0.0
 10
11.99999999999999
 20
3.220028955827955
 30
0.0
  0
SPLINE
  5
C4
330
1F
100
AcDbEntity
  8
0
  6
Continuous
 62
     1
370
    15
100
AcDbSpline
210
0.0
220
0.0
230
1.0
 70
    24
 71
     3
 72
    10
 73
     6
 74
     0
 42
0.000000001
 43
0.00000001
 40
0.0
 40
0.0
 40
0.0
 40
0.0
 40
0.4999999999999998
 40
0.4999999999999998
 40
1.0
 40
1.0
 40
1.0
 40
1.0
 10
83.2
 20
2.289784744250653
 30
0.0
 10
83.20000000000002
 20
3.318117051978212
 30
0.0
 10
83.20000000000002
 20
4.293337801787552
 30
0.0
 10
83.20000000000003
 20
6.003026800807387
 30
0.0
 10
83.20000000000003
 20
6.735761112039315
 30
0.0
 10
83.2
 20
7.298596457508381
 30
0.0
  0
SPLINE
  5
C5
330
1F
100
AcDbEntity
  8
0
  6
Continuous
 62
     1
370
    15
100
AcDbSpline
210
0.0
220
0.0
230
1.0
 70
     8
 71
     3
 72
     9
 73
     5
 74
     0
 42
0.000000001
 43
0.00000001
 40
0.0
 40
0.0
 40
0.0
 40
0.0
 40
0.8384023704211652
 40
0.9999999999999999
 40
0.9999999999999999
 40
0.9999999999999999
 40
0.9999999999999999
 10
88.2
 20
8.889999999999995
 30
0.0
 10
86.87946773113342
 20
8.881599025985922
 30
0.0
 10
85.30440984072787
 20
8.87157880859334
 30
0.0
 10
83.72932466339314
 20
8.692801890202931
 30
0.0
 10
83.47479463235108
 20
8.663911963967635
 30
0.0
  0
SPLINE
  5
C6
330
1F
100
AcDbEntity
  8
0
  6
Continuous
 62
     1
370
    15
100
AcDbSpline
210
0.0
220
0.0
230
1.0
 70
     8
 71
     3
 72
     8
 73
     4
 74
     0
 42
0.000000001
 43
0.00000001
 40
0.0
 40
0.0
 40
0.0
 40
0.0
 40
1.0
 40
1.0
 40
1.0
 40
1.0
 10
88.2
 20
8.890000000000006
 30
0.0
 10
86.51935188656206
 20
8.434389401781292
 30
0.0
 10
84.85204233969718
 20
7.907363561684512
 30
0.0
 10
83.20000000000002
 20
7.298596457508378
 30
0.0
  0
SPLINE
  5
C7
330
1F
100
AcDbEntity
  8
0
  6
Continuous
 62
     1
370
    15
100
AcDbSpline
210
0.0
220
0.0
230
1.0
 70
     8
 71
     3
 72
    15
 73
    11
 74
     0
 42
0.000000001
 43
0.00000001
 40
0.0
 40
0.0
 40
0.0
 40
0.0
 40
0.0942878188582216
 40
0.2250101118013313
 40
0.3557309042530745
 40
0.48645004932694
 40
0.614838067631142
 40
0.7432257400202116
 40
0.871613054728616
 40
1.0
 40
1.0
 40
1.0
 40
1.0
 10
40.72535856196836
 20
-9.983792598718125
 30
0.0
 10
39.82253227748675
 20
-10.30165002902516
 30
0.0
 10
37.66801172893261
 20
-11.06019059976225
 30
0.0
 10
34.26181950069688
 20
-11.89805257017715
 30
0.0
 10
30.50680066957477
 20
-12.5144910850688
 30
0.0
 10
26.7741325011836
 20
-12.75494601678133
 30
0.0
 10
23.06385134393214
 20
-12.63503546819695
 30
0.0
 10
19.37588771021773
 20
-12.15531563432537
 30
0.0
 10
15.68793941707429
 20
-11.355360178501
 30
0.0
 10
13.22931195989591
 20
-10.55882437411427
 30
0.0
 10
11.99999999999648
 20
-10.16055704493359
 30
0.0
  0
SPLINE
  5
C8
330
1F
100
AcDbEntity
  8
외형선
  6
Continuous
370
    15
100
AcDbSpline
210
0.0
220
0.0
230
1.0
 70
    24
 71
     3
 72
     8
 73
     4
 74
     0
 42
0.000000001
 43
0.00000001
 40
0.0
 40
0.0
 40
0.0
 40
0.0
 40
1.0
 40
1.0
 40
1.0
 40
1.0
 10
12.00000000000001
 20
-8.23042901674402
 30
0.0
 10
12.00000000000001
 20
-8.853456005165048
 30
0.0
 10
12.00000000000001
 20
-9.500876716818514
 30
0.0
 10
12.00000000000001
 20
-10.16055704492232
 30
0.0
  0
SPLINE
  5
C9
330
1F
100
AcDbEntity
  8
0
  6
Continuous
 62
     1
370
    15
100
AcDbSpline
210
0.0
220
0.0
230
1.0
 70
     8
 71
     3
 72
    11
 73
     7
 74
     0
 42
0.000000001
 43
0.00000001
 40
0.0
 40
0.0
 40
0.0
 40
0.0
 40
0.2498477755182303
 40
0.5002128059593196
 40
0.7521422310228423
 40
1.0
 40
1.0
 40
1.0
 40
1.0
 10
12.0
 20
-11.86966172288476
 30
0.0
 10
12.66622343804724
 20
-11.99705790896969
 30
0.0
 10
14.00004958338812
 20
-12.25211402695144
 30
0.0
 10
16.00454189114775
 20
-12.50626758268661
 30
0.0
 10
18.00534559694277
 20
-12.67045474871509
 30
0.0
 10
19.33738628763618
 20
-12.68956489806366
 30
0.0
 10
19.99798071206072
 20
-12.69904212965109
 30
0.0
  0
SPLINE
  5
CA
330
1F
100
AcDbEntity
  8
0
  6
Continuous
 62
     1
370
    15
100
AcDbSpline
210
0.0
220
0.0
230
1.0
 70
     8
 71
     3
 72
    15
 73
    11
 74
     0
 42
0.000000001
 43
0.00000001
 40
0.0
 40
0.0
 40
0.0
 40
0.0
 40
0.036953353501439
 40
0.1415443767806046
 40
0.351314570016007
 40
0.456723382585589
 40
0.5915642495594222
 40
0.7267921885173082
 40
0.8631955480693123
 40
1.0
 40
1.0
 40
1.0
 40
1.0
 10
70.72993247086654
 20
8.514256737991975
 30
0.0
 10
70.94506621972666
 20
8.608236075176803
 30
0.0
 10
71.76910435217096
 20
8.96821008163777
 30
0.0
 10
73.81530645104161
 20
9.773585086196732
 30
0.0
 10
76.26056720318671
 20
10.62563950102099
 30
0.0
 10
78.88027001242602
 20
11.3698458226424
 30
0.0
 10
81.06689834692591
 20
11.88497719337665
 30
0.0
 10
83.43435186328192
 20
12.30225675010815
 30
0.0
 10
85.81209609739767
 20
12.58947335394088
 30
0.0
 10
87.4032533809129
 20
12.65596934632774
 30
0.0
 10
88.2
 20
12.70000000000001
 30
0.0
  0
SPLINE
  5
CB
330
1F
100
AcDbEntity
  8
0
  6
Continuous
 62
     1
370
    15
100
AcDbSpline
210
0.0
220
0.0
230
1.0
 70
    24
 71
     3
 72
    10
 73
     6
 74
     0
 42
0.000000001
 43
0.00000001
 40
0.0
 40
0.0
 40
0.0
 40
0.0
 40
0.5
 40
0.5
 40
1.0
 40
1.0
 40
1.0
 40
1.0
 10
88.2
 20
8.889999999999995
 30
0.0
 10
88.2
 20
9.428889661452885
 30
0.0
 10
88.2
 20
10.05512935461238
 30
0.0
 10
88.19999999999997
 20
11.36897854420286
 30
0.0
 10
88.2
 20
12.0532326346787
 30
0.0
 10
88.2
 20
12.70000000000001
 30
0.0
  0
LINE
  5
CC
330
1F
100
AcDbEntity
  8
0
  6
Continuous
 62
     1
370
    15
100
AcDbLine
 10
88.2
 20
0.0000000000000071
 30
0.0
 11
88.2
 21
8.890000000000002
 31
0.0
  0
LINE
  5
CD
330
1F
100
AcDbEntity
  8
중심선
 48
0.8
100
AcDbLine
 10
-54.50000000000001
 20
-0.0000000000000067
 30
0.0
 11
91.20000000000002
 21
0.0000000000000112
 31
0.0
  0
LINE
  5
CE
330
1F
100
AcDbEntity
  8
참조1
100
AcDbLine
 10
21.19926131403119
 20
0.0010749287238892
 30
0.0
 11
21.19926131403119
 21
-39.99892507127611
 31
0.0
  0
LINE
  5
CF
330
1F
100
AcDbEntity
  8
참조1
100
AcDbLine
 10
21.19926131403119
 20
-39.99892507127611
 30
0.0
 11
-20.15080122126847
 21
-39.9989250712761
 31
0.0
  0
CIRCLE
  5
D0
330
1F
100
AcDbEntity
  8
해칭선
100
AcDbCircle
 10
0.0
 20
0.0
 30
0.0
 40
2.999999999999995
  0
INSERT
  5
D1
330
1F
100
AcDbEntity
  8
0
  6
Continuous
 62
     7
100
AcDbBlockReference
 66
     1
  2
블럭10
 10
4.409727067874809
 20
-52.04717430164393
 30
0.0
  0
ATTRIB
  5
D2
330
D1
100
AcDbEntity
  8
FORMAT
 62
     2
100
AcDbText
 10
-4.771568220866471
 20
-49.97180738881174
 30
0.0
 40
4.233333333333333
  1
E1070980 [ 2 FLUTE ]
 41
0.75
  7
SLDTEXTSTYLE0
 11
-4.771568220866471
 21
-52.08847405547841
 31
0.0
100
AcDbAttribute
  2
AUTOATTR0
 70
     0
 74
     1
  0
SEQEND
  5
D3
330
D1
100
AcDbEntity
  8
0
  6
Continuous
 62
     7
  0
HATCH
  5
D4
330
1F
100
AcDbEntity
  8
중심선
100
AcDbHatch
 10
0.0
 20
0.0
 30
0.0
210
0.0
220
0.0
230
1.0
  2
SOLID
 70
     1
 71
     0
 91
        1
 92
        0
 93
        4
 72
     1
 10
10.12463637225565
 20
-35.8
 11
6.678361128418366
 21
-35.8
 72
     1
 10
6.678361128418366
 20
-35.8
 11
4.550131269214345
 21
-38.33632558057257
 72
     1
 10
4.550131269214345
 20
-38.33632558057257
 11
7.996439598164777
 21
-38.33628615127008
 72
     1
 10
7.996439598164777
 20
-38.33628615127008
 11
10.12463637225565
 21
-35.8
 97
        0
 75
     0
 76
     1
 98
        1
 10
-2.849261314031168
 20
-0.0010749287238963
  0
HATCH
  5
D5
330
1F
100
AcDbEntity
  8
중심선
100
AcDbHatch
 10
0.0
 20
0.0
 30
0.0
210
0.0
220
0.0
230
1.0
  2
SOLID
 70
     1
 71
     0
 91
        1
 92
        0
 93
        4
 72
     1
 10
15.13740036329163
 20
-35.8
 11
11.69112511945435
 21
-35.79999999999998
 72
     1
 10
11.69112511945435
 20
-35.79999999999998
 11
7.15998711109693
 21
-41.20000000000002
 72
     1
 10
7.15998711109693
 20
-41.20000000000002
 11
10.60626235493421
 21
-41.20000000000002
 72
     1
 10
10.60626235493421
 20
-41.20000000000002
 11
15.13740036329163
 21
-35.8
 97
        0
 75
     0
 76
     1
 98
        1
 10
-2.849261314031168
 20
-0.0010749287238963
  0
HATCH
  5
D6
330
1F
100
AcDbEntity
  8
중심선
100
AcDbHatch
 10
0.0
 20
0.0
 30
0.0
210
0.0
220
0.0
230
1.0
  2
SOLID
 70
     1
 71
     0
 91
        1
 92
        0
 93
        4
 72
     1
 10
20.15016435432753
 20
-35.79999999999998
 11
16.70388911049044
 21
-35.79999999999998
 72
     1
 10
16.70388911049044
 20
-35.79999999999998
 11
9.655452208601131
 21
-44.20000000000002
 72
     1
 10
9.655452208601131
 20
-44.20000000000002
 11
13.10172745243841
 21
-44.20000000000002
 72
     1
 10
13.10172745243841
 20
-44.20000000000002
 11
20.15016435432753
 21
-35.79999999999998
 97
        0
 75
     0
 76
     1
 98
        1
 10
-2.849261314031168
 20
-0.0010749287238963
  0
HATCH
  5
D7
330
1F
100
AcDbEntity
  8
중심선
100
AcDbHatch
 10
0.0
 20
0.0
 30
0.0
210
0.0
220
0.0
230
1.0
  2
SOLID
 70
     1
 71
     0
 91
        1
 92
        0
 93
        6
 72
     3
 10
24.9500547853397
 20
-40.00000000005127
 11
3.960054785062283
 21
1.540882976769353E-10
 40
0.3939339440162628
 50
17.09539180608436
 51
320.0019657685078
 73
     0
 72
     1
 10
26.63305444104029
 20
-38.5878940046383
 11
28.93835631474133
 21
-36.65356729459035
 72
     3
 10
24.95005478528685
 20
-40.00000000000015
 11
6.600054785286833
 21
-1.278976924368180E-13
 40
0.6363583540795976
 50
39.99873849337428
 51
368.4976242363725
 73
     1
 72
     1
 10
31.37538727718746
 20
-39.03999999993002
 11
23.6301220921228
 21
-39.03999999993002
 72
     1
 10
23.6301220921228
 20
-39.03999999993002
 11
23.63009704767684
 21
-40.95999999992991
 72
     1
 10
23.63009704767684
 20
-40.95999999992991
 11
28.07147681714887
 21
-40.95999999992988
 97
        0
 75
     0
 76
     1
 98
        1
 10
-2.849261314031168
 20
-0.0010749287238963
  0
DIMENSION
  5
D8
330
1F
100
AcDbEntity
  8
치수문자_일반주서
100
AcDbDimension
  2
_D
 10
-63.99999999999997
 20
-12.70000000000007
 30
0.0
 11
-64.00000000000001
 21
-0.0000000000000032
 31
0.0
 70
   160
  1
%%c<>
 71
     2
 42
25.40000000000001
 52
-270.0
  3
SLDDIMSTYLE0
100
AcDbAlignedDimension
 13
-50.5
 23
12.69999999999999
 33
0.0
 14
-50.5
 24
-12.70000000000002
 34
0.0
 50
90.0000000000002
100
AcDbRotatedDimension
1001
ACAD
1000
DSTYLE
1002
{
1070
   171
1070
     6
1070
   273
1070
     7
1002
}
  0
DIMENSION
  5
ED
330
1F
100
AcDbEntity
  8
치수문자_일반주서
100
AcDbDimension
  2
_D_1
 10
11.99999999999999
 20
25.86560788423941
 30
0.0
 11
50.10000000000001
 21
25.86560788423941
 31
0.0
 70
   160
  1
<>
 71
     2
 42
76.20000000000002
  3
SLDDIMSTYLE0
100
AcDbAlignedDimension
 13
88.20000000000002
 23
12.70000000000001
 33
0.0
 14
11.99999999999999
 24
8.51303246200085
 34
0.0
 50
0.0000000000000053
100
AcDbRotatedDimension
1001
ACAD
1000
DSTYLE
1002
{
1070
   171
1070
     6
1070
   273
1070
     7
1002
}
  0
DIMENSION
  5
102
330
1F
100
AcDbEntity
  8
치수문자_일반주서
100
AcDbDimension
  2
_D_2
 10
-51.49999999999996
 20
42.57707860462924
 30
0.0
 11
18.35
 21
42.57707860462924
 31
0.0
 70
   160
  1
<>
 71
     2
 42
139.7
  3
SLDDIMSTYLE0
100
AcDbAlignedDimension
 13
88.2
 23
12.70000000000001
 33
0.0
 14
-51.49999999999998
 24
11.69999999999998
 34
0.0
100
AcDbRotatedDimension
1001
ACAD
1000
DSTYLE
1002
{
1070
   171
1070
     6
1070
   273
1070
     7
1002
}
  0
DIMENSION
  5
115
330
1F
100
AcDbEntity
  8
치수문자_일반주서
100
AcDbDimension
  2
_D_3
 10
114.6816729396521
 20
12.70000000000011
 30
0.0
 11
114.6816729396521
 21
33.29326615341657
 31
0.0
 70
   160
  1
%%c<>
 71
     2
 42
25.40000000000001
 52
-270.0
  3
SLDDIMSTYLE0
100
AcDbAlignedDimension
 13
88.19999999999997
 23
-12.7
 33
0.0
 14
88.20000000000002
 24
12.70000000000001
 34
0.0
 50
90.0000000000002
100
AcDbRotatedDimension
1001
ACAD
1000
DSTYLE
1002
{
1070
   171
1070
     6
1070
   273
1070
     7
1002
}
  0
LINE
  5
129
330
1F
100
AcDbEntity
  8
참조1
100
AcDbLine
 10
77.82153940838579
 20
7.441074928723896
 30
0.0
 11
77.82153940838579
 21
-7.438925071276109
 31
0.0
  0
LINE
  5
12A
330
1F
100
AcDbEntity
  8
참조1
100
AcDbLine
 10
90.52153940838579
 20
5.441074928723896
 30
0.0
 11
77.82153940838579
 21
5.441074928723896
 31
0.0
  0
SOLID
  5
12B
330
1F
100
AcDbEntity
  8
참조1
100
AcDbTrace
 10
77.82153940838579
 20
5.441074928723896
 30
0.0
 11
84.17153940838578
 21
4.425074928723896
 31
0.0
 12
84.17153940838578
 22
6.457074928723896
 32
0.0
 13
84.17153940838578
 23
6.457074928723896
 33
0.0
  0
LINE
  5
12C
330
1F
100
AcDbEntity
  8
참조1
100
AcDbLine
 10
90.52153940838579
 20
-5.438925071276109
 30
0.0
 11
77.82153940838579
 21
-5.438925071276109
 31
0.0
  0
SOLID
  5
12D
330
1F
100
AcDbEntity
  8
참조1
100
AcDbTrace
 10
77.82153940838579
 20
-5.438925071276109
 30
0.0
 11
84.17153940838578
 21
-6.454925071276109
 31
0.0
 12
84.17153940838578
 22
-4.422925071276109
 32
0.0
 13
84.17153940838578
 23
-4.422925071276109
 33
0.0
  0
MTEXT
  5
12E
330
1F
100
AcDbEntity
  8
참조1
100
AcDbMText
 10
87.20588954101179
 20
11.01136670591222
 30
0.0
 40
3.5
 41
0.0
 71
     1
 72
     1
  1
A
  7
SLDTEXTSTYLE0
 73
     1
 44
1.0
  0
MTEXT
  5
12F
330
1F
100
AcDbEntity
  8
참조1
100
AcDbMText
 10
87.20588954101179
 20
0.1313667059122192
 30
0.0
 40
3.5
 41
0.0
 71
     1
 72
     1
  1
A
  7
SLDTEXTSTYLE0
 73
     1
 44
1.0
  0
INSERT
  5
136
330
1F
100
AcDbEntity
  8
해칭선
100
AcDbBlockReference
  2
SW_DOWELSYMBOL_0
 10
0.0
 20
0.0
 30
0.0
  0
LINE
  5
1EF
330
1F
100
AcDbEntity
  8
외형선
  6
Continuous
370
    15
100
AcDbLine
 10
-36.89499999999999
 20
12.7
 30
0.0
 11
-30.98632499999986
 21
12.7
 31
0.0
  0
LINE
  5
1F0
330
1F
100
AcDbEntity
  8
외형선
  6
Continuous
370
    15
100
AcDbLine
 10
-29.08132499999989
 20
10.795
 30
0.0
 11
-15.97492499999999
 21
10.795
 31
0.0
  0
LINE
  5
1F1
330
1F
100
AcDbEntity
  8
외형선
  6
Continuous
370
    15
100
AcDbLine
 10
-29.08132499999989
 20
10.79500000000001
 30
0.0
 11
-30.98632499999986
 21
12.7
 31
0.0
  0
LINE
  5
1F2
330
1F
100
AcDbEntity
  8
외형선
  6
Continuous
370
    15
100
AcDbLine
 10
-15.97492499999999
 20
10.79500000000001
 30
0.0
 11
-14.06992499999996
 21
12.7
 31
0.0
  0
LINE
  5
1F3
330
1F
100
AcDbEntity
  8
외형선
  6
Continuous
370
    15
100
AcDbLine
 10
-51.49999999999998
 20
10.795
 30
0.0
 11
-38.79999999999996
 21
10.795
 31
0.0
  0
LINE
  5
1F4
330
1F
100
AcDbEntity
  8
외형선
  6
Continuous
370
    15
100
AcDbLine
 10
-38.79999999999996
 20
10.79500000000001
 30
0.0
 11
-36.89499999999999
 21
12.7
 31
0.0
  0
LINE
  5
1F5
330
1F
100
AcDbEntity
  8
외형선
  6
Continuous
370
    15
100
AcDbLine
 10
-30.98632499999984
 20
12.69999999999999
 30
0.0
 11
-36.895
 21
12.69999999999999
 31
0.0
  0
ENDSEC
  0
SECTION
  2
OBJECTS
  0
DICTIONARY
  5
C
330
0
100
AcDbDictionary
281
     1
  3
ACAD_GROUP
350
D
  3
ACAD_IMAGE_VARS
350
15A
  3
ACAD_LAYOUT
350
1A
  3
ACAD_MLINESTYLE
350
17
  3
ACAD_PLOTSETTINGS
350
19
  3
ACAD_PLOTSTYLENAME
350
E
  3
ACAD_SCALELIST
350
47
  3
APPDATA
350
158
  3
DWGPROPS
350
1F6
  0
DICTIONARY
  5
181
330
2
100
AcDbDictionary
280
     1
281
     1
  3
ACAD_LAYERSTATES
360
182
  0
DICTIONARY
  5
D
102
{ACAD_REACTORS
330
C
102
}
330
C
100
AcDbDictionary
281
     1
  0
RASTERVARIABLES
  5
15A
102
{ACAD_REACTORS
330
C
102
}
330
C
100
AcDbRasterVariables
 90
        0
 70
     1
 71
     1
 72
     1
  0
DICTIONARY
  5
1A
102
{ACAD_REACTORS
330
C
102
}
330
C
100
AcDbDictionary
281
     1
  3
Layout1
350
1E
  3
Layout2
350
26
  3
Model
350
22
  0
DICTIONARY
  5
17
102
{ACAD_REACTORS
330
C
102
}
330
C
100
AcDbDictionary
281
     1
  3
Standard
350
18
  0
DICTIONARY
  5
19
102
{ACAD_REACTORS
330
C
102
}
330
C
100
AcDbDictionary
281
     1
  0
ACDBDICTIONARYWDFLT
  5
E
102
{ACAD_REACTORS
330
C
102
}
330
C
100
AcDbDictionary
281
     1
  3
Normal
350
F
100
AcDbDictionaryWithDefault
340
F
  0
DICTIONARY
  5
47
102
{ACAD_REACTORS
330
C
102
}
330
C
100
AcDbDictionary
281
     1
  3
A0
350
48
  3
A1
350
49
  3
A2
350
4A
  3
A3
350
4B
  3
A4
350
4C
  3
A5
350
4D
  3
A6
350
4E
  3
A7
350
4F
  3
A8
350
50
  3
A9
350
51
  3
B0
350
52
  3
B1
350
53
  3
B2
350
54
  3
B3
350
55
  3
B4
350
56
  3
B5
350
57
  3
B6
350
58
  3
B7
350
59
  3
B8
350
5A
  3
B9
350
5B
  3
C0
350
5C
  3
C1
350
5D
  3
C2
350
5E
  3
C3
350
5F
  3
C4
350
60
  3
C5
350
61
  3
C6
350
62
  3
C7
350
63
  3
C8
350
64
  3
C9
350
65
  3
D0
350
66
  3
D1
350
67
  3
D2
350
68
  0
DICTIONARY
  5
158
102
{ACAD_REACTORS
330
C
102
}
330
C
100
AcDbDictionary
281
     1
  0
XRECORD
  5
1F6
102
{ACAD_REACTORS
330
C
102
}
330
C
100
AcDbXrecord
280
     1
  1
DWGPROPS COOKIE
  2

  3

  4

  6

  7

  8
12016016
  9

300
=
301
=
302
=
303
=
304
=
305
=
306
=
307
=
308
=
309
=
 40
0.0
 41
2458311.089744144
 42
2458318.288396667
  1

 90
        0
  0
DICTIONARY
  5
182
102
{ACAD_REACTORS
330
181
102
}
330
181
100
AcDbDictionary
281
     1
  0
LAYOUT
  5
1E
102
{ACAD_REACTORS
330
1A
102
}
330
1A
100
AcDbPlotSettings
  1

  2
none_device
  4

  6

 40
0.0
 41
0.0
 42
0.0
 43
0.0
 44
0.0
 45
0.0
 46
0.0
 47
0.0
 48
0.0
 49
0.0
140
0.0
141
0.0
142
1.0
143
1.0
 70
   688
 72
     1
 73
     0
 74
     5
  7

 75
    16
147
1.0
148
0.0
149
0.0
100
AcDbLayout
  1
Layout1
 70
     1
 71
     1
 10
0.0
 20
0.0
 11
420.0
 21
297.0
 12
0.0
 22
0.0
 32
0.0
 14
1.000000000000000E+20
 24
1.000000000000000E+20
 34
1.000000000000000E+20
 15
-1.000000000000000E+20
 25
-1.000000000000000E+20
 35
-1.000000000000000E+20
146
0.0
 13
0.0
 23
0.0
 33
0.0
 16
1.0
 26
0.0
 36
0.0
 17
0.0
 27
1.0
 37
0.0
 76
     0
330
1B
  0
LAYOUT
  5
26
102
{ACAD_REACTORS
330
1A
102
}
330
1A
100
AcDbPlotSettings
  1

  2
none_device
  4

  6

 40
0.0
 41
0.0
 42
0.0
 43
0.0
 44
0.0
 45
0.0
 46
0.0
 47
0.0
 48
0.0
 49
0.0
140
0.0
141
0.0
142
1.0
143
1.0
 70
   688
 72
     1
 73
     0
 74
     5
  7

 75
    16
147
1.0
148
0.0
149
0.0
100
AcDbLayout
  1
Layout2
 70
     1
 71
     2
 10
0.0
 20
0.0
 11
0.0
 21
0.0
 12
0.0
 22
0.0
 32
0.0
 14
0.0
 24
0.0
 34
0.0
 15
0.0
 25
0.0
 35
0.0
146
0.0
 13
0.0
 23
0.0
 33
0.0
 16
1.0
 26
0.0
 36
0.0
 17
0.0
 27
1.0
 37
0.0
 76
     0
330
23
  0
LAYOUT
  5
22
102
{ACAD_REACTORS
330
1A
102
}
330
1A
100
AcDbPlotSettings
  1

  2
none_device
  4
ANSI_A_(11.00_x_8.50_Inches)
  6

 40
6.35
 41
19.05
 42
6.35000508
 43
19.05000254
 44
279.4
 45
215.9
 46
74.33470379973947
 47
47.10668770607636
 48
0.0
 49
0.0
140
0.0
141
0.0
142
0.0433890207954387
143
1.0
 70
  1696
 72
     0
 73
     0
 74
     0
  7

 75
     0
147
0.0235690232323232
148
0.0
149
0.0
100
AcDbLayout
  1
Model
 70
     1
 71
     0
 10
0.0
 20
0.0
 11
420.0
 21
297.0
 12
0.0
 22
0.0
 32
0.0
 14
1.000000000000000E+20
 24
1.000000000000000E+20
 34
1.000000000000000E+20
 15
-1.000000000000000E+20
 25
-1.000000000000000E+20
 35
-1.000000000000000E+20
146
0.0
 13
0.0
 23
0.0
 33
0.0
 16
1.0
 26
0.0
 36
0.0
 17
0.0
 27
1.0
 37
0.0
 76
     0
330
1F
331
29
  0
MLINESTYLE
  5
18
102
{ACAD_REACTORS
330
17
102
}
330
17
100
AcDbMlineStyle
  2
Standard
 70
     0
  3

 62
   256
 51
90.0
 52
90.0
 71
     2
 49
0.5
 62
   256
  6
BYLAYER
 49
-0.5
 62
   256
  6
BYLAYER
  0
ACDBPLACEHOLDER
  5
F
102
{ACAD_REACTORS
330
E
102
}
330
E
  0
SCALE
  5
48
102
{ACAD_REACTORS
330
47
102
}
330
47
100
AcDbScale
 70
     0
300
1:1
140
1.0
141
1.0
290
     1
  0
SCALE
  5
49
102
{ACAD_REACTORS
330
47
102
}
330
47
100
AcDbScale
 70
     0
300
1:2
140
1.0
141
2.0
290
     0
  0
SCALE
  5
4A
102
{ACAD_REACTORS
330
47
102
}
330
47
100
AcDbScale
 70
     0
300
1:4
140
1.0
141
4.0
290
     0
  0
SCALE
  5
4B
102
{ACAD_REACTORS
330
47
102
}
330
47
100
AcDbScale
 70
     0
300
1:5
140
1.0
141
5.0
290
     0
  0
SCALE
  5
4C
102
{ACAD_REACTORS
330
47
102
}
330
47
100
AcDbScale
 70
     0
300
1:8
140
1.0
141
8.0
290
     0
  0
SCALE
  5
4D
102
{ACAD_REACTORS
330
47
102
}
330
47
100
AcDbScale
 70
     0
300
1:10
140
1.0
141
10.0
290
     0
  0
SCALE
  5
4E
102
{ACAD_REACTORS
330
47
102
}
330
47
100
AcDbScale
 70
     0
300
1:16
140
1.0
141
16.0
290
     0
  0
SCALE
  5
4F
102
{ACAD_REACTORS
330
47
102
}
330
47
100
AcDbScale
 70
     0
300
1:20
140
1.0
141
20.0
290
     0
  0
SCALE
  5
50
102
{ACAD_REACTORS
330
47
102
}
330
47
100
AcDbScale
 70
     0
300
1:30
140
1.0
141
30.0
290
     0
  0
SCALE
  5
51
102
{ACAD_REACTORS
330
47
102
}
330
47
100
AcDbScale
 70
     0
300
1:40
140
1.0
141
40.0
290
     0
  0
SCALE
  5
52
102
{ACAD_REACTORS
330
47
102
}
330
47
100
AcDbScale
 70
     0
300
1:50
140
1.0
141
50.0
290
     0
  0
SCALE
  5
53
102
{ACAD_REACTORS
330
47
102
}
330
47
100
AcDbScale
 70
     0
300
1:100
140
1.0
141
100.0
290
     0
  0
SCALE
  5
54
102
{ACAD_REACTORS
330
47
102
}
330
47
100
AcDbScale
 70
     0
300
2:1
140
2.0
141
1.0
290
     0
  0
SCALE
  5
55
102
{ACAD_REACTORS
330
47
102
}
330
47
100
AcDbScale
 70
     0
300
4:1
140
4.0
141
1.0
290
     0
  0
SCALE
  5
56
102
{ACAD_REACTORS
330
47
102
}
330
47
100
AcDbScale
 70
     0
300
8:1
140
8.0
141
1.0
290
     0
  0
SCALE
  5
57
102
{ACAD_REACTORS
330
47
102
}
330
47
100
AcDbScale
 70
     0
300
10:1
140
10.0
141
1.0
290
     0
  0
SCALE
  5
58
102
{ACAD_REACTORS
330
47
102
}
330
47
100
AcDbScale
 70
     0
300
100:1
140
100.0
141
1.0
290
     0
  0
SCALE
  5
59
102
{ACAD_REACTORS
330
47
102
}
330
47
100
AcDbScale
 70
     0
300
1/128" = 1'-0"
140
0.0078125
141
12.0
290
     0
  0
SCALE
  5
5A
102
{ACAD_REACTORS
330
47
102
}
330
47
100
AcDbScale
 70
     0
300
1/64" = 1'-0"
140
0.015625
141
12.0
290
     0
  0
SCALE
  5
5B
102
{ACAD_REACTORS
330
47
102
}
330
47
100
AcDbScale
 70
     0
300
1/32" = 1'-0"
140
0.03125
141
12.0
290
     0
  0
SCALE
  5
5C
102
{ACAD_REACTORS
330
47
102
}
330
47
100
AcDbScale
 70
     0
300
1/16" = 1'-0"
140
0.0625
141
12.0
290
     0
  0
SCALE
  5
5D
102
{ACAD_REACTORS
330
47
102
}
330
47
100
AcDbScale
 70
     0
300
3/32" = 1'-0"
140
0.09375
141
12.0
290
     0
  0
SCALE
  5
5E
102
{ACAD_REACTORS
330
47
102
}
330
47
100
AcDbScale
 70
     0
300
1/8" = 1'-0"
140
0.125
141
12.0
290
     0
  0
SCALE
  5
5F
102
{ACAD_REACTORS
330
47
102
}
330
47
100
AcDbScale
 70
     0
300
3/16" = 1'-0"
140
0.1875
141
12.0
290
     0
  0
SCALE
  5
60
102
{ACAD_REACTORS
330
47
102
}
330
47
100
AcDbScale
 70
     0
300
1/4" = 1'-0"
140
0.25
141
12.0
290
     0
  0
SCALE
  5
61
102
{ACAD_REACTORS
330
47
102
}
330
47
100
AcDbScale
 70
     0
300
3/8" = 1'-0"
140
0.375
141
12.0
290
     0
  0
SCALE
  5
62
102
{ACAD_REACTORS
330
47
102
}
330
47
100
AcDbScale
 70
     0
300
1/2" = 1'-0"
140
0.5
141
12.0
290
     0
  0
SCALE
  5
63
102
{ACAD_REACTORS
330
47
102
}
330
47
100
AcDbScale
 70
     0
300
3/4" = 1'-0"
140
0.75
141
12.0
290
     0
  0
SCALE
  5
64
102
{ACAD_REACTORS
330
47
102
}
330
47
100
AcDbScale
 70
     0
300
1" = 1'-0"
140
1.0
141
12.0
290
     0
  0
SCALE
  5
65
102
{ACAD_REACTORS
330
47
102
}
330
47
100
AcDbScale
 70
     0
300
1-1/2" = 1'-0"
140
1.5
141
12.0
290
     0
  0
SCALE
  5
66
102
{ACAD_REACTORS
330
47
102
}
330
47
100
AcDbScale
 70
     0
300
3" = 1'-0"
140
3.0
141
12.0
290
     0
  0
SCALE
  5
67
102
{ACAD_REACTORS
330
47
102
}
330
47
100
AcDbScale
 70
     0
300
6" = 1'-0"
140
6.0
141
12.0
290
     0
  0
SCALE
  5
68
102
{ACAD_REACTORS
330
47
102
}
330
47
100
AcDbScale
 70
     0
300
1'-0" = 1'-0"
140
12.0
141
12.0
290
     0
  0
ENDSEC
  0
EOF
