  0
SECTION
  2
HEADER
  9
$ACADVER
  1
AC1015
  9
$ACADMAINTVER
 70
     6
  9
$DWGCODEPAGE
  3
ANSI_949
  9
$INSBASE
 10
0.0
 20
0.0
 30
0.0
  9
$EXTMIN
 10
1.000000000000000E+20
 20
1.000000000000000E+20
 30
1.000000000000000E+20
  9
$EXTMAX
 10
-1.000000000000000E+20
 20
-1.000000000000000E+20
 30
-1.000000000000000E+20
  9
$LIMMIN
 10
0.0
 20
0.0
  9
$LIMMAX
 10
420.0
 20
297.0
  9
$ORTHOMODE
 70
     1
  9
$REGENMODE
 70
     1
  9
$FILLMODE
 70
     1
  9
$QTEXTMODE
 70
     0
  9
$MIRRTEXT
 70
     1
  9
$LTSCALE
 40
1.0
  9
$ATTMODE
 70
     1
  9
$TEXTSIZE
 40
3.5
  9
$TRACEWID
 40
1.0
  9
$TEXTSTYLE
  7
Standard
  9
$CLAYER
  8
0
  9
$CELTYPE
  6
ByLayer
  9
$CECOLOR
 62
   256
  9
$CELTSCALE
 40
1.0
  9
$DISPSILH
 70
     0
  9
$DIMSCALE
 40
1.0
  9
$DIMASZ
 40
3.302
  9
$DIMEXO
 40
1.0
  9
$DIMDLI
 40
3.75
  9
$DIMRND
 40
0.0
  9
$DIMDLE
 40
0.0
  9
$DIMEXE
 40
1.0
  9
$DIMTP
 40
0.0
  9
$DIMTM
 40
0.0
  9
$DIMTXT
 40
3.5
  9
$DIMCEN
 40
2.5
  9
$DIMTSZ
 40
0.0
  9
$DIMTOL
 70
     0
  9
$DIMLIM
 70
     0
  9
$DIMTIH
 70
     1
  9
$DIMTOH
 70
     1
  9
$DIMSE1
 70
     0
  9
$DIMSE2
 70
     0
  9
$DIMTAD
 70
     1
  9
$DIMZIN
 70
     0
  9
$DIMBLK
  1

  9
$DIMASO
 70
     1
  9
$DIMSHO
 70
     1
  9
$DIMPOST
  1

  9
$DIMAPOST
  1

  9
$DIMALT
 70
     0
  9
$DIMALTD
 70
     3
  9
$DIMALTF
 40
0.0393700787401575
  9
$DIMLFAC
 40
1.0
  9
$DIMTOFL
 70
     1
  9
$DIMTVP
 40
0.0
  9
$DIMTIX
 70
     0
  9
$DIMSOXD
 70
     0
  9
$DIMSAH
 70
     0
  9
$DIMBLK1
  1

  9
$DIMBLK2
  1

  9
$DIMSTYLE
  2
ISO-25
  9
$DIMCLRD
 70
     0
  9
$DIMCLRE
 70
     0
  9
$DIMCLRT
 70
     0
  9
$DIMTFAC
 40
1.0
  9
$DIMGAP
 40
1.524
  9
$DIMJUST
 70
     0
  9
$DIMSD1
 70
     0
  9
$DIMSD2
 70
     0
  9
$DIMTOLJ
 70
     0
  9
$DIMTZIN
 70
     0
  9
$DIMALTZ
 70
     0
  9
$DIMALTTZ
 70
     0
  9
$DIMUPT
 70
     0
  9
$DIMDEC
 70
     2
  9
$DIMTDEC
 70
     2
  9
$DIMALTU
 70
     2
  9
$DIMALTTD
 70
     3
  9
$DIMTXSTY
  7
Standard
  9
$DIMAUNIT
 70
     0
  9
$DIMADEC
 70
     2
  9
$DIMALTRND
 40
0.0
  9
$DIMAZIN
 70
     0
  9
$DIMDSEP
 70
    44
  9
$DIMATFIT
 70
     3
  9
$DIMFRAC
 70
     0
  9
$DIMLDRBLK
  1

  9
$DIMLUNIT
 70
     2
  9
$DIMLWD
 70
    -2
  9
$DIMLWE
 70
    -2
  9
$DIMTMOVE
 70
     0
  9
$LUNITS
 70
     2
  9
$LUPREC
 70
     2
  9
$SKETCHINC
 40
1.0
  9
$FILLETRAD
 40
10.0
  9
$AUNITS
 70
     0
  9
$AUPREC
 70
     2
  9
$MENU
  1
.
  9
$ELEVATION
 40
0.0
  9
$PELEVATION
 40
0.0
  9
$THICKNESS
 40
0.0
  9
$LIMCHECK
 70
     0
  9
$CHAMFERA
 40
0.0
  9
$CHAMFERB
 40
0.0
  9
$CHAMFERC
 40
0.0
  9
$CHAMFERD
 40
0.0
  9
$SKPOLY
 70
     0
  9
$TDCREATE
 40
2458311.464956123
  9
$TDUCREATE
 40
2458311.089956123
  9
$TDUPDATE
 40
2458318.663147349
  9
$TDUUPDATE
 40
2458318.288147349
  9
$TDINDWG
 40
0.0019964468
  9
$TDUSRTIMER
 40
2458318.287937627
  9
$USRTIMER
 70
     1
  9
$ANGBASE
 50
0.0
  9
$ANGDIR
 70
     0
  9
$PDMODE
 70
     0
  9
$PDSIZE
 40
-1.0
  9
$PLINEWID
 40
0.0
  9
$SPLFRAME
 70
     0
  9
$SPLINETYPE
 70
     6
  9
$SPLINESEGS
 70
     8
  9
$HANDSEED
  5
1EA
  9
$SURFTAB1
 70
     6
  9
$SURFTAB2
 70
     6
  9
$SURFTYPE
 70
     6
  9
$SURFU
 70
     6
  9
$SURFV
 70
     6
  9
$UCSBASE
  2

  9
$UCSNAME
  2

  9
$UCSORG
 10
0.0
 20
0.0
 30
0.0
  9
$UCSXDIR
 10
1.0
 20
0.0
 30
0.0
  9
$UCSYDIR
 10
0.0
 20
1.0
 30
0.0
  9
$UCSORTHOREF
  2

  9
$UCSORTHOVIEW
 70
     0
  9
$UCSORGTOP
 10
0.0
 20
0.0
 30
0.0
  9
$UCSORGBOTTOM
 10
0.0
 20
0.0
 30
0.0
  9
$UCSORGLEFT
 10
0.0
 20
0.0
 30
0.0
  9
$UCSORGRIGHT
 10
0.0
 20
0.0
 30
0.0
  9
$UCSORGFRONT
 10
0.0
 20
0.0
 30
0.0
  9
$UCSORGBACK
 10
0.0
 20
0.0
 30
0.0
  9
$PUCSBASE
  2

  9
$PUCSNAME
  2

  9
$PUCSORG
 10
0.0
 20
0.0
 30
0.0
  9
$PUCSXDIR
 10
1.0
 20
0.0
 30
0.0
  9
$PUCSYDIR
 10
0.0
 20
1.0
 30
0.0
  9
$PUCSORTHOREF
  2

  9
$PUCSORTHOVIEW
 70
     0
  9
$PUCSORGTOP
 10
0.0
 20
0.0
 30
0.0
  9
$PUCSORGBOTTOM
 10
0.0
 20
0.0
 30
0.0
  9
$PUCSORGLEFT
 10
0.0
 20
0.0
 30
0.0
  9
$PUCSORGRIGHT
 10
0.0
 20
0.0
 30
0.0
  9
$PUCSORGFRONT
 10
0.0
 20
0.0
 30
0.0
  9
$PUCSORGBACK
 10
0.0
 20
0.0
 30
0.0
  9
$USERI1
 70
     0
  9
$USERI2
 70
     0
  9
$USERI3
 70
     0
  9
$USERI4
 70
     0
  9
$USERI5
 70
     0
  9
$USERR1
 40
0.0
  9
$USERR2
 40
0.0
  9
$USERR3
 40
0.0
  9
$USERR4
 40
0.0
  9
$USERR5
 40
0.0
  9
$WORLDVIEW
 70
     1
  9
$SHADEDGE
 70
     3
  9
$SHADEDIF
 70
    70
  9
$TILEMODE
 70
     1
  9
$MAXACTVP
 70
    64
  9
$PINSBASE
 10
0.0
 20
0.0
 30
0.0
  9
$PLIMCHECK
 70
     0
  9
$PEXTMIN
 10
1.000000000000000E+20
 20
1.000000000000000E+20
 30
1.000000000000000E+20
  9
$PEXTMAX
 10
-1.000000000000000E+20
 20
-1.000000000000000E+20
 30
-1.000000000000000E+20
  9
$PLIMMIN
 10
0.0
 20
0.0
  9
$PLIMMAX
 10
0.0
 20
0.0
  9
$UNITMODE
 70
     0
  9
$VISRETAIN
 70
     1
  9
$PLINEGEN
 70
     0
  9
$PSLTSCALE
 70
     1
  9
$TREEDEPTH
 70
  3020
  9
$CMLSTYLE
  2
Standard
  9
$CMLJUST
 70
     0
  9
$CMLSCALE
 40
20.0
  9
$PROXYGRAPHICS
 70
     1
  9
$MEASUREMENT
 70
     1
  9
$CELWEIGHT
370
    -1
  9
$ENDCAPS
280
     0
  9
$JOINSTYLE
280
     0
  9
$LWDISPLAY
290
     1
  9
$INSUNITS
 70
     4
  9
$HYPERLINKBASE
  1

  9
$STYLESHEET
  1

  9
$XEDIT
290
     1
  9
$CEPSNTYPE
380
     0
  9
$PSTYLEMODE
290
     1
  9
$FINGERPRINTGUID
  2
{09671038-29BC-4AFA-9ACA-5BFA10D28FD3}
  9
$VERSIONGUID
  2
{FAEB1C32-E019-11D5-929B-00C0DF256EC4}
  9
$EXTNAMES
290
     1
  9
$PSVPSCALE
 40
0.0
  9
$OLESTARTUP
290
     0
  0
ENDSEC
  0
SECTION
  2
CLASSES
  0
CLASS
  1
ACDBDICTIONARYWDFLT
  2
AcDbDictionaryWithDefault
  3
ObjectDBX Classes
 90
        0
280
     0
281
     0
  0
CLASS
  1
VISUALSTYLE
  2
AcDbVisualStyle
  3
ObjectDBX Classes
 90
     4095
280
     0
281
     0
  0
CLASS
  1
MATERIAL
  2
AcDbMaterial
  3
ObjectDBX Classes
 90
     1153
280
     0
281
     0
  0
CLASS
  1
SCALE
  2
AcDbScale
  3
ObjectDBX Classes
 90
     1153
280
     0
281
     0
  0
CLASS
  1
SUN
  2
AcDbSun
  3
SCENEOE
 90
     1153
280
     0
281
     0
  0
CLASS
  1
ACDBPLACEHOLDER
  2
AcDbPlaceHolder
  3
ObjectDBX Classes
 90
        0
280
     0
281
     0
  0
CLASS
  1
LAYOUT
  2
AcDbLayout
  3
ObjectDBX Classes
 90
        0
280
     0
281
     0
  0
CLASS
  1
TABLESTYLE
  2
AcDbTableStyle
  3
ObjectDBX Classes
 90
     4095
280
     0
281
     0
  0
CLASS
  1
MLEADERSTYLE
  2
AcDbMLeaderStyle
  3
ACDB_MLEADERSTYLE_CLASS
 90
     4095
280
     0
281
     0
  0
CLASS
  1
RASTERVARIABLES
  2
AcDbRasterVariables
  3
ISM
 90
        0
280
     0
281
     0
  0
ENDSEC
  0
SECTION
  2
TABLES
  0
TABLE
  2
VPORT
  5
8
330
0
100
AcDbSymbolTable
 70
     1
  0
VPORT
  5
29
330
8
100
AcDbSymbolTableRecord
100
AcDbViewportTableRecord
  2
*Active
 70
     0
 10
0.0
 20
0.0
 11
1.0
 21
1.0
 12
23.06327990623101
 22
-33.94023308723463
 13
0.0
 23
0.0
 14
10.0
 24
10.0
 15
10.0
 25
10.0
 16
0.0
 26
0.0
 36
1.0
 17
0.0
 27
0.0
 37
0.0
 40
265.4185898228319
 41
1.740812379110251
 42
50.0
 43
0.0
 44
0.0
 50
0.0
 51
0.0
 71
    16
 72
  2000
 73
     1
 74
     3
 75
     0
 76
     0
 77
     0
 78
     0
281
     0
 65
     1
110
0.0
120
0.0
130
0.0
111
1.0
121
0.0
131
0.0
112
0.0
122
1.0
132
0.0
 79
     0
146
0.0
  0
ENDTAB
  0
TABLE
  2
LTYPE
  5
5
330
0
100
AcDbSymbolTable
 70
     6
  0
LTYPE
  5
14
330
5
100
AcDbSymbolTableRecord
100
AcDbLinetypeTableRecord
  2
ByBlock
 70
     0
  3

 72
    65
 73
     0
 40
0.0
  0
LTYPE
  5
15
330
5
100
AcDbSymbolTableRecord
100
AcDbLinetypeTableRecord
  2
ByLayer
 70
     0
  3

 72
    65
 73
     0
 40
0.0
  0
LTYPE
  5
16
330
5
100
AcDbSymbolTableRecord
100
AcDbLinetypeTableRecord
  2
Continuous
 70
     0
  3
Solid line
 72
    65
 73
     0
 40
0.0
  0
LTYPE
  5
6A
330
5
100
AcDbSymbolTableRecord
100
AcDbLinetypeTableRecord
  2
HIDDEN
 70
     0
  3
Hidden __ __ __ __ __ __ __ __ __ __ __ __ __ __
 72
    65
 73
     2
 40
1.905
 49
1.27
 74
     0
 49
-0.635
 74
     0
  0
LTYPE
  5
6B
330
5
100
AcDbSymbolTableRecord
100
AcDbLinetypeTableRecord
  2
PHANTOM
 70
     0
  3
Phantom ______  __  __  ______  __  __  ______
 72
    65
 73
     6
 40
12.7
 49
6.35
 74
     0
 49
-1.27
 74
     0
 49
1.27
 74
     0
 49
-1.27
 74
     0
 49
1.27
 74
     0
 49
-1.27
 74
     0
  0
LTYPE
  5
6C
330
5
100
AcDbSymbolTableRecord
100
AcDbLinetypeTableRecord
  2
CENTER
 70
     0
  3
Center ____ _ ____ _ ____ _ ____ _ ____ _ ____
 72
    65
 73
     4
 40
10.16
 49
6.35
 74
     0
 49
-1.27
 74
     0
 49
1.27
 74
     0
 49
-1.27
 74
     0
  0
LTYPE
  5
6D
330
5
100
AcDbSymbolTableRecord
100
AcDbLinetypeTableRecord
  2
CENTERX2
 70
     0
  3
Center (2x) ________  __  ________  __  _____
 72
    65
 73
     4
 40
20.32
 49
12.7
 74
     0
 49
-2.54
 74
     0
 49
2.54
 74
     0
 49
-2.54
 74
     0
  0
LTYPE
  5
6E
330
5
100
AcDbSymbolTableRecord
100
AcDbLinetypeTableRecord
  2
DOT2
 70
     0
  3
Dot (.5x) ........................................
 72
    65
 73
     2
 40
0.635
 49
0.0
 74
     0
 49
-0.635
 74
     0
  0
ENDTAB
  0
TABLE
  2
LAYER
  5
2
102
{ACAD_XDICTIONARY
360
179
102
}
330
0
100
AcDbSymbolTable
 70
    18
  0
LAYER
  5
10
330
2
100
AcDbSymbolTableRecord
100
AcDbLayerTableRecord
  2
0
 70
     0
 62
     7
  6
Continuous
370
    -3
390
F
  0
LAYER
  5
6F
330
2
100
AcDbSymbolTableRecord
100
AcDbLayerTableRecord
  2
FORMAT
 70
     0
 62
     2
  6
Continuous
370
    -3
390
F
  0
LAYER
  5
70
330
2
100
AcDbSymbolTableRecord
100
AcDbLayerTableRecord
  2
외형선
 70
     0
 62
     4
  6
Continuous
370
    30
390
F
  0
LAYER
  5
71
330
2
100
AcDbSymbolTableRecord
100
AcDbLayerTableRecord
  2
숨은선
 70
     0
 62
     2
  6
HIDDEN
370
    15
390
F
  0
LAYER
  5
72
330
2
100
AcDbSymbolTableRecord
100
AcDbLayerTableRecord
  2
중심선
 70
     0
 62
     1
  6
CENTERX2
370
    -3
390
F
  0
LAYER
  5
73
330
2
100
AcDbSymbolTableRecord
100
AcDbLayerTableRecord
  2
파단선
 70
     0
 62
     4
  6
Continuous
370
    -3
390
F
  0
LAYER
  5
74
330
2
100
AcDbSymbolTableRecord
100
AcDbLayerTableRecord
  2
해칭선
 70
     0
 62
   100
  6
Continuous
370
    -3
390
F
  0
LAYER
  5
75
330
2
100
AcDbSymbolTableRecord
100
AcDbLayerTableRecord
  2
가는실선
 70
     0
 62
     4
  6
Continuous
370
    -3
390
F
  0
LAYER
  5
76
330
2
100
AcDbSymbolTableRecord
100
AcDbLayerTableRecord
  2
치수_보조선
 70
     0
 62
     4
  6
Continuous
370
    -3
390
F
  0
LAYER
  5
77
330
2
100
AcDbSymbolTableRecord
100
AcDbLayerTableRecord
  2
치수문자_일반주서
 70
     0
 62
     7
  6
Continuous
370
    15
390
F
  0
LAYER
  5
78
330
2
100
AcDbSymbolTableRecord
100
AcDbLayerTableRecord
  2
개별주서
 70
     0
 62
   100
  6
Continuous
370
    30
390
F
  0
LAYER
  5
79
330
2
100
AcDbSymbolTableRecord
100
AcDbLayerTableRecord
  2
중간선
 70
     0
 62
     2
  6
Continuous
370
    15
390
F
  0
LAYER
  5
7A
330
2
100
AcDbSymbolTableRecord
100
AcDbLayerTableRecord
  2
윤곽선
 70
     0
 62
     3
  6
Continuous
370
    40
390
F
  0
LAYER
  5
7B
330
2
100
AcDbSymbolTableRecord
100
AcDbLayerTableRecord
  2
중심마크
 70
     0
 62
   100
  6
Continuous
370
    30
390
F
  0
LAYER
  5
7C
330
2
100
AcDbSymbolTableRecord
100
AcDbLayerTableRecord
  2
가상선
 70
     0
 62
     4
  6
PHANTOM
370
    -3
390
F
  0
LAYER
  5
7D
330
2
100
AcDbSymbolTableRecord
100
AcDbLayerTableRecord
  2
특수지정선
 70
     0
 62
     5
  6
CENTERX2
370
    60
390
F
  0
LAYER
  5
7E
330
2
100
AcDbSymbolTableRecord
100
AcDbLayerTableRecord
  2
참조1
 70
     0
 62
    -4
  6
Continuous
370
    -3
390
F
  0
LAYER
  5
180
330
2
100
AcDbSymbolTableRecord
100
AcDbLayerTableRecord
  2
Defpoints
 70
     0
 62
     7
  6
Continuous
290
     0
370
    -3
390
F
  0
ENDTAB
  0
TABLE
  2
STYLE
  5
3
330
0
100
AcDbSymbolTable
 70
     2
  0
STYLE
  5
11
330
3
100
AcDbSymbolTableRecord
100
AcDbTextStyleTableRecord
  2
Standard
 70
     0
 40
0.0
 41
1.0
 50
0.0
 71
     0
 42
3.5
  3
txt
  4

  0
STYLE
  5
94
330
3
100
AcDbSymbolTableRecord
100
AcDbTextStyleTableRecord
  2
SLDTEXTSTYLE0
 70
     0
 40
0.0
 41
0.75
 50
0.0
 71
     0
 42
3.5
  3
TXT
  4

  0
ENDTAB
  0
TABLE
  2
VIEW
  5
6
330
0
100
AcDbSymbolTable
 70
     0
  0
ENDTAB
  0
TABLE
  2
UCS
  5
7
330
0
100
AcDbSymbolTable
 70
     0
  0
ENDTAB
  0
TABLE
  2
APPID
  5
9
330
0
100
AcDbSymbolTable
 70
     1
  0
APPID
  5
12
330
9
100
AcDbSymbolTableRecord
100
AcDbRegAppTableRecord
  2
ACAD
 70
     0
  0
ENDTAB
  0
TABLE
  2
DIMSTYLE
  5
A
330
0
100
AcDbSymbolTable
 70
     3
100
AcDbDimStyleTable
  0
DIMSTYLE
105
27
330
A
100
AcDbSymbolTableRecord
100
AcDbDimStyleTableRecord
  2
ISO-25
 70
     0
 41
2.5
 42
0.625
 43
3.75
 44
1.25
 73
     0
 74
     0
 77
     1
 78
     8
140
2.5
141
2.5
143
0.03937007874016
147
0.625
171
     3
172
     1
178
     0
271
     2
272
     2
274
     3
278
    44
283
     0
284
     8
340
11
  0
DIMSTYLE
105
D4
102
{ACAD_REACTORS
330
D3
330
10E
330
E6
330
FB
102
}
330
A
100
AcDbSymbolTableRecord
100
AcDbDimStyleTableRecord
  2
SLDDIMSTYLE0
 70
     0
 41
3.302
 44
0.0
 45
0.000000001
 73
     0
 74
     0
 77
     1
 78
    12
 79
     3
140
3.5
143
0.0393700787401575
147
0.875
148
0.000000001
170
     1
173
     1
178
     0
271
     2
272
     2
276
     2
284
    12
340
94
  0
DIMSTYLE
105
E7
330
A
100
AcDbSymbolTableRecord
100
AcDbDimStyleTableRecord
  2
SLDDIMSTYLE1
 70
     0
 41
3.302
 44
0.0
 45
0.000000001
 73
     0
 74
     0
 77
     1
 78
     4
 79
     1
140
3.5
143
0.0393700787401575
147
0.875
148
0.000000001
170
     1
173
     1
178
     0
271
     2
272
     2
276
     2
284
    12
340
94
  0
ENDTAB
  0
TABLE
  2
BLOCK_RECORD
  5
1
330
0
100
AcDbSymbolTable
 70
     8
  0
BLOCK_RECORD
  5
1F
330
1
100
AcDbSymbolTableRecord
100
AcDbBlockTableRecord
  2
*Model_Space
340
22
  0
BLOCK_RECORD
  5
1B
330
1
100
AcDbSymbolTableRecord
100
AcDbBlockTableRecord
  2
*Paper_Space
340
1E
  0
BLOCK_RECORD
  5
23
330
1
100
AcDbSymbolTableRecord
100
AcDbBlockTableRecord
  2
*Paper_Space0
340
26
  0
BLOCK_RECORD
  5
7F
330
1
100
AcDbSymbolTableRecord
100
AcDbBlockTableRecord
  2
블럭10
340
0
102
{BLKREFS
331
CC
102
}
  0
BLOCK_RECORD
  5
D5
330
1
100
AcDbSymbolTableRecord
100
AcDbBlockTableRecord
  2
_D
340
0
  0
BLOCK_RECORD
  5
E8
330
1
100
AcDbSymbolTableRecord
100
AcDbBlockTableRecord
  2
_D_1
340
0
  0
BLOCK_RECORD
  5
FC
330
1
100
AcDbSymbolTableRecord
100
AcDbBlockTableRecord
  2
_D_2
340
0
  0
BLOCK_RECORD
  5
10F
330
1
100
AcDbSymbolTableRecord
100
AcDbBlockTableRecord
  2
_D_3
340
0
  0
BLOCK_RECORD
  5
128
330
1
100
AcDbSymbolTableRecord
100
AcDbBlockTableRecord
  2
SW_DOWELSYMBOL_0
340
0
102
{BLKREFS
331
12E
102
}
  0
ENDTAB
  0
ENDSEC
  0
SECTION
  2
BLOCKS
  0
BLOCK
  5
20
330
1F
100
AcDbEntity
  8
0
100
AcDbBlockBegin
  2
*Model_Space
 70
     0
 10
0.0
 20
0.0
 30
0.0
  3
*Model_Space
  1
*Model_Space
  0
ENDBLK
  5
21
330
1F
100
AcDbEntity
  8
0
100
AcDbBlockEnd
  0
BLOCK
  5
1C
330
1B
100
AcDbEntity
 67
     1
  8
0
100
AcDbBlockBegin
  2
*Paper_Space
 70
     0
 10
0.0
 20
0.0
 30
0.0
  3
*Paper_Space
  1
*Paper_Space
  0
ENDBLK
  5
1D
330
1B
100
AcDbEntity
 67
     1
  8
0
100
AcDbBlockEnd
  0
BLOCK
  5
24
330
23
100
AcDbEntity
  8
0
100
AcDbBlockBegin
  2
*Paper_Space0
 70
     0
 10
0.0
 20
0.0
 30
0.0
  3
*Paper_Space0
  1
*Paper_Space0
  0
ENDBLK
  5
25
330
23
100
AcDbEntity
  8
0
100
AcDbBlockEnd
  0
BLOCK
  5
80
330
7F
100
AcDbEntity
  8
0
100
AcDbBlockBegin
  2
블럭10
 70
     2
 10
0.0
 20
0.0
 30
0.0
  3
블럭10
  1
블럭10
  0
ELLIPSE
  5
82
330
7F
100
AcDbEntity
  8
중심선
100
AcDbEllipse
 10
20.54032771741204
 20
12.0471743016438
 30
0.0
 11
6.600054785286829
 21
-1.261213355974178E-13
 31
0.0
210
0.0
220
0.0
230
1.0
 40
0.636358354079598
 41
0.9219305317359503
 42
6.513795318482858
  0
ELLIPSE
  5
83
330
7F
100
AcDbEntity
  8
중심선
100
AcDbEllipse
 10
20.54032771746488
 20
12.04717430159265
 30
0.0
 11
3.960054785062283
 21
1.540847449632565E-10
 31
0.0
210
0.0
220
0.0
230
1.0
 40
0.3939339440162632
 41
1.131841032648279
 42
5.62031148352944
  0
LINE
  5
84
330
7F
100
AcDbEntity
  8
중심선
100
AcDbLine
 10
2.268634060543552
 20
16.24717430164393
 30
0.0
 11
5.714909304380834
 21
16.24717430164393
 31
0.0
  0
LINE
  5
85
330
7F
100
AcDbEntity
  8
중심선
100
AcDbLine
 10
5.245725140726316
 20
7.84717430164391
 30
0.0
 11
8.692000384563599
 21
7.84717430164391
 31
0.0
  0
LINE
  5
86
330
7F
100
AcDbEntity
  8
중심선
100
AcDbLine
 10
15.74043728645272
 20
16.24717430164393
 30
0.0
 11
8.692000384563599
 21
7.84717430164391
 31
0.0
  0
LINE
  5
87
330
7F
100
AcDbEntity
  8
중심선
100
AcDbLine
 10
0.1404042013395286
 20
13.71084872107135
 30
0.0
 11
3.58671253028996
 21
13.71088815037384
 31
0.0
  0
LINE
  5
88
330
7F
100
AcDbEntity
  8
중심선
100
AcDbLine
 10
2.750260043222114
 20
10.84717430164391
 30
0.0
 11
6.196535287059397
 21
10.84717430164391
 31
0.0
  0
LINE
  5
89
330
7F
100
AcDbEntity
  8
중심선
100
AcDbLine
 10
12.29416204261559
 20
16.24717430164393
 30
0.0
 11
5.245725140726316
 21
7.84717430164391
 31
0.0
  0
LINE
  5
8A
330
7F
100
AcDbEntity
  8
중심선
100
AcDbLine
 10
10.72767329541681
 20
16.24717430164393
 30
0.0
 11
6.196535287059397
 21
10.84717430164391
 31
0.0
  0
LINE
  5
8B
330
7F
100
AcDbEntity
  8
중심선
100
AcDbLine
 10
7.28139805157953
 20
16.24717430164393
 30
0.0
 11
2.750260043222114
 21
10.84717430164391
 31
0.0
  0
LINE
  5
8C
330
7F
100
AcDbEntity
  8
중심선
100
AcDbLine
 10
5.714909304380834
 20
16.24717430164393
 30
0.0
 11
3.58671253028996
 21
13.71088815037384
 31
0.0
  0
LINE
  5
8D
330
7F
100
AcDbEntity
  8
중심선
100
AcDbLine
 10
2.268634060543552
 20
16.24717430164393
 30
0.0
 11
0.1404042013395286
 21
13.71084872107135
 31
0.0
  0
LINE
  5
8E
330
7F
100
AcDbEntity
  8
중심선
100
AcDbLine
 10
7.28139805157953
 20
16.24717430164393
 30
0.0
 11
10.72767329541681
 21
16.24717430164393
 31
0.0
  0
LINE
  5
8F
330
7F
100
AcDbEntity
  8
중심선
100
AcDbLine
 10
12.29416204261559
 20
16.24717430164393
 30
0.0
 11
15.74043728645272
 21
16.24717430164393
 31
0.0
  0
LINE
  5
90
330
7F
100
AcDbEntity
  8
중심선
100
AcDbLine
 10
19.22036997980202
 20
11.08717430171403
 30
0.0
 11
23.66174974927406
 21
11.08717430171406
 31
0.0
  0
LINE
  5
91
330
7F
100
AcDbEntity
  8
중심선
100
AcDbLine
 10
19.22039502424796
 20
13.00717430171391
 30
0.0
 11
19.22036997980202
 21
11.08717430171403
 31
0.0
  0
LINE
  5
92
330
7F
100
AcDbEntity
  8
중심선
100
AcDbLine
 10
19.22039502424796
 20
13.00717430171391
 30
0.0
 11
26.96566020931264
 21
13.00717430171391
 31
0.0
  0
LINE
  5
93
330
7F
100
AcDbEntity
  8
중심선
100
AcDbLine
 10
22.22332737316547
 20
13.45928029700563
 30
0.0
 11
24.52862924686651
 21
15.39360700705356
 31
0.0
  0
ATTDEF
  5
95
330
7F
100
AcDbEntity
  8
FORMAT
 62
     2
100
AcDbText
 10
4.408487351596664
 20
2.075366912832191
 30
0.0
 40
4.233333333333333
  1
E1070981
 41
0.75
  7
SLDTEXTSTYLE0
 11
4.408487351596664
 21
-0.0412997538344756
 31
0.0
100
AcDbAttributeDefinition
  3

  2
AUTOATTR0
 70
     0
 74
     1
  0
ENDBLK
  5
81
330
7F
100
AcDbEntity
  8
0
100
AcDbBlockEnd
  0
BLOCK
  5
D6
330
D5
100
AcDbEntity
  8
0
100
AcDbBlockBegin
  2
_D
 70
     0
 10
0.0
 20
0.0
 30
0.0
  3
_D
  1
_D
  0
LINE
  5
D8
330
D5
100
AcDbEntity
  8
치수문자_일반주서
 62
     0
370
    -2
100
AcDbLine
 10
-50.56249999999999
 20
15.875
 30
0.0
 11
-64.00000000000006
 21
15.87499999999995
 31
0.0
  0
LINE
  5
D9
330
D5
100
AcDbEntity
  8
치수문자_일반주서
 62
     0
370
    -2
100
AcDbLine
 10
-50.56249999999999
 20
-15.875
 30
0.0
 11
-63.99999999999994
 21
-15.87500000000005
 31
0.0
  0
LINE
  5
DA
330
D5
100
AcDbEntity
  8
치수문자_일반주서
 62
     0
370
    -2
100
AcDbLine
 10
-64.00000000000004
 20
12.57299999999995
 30
0.0
 11
-63.99999999999996
 21
-12.57300000000005
 31
0.0
  0
SOLID
  5
DB
330
D5
100
AcDbEntity
  8
치수문자_일반주서
 62
     0
100
AcDbTrace
 10
-63.44966666666671
 20
12.57299999999995
 30
0.0
 11
-64.55033333333337
 21
12.57299999999995
 31
0.0
 12
-64.00000000000006
 22
15.87499999999995
 32
0.0
 13
-64.00000000000006
 23
15.87499999999995
 33
0.0
  0
SOLID
  5
DC
330
D5
100
AcDbEntity
  8
치수문자_일반주서
 62
     0
100
AcDbTrace
 10
-64.55033333333328
 20
-12.57300000000006
 30
0.0
 11
-63.44966666666662
 21
-12.57300000000005
 31
0.0
 12
-63.99999999999994
 22
-15.87500000000005
 32
0.0
 13
-63.99999999999994
 23
-15.87500000000005
 33
0.0
  0
MTEXT
  5
DD
330
D5
100
AcDbEntity
  8
치수문자_일반주서
 62
     0
100
AcDbMText
 10
-68.375
 20
-0.0000000000000079
 30
0.0
 40
3.5
 41
0.0
 71
     2
 72
     1
  1
\A1;%%c31.75 [1 1/4]
  7
SLDTEXTSTYLE0
 11
-3.580687802255623E-15
 21
1.0
 31
0.0
 73
     1
 44
1.0
  0
POINT
  5
DE
330
D5
100
AcDbEntity
  8
Defpoints
 62
     0
100
AcDbPoint
 10
-50.49999999999999
 20
15.875
 30
0.0
  0
POINT
  5
DF
330
D5
100
AcDbEntity
  8
Defpoints
 62
     0
100
AcDbPoint
 10
-50.49999999999999
 20
-15.875
 30
0.0
  0
POINT
  5
E0
330
D5
100
AcDbEntity
  8
Defpoints
 62
     0
100
AcDbPoint
 10
-63.99999999999994
 20
-15.87500000000005
 30
0.0
  0
ENDBLK
  5
D7
330
D5
100
AcDbEntity
  8
0
100
AcDbBlockEnd
  0
BLOCK
  5
E9
330
E8
100
AcDbEntity
  8
0
100
AcDbBlockBegin
  2
_D_1
 70
     0
 10
0.0
 20
0.0
 30
0.0
  3
_D_1
  1
_D_1
  0
LINE
  5
EB
330
E8
100
AcDbEntity
  8
치수문자_일반주서
 62
     0
370
    -2
100
AcDbLine
 10
88.19999999999997
 20
15.93750000000001
 30
0.0
 11
88.19999999999996
 21
29.03792442259353
 31
0.0
  0
LINE
  5
EC
330
E8
100
AcDbEntity
  8
치수문자_일반주서
 62
     0
370
    -2
100
AcDbLine
 10
12.00000000000001
 20
15.91813557176604
 30
0.0
 11
11.99999999999999
 21
29.03792442259353
 31
0.0
  0
LINE
  5
ED
330
E8
100
AcDbEntity
  8
치수문자_일반주서
 62
     0
370
    -2
100
AcDbLine
 10
84.89799999999997
 20
29.03792442259353
 30
0.0
 11
15.30199999999999
 21
29.03792442259353
 31
0.0
  0
SOLID
  5
EE
330
E8
100
AcDbEntity
  8
치수문자_일반주서
 62
     0
100
AcDbTrace
 10
84.89799999999997
 20
28.48759108926019
 30
0.0
 11
84.89799999999997
 21
29.58825775592686
 31
0.0
 12
88.19999999999996
 22
29.03792442259353
 32
0.0
 13
88.19999999999996
 23
29.03792442259353
 33
0.0
  0
SOLID
  5
EF
330
E8
100
AcDbEntity
  8
치수문자_일반주서
 62
     0
100
AcDbTrace
 10
15.30199999999999
 20
29.58825775592686
 30
0.0
 11
15.30199999999999
 21
28.48759108926019
 31
0.0
 12
11.99999999999999
 22
29.03792442259353
 32
0.0
 13
11.99999999999999
 23
29.03792442259353
 33
0.0
  0
MTEXT
  5
F0
330
E8
100
AcDbEntity
  8
치수문자_일반주서
 62
     0
100
AcDbMText
 10
48.48104858172512
 20
33.41292442259353
 30
0.0
 40
3.5
 41
0.0
 71
     2
 72
     1
  1
\A1;76.2 [3]
  7
SLDTEXTSTYLE0
 73
     1
 44
1.0
  0
POINT
  5
F1
330
E8
100
AcDbEntity
  8
Defpoints
 62
     0
100
AcDbPoint
 10
88.19999999999997
 20
15.87500000000001
 30
0.0
  0
POINT
  5
F2
330
E8
100
AcDbEntity
  8
Defpoints
 62
     0
100
AcDbPoint
 10
12.00000000000001
 20
15.85563557176604
 30
0.0
  0
POINT
  5
F3
330
E8
100
AcDbEntity
  8
Defpoints
 62
     0
100
AcDbPoint
 10
12.00000000000001
 20
29.03792442259353
 30
0.0
  0
ENDBLK
  5
EA
330
E8
100
AcDbEntity
  8
0
100
AcDbBlockEnd
  0
BLOCK
  5
FD
330
FC
100
AcDbEntity
  8
0
100
AcDbBlockBegin
  2
_D_2
 70
     0
 10
0.0
 20
0.0
 30
0.0
  3
_D_2
  1
_D_2
  0
LINE
  5
FF
330
FC
100
AcDbEntity
  8
치수문자_일반주서
 62
     0
370
    -2
100
AcDbLine
 10
88.19999999999997
 20
15.93750000000001
 30
0.0
 11
88.19999999999996
 21
45.58996586444052
 31
0.0
  0
LINE
  5
100
330
FC
100
AcDbEntity
  8
치수문자_일반주서
 62
     0
370
    -2
100
AcDbLine
 10
-51.49999999999997
 20
14.93749999999998
 30
0.0
 11
-51.49999999999999
 21
45.58996586444052
 31
0.0
  0
LINE
  5
101
330
FC
100
AcDbEntity
  8
치수문자_일반주서
 62
     0
370
    -2
100
AcDbLine
 10
84.89799999999997
 20
45.58996586444052
 30
0.0
 11
-48.19799999999999
 21
45.58996586444052
 31
0.0
  0
SOLID
  5
102
330
FC
100
AcDbEntity
  8
치수문자_일반주서
 62
     0
100
AcDbTrace
 10
84.89799999999997
 20
45.03963253110718
 30
0.0
 11
84.89799999999997
 21
46.14029919777385
 31
0.0
 12
88.19999999999996
 22
45.58996586444052
 32
0.0
 13
88.19999999999996
 23
45.58996586444052
 33
0.0
  0
SOLID
  5
103
330
FC
100
AcDbEntity
  8
치수문자_일반주서
 62
     0
100
AcDbTrace
 10
-48.19799999999999
 20
46.14029919777385
 30
0.0
 11
-48.19799999999999
 21
45.03963253110718
 31
0.0
 12
-51.49999999999999
 22
45.58996586444052
 32
0.0
 13
-51.49999999999999
 23
45.58996586444052
 33
0.0
  0
MTEXT
  5
104
330
FC
100
AcDbEntity
  8
치수문자_일반주서
 62
     0
100
AcDbMText
 10
18.35000000000002
 20
49.96496586444052
 30
0.0
 40
3.5
 41
0.0
 71
     2
 72
     1
  1
\A1;139.7 [5 1/2]
  7
SLDTEXTSTYLE0
 73
     1
 44
1.0
  0
POINT
  5
105
330
FC
100
AcDbEntity
  8
Defpoints
 62
     0
100
AcDbPoint
 10
88.19999999999997
 20
15.87500000000001
 30
0.0
  0
POINT
  5
106
330
FC
100
AcDbEntity
  8
Defpoints
 62
     0
100
AcDbPoint
 10
-51.49999999999997
 20
14.87499999999998
 30
0.0
  0
POINT
  5
107
330
FC
100
AcDbEntity
  8
Defpoints
 62
     0
100
AcDbPoint
 10
-51.49999999999997
 20
45.58996586444052
 30
0.0
  0
ENDBLK
  5
FE
330
FC
100
AcDbEntity
  8
0
100
AcDbBlockEnd
  0
BLOCK
  5
110
330
10F
100
AcDbEntity
  8
0
100
AcDbBlockBegin
  2
_D_3
 70
     0
 10
0.0
 20
0.0
 30
0.0
  3
_D_3
  1
_D_3
  0
LINE
  5
112
330
10F
100
AcDbEntity
  8
치수문자_일반주서
 62
     0
370
    -2
100
AcDbLine
 10
88.26250000000002
 20
-15.87499999999999
 30
0.0
 11
114.859173376494
 21
-15.87499999999989
 31
0.0
  0
LINE
  5
113
330
10F
100
AcDbEntity
  8
치수문자_일반주서
 62
     0
370
    -2
100
AcDbLine
 10
88.26249999999997
 20
15.87500000000001
 30
0.0
 11
114.8591733764939
 21
15.87500000000011
 31
0.0
  0
LINE
  5
114
330
10F
100
AcDbEntity
  8
치수문자_일반주서
 62
     0
370
    -2
100
AcDbLine
 10
114.8591733764939
 20
15.87500000000011
 30
0.0
 11
114.8591733764937
 21
53.25164853093871
 31
0.0
  0
LINE
  5
115
330
10F
100
AcDbEntity
  8
치수문자_일반주서
 62
     0
370
    -2
100
AcDbLine
 10
114.859173376494
 20
-12.57299999999989
 30
0.0
 11
114.8591733764939
 21
12.57300000000011
 31
0.0
  0
SOLID
  5
116
330
10F
100
AcDbEntity
  8
치수문자_일반주서
 62
     0
100
AcDbTrace
 10
114.3088400431606
 20
-12.5729999999999
 30
0.0
 11
115.4095067098273
 21
-12.57299999999989
 31
0.0
 12
114.859173376494
 22
-15.87499999999989
 32
0.0
 13
114.859173376494
 23
-15.87499999999989
 33
0.0
  0
SOLID
  5
117
330
10F
100
AcDbEntity
  8
치수문자_일반주서
 62
     0
100
AcDbTrace
 10
115.4095067098272
 20
12.57300000000012
 30
0.0
 11
114.3088400431605
 21
12.57300000000011
 31
0.0
 12
114.8591733764939
 22
15.87500000000011
 32
0.0
 13
114.8591733764939
 23
15.87500000000011
 33
0.0
  0
MTEXT
  5
118
330
10F
100
AcDbEntity
  8
치수문자_일반주서
 62
     0
100
AcDbMText
 10
110.4841733764938
 20
37.50164853093869
 30
0.0
 40
3.5
 41
0.0
 71
     2
 72
     1
  1
\A1;%%c31.75 [1 1/4]
  7
SLDTEXTSTYLE0
 11
-3.580687802255623E-15
 21
1.0
 31
0.0
 73
     1
 44
1.0
  0
POINT
  5
119
330
10F
100
AcDbEntity
  8
Defpoints
 62
     0
100
AcDbPoint
 10
88.20000000000002
 20
-15.87499999999999
 30
0.0
  0
POINT
  5
11A
330
10F
100
AcDbEntity
  8
Defpoints
 62
     0
100
AcDbPoint
 10
88.19999999999997
 20
15.87500000000001
 30
0.0
  0
POINT
  5
11B
330
10F
100
AcDbEntity
  8
Defpoints
 62
     0
100
AcDbPoint
 10
114.8591733764939
 20
15.87500000000011
 30
0.0
  0
ENDBLK
  5
111
330
10F
100
AcDbEntity
  8
0
100
AcDbBlockEnd
  0
BLOCK
  5
129
330
128
100
AcDbEntity
  8
0
100
AcDbBlockBegin
  2
SW_DOWELSYMBOL_0
 70
     0
 10
0.0
 20
0.0
 30
0.0
  3
SW_DOWELSYMBOL_0
  1
SW_DOWELSYMBOL_0
  0
CIRCLE
  5
12B
330
128
100
AcDbEntity
  8
해칭선
 62
     0
100
AcDbCircle
 10
0.0
 20
0.0
 30
0.0
 40
2.999999999999996
  0
HATCH
  5
12C
330
128
100
AcDbEntity
  8
0
  6
Continuous
 62
     0
370
     0
100
AcDbHatch
 10
0.0
 20
0.0
 30
0.0
210
0.0
220
0.0
230
1.0
  2
SOLID
 70
     1
 71
     0
 91
        1
 92
        0
 93
        3
 72
     2
 10
0.0
 20
0.0
 40
2.999999999999996
 50
0.0
 51
90.0
 73
     1
 72
     1
 10
0.0
 20
2.999999999999996
 11
0.0
 21
0.0
 72
     1
 10
0.0
 20
0.0
 11
2.999999999999996
 21
0.0
 97
        0
 75
     0
 76
     1
 98
        1
 10
0.0
 20
0.0
  0
HATCH
  5
12D
330
128
100
AcDbEntity
  8
0
  6
Continuous
 62
     0
370
     0
100
AcDbHatch
 10
0.0
 20
0.0
 30
0.0
210
0.0
220
0.0
230
1.0
  2
SOLID
 70
     1
 71
     0
 91
        1
 92
        0
 93
        3
 72
     2
 10
0.0
 20
0.0
 40
2.999999999999996
 50
180.0
 51
270.0000000000007
 73
     1
 72
     1
 10
0.0
 20
-2.999999999999996
 11
0.0
 21
0.0
 72
     1
 10
0.0
 20
0.0
 11
-2.999999999999996
 21
0.0
 97
        0
 75
     0
 76
     1
 98
        1
 10
0.0
 20
0.0
  0
ENDBLK
  5
12A
330
128
100
AcDbEntity
  8
0
100
AcDbBlockEnd
  0
ENDSEC
  0
SECTION
  2
ENTITIES
  0
LINE
  5
96
330
1F
100
AcDbEntity
  8
외형선
  6
Continuous
370
    15
100
AcDbLine
 10
10.64239996958811
 20
15.875
 30
0.0
 11
-13.58732499999994
 21
15.875
 31
0.0
  0
LINE
  5
97
330
1F
100
AcDbEntity
  8
외형선
  6
Continuous
370
    15
100
AcDbLine
 10
-50.49999999999997
 20
-15.87500000000001
 30
0.0
 11
10.64239996958817
 21
-15.875
 31
0.0
  0
LINE
  5
99
330
1F
100
AcDbEntity
  8
외형선
  6
Continuous
370
    15
100
AcDbLine
 10
-51.49999999999997
 20
-14.875
 30
0.0
 11
-50.49999999999997
 21
-15.875
 31
0.0
  0
LINE
  5
9A
330
1F
100
AcDbEntity
  8
0
  6
Continuous
 62
     1
370
    15
100
AcDbLine
 10
38.24117645301091
 20
4.497748857537144
 30
0.0
 11
38.12067904651329
 21
4.564079741703751
 31
0.0
  0
SPLINE
  5
9B
330
1F
100
AcDbEntity
  8
0
  6
Continuous
 62
     1
370
    15
100
AcDbSpline
210
0.0
220
0.0
230
1.0
 70
     8
 71
     3
 72
    17
 73
    13
 74
     0
 42
0.000000001
 43
0.00000001
 40
0.0
 40
0.0
 40
0.0
 40
0.0
 40
0.1603820185673669
 40
0.2751328198023368
 40
0.3668408113262281
 40
0.4715143610027124
 40
0.5770277762869179
 40
0.660177423550081
 40
0.706717708738085
 40
0.7788132960638833
 40
0.8765717736001862
 40
1.0
 40
1.0
 40
1.0
 40
1.0
 10
47.07126523617745
 20
4.067971469818034
 30
0.0
 10
46.84038061975323
 20
4.176576860681077
 30
0.0
 10
46.44430170683511
 20
4.362887693409081
 30
0.0
 10
45.90498144558411
 20
4.623224495769349
 30
0.0
 10
45.438826302319
 20
4.851381168506698
 30
0.0
 10
44.9944950264352
 20
5.072022895388944
 30
0.0
 10
44.56414836464297
 20
5.288532225760132
 30
0.0
 10
44.22042473187811
 20
5.463242809006561
 30
0.0
 10
43.92521126312732
 20
5.614375905859831
 30
0.0
 10
43.60704712018622
 20
5.778356379777694
 30
0.0
 10
43.17551348522602
 20
6.002651223101247
 30
0.0
 10
42.84968782374605
 20
6.174650695189537
 30
0.0
 10
42.66786819898401
 20
6.270631101804276
 30
0.0
  0
SPLINE
  5
9C
330
1F
100
AcDbEntity
  8
0
  6
Continuous
 62
     1
370
    15
100
AcDbSpline
210
0.0
220
0.0
230
1.0
 70
     8
 71
     3
 72
    23
 73
    19
 74
     0
 42
0.000000001
 43
0.00000001
 40
0.0
 40
0.0
 40
0.0
 40
0.0
 40
0.108681224939805
 40
0.1995953195681352
 40
0.2741700801870396
 40
0.332923587961382
 40
0.3765735075304179
 40
0.420219941135957
 40
0.472340149807809
 40
0.5197357017620724
 40
0.575327747067637
 40
0.6395364162259476
 40
0.711670496692134
 40
0.7755278876115427
 40
0.8241232186768254
 40
0.8654048181505787
 40
0.9370621494845037
 40
0.9999999999999999
 40
0.9999999999999999
 40
0.9999999999999999
 40
0.9999999999999999
 10
41.82306281862837
 20
12.61489316832761
 30
0.0
 10
41.36716091964152
 20
12.59141882459106
 30
0.0
 10
40.52988764387196
 20
12.54830770634276
 30
0.0
 10
39.34201628581877
 20
12.50030963065969
 30
0.0
 10
38.35693775825656
 20
12.46814956327408
 30
0.0
 10
37.57942141836823
 20
12.44614026626035
 30
0.0
 10
36.95341201573994
 20
12.43168949467126
 30
0.0
 10
36.36212722271823
 20
12.4201542495507
 30
0.0
 10
35.74569278837868
 20
12.41053867538858
 30
0.0
 10
35.0759619809013
 20
12.40302215663634
 30
0.0
 10
34.35395343097558
 20
12.39813457111366
 30
0.0
 10
33.52521644982976
 20
12.39682714415804
 30
0.0
 10
32.66093482549017
 20
12.40056082931364
 30
0.0
 10
31.86432055799852
 20
12.40873430890196
 30
0.0
 10
31.20070550235259
 20
12.41874036380382
 30
0.0
 10
30.50319260504315
 20
12.432061406945
 30
0.0
 10
29.74388583227141
 20
12.44963513222143
 30
0.0
 10
29.16281089347855
 20
12.46810595827056
 30
0.0
 10
28.8910953154502
 20
12.47674307345407
 30
0.0
  0
SPLINE
  5
9D
330
1F
100
AcDbEntity
  8
0
  6
Continuous
 62
     1
370
    15
100
AcDbSpline
210
0.0
220
0.0
230
1.0
 70
     8
 71
     3
 72
    38
 73
    34
 74
     0
 42
0.000000001
 43
0.00000001
 40
0.0
 40
0.0
 40
0.0
 40
0.0
 40
0.0477728072927037
 40
0.090102578186421
 40
0.1280900539014637
 40
0.162310563640604
 40
0.1930588098944089
 40
0.2217128902611176
 40
0.2527516360267076
 40
0.2871028652195159
 40
0.3204011380771348
 40
0.3491682938075535
 40
0.3778302723330682
 40
0.4072293187253264
 40
0.4418207589930681
 40
0.4843063487627041
 40
0.5182968119239608
 40
0.5439451199043959
 40
0.5611589174590683
 40
0.5790317138105587
 40
0.6017828412237324
 40
0.6388998259660447
 40
0.6764891503526568
 40
0.7090960637709615
 40
0.7412508697992539
 40
0.7757547005599932
 40
0.8127937850856674
 40
0.8309660670569129
 40
0.8490938090212528
 40
0.8734679649310033
 40
0.9067211167485597
 40
0.9489330393315271
 40
1.0
 40
1.0
 40
1.0
 40
1.0
 10
82.30158793072033
 20
10.85774753690679
 30
0.0
 10
81.88153977150479
 20
10.82252617619354
 30
0.0
 10
81.08930200586776
 20
10.75609643117035
 30
0.0
 10
79.89300201951535
 20
10.67316036640903
 30
0.0
 10
78.79561297912348
 20
10.60948702375567
 30
0.0
 10
77.81331977556648
 20
10.55795902469484
 30
0.0
 10
76.93062722484095
 20
10.52104229106465
 30
0.0
 10
76.15217699345112
 20
10.49665715070217
 30
0.0
 10
75.30603528051911
 20
10.47366095756514
 30
0.0
 10
74.3918379540687
 20
10.4565569918222
 30
0.0
 10
73.4983701370359
 20
10.44765717114347
 30
0.0
 10
72.65814467708161
 20
10.44599581450239
 30
0.0
 10
71.85383051946133
 20
10.45034692035913
 30
0.0
 10
70.99549304392862
 20
10.46142605772027
 30
0.0
 10
70.009250604103
 20
10.48231905310159
 30
0.0
 10
68.98027974085974
 20
10.51422590954347
 30
0.0
 10
68.03418383104227
 20
10.5527729004504
 30
0.0
 10
67.3222295877238
 20
10.5871882887233
 30
0.0
 10
66.75948532262483
 20
10.61747603627234
 30
0.0
 10
66.22368984476196
 20
10.64872153080003
 30
0.0
 10
65.5033951764858
 20
10.69432258051167
 30
0.0
 10
64.60010076475479
 20
10.75817126829725
 30
0.0
 10
63.60540450034792
 20
10.83760232273328
 30
0.0
 10
62.65704186859642
 20
10.92151292802999
 30
0.0
 10
61.73801426279817
 20
11.01019594094684
 30
0.0
 10
60.77813069822952
 20
11.11016251085332
 30
0.0
 10
59.94740738302856
 20
11.2035313058945
 30
0.0
 10
59.26689553196711
 20
11.28434683216003
 30
0.0
 10
58.70284142242748
 20
11.35369898914271
 30
0.0
 10
58.00090516376873
 20
11.44346901502946
 30
0.0
 10
57.0768243289391
 20
11.56778767765846
 30
0.0
 10
55.90533338882035
 20
11.73372283974692
 30
0.0
 10
55.04089677135347
 20
11.86712249063869
 30
0.0
 10
54.56764763708182
 20
11.94015418321284
 30
0.0
  0
SPLINE
  5
9E
330
1F
100
AcDbEntity
  8
0
  6
Continuous
 62
     1
370
    15
100
AcDbSpline
210
0.0
220
0.0
230
1.0
 70
     8
 71
     3
 72
    21
 73
    17
 74
     0
 42
0.000000001
 43
0.00000001
 40
0.0
 40
0.0
 40
0.0
 40
0.0
 40
0.1203317696147636
 40
0.2197979465079931
 40
0.2981540999014191
 40
0.375912622929359
 40
0.4385328830907985
 40
0.5027460874640521
 40
0.56525502372223
 40
0.6230274745561829
 40
0.6782779119633673
 40
0.7406353845990773
 40
0.8111976506290253
 40
0.9072161466976425
 40
0.9858779963567622
 40
1.0
 40
1.0
 40
1.0
 40
1.0
 10
54.56764763708182
 20
-11.94015418321284
 30
0.0
 10
55.04088790120794
 20
-11.86712354190506
 30
0.0
 10
55.9053083164717
 20
-11.73372581125587
 30
0.0
 10
57.07689771429318
 20
-11.56777898021894
 30
0.0
 10
58.08052756029734
 20
-11.43275385110654
 30
0.0
 10
58.94173420278854
 20
-11.32347793221877
 30
0.0
 10
59.74826576929753
 20
-11.22671015328742
 30
0.0
 10
60.4925761226295
 20
-11.14202997373557
 30
0.0
 10
61.21728363893077
 20
-11.06406122957204
 30
0.0
 10
61.90691002209422
 20
-10.9939352651659
 30
0.0
 10
62.59599726239566
 20
-10.92765726459124
 30
0.0
 10
63.33584931278257
 20
-10.86109743894747
 30
0.0
 10
64.23629118541288
 20
-10.78621950175721
 30
0.0
 10
65.2010689900062
 20
-10.71491680353001
 30
0.0
 10
65.94350447336953
 20
-10.66536469359842
 30
0.0
 10
66.30830192591735
 20
-10.64432513926974
 30
0.0
 10
66.36382528230494
 20
-10.64112285080782
 30
0.0
  0
SPLINE
  5
9F
330
1F
100
AcDbEntity
  8
0
  6
Continuous
 62
     1
370
    15
100
AcDbSpline
210
0.0
220
0.0
230
1.0
 70
     8
 71
     3
 72
    37
 73
    33
 74
     0
 42
0.000000001
 43
0.00000001
 40
0.0
 40
0.0
 40
0.0
 40
0.0
 40
0.0560098564775816
 40
0.1033516415747772
 40
0.1433694226312625
 40
0.1751016133577894
 40
0.194834613769763
 40
0.212847216483819
 40
0.2330569735140534
 40
0.2558243754845507
 40
0.2820150441636434
 40
0.3122474195128439
 40
0.3466951899127166
 40
0.3850517876563371
 40
0.4191863553526368
 40
0.4453739682003313
 40
0.4677719429856836
 40
0.5071229784483051
 40
0.5527085336335791
 40
0.5897537607542098
 40
0.6218319409228191
 40
0.6557150480955645
 40
0.6937693169152805
 40
0.7394092604059163
 40
0.7888933864224135
 40
0.8272585231141815
 40
0.8416482800483899
 40
0.8575827679785053
 40
0.8814012680291532
 40
0.9131061466754241
 40
0.952619393088839
 40
1.0
 40
1.0
 40
1.0
 40
1.0
 10
17.94814094440825
 20
-13.21020519336282
 30
0.0
 10
18.38320115537403
 20
-13.16724441479975
 30
0.0
 10
19.18599176786523
 20
-13.08797145701953
 30
0.0
 10
20.34947530195506
 20
-12.98533133145742
 30
0.0
 10
21.30481393670161
 20
-12.90555685899137
 30
0.0
 10
22.05068017360627
 20
-12.84505053256822
 30
0.0
 10
22.60176717115812
 20
-12.80537917648134
 30
0.0
 10
23.01489801633702
 20
-12.77763300463528
 30
0.0
 10
23.48751132625039
 20
-12.74520513128084
 30
0.0
 10
24.03095146261292
 20
-12.70960091436656
 30
0.0
 10
24.66431101508595
 20
-12.67037919543758
 30
0.0
 10
25.3893271450241
 20
-12.62866125971106
 30
0.0
 10
26.21190722528003
 20
-12.58538340067907
 30
0.0
 10
27.06532644795621
 20
-12.54525437480884
 30
0.0
 10
27.85262259953701
 20
-12.51259442289444
 30
0.0
 10
28.51270379957836
 20
-12.48837313237389
 30
0.0
 10
29.214654275022
 20
-12.4653323891927
 30
0.0
 10
30.07133903319904
 20
-12.44140907376721
 30
0.0
 10
31.04487255523384
 20
-12.42077587736838
 30
0.0
 10
31.96049657126096
 20
-12.40737571521372
 30
0.0
 10
32.78224444408097
 20
-12.3999120790887
 30
0.0
 10
33.60932791143453
 20
-12.39677232811592
 30
0.0
 10
34.54476210548022
 20
-12.39856008179782
 30
0.0
 10
35.60864334833592
 20
-12.40774217572965
 30
0.0
 10
36.67664951729594
 20
-12.42518065850399
 30
0.0
 10
37.49392133872847
 20
-12.44423587484781
 30
0.0
 10
38.04153522249531
 20
-12.45927482019247
 30
0.0
 10
38.47278874488073
 20
-12.47214661971865
 30
0.0
 10
39.04297210086017
 20
-12.4909398877485
 30
0.0
 10
39.80169324323926
 20
-12.51935124636849
 30
0.0
 10
40.74912064608633
 20
-12.55975774580052
 30
0.0
 10
41.44410741762957
 20
-12.59543786925547
 30
0.0
 10
41.82306281862837
 20
-12.61489316832762
 30
0.0
  0
LINE
  5
A0
330
1F
100
AcDbEntity
  8
외형선
  6
Continuous
370
    15
100
AcDbLine
 10
12.00000000000001
 20
15.85563557177589
 30
0.0
 11
10.6423999695881
 21
15.87000738368744
 31
0.0
  0
LINE
  5
A1
330
1F
100
AcDbEntity
  8
외형선
  6
Continuous
370
    15
100
AcDbLine
 10
12.00000000000001
 20
15.85563557177588
 30
0.0
 11
12.00000000000001
 21
15.02245316348582
 31
0.0
  0
SPLINE
  5
A2
330
1F
100
AcDbEntity
  8
외형선
  6
Continuous
370
    15
100
AcDbSpline
210
0.0
220
0.0
230
1.0
 70
     8
 71
     3
 72
     8
 73
     4
 74
     0
 42
0.000000001
 43
0.00000001
 40
0.0
 40
0.0
 40
0.0
 40
0.0
 40
1.0
 40
1.0
 40
1.0
 40
1.0
 10
12.00000000000001
 20
15.02245316348581
 30
0.0
 10
10.98157798634017
 20
15.21240169429893
 30
0.0
 10
9.968458962634122
 20
15.37119522033576
 30
0.0
 10
8.950085642763662
 20
15.49840654507091
 30
0.0
  0
SPLINE
  5
A3
330
1F
100
AcDbEntity
  8
외형선
  6
Continuous
370
    15
100
AcDbSpline
210
0.0
220
0.0
230
1.0
 70
     8
 71
     3
 72
     8
 73
     4
 74
     0
 42
0.000000001
 43
0.00000001
 40
0.0
 40
0.0
 40
0.0
 40
0.0
 40
1.0
 40
1.0
 40
1.0
 40
1.0
 10
12.00000000000001
 20
-15.85563557177589
 30
0.0
 10
10.9816078923264
 20
-15.88464535244198
 30
0.0
 10
9.968518653443116
 20
-15.88107171536461
 30
0.0
 10
8.950175356427453
 20
-15.84492586697817
 30
0.0
  0
LINE
  5
A4
330
1F
100
AcDbEntity
  8
외형선
  6
Continuous
370
    15
100
AcDbLine
 10
-50.49999999999997
 20
13.48739999999998
 30
0.0
 11
-50.49999999999997
 21
-15.87500000000001
 31
0.0
  0
LINE
  5
A5
330
1F
100
AcDbEntity
  8
외형선
  6
Continuous
370
    15
100
AcDbLine
 10
8.950085642763662
 20
-15.84488399367232
 30
0.0
 11
8.950085642763662
 21
15.49840775970063
 31
0.0
  0
LINE
  5
A6
330
1F
100
AcDbEntity
  8
외형선
  6
Continuous
370
    15
100
AcDbLine
 10
-51.49999999999997
 20
13.48739999999998
 30
0.0
 11
-51.49999999999997
 21
-14.87500000000001
 31
0.0
  0
SPLINE
  5
A7
330
1F
100
AcDbEntity
  8
외형선
  6
Continuous
370
    15
100
AcDbSpline
210
0.0
220
0.0
230
1.0
 70
     8
 71
     3
 72
     8
 73
     4
 74
     0
 42
0.000000001
 43
0.00000001
 40
0.0
 40
0.0
 40
0.0
 40
0.0
 40
1.0
 40
1.0
 40
1.0
 40
1.0
 10
12.00000000000002
 20
-13.49294678832516
 30
0.0
 10
10.98160789232641
 20
-13.48749809215363
 30
0.0
 10
9.96851865344312
 20
-13.45437362016595
 30
0.0
 10
8.950175356427453
 20
-13.3936641100827
 30
0.0
  0
SPLINE
  5
A8
330
1F
100
AcDbEntity
  8
외형선
  6
Continuous
370
    15
100
AcDbSpline
210
0.0
220
0.0
230
1.0
 70
     8
 71
     3
 72
     8
 73
     4
 74
     0
 42
0.000000001
 43
0.00000001
 40
0.0
 40
0.0
 40
0.0
 40
0.0
 40
1.0
 40
1.0
 40
1.0
 40
1.0
 10
12.00000000000002
 20
-4.596452788543454
 30
0.0
 10
10.98158890680101
 20
-4.15829864492038
 30
0.0
 10
9.968480759314062
 20
-3.711473468724236
 30
0.0
 10
8.95011840257905
 20
-3.257183883279268
 30
0.0
  0
SPLINE
  5
A9
330
1F
100
AcDbEntity
  8
외형선
  6
Continuous
370
    15
100
AcDbSpline
210
0.0
220
0.0
230
1.0
 70
    24
 71
     3
 72
    14
 73
    10
 74
     0
 42
0.000000001
 43
0.00000001
 40
0.0
 40
0.0
 40
0.0
 40
0.0
 40
0.2500000000000001
 40
0.2500000000000001
 40
0.5000000000000002
 40
0.5000000000000002
 40
0.7500000000000001
 40
0.7500000000000001
 40
1.0
 40
1.0
 40
1.0
 40
1.0
 10
12.00000000000001
 20
-4.596452788543449
 30
0.0
 10
12.00000000000001
 20
-5.67890003001194
 30
0.0
 10
12.00000000000001
 20
-6.726217482642265
 30
0.0
 10
12.00000000000001
 20
-8.665440717411986
 30
0.0
 10
12.00000000000001
 20
-9.556656077049958
 30
0.0
 10
12.00000000000001
 20
-11.11153882544169
 30
0.0
 10
12.00000000000001
 20
-11.77475721125789
 30
0.0
 10
12.00000000000001
 20
-12.83409643281526
 30
0.0
 10
12.00000000000001
 20
-13.23021970349086
 30
0.0
 10
12.00000000000001
 20
-13.49294678832516
 30
0.0
  0
SPLINE
  5
AA
330
1F
100
AcDbEntity
  8
외형선
  6
Continuous
370
    15
100
AcDbSpline
210
0.0
220
0.0
230
1.0
 70
     8
 71
     3
 72
     8
 73
     4
 74
     0
 42
0.000000001
 43
0.00000001
 40
0.0
 40
0.0
 40
0.0
 40
0.0
 40
1.0
 40
1.0
 40
1.0
 40
1.0
 10
12.0
 20
10.35915089604647
 30
0.0
 10
10.9815851913715
 20
10.50799898326942
 30
0.0
 10
9.968473343507569
 20
10.63533256575319
 30
0.0
 10
8.950107256823895
 20
10.74080892807913
 30
0.0
  0
SPLINE
  5
AB
330
1F
100
AcDbEntity
  8
외형선
  6
Continuous
370
    15
100
AcDbSpline
210
0.0
220
0.0
230
1.0
 70
    24
 71
     3
 72
    14
 73
    10
 74
     0
 42
0.000000001
 43
0.00000001
 40
0.0
 40
0.0
 40
0.0
 40
0.0
 40
0.2499999999999998
 40
0.2499999999999998
 40
0.4999999999999999
 40
0.4999999999999999
 40
0.75
 40
0.75
 40
1.0
 40
1.0
 40
1.0
 40
1.0
 10
12.0
 20
10.35915089604647
 30
0.0
 10
12.0
 20
9.58275694567019
 30
0.0
 10
12.0
 20
8.637707314538979
 30
0.0
 10
12.0
 20
6.454749135365298
 30
0.0
 10
12.0
 20
5.2173323275749
 30
0.0
 10
12.0
 20
2.559290366167039
 30
0.0
 10
12.0
 20
1.140081528434626
 30
0.0
 10
12.0
 20
-1.735563022997719
 30
0.0
 10
12.0
 20
-3.190534081060129
 30
0.0
 10
12.0
 20
-4.596452788543444
 30
0.0
  0
SPLINE
  5
AC
330
1F
100
AcDbEntity
  8
외형선
  6
Continuous
370
    15
100
AcDbSpline
210
0.0
220
0.0
230
1.0
 70
    24
 71
     3
 72
    14
 73
    10
 74
     0
 42
0.000000001
 43
0.00000001
 40
0.0
 40
0.0
 40
0.0
 40
0.0
 40
0.25
 40
0.25
 40
0.5
 40
0.5
 40
0.75
 40
0.75
 40
1.0
 40
1.0
 40
1.0
 40
1.0
 10
12.00000000000001
 20
15.02245316348579
 30
0.0
 10
12.00000000000001
 20
14.68869454530032
 30
0.0
 10
12.00000000000001
 20
14.32744796282699
 30
0.0
 10
12.00000000000001
 20
13.56858929192954
 30
0.0
 10
12.00000000000001
 20
13.17110924543958
 30
0.0
 10
12.00000000000001
 20
12.36319394452032
 30
0.0
 10
12.00000000000001
 20
11.95290995258554
 30
0.0
 10
12.00000000000001
 20
11.14300692027275
 30
0.0
 10
12.00000000000001
 20
10.74350208859498
 30
0.0
 10
12.00000000000001
 20
10.35915089604647
 30
0.0
  0
SPLINE
  5
AD
330
1F
100
AcDbEntity
  8
외형선
  6
Continuous
370
    15
100
AcDbSpline
210
0.0
220
0.0
230
1.0
 70
    24
 71
     3
 72
     8
 73
     4
 74
     0
 42
0.000000001
 43
0.00000001
 40
0.0
 40
0.0
 40
0.0
 40
0.0
 40
1.0
 40
1.0
 40
1.0
 40
1.0
 10
12.00000000000001
 20
-13.49294678832517
 30
0.0
 10
12.00000000000001
 20
-14.30102015066554
 30
0.0
 10
12.00000000000001
 20
-15.09373578099008
 30
0.0
 10
12.00000000000001
 20
-15.8556355717671
 30
0.0
  0
SPLINE
  5
AE
330
1F
100
AcDbEntity
  8
0
  6
Continuous
 62
     1
370
    15
100
AcDbSpline
210
0.0
220
0.0
230
1.0
 70
     8
 71
     3
 72
    70
 73
    66
 74
     0
 42
0.000000001
 43
0.00000001
 40
0.0
 40
0.0
 40
0.0
 40
0.0
 40
0.03125
 40
0.03125
 40
0.0625
 40
0.0625
 40
0.09375
 40
0.09375
 40
0.125
 40
0.125
 40
0.15625
 40
0.15625
 40
0.1875
 40
0.1875
 40
0.2187499999999998
 40
0.2187499999999998
 40
0.2499999999999997
 40
0.2499999999999997
 40
0.2812499999999997
 40
0.2812499999999997
 40
0.3124999999999997
 40
0.3124999999999997
 40
0.3437499999999997
 40
0.3437499999999997
 40
0.3749999999999997
 40
0.3749999999999997
 40
0.4062499999999997
 40
0.4062499999999997
 40
0.4374999999999997
 40
0.4374999999999997
 40
0.4687499999999998
 40
0.4687499999999998
 40
0.4999999999999998
 40
0.4999999999999998
 40
0.5312499999999998
 40
0.5312499999999998
 40
0.5624999999999998
 40
0.5624999999999998
 40
0.5937499999999998
 40
0.5937499999999998
 40
0.6249999999999998
 40
0.6249999999999998
 40
0.6562499999999999
 40
0.6562499999999999
 40
0.6874999999999999
 40
0.6874999999999999
 40
0.7187499999999999
 40
0.7187499999999999
 40
0.7499999999999999
 40
0.7499999999999999
 40
0.7812499999999999
 40
0.7812499999999999
 40
0.8124999999999999
 40
0.8124999999999999
 40
0.8437499999999999
 40
0.8437499999999999
 40
0.8749999999999999
 40
0.8749999999999999
 40
0.90625
 40
0.90625
 40
0.9375
 40
0.9375
 40
0.96875
 40
0.96875
 40
1.0
 40
1.0
 40
1.0
 40
1.0
 10
88.20000000000003
 20
-15.87499999999999
 30
0.0
 10
87.40870592103258
 20
-15.84276481572522
 30
0.0
 10
86.61336610412835
 20
-15.80409197306601
 30
0.0
 10
85.02351123068834
 20
-15.68728980446149
 30
0.0
 10
84.23117449789898
 20
-15.60925475767796
 30
0.0
 10
82.64588482682724
 20
-15.41442391364456
 30
0.0
 10
81.85001985523914
 20
-15.2974689024405
 30
0.0
 10
80.26078544450864
 20
-15.02569817395005
 30
0.0
 10
79.47007893662982
 20
-14.87109507674422
 30
0.0
 10
77.88270228715825
 20
-14.5247612791295
 30
0.0
 10
77.08662360869562
 20
-14.3330153239377
 30
0.0
 10
75.49862931648215
 20
-13.91450554580046
 30
0.0
 10
74.70817805901765
 20
-13.6879299265209
 30
0.0
 10
73.11933167326563
 20
-13.20038696423618
 30
0.0
 10
72.3233510151147
 20
-12.93961099305793
 30
0.0
 10
70.73721488562428
 20
-12.38703514315976
 30
0.0
 10
69.9456435727709
 20
-12.09511186798094
 30
0.0
 10
68.35594660212105
 20
-11.48094416336093
 30
0.0
 10
67.56037556331559
 20
-11.15899247913232
 30
0.0
 10
65.97671322884864
 20
-10.48907555758656
 30
0.0
 10
65.18264800838297
 20
-10.14028056343563
 30
0.0
 10
63.59272071015815
 20
-9.417919093228242
 30
0.0
 10
62.79942942564352
 20
-9.044751001520499
 30
0.0
 10
61.21507087424541
 20
-8.27714099926781
 30
0.0
 10
60.41936449582475
 20
-7.881935162018936
 30
0.0
 10
58.82982742694691
 20
-7.073094120257311
 30
0.0
 10
58.03867624542166
 20
-6.65994241094785
 30
0.0
 10
56.45200227296743
 20
-5.817291443114134
 30
0.0
 10
55.65596653960171
 20
-5.387679129361345
 30
0.0
 10
54.06743974943242
 20
-4.516690922987327
 30
0.0
 10
53.27705427350317
 20
-4.075721997639257
 30
0.0
 10
51.68868121006143
 20
-3.1832978816
 30
0.0
 10
50.89262779278778
 20
-2.732190492072181
 30
0.0
 10
49.30573001735479
 20
-1.825259883992317
 30
0.0
 10
48.51473485583112
 20
-1.369416659415132
 30
0.0
 10
46.92528123767867
 20
-0.4540176145493282
 30
0.0
 10
46.12952183065481
 20
0.0050211760942097
 30
0.0
 10
44.54486969046175
 20
0.920620406445555
 30
0.0
 10
43.7518902434758
 20
1.377968418506829
 30
0.0
 10
42.16197601145194
 20
2.288833445540164
 30
0.0
 10
41.36754121399628
 20
2.741867533499477
 30
0.0
 10
39.78419827729473
 20
3.638920654086125
 30
0.0
 10
38.98869337008884
 20
4.084181754896897
 30
0.0
 10
37.3989390641182
 20
4.963135268179922
 30
0.0
 10
36.60715386522723
 20
5.396384546142256
 30
0.0
 10
35.02126747840427
 20
6.24875822030827
 30
0.0
 10
34.22531762749617
 20
6.668195935904267
 30
0.0
 10
32.63634357947572
 20
7.488830222451698
 30
0.0
 10
31.84583440443796
 20
7.889621711518358
 30
0.0
 10
30.2580198758897
 20
8.671645174452784
 30
0.0
 10
29.46193664003959
 20
9.052641668879048
 30
0.0
 10
27.87436216729379
 20
9.79032704934152
 30
0.0
 10
27.08375378548373
 20
10.14691703937422
 30
0.0
 10
25.49462892593122
 20
10.83502991366277
 30
0.0
 10
24.69872403828418
 20
11.16613192196196
 30
0.0
 10
23.11316663978921
 20
11.79876963999274
 30
0.0
 10
22.32108394934961
 20
12.10066053029685
 30
0.0
 10
20.73126827217066
 20
12.67413625385952
 30
0.0
 10
19.93585323271087
 20
12.94540587056784
 30
0.0
 10
18.35292779027603
 20
13.45410210790966
 30
0.0
 10
17.5579976024493
 20
13.69232726071611
 30
0.0
 10
15.96811151936795
 20
14.1339093497625
 30
0.0
 10
15.1755030727402
 20
14.33707508463889
 30
0.0
 10
13.59048903939739
 20
14.70712337777493
 30
0.0
 10
12.79466799283822
 20
14.87423757535122
 30
0.0
 10
12.00000000000002
 20
15.02245316348582
 30
0.0
  0
SPLINE
  5
AF
330
1F
100
AcDbEntity
  8
0
  6
Continuous
 62
     1
370
    15
100
AcDbSpline
210
0.0
220
0.0
230
1.0
 70
     8
 71
     3
 72
    16
 73
    12
 74
     0
 42
0.000000001
 43
0.00000001
 40
0.0
 40
0.0
 40
0.0
 40
0.0
 40
0.0054023400394502
 40
0.1400953685541483
 40
0.2748036025258023
 40
0.4095145561573873
 40
0.5442157365177899
 40
0.6581629190689825
 40
0.7721092874238598
 40
0.8860549461772067
 40
1.0
 40
1.0
 40
1.0
 40
1.0
 10
48.77451431916717
 20
-1.515452887974587
 30
0.0
 10
48.70829139960378
 20
-1.489378942538237
 30
0.0
 10
46.99097552255482
 20
-0.8132202837178748
 30
0.0
 10
43.62227594007807
 20
0.5684187471353132
 30
0.0
 10
38.6684217360951
 20
2.552325774725257
 30
0.0
 10
33.71447950629025
 20
4.461603932661593
 30
0.0
 10
29.01494934211339
 20
6.133506356813899
 30
0.0
 10
24.57045339746485
 20
7.549908501105587
 30
0.0
 10
20.38025953993225
 20
8.705549822970287
 30
0.0
 10
16.19012402170603
 20
9.67666616200555
 30
0.0
 10
13.39670553554738
 20
10.13165638728645
 30
0.0
 10
12.0
 20
10.35915089604647
 30
0.0
  0
SPLINE
  5
B0
330
1F
100
AcDbEntity
  8
외형선
  6
Continuous
370
    15
100
AcDbSpline
210
0.0
220
0.0
230
1.0
 70
    24
 71
     3
 72
    14
 73
    10
 74
     0
 42
0.000000001
 43
0.00000001
 40
0.0
 40
0.0
 40
0.0
 40
0.0
 40
0.25
 40
0.25
 40
0.5
 40
0.5
 40
0.75
 40
0.75
 40
1.0
 40
1.0
 40
1.0
 40
1.0
 10
12.00000000000001
 20
15.0224531634858
 30
0.0
 10
12.00000000000001
 20
14.68869454530033
 30
0.0
 10
12.00000000000001
 20
14.32744796282699
 30
0.0
 10
12.00000000000001
 20
13.56858929192954
 30
0.0
 10
12.00000000000001
 20
13.17110924543958
 30
0.0
 10
12.00000000000001
 20
12.36319394452032
 30
0.0
 10
12.00000000000001
 20
11.95290995258554
 30
0.0
 10
12.00000000000001
 20
11.14300692027275
 30
0.0
 10
12.00000000000001
 20
10.74350208859498
 30
0.0
 10
12.00000000000001
 20
10.35915089604647
 30
0.0
  0
SPLINE
  5
B1
330
1F
100
AcDbEntity
  8
0
  6
Continuous
 62
     1
370
    15
100
AcDbSpline
210
0.0
220
0.0
230
1.0
 70
     8
 71
     3
 72
    70
 73
    66
 74
     0
 42
0.000000001
 43
0.00000001
 40
0.0
 40
0.0
 40
0.0
 40
0.0
 40
0.03125
 40
0.03125
 40
0.0625
 40
0.0625
 40
0.09375
 40
0.09375
 40
0.125
 40
0.125
 40
0.15625
 40
0.15625
 40
0.1875
 40
0.1875
 40
0.21875
 40
0.21875
 40
0.25
 40
0.25
 40
0.28125
 40
0.28125
 40
0.3125
 40
0.3125
 40
0.34375
 40
0.34375
 40
0.375
 40
0.375
 40
0.40625
 40
0.40625
 40
0.4375
 40
0.4375
 40
0.46875
 40
0.46875
 40
0.5
 40
0.5
 40
0.53125
 40
0.53125
 40
0.5625
 40
0.5625
 40
0.59375
 40
0.59375
 40
0.625
 40
0.625
 40
0.65625
 40
0.65625
 40
0.6875
 40
0.6875
 40
0.71875
 40
0.71875
 40
0.75
 40
0.75
 40
0.78125
 40
0.78125
 40
0.8125
 40
0.8125
 40
0.84375
 40
0.84375
 40
0.875
 40
0.875
 40
0.90625
 40
0.90625
 40
0.9375
 40
0.9375
 40
0.96875
 40
0.96875
 40
1.0
 40
1.0
 40
1.0
 40
1.0
 10
88.20000000000003
 20
-15.06443629905641
 30
0.0
 10
87.40870592103255
 20
-14.92002286398577
 30
0.0
 10
86.6133661041283
 20
-14.75653691870385
 30
0.0
 10
85.02351123068826
 20
-14.39308567225694
 30
0.0
 10
84.23117449789883
 20
-14.19332514817618
 30
0.0
 10
82.64588482682707
 20
-13.75884775241218
 30
0.0
 10
81.85001985523898
 20
-13.52382894824094
 30
0.0
 10
80.26078544450844
 20
-13.02078630375063
 30
0.0
 10
79.47007893662959
 20
-12.7530972409732
 30
0.0
 10
77.88270228715798
 20
-12.18587873477119
 30
0.0
 10
77.08662360869533
 20
-11.88637042362099
 30
0.0
 10
75.49862931648182
 20
-11.25890894930027
 30
0.0
 10
74.70817805901734
 20
-10.9311976865155
 30
0.0
 10
73.11933167326528
 20
-10.24818719718708
 30
0.0
 10
72.32335101511431
 20
-9.893190637863352
 30
0.0
 10
70.73721488562384
 20
-9.160245621516399
 30
0.0
 10
69.9456435727705
 20
-8.782109984506508
 30
0.0
 10
68.35594660212058
 20
-8.003780958356607
 30
0.0
 10
67.56037556331508
 20
-7.603979713079002
 30
0.0
 10
65.97671322884808
 20
-6.78766661410306
 30
0.0
 10
65.1826480083824
 20
-6.370137122375033
 30
0.0
 10
63.59272071015754
 20
-5.51986241601851
 30
0.0
 10
62.79942942564288
 20
-5.087582438707109
 30
0.0
 10
61.21507087424474
 20
-4.211818801228033
 30
0.0
 10
60.41936449582406
 20
-3.767472775406909
 30
0.0
 10
58.82982742694614
 20
-2.870809712878191
 30
0.0
 10
58.03867624542092
 20
-2.419010815380626
 30
0.0
 10
56.45200227296665
 20
-1.509675509563598
 30
0.0
 10
55.65596653960091
 20
-1.052034232520092
 30
0.0
 10
54.06743974943157
 20
-0.1359419739262638
 30
0.0
 10
53.2770542735023
 20
0.3221005762804451
 30
0.0
 10
51.68868121006054
 20
1.237698299158167
 30
0.0
 10
50.89262779278685
 20
1.694877499953955
 30
0.0
 10
49.30573001735384
 20
2.602863784431753
 30
0.0
 10
48.51473485583016
 20
3.053707409833803
 30
0.0
 10
46.92528123767767
 20
3.94804611400736
 30
0.0
 10
46.12952183065379
 20
4.391019695588382
 30
0.0
 10
44.54486969046067
 20
5.26363199095095
 30
0.0
 10
43.75189024347469
 20
5.694030184249039
 30
0.0
 10
42.16197601145079
 20
6.540219033240099
 30
0.0
 10
41.36754121399511
 20
6.955555547077008
 30
0.0
 10
39.78419827729354
 20
7.766891411321864
 30
0.0
 10
38.98869337008762
 20
8.16401066907557
 30
0.0
 10
37.39893906411695
 20
8.936613214193429
 30
0.0
 10
36.60715386522597
 20
9.311720924037573
 30
0.0
 10
35.02126747840295
 20
10.0381316010215
 30
0.0
 10
34.22531762749483
 20
10.38968721300113
 30
0.0
 10
32.63634357947434
 20
11.06550039294653
 30
0.0
 10
31.84583440443657
 20
11.38944466060534
 30
0.0
 10
30.25801987588827
 20
12.00900692417651
 30
0.0
 10
29.46193664003815
 20
12.30441706571317
 30
0.0
 10
27.87436216729229
 20
12.86318103455323
 30
0.0
 10
27.08375378548223
 20
13.12648206262937
 30
0.0
 10
25.49462892592967
 20
13.62049371929362
 30
0.0
 10
24.69872403828262
 20
13.85087848523687
 30
0.0
 10
23.11316663978762
 20
14.27589507991042
 30
0.0
 10
22.32108394934799
 20
14.47078326800699
 30
0.0
 10
20.731268272169
 20
14.82433872232948
 30
0.0
 10
19.93585323270918
 20
14.98279208037675
 30
0.0
 10
18.35292779027432
 20
15.26143264421716
 30
0.0
 10
17.55799760244756
 20
15.38206002368041
 30
0.0
 10
15.96811151936616
 20
15.5845087692963
 30
0.0
 10
15.1755030727384
 20
15.66626059292965
 30
0.0
 10
13.59048903939554
 20
15.79047943049745
 30
0.0
 10
12.79466799283635
 20
15.83299876616752
 30
0.0
 10
11.99999999999812
 20
15.85563557177595
 30
0.0
  0
SPLINE
  5
B2
330
1F
100
AcDbEntity
  8
0
  6
Continuous
 62
     1
370
    15
100
AcDbSpline
210
0.0
220
0.0
230
1.0
 70
     8
 71
     3
 72
    18
 73
    14
 74
     0
 42
0.000000001
 43
0.00000001
 40
0.0
 40
0.0
 40
0.0
 40
0.0
 40
0.0963019186422903
 40
0.1925942252303709
 40
0.2888788112240099
 40
0.3851575743300437
 40
0.4814324169719409
 40
0.5777052447512668
 40
0.6739779649036926
 40
0.7702524847521918
 40
0.8665307101600883
 40
0.9628145439866148
 40
0.9999999999999999
 40
0.9999999999999999
 40
0.9999999999999999
 40
0.9999999999999999
 10
88.20000000000002
 20
-12.52493469684543
 30
0.0
 10
86.87886924425425
 20
-12.25866654464431
 30
0.0
 10
84.2367395970145
 20
-11.72615681690792
 30
0.0
 10
80.27379452248046
 20
-10.61464905762425
 30
0.0
 10
76.3112092646548
 20
-9.301750089832801
 30
0.0
 10
72.34890054775668
 20
-7.791035625207217
 30
0.0
 10
68.38677673584992
 20
-6.120194478221436
 30
0.0
 10
64.42474830875491
 20
-4.322025113108396
 30
0.0
 10
60.46272470816925
 20
-2.434752357708846
 30
0.0
 10
56.50061693221238
 20
-0.4954793544313747
 30
0.0
 10
52.5383307655287
 20
1.4485400767708
 30
0.0
 10
49.38661608863855
 20
2.987387482678121
 30
0.0
 10
47.55563289479774
 20
3.834124547400499
 30
0.0
 10
47.04550846769185
 20
4.070031278551182
 30
0.0
  0
LINE
  5
B3
330
1F
100
AcDbEntity
  8
0
  6
Continuous
 62
     1
370
    15
100
AcDbLine
 10
88.20000000000002
 20
-15.06443629905642
 30
0.0
 11
88.20000000000002
 21
-12.52493469684543
 31
0.0
  0
LINE
  5
B4
330
1F
100
AcDbEntity
  8
0
  6
Continuous
 62
     1
370
    15
100
AcDbLine
 10
88.20000000000002
 20
-15.87499999999999
 30
0.0
 11
88.19999999999945
 21
-15.06443629905642
 31
0.0
  0
SPLINE
  5
B5
330
1F
100
AcDbEntity
  8
0
  6
Continuous
 62
     1
370
    15
100
AcDbSpline
210
0.0
220
0.0
230
1.0
 70
     8
 71
     3
 72
    18
 73
    14
 74
     0
 42
0.000000001
 43
0.00000001
 40
0.0
 40
0.0
 40
0.0
 40
0.0
 40
0.0975250246602958
 40
0.1950499301511638
 40
0.2925747307915072
 40
0.390099440903614
 40
0.4810580334213431
 40
0.5720165227444686
 40
0.6629767360830668
 40
0.7539404992435781
 40
0.8449096351435598
 40
0.935885962331419
 40
1.0
 40
1.0
 40
1.0
 40
1.0
 10
85.37944026693721
 20
1.300194242658491
 30
0.0
 10
83.96337917006464
 20
1.947822110236766
 30
0.0
 10
81.13125870665678
 20
3.243077054032919
 30
0.0
 10
76.88307646277762
 20
5.10039800009484
 30
0.0
 10
72.63491866628131
 20
6.838437987049417
 30
0.0
 10
68.48203289258197
 20
8.377612125027834
 30
0.0
 10
64.42474122846153
 20
9.696677088504472
 30
0.0
 10
60.46270173604348
 20
10.78386654538998
 30
0.0
 10
56.50059316874085
 20
11.64683693250909
 30
0.0
 10
52.53830573248472
 20
12.27090417986247
 30
0.0
 10
48.57575228716915
 20
12.6310877390614
 30
0.0
 10
45.00301754482238
 20
12.75166611027111
 30
0.0
 10
42.75109694590397
 20
12.63542582948372
 30
0.0
 10
41.82015760457637
 20
12.58737233661903
 30
0.0
  0
SPLINE
  5
B6
330
1F
100
AcDbEntity
  8
0
  6
Continuous
 62
     1
370
    15
100
AcDbSpline
210
0.0
220
0.0
230
1.0
 70
     8
 71
     3
 72
     8
 73
     4
 74
     0
 42
0.000000001
 43
0.00000001
 40
0.0
 40
0.0
 40
0.0
 40
0.0
 40
1.0
 40
1.0
 40
1.0
 40
1.0
 10
85.37944026693721
 20
1.300194242658496
 30
0.0
 10
85.362404421881
 20
0.2921095860622903
 30
0.0
 10
85.2366008236008
 20
-0.690398346875981
 30
0.0
 10
85.02288798355629
 20
-1.652234432534707
 30
0.0
  0
SPLINE
  5
B7
330
1F
100
AcDbEntity
  8
0
  6
Continuous
 62
     1
370
    15
100
AcDbSpline
210
0.0
220
0.0
230
1.0
 70
     8
 71
     3
 72
     8
 73
     4
 74
     0
 42
0.000000001
 43
0.00000001
 40
0.0
 40
0.0
 40
0.0
 40
0.0
 40
1.0
 40
1.0
 40
1.0
 40
1.0
 10
88.20000000000002
 20
-4.242481768220605
 30
0.0
 10
87.13178050400633
 20
-3.402687243110366
 30
0.0
 10
86.07275622848768
 20
-2.539237859000441
 30
0.0
 10
85.02288798355632
 20
-1.6522344325347
 30
0.0
  0
SPLINE
  5
B8
330
1F
100
AcDbEntity
  8
0
  6
Continuous
 62
     1
370
    15
100
AcDbSpline
210
0.0
220
0.0
230
1.0
 70
    24
 71
     3
 72
    14
 73
    10
 74
     0
 42
0.000000001
 43
0.00000001
 40
0.0
 40
0.0
 40
0.0
 40
0.0
 40
0.25
 40
0.25
 40
0.5
 40
0.5
 40
0.75
 40
0.75
 40
1.0
 40
1.0
 40
1.0
 40
1.0
 10
88.20000000000002
 20
-12.52493469684543
 30
0.0
 10
88.20000000000002
 20
-12.04486774864042
 30
0.0
 10
88.20000000000003
 20
-11.50271046987282
 30
0.0
 10
88.2
 20
-10.30352123776153
 30
0.0
 10
88.2
 20
-9.646511261890652
 30
0.0
 10
88.19999999999999
 20
-8.23626417164158
 30
0.0
 10
88.20000000000002
 20
-7.483105696757502
 30
0.0
 10
88.20000000000002
 20
-5.907098256972253
 30
0.0
 10
88.20000000000003
 20
-5.084368713330324
 30
0.0
 10
88.20000000000003
 20
-4.242481768221112
 30
0.0
  0
SPLINE
  5
B9
330
1F
100
AcDbEntity
  8
0
  6
Continuous
 62
     1
370
    15
100
AcDbSpline
210
0.0
220
0.0
230
1.0
 70
    24
 71
     3
 72
    10
 73
     6
 74
     0
 42
0.000000001
 43
0.00000001
 40
0.0
 40
0.0
 40
0.0
 40
0.0
 40
0.5
 40
0.5
 40
1.0
 40
1.0
 40
1.0
 40
1.0
 10
83.20000000000002
 20
4.691538593597902
 30
0.0
 10
83.20000000000003
 20
5.728628384846495
 30
0.0
 10
83.20000000000003
 20
6.684238768094223
 30
0.0
 10
83.20000000000002
 20
8.336748412245083
 30
0.0
 10
83.20000000000003
 20
9.03283325391985
 30
0.0
 10
83.20000000000003
 20
9.570389447124661
 30
0.0
  0
SPLINE
  5
BA
330
1F
100
AcDbEntity
  8
0
  6
Continuous
 62
     1
370
    15
100
AcDbSpline
210
0.0
220
0.0
230
1.0
 70
     8
 71
     3
 72
     9
 73
     5
 74
     0
 42
0.000000001
 43
0.00000001
 40
0.0
 40
0.0
 40
0.0
 40
0.0
 40
0.838647374489754
 40
1.0
 40
1.0
 40
1.0
 40
1.0
 10
88.20000000000002
 20
11.11249999999999
 30
0.0
 10
86.54935037513243
 20
11.10200866609534
 30
0.0
 10
84.58112192169946
 20
11.08949883869494
 30
0.0
 10
82.61282564478532
 20
10.86611701236398
 30
0.0
 10
82.2952358727232
 20
10.8300737681942
 30
0.0
  0
SPLINE
  5
BB
330
1F
100
AcDbEntity
  8
0
  6
Continuous
 62
     1
370
    15
100
AcDbSpline
210
0.0
220
0.0
230
1.0
 70
     8
 71
     3
 72
     8
 73
     4
 74
     0
 42
0.000000001
 43
0.00000001
 40
0.0
 40
0.0
 40
0.0
 40
0.0
 40
1.0
 40
1.0
 40
1.0
 40
1.0
 10
88.20000000000002
 20
11.1125
 30
0.0
 10
86.52259376193912
 20
10.65780123202017
 30
0.0
 10
84.8556583168523
 20
10.14524943066148
 30
0.0
 10
83.20000000000005
 20
9.570389447124661
 30
0.0
  0
SPLINE
  5
BC
330
1F
100
AcDbEntity
  8
0
  6
Continuous
 62
     1
370
    15
100
AcDbSpline
210
0.0
220
0.0
230
1.0
 70
     8
 71
     3
 72
     8
 73
     4
 74
     0
 42
0.000000001
 43
0.00000001
 40
0.0
 40
0.0
 40
0.0
 40
0.0
 40
1.0
 40
1.0
 40
1.0
 40
1.0
 10
83.2
 20
4.691538593597898
 30
0.0
 10
84.0425656748897
 20
3.688219129697086
 30
0.0
 10
84.77614495484248
 20
2.565545540272594
 30
0.0
 10
85.37944026693722
 20
1.300194242658494
 30
0.0
  0
LINE
  5
BD
330
1F
100
AcDbEntity
  8
0
  6
Continuous
 62
     1
370
    15
100
AcDbLine
 10
85.11410413707094
 20
1.81309925036563
 30
0.0
 11
88.20000000000002
 21
0.0000000000000074
 31
0.0
  0
LINE
  5
BE
330
1F
100
AcDbEntity
  8
0
  6
Continuous
 62
     1
370
    15
100
AcDbLine
 10
88.20000000000002
 20
0.0000000000000074
 30
0.0
 11
88.20000000000002
 21
-4.242481768220607
 31
0.0
  0
SPLINE
  5
BF
330
1F
100
AcDbEntity
  8
0
  6
Continuous
 62
     1
370
    15
100
AcDbSpline
210
0.0
220
0.0
230
1.0
 70
     8
 71
     3
 72
    18
 73
    14
 74
     0
 42
0.000000001
 43
0.00000001
 40
0.0
 40
0.0
 40
0.0
 40
0.0
 40
0.0480478232505416
 40
0.1411001133155769
 40
0.2341597593458952
 40
0.327228615558204
 40
0.4202996644544135
 40
0.5133612290176827
 40
0.6064150182077833
 40
0.7048122027885194
 40
0.803208702627032
 40
0.9016046056880579
 40
1.0
 40
1.0
 40
1.0
 40
1.0
 10
54.5844249986727
 20
-11.90680126039762
 30
0.0
 10
53.90241021332174
 20
-12.01988423587479
 30
0.0
 10
51.89956477755408
 20
-12.35197046943193
 30
0.0
 10
48.57575221402065
 20
-12.62913841605894
 30
0.0
 10
44.61284896678599
 20
-12.74482340628757
 30
0.0
 10
40.64961446697649
 20
-12.58364057730081
 30
0.0
 10
36.68633400581425
 20
-12.16493719878023
 30
0.0
 10
32.72333301946281
 20
-11.49311870918295
 30
0.0
 10
28.68480768080196
 20
-10.56571039640227
 30
0.0
 10
24.57043489084032
 20
-9.386952744046372
 30
0.0
 10
20.38026988515079
 20
-7.966856033405331
 30
0.0
 10
16.19012417448519
 20
-6.36974786160783
 30
0.0
 10
13.39670565095991
 20
-5.187550127483932
 30
0.0
 10
12.00000000000002
 20
-4.596452788543454
 30
0.0
  0
SPLINE
  5
C0
330
1F
100
AcDbEntity
  8
외형선
  6
Continuous
370
    15
100
AcDbSpline
210
0.0
220
0.0
230
1.0
 70
    24
 71
     3
 72
    14
 73
    10
 74
     0
 42
0.000000001
 43
0.00000001
 40
0.0
 40
0.0
 40
0.0
 40
0.0
 40
0.2499999999999998
 40
0.2499999999999998
 40
0.4999999999999999
 40
0.4999999999999999
 40
0.75
 40
0.75
 40
1.0
 40
1.0
 40
1.0
 40
1.0
 10
12.0
 20
10.35915089604647
 30
0.0
 10
12.0
 20
9.58275694567019
 30
0.0
 10
12.0
 20
8.637707314538979
 30
0.0
 10
12.0
 20
6.454749135365298
 30
0.0
 10
12.0
 20
5.2173323275749
 30
0.0
 10
12.0
 20
2.559290366167039
 30
0.0
 10
12.0
 20
1.140081528434626
 30
0.0
 10
12.0
 20
-1.735563022997719
 30
0.0
 10
12.0
 20
-3.190534081060129
 30
0.0
 10
12.0
 20
-4.596452788543444
 30
0.0
  0
SPLINE
  5
C1
330
1F
100
AcDbEntity
  8
0
  6
Continuous
 62
     1
370
    15
100
AcDbSpline
210
0.0
220
0.0
230
1.0
 70
     8
 71
     3
 72
     9
 73
     5
 74
     0
 42
0.000000001
 43
0.00000001
 40
0.0
 40
0.0
 40
0.0
 40
0.0
 40
0.2965154081126252
 40
1.0
 40
1.0
 40
1.0
 40
1.0
 10
17.95624921119365
 20
-13.17192232764684
 30
0.0
 10
17.36754227610044
 20
-13.24070581679031
 30
0.0
 10
15.38212459126431
 20
-13.4726785482625
 30
0.0
 10
13.39670916257701
 20
-13.48457665415626
 30
0.0
 10
12.00000000000002
 20
-13.49294678832517
 30
0.0
  0
SPLINE
  5
C2
330
1F
100
AcDbEntity
  8
외형선
  6
Continuous
370
    15
100
AcDbSpline
210
0.0
220
0.0
230
1.0
 70
    24
 71
     3
 72
    14
 73
    10
 74
     0
 42
0.000000001
 43
0.00000001
 40
0.0
 40
0.0
 40
0.0
 40
0.0
 40
0.2500000000000001
 40
0.2500000000000001
 40
0.5000000000000002
 40
0.5000000000000002
 40
0.7500000000000001
 40
0.7500000000000001
 40
1.0
 40
1.0
 40
1.0
 40
1.0
 10
12.00000000000001
 20
-4.596452788543449
 30
0.0
 10
12.00000000000001
 20
-5.67890003001194
 30
0.0
 10
12.00000000000001
 20
-6.726217482642265
 30
0.0
 10
12.00000000000001
 20
-8.665440717411986
 30
0.0
 10
12.00000000000001
 20
-9.556656077049958
 30
0.0
 10
12.00000000000001
 20
-11.11153882544169
 30
0.0
 10
12.00000000000001
 20
-11.77475721125789
 30
0.0
 10
12.00000000000001
 20
-12.83409643281526
 30
0.0
 10
12.00000000000001
 20
-13.23021970349086
 30
0.0
 10
12.00000000000001
 20
-13.49294678832516
 30
0.0
  0
LINE
  5
C3
330
1F
100
AcDbEntity
  8
0
  6
Continuous
 62
     1
370
    15
100
AcDbLine
 10
88.20000000000002
 20
0.0000000000000074
 30
0.0
 11
88.20000000000002
 21
11.1125
 31
0.0
  0
SPLINE
  5
C4
330
1F
100
AcDbEntity
  8
0
  6
Continuous
 62
     1
370
    15
100
AcDbSpline
210
0.0
220
0.0
230
1.0
 70
     8
 71
     3
 72
    12
 73
     8
 74
     0
 42
0.000000001
 43
0.00000001
 40
0.0
 40
0.0
 40
0.0
 40
0.0
 40
0.1265848437427553
 40
0.3449342644777083
 40
0.5633373529637311
 40
0.781692972952472
 40
1.0
 40
1.0
 40
1.0
 40
1.0
 10
28.89257879307176
 20
-12.47622223549041
 30
0.0
 10
28.17982155608682
 20
-12.73364893240623
 30
0.0
 10
26.23761120908677
 20
-13.43511749477248
 30
0.0
 10
23.06556313727149
 20
-14.31945098747784
 30
0.0
 10
19.37646120522591
 20
-15.12432579827377
 30
0.0
 10
15.68787120814418
 20
-15.66757473043953
 30
0.0
 10
13.22919920026757
 20
-15.79295327547935
 30
0.0
 10
11.99999999999813
 20
-15.85563557177596
 30
0.0
  0
SPLINE
  5
C5
330
1F
100
AcDbEntity
  8
외형선
  6
Continuous
370
    15
100
AcDbSpline
210
0.0
220
0.0
230
1.0
 70
    24
 71
     3
 72
     8
 73
     4
 74
     0
 42
0.000000001
 43
0.00000001
 40
0.0
 40
0.0
 40
0.0
 40
0.0
 40
1.0
 40
1.0
 40
1.0
 40
1.0
 10
12.00000000000001
 20
-13.49294678832517
 30
0.0
 10
12.00000000000001
 20
-14.30102015066554
 30
0.0
 10
12.00000000000001
 20
-15.09373578099008
 30
0.0
 10
12.00000000000001
 20
-15.8556355717671
 30
0.0
  0
SPLINE
  5
C6
330
1F
100
AcDbEntity
  8
0
  6
Continuous
 62
     1
370
    15
100
AcDbSpline
210
0.0
220
0.0
230
1.0
 70
     8
 71
     3
 72
    13
 73
     9
 74
     0
 42
0.000000001
 43
0.00000001
 40
0.0
 40
0.0
 40
0.0
 40
0.0
 40
0.1525191434884772
 40
0.3244561755160143
 40
0.4933110246141078
 40
0.662173922600432
 40
0.831063920012659
 40
1.0
 40
1.0
 40
1.0
 40
1.0
 10
66.36338062718067
 20
10.64094199345175
 30
0.0
 10
67.47356728254415
 20
11.10536800987571
 30
0.0
 10
69.83528337974587
 20
12.09334817847954
 30
0.0
 10
73.42597946672517
 20
13.32973047444628
 30
0.0
 10
77.13553104568852
 20
14.3839337051548
 30
0.0
 10
80.82296015198204
 20
15.16307315576366
 30
0.0
 10
84.51107466615377
 20
15.69162172960453
 30
0.0
 10
86.97024640419201
 20
15.80492388589751
 30
0.0
 10
88.19999999999999
 20
15.87500000000001
 30
0.0
  0
SPLINE
  5
C7
330
1F
100
AcDbEntity
  8
0
  6
Continuous
 62
     1
370
    15
100
AcDbSpline
210
0.0
220
0.0
230
1.0
 70
    24
 71
     3
 72
    14
 73
    10
 74
     0
 42
0.000000001
 43
0.00000001
 40
0.0
 40
0.0
 40
0.0
 40
0.0
 40
0.25
 40
0.25
 40
0.5
 40
0.5
 40
0.75
 40
0.75
 40
1.0
 40
1.0
 40
1.0
 40
1.0
 10
88.20000000000002
 20
11.1125
 30
0.0
 10
88.20000000000003
 20
11.44930603840805
 30
0.0
 10
88.20000000000003
 20
11.81258118427562
 30
0.0
 10
88.2
 20
12.57771108481404
 30
0.0
 10
88.20000000000003
 20
12.9794895650125
 30
0.0
 10
88.20000000000002
 20
13.80064530850656
 30
0.0
 10
88.20000000000003
 20
14.21988443375764
 30
0.0
 10
88.20000000000005
 20
15.05166832183918
 30
0.0
 10
88.20000000000003
 20
15.46406174255948
 30
0.0
 10
88.19999999999997
 20
15.87500000000001
 30
0.0
  0
LINE
  5
C8
330
1F
100
AcDbEntity
  8
중심선
 48
0.8
100
AcDbLine
 10
-54.5
 20
-0.0000000000000064
 30
0.0
 11
91.20000000000003
 21
0.0000000000000115
 31
0.0
  0
LINE
  5
C9
330
1F
100
AcDbEntity
  8
참조1
100
AcDbLine
 10
21.19926131403119
 20
0.0010749287238892
 30
0.0
 11
21.19926131403119
 21
-39.99892507127611
 31
0.0
  0
LINE
  5
CA
330
1F
100
AcDbEntity
  8
참조1
100
AcDbLine
 10
21.19926131403119
 20
-39.99892507127611
 30
0.0
 11
-20.15080122126847
 21
-39.9989250712761
 31
0.0
  0
CIRCLE
  5
CB
330
1F
100
AcDbEntity
  8
해칭선
100
AcDbCircle
 10
0.0
 20
0.0
 30
0.0
 40
2.999999999999995
  0
INSERT
  5
CC
330
1F
100
AcDbEntity
  8
0
  6
Continuous
 62
     7
100
AcDbBlockReference
 66
     1
  2
블럭10
 10
4.40972706787482
 20
-52.04717430164393
 30
0.0
  0
ATTRIB
  5
CD
330
CC
100
AcDbEntity
  8
FORMAT
 62
     2
100
AcDbText
 10
-4.77156822086646
 20
-49.97180738881174
 30
0.0
 40
4.233333333333333
  1
E1070981 [ 2 FLUTE ]
 41
0.75
  7
SLDTEXTSTYLE0
 11
-4.77156822086646
 21
-52.08847405547841
 31
0.0
100
AcDbAttribute
  2
AUTOATTR0
 70
     0
 74
     1
  0
SEQEND
  5
CE
330
CC
100
AcDbEntity
  8
0
  6
Continuous
 62
     7
  0
HATCH
  5
CF
330
1F
100
AcDbEntity
  8
중심선
100
AcDbHatch
 10
0.0
 20
0.0
 30
0.0
210
0.0
220
0.0
230
1.0
  2
SOLID
 70
     1
 71
     0
 91
        1
 92
        0
 93
        4
 72
     1
 10
10.12463637225566
 20
-35.8
 11
6.678361128418377
 21
-35.8
 72
     1
 10
6.678361128418377
 20
-35.8
 11
4.550131269214355
 21
-38.33632558057257
 72
     1
 10
4.550131269214355
 20
-38.33632558057257
 11
7.996439598164788
 21
-38.33628615127008
 72
     1
 10
7.996439598164788
 20
-38.33628615127008
 11
10.12463637225566
 21
-35.8
 97
        0
 75
     0
 76
     1
 98
        1
 10
-2.849261314031157
 20
-0.001074928723896
  0
HATCH
  5
D0
330
1F
100
AcDbEntity
  8
중심선
100
AcDbHatch
 10
0.0
 20
0.0
 30
0.0
210
0.0
220
0.0
230
1.0
  2
SOLID
 70
     1
 71
     0
 91
        1
 92
        0
 93
        4
 72
     1
 10
15.13740036329164
 20
-35.8
 11
11.69112511945436
 21
-35.79999999999998
 72
     1
 10
11.69112511945436
 20
-35.79999999999998
 11
7.159987111096941
 21
-41.20000000000002
 72
     1
 10
7.159987111096941
 20
-41.20000000000002
 11
10.60626235493422
 21
-41.20000000000002
 72
     1
 10
10.60626235493422
 20
-41.20000000000002
 11
15.13740036329164
 21
-35.8
 97
        0
 75
     0
 76
     1
 98
        1
 10
-2.849261314031157
 20
-0.001074928723896
  0
HATCH
  5
D1
330
1F
100
AcDbEntity
  8
중심선
100
AcDbHatch
 10
0.0
 20
0.0
 30
0.0
210
0.0
220
0.0
230
1.0
  2
SOLID
 70
     1
 71
     0
 91
        1
 92
        0
 93
        4
 72
     1
 10
20.15016435432754
 20
-35.79999999999998
 11
16.70388911049045
 21
-35.79999999999998
 72
     1
 10
16.70388911049045
 20
-35.79999999999998
 11
9.655452208601142
 21
-44.20000000000002
 72
     1
 10
9.655452208601142
 20
-44.20000000000002
 11
13.10172745243842
 21
-44.20000000000002
 72
     1
 10
13.10172745243842
 20
-44.20000000000002
 11
20.15016435432754
 21
-35.79999999999998
 97
        0
 75
     0
 76
     1
 98
        1
 10
-2.849261314031157
 20
-0.001074928723896
  0
HATCH
  5
D2
330
1F
100
AcDbEntity
  8
중심선
100
AcDbHatch
 10
0.0
 20
0.0
 30
0.0
210
0.0
220
0.0
230
1.0
  2
SOLID
 70
     1
 71
     0
 91
        1
 92
        0
 93
        6
 72
     3
 10
24.95005478533971
 20
-40.00000000005127
 11
3.960054785062283
 21
1.540882976769353E-10
 40
0.3939339440162628
 50
17.09539180608436
 51
320.0019657685078
 73
     0
 72
     1
 10
26.6330544410403
 20
-38.5878940046383
 11
28.93835631474134
 21
-36.65356729459035
 72
     3
 10
24.95005478528686
 20
-40.00000000000015
 11
6.600054785286833
 21
-1.278976924368180E-13
 40
0.6363583540795976
 50
39.99873849337428
 51
368.4976242363725
 73
     1
 72
     1
 10
31.37538727718747
 20
-39.03999999993002
 11
23.63012209212281
 21
-39.03999999993002
 72
     1
 10
23.63012209212281
 20
-39.03999999993002
 11
23.63009704767685
 21
-40.95999999992991
 72
     1
 10
23.63009704767685
 20
-40.95999999992991
 11
28.07147681714888
 21
-40.95999999992988
 97
        0
 75
     0
 76
     1
 98
        1
 10
-2.849261314031157
 20
-0.001074928723896
  0
DIMENSION
  5
D3
330
1F
100
AcDbEntity
  8
치수문자_일반주서
100
AcDbDimension
  2
_D
 10
-63.99999999999994
 20
-15.87500000000005
 30
0.0
 11
-64.0
 21
0.0000000000000076
 31
0.0
 70
   160
  1
%%c<>
 71
     2
 42
31.75
 52
-270.0
  3
SLDDIMSTYLE0
100
AcDbAlignedDimension
 13
-50.49999999999999
 23
15.875
 33
0.0
 14
-50.49999999999999
 24
-15.875
 34
0.0
 50
90.0000000000002
100
AcDbRotatedDimension
1001
ACAD
1000
DSTYLE
1002
{
1070
   171
1070
     6
1070
   273
1070
     7
1002
}
  0
DIMENSION
  5
E6
330
1F
100
AcDbEntity
  8
치수문자_일반주서
100
AcDbDimension
  2
_D_1
 10
11.99999999999999
 20
29.03792442259353
 30
0.0
 11
48.48104858172512
 21
29.03792442259353
 31
0.0
 70
   160
  1
<>
 71
     2
 42
76.19999999999996
  3
SLDDIMSTYLE0
100
AcDbAlignedDimension
 13
88.19999999999997
 23
15.87500000000001
 33
0.0
 14
12.00000000000001
 24
15.85563557176604
 34
0.0
100
AcDbRotatedDimension
1001
ACAD
1000
DSTYLE
1002
{
1070
   171
1070
     6
1070
   273
1070
     7
1002
}
  0
DIMENSION
  5
FB
330
1F
100
AcDbEntity
  8
치수문자_일반주서
100
AcDbDimension
  2
_D_2
 10
-51.49999999999999
 20
45.58996586444052
 30
0.0
 11
18.35000000000002
 21
45.58996586444052
 31
0.0
 70
   160
  1
<>
 71
     2
 42
139.6999999999999
  3
SLDDIMSTYLE0
100
AcDbAlignedDimension
 13
88.19999999999997
 23
15.87500000000001
 33
0.0
 14
-51.49999999999997
 24
14.87499999999998
 34
0.0
 50
0.0000000000000029
100
AcDbRotatedDimension
1001
ACAD
1000
DSTYLE
1002
{
1070
   171
1070
     6
1070
   273
1070
     7
1002
}
  0
DIMENSION
  5
10E
330
1F
100
AcDbEntity
  8
치수문자_일반주서
100
AcDbDimension
  2
_D_3
 10
114.8591733764939
 20
15.87500000000011
 30
0.0
 11
114.8591733764938
 21
37.5016485309387
 31
0.0
 70
   160
  1
%%c<>
 71
     2
 42
31.75
 52
-270.0
  3
SLDDIMSTYLE0
100
AcDbAlignedDimension
 13
88.20000000000002
 23
-15.87499999999999
 33
0.0
 14
88.19999999999997
 24
15.87500000000001
 34
0.0
 50
90.0000000000002
100
AcDbRotatedDimension
1001
ACAD
1000
DSTYLE
1002
{
1070
   171
1070
     6
1070
   273
1070
     7
1002
}
  0
LINE
  5
121
330
1F
100
AcDbEntity
  8
참조1
100
AcDbLine
 10
77.82153940838579
 20
7.441074928723896
 30
0.0
 11
77.82153940838579
 21
-7.438925071276109
 31
0.0
  0
LINE
  5
122
330
1F
100
AcDbEntity
  8
참조1
100
AcDbLine
 10
90.52153940838579
 20
5.441074928723896
 30
0.0
 11
77.82153940838579
 21
5.441074928723896
 31
0.0
  0
SOLID
  5
123
330
1F
100
AcDbEntity
  8
참조1
100
AcDbTrace
 10
77.82153940838579
 20
5.441074928723896
 30
0.0
 11
84.17153940838578
 21
4.425074928723896
 31
0.0
 12
84.17153940838578
 22
6.457074928723896
 32
0.0
 13
84.17153940838578
 23
6.457074928723896
 33
0.0
  0
LINE
  5
124
330
1F
100
AcDbEntity
  8
참조1
100
AcDbLine
 10
90.52153940838579
 20
-5.438925071276109
 30
0.0
 11
77.82153940838579
 21
-5.438925071276109
 31
0.0
  0
SOLID
  5
125
330
1F
100
AcDbEntity
  8
참조1
100
AcDbTrace
 10
77.82153940838579
 20
-5.438925071276109
 30
0.0
 11
84.17153940838578
 21
-6.454925071276109
 31
0.0
 12
84.17153940838578
 22
-4.422925071276109
 32
0.0
 13
84.17153940838578
 23
-4.422925071276109
 33
0.0
  0
MTEXT
  5
126
330
1F
100
AcDbEntity
  8
참조1
100
AcDbMText
 10
87.20588954101179
 20
11.01136670591222
 30
0.0
 40
3.5
 41
0.0
 71
     1
 72
     1
  1
A
  7
SLDTEXTSTYLE0
 73
     1
 44
1.0
  0
MTEXT
  5
127
330
1F
100
AcDbEntity
  8
참조1
100
AcDbMText
 10
87.20588954101179
 20
0.1313667059122192
 30
0.0
 40
3.5
 41
0.0
 71
     1
 72
     1
  1
A
  7
SLDTEXTSTYLE0
 73
     1
 44
1.0
  0
INSERT
  5
12E
330
1F
100
AcDbEntity
  8
해칭선
100
AcDbBlockReference
  2
SW_DOWELSYMBOL_0
 10
0.0
 20
0.0
 30
0.0
  0
LINE
  5
1E2
330
1F
100
AcDbEntity
  8
외형선
  6
Continuous
370
    15
100
AcDbLine
 10
-36.41240000000008
 20
15.87499999999999
 30
0.0
 11
-31.46892499999998
 21
15.87499999999999
 31
0.0
  0
LINE
  5
1E3
330
1F
100
AcDbEntity
  8
외형선
  6
Continuous
370
    15
100
AcDbLine
 10
-29.08132499999996
 20
13.48739999999998
 30
0.0
 11
-15.97492499999996
 21
13.48739999999998
 31
0.0
  0
LINE
  5
1E4
330
1F
100
AcDbEntity
  8
외형선
  6
Continuous
370
    15
100
AcDbLine
 10
-15.97492499999996
 20
13.48739999999998
 30
0.0
 11
-13.58732499999994
 21
15.875
 31
0.0
  0
LINE
  5
1E5
330
1F
100
AcDbEntity
  8
외형선
  6
Continuous
370
    15
100
AcDbLine
 10
-29.08132499999996
 20
13.48739999999998
 30
0.0
 11
-31.46892499999998
 21
15.875
 31
0.0
  0
LINE
  5
1E6
330
1F
100
AcDbEntity
  8
외형선
  6
Continuous
370
    15
100
AcDbLine
 10
-51.49999999999997
 20
13.48739999999998
 30
0.0
 11
-38.79999999999998
 21
13.48739999999998
 31
0.0
  0
LINE
  5
1E7
330
1F
100
AcDbEntity
  8
외형선
  6
Continuous
370
    15
100
AcDbLine
 10
-38.79999999999998
 20
13.48739999999998
 30
0.0
 11
-36.41240000000008
 21
15.87499999999997
 31
0.0
  0
LINE
  5
1E8
330
1F
100
AcDbEntity
  8
외형선
  6
Continuous
370
    15
100
AcDbLine
 10
-31.46892499999998
 20
15.87499999999999
 30
0.0
 11
-36.41240000000005
 21
15.87499999999999
 31
0.0
  0
ENDSEC
  0
SECTION
  2
OBJECTS
  0
DICTIONARY
  5
C
330
0
100
AcDbDictionary
281
     1
  3
ACAD_GROUP
350
D
  3
ACAD_IMAGE_VARS
350
152
  3
ACAD_LAYOUT
350
1A
  3
ACAD_MLINESTYLE
350
17
  3
ACAD_PLOTSETTINGS
350
19
  3
ACAD_PLOTSTYLENAME
350
E
  3
ACAD_SCALELIST
350
47
  3
APPDATA
350
150
  3
DWGPROPS
350
1E9
  0
DICTIONARY
  5
179
330
2
100
AcDbDictionary
280
     1
281
     1
  3
ACAD_LAYERSTATES
360
17A
  0
DICTIONARY
  5
D
102
{ACAD_REACTORS
330
C
102
}
330
C
100
AcDbDictionary
281
     1
  0
RASTERVARIABLES
  5
152
102
{ACAD_REACTORS
330
C
102
}
330
C
100
AcDbRasterVariables
 90
        0
 70
     1
 71
     1
 72
     1
  0
DICTIONARY
  5
1A
102
{ACAD_REACTORS
330
C
102
}
330
C
100
AcDbDictionary
281
     1
  3
Layout1
350
1E
  3
Layout2
350
26
  3
Model
350
22
  0
DICTIONARY
  5
17
102
{ACAD_REACTORS
330
C
102
}
330
C
100
AcDbDictionary
281
     1
  3
Standard
350
18
  0
DICTIONARY
  5
19
102
{ACAD_REACTORS
330
C
102
}
330
C
100
AcDbDictionary
281
     1
  0
ACDBDICTIONARYWDFLT
  5
E
102
{ACAD_REACTORS
330
C
102
}
330
C
100
AcDbDictionary
281
     1
  3
Normal
350
F
100
AcDbDictionaryWithDefault
340
F
  0
DICTIONARY
  5
47
102
{ACAD_REACTORS
330
C
102
}
330
C
100
AcDbDictionary
281
     1
  3
A0
350
48
  3
A1
350
49
  3
A2
350
4A
  3
A3
350
4B
  3
A4
350
4C
  3
A5
350
4D
  3
A6
350
4E
  3
A7
350
4F
  3
A8
350
50
  3
A9
350
51
  3
B0
350
52
  3
B1
350
53
  3
B2
350
54
  3
B3
350
55
  3
B4
350
56
  3
B5
350
57
  3
B6
350
58
  3
B7
350
59
  3
B8
350
5A
  3
B9
350
5B
  3
C0
350
5C
  3
C1
350
5D
  3
C2
350
5E
  3
C3
350
5F
  3
C4
350
60
  3
C5
350
61
  3
C6
350
62
  3
C7
350
63
  3
C8
350
64
  3
C9
350
65
  3
D0
350
66
  3
D1
350
67
  3
D2
350
68
  0
DICTIONARY
  5
150
102
{ACAD_REACTORS
330
C
102
}
330
C
100
AcDbDictionary
281
     1
  0
XRECORD
  5
1E9
102
{ACAD_REACTORS
330
C
102
}
330
C
100
AcDbXrecord
280
     1
  1
DWGPROPS COOKIE
  2

  3

  4

  6

  7

  8
12016016
  9

300
=
301
=
302
=
303
=
304
=
305
=
306
=
307
=
308
=
309
=
 40
0.0
 41
2458311.089956123
 42
2458318.288147349
  1

 90
        0
  0
DICTIONARY
  5
17A
102
{ACAD_REACTORS
330
179
102
}
330
179
100
AcDbDictionary
281
     1
  0
LAYOUT
  5
1E
102
{ACAD_REACTORS
330
1A
102
}
330
1A
100
AcDbPlotSettings
  1

  2
none_device
  4

  6

 40
0.0
 41
0.0
 42
0.0
 43
0.0
 44
0.0
 45
0.0
 46
0.0
 47
0.0
 48
0.0
 49
0.0
140
0.0
141
0.0
142
1.0
143
1.0
 70
   688
 72
     1
 73
     0
 74
     5
  7

 75
    16
147
1.0
148
0.0
149
0.0
100
AcDbLayout
  1
Layout1
 70
     1
 71
     1
 10
0.0
 20
0.0
 11
420.0
 21
297.0
 12
0.0
 22
0.0
 32
0.0
 14
1.000000000000000E+20
 24
1.000000000000000E+20
 34
1.000000000000000E+20
 15
-1.000000000000000E+20
 25
-1.000000000000000E+20
 35
-1.000000000000000E+20
146
0.0
 13
0.0
 23
0.0
 33
0.0
 16
1.0
 26
0.0
 36
0.0
 17
0.0
 27
1.0
 37
0.0
 76
     0
330
1B
  0
LAYOUT
  5
26
102
{ACAD_REACTORS
330
1A
102
}
330
1A
100
AcDbPlotSettings
  1

  2
none_device
  4

  6

 40
0.0
 41
0.0
 42
0.0
 43
0.0
 44
0.0
 45
0.0
 46
0.0
 47
0.0
 48
0.0
 49
0.0
140
0.0
141
0.0
142
1.0
143
1.0
 70
   688
 72
     1
 73
     0
 74
     5
  7

 75
    16
147
1.0
148
0.0
149
0.0
100
AcDbLayout
  1
Layout2
 70
     1
 71
     2
 10
0.0
 20
0.0
 11
0.0
 21
0.0
 12
0.0
 22
0.0
 32
0.0
 14
0.0
 24
0.0
 34
0.0
 15
0.0
 25
0.0
 35
0.0
146
0.0
 13
0.0
 23
0.0
 33
0.0
 16
1.0
 26
0.0
 36
0.0
 17
0.0
 27
1.0
 37
0.0
 76
     0
330
23
  0
LAYOUT
  5
22
102
{ACAD_REACTORS
330
1A
102
}
330
1A
100
AcDbPlotSettings
  1

  2
none_device
  4
ANSI_A_(11.00_x_8.50_Inches)
  6

 40
6.35
 41
19.05
 42
6.35000508
 43
19.05000254
 44
279.4
 45
215.9
 46
78.00339692227061
 47
34.44669527120154
 48
0.0
 49
0.0
140
0.0
141
0.0
142
0.0406917368828658
143
1.0
 70
  1696
 72
     0
 73
     0
 74
     0
  7

 75
     0
147
0.0235690232323232
148
0.0
149
0.0
100
AcDbLayout
  1
Model
 70
     1
 71
     0
 10
0.0
 20
0.0
 11
420.0
 21
297.0
 12
0.0
 22
0.0
 32
0.0
 14
1.000000000000000E+20
 24
1.000000000000000E+20
 34
1.000000000000000E+20
 15
-1.000000000000000E+20
 25
-1.000000000000000E+20
 35
-1.000000000000000E+20
146
0.0
 13
0.0
 23
0.0
 33
0.0
 16
1.0
 26
0.0
 36
0.0
 17
0.0
 27
1.0
 37
0.0
 76
     0
330
1F
331
29
  0
MLINESTYLE
  5
18
102
{ACAD_REACTORS
330
17
102
}
330
17
100
AcDbMlineStyle
  2
Standard
 70
     0
  3

 62
   256
 51
90.0
 52
90.0
 71
     2
 49
0.5
 62
   256
  6
BYLAYER
 49
-0.5
 62
   256
  6
BYLAYER
  0
ACDBPLACEHOLDER
  5
F
102
{ACAD_REACTORS
330
E
102
}
330
E
  0
SCALE
  5
48
102
{ACAD_REACTORS
330
47
102
}
330
47
100
AcDbScale
 70
     0
300
1:1
140
1.0
141
1.0
290
     1
  0
SCALE
  5
49
102
{ACAD_REACTORS
330
47
102
}
330
47
100
AcDbScale
 70
     0
300
1:2
140
1.0
141
2.0
290
     0
  0
SCALE
  5
4A
102
{ACAD_REACTORS
330
47
102
}
330
47
100
AcDbScale
 70
     0
300
1:4
140
1.0
141
4.0
290
     0
  0
SCALE
  5
4B
102
{ACAD_REACTORS
330
47
102
}
330
47
100
AcDbScale
 70
     0
300
1:5
140
1.0
141
5.0
290
     0
  0
SCALE
  5
4C
102
{ACAD_REACTORS
330
47
102
}
330
47
100
AcDbScale
 70
     0
300
1:8
140
1.0
141
8.0
290
     0
  0
SCALE
  5
4D
102
{ACAD_REACTORS
330
47
102
}
330
47
100
AcDbScale
 70
     0
300
1:10
140
1.0
141
10.0
290
     0
  0
SCALE
  5
4E
102
{ACAD_REACTORS
330
47
102
}
330
47
100
AcDbScale
 70
     0
300
1:16
140
1.0
141
16.0
290
     0
  0
SCALE
  5
4F
102
{ACAD_REACTORS
330
47
102
}
330
47
100
AcDbScale
 70
     0
300
1:20
140
1.0
141
20.0
290
     0
  0
SCALE
  5
50
102
{ACAD_REACTORS
330
47
102
}
330
47
100
AcDbScale
 70
     0
300
1:30
140
1.0
141
30.0
290
     0
  0
SCALE
  5
51
102
{ACAD_REACTORS
330
47
102
}
330
47
100
AcDbScale
 70
     0
300
1:40
140
1.0
141
40.0
290
     0
  0
SCALE
  5
52
102
{ACAD_REACTORS
330
47
102
}
330
47
100
AcDbScale
 70
     0
300
1:50
140
1.0
141
50.0
290
     0
  0
SCALE
  5
53
102
{ACAD_REACTORS
330
47
102
}
330
47
100
AcDbScale
 70
     0
300
1:100
140
1.0
141
100.0
290
     0
  0
SCALE
  5
54
102
{ACAD_REACTORS
330
47
102
}
330
47
100
AcDbScale
 70
     0
300
2:1
140
2.0
141
1.0
290
     0
  0
SCALE
  5
55
102
{ACAD_REACTORS
330
47
102
}
330
47
100
AcDbScale
 70
     0
300
4:1
140
4.0
141
1.0
290
     0
  0
SCALE
  5
56
102
{ACAD_REACTORS
330
47
102
}
330
47
100
AcDbScale
 70
     0
300
8:1
140
8.0
141
1.0
290
     0
  0
SCALE
  5
57
102
{ACAD_REACTORS
330
47
102
}
330
47
100
AcDbScale
 70
     0
300
10:1
140
10.0
141
1.0
290
     0
  0
SCALE
  5
58
102
{ACAD_REACTORS
330
47
102
}
330
47
100
AcDbScale
 70
     0
300
100:1
140
100.0
141
1.0
290
     0
  0
SCALE
  5
59
102
{ACAD_REACTORS
330
47
102
}
330
47
100
AcDbScale
 70
     0
300
1/128" = 1'-0"
140
0.0078125
141
12.0
290
     0
  0
SCALE
  5
5A
102
{ACAD_REACTORS
330
47
102
}
330
47
100
AcDbScale
 70
     0
300
1/64" = 1'-0"
140
0.015625
141
12.0
290
     0
  0
SCALE
  5
5B
102
{ACAD_REACTORS
330
47
102
}
330
47
100
AcDbScale
 70
     0
300
1/32" = 1'-0"
140
0.03125
141
12.0
290
     0
  0
SCALE
  5
5C
102
{ACAD_REACTORS
330
47
102
}
330
47
100
AcDbScale
 70
     0
300
1/16" = 1'-0"
140
0.0625
141
12.0
290
     0
  0
SCALE
  5
5D
102
{ACAD_REACTORS
330
47
102
}
330
47
100
AcDbScale
 70
     0
300
3/32" = 1'-0"
140
0.09375
141
12.0
290
     0
  0
SCALE
  5
5E
102
{ACAD_REACTORS
330
47
102
}
330
47
100
AcDbScale
 70
     0
300
1/8" = 1'-0"
140
0.125
141
12.0
290
     0
  0
SCALE
  5
5F
102
{ACAD_REACTORS
330
47
102
}
330
47
100
AcDbScale
 70
     0
300
3/16" = 1'-0"
140
0.1875
141
12.0
290
     0
  0
SCALE
  5
60
102
{ACAD_REACTORS
330
47
102
}
330
47
100
AcDbScale
 70
     0
300
1/4" = 1'-0"
140
0.25
141
12.0
290
     0
  0
SCALE
  5
61
102
{ACAD_REACTORS
330
47
102
}
330
47
100
AcDbScale
 70
     0
300
3/8" = 1'-0"
140
0.375
141
12.0
290
     0
  0
SCALE
  5
62
102
{ACAD_REACTORS
330
47
102
}
330
47
100
AcDbScale
 70
     0
300
1/2" = 1'-0"
140
0.5
141
12.0
290
     0
  0
SCALE
  5
63
102
{ACAD_REACTORS
330
47
102
}
330
47
100
AcDbScale
 70
     0
300
3/4" = 1'-0"
140
0.75
141
12.0
290
     0
  0
SCALE
  5
64
102
{ACAD_REACTORS
330
47
102
}
330
47
100
AcDbScale
 70
     0
300
1" = 1'-0"
140
1.0
141
12.0
290
     0
  0
SCALE
  5
65
102
{ACAD_REACTORS
330
47
102
}
330
47
100
AcDbScale
 70
     0
300
1-1/2" = 1'-0"
140
1.5
141
12.0
290
     0
  0
SCALE
  5
66
102
{ACAD_REACTORS
330
47
102
}
330
47
100
AcDbScale
 70
     0
300
3" = 1'-0"
140
3.0
141
12.0
290
     0
  0
SCALE
  5
67
102
{ACAD_REACTORS
330
47
102
}
330
47
100
AcDbScale
 70
     0
300
6" = 1'-0"
140
6.0
141
12.0
290
     0
  0
SCALE
  5
68
102
{ACAD_REACTORS
330
47
102
}
330
47
100
AcDbScale
 70
     0
300
1'-0" = 1'-0"
140
12.0
141
12.0
290
     0
  0
ENDSEC
  0
EOF
