  0
SECTION
  2
HEADER
  9
$ACADVER
  1
AC1015
  9
$ACADMAINTVER
 70
     6
  9
$DWGCODEPAGE
  3
ANSI_949
  9
$INSBASE
 10
0.0
 20
0.0
 30
0.0
  9
$EXTMIN
 10
1.000000000000000E+20
 20
1.000000000000000E+20
 30
1.000000000000000E+20
  9
$EXTMAX
 10
-1.000000000000000E+20
 20
-1.000000000000000E+20
 30
-1.000000000000000E+20
  9
$LIMMIN
 10
0.0
 20
0.0
  9
$LIMMAX
 10
420.0
 20
297.0
  9
$ORTHOMODE
 70
     1
  9
$REGENMODE
 70
     1
  9
$FILLMODE
 70
     1
  9
$QTEXTMODE
 70
     0
  9
$MIRRTEXT
 70
     1
  9
$LTSCALE
 40
1.0
  9
$ATTMODE
 70
     1
  9
$TEXTSIZE
 40
3.5
  9
$TRACEWID
 40
1.0
  9
$TEXTSTYLE
  7
Standard
  9
$CLAYER
  8
0
  9
$CELTYPE
  6
ByLayer
  9
$CECOLOR
 62
   256
  9
$CELTSCALE
 40
1.0
  9
$DISPSILH
 70
     0
  9
$DIMSCALE
 40
1.0
  9
$DIMASZ
 40
3.302
  9
$DIMEXO
 40
1.0
  9
$DIMDLI
 40
3.75
  9
$DIMRND
 40
0.0
  9
$DIMDLE
 40
0.0
  9
$DIMEXE
 40
1.0
  9
$DIMTP
 40
0.0
  9
$DIMTM
 40
0.0
  9
$DIMTXT
 40
3.5
  9
$DIMCEN
 40
2.5
  9
$DIMTSZ
 40
0.0
  9
$DIMTOL
 70
     0
  9
$DIMLIM
 70
     0
  9
$DIMTIH
 70
     1
  9
$DIMTOH
 70
     1
  9
$DIMSE1
 70
     0
  9
$DIMSE2
 70
     0
  9
$DIMTAD
 70
     1
  9
$DIMZIN
 70
     0
  9
$DIMBLK
  1

  9
$DIMASO
 70
     1
  9
$DIMSHO
 70
     1
  9
$DIMPOST
  1

  9
$DIMAPOST
  1

  9
$DIMALT
 70
     0
  9
$DIMALTD
 70
     3
  9
$DIMALTF
 40
0.0393700787401575
  9
$DIMLFAC
 40
1.0
  9
$DIMTOFL
 70
     1
  9
$DIMTVP
 40
0.0
  9
$DIMTIX
 70
     0
  9
$DIMSOXD
 70
     0
  9
$DIMSAH
 70
     0
  9
$DIMBLK1
  1

  9
$DIMBLK2
  1

  9
$DIMSTYLE
  2
ISO-25
  9
$DIMCLRD
 70
     0
  9
$DIMCLRE
 70
     0
  9
$DIMCLRT
 70
     0
  9
$DIMTFAC
 40
1.0
  9
$DIMGAP
 40
1.524
  9
$DIMJUST
 70
     0
  9
$DIMSD1
 70
     0
  9
$DIMSD2
 70
     0
  9
$DIMTOLJ
 70
     0
  9
$DIMTZIN
 70
     0
  9
$DIMALTZ
 70
     0
  9
$DIMALTTZ
 70
     0
  9
$DIMUPT
 70
     0
  9
$DIMDEC
 70
     2
  9
$DIMTDEC
 70
     2
  9
$DIMALTU
 70
     2
  9
$DIMALTTD
 70
     3
  9
$DIMTXSTY
  7
Standard
  9
$DIMAUNIT
 70
     0
  9
$DIMADEC
 70
     2
  9
$DIMALTRND
 40
0.0
  9
$DIMAZIN
 70
     0
  9
$DIMDSEP
 70
    44
  9
$DIMATFIT
 70
     3
  9
$DIMFRAC
 70
     0
  9
$DIMLDRBLK
  1

  9
$DIMLUNIT
 70
     2
  9
$DIMLWD
 70
    -2
  9
$DIMLWE
 70
    -2
  9
$DIMTMOVE
 70
     0
  9
$LUNITS
 70
     2
  9
$LUPREC
 70
     2
  9
$SKETCHINC
 40
1.0
  9
$FILLETRAD
 40
10.0
  9
$AUNITS
 70
     0
  9
$AUPREC
 70
     2
  9
$MENU
  1
.
  9
$ELEVATION
 40
0.0
  9
$PELEVATION
 40
0.0
  9
$THICKNESS
 40
0.0
  9
$LIMCHECK
 70
     0
  9
$CHAMFERA
 40
0.0
  9
$CHAMFERB
 40
0.0
  9
$CHAMFERC
 40
0.0
  9
$CHAMFERD
 40
0.0
  9
$SKPOLY
 70
     0
  9
$TDCREATE
 40
2458311.572838021
  9
$TDUCREATE
 40
2458311.197838021
  9
$TDUPDATE
 40
2458318.66292309
  9
$TDUUPDATE
 40
2458318.28792309
  9
$TDINDWG
 40
0.0042523032
  9
$TDUSRTIMER
 40
2458318.287643565
  9
$USRTIMER
 70
     1
  9
$ANGBASE
 50
0.0
  9
$ANGDIR
 70
     0
  9
$PDMODE
 70
     0
  9
$PDSIZE
 40
-1.0
  9
$PLINEWID
 40
0.0
  9
$SPLFRAME
 70
     0
  9
$SPLINETYPE
 70
     6
  9
$SPLINESEGS
 70
     8
  9
$HANDSEED
  5
31A
  9
$SURFTAB1
 70
     6
  9
$SURFTAB2
 70
     6
  9
$SURFTYPE
 70
     6
  9
$SURFU
 70
     6
  9
$SURFV
 70
     6
  9
$UCSBASE
  2

  9
$UCSNAME
  2

  9
$UCSORG
 10
0.0
 20
0.0
 30
0.0
  9
$UCSXDIR
 10
1.0
 20
0.0
 30
0.0
  9
$UCSYDIR
 10
0.0
 20
1.0
 30
0.0
  9
$UCSORTHOREF
  2

  9
$UCSORTHOVIEW
 70
     0
  9
$UCSORGTOP
 10
0.0
 20
0.0
 30
0.0
  9
$UCSORGBOTTOM
 10
0.0
 20
0.0
 30
0.0
  9
$UCSORGLEFT
 10
0.0
 20
0.0
 30
0.0
  9
$UCSORGRIGHT
 10
0.0
 20
0.0
 30
0.0
  9
$UCSORGFRONT
 10
0.0
 20
0.0
 30
0.0
  9
$UCSORGBACK
 10
0.0
 20
0.0
 30
0.0
  9
$PUCSBASE
  2

  9
$PUCSNAME
  2

  9
$PUCSORG
 10
0.0
 20
0.0
 30
0.0
  9
$PUCSXDIR
 10
1.0
 20
0.0
 30
0.0
  9
$PUCSYDIR
 10
0.0
 20
1.0
 30
0.0
  9
$PUCSORTHOREF
  2

  9
$PUCSORTHOVIEW
 70
     0
  9
$PUCSORGTOP
 10
0.0
 20
0.0
 30
0.0
  9
$PUCSORGBOTTOM
 10
0.0
 20
0.0
 30
0.0
  9
$PUCSORGLEFT
 10
0.0
 20
0.0
 30
0.0
  9
$PUCSORGRIGHT
 10
0.0
 20
0.0
 30
0.0
  9
$PUCSORGFRONT
 10
0.0
 20
0.0
 30
0.0
  9
$PUCSORGBACK
 10
0.0
 20
0.0
 30
0.0
  9
$USERI1
 70
     0
  9
$USERI2
 70
     0
  9
$USERI3
 70
     0
  9
$USERI4
 70
     0
  9
$USERI5
 70
     0
  9
$USERR1
 40
0.0
  9
$USERR2
 40
0.0
  9
$USERR3
 40
0.0
  9
$USERR4
 40
0.0
  9
$USERR5
 40
0.0
  9
$WORLDVIEW
 70
     1
  9
$SHADEDGE
 70
     3
  9
$SHADEDIF
 70
    70
  9
$TILEMODE
 70
     1
  9
$MAXACTVP
 70
    64
  9
$PINSBASE
 10
0.0
 20
0.0
 30
0.0
  9
$PLIMCHECK
 70
     0
  9
$PEXTMIN
 10
1.000000000000000E+20
 20
1.000000000000000E+20
 30
1.000000000000000E+20
  9
$PEXTMAX
 10
-1.000000000000000E+20
 20
-1.000000000000000E+20
 30
-1.000000000000000E+20
  9
$PLIMMIN
 10
0.0
 20
0.0
  9
$PLIMMAX
 10
0.0
 20
0.0
  9
$UNITMODE
 70
     0
  9
$VISRETAIN
 70
     1
  9
$PLINEGEN
 70
     0
  9
$PSLTSCALE
 70
     1
  9
$TREEDEPTH
 70
  3020
  9
$CMLSTYLE
  2
Standard
  9
$CMLJUST
 70
     0
  9
$CMLSCALE
 40
20.0
  9
$PROXYGRAPHICS
 70
     1
  9
$MEASUREMENT
 70
     1
  9
$CELWEIGHT
370
    -1
  9
$ENDCAPS
280
     0
  9
$JOINSTYLE
280
     0
  9
$LWDISPLAY
290
     1
  9
$INSUNITS
 70
     4
  9
$HYPERLINKBASE
  1

  9
$STYLESHEET
  1

  9
$XEDIT
290
     1
  9
$CEPSNTYPE
380
     0
  9
$PSTYLEMODE
290
     1
  9
$FINGERPRINTGUID
  2
{976C9ADC-C92B-4B02-A8E5-12418C6AE0B4}
  9
$VERSIONGUID
  2
{FAEB1C32-E019-11D5-929B-00C0DF256EC4}
  9
$EXTNAMES
290
     1
  9
$PSVPSCALE
 40
0.0
  9
$OLESTARTUP
290
     0
  0
ENDSEC
  0
SECTION
  2
CLASSES
  0
CLASS
  1
ACDBDICTIONARYWDFLT
  2
AcDbDictionaryWithDefault
  3
ObjectDBX Classes
 90
        0
280
     0
281
     0
  0
CLASS
  1
VISUALSTYLE
  2
AcDbVisualStyle
  3
ObjectDBX Classes
 90
     4095
280
     0
281
     0
  0
CLASS
  1
MATERIAL
  2
AcDbMaterial
  3
ObjectDBX Classes
 90
     1153
280
     0
281
     0
  0
CLASS
  1
SCALE
  2
AcDbScale
  3
ObjectDBX Classes
 90
     1153
280
     0
281
     0
  0
CLASS
  1
SUN
  2
AcDbSun
  3
SCENEOE
 90
     1153
280
     0
281
     0
  0
CLASS
  1
ACDBPLACEHOLDER
  2
AcDbPlaceHolder
  3
ObjectDBX Classes
 90
        0
280
     0
281
     0
  0
CLASS
  1
LAYOUT
  2
AcDbLayout
  3
ObjectDBX Classes
 90
        0
280
     0
281
     0
  0
CLASS
  1
TABLESTYLE
  2
AcDbTableStyle
  3
ObjectDBX Classes
 90
     4095
280
     0
281
     0
  0
CLASS
  1
MLEADERSTYLE
  2
AcDbMLeaderStyle
  3
ACDB_MLEADERSTYLE_CLASS
 90
     4095
280
     0
281
     0
  0
CLASS
  1
RASTERVARIABLES
  2
AcDbRasterVariables
  3
ISM
 90
        0
280
     0
281
     0
  0
ENDSEC
  0
SECTION
  2
TABLES
  0
TABLE
  2
VPORT
  5
8
330
0
100
AcDbSymbolTable
 70
     1
  0
VPORT
  5
29
330
8
100
AcDbSymbolTableRecord
100
AcDbViewportTableRecord
  2
*Active
 70
     0
 10
0.0
 20
0.0
 11
1.0
 21
1.0
 12
-20.05656889869242
 22
-25.24533867214471
 13
0.0
 23
0.0
 14
10.0
 24
10.0
 15
10.0
 25
10.0
 16
0.0
 26
0.0
 36
1.0
 17
0.0
 27
0.0
 37
0.0
 40
188.0311704265508
 41
1.740812379110251
 42
50.0
 43
0.0
 44
0.0
 50
0.0
 51
0.0
 71
    16
 72
  2000
 73
     1
 74
     3
 75
     0
 76
     0
 77
     0
 78
     0
281
     0
 65
     1
110
0.0
120
0.0
130
0.0
111
1.0
121
0.0
131
0.0
112
0.0
122
1.0
132
0.0
 79
     0
146
0.0
  0
ENDTAB
  0
TABLE
  2
LTYPE
  5
5
330
0
100
AcDbSymbolTable
 70
     6
  0
LTYPE
  5
14
330
5
100
AcDbSymbolTableRecord
100
AcDbLinetypeTableRecord
  2
ByBlock
 70
     0
  3

 72
    65
 73
     0
 40
0.0
  0
LTYPE
  5
15
330
5
100
AcDbSymbolTableRecord
100
AcDbLinetypeTableRecord
  2
ByLayer
 70
     0
  3

 72
    65
 73
     0
 40
0.0
  0
LTYPE
  5
16
330
5
100
AcDbSymbolTableRecord
100
AcDbLinetypeTableRecord
  2
Continuous
 70
     0
  3
Solid line
 72
    65
 73
     0
 40
0.0
  0
LTYPE
  5
6A
330
5
100
AcDbSymbolTableRecord
100
AcDbLinetypeTableRecord
  2
HIDDEN
 70
     0
  3
Hidden __ __ __ __ __ __ __ __ __ __ __ __ __ __
 72
    65
 73
     2
 40
1.905
 49
1.27
 74
     0
 49
-0.635
 74
     0
  0
LTYPE
  5
6B
330
5
100
AcDbSymbolTableRecord
100
AcDbLinetypeTableRecord
  2
PHANTOM
 70
     0
  3
Phantom ______  __  __  ______  __  __  ______
 72
    65
 73
     6
 40
12.7
 49
6.35
 74
     0
 49
-1.27
 74
     0
 49
1.27
 74
     0
 49
-1.27
 74
     0
 49
1.27
 74
     0
 49
-1.27
 74
     0
  0
LTYPE
  5
6C
330
5
100
AcDbSymbolTableRecord
100
AcDbLinetypeTableRecord
  2
CENTER
 70
     0
  3
Center ____ _ ____ _ ____ _ ____ _ ____ _ ____
 72
    65
 73
     4
 40
10.16
 49
6.35
 74
     0
 49
-1.27
 74
     0
 49
1.27
 74
     0
 49
-1.27
 74
     0
  0
LTYPE
  5
6D
330
5
100
AcDbSymbolTableRecord
100
AcDbLinetypeTableRecord
  2
CENTERX2
 70
     0
  3
Center (2x) ________  __  ________  __  _____
 72
    65
 73
     4
 40
20.32
 49
12.7
 74
     0
 49
-2.54
 74
     0
 49
2.54
 74
     0
 49
-2.54
 74
     0
  0
LTYPE
  5
6E
330
5
100
AcDbSymbolTableRecord
100
AcDbLinetypeTableRecord
  2
DOT2
 70
     0
  3
Dot (.5x) ........................................
 72
    65
 73
     2
 40
0.635
 49
0.0
 74
     0
 49
-0.635
 74
     0
  0
ENDTAB
  0
TABLE
  2
LAYER
  5
2
102
{ACAD_XDICTIONARY
360
1DA
102
}
330
0
100
AcDbSymbolTable
 70
    18
  0
LAYER
  5
10
330
2
100
AcDbSymbolTableRecord
100
AcDbLayerTableRecord
  2
0
 70
     0
 62
     7
  6
Continuous
370
    -3
390
F
  0
LAYER
  5
6F
330
2
100
AcDbSymbolTableRecord
100
AcDbLayerTableRecord
  2
FORMAT
 70
     0
 62
     2
  6
Continuous
370
    -3
390
F
  0
LAYER
  5
70
330
2
100
AcDbSymbolTableRecord
100
AcDbLayerTableRecord
  2
외형선
 70
     0
 62
     4
  6
Continuous
370
    30
390
F
  0
LAYER
  5
71
330
2
100
AcDbSymbolTableRecord
100
AcDbLayerTableRecord
  2
숨은선
 70
     0
 62
     2
  6
HIDDEN
370
    15
390
F
  0
LAYER
  5
72
330
2
100
AcDbSymbolTableRecord
100
AcDbLayerTableRecord
  2
중심선
 70
     0
 62
     1
  6
CENTERX2
370
    -3
390
F
  0
LAYER
  5
73
330
2
100
AcDbSymbolTableRecord
100
AcDbLayerTableRecord
  2
파단선
 70
     0
 62
     4
  6
Continuous
370
    -3
390
F
  0
LAYER
  5
74
330
2
100
AcDbSymbolTableRecord
100
AcDbLayerTableRecord
  2
해칭선
 70
     0
 62
   100
  6
Continuous
370
    -3
390
F
  0
LAYER
  5
75
330
2
100
AcDbSymbolTableRecord
100
AcDbLayerTableRecord
  2
가는실선
 70
     0
 62
     4
  6
Continuous
370
    -3
390
F
  0
LAYER
  5
76
330
2
100
AcDbSymbolTableRecord
100
AcDbLayerTableRecord
  2
치수_보조선
 70
     0
 62
     4
  6
Continuous
370
    -3
390
F
  0
LAYER
  5
77
330
2
100
AcDbSymbolTableRecord
100
AcDbLayerTableRecord
  2
치수문자_일반주서
 70
     0
 62
     7
  6
Continuous
370
    15
390
F
  0
LAYER
  5
78
330
2
100
AcDbSymbolTableRecord
100
AcDbLayerTableRecord
  2
개별주서
 70
     0
 62
   100
  6
Continuous
370
    30
390
F
  0
LAYER
  5
79
330
2
100
AcDbSymbolTableRecord
100
AcDbLayerTableRecord
  2
중간선
 70
     0
 62
     2
  6
Continuous
370
    15
390
F
  0
LAYER
  5
7A
330
2
100
AcDbSymbolTableRecord
100
AcDbLayerTableRecord
  2
윤곽선
 70
     0
 62
     3
  6
Continuous
370
    40
390
F
  0
LAYER
  5
7B
330
2
100
AcDbSymbolTableRecord
100
AcDbLayerTableRecord
  2
중심마크
 70
     0
 62
   100
  6
Continuous
370
    30
390
F
  0
LAYER
  5
7C
330
2
100
AcDbSymbolTableRecord
100
AcDbLayerTableRecord
  2
가상선
 70
     0
 62
     4
  6
PHANTOM
370
    -3
390
F
  0
LAYER
  5
7D
330
2
100
AcDbSymbolTableRecord
100
AcDbLayerTableRecord
  2
특수지정선
 70
     0
 62
     5
  6
CENTERX2
370
    60
390
F
  0
LAYER
  5
7E
330
2
100
AcDbSymbolTableRecord
100
AcDbLayerTableRecord
  2
참조1
 70
     0
 62
    -4
  6
Continuous
370
    -3
390
F
  0
LAYER
  5
141
330
2
100
AcDbSymbolTableRecord
100
AcDbLayerTableRecord
  2
Defpoints
 70
     0
 62
     7
  6
Continuous
290
     0
370
    -3
390
F
  0
ENDTAB
  0
TABLE
  2
STYLE
  5
3
330
0
100
AcDbSymbolTable
 70
     2
  0
STYLE
  5
11
330
3
100
AcDbSymbolTableRecord
100
AcDbTextStyleTableRecord
  2
Standard
 70
     0
 40
0.0
 41
1.0
 50
0.0
 71
     0
 42
3.5
  3
txt
  4

  0
STYLE
  5
94
330
3
100
AcDbSymbolTableRecord
100
AcDbTextStyleTableRecord
  2
SLDTEXTSTYLE0
 70
     0
 40
0.0
 41
0.75
 50
0.0
 71
     0
 42
3.5
  3
TXT
  4

  0
ENDTAB
  0
TABLE
  2
VIEW
  5
6
330
0
100
AcDbSymbolTable
 70
     0
  0
ENDTAB
  0
TABLE
  2
UCS
  5
7
330
0
100
AcDbSymbolTable
 70
     0
  0
ENDTAB
  0
TABLE
  2
APPID
  5
9
330
0
100
AcDbSymbolTable
 70
     1
  0
APPID
  5
12
330
9
100
AcDbSymbolTableRecord
100
AcDbRegAppTableRecord
  2
ACAD
 70
     0
  0
ENDTAB
  0
TABLE
  2
DIMSTYLE
  5
A
330
0
100
AcDbSymbolTable
 70
     5
100
AcDbDimStyleTable
  0
DIMSTYLE
105
27
330
A
100
AcDbSymbolTableRecord
100
AcDbDimStyleTableRecord
  2
ISO-25
 70
     0
 41
2.5
 42
0.625
 43
3.75
 44
1.25
 73
     0
 74
     0
 77
     1
 78
     8
140
2.5
141
2.5
143
0.03937007874016
147
0.625
171
     3
172
     1
178
     0
271
     2
272
     2
274
     3
278
    44
283
     0
284
     8
340
11
  0
DIMSTYLE
105
C3
102
{ACAD_REACTORS
102
}
330
A
100
AcDbSymbolTableRecord
100
AcDbDimStyleTableRecord
  2
SLDDIMSTYLE0
 70
     0
 41
3.302
 44
0.0
 45
0.000000001
 73
     0
 74
     0
 77
     1
 78
     4
 79
     1
140
3.5
147
0.875
172
     1
173
     1
178
     0
271
     2
272
     2
276
     2
284
    12
289
     0
340
94
  0
DIMSTYLE
105
D1
102
{ACAD_REACTORS
330
D0
330
248
330
246
102
}
330
A
100
AcDbSymbolTableRecord
100
AcDbDimStyleTableRecord
  2
SLDDIMSTYLE1
 70
     0
 41
3.302
 44
0.0
 45
0.000000001
 73
     0
 74
     0
 77
     1
 78
     4
 79
     1
140
3.5
143
0.0393700787401575
147
0.875
148
0.000000001
170
     1
172
     1
173
     1
178
     0
271
     2
272
     2
276
     2
284
    12
289
     0
340
94
  0
DIMSTYLE
105
E7
330
A
100
AcDbSymbolTableRecord
100
AcDbDimStyleTableRecord
  2
SLDDIMSTYLE2
 70
     0
 41
3.302
 44
0.0
 45
0.000000001
 73
     0
 74
     0
 77
     1
 78
     4
 79
     1
140
3.5
143
0.0393700787401575
147
0.875
148
0.000000001
170
     1
173
     1
178
     0
271
     2
272
     2
276
     2
284
    12
340
94
  0
DIMSTYLE
105
FB
102
{ACAD_REACTORS
330
FA
102
}
330
A
100
AcDbSymbolTableRecord
100
AcDbDimStyleTableRecord
  2
SLDDIMSTYLE3
 70
     0
 41
3.302
 44
0.0
 45
0.000000001
 73
     0
 74
     0
 77
     1
 78
    12
 79
     3
140
3.5
143
0.0393700787401575
147
0.875
148
0.000000001
170
     1
173
     1
178
     0
271
     2
272
     2
276
     2
284
    12
340
94
  0
ENDTAB
  0
TABLE
  2
BLOCK_RECORD
  5
1
330
0
100
AcDbSymbolTable
 70
    16
  0
BLOCK_RECORD
  5
1F
330
1
100
AcDbSymbolTableRecord
100
AcDbBlockTableRecord
  2
*Model_Space
340
22
  0
BLOCK_RECORD
  5
1B
330
1
100
AcDbSymbolTableRecord
100
AcDbBlockTableRecord
  2
*Paper_Space
340
1E
  0
BLOCK_RECORD
  5
23
330
1
100
AcDbSymbolTableRecord
100
AcDbBlockTableRecord
  2
*Paper_Space0
340
26
  0
BLOCK_RECORD
  5
7F
330
1
100
AcDbSymbolTableRecord
100
AcDbBlockTableRecord
  2
블럭10
340
0
102
{BLKREFS
331
BB
102
}
  0
BLOCK_RECORD
  5
C4
330
1
100
AcDbSymbolTableRecord
100
AcDbBlockTableRecord
  2
_D
340
0
  0
BLOCK_RECORD
  5
D2
330
1
100
AcDbSymbolTableRecord
100
AcDbBlockTableRecord
  2
_D_1
340
0
  0
BLOCK_RECORD
  5
E8
330
1
100
AcDbSymbolTableRecord
100
AcDbBlockTableRecord
  2
_D_2
340
0
  0
BLOCK_RECORD
  5
FC
330
1
100
AcDbSymbolTableRecord
100
AcDbBlockTableRecord
  2
_D_3
340
0
  0
BLOCK_RECORD
  5
115
330
1
100
AcDbSymbolTableRecord
100
AcDbBlockTableRecord
  2
SW_DOWELSYMBOL_0
340
0
102
{BLKREFS
331
24A
102
}
  0
BLOCK_RECORD
  5
1DE
330
1
100
AcDbSymbolTableRecord
100
AcDbBlockTableRecord
  2
*D7
340
0
  0
BLOCK_RECORD
  5
1EA
330
1
100
AcDbSymbolTableRecord
100
AcDbBlockTableRecord
  2
*D8
340
0
  0
BLOCK_RECORD
  5
1F6
330
1
100
AcDbSymbolTableRecord
100
AcDbBlockTableRecord
  2
*D9
340
0
  0
BLOCK_RECORD
  5
202
330
1
100
AcDbSymbolTableRecord
100
AcDbBlockTableRecord
  2
*D10
340
0
  0
BLOCK_RECORD
  5
24B
330
1
100
AcDbSymbolTableRecord
100
AcDbBlockTableRecord
  2
*D11
340
0
  0
BLOCK_RECORD
  5
257
330
1
100
AcDbSymbolTableRecord
100
AcDbBlockTableRecord
  2
*D12
340
0
  0
BLOCK_RECORD
  5
263
330
1
100
AcDbSymbolTableRecord
100
AcDbBlockTableRecord
  2
*D13
340
0
  0
BLOCK_RECORD
  5
26F
330
1
100
AcDbSymbolTableRecord
100
AcDbBlockTableRecord
  2
*D14
340
0
  0
ENDTAB
  0
ENDSEC
  0
SECTION
  2
BLOCKS
  0
BLOCK
  5
20
330
1F
100
AcDbEntity
  8
0
100
AcDbBlockBegin
  2
*Model_Space
 70
     0
 10
0.0
 20
0.0
 30
0.0
  3
*Model_Space
  1
*Model_Space
  0
ENDBLK
  5
21
330
1F
100
AcDbEntity
  8
0
100
AcDbBlockEnd
  0
BLOCK
  5
1C
330
1B
100
AcDbEntity
 67
     1
  8
0
100
AcDbBlockBegin
  2
*Paper_Space
 70
     0
 10
0.0
 20
0.0
 30
0.0
  3
*Paper_Space
  1
*Paper_Space
  0
ENDBLK
  5
1D
330
1B
100
AcDbEntity
 67
     1
  8
0
100
AcDbBlockEnd
  0
BLOCK
  5
24
330
23
100
AcDbEntity
  8
0
100
AcDbBlockBegin
  2
*Paper_Space0
 70
     0
 10
0.0
 20
0.0
 30
0.0
  3
*Paper_Space0
  1
*Paper_Space0
  0
ENDBLK
  5
25
330
23
100
AcDbEntity
  8
0
100
AcDbBlockEnd
  0
BLOCK
  5
80
330
7F
100
AcDbEntity
  8
0
100
AcDbBlockBegin
  2
블럭10
 70
     2
 10
0.0
 20
0.0
 30
0.0
  3
블럭10
  1
블럭10
  0
ELLIPSE
  5
82
330
7F
100
AcDbEntity
  8
중심선
100
AcDbEllipse
 10
20.54032771741204
 20
12.0471743016438
 30
0.0
 11
6.600054785286829
 21
-1.261213355974178E-13
 31
0.0
210
0.0
220
0.0
230
1.0
 40
0.636358354079598
 41
0.9219305317359503
 42
6.513795318482858
  0
ELLIPSE
  5
83
330
7F
100
AcDbEntity
  8
중심선
100
AcDbEllipse
 10
20.54032771746488
 20
12.04717430159265
 30
0.0
 11
3.960054785062283
 21
1.540847449632565E-10
 31
0.0
210
0.0
220
0.0
230
1.0
 40
0.3939339440162632
 41
1.131841032648279
 42
5.62031148352944
  0
LINE
  5
84
330
7F
100
AcDbEntity
  8
중심선
100
AcDbLine
 10
2.268634060543552
 20
16.24717430164393
 30
0.0
 11
5.714909304380834
 21
16.24717430164393
 31
0.0
  0
LINE
  5
85
330
7F
100
AcDbEntity
  8
중심선
100
AcDbLine
 10
5.245725140726316
 20
7.84717430164391
 30
0.0
 11
8.692000384563599
 21
7.84717430164391
 31
0.0
  0
LINE
  5
86
330
7F
100
AcDbEntity
  8
중심선
100
AcDbLine
 10
15.74043728645272
 20
16.24717430164393
 30
0.0
 11
8.692000384563599
 21
7.84717430164391
 31
0.0
  0
LINE
  5
87
330
7F
100
AcDbEntity
  8
중심선
100
AcDbLine
 10
0.1404042013395286
 20
13.71084872107135
 30
0.0
 11
3.58671253028996
 21
13.71088815037384
 31
0.0
  0
LINE
  5
88
330
7F
100
AcDbEntity
  8
중심선
100
AcDbLine
 10
2.750260043222114
 20
10.84717430164391
 30
0.0
 11
6.196535287059397
 21
10.84717430164391
 31
0.0
  0
LINE
  5
89
330
7F
100
AcDbEntity
  8
중심선
100
AcDbLine
 10
12.29416204261559
 20
16.24717430164393
 30
0.0
 11
5.245725140726316
 21
7.84717430164391
 31
0.0
  0
LINE
  5
8A
330
7F
100
AcDbEntity
  8
중심선
100
AcDbLine
 10
10.72767329541681
 20
16.24717430164393
 30
0.0
 11
6.196535287059397
 21
10.84717430164391
 31
0.0
  0
LINE
  5
8B
330
7F
100
AcDbEntity
  8
중심선
100
AcDbLine
 10
7.28139805157953
 20
16.24717430164393
 30
0.0
 11
2.750260043222114
 21
10.84717430164391
 31
0.0
  0
LINE
  5
8C
330
7F
100
AcDbEntity
  8
중심선
100
AcDbLine
 10
5.714909304380834
 20
16.24717430164393
 30
0.0
 11
3.58671253028996
 21
13.71088815037384
 31
0.0
  0
LINE
  5
8D
330
7F
100
AcDbEntity
  8
중심선
100
AcDbLine
 10
2.268634060543552
 20
16.24717430164393
 30
0.0
 11
0.1404042013395286
 21
13.71084872107135
 31
0.0
  0
LINE
  5
8E
330
7F
100
AcDbEntity
  8
중심선
100
AcDbLine
 10
7.28139805157953
 20
16.24717430164393
 30
0.0
 11
10.72767329541681
 21
16.24717430164393
 31
0.0
  0
LINE
  5
8F
330
7F
100
AcDbEntity
  8
중심선
100
AcDbLine
 10
12.29416204261559
 20
16.24717430164393
 30
0.0
 11
15.74043728645272
 21
16.24717430164393
 31
0.0
  0
LINE
  5
90
330
7F
100
AcDbEntity
  8
중심선
100
AcDbLine
 10
19.22036997980202
 20
11.08717430171403
 30
0.0
 11
23.66174974927406
 21
11.08717430171406
 31
0.0
  0
LINE
  5
91
330
7F
100
AcDbEntity
  8
중심선
100
AcDbLine
 10
19.22039502424796
 20
13.00717430171391
 30
0.0
 11
19.22036997980202
 21
11.08717430171403
 31
0.0
  0
LINE
  5
92
330
7F
100
AcDbEntity
  8
중심선
100
AcDbLine
 10
19.22039502424796
 20
13.00717430171391
 30
0.0
 11
26.96566020931264
 21
13.00717430171391
 31
0.0
  0
LINE
  5
93
330
7F
100
AcDbEntity
  8
중심선
100
AcDbLine
 10
22.22332737316547
 20
13.45928029700563
 30
0.0
 11
24.52862924686651
 21
15.39360700705356
 31
0.0
  0
ATTDEF
  5
95
330
7F
100
AcDbEntity
  8
FORMAT
 62
     2
100
AcDbText
 10
4.408487351596664
 20
2.075366912832191
 30
0.0
 40
4.233333333333333
  1
E1070982
 41
0.75
  7
SLDTEXTSTYLE0
 11
4.408487351596664
 21
-0.0412997538344756
 31
0.0
100
AcDbAttributeDefinition
  3

  2
AUTOATTR0
 70
     0
 74
     1
  0
ENDBLK
  5
81
330
7F
100
AcDbEntity
  8
0
100
AcDbBlockEnd
  0
BLOCK
  5
C5
330
C4
100
AcDbEntity
  8
0
100
AcDbBlockBegin
  2
_D
 70
     0
 10
0.0
 20
0.0
 30
0.0
  3
_D
  1
_D
  0
SOLID
  5
C7
330
C4
100
AcDbEntity
  8
치수문자_일반주서
100
AcDbTrace
 10
-59.5594211678731
 20
6.351074928723887
 30
0.0
 11
-59.05142116787309
 21
9.653074928723886
 31
0.0
 12
-60.0674211678731
 22
9.653074928723886
 32
0.0
 13
-60.0674211678731
 23
9.653074928723886
 33
0.0
  0
SOLID
  5
C8
330
C4
100
AcDbEntity
  8
치수문자_일반주서
100
AcDbTrace
 10
-59.5594211678731
 20
-6.348925071276102
 30
0.0
 11
-60.0674211678731
 21
-9.650925071276102
 31
0.0
 12
-59.05142116787309
 22
-9.650925071276102
 32
0.0
 13
-59.05142116787309
 23
-9.650925071276102
 33
0.0
  0
LINE
  5
C9
330
C4
100
AcDbEntity
  8
치수문자_일반주서
100
AcDbLine
 10
-47.05942116787307
 20
6.351074928723888
 30
0.0
 11
-60.5594211678731
 21
6.351074928723887
 31
0.0
  0
LINE
  5
CA
330
C4
100
AcDbEntity
  8
치수문자_일반주서
100
AcDbLine
 10
-47.05942116787307
 20
-6.348925071276101
 30
0.0
 11
-60.5594211678731
 21
-6.348925071276102
 31
0.0
  0
LINE
  5
CB
330
C4
100
AcDbEntity
  8
치수문자_일반주서
100
AcDbLine
 10
-59.5594211678731
 20
6.351074928723887
 30
0.0
 11
-59.5594211678731
 21
12.70107492872389
 31
0.0
  0
LINE
  5
CC
330
C4
100
AcDbEntity
  8
치수문자_일반주서
100
AcDbLine
 10
-59.5594211678731
 20
6.351074928723887
 30
0.0
 11
-59.5594211678731
 21
-6.348925071276102
 31
0.0
  0
LINE
  5
CD
330
C4
100
AcDbEntity
  8
치수문자_일반주서
100
AcDbLine
 10
-59.5594211678731
 20
-6.348925071276102
 30
0.0
 11
-59.5594211678731
 21
-12.6989250712761
 31
0.0
  0
MTEXT
  5
CE
330
C4
100
AcDbEntity
  8
치수문자_일반주서
100
AcDbMText
 10
-64.07115825707491
 20
-8.456894014097152
 30
0.0
 40
3.5
 41
0.0
 71
     1
 72
     1
  1
%%c
  7
SLDTEXTSTYLE0
 11
-7.044195017643634E-15
 21
1.0
 31
0.0
 73
     1
 44
1.0
  0
MTEXT
  5
CF
330
C4
100
AcDbEntity
  8
치수문자_일반주서
100
AcDbMText
 10
-64.1246304337348
 20
-3.178456615723071
 30
0.0
 40
3.5
 41
0.0
 71
     1
 72
     1
  1
12.70
  7
SLDTEXTSTYLE0
 11
-7.044195017643634E-15
 21
1.0
 31
0.0
 73
     1
 44
1.0
  0
ENDBLK
  5
C6
330
C4
100
AcDbEntity
  8
0
100
AcDbBlockEnd
  0
BLOCK
  5
D3
330
D2
100
AcDbEntity
  8
0
100
AcDbBlockBegin
  2
_D_1
 70
     0
 10
0.0
 20
0.0
 30
0.0
  3
_D_1
  1
_D_1
  0
LINE
  5
D5
330
D2
100
AcDbEntity
  8
0
  6
Continuous
 62
     0
370
    -2
100
AcDbLine
 10
88.19999999999999
 20
19.1125
 30
0.0
 11
88.19999999999999
 21
28.9320741959455
 31
0.0
  0
LINE
  5
D6
330
D2
100
AcDbEntity
  8
0
  6
Continuous
 62
     0
370
    -2
100
AcDbLine
 10
12.0
 20
15.93569595521765
 30
0.0
 11
12.0
 21
28.9320741959455
 31
0.0
  0
LINE
  5
D7
330
D2
100
AcDbEntity
  8
0
  6
Continuous
 62
     0
370
    -2
100
AcDbLine
 10
84.898
 20
28.9320741959455
 30
0.0
 11
15.302
 21
28.9320741959455
 31
0.0
  0
SOLID
  5
D8
330
D2
100
AcDbEntity
  8
0
 62
     0
100
AcDbTrace
 10
84.898
 20
28.38174086261217
 30
0.0
 11
84.898
 21
29.48240752927884
 31
0.0
 12
88.19999999999999
 22
28.9320741959455
 32
0.0
 13
88.19999999999999
 23
28.9320741959455
 33
0.0
  0
SOLID
  5
D9
330
D2
100
AcDbEntity
  8
0
 62
     0
100
AcDbTrace
 10
15.302
 20
29.48240752927884
 30
0.0
 11
15.302
 21
28.38174086261217
 31
0.0
 12
12.0
 22
28.9320741959455
 32
0.0
 13
12.0
 23
28.9320741959455
 33
0.0
  0
MTEXT
  5
DA
330
D2
100
AcDbEntity
  8
0
 62
     0
370
    15
100
AcDbMText
 10
48.91597624900074
 20
33.3070741959455
 30
0.0
 40
3.5
 41
0.0
 71
     2
 72
     1
  1
\A1;76.20 [3]
  7
SLDTEXTSTYLE0
 73
     1
 44
1.0
  0
POINT
  5
DB
330
D2
100
AcDbEntity
  8
Defpoints
 62
     0
100
AcDbPoint
 10
88.19999999999999
 20
19.05
 30
0.0
  0
POINT
  5
DC
330
D2
100
AcDbEntity
  8
Defpoints
 62
     0
100
AcDbPoint
 10
12.0
 20
15.87319595521765
 30
0.0
  0
POINT
  5
DD
330
D2
100
AcDbEntity
  8
Defpoints
 62
     0
100
AcDbPoint
 10
12.0
 20
28.9320741959455
 30
0.0
  0
ENDBLK
  5
D4
330
D2
100
AcDbEntity
  8
0
100
AcDbBlockEnd
  0
BLOCK
  5
E9
330
E8
100
AcDbEntity
  8
0
100
AcDbBlockBegin
  2
_D_2
 70
     0
 10
0.0
 20
0.0
 30
0.0
  3
_D_2
  1
_D_2
  0
SOLID
  5
EB
330
E8
100
AcDbEntity
  8
치수문자_일반주서
100
AcDbTrace
 10
29.14057883212694
 20
30.31053219116991
 30
0.0
 11
25.83857883212694
 21
30.8185321911699
 31
0.0
 12
25.83857883212694
 22
29.80253219116991
 32
0.0
 13
25.83857883212694
 23
29.80253219116991
 33
0.0
  0
SOLID
  5
EC
330
E8
100
AcDbEntity
  8
치수문자_일반주서
100
AcDbTrace
 10
-47.05942116787307
 20
30.3105321911699
 30
0.0
 11
-43.75742116787307
 21
29.8025321911699
 31
0.0
 12
-43.75742116787307
 22
30.8185321911699
 32
0.0
 13
-43.75742116787307
 23
30.8185321911699
 33
0.0
  0
LINE
  5
ED
330
E8
100
AcDbEntity
  8
치수문자_일반주서
100
AcDbLine
 10
-14.37378724969573
 20
41.10341390721263
 30
0.0
 11
-15.08472473526023
 21
41.10341390721264
 31
0.0
  0
LINE
  5
EE
330
E8
100
AcDbEntity
  8
치수문자_일반주서
100
AcDbLine
 10
-15.08472473526023
 20
41.10341390721264
 30
0.0
 11
-15.08472473526027
 21
35.54716391615334
 31
0.0
  0
LINE
  5
EF
330
E8
100
AcDbEntity
  8
치수문자_일반주서
100
AcDbLine
 10
-15.08472473526027
 20
35.54716391615334
 30
0.0
 11
-14.37378724969577
 21
35.54716391615333
 31
0.0
  0
LINE
  5
F0
330
E8
100
AcDbEntity
  8
치수문자_일반주서
100
AcDbLine
 10
-3.545054387558474
 20
41.10341390721256
 30
0.0
 11
-2.834116901993974
 21
41.10341390721256
 31
0.0
  0
LINE
  5
F1
330
E8
100
AcDbEntity
  8
치수문자_일반주서
100
AcDbLine
 10
-2.834116901993974
 20
41.10341390721256
 30
0.0
 11
-2.834116901994013
 21
35.54716391615325
 31
0.0
  0
LINE
  5
F2
330
E8
100
AcDbEntity
  8
치수문자_일반주서
100
AcDbLine
 10
-2.834116901994013
 20
35.54716391615325
 30
0.0
 11
-3.545054387558513
 21
35.54716391615326
 31
0.0
  0
LINE
  5
F3
330
E8
100
AcDbEntity
  8
치수문자_일반주서
100
AcDbLine
 10
29.14057883212694
 20
7.543977789079263
 30
0.0
 11
29.14057883212694
 21
31.3105321911699
 31
0.0
  0
LINE
  5
F4
330
E8
100
AcDbEntity
  8
치수문자_일반주서
100
AcDbLine
 10
-47.05942116787307
 20
6.351074928723888
 30
0.0
 11
-47.05942116787307
 21
31.31053219116989
 31
0.0
  0
LINE
  5
F5
330
E8
100
AcDbEntity
  8
치수문자_일반주서
100
AcDbLine
 10
29.14057883212694
 20
30.31053219116991
 30
0.0
 11
-47.05942116787307
 21
30.3105321911699
 31
0.0
  0
MTEXT
  5
F6
330
E8
100
AcDbEntity
  8
치수문자_일반주서
100
AcDbMText
 10
-15.59848346074697
 20
34.87574145703162
 30
0.0
 40
3.5
 41
0.0
 71
     1
 72
     1
  1

  7
SLDTEXTSTYLE0
 73
     1
 44
1.0
  0
MTEXT
  5
F7
330
E8
100
AcDbEntity
  8
치수문자_일반주서
100
AcDbMText
 10
-13.48511534908437
 20
40.05890083073223
 30
0.0
 40
3.5
 41
0.0
 71
     1
 72
     1
  1
3.00
  7
SLDTEXTSTYLE0
 73
     1
 44
1.0
  0
MTEXT
  5
F8
330
E8
100
AcDbEntity
  8
치수문자_일반주서
100
AcDbMText
 10
-14.77817106226113
 20
34.82226928037176
 30
0.0
 40
3.5
 41
0.0
 71
     1
 72
     1
  1
76.20
  7
SLDTEXTSTYLE0
 73
     1
 44
1.0
  0
MTEXT
  5
F9
330
E8
100
AcDbEntity
  8
치수문자_일반주서
100
AcDbMText
 10
-0.9884136568534059
 20
34.87574145703152
 30
0.0
 40
3.5
 41
0.0
 71
     1
 72
     1
  1

  7
SLDTEXTSTYLE0
 73
     1
 44
1.0
  0
ENDBLK
  5
EA
330
E8
100
AcDbEntity
  8
0
100
AcDbBlockEnd
  0
BLOCK
  5
FD
330
FC
100
AcDbEntity
  8
0
100
AcDbBlockBegin
  2
_D_3
 70
     0
 10
0.0
 20
0.0
 30
0.0
  3
_D_3
  1
_D_3
  0
LINE
  5
FF
330
FC
100
AcDbEntity
  8
0
  6
Continuous
 62
     0
370
    -2
100
AcDbLine
 10
88.26249999999999
 20
-19.04999999999999
 30
0.0
 11
107.2000000000002
 21
-19.04999999999991
 31
0.0
  0
LINE
  5
100
330
FC
100
AcDbEntity
  8
0
  6
Continuous
 62
     0
370
    -2
100
AcDbLine
 10
88.26249999999999
 20
19.05000000000001
 30
0.0
 11
107.2000000000001
 21
19.05000000000008
 31
0.0
  0
LINE
  5
101
330
FC
100
AcDbEntity
  8
0
  6
Continuous
 62
     0
370
    -2
100
AcDbLine
 10
107.2000000000001
 20
19.05000000000008
 30
0.0
 11
107.1999999999999
 21
71.87139923012487
 31
0.0
  0
LINE
  5
102
330
FC
100
AcDbEntity
  8
0
  6
Continuous
 62
     0
370
    -2
100
AcDbLine
 10
107.2000000000002
 20
-15.74799999999991
 30
0.0
 11
107.2000000000001
 21
15.74800000000008
 31
0.0
  0
SOLID
  5
103
330
FC
100
AcDbEntity
  8
0
 62
     0
100
AcDbTrace
 10
106.6496666666669
 20
-15.74799999999991
 30
0.0
 11
107.7503333333336
 21
-15.74799999999991
 31
0.0
 12
107.2000000000002
 22
-19.04999999999991
 32
0.0
 13
107.2000000000002
 23
-19.04999999999991
 33
0.0
  0
SOLID
  5
104
330
FC
100
AcDbEntity
  8
0
 62
     0
100
AcDbTrace
 10
107.7503333333335
 20
15.74800000000008
 30
0.0
 11
106.6496666666668
 21
15.74800000000008
 31
0.0
 12
107.2000000000001
 22
19.05000000000008
 32
0.0
 13
107.2000000000001
 23
19.05000000000008
 33
0.0
  0
MTEXT
  5
105
330
FC
100
AcDbEntity
  8
0
 62
     0
370
    15
100
AcDbMText
 10
102.825
 20
57.43389923012485
 30
0.0
 40
3.5
 41
0.0
 71
     2
 72
     1
  1
\A1;%%c38.1 [1 1/2]
  7
SLDTEXTSTYLE0
 11
-3.356894814614647E-15
 21
1.0
 31
0.0
 73
     1
 44
1.0
  0
POINT
  5
106
330
FC
100
AcDbEntity
  8
Defpoints
 62
     0
100
AcDbPoint
 10
88.19999999999999
 20
-19.04999999999999
 30
0.0
  0
POINT
  5
107
330
FC
100
AcDbEntity
  8
Defpoints
 62
     0
100
AcDbPoint
 10
88.19999999999999
 20
19.05000000000001
 30
0.0
  0
POINT
  5
108
330
FC
100
AcDbEntity
  8
Defpoints
 62
     0
100
AcDbPoint
 10
107.2000000000001
 20
19.05000000000008
 30
0.0
  0
ENDBLK
  5
FE
330
FC
100
AcDbEntity
  8
0
100
AcDbBlockEnd
  0
BLOCK
  5
116
330
115
100
AcDbEntity
  8
0
100
AcDbBlockBegin
  2
SW_DOWELSYMBOL_0
 70
     0
 10
0.0
 20
0.0
 30
0.0
  3
SW_DOWELSYMBOL_0
  1
SW_DOWELSYMBOL_0
  0
CIRCLE
  5
118
330
115
100
AcDbEntity
  8
해칭선
 62
     0
100
AcDbCircle
 10
0.0
 20
0.0
 30
0.0
 40
3.000000000000001
  0
HATCH
  5
119
330
115
100
AcDbEntity
  8
0
  6
Continuous
 62
     0
370
     0
100
AcDbHatch
 10
0.0
 20
0.0
 30
0.0
210
0.0
220
0.0
230
1.0
  2
SOLID
 70
     1
 71
     0
 91
        1
 92
        0
 93
        3
 72
     2
 10
0.0
 20
0.0
 40
3.000000000000001
 50
0.0
 51
90.0
 73
     1
 72
     1
 10
0.0
 20
3.000000000000001
 11
0.0
 21
0.0
 72
     1
 10
0.0
 20
0.0
 11
3.000000000000001
 21
0.0
 97
        0
 75
     0
 76
     1
 98
        1
 10
0.0
 20
0.0
  0
HATCH
  5
11A
330
115
100
AcDbEntity
  8
0
  6
Continuous
 62
     0
370
     0
100
AcDbHatch
 10
0.0
 20
0.0
 30
0.0
210
0.0
220
0.0
230
1.0
  2
SOLID
 70
     1
 71
     0
 91
        1
 92
        0
 93
        3
 72
     2
 10
0.0
 20
0.0
 40
3.000000000000001
 50
180.0
 51
270.0000000000007
 73
     1
 72
     1
 10
0.0
 20
-3.000000000000001
 11
0.0
 21
0.0
 72
     1
 10
0.0
 20
0.0
 11
-3.000000000000001
 21
0.0
 97
        0
 75
     0
 76
     1
 98
        1
 10
0.0
 20
0.0
  0
ENDBLK
  5
117
330
115
100
AcDbEntity
  8
0
100
AcDbBlockEnd
  0
BLOCK
  5
1DF
330
1DE
100
AcDbEntity
  8
0
100
AcDbBlockBegin
  2
*D7
 70
     1
 10
0.0
 20
0.0
 30
0.0
  3
*D7
  1
*D8
  0
LINE
  5
1E1
330
1DE
100
AcDbEntity
  8
치수문자_일반주서
 62
     0
370
    -2
100
AcDbLine
 10
17.81250000000006
 20
31.75964535244198
 30
0.0
 11
4.374999999999988
 21
31.75964535244193
 31
0.0
  0
LINE
  5
1E2
330
1DE
100
AcDbEntity
  8
치수문자_일반주서
 62
     0
370
    -2
100
AcDbLine
 10
17.81250000000006
 20
0.0096453524419748
 30
0.0
 11
4.375000000000099
 21
0.0096453524419253
 31
0.0
  0
LINE
  5
1E3
330
1DE
100
AcDbEntity
  8
치수문자_일반주서
 62
     0
370
    -2
100
AcDbLine
 10
4.374999999999999
 20
28.45764535244193
 30
0.0
 11
4.375000000000087
 21
3.311645352441925
 31
0.0
  0
SOLID
  5
1E4
330
1DE
100
AcDbEntity
  8
치수문자_일반주서
 62
     0
100
AcDbTrace
 10
4.925333333333333
 20
28.45764535244193
 30
0.0
 11
3.824666666666666
 21
28.45764535244192
 31
0.0
 12
4.374999999999988
 22
31.75964535244193
 32
0.0
 13
4.374999999999988
 23
31.75964535244193
 33
0.0
  0
SOLID
  5
1E5
330
1DE
100
AcDbEntity
  8
치수문자_일반주서
 62
     0
100
AcDbTrace
 10
3.824666666666754
 20
3.311645352441923
 30
0.0
 11
4.925333333333421
 21
3.311645352441927
 31
0.0
 12
4.375000000000099
 22
0.0096453524419253
 32
0.0
 13
4.375000000000099
 23
0.0096453524419253
 33
0.0
  0
MTEXT
  5
1E6
330
1DE
100
AcDbEntity
  8
치수문자_일반주서
 62
     0
100
AcDbMText
 10
0.0000000000000426
 20
15.88464535244197
 30
0.0
 40
3.5
 41
0.0
 71
     2
 72
     1
  1
\A1;%%c31.75
  7
SLDTEXTSTYLE0
 11
-3.496765431890257E-15
 21
1.0
 31
0.0
 73
     1
 44
1.0
  0
POINT
  5
1E7
330
1DE
100
AcDbEntity
  8
Defpoints
 62
     0
100
AcDbPoint
 10
17.87500000000006
 20
31.75964535244198
 30
0.0
  0
POINT
  5
1E8
330
1DE
100
AcDbEntity
  8
Defpoints
 62
     0
100
AcDbPoint
 10
17.87500000000006
 20
0.0096453524419751
 30
0.0
  0
POINT
  5
1E9
330
1DE
100
AcDbEntity
  8
Defpoints
 62
     0
100
AcDbPoint
 10
4.375000000000099
 20
0.0096453524419246
 30
0.0
  0
ENDBLK
  5
1E0
330
1DE
100
AcDbEntity
  8
0
100
AcDbBlockEnd
  0
BLOCK
  5
1EB
330
1EA
100
AcDbEntity
  8
0
100
AcDbBlockBegin
  2
*D8
 70
     1
 10
0.0
 20
0.0
 30
0.0
  3
*D8
  1
*D9
  0
LINE
  5
1ED
330
1EA
100
AcDbEntity
  8
치수문자_일반주서
 62
     0
370
    -2
100
AcDbLine
 10
156.575
 20
31.82214535244199
 30
0.0
 11
156.575
 21
44.92256977503551
 31
0.0
  0
LINE
  5
1EE
330
1EA
100
AcDbEntity
  8
치수문자_일반주서
 62
     0
370
    -2
100
AcDbLine
 10
80.37500000000006
 20
31.80278092420802
 30
0.0
 11
80.37500000000006
 21
44.92256977503551
 31
0.0
  0
LINE
  5
1EF
330
1EA
100
AcDbEntity
  8
치수문자_일반주서
 62
     0
370
    -2
100
AcDbLine
 10
153.273
 20
44.92256977503551
 30
0.0
 11
83.67700000000005
 21
44.92256977503551
 31
0.0
  0
SOLID
  5
1F0
330
1EA
100
AcDbEntity
  8
치수문자_일반주서
 62
     0
100
AcDbTrace
 10
153.273
 20
44.37223644170217
 30
0.0
 11
153.273
 21
45.47290310836884
 31
0.0
 12
156.575
 22
44.92256977503551
 32
0.0
 13
156.575
 23
44.92256977503551
 33
0.0
  0
SOLID
  5
1F1
330
1EA
100
AcDbEntity
  8
치수문자_일반주서
 62
     0
100
AcDbTrace
 10
83.67700000000005
 20
45.47290310836884
 30
0.0
 11
83.67700000000005
 21
44.37223644170217
 31
0.0
 12
80.37500000000006
 22
44.92256977503551
 32
0.0
 13
80.37500000000006
 23
44.92256977503551
 33
0.0
  0
MTEXT
  5
1F2
330
1EA
100
AcDbEntity
  8
치수문자_일반주서
 62
     0
100
AcDbMText
 10
116.8560485817252
 20
49.29756977503551
 30
0.0
 40
3.5
 41
0.0
 71
     2
 72
     1
  1
\A1;76.20
  7
SLDTEXTSTYLE0
 73
     1
 44
1.0
  0
POINT
  5
1F3
330
1EA
100
AcDbEntity
  8
Defpoints
 62
     0
100
AcDbPoint
 10
156.575
 20
31.75964535244199
 30
0.0
  0
POINT
  5
1F4
330
1EA
100
AcDbEntity
  8
Defpoints
 62
     0
100
AcDbPoint
 10
80.37500000000006
 20
31.74028092420802
 30
0.0
  0
POINT
  5
1F5
330
1EA
100
AcDbEntity
  8
Defpoints
 62
     0
100
AcDbPoint
 10
80.37500000000006
 20
44.92256977503551
 30
0.0
  0
ENDBLK
  5
1EC
330
1EA
100
AcDbEntity
  8
0
100
AcDbBlockEnd
  0
BLOCK
  5
1F7
330
1F6
100
AcDbEntity
  8
0
100
AcDbBlockBegin
  2
*D9
 70
     1
 10
0.0
 20
0.0
 30
0.0
  3
*D9
  1
*D10
  0
LINE
  5
1F9
330
1F6
100
AcDbEntity
  8
치수문자_일반주서
 62
     0
370
    -2
100
AcDbLine
 10
156.575
 20
31.82214535244199
 30
0.0
 11
156.575
 21
61.47461121688249
 31
0.0
  0
LINE
  5
1FA
330
1F6
100
AcDbEntity
  8
치수문자_일반주서
 62
     0
370
    -2
100
AcDbLine
 10
16.87500000000007
 20
30.82214535244196
 30
0.0
 11
16.87500000000004
 21
61.47461121688249
 31
0.0
  0
LINE
  5
1FB
330
1F6
100
AcDbEntity
  8
치수문자_일반주서
 62
     0
370
    -2
100
AcDbLine
 10
153.273
 20
61.47461121688249
 30
0.0
 11
20.17700000000004
 21
61.47461121688249
 31
0.0
  0
SOLID
  5
1FC
330
1F6
100
AcDbEntity
  8
치수문자_일반주서
 62
     0
100
AcDbTrace
 10
153.273
 20
60.92427788354916
 30
0.0
 11
153.273
 21
62.02494455021583
 31
0.0
 12
156.575
 22
61.47461121688249
 32
0.0
 13
156.575
 23
61.47461121688249
 33
0.0
  0
SOLID
  5
1FD
330
1F6
100
AcDbEntity
  8
치수문자_일반주서
 62
     0
100
AcDbTrace
 10
20.17700000000004
 20
62.02494455021583
 30
0.0
 11
20.17700000000004
 21
60.92427788354916
 31
0.0
 12
16.87500000000004
 22
61.47461121688249
 32
0.0
 13
16.87500000000004
 23
61.47461121688249
 33
0.0
  0
MTEXT
  5
1FE
330
1F6
100
AcDbEntity
  8
치수문자_일반주서
 62
     0
100
AcDbMText
 10
86.72500000000005
 20
65.8496112168825
 30
0.0
 40
3.5
 41
0.0
 71
     2
 72
     1
  1
\A1;139.70
  7
SLDTEXTSTYLE0
 73
     1
 44
1.0
  0
POINT
  5
1FF
330
1F6
100
AcDbEntity
  8
Defpoints
 62
     0
100
AcDbPoint
 10
156.575
 20
31.75964535244199
 30
0.0
  0
POINT
  5
200
330
1F6
100
AcDbEntity
  8
Defpoints
 62
     0
100
AcDbPoint
 10
16.87500000000007
 20
30.75964535244196
 30
0.0
  0
POINT
  5
201
330
1F6
100
AcDbEntity
  8
Defpoints
 62
     0
100
AcDbPoint
 10
16.87500000000007
 20
61.47461121688249
 30
0.0
  0
ENDBLK
  5
1F8
330
1F6
100
AcDbEntity
  8
0
100
AcDbBlockEnd
  0
BLOCK
  5
203
330
202
100
AcDbEntity
  8
0
100
AcDbBlockBegin
  2
*D10
 70
     1
 10
0.0
 20
0.0
 30
0.0
  3
*D10
  1
*D11
  0
LINE
  5
205
330
202
100
AcDbEntity
  8
치수문자_일반주서
 62
     0
370
    -2
100
AcDbLine
 10
156.6375
 20
0.0096453524419895
 30
0.0
 11
183.234173376494
 21
0.0096453524420852
 31
0.0
  0
LINE
  5
206
330
202
100
AcDbEntity
  8
치수문자_일반주서
 62
     0
370
    -2
100
AcDbLine
 10
156.6375
 20
31.75964535244199
 30
0.0
 11
183.2341733764939
 21
31.75964535244209
 31
0.0
  0
LINE
  5
207
330
202
100
AcDbEntity
  8
치수문자_일반주서
 62
     0
370
    -2
100
AcDbLine
 10
183.2341733764939
 20
31.75964535244209
 30
0.0
 11
183.2341733764938
 21
60.38629388338068
 31
0.0
  0
LINE
  5
208
330
202
100
AcDbEntity
  8
치수문자_일반주서
 62
     0
370
    -2
100
AcDbLine
 10
183.234173376494
 20
0.0096453524420852
 30
0.0
 11
183.2341733764939
 21
31.75964535244209
 31
0.0
  0
LINE
  5
209
330
202
100
AcDbEntity
  8
치수문자_일반주서
 62
     0
370
    -2
100
AcDbLine
 10
183.234173376494
 20
-3.292354647557914
 30
0.0
 11
183.234173376494
 21
-6.594354647557914
 31
0.0
  0
LINE
  5
20A
330
202
100
AcDbEntity
  8
치수문자_일반주서
 62
     0
370
    -2
100
AcDbLine
 10
183.2341733764939
 20
35.06164535244209
 30
0.0
 11
183.2341733764939
 21
38.36364535244209
 31
0.0
  0
SOLID
  5
20B
330
202
100
AcDbEntity
  8
치수문자_일반주서
 62
     0
100
AcDbTrace
 10
183.7845067098274
 20
-3.292354647557913
 30
0.0
 11
182.6838400431607
 21
-3.292354647557916
 31
0.0
 12
183.234173376494
 22
0.0096453524420852
 32
0.0
 13
183.234173376494
 23
0.0096453524420852
 33
0.0
  0
SOLID
  5
20C
330
202
100
AcDbEntity
  8
치수문자_일반주서
 62
     0
100
AcDbTrace
 10
182.6838400431606
 20
35.06164535244209
 30
0.0
 11
183.7845067098272
 21
35.06164535244209
 31
0.0
 12
183.2341733764939
 22
31.75964535244209
 32
0.0
 13
183.2341733764939
 23
31.75964535244209
 33
0.0
  0
MTEXT
  5
20D
330
202
100
AcDbEntity
  8
치수문자_일반주서
 62
     0
100
AcDbMText
 10
178.8591733764938
 20
53.38629388338067
 30
0.0
 40
3.5
 41
0.0
 71
     2
 72
     1
  1
\A1;%%c31.75
  7
SLDTEXTSTYLE0
 11
-3.580687802255623E-15
 21
1.0
 31
0.0
 73
     1
 44
1.0
  0
POINT
  5
20E
330
202
100
AcDbEntity
  8
Defpoints
 62
     0
100
AcDbPoint
 10
156.575
 20
0.0096453524419893
 30
0.0
  0
POINT
  5
20F
330
202
100
AcDbEntity
  8
Defpoints
 62
     0
100
AcDbPoint
 10
156.575
 20
31.75964535244199
 30
0.0
  0
POINT
  5
210
330
202
100
AcDbEntity
  8
Defpoints
 62
     0
100
AcDbPoint
 10
183.2341733764939
 20
31.75964535244209
 30
0.0
  0
ENDBLK
  5
204
330
202
100
AcDbEntity
  8
0
100
AcDbBlockEnd
  0
BLOCK
  5
24C
330
24B
100
AcDbEntity
  8
0
100
AcDbBlockBegin
  2
*D11
 70
     1
 10
0.0
 20
0.0
 30
0.0
  3
*D11
  1
*D12
  0
LINE
  5
24E
330
24B
100
AcDbEntity
  8
0
  6
Continuous
 62
     0
370
    -2
100
AcDbLine
 10
-50.5625
 20
15.87319595521764
 30
0.0
 11
-60.95008564276373
 21
15.8731959552176
 31
0.0
  0
LINE
  5
24F
330
24B
100
AcDbEntity
  8
0
  6
Continuous
 62
     0
370
    -2
100
AcDbLine
 10
-50.56249999999999
 20
-15.87680404478236
 30
0.0
 11
-60.95008564276362
 21
-15.8768040447824
 31
0.0
  0
LINE
  5
250
330
24B
100
AcDbEntity
  8
0
  6
Continuous
 62
     0
370
    -2
100
AcDbLine
 10
-60.95008564276372
 20
12.5711959552176
 30
0.0
 11
-60.95008564276363
 21
-12.5748040447824
 31
0.0
  0
SOLID
  5
251
330
24B
100
AcDbEntity
  8
0
 62
     0
100
AcDbTrace
 10
-60.39975230943038
 20
12.5711959552176
 30
0.0
 11
-61.50041897609705
 21
12.5711959552176
 31
0.0
 12
-60.95008564276373
 22
15.8731959552176
 32
0.0
 13
-60.95008564276373
 23
15.8731959552176
 33
0.0
  0
SOLID
  5
252
330
24B
100
AcDbEntity
  8
0
 62
     0
100
AcDbTrace
 10
-61.50041897609697
 20
-12.5748040447824
 30
0.0
 11
-60.3997523094303
 21
-12.57480404478239
 31
0.0
 12
-60.95008564276362
 22
-15.8768040447824
 32
0.0
 13
-60.95008564276362
 23
-15.8768040447824
 33
0.0
  0
MTEXT
  5
253
330
24B
100
AcDbEntity
  8
0
 62
     0
370
    15
100
AcDbMText
 10
-65.32508564276367
 20
-0.0018040447823477
 30
0.0
 40
3.5
 41
0.0
 71
     2
 72
     1
  1
\A1;%%c31.75 [1 1/4]
  7
SLDTEXTSTYLE0
 11
-3.580687802255624E-15
 21
1.0
 31
0.0
 73
     1
 44
1.0
  0
POINT
  5
254
330
24B
100
AcDbEntity
  8
Defpoints
 62
     0
100
AcDbPoint
 10
-50.5
 20
15.87319595521764
 30
0.0
  0
POINT
  5
255
330
24B
100
AcDbEntity
  8
Defpoints
 62
     0
100
AcDbPoint
 10
-50.49999999999999
 20
-15.87680404478236
 30
0.0
  0
POINT
  5
256
330
24B
100
AcDbEntity
  8
Defpoints
 62
     0
100
AcDbPoint
 10
-60.95008564276362
 20
-15.8768040447824
 30
0.0
  0
ENDBLK
  5
24D
330
24B
100
AcDbEntity
  8
0
100
AcDbBlockEnd
  0
BLOCK
  5
258
330
257
100
AcDbEntity
  8
0
100
AcDbBlockBegin
  2
*D12
 70
     1
 10
0.0
 20
0.0
 30
0.0
  3
*D12
  1
*D13
  0
LINE
  5
25A
330
257
100
AcDbEntity
  8
치수문자_일반주서
 62
     0
370
    -2
100
AcDbLine
 10
247.2157994572854
 20
-69.59998712966268
 30
0.0
 11
247.2157994572854
 21
-56.49956270706917
 31
0.0
  0
LINE
  5
25B
330
257
100
AcDbEntity
  8
치수문자_일반주서
 62
     0
370
    -2
100
AcDbLine
 10
171.0157994572854
 20
-69.61935155789666
 30
0.0
 11
171.0157994572854
 21
-56.49956270706917
 31
0.0
  0
LINE
  5
25C
330
257
100
AcDbEntity
  8
치수문자_일반주서
 62
     0
370
    -2
100
AcDbLine
 10
243.9137994572854
 20
-56.49956270706917
 30
0.0
 11
174.3177994572854
 21
-56.49956270706917
 31
0.0
  0
SOLID
  5
25D
330
257
100
AcDbEntity
  8
치수문자_일반주서
 62
     0
100
AcDbTrace
 10
243.9137994572854
 20
-57.0498960404025
 30
0.0
 11
243.9137994572854
 21
-55.94922937373583
 31
0.0
 12
247.2157994572854
 22
-56.49956270706917
 32
0.0
 13
247.2157994572854
 23
-56.49956270706917
 33
0.0
  0
SOLID
  5
25E
330
257
100
AcDbEntity
  8
치수문자_일반주서
 62
     0
100
AcDbTrace
 10
174.3177994572854
 20
-55.94922937373583
 30
0.0
 11
174.3177994572854
 21
-57.0498960404025
 31
0.0
 12
171.0157994572854
 22
-56.49956270706917
 32
0.0
 13
171.0157994572854
 23
-56.49956270706917
 33
0.0
  0
MTEXT
  5
25F
330
257
100
AcDbEntity
  8
치수문자_일반주서
 62
     0
100
AcDbMText
 10
207.4968480390105
 20
-52.12456270706917
 30
0.0
 40
3.5
 41
0.0
 71
     2
 72
     1
  1
\A1;76.20
  7
SLDTEXTSTYLE0
 73
     1
 44
1.0
  0
POINT
  5
260
330
257
100
AcDbEntity
  8
Defpoints
 62
     0
100
AcDbPoint
 10
247.2157994572854
 20
-69.66248712966268
 30
0.0
  0
POINT
  5
261
330
257
100
AcDbEntity
  8
Defpoints
 62
     0
100
AcDbPoint
 10
171.0157994572854
 20
-69.68185155789666
 30
0.0
  0
POINT
  5
262
330
257
100
AcDbEntity
  8
Defpoints
 62
     0
100
AcDbPoint
 10
171.0157994572854
 20
-56.49956270706917
 30
0.0
  0
ENDBLK
  5
259
330
257
100
AcDbEntity
  8
0
100
AcDbBlockEnd
  0
BLOCK
  5
264
330
263
100
AcDbEntity
  8
0
100
AcDbBlockBegin
  2
*D13
 70
     1
 10
0.0
 20
0.0
 30
0.0
  3
*D13
  1
*D14
  0
LINE
  5
266
330
263
100
AcDbEntity
  8
0
  6
Continuous
 62
     0
370
    -2
100
AcDbLine
 10
88.19999999999999
 20
19.1125
 30
0.0
 11
88.19999999999999
 21
45.58816181965817
 31
0.0
  0
LINE
  5
267
330
263
100
AcDbEntity
  8
0
  6
Continuous
 62
     0
370
    -2
100
AcDbLine
 10
-51.49999999999999
 20
14.93569595521763
 30
0.0
 11
-51.49999999999999
 21
45.58816181965817
 31
0.0
  0
LINE
  5
268
330
263
100
AcDbEntity
  8
0
  6
Continuous
 62
     0
370
    -2
100
AcDbLine
 10
84.898
 20
45.58816181965817
 30
0.0
 11
-48.19799999999999
 21
45.58816181965817
 31
0.0
  0
SOLID
  5
269
330
263
100
AcDbEntity
  8
0
 62
     0
100
AcDbTrace
 10
84.898
 20
45.03782848632483
 30
0.0
 11
84.898
 21
46.1384951529915
 31
0.0
 12
88.19999999999999
 22
45.58816181965817
 32
0.0
 13
88.19999999999999
 23
45.58816181965817
 33
0.0
  0
SOLID
  5
26A
330
263
100
AcDbEntity
  8
0
 62
     0
100
AcDbTrace
 10
-48.19799999999999
 20
46.1384951529915
 30
0.0
 11
-48.19799999999999
 21
45.03782848632483
 31
0.0
 12
-51.49999999999999
 22
45.58816181965817
 32
0.0
 13
-51.49999999999999
 23
45.58816181965817
 33
0.0
  0
MTEXT
  5
26B
330
263
100
AcDbEntity
  8
0
 62
     0
370
    15
100
AcDbMText
 10
21.39991435723633
 20
49.96316181965817
 30
0.0
 40
3.5
 41
0.0
 71
     2
 72
     1
  1
\A1;139.70 [5 1/2]
  7
SLDTEXTSTYLE0
 73
     1
 44
1.0
  0
POINT
  5
26C
330
263
100
AcDbEntity
  8
Defpoints
 62
     0
100
AcDbPoint
 10
88.19999999999999
 20
19.05
 30
0.0
  0
POINT
  5
26D
330
263
100
AcDbEntity
  8
Defpoints
 62
     0
100
AcDbPoint
 10
-51.49999999999999
 20
14.87319595521763
 30
0.0
  0
POINT
  5
26E
330
263
100
AcDbEntity
  8
Defpoints
 62
     0
100
AcDbPoint
 10
-51.49999999999999
 20
45.58816181965817
 30
0.0
  0
ENDBLK
  5
265
330
263
100
AcDbEntity
  8
0
100
AcDbBlockEnd
  0
BLOCK
  5
270
330
26F
100
AcDbEntity
  8
0
100
AcDbBlockBegin
  2
*D14
 70
     1
 10
0.0
 20
0.0
 30
0.0
  3
*D14
  1
*D15
  0
LINE
  5
272
330
26F
100
AcDbEntity
  8
치수문자_일반주서
 62
     0
370
    -2
100
AcDbLine
 10
247.2782994572854
 20
-101.4124871296627
 30
0.0
 11
273.8749728337794
 21
-101.4124871296626
 31
0.0
  0
LINE
  5
273
330
26F
100
AcDbEntity
  8
치수문자_일반주서
 62
     0
370
    -2
100
AcDbLine
 10
247.2782994572854
 20
-69.66248712966268
 30
0.0
 11
273.8749728337793
 21
-69.66248712966258
 31
0.0
  0
LINE
  5
274
330
26F
100
AcDbEntity
  8
치수문자_일반주서
 62
     0
370
    -2
100
AcDbLine
 10
273.8749728337793
 20
-69.66248712966258
 30
0.0
 11
273.8749728337792
 21
-41.03583859872399
 31
0.0
  0
LINE
  5
275
330
26F
100
AcDbEntity
  8
치수문자_일반주서
 62
     0
370
    -2
100
AcDbLine
 10
273.8749728337794
 20
-101.4124871296626
 30
0.0
 11
273.8749728337793
 21
-69.66248712966258
 31
0.0
  0
LINE
  5
276
330
26F
100
AcDbEntity
  8
치수문자_일반주서
 62
     0
370
    -2
100
AcDbLine
 10
273.8749728337794
 20
-104.7144871296626
 30
0.0
 11
273.8749728337794
 21
-108.0164871296626
 31
0.0
  0
LINE
  5
277
330
26F
100
AcDbEntity
  8
치수문자_일반주서
 62
     0
370
    -2
100
AcDbLine
 10
273.8749728337793
 20
-66.36048712966257
 30
0.0
 11
273.8749728337793
 21
-63.05848712966257
 31
0.0
  0
SOLID
  5
278
330
26F
100
AcDbEntity
  8
치수문자_일반주서
 62
     0
100
AcDbTrace
 10
274.4253061671128
 20
-104.7144871296626
 30
0.0
 11
273.324639500446
 21
-104.7144871296626
 31
0.0
 12
273.8749728337794
 22
-101.4124871296626
 32
0.0
 13
273.8749728337794
 23
-101.4124871296626
 33
0.0
  0
SOLID
  5
279
330
26F
100
AcDbEntity
  8
치수문자_일반주서
 62
     0
100
AcDbTrace
 10
273.3246395004459
 20
-66.36048712966257
 30
0.0
 11
274.4253061671126
 21
-66.36048712966257
 31
0.0
 12
273.8749728337793
 22
-69.66248712966258
 32
0.0
 13
273.8749728337793
 23
-69.66248712966258
 33
0.0
  0
MTEXT
  5
27A
330
26F
100
AcDbEntity
  8
치수문자_일반주서
 62
     0
100
AcDbMText
 10
269.4999728337792
 20
-48.03583859872401
 30
0.0
 40
3.5
 41
0.0
 71
     2
 72
     1
  1
\A1;%%c31.75
  7
SLDTEXTSTYLE0
 11
-3.580687802255623E-15
 21
1.0
 31
0.0
 73
     1
 44
1.0
  0
POINT
  5
27B
330
26F
100
AcDbEntity
  8
Defpoints
 62
     0
100
AcDbPoint
 10
247.2157994572854
 20
-101.4124871296627
 30
0.0
  0
POINT
  5
27C
330
26F
100
AcDbEntity
  8
Defpoints
 62
     0
100
AcDbPoint
 10
247.2157994572854
 20
-69.66248712966268
 30
0.0
  0
POINT
  5
27D
330
26F
100
AcDbEntity
  8
Defpoints
 62
     0
100
AcDbPoint
 10
273.8749728337793
 20
-69.66248712966258
 30
0.0
  0
ENDBLK
  5
271
330
26F
100
AcDbEntity
  8
0
100
AcDbBlockEnd
  0
ENDSEC
  0
SECTION
  2
ENTITIES
  0
SPLINE
  5
96
330
1F
100
AcDbEntity
  8
0
  6
Continuous
 62
     1
370
    15
100
AcDbSpline
210
0.0
220
0.0
230
1.0
 70
     8
 71
     3
 72
    18
 73
    14
 74
     0
 42
0.000000001
 43
0.00000001
 40
0.0
 40
0.0
 40
0.0
 40
0.0
 40
0.1393597171710584
 40
0.2483037802532487
 40
0.3314522579748642
 40
0.405517252003573
 40
0.4721455771213702
 40
0.5309764706711241
 40
0.5933212844440314
 40
0.6691503705444688
 40
0.7644717935530689
 40
0.8749015269635004
 40
1.0
 40
1.0
 40
1.0
 40
1.0
 10
38.84560677727936
 20
4.881574355875158
 30
0.0
 10
38.6061294924441
 20
4.994398689804117
 30
0.0
 10
38.17944152036397
 20
5.19542312633285
 30
0.0
 10
37.59730412502338
 20
5.475502416495226
 30
0.0
 10
37.11628179361948
 20
5.709786587354849
 30
0.0
 10
36.71621466940937
 20
5.906640913968656
 30
0.0
 10
36.36378808468336
 20
6.081606865623048
 30
0.0
 10
36.03294538144863
 20
6.247168936243893
 30
0.0
 10
35.68877662990568
 20
6.420687054076444
 30
0.0
 10
35.2689833295603
 20
6.634188102040755
 30
0.0
 10
34.7551441392106
 20
6.898166060773036
 30
0.0
 10
34.16917636627512
 20
7.203184902681473
 30
0.0
 10
33.77276637700915
 20
7.413191666636076
 30
0.0
 10
33.5622171391846
 20
7.524734678381368
 30
0.0
  0
LINE
  5
97
330
1F
100
AcDbEntity
  8
0
  6
Continuous
 62
     1
370
    15
100
AcDbLine
 10
28.1725721378182
 20
5.440212167964487
 30
0.0
 11
28.10620647855655
 21
5.476873063221772
 31
0.0
  0
SPLINE
  5
98
330
1F
100
AcDbEntity
  8
0
  6
Continuous
 62
     1
370
    15
100
AcDbSpline
210
0.0
220
0.0
230
1.0
 70
     8
 71
     3
 72
    26
 73
    22
 74
     0
 42
0.000000001
 43
0.00000001
 40
0.0
 40
0.0
 40
0.0
 40
0.0
 40
0.0482356641439816
 40
0.089892413699923
 40
0.1243387717628359
 40
0.1596680675304968
 40
0.1947750259781907
 40
0.2295880540873956
 40
0.2642603343211691
 40
0.3294030322166541
 40
0.3874513603441097
 40
0.4545402028508526
 40
0.5224620773696562
 40
0.5817732678563109
 40
0.6423508280772117
 40
0.7099970080958812
 40
0.7854962791305642
 40
0.8729735296175232
 40
0.9218310599756984
 40
0.9744699502615806
 40
1.0
 40
1.0
 40
1.0
 40
1.0
 10
32.54948968208708
 20
15.13787212792531
 30
0.0
 10
32.36615236811045
 20
15.1271475158463
 30
0.0
 10
32.02448331540648
 20
15.10716103317033
 30
0.0
 10
31.4177477586207
 20
15.07152852621664
 30
0.0
 10
30.81870588515454
 20
15.04574495795748
 30
0.0
 10
30.27006507179042
 20
15.02719095810757
 30
0.0
 10
29.71248379204739
 20
15.00688370599566
 30
0.0
 10
29.15694080685766
 20
14.98743212552412
 30
0.0
 10
28.44213347601585
 20
14.96365027602202
 30
0.0
 10
27.60679112310622
 20
14.93917151600516
 30
0.0
 10
26.61565334000355
 20
14.91573578047471
 30
0.0
 10
25.61710371558829
 20
14.89744770328701
 30
0.0
 10
24.59952912836739
 20
14.88469541895774
 30
0.0
 10
23.61832813735418
 20
14.87788484011618
 30
0.0
 10
22.63818299530817
 20
14.87623570712906
 30
0.0
 10
21.57369440835837
 20
14.8804083213511
 30
0.0
 10
20.36818560741959
 20
14.89268088762649
 30
0.0
 10
19.26121972152697
 20
14.91177233201063
 30
0.0
 10
18.27378058983928
 20
14.93489471577605
 30
0.0
 10
17.61000432284688
 20
14.95279349154901
 30
0.0
 10
17.20149051710014
 20
14.9661177183469
 30
0.0
 10
17.06806952180069
 20
14.97046942342016
 30
0.0
  0
SPLINE
  5
99
330
1F
100
AcDbEntity
  8
0
  6
Continuous
 62
     1
370
    15
100
AcDbSpline
210
0.0
220
0.0
230
1.0
 70
     8
 71
     3
 72
    45
 73
    41
 74
     0
 42
0.000000001
 43
0.00000001
 40
0.0
 40
0.0
 40
0.0
 40
0.0
 40
0.0323640058787202
 40
0.059771666604553
 40
0.0821942668845886
 40
0.0996674560871953
 40
0.1122641451772468
 40
0.1212373588830604
 40
0.1303048191095314
 40
0.1480038187182132
 40
0.1673949776704331
 40
0.1901299118405297
 40
0.2263216216223883
 40
0.264785175310249
 40
0.3021371055355344
 40
0.3360105488470989
 40
0.3629915649458875
 40
0.3865436384474227
 40
0.4072286793279898
 40
0.4259939831856807
 40
0.4439924608134856
 40
0.4638098545831386
 40
0.4863753943291231
 40
0.5139481545052643
 40
0.5608333750211978
 40
0.6029336626438605
 40
0.6447927032374957
 40
0.6852804757640867
 40
0.7218353106321568
 40
0.7555456546675475
 40
0.787440867242295
 40
0.8196741087102114
 40
0.8572221408843931
 40
0.8771914592611111
 40
0.8970856039313579
 40
0.917062507491794
 40
0.9334011186867053
 40
0.9523538963488556
 40
0.97444870813072
 40
1.0
 40
1.0
 40
1.0
 40
1.0
 10
81.12153288587382
 20
13.0292964505127
 30
0.0
 10
80.76743750159187
 20
12.9996093285411
 30
0.0
 10
80.11347422724248
 20
12.94478148171693
 30
0.0
 10
79.21036747238355
 20
12.87722556749785
 30
0.0
 10
78.46633291148424
 20
12.82572879935027
 30
0.0
 10
77.88065232702397
 20
12.78829164248058
 30
0.0
 10
77.43810249777357
 20
12.76192940379304
 30
0.0
 10
77.08586221961446
 20
12.74200956622261
 30
0.0
 10
76.67777433229017
 20
12.71956662060383
 30
0.0
 10
76.15566152963387
 20
12.6926371985251
 30
0.0
 10
75.49834803329105
 20
12.66203405171814
 30
0.0
 10
74.63204842226418
 20
12.62612849360782
 30
0.0
 10
73.5480297764772
 20
12.58926974175726
 30
0.0
 10
72.30573862717233
 20
12.55892605523355
 30
0.0
 10
71.09034967255712
 20
12.5410466027066
 30
0.0
 10
69.99348778347712
 20
12.53500787317624
 30
0.0
 10
69.04814554991242
 20
12.53727677262406
 30
0.0
 10
68.25363966234741
 20
12.54439653410272
 30
0.0
 10
67.552328045632
 20
12.55468677446361
 30
0.0
 10
66.91233829061548
 20
12.56731847331959
 30
0.0
 10
66.28197022054688
 20
12.58273441088734
 30
0.0
 10
65.60946141884261
 20
12.60243921724709
 30
0.0
 10
64.83044525123702
 20
12.6294941153781
 30
0.0
 10
63.75031090421258
 20
12.67395351802625
 30
0.0
 10
62.45223677935037
 20
12.7398156215109
 30
0.0
 10
60.99663078052262
 20
12.82973726394245
 30
0.0
 10
59.59880065722859
 20
12.93064890292607
 30
0.0
 10
58.26328198244107
 20
13.04102993745063
 30
0.0
 10
57.04934845654017
 20
13.15284019710767
 30
0.0
 10
55.91482724988829
 20
13.26633556642504
 30
0.0
 10
54.82984265899331
 20
13.38340433248343
 30
0.0
 10
53.71680567429652
 20
13.51151285078713
 30
0.0
 10
52.70357809124712
 20
13.63681524109843
 30
0.0
 10
51.82420812144077
 20
13.75076378142786
 30
0.0
 10
51.14062568467416
 20
13.84184374511371
 30
0.0
 10
50.50479351345395
 20
13.92623822043885
 30
0.0
 10
49.87175412249989
 20
14.01426093402358
 30
0.0
 10
49.24427550680206
 20
14.107848913316
 30
0.0
 10
48.55427572254727
 20
14.21568433144346
 30
0.0
 10
48.09145238559362
 20
14.28889510634316
 30
0.0
 10
47.8432529892064
 20
14.32815602663026
 30
0.0
  0
SPLINE
  5
9A
330
1F
100
AcDbEntity
  8
0
  6
Continuous
 62
     1
370
    15
100
AcDbSpline
210
0.0
220
0.0
230
1.0
 70
     8
 71
     3
 72
    27
 73
    23
 74
     0
 42
0.000000001
 43
0.00000001
 40
0.0
 40
0.0
 40
0.0
 40
0.0
 40
0.0428907286767431
 40
0.0806734114050018
 40
0.115999356336421
 40
0.1529708009433731
 40
0.1904457893904277
 40
0.2248288240163576
 40
0.2561304601357466
 40
0.285229421673493
 40
0.3460123974210728
 40
0.413460025415132
 40
0.4662642309144009
 40
0.5231479481885997
 40
0.5867979585090567
 40
0.6578519301441211
 40
0.7231279167515109
 40
0.7918144935921427
 40
0.8494908006783334
 40
0.90258470269722
 40
0.954052078411546
 40
1.0
 40
1.0
 40
1.0
 40
1.0
 10
47.84325298920638
 20
-14.32815602663027
 30
0.0
 10
47.96935279172454
 20
-14.30738431038817
 30
0.0
 10
48.2065346154074
 20
-14.26831467315687
 30
0.0
 10
48.66635537518805
 20
-14.18948488779232
 30
0.0
 10
49.18211801648563
 20
-14.10851916444294
 30
0.0
 10
49.72899264087896
 20
-14.03218323398784
 30
0.0
 10
50.25683334599515
 20
-13.96131759024512
 30
0.0
 10
50.76272658519711
 20
-13.8928183573779
 30
0.0
 10
51.22773226996885
 20
-13.83040614646498
 30
0.0
 10
51.82387064228777
 20
-13.75099943772437
 30
0.0
 10
52.59699465069986
 20
-13.65029640035404
 30
0.0
 10
53.46080730053048
 20
-13.54330628164686
 30
0.0
 10
54.30919440448048
 20
-13.44301812879764
 30
0.0
 10
55.14096937049978
 20
-13.34943078436837
 30
0.0
 10
56.06162592037481
 20
-13.25147111029245
 30
0.0
 10
57.02350084159725
 20
-13.15573421143483
 30
0.0
 10
58.00906201252141
 20
-13.06450470419744
 30
0.0
 10
58.92952215428556
 20
-12.98557930248881
 30
0.0
 10
59.7913621055062
 20
-12.91753311879634
 30
0.0
 10
60.5710296334714
 20
-12.86073798378486
 30
0.0
 10
61.29395614230158
 20
-12.81172739212191
 30
0.0
 10
61.75950926879535
 20
-12.78354076880128
 30
0.0
 10
61.97909694284318
 20
-12.77024597020148
 30
0.0
  0
SPLINE
  5
9B
330
1F
100
AcDbEntity
  8
0
  6
Continuous
 62
     1
370
    15
100
AcDbSpline
210
0.0
220
0.0
230
1.0
 70
     8
 71
     3
 72
    38
 73
    34
 74
     0
 42
0.000000001
 43
0.00000001
 40
0.0
 40
0.0
 40
0.0
 40
0.0
 40
0.0473510342980931
 40
0.0877134394918554
 40
0.1211006225199709
 40
0.1498176766970496
 40
0.1702338187223172
 40
0.1868337232901598
 40
0.2029180987220287
 40
0.2184840908166427
 40
0.2335594699861281
 40
0.2716322068362211
 40
0.3141796182351952
 40
0.3399766735544695
 40
0.3661965504772854
 40
0.3929597033489997
 40
0.4208360011044836
 40
0.4508723346926483
 40
0.4825660439400242
 40
0.5179237046523558
 40
0.5489264626930659
 40
0.5861227849504127
 40
0.6328630623164616
 40
0.6805376481683542
 40
0.725639712161952
 40
0.7653738043511612
 40
0.800906331461386
 40
0.833212795331511
 40
0.8630901705529989
 40
0.8881831209044966
 40
0.9234321033425557
 40
0.9584722397127546
 40
1.0
 40
1.0
 40
1.0
 40
1.0
 10
12.0
 20
-15.20257018378163
 30
0.0
 10
12.32624308695162
 20
-15.18366260527622
 30
0.0
 10
12.93057842389101
 20
-15.14863805369553
 30
0.0
 10
13.76464700772964
 20
-15.10543459311432
 30
0.0
 10
14.47019977956432
 20
-15.07148281858884
 30
0.0
 10
15.03845198348837
 20
-15.04620170428936
 30
0.0
 10
15.49118610876615
 20
-15.02731061558415
 30
0.0
 10
15.8569658498421
 20
-15.01281679568487
 30
0.0
 10
16.18932813615612
 20
-15.00026169245755
 30
0.0
 10
16.51116742632301
 20
-14.98867996447711
 30
0.0
 10
16.98457627166119
 20
-14.97246640835234
 30
0.0
 10
17.64273803296205
 20
-14.95188663862835
 30
0.0
 10
18.37940089202752
 20
-14.93227225499549
 30
0.0
 10
19.00883964135282
 20
-14.91784425293779
 30
0.0
 10
19.49778591089515
 20
-14.90682563336234
 30
0.0
 10
20.00563787982376
 20
-14.89519639900282
 30
0.0
 10
20.59158283428863
 20
-14.88636360820195
 30
0.0
 10
21.22100092602379
 20
-14.88146718937379
 30
0.0
 10
21.89743170331938
 20
-14.87891944620097
 30
0.0
 10
22.58709954351242
 20
-14.8768000862611
 30
0.0
 10
23.30458444955091
 20
-14.8771669333465
 30
0.0
 10
24.09468223761715
 20
-14.88069261291209
 30
0.0
 10
25.00194537780131
 20
-14.88913330654614
 30
0.0
 10
25.96263918226436
 20
-14.90328363649965
 30
0.0
 10
26.87483125004101
 20
-14.92154987629133
 30
0.0
 10
27.70348282104808
 20
-14.94218891391821
 30
0.0
 10
28.4430524517276
 20
-14.96371954018067
 30
0.0
 10
29.12648867793241
 20
-14.98652035520821
 30
0.0
 10
29.73699912738123
 20
-15.00789924319874
 30
0.0
 10
30.36876741691847
 20
-15.0322712150309
 30
0.0
 10
31.01787101206136
 20
-15.06093506392362
 30
0.0
 10
31.7679708082904
 20
-15.09687763084638
 30
0.0
 10
32.2746723916749
 20
-15.12345661348699
 30
0.0
 10
32.54948968208708
 20
-15.13787212792532
 30
0.0
  0
SPLINE
  5
9C
330
1F
100
AcDbEntity
  8
0
  6
Continuous
 62
     1
370
    15
100
AcDbSpline
210
0.0
220
0.0
230
1.0
 70
     8
 71
     3
 72
    62
 73
    58
 74
     0
 42
0.000000001
 43
0.00000001
 40
0.0
 40
0.0
 40
0.0
 40
0.0
 40
0.0624999999999996
 40
0.0624999999999996
 40
0.1249999999999991
 40
0.1249999999999991
 40
0.1562499999999991
 40
0.1562499999999991
 40
0.1874999999999991
 40
0.1874999999999991
 40
0.2187499999999991
 40
0.2187499999999991
 40
0.2499999999999991
 40
0.2499999999999991
 40
0.2812499999999991
 40
0.2812499999999991
 40
0.312499999999999
 40
0.312499999999999
 40
0.3437499999999989
 40
0.3437499999999989
 40
0.3749999999999989
 40
0.3749999999999989
 40
0.4062499999999989
 40
0.4062499999999989
 40
0.4374999999999988
 40
0.4374999999999988
 40
0.4687499999999988
 40
0.4687499999999988
 40
0.4999999999999988
 40
0.4999999999999988
 40
0.5312499999999988
 40
0.5312499999999988
 40
0.5624999999999988
 40
0.5624999999999988
 40
0.5937499999999988
 40
0.5937499999999988
 40
0.6249999999999989
 40
0.6249999999999989
 40
0.656249999999999
 40
0.656249999999999
 40
0.6874999999999991
 40
0.6874999999999991
 40
0.7187499999999992
 40
0.7187499999999992
 40
0.7499999999999993
 40
0.7499999999999993
 40
0.7812499999999994
 40
0.7812499999999994
 40
0.8124999999999994
 40
0.8124999999999994
 40
0.8749999999999996
 40
0.8749999999999996
 40
0.9374999999999998
 40
0.9374999999999998
 40
0.9687499999999999
 40
0.9687499999999999
 40
1.0
 40
1.0
 40
1.0
 40
1.0
 10
88.19999999999999
 20
-18.07732355886769
 30
0.0
 10
86.61693011103412
 20
-17.78846414790905
 30
0.0
 10
85.0210100953521
 20
-17.43585042504062
 30
0.0
 10
81.85306561836126
 20
-16.61400337662926
 30
0.0
 10
80.25898013567121
 20
-16.14292230132751
 30
0.0
 10
77.88176616289513
 20
-15.35620573866447
 30
0.0
 10
77.08903468311064
 20
-15.0803886667549
 30
0.0
 10
75.49950964431187
 20
-14.50256068404717
 30
0.0
 10
74.70418224849251
 20
-14.20071123338623
 30
0.0
 10
73.11860124494547
 20
-13.57355886186098
 30
0.0
 10
72.32661918129719
 20
-13.24805016384073
 30
0.0
 10
70.73729230918711
 20
-12.57385343930113
 30
0.0
 10
69.94183707776767
 20
-12.22541299224295
 30
0.0
 10
68.35554988071318
 20
-11.50860876609807
 30
0.0
 10
67.5641453933001
 20
-11.14018156686905
 30
0.0
 10
65.97508270074403
 20
-10.38365501594233
 30
0.0
 10
65.17953274966266
 20
-9.995870371255279
 30
0.0
 10
63.59260495150026
 20
-9.204309237382278
 30
0.0
 10
62.80160612062677
 20
-8.800616530620188
 30
0.0
 10
61.21287358390813
 20
-7.977513067649295
 30
0.0
 10
60.4172620422684
 20
-7.558451383456378
 30
0.0
 10
58.82975932392749
 20
-6.708590093965743
 30
0.0
 10
58.03899417384675
 20
-6.278007986122989
 30
0.0
 10
56.45065772354148
 20
-5.405465683263524
 30
0.0
 10
55.65501772900874
 20
-4.963846221300766
 30
0.0
 10
54.06700585090881
 20
-4.073360297601656
 30
0.0
 10
53.27630237358228
 20
-3.624816644452119
 30
0.0
 10
51.68842788544666
 20
-2.721000997967437
 30
0.0
 10
50.89279257964176
 20
-2.266013239069052
 30
0.0
 10
49.30433737262965
 20
-1.35342840106049
 30
0.0
 10
48.51352355149603
 20
-0.8962202899408657
 30
0.0
 10
46.92617683737027
 20
0.0200549215096206
 30
0.0
 10
46.13057936126225
 20
0.4789429875409118
 30
0.0
 10
44.5417467175288
 20
1.394637223248353
 30
0.0
 10
43.75065055127541
 20
1.851033470587446
 30
0.0
 10
42.16389735000599
 20
2.760698803893351
 30
0.0
 10
41.36837083930482
 20
3.213938205094085
 30
0.0
 10
39.77922670328378
 20
4.11368467929871
 30
0.0
 10
38.98767622961362
 20
4.559807159278473
 30
0.0
 10
37.40158219799663
 20
5.443935388419797
 30
0.0
 10
36.60615977854767
 20
5.882095383454344
 30
0.0
 10
35.01677013779945
 20
6.747166916767073
 30
0.0
 10
34.22459345718684
 20
7.173761554641342
 30
0.0
 10
32.63922416093527
 20
8.013962494488872
 30
0.0
 10
31.8439389441164
 20
8.427927305532942
 30
0.0
 10
30.25436982019926
 20
9.240317473185996
 30
0.0
 10
29.46139511962725
 20
9.638527298086506
 30
0.0
 10
27.87681602436458
 20
10.41733131483941
 30
0.0
 10
27.08170110248775
 20
10.79849026679229
 30
0.0
 10
24.69717726148471
 20
11.91268859528646
 30
0.0
 10
23.11430399013788
 20
12.61561137127729
 30
0.0
 10
19.93484411955858
 20
13.93110550930448
 30
0.0
 10
18.35200109692948
 20
14.54177792982075
 30
0.0
 10
15.9674342351036
 20
15.38028799633364
 30
0.0
 10
15.17240353435076
 20
15.6466736460252
 30
0.0
 10
13.58818782081023
 20
16.15122447836112
 30
0.0
 10
12.79481324051872
 20
16.38984691752545
 30
0.0
 10
11.99999999999809
 20
16.61416462115054
 30
0.0
  0
SPLINE
  5
9D
330
1F
100
AcDbEntity
  8
0
  6
Continuous
 62
     1
370
    15
100
AcDbSpline
210
0.0
220
0.0
230
1.0
 70
     8
 71
     3
 72
    20
 73
    16
 74
     0
 42
0.000000001
 43
0.00000001
 40
0.0
 40
0.0
 40
0.0
 40
0.0
 40
0.0802688790943852
 40
0.1605033364734637
 40
0.2407257797061424
 40
0.3209586661673269
 40
0.4012244099360805
 40
0.4814962557576559
 40
0.5617323938115062
 40
0.6419549470451138
 40
0.7221863723771819
 40
0.8024490899425578
 40
0.8827234561719924
 40
0.9629613846233676
 40
1.0
 40
1.0
 40
1.0
 40
1.0
 10
88.19999999999999
 20
-15.02992163621452
 30
0.0
 10
86.87869621856598
 20
-14.76785063945965
 30
0.0
 10
84.23665527059416
 20
-14.24382102989427
 30
0.0
 10
80.27444051435324
 20
-13.19435949101061
 30
0.0
 10
76.31287059874913
 20
-11.97045690252584
 30
0.0
 10
72.35073980540054
 20
-10.56984244286312
 30
0.0
 10
68.38746691925547
 20
-9.018280386946369
 30
0.0
 10
64.424055866438
 20
-7.336658599753915
 30
0.0
 10
60.46175484795242
 20
-5.54904165400584
 30
0.0
 10
56.50017873226465
 20
-3.681574617272829
 30
0.0
 10
52.53812620134116
 20
-1.761233975963539
 30
0.0
 10
48.57492599050787
 20
0.1853677135082353
 30
0.0
 10
44.61145950168234
 20
2.125046806953578
 30
0.0
 10
41.35986149493349
 20
3.704281067805109
 30
0.0
 10
39.42957324585603
 20
4.601343056387754
 30
0.0
 10
38.81994405923484
 20
4.884655753706301
 30
0.0
  0
LINE
  5
9E
330
1F
100
AcDbEntity
  8
0
  6
Continuous
 62
     1
370
    15
100
AcDbLine
 10
88.19999999999999
 20
-18.0773235588677
 30
0.0
 11
88.19999999999999
 21
-15.02992163621452
 31
0.0
  0
SPLINE
  5
9F
330
1F
100
AcDbEntity
  8
0
  6
Continuous
 62
     1
370
    15
100
AcDbSpline
210
0.0
220
0.0
230
1.0
 70
     8
 71
     3
 72
    62
 73
    58
 74
     0
 42
0.000000001
 43
0.00000001
 40
0.0
 40
0.0
 40
0.0
 40
0.0
 40
0.0624999999999999
 40
0.0624999999999999
 40
0.1249999999999998
 40
0.1249999999999998
 40
0.1562499999999998
 40
0.1562499999999998
 40
0.1874999999999998
 40
0.1874999999999998
 40
0.2187499999999997
 40
0.2187499999999997
 40
0.2499999999999997
 40
0.2499999999999997
 40
0.2812499999999996
 40
0.2812499999999996
 40
0.3124999999999996
 40
0.3124999999999996
 40
0.3437499999999996
 40
0.3437499999999996
 40
0.3749999999999995
 40
0.3749999999999995
 40
0.4062499999999994
 40
0.4062499999999994
 40
0.4374999999999994
 40
0.4374999999999994
 40
0.4687499999999994
 40
0.4687499999999994
 40
0.4999999999999993
 40
0.4999999999999993
 40
0.5312499999999993
 40
0.5312499999999993
 40
0.5624999999999992
 40
0.5624999999999992
 40
0.5937499999999992
 40
0.5937499999999992
 40
0.6249999999999992
 40
0.6249999999999992
 40
0.6562499999999993
 40
0.6562499999999993
 40
0.6874999999999994
 40
0.6874999999999994
 40
0.7187499999999994
 40
0.7187499999999994
 40
0.7499999999999996
 40
0.7499999999999996
 40
0.7812499999999997
 40
0.7812499999999997
 40
0.8124999999999997
 40
0.8124999999999997
 40
0.8749999999999998
 40
0.8749999999999998
 40
0.9375
 40
0.9375
 40
0.96875
 40
0.96875
 40
1.0
 40
1.0
 40
1.0
 40
1.0
 10
88.19999999999999
 20
-19.04999999999998
 30
0.0
 10
86.61693011103415
 20
-18.99625923778397
 30
0.0
 10
85.02101009535212
 20
-18.89220709969342
 30
0.0
 10
81.85306561836146
 20
-18.55443781861947
 30
0.0
 10
80.25898013567141
 20
-18.31999201811555
 30
0.0
 10
77.88176616289542
 20
-17.87500061754797
 30
0.0
 10
77.08903468311087
 20
-17.71102256807669
 30
0.0
 10
75.49950964431218
 20
-17.35229854828642
 30
0.0
 10
74.70418224849288
 20
-17.15764306062536
 30
0.0
 10
73.11860124494589
 20
-16.73933852718566
 30
0.0
 10
72.32661918129759
 20
-16.51556453842985
 30
0.0
 10
70.73729230918752
 20
-16.03921419878109
 30
0.0
 10
69.94183707776813
 20
-15.78680130744203
 30
0.0
 10
68.35554988071368
 20
-15.25552304981317
 30
0.0
 10
67.56414539330062
 20
-14.97662369985848
 30
0.0
 10
65.9750827007446
 20
-14.39257088238372
 30
0.0
 10
65.17953274966322
 20
-14.08764802346367
 30
0.0
 10
63.5926049515009
 20
-13.45442289759213
 30
0.0
 10
62.80160612062742
 20
-13.12620088000931
 30
0.0
 10
61.2128735839088
 20
-12.44661253569281
 30
0.0
 10
60.4172620422691
 20
-12.09552168958925
 30
0.0
 10
58.82975932392822
 20
-11.37350404003327
 30
0.0
 10
58.0389941738475
 20
-11.00277510532927
 30
0.0
 10
56.45065772354227
 20
-10.24180720528339
 30
0.0
 10
55.65501772900955
 20
-9.851852649638575
 30
0.0
 10
54.06700585090966
 20
-9.056050315941295
 30
0.0
 10
53.27630237358316
 20
-8.650503710718464
 30
0.0
 10
51.68842788544758
 20
-7.824005642368128
 30
0.0
 10
50.89279257964267
 20
-7.403301598555434
 30
0.0
 10
49.30433737263063
 20
-6.550263140967744
 30
0.0
 10
48.51352355149702
 20
-6.118304359786328
 30
0.0
 10
46.92617683737129
 20
-5.243487995056743
 30
0.0
 10
46.1305793612633
 20
-4.800789353603143
 30
0.0
 10
44.54174671752988
 20
-3.90825903250024
 30
0.0
 10
43.75065055127653
 20
-3.458838049734337
 30
0.0
 10
42.16389735000715
 20
-2.55391841099299
 30
0.0
 10
41.36837083930599
 20
-2.098438075644661
 30
0.0
 10
39.779226703285
 20
-1.18498579532142
 30
0.0
 10
38.98767622961486
 20
-0.7274142338928771
 30
0.0
 10
37.40158219799791
 20
0.1887707231020796
 30
0.0
 10
36.60615977854896
 20
0.6475540528334166
 30
0.0
 10
35.0167701378008
 20
1.562920099998177
 30
0.0
 10
34.22459345718819
 20
2.019159184896459
 30
0.0
 10
32.63922416093666
 20
2.927541715971548
 30
0.0
 10
31.84393894411779
 20
3.380081303873174
 30
0.0
 10
30.25436982020069
 20
4.278311193668442
 30
0.0
 10
29.46139511962869
 20
4.723757089230684
 30
0.0
 10
27.87681602436608
 20
5.605437510609045
 30
0.0
 10
27.08170110248926
 20
6.042317748717801
 30
0.0
 10
24.6971772614863
 20
7.335917059214824
 30
0.0
 10
23.11430399013949
 20
8.174588398174974
 30
0.0
 10
19.93484411956029
 20
9.791829978396695
 30
0.0
 10
18.35200109693121
 20
10.56806538323934
 30
0.0
 10
15.96743423510539
 20
11.67508627383003
 30
0.0
 10
15.17240353435258
 20
12.03428329329244
 30
0.0
 10
13.58818782081209
 20
12.73032639950269
 30
0.0
 10
12.7948132405206
 20
13.06779569782243
 30
0.0
 10
11.99999999999998
 20
13.39382086815822
 30
0.0
  0
SPLINE
  5
A0
330
1F
100
AcDbEntity
  8
0
  6
Continuous
 62
     1
370
    15
100
AcDbSpline
210
0.0
220
0.0
230
1.0
 70
     8
 71
     3
 72
    15
 73
    11
 74
     0
 42
0.000000001
 43
0.00000001
 40
0.0
 40
0.0
 40
0.0
 40
0.0
 40
0.008276810052756
 40
0.1454056543623554
 40
0.28254749031372
 40
0.4197422271222889
 40
0.5648548663500215
 40
0.7099256869736349
 40
0.8549680911971637
 40
0.9999999999999999
 40
0.9999999999999999
 40
0.9999999999999999
 40
0.9999999999999999
 10
40.88790282293881
 20
-1.81921677474613
 30
0.0
 10
40.80820380931359
 20
-1.787616941727056
 30
0.0
 10
39.40806448578897
 20
-1.232476208933555
 30
0.0
 10
36.68745638283134
 20
-0.1259093512136775
 30
0.0
 10
32.72543662584715
 20
1.473620319464816
 30
0.0
 10
28.68635879034739
 20
3.085574426068903
 30
0.0
 10
24.57076503964766
 20
4.680509524426502
 30
0.0
 10
20.37981258889092
 20
6.227272003749874
 30
0.0
 10
16.18970373761446
 20
7.683901143182916
 30
0.0
 10
13.39653422520612
 20
8.546621349414037
 30
0.0
 10
12.00000000000001
 20
8.977965845129876
 30
0.0
  0
SPLINE
  5
A1
330
1F
100
AcDbEntity
  8
외형선
  6
Continuous
370
    15
100
AcDbSpline
210
0.0
220
0.0
230
1.0
 70
    24
 71
     3
 72
    14
 73
    10
 74
     0
 42
0.000000001
 43
0.00000001
 40
0.0
 40
0.0
 40
0.0
 40
0.0
 40
0.25
 40
0.25
 40
0.5
 40
0.5
 40
0.75
 40
0.75
 40
1.0
 40
1.0
 40
1.0
 40
1.0
 10
12.0
 20
13.39382086815821
 30
0.0
 10
12.0
 20
13.16290731940414
 30
0.0
 10
12.0
 20
12.88657858676684
 30
0.0
 10
12.0
 20
12.25510653124368
 30
0.0
 10
12.0
 20
11.90006331731039
 30
0.0
 10
12.0
 20
11.13262323521058
 30
0.0
 10
12.0
 20
10.72039310477554
 30
0.0
 10
12.0
 20
9.865304616022632
 30
0.0
 10
12.0
 20
9.422613555985345
 30
0.0
 10
12.0
 20
8.977965845129884
 30
0.0
  0
LINE
  5
A2
330
1F
100
AcDbEntity
  8
외형선
  6
Continuous
370
    15
100
AcDbLine
 10
12.0
 20
13.39382086815821
 30
0.0
 11
12.0
 21
16.61416462114322
 31
0.0
  0
LINE
  5
A3
330
1F
100
AcDbEntity
  8
0
  6
Continuous
 62
     1
370
    15
100
AcDbLine
 10
88.19999999999999
 20
-19.04999999999999
 30
0.0
 11
88.19999999999999
 21
-18.0773235588677
 31
0.0
  0
SPLINE
  5
A4
330
1F
100
AcDbEntity
  8
0
  6
Continuous
 62
     1
370
    15
100
AcDbSpline
210
0.0
220
0.0
230
1.0
 70
     8
 71
     3
 72
    22
 73
    18
 74
     0
 42
0.000000001
 43
0.00000001
 40
0.0
 40
0.0
 40
0.0
 40
0.0
 40
0.0712242931945766
 40
0.1424176163681058
 40
0.2136001299889991
 40
0.2847920395579909
 40
0.3560135114304767
 40
0.4272404742093488
 40
0.4984353097670591
 40
0.5696179223883212
 40
0.640808517161274
 40
0.7120272659173619
 40
0.7832564965993679
 40
0.8544529432900341
 40
0.9256357539100128
 40
0.9968251327222656
 40
0.9999999999999999
 40
0.9999999999999999
 40
0.9999999999999999
 40
0.9999999999999999
 10
88.19999999999999
 20
0.0000000000000065
 30
0.0
 10
86.87869746578974
 20
0.6100989600754447
 30
0.0
 10
84.23666693121797
 20
1.830031594650474
 30
0.0
 10
80.27444010489279
 20
3.634055447186009
 30
0.0
 10
76.31286147618317
 20
5.385557718812017
 30
0.0
 10
72.35071909676603
 20
7.059617055231633
 30
0.0
 10
68.38745421315227
 20
8.631741240372586
 30
0.0
 10
64.42405836816695
 20
10.0794441505254
 30
0.0
 10
60.46174490875879
 20
11.38228048574091
 30
0.0
 10
56.50016011939272
 20
12.52104075231793
 30
0.0
 10
52.5380962712533
 20
13.47937525642392
 30
0.0
 10
48.57490134697365
 20
14.24391337365997
 30
0.0
 10
44.6114506995611
 20
14.80143967647285
 30
0.0
 10
40.64905749645859
 20
15.15254917289656
 30
0.0
 10
36.68744007674316
 20
15.26047877038042
 30
0.0
 10
33.98764356666935
 20
15.24742782761114
 30
0.0
 10
32.60812951277784
 20
15.13790743864779
 30
0.0
 10
32.54923327891332
 20
15.1332316338431
 30
0.0
  0
SPLINE
  5
A5
330
1F
100
AcDbEntity
  8
0
  6
Continuous
 62
     1
370
    15
100
AcDbSpline
210
0.0
220
0.0
230
1.0
 70
    24
 71
     3
 72
     8
 73
     4
 74
     0
 42
0.000000001
 43
0.00000001
 40
0.0
 40
0.0
 40
0.0
 40
0.0
 40
1.0
 40
1.0
 40
1.0
 40
1.0
 10
88.19999999999999
 20
-1.552895695127817
 30
0.0
 10
88.19999999999999
 20
-1.034735970232335
 30
0.0
 10
88.19999999999999
 20
-0.5163603393624062
 30
0.0
 10
88.19999999999999
 20
0.0000000000000065
 30
0.0
  0
SPLINE
  5
A6
330
1F
100
AcDbEntity
  8
0
  6
Continuous
 62
     1
370
    15
100
AcDbSpline
210
0.0
220
0.0
230
1.0
 70
     8
 71
     3
 72
     8
 73
     4
 74
     0
 42
0.000000001
 43
0.00000001
 40
0.0
 40
0.0
 40
0.0
 40
0.0
 40
1.0
 40
1.0
 40
1.0
 40
1.0
 10
88.19999999999999
 20
-1.55289569511421
 30
0.0
 10
87.9629888368712
 20
-2.532228871142164
 30
0.0
 10
87.65453239898417
 20
-3.467935607028092
 30
0.0
 10
87.29060149301498
 20
-4.369768114430929
 30
0.0
  0
SPLINE
  5
A7
330
1F
100
AcDbEntity
  8
0
  6
Continuous
 62
     1
370
    15
100
AcDbSpline
210
0.0
220
0.0
230
1.0
 70
     8
 71
     3
 72
     8
 73
     4
 74
     0
 42
0.000000001
 43
0.00000001
 40
0.0
 40
0.0
 40
0.0
 40
0.0
 40
1.0
 40
1.0
 40
1.0
 40
1.0
 10
88.19999999999999
 20
-5.090978121864729
 30
0.0
 10
87.89631922057399
 20
-4.852235721554337
 30
0.0
 10
87.59318816052414
 20
-4.611827003481396
 30
0.0
 10
87.29060149301495
 20
-4.369768114430917
 30
0.0
  0
SPLINE
  5
A8
330
1F
100
AcDbEntity
  8
0
  6
Continuous
 62
     1
370
    15
100
AcDbSpline
210
0.0
220
0.0
230
1.0
 70
    24
 71
     3
 72
    14
 73
    10
 74
     0
 42
0.000000001
 43
0.00000001
 40
0.0
 40
0.0
 40
0.0
 40
0.0
 40
0.25
 40
0.25
 40
0.5
 40
0.5
 40
0.75
 40
0.75
 40
1.0
 40
1.0
 40
1.0
 40
1.0
 10
88.19999999999999
 20
-15.02992163621452
 30
0.0
 10
88.19999999999999
 20
-14.4538412983685
 30
0.0
 10
88.20000000000002
 20
-13.80325256384739
 30
0.0
 10
88.19999999999996
 20
-12.36422548531383
 30
0.0
 10
88.19999999999999
 20
-11.57581351426879
 30
0.0
 10
88.19999999999999
 20
-9.883517005969896
 30
0.0
 10
88.20000000000002
 20
-8.979726836109007
 30
0.0
 10
88.20000000000005
 20
-7.088517908366709
 30
0.0
 10
88.20000000000002
 20
-6.101242455996394
 30
0.0
 10
88.20000000000002
 20
-5.090978121865338
 30
0.0
  0
SPLINE
  5
A9
330
1F
100
AcDbEntity
  8
0
  6
Continuous
 62
     1
370
    15
100
AcDbSpline
210
0.0
220
0.0
230
1.0
 70
    24
 71
     3
 72
    10
 73
     6
 74
     0
 42
0.000000001
 43
0.00000001
 40
0.0
 40
0.0
 40
0.0
 40
0.0
 40
0.4999999999999999
 40
0.4999999999999999
 40
1.0
 40
1.0
 40
1.0
 40
1.0
 10
83.19999999999999
 20
7.736872478995688
 30
0.0
 10
83.19999999999999
 20
8.6117366770612
 30
0.0
 10
83.20000000000005
 20
9.404063859155867
 30
0.0
 10
83.19999999999999
 20
10.77840933395848
 30
0.0
 10
83.19999999999999
 20
11.3602299400137
 30
0.0
 10
83.19999999999999
 20
11.82493140031234
 30
0.0
  0
SPLINE
  5
AA
330
1F
100
AcDbEntity
  8
0
  6
Continuous
 62
     1
370
    15
100
AcDbSpline
210
0.0
220
0.0
230
1.0
 70
     8
 71
     3
 72
     9
 73
     5
 74
     0
 42
0.000000001
 43
0.00000001
 40
0.0
 40
0.0
 40
0.0
 40
0.0
 40
0.5596114771287697
 40
1.0
 40
1.0
 40
1.0
 40
1.0
 10
88.19999999999999
 20
13.335
 30
0.0
 10
86.87869870614574
 20
13.32077484518272
 30
0.0
 10
84.51759399715453
 20
13.29535514705527
 30
0.0
 10
82.15665250870535
 20
13.09944749811106
 30
0.0
 10
81.11692097402181
 20
13.01317201797335
 30
0.0
  0
SPLINE
  5
AB
330
1F
100
AcDbEntity
  8
0
  6
Continuous
 62
     1
370
    15
100
AcDbSpline
210
0.0
220
0.0
230
1.0
 70
     8
 71
     3
 72
     8
 73
     4
 74
     0
 42
0.000000001
 43
0.00000001
 40
0.0
 40
0.0
 40
0.0
 40
0.0
 40
1.0
 40
1.0
 40
1.0
 40
1.0
 10
88.19999999999999
 20
13.335
 30
0.0
 10
86.524608037331
 20
12.88087558296492
 30
0.0
 10
84.85779836926469
 20
12.37832625699699
 30
0.0
 10
83.19999999999999
 20
11.82493140031277
 30
0.0
  0
SPLINE
  5
AC
330
1F
100
AcDbEntity
  8
0
  6
Continuous
 62
     1
370
    15
100
AcDbSpline
210
0.0
220
0.0
230
1.0
 70
    24
 71
     3
 72
     8
 73
     4
 74
     0
 42
0.000000001
 43
0.00000001
 40
0.0
 40
0.0
 40
0.0
 40
0.0
 40
1.0
 40
1.0
 40
1.0
 40
1.0
 10
88.19999999999999
 20
0.0000000000000086
 30
0.0
 10
88.19999999999999
 20
0.2105471666334428
 30
0.0
 10
88.19999999999999
 20
0.4207411103080805
 30
0.0
 10
88.19999999999999
 20
0.6303976771146698
 30
0.0
  0
SPLINE
  5
AD
330
1F
100
AcDbEntity
  8
0
  6
Continuous
 62
     1
370
    15
100
AcDbSpline
210
0.0
220
0.0
230
1.0
 70
     8
 71
     3
 72
    14
 73
    10
 74
     0
 42
0.000000001
 43
0.00000001
 40
0.0
 40
0.0
 40
0.0
 40
0.0
 40
0.4999999999999999
 40
0.4999999999999999
 40
0.6249999999999994
 40
0.6249999999999994
 40
0.749999999999999
 40
0.749999999999999
 40
1.0
 40
1.0
 40
1.0
 40
1.0
 10
83.19999999999999
 20
7.7368724789956
 30
0.0
 10
84.23746429987514
 20
6.82366819622898
 30
0.0
 10
85.18699739793243
 20
5.786264797495662
 30
0.0
 10
86.2447705627657
 20
4.30710121197651
 30
0.0
 10
86.44978612613448
 20
4.002032334709756
 30
0.0
 10
86.8458759820077
 20
3.372203122752743
 30
0.0
 10
87.03718956941492
 20
3.046879165154472
 30
0.0
 10
87.58265871848062
 20
2.050711573763102
 30
0.0
 10
87.91055739675011
 20
1.356659252005155
 30
0.0
 10
88.19999999999999
 20
0.6303976771146168
 30
0.0
  0
LINE
  5
AE
330
1F
100
AcDbEntity
  8
0
  6
Continuous
 62
     1
370
    15
100
AcDbLine
 10
88.19999999999999
 20
-1.584765613823108
 30
0.0
 11
88.19999999999999
 21
-5.090978121864731
 31
0.0
  0
SPLINE
  5
AF
330
1F
100
AcDbEntity
  8
0
  6
Continuous
 62
     1
370
    15
100
AcDbSpline
210
0.0
220
0.0
230
1.0
 70
     8
 71
     3
 72
    16
 73
    12
 74
     0
 42
0.000000001
 43
0.00000001
 40
0.0
 40
0.0
 40
0.0
 40
0.0
 40
0.0902117357875383
 40
0.2007488702209959
 40
0.3112648337639275
 40
0.4217909948544352
 40
0.5323586794421342
 40
0.6493068399440151
 40
0.7662221756521302
 40
0.8831152068143113
 40
1.0
 40
1.0
 40
1.0
 40
1.0
 10
47.8446578969869
 20
-14.3121380828313
 30
0.0
 10
46.76672699554653
 20
-14.47479724446287
 30
0.0
 10
44.36799906118895
 20
-14.83676392921369
 30
0.0
 10
40.64905317016391
 20
-15.14463471963193
 30
0.0
 10
36.68745604453322
 20
-15.27697044155081
 30
0.0
 10
32.72546609407041
 20
-15.18325816686306
 30
0.0
 10
28.68637856238837
 20
-14.8662628963049
 30
0.0
 10
24.57075023056631
 20
-14.31494431219796
 30
0.0
 10
20.37980554009543
 20
-13.51935634388096
 30
0.0
 10
16.18970130833445
 20
-12.51903994639696
 30
0.0
 10
13.3965342937863
 20
-11.68533634519977
 30
0.0
 10
12.0
 20
-11.26849923382735
 30
0.0
  0
SPLINE
  5
B0
330
1F
100
AcDbEntity
  8
외형선
  6
Continuous
370
    15
100
AcDbSpline
210
0.0
220
0.0
230
1.0
 70
    24
 71
     3
 72
    14
 73
    10
 74
     0
 42
0.000000001
 43
0.00000001
 40
0.0
 40
0.0
 40
0.0
 40
0.0
 40
0.25
 40
0.25
 40
0.5
 40
0.5
 40
0.75
 40
0.75
 40
1.0
 40
1.0
 40
1.0
 40
1.0
 10
12.0
 20
8.977965845129882
 30
0.0
 10
12.0
 20
7.516920128833238
 30
0.0
 10
12.0
 20
5.905446397989031
 30
0.0
 10
12.0
 20
2.499099780017001
 30
0.0
 10
12.0
 20
0.7055262201312301
 30
0.0
 10
12.0
 20
-2.892854352463006
 30
0.0
 10
12.0
 20
-4.695743997560507
 30
0.0
 10
12.0
 20
-8.137587910276563
 30
0.0
 10
12.0
 20
-9.775192992787254
 30
0.0
 10
12.0
 20
-11.26849923382733
 30
0.0
  0
SPLINE
  5
B1
330
1F
100
AcDbEntity
  8
외형선
  6
Continuous
370
    15
100
AcDbSpline
210
0.0
220
0.0
230
1.0
 70
    24
 71
     3
 72
    15
 73
    11
 74
     0
 42
0.000000001
 43
0.00000001
 40
0.0
 40
0.0
 40
0.0
 40
0.0
 40
0.1213148787706788
 40
0.2428037248067969
 40
0.3641186035774756
 40
0.497600512065212
 40
0.6310824205529484
 40
0.7684422672832938
 40
0.9058021140136392
 40
0.9999999999999999
 40
0.9999999999999999
 40
0.9999999999999999
 40
0.9999999999999999
 10
12.0
 20
-11.26849923382734
 30
0.0
 10
12.0
 20
-11.56685836344046
 30
0.0
 10
12.0
 20
-12.16400447391152
 30
0.0
 10
12.0
 20
-12.93139134470155
 30
0.0
 10
12.0
 20
-13.62202143446355
 30
0.0
 10
12.0
 20
-14.20768232659664
 30
0.0
 10
12.0
 20
-14.68089812674485
 30
0.0
 10
12.0
 20
-15.00734791418543
 30
0.0
 10
12.0
 20
-15.18215310335039
 30
0.0
 10
12.0
 20
-15.18941005955506
 30
0.0
 10
12.0
 20
-15.192362195617
 30
0.0
  0
LINE
  5
B2
330
1F
100
AcDbEntity
  8
0
  6
Continuous
 62
     1
370
    15
100
AcDbLine
 10
88.19999999999999
 20
0.640627398828837
 30
0.0
 11
88.19999999999999
 21
13.33500000000001
 31
0.0
  0
SPLINE
  5
B3
330
1F
100
AcDbEntity
  8
0
  6
Continuous
 62
     1
370
    15
100
AcDbSpline
210
0.0
220
0.0
230
1.0
 70
     8
 71
     3
 72
    15
 73
    11
 74
     0
 42
0.000000001
 43
0.00000001
 40
0.0
 40
0.0
 40
0.0
 40
0.0
 40
0.0076971581283236
 40
0.1508794968315531
 40
0.2940649039347695
 40
0.4373255518285789
 40
0.5780393593974924
 40
0.7186664249008311
 40
0.8592915782614061
 40
0.9999999999999999
 40
0.9999999999999999
 40
0.9999999999999999
 40
0.9999999999999999
 10
61.98155963356847
 20
12.77134697261242
 30
0.0
 10
62.04883221795354
 20
12.80148937349493
 30
0.0
 10
63.3675076970537
 20
13.39233994491714
 30
0.0
 10
65.9372113058875
 20
14.39399690041877
 30
0.0
 10
69.69171680100058
 20
15.73794575350508
 30
0.0
 10
73.42516806335851
 20
16.85306275400925
 30
0.0
 10
77.13636647549038
 20
17.75383056417147
 30
0.0
 10
80.82382149160915
 20
18.42210039816964
 30
0.0
 10
84.51122758137538
 20
18.87771173759761
 30
0.0
 10
86.97016659700563
 20
18.98182646074758
 30
0.0
 10
88.19999999999999
 20
19.05
 30
0.0
  0
SPLINE
  5
B4
330
1F
100
AcDbEntity
  8
0
  6
Continuous
 62
     1
370
    15
100
AcDbSpline
210
0.0
220
0.0
230
1.0
 70
    24
 71
     3
 72
    14
 73
    10
 74
     0
 42
0.000000001
 43
0.00000001
 40
0.0
 40
0.0
 40
0.0
 40
0.0
 40
0.25
 40
0.25
 40
0.5
 40
0.5
 40
0.75
 40
0.75
 40
1.0
 40
1.0
 40
1.0
 40
1.0
 10
88.19999999999999
 20
13.335
 30
0.0
 10
88.19999999999999
 20
13.73916724608966
 30
0.0
 10
88.19999999999999
 20
14.17509742113075
 30
0.0
 10
88.19999999999999
 20
15.09325330177684
 30
0.0
 10
88.20000000000002
 20
15.57538747801501
 30
0.0
 10
88.20000000000002
 20
16.56077437020786
 30
0.0
 10
88.20000000000002
 20
17.06386132050916
 30
0.0
 10
88.20000000000005
 20
18.06200198620702
 30
0.0
 10
88.20000000000002
 20
18.55687409107137
 30
0.0
 10
88.19999999999999
 20
19.05000000000001
 30
0.0
  0
SPLINE
  5
B5
330
1F
100
AcDbEntity
  8
0
  6
Continuous
 62
     1
370
    15
100
AcDbSpline
210
0.0
220
0.0
230
1.0
 70
     8
 71
     3
 72
     9
 73
     5
 74
     0
 42
0.000000001
 43
0.00000001
 40
0.0
 40
0.0
 40
0.0
 40
0.0
 40
0.2725956355942633
 40
1.0
 40
1.0
 40
1.0
 40
1.0
 10
17.06821536567893
 20
-14.97041658131463
 30
0.0
 10
16.60765465132283
 20
-15.14056540131235
 30
0.0
 10
14.91811654352419
 20
-15.76474568074635
 30
0.0
 10
13.22880939364329
 20
-16.25647706565367
 30
0.0
 10
11.9999999999981
 20
-16.61416462115054
 30
0.0
  0
SPLINE
  5
B6
330
1F
100
AcDbEntity
  8
외형선
  6
Continuous
370
    15
100
AcDbSpline
210
0.0
220
0.0
230
1.0
 70
    24
 71
     3
 72
    11
 73
     7
 74
     0
 42
0.000000001
 43
0.00000001
 40
0.0
 40
0.0
 40
0.0
 40
0.0
 40
0.1594542095472438
 40
0.4703139977754357
 40
0.7815345962438354
 40
1.0
 40
1.0
 40
1.0
 40
1.0
 10
12.0
 20
-15.25608203300759
 30
0.0
 10
12.0
 20
-15.33306760429356
 30
0.0
 10
12.0
 20
-15.5601383847097
 30
0.0
 10
12.0
 20
-15.91970641556668
 30
0.0
 10
12.0
 20
-16.29510328589165
 30
0.0
 10
12.0
 20
-16.52099649652099
 30
0.0
 10
12.0
 20
-16.61416462114323
 30
0.0
  0
LINE
  5
B7
330
1F
100
AcDbEntity
  8
중심선
100
AcDbLine
 10
-58.49999999999999
 20
-0.0000000000000063
 30
0.0
 11
95.19999999999999
 21
0.0000000000000106
 31
0.0
  0
LINE
  5
B8
330
1F
100
AcDbEntity
  8
참조1
100
AcDbLine
 10
16.44057883212694
 20
0.0010749287238892
 30
0.0
 11
16.44057883212694
 21
-39.99892507127611
 31
0.0
  0
LINE
  5
B9
330
1F
100
AcDbEntity
  8
참조1
100
AcDbLine
 10
16.44057883212694
 20
-39.99892507127611
 30
0.0
 11
-22.53075298218174
 21
-39.9989250712761
 31
0.0
  0
INSERT
  5
BB
330
1F
100
AcDbEntity
  8
0
  6
Continuous
 62
     7
100
AcDbBlockReference
 66
     1
  2
블럭10
 10
10.7597270678748
 20
-52.04717430164393
 30
0.0
  0
ATTRIB
  5
BC
330
BB
100
AcDbEntity
  8
FORMAT
 62
     2
100
AcDbText
 10
1.578431779133515
 20
-49.97180738881174
 30
0.0
 40
4.233333333333333
  1
E1070982 [ 2 FLUTE ]
 41
0.75
  7
SLDTEXTSTYLE0
 11
1.578431779133515
 21
-52.08847405547841
 31
0.0
100
AcDbAttribute
  2
AUTOATTR0
 70
     0
 74
     1
  0
SEQEND
  5
BD
330
BB
100
AcDbEntity
  8
0
  6
Continuous
 62
     7
  0
HATCH
  5
BE
330
1F
100
AcDbEntity
  8
중심선
100
AcDbHatch
 10
0.0
 20
0.0
 30
0.0
210
0.0
220
0.0
230
1.0
  2
SOLID
 70
     1
 71
     0
 91
        1
 92
        0
 93
        4
 72
     1
 10
16.47463637225563
 20
-35.8
 11
13.02836112841835
 21
-35.8
 72
     1
 10
13.02836112841835
 20
-35.8
 11
10.90013126921432
 21
-38.3363255805726
 72
     1
 10
10.90013126921432
 20
-38.3363255805726
 11
14.34643959816476
 21
-38.33628615127011
 72
     1
 10
14.34643959816476
 20
-38.33628615127011
 11
16.47463637225563
 21
-35.8
 97
        0
 75
     0
 76
     1
 98
        1
 10
8.259421167873064
 20
-0.0010749287238949
  0
HATCH
  5
BF
330
1F
100
AcDbEntity
  8
중심선
100
AcDbHatch
 10
0.0
 20
0.0
 30
0.0
210
0.0
220
0.0
230
1.0
  2
SOLID
 70
     1
 71
     0
 91
        1
 92
        0
 93
        4
 72
     1
 10
21.48740036329161
 20
-35.79999999999998
 11
18.04112511945432
 21
-35.79999999999998
 72
     1
 10
18.04112511945432
 20
-35.79999999999998
 11
13.50998711109691
 21
-41.20000000000002
 72
     1
 10
13.50998711109691
 20
-41.20000000000002
 11
16.95626235493419
 21
-41.20000000000002
 72
     1
 10
16.95626235493419
 20
-41.20000000000002
 11
21.48740036329161
 21
-35.79999999999998
 97
        0
 75
     0
 76
     1
 98
        1
 10
8.259421167873064
 20
-0.0010749287238949
  0
HATCH
  5
C0
330
1F
100
AcDbEntity
  8
중심선
100
AcDbHatch
 10
0.0
 20
0.0
 30
0.0
210
0.0
220
0.0
230
1.0
  2
SOLID
 70
     1
 71
     0
 91
        1
 92
        0
 93
        4
 72
     1
 10
26.50016435432747
 20
-35.8
 11
23.05388911049036
 21
-35.79999999999998
 72
     1
 10
23.05388911049036
 20
-35.79999999999998
 11
16.00545220860111
 21
-44.20000000000002
 72
     1
 10
16.00545220860111
 20
-44.20000000000002
 11
19.45172745243839
 21
-44.20000000000002
 72
     1
 10
19.45172745243839
 20
-44.20000000000002
 11
26.50016435432747
 21
-35.8
 97
        0
 75
     0
 76
     1
 98
        1
 10
8.259421167873064
 20
-0.0010749287238949
  0
HATCH
  5
C1
330
1F
100
AcDbEntity
  8
중심선
100
AcDbHatch
 10
0.0
 20
0.0
 30
0.0
210
0.0
220
0.0
230
1.0
  2
SOLID
 70
     1
 71
     0
 91
        1
 92
        0
 93
        6
 72
     3
 10
31.30005478533968
 20
-40.00000000005127
 11
3.960054785062283
 21
1.540882976769353E-10
 40
0.3939339440162628
 50
17.09539180608436
 51
320.0019657685075
 73
     0
 72
     1
 10
32.98305444104027
 20
-38.58789400463827
 11
35.28835631474131
 21
-36.65356729459038
 72
     3
 10
31.30005478528683
 20
-40.00000000000015
 11
6.600054785286833
 21
-1.278976924368180E-13
 40
0.6363583540795976
 50
39.99873849337412
 51
368.4976242363725
 73
     1
 72
     1
 10
37.72538727718744
 20
-39.03999999993002
 11
29.98012209212278
 21
-39.03999999993
 72
     1
 10
29.98012209212278
 20
-39.03999999993
 11
29.98009704767682
 21
-40.95999999992991
 72
     1
 10
29.98009704767682
 20
-40.95999999992991
 11
34.42147681714886
 21
-40.95999999992988
 97
        0
 75
     0
 76
     1
 98
        1
 10
8.259421167873064
 20
-0.0010749287238949
  0
DIMENSION
  5
D0
330
1F
100
AcDbEntity
  8
0
  6
Continuous
 62
     0
370
    15
100
AcDbDimension
  2
_D_1
 10
12.0
 20
28.9320741959455
 30
0.0
 11
48.91597624900074
 21
28.9320741959455
 31
0.0
 70
   160
  1
<>
 71
     2
 42
76.19999999999999
  3
SLDDIMSTYLE1
100
AcDbAlignedDimension
 13
88.19999999999999
 23
19.05
 33
0.0
 14
12.0
 24
15.87319595521765
 34
0.0
100
AcDbRotatedDimension
1001
ACAD
1000
DSTYLE
1002
{
1070
   171
1070
     6
1070
   273
1070
     7
1002
}
  0
DIMENSION
  5
FA
330
1F
100
AcDbEntity
  8
0
  6
Continuous
 62
     0
370
    15
100
AcDbDimension
  2
_D_3
 10
107.2000000000001
 20
19.05000000000008
 30
0.0
 11
107.2
 21
57.43389923012487
 31
0.0
 70
   160
  1
%%c<>
 71
     2
 42
38.1
 52
-270.0
  3
SLDDIMSTYLE3
100
AcDbAlignedDimension
 13
88.19999999999999
 23
-19.04999999999999
 33
0.0
 14
88.19999999999999
 24
19.05000000000001
 34
0.0
 50
90.0000000000002
100
AcDbRotatedDimension
1001
ACAD
1000
DSTYLE
1002
{
1070
   171
1070
     6
1070
   273
1070
     7
1002
}
  0
LINE
  5
10E
330
1F
100
AcDbEntity
  8
참조1
100
AcDbLine
 10
75.44158764747253
 20
7.441074928723896
 30
0.0
 11
75.44158764747253
 21
-7.438925071276109
 31
0.0
  0
LINE
  5
10F
330
1F
100
AcDbEntity
  8
참조1
100
AcDbLine
 10
88.14158764747253
 20
5.441074928723896
 30
0.0
 11
75.44158764747253
 21
5.441074928723896
 31
0.0
  0
SOLID
  5
110
330
1F
100
AcDbEntity
  8
참조1
100
AcDbTrace
 10
75.44158764747253
 20
5.441074928723896
 30
0.0
 11
81.79158764747253
 21
4.425074928723896
 31
0.0
 12
81.79158764747253
 22
6.457074928723896
 32
0.0
 13
81.79158764747253
 23
6.457074928723896
 33
0.0
  0
LINE
  5
111
330
1F
100
AcDbEntity
  8
참조1
100
AcDbLine
 10
88.14158764747253
 20
-5.438925071276109
 30
0.0
 11
75.44158764747253
 21
-5.438925071276109
 31
0.0
  0
SOLID
  5
112
330
1F
100
AcDbEntity
  8
참조1
100
AcDbTrace
 10
75.44158764747253
 20
-5.438925071276109
 30
0.0
 11
81.79158764747253
 21
-6.454925071276109
 31
0.0
 12
81.79158764747253
 22
-4.422925071276109
 32
0.0
 13
81.79158764747253
 23
-4.422925071276109
 33
0.0
  0
MTEXT
  5
113
330
1F
100
AcDbEntity
  8
참조1
100
AcDbMText
 10
84.82593778009851
 20
11.01136670591222
 30
0.0
 40
3.5
 41
0.0
 71
     1
 72
     1
  1
A
  7
SLDTEXTSTYLE0
 73
     1
 44
1.0
  0
MTEXT
  5
114
330
1F
100
AcDbEntity
  8
참조1
100
AcDbMText
 10
84.82593778009851
 20
0.1313667059122201
 30
0.0
 40
3.5
 41
0.0
 71
     1
 72
     1
  1
A
  7
SLDTEXTSTYLE0
 73
     1
 44
1.0
  0
LINE
  5
212
330
1F
100
AcDbEntity
  8
외형선
  6
Continuous
370
    15
100
AcDbLine
 10
12.0
 20
15.87319595521765
 30
0.0
 11
-13.58732499999996
 21
15.87319595521765
 31
0.0
  0
LINE
  5
213
330
1F
100
AcDbEntity
  8
외형선
  6
Continuous
370
    15
100
AcDbLine
 10
-50.49999999999999
 20
-15.87680404478236
 30
0.0
 11
11.99999999999999
 21
-15.87680404478235
 31
0.0
  0
LINE
  5
215
330
1F
100
AcDbEntity
  8
외형선
  6
Continuous
370
    15
100
AcDbLine
 10
-51.49999999999999
 20
-14.87680404478236
 30
0.0
 11
-50.49999999999999
 21
-15.87680404478236
 31
0.0
  0
LINE
  5
220
330
1F
100
AcDbEntity
  8
외형선
  6
Continuous
370
    15
100
AcDbLine
 10
-50.49999999999999
 20
13.48559595521762
 30
0.0
 11
-50.49999999999999
 21
-15.87680404478237
 31
0.0
  0
LINE
  5
222
330
1F
100
AcDbEntity
  8
외형선
  6
Continuous
370
    15
100
AcDbLine
 10
-51.49999999999999
 20
13.48559595521762
 30
0.0
 11
-51.49999999999999
 21
-14.87680404478237
 31
0.0
  0
CIRCLE
  5
245
330
1F
100
AcDbEntity
  8
해칭선
100
AcDbCircle
 10
0.0
 20
0.0
 30
0.0
 40
2.999999999999995
  0
DIMENSION
  5
246
330
1F
100
AcDbEntity
  8
0
  6
Continuous
 62
     0
370
    15
100
AcDbDimension
  2
*D11
 10
-60.95008564276362
 20
-15.8768040447824
 30
0.0
 11
-60.95008564276367
 21
-0.0018040447823322
 31
0.0
 70
   160
  1
%%c<>
 71
     2
 42
31.75
 52
-270.0
  3
SLDDIMSTYLE1
100
AcDbAlignedDimension
 13
-50.5
 23
15.87319595521764
 33
0.0
 14
-50.49999999999999
 24
-15.87680404478236
 34
0.0
 50
90.0000000000002
100
AcDbRotatedDimension
1001
ACAD
1000
DSTYLE
1002
{
1070
   171
1070
     6
1070
   273
1070
     7
1002
}
  0
DIMENSION
  5
248
330
1F
100
AcDbEntity
  8
0
  6
Continuous
 62
     0
370
    15
100
AcDbDimension
  2
*D13
 10
-51.49999999999999
 20
45.58816181965817
 30
0.0
 11
21.39991435723633
 21
45.58816181965817
 31
0.0
 70
   160
  1
<>
 71
     2
 42
139.7
  3
SLDDIMSTYLE1
100
AcDbAlignedDimension
 13
88.19999999999999
 23
19.05
 33
0.0
 14
-51.49999999999999
 24
14.87319595521763
 34
0.0
 50
0.0000000000000029
100
AcDbRotatedDimension
1001
ACAD
1000
DSTYLE
1002
{
1070
   171
1070
     6
1070
   273
1070
     7
1002
}
  0
INSERT
  5
24A
330
1F
100
AcDbEntity
  8
해칭선
100
AcDbBlockReference
  2
SW_DOWELSYMBOL_0
 10
0.0
 20
0.0
 30
0.0
  0
LINE
  5
312
330
1F
100
AcDbEntity
  8
외형선
  6
Continuous
370
    15
100
AcDbLine
 10
-36.4124000000001
 20
15.87319595521762
 30
0.0
 11
-31.46892500000001
 21
15.87319595521762
 31
0.0
  0
LINE
  5
313
330
1F
100
AcDbEntity
  8
외형선
  6
Continuous
370
    15
100
AcDbLine
 10
-29.08132499999999
 20
13.48559595521762
 30
0.0
 11
-15.97492499999998
 21
13.48559595521762
 31
0.0
  0
LINE
  5
314
330
1F
100
AcDbEntity
  8
외형선
  6
Continuous
370
    15
100
AcDbLine
 10
-15.97492499999998
 20
13.48559595521762
 30
0.0
 11
-13.58732499999996
 21
15.87319595521764
 31
0.0
  0
LINE
  5
315
330
1F
100
AcDbEntity
  8
외형선
  6
Continuous
370
    15
100
AcDbLine
 10
-29.08132499999999
 20
13.48559595521762
 30
0.0
 11
-31.46892500000001
 21
15.87319595521764
 31
0.0
  0
LINE
  5
316
330
1F
100
AcDbEntity
  8
외형선
  6
Continuous
370
    15
100
AcDbLine
 10
-51.5
 20
13.48559595521762
 30
0.0
 11
-38.80000000000001
 21
13.48559595521762
 31
0.0
  0
LINE
  5
317
330
1F
100
AcDbEntity
  8
외형선
  6
Continuous
370
    15
100
AcDbLine
 10
-38.80000000000001
 20
13.48559595521762
 30
0.0
 11
-36.4124000000001
 21
15.87319595521761
 31
0.0
  0
LINE
  5
318
330
1F
100
AcDbEntity
  8
외형선
  6
Continuous
370
    15
100
AcDbLine
 10
-31.46892500000002
 20
15.87319595521764
 30
0.0
 11
-36.41240000000008
 21
15.87319595521764
 31
0.0
  0
ENDSEC
  0
SECTION
  2
OBJECTS
  0
DICTIONARY
  5
C
330
0
100
AcDbDictionary
281
     1
  3
ACAD_GROUP
350
D
  3
ACAD_IMAGE_VARS
350
13F
  3
ACAD_LAYOUT
350
1A
  3
ACAD_MLINESTYLE
350
17
  3
ACAD_PLOTSETTINGS
350
19
  3
ACAD_PLOTSTYLENAME
350
E
  3
ACAD_SCALELIST
350
47
  3
APPDATA
350
13D
  3
DWGPROPS
350
319
  0
DICTIONARY
  5
1DA
330
2
100
AcDbDictionary
280
     1
281
     1
  3
ACAD_LAYERSTATES
360
1DB
  0
DICTIONARY
  5
D
102
{ACAD_REACTORS
330
C
102
}
330
C
100
AcDbDictionary
281
     1
  0
RASTERVARIABLES
  5
13F
102
{ACAD_REACTORS
330
C
102
}
330
C
100
AcDbRasterVariables
 90
        0
 70
     1
 71
     1
 72
     1
  0
DICTIONARY
  5
1A
102
{ACAD_REACTORS
330
C
102
}
330
C
100
AcDbDictionary
281
     1
  3
Layout1
350
1E
  3
Layout2
350
26
  3
Model
350
22
  0
DICTIONARY
  5
17
102
{ACAD_REACTORS
330
C
102
}
330
C
100
AcDbDictionary
281
     1
  3
Standard
350
18
  0
DICTIONARY
  5
19
102
{ACAD_REACTORS
330
C
102
}
330
C
100
AcDbDictionary
281
     1
  0
ACDBDICTIONARYWDFLT
  5
E
102
{ACAD_REACTORS
330
C
102
}
330
C
100
AcDbDictionary
281
     1
  3
Normal
350
F
100
AcDbDictionaryWithDefault
340
F
  0
DICTIONARY
  5
47
102
{ACAD_REACTORS
330
C
102
}
330
C
100
AcDbDictionary
281
     1
  3
A0
350
48
  3
A1
350
49
  3
A2
350
4A
  3
A3
350
4B
  3
A4
350
4C
  3
A5
350
4D
  3
A6
350
4E
  3
A7
350
4F
  3
A8
350
50
  3
A9
350
51
  3
B0
350
52
  3
B1
350
53
  3
B2
350
54
  3
B3
350
55
  3
B4
350
56
  3
B5
350
57
  3
B6
350
58
  3
B7
350
59
  3
B8
350
5A
  3
B9
350
5B
  3
C0
350
5C
  3
C1
350
5D
  3
C2
350
5E
  3
C3
350
5F
  3
C4
350
60
  3
C5
350
61
  3
C6
350
62
  3
C7
350
63
  3
C8
350
64
  3
C9
350
65
  3
D0
350
66
  3
D1
350
67
  3
D2
350
68
  0
DICTIONARY
  5
13D
102
{ACAD_REACTORS
330
C
102
}
330
C
100
AcDbDictionary
281
     1
  0
XRECORD
  5
319
102
{ACAD_REACTORS
330
C
102
}
330
C
100
AcDbXrecord
280
     1
  1
DWGPROPS COOKIE
  2

  3

  4

  6

  7

  8
12016016
  9

300
=
301
=
302
=
303
=
304
=
305
=
306
=
307
=
308
=
309
=
 40
0.0
 41
2458311.197838021
 42
2458318.28792309
  1

 90
        0
  0
DICTIONARY
  5
1DB
102
{ACAD_REACTORS
330
1DA
102
}
330
1DA
100
AcDbDictionary
281
     1
  0
LAYOUT
  5
1E
102
{ACAD_REACTORS
330
1A
102
}
330
1A
100
AcDbPlotSettings
  1

  2
none_device
  4

  6

 40
0.0
 41
0.0
 42
0.0
 43
0.0
 44
0.0
 45
0.0
 46
0.0
 47
0.0
 48
0.0
 49
0.0
140
0.0
141
0.0
142
1.0
143
1.0
 70
   688
 72
     1
 73
     0
 74
     5
  7

 75
    16
147
1.0
148
0.0
149
0.0
100
AcDbLayout
  1
Layout1
 70
     1
 71
     1
 10
0.0
 20
0.0
 11
420.0
 21
297.0
 12
0.0
 22
0.0
 32
0.0
 14
1.000000000000000E+20
 24
1.000000000000000E+20
 34
1.000000000000000E+20
 15
-1.000000000000000E+20
 25
-1.000000000000000E+20
 35
-1.000000000000000E+20
146
0.0
 13
0.0
 23
0.0
 33
0.0
 16
1.0
 26
0.0
 36
0.0
 17
0.0
 27
1.0
 37
0.0
 76
     0
330
1B
  0
LAYOUT
  5
26
102
{ACAD_REACTORS
330
1A
102
}
330
1A
100
AcDbPlotSettings
  1

  2
none_device
  4

  6

 40
0.0
 41
0.0
 42
0.0
 43
0.0
 44
0.0
 45
0.0
 46
0.0
 47
0.0
 48
0.0
 49
0.0
140
0.0
141
0.0
142
1.0
143
1.0
 70
   688
 72
     1
 73
     0
 74
     5
  7

 75
    16
147
1.0
148
0.0
149
0.0
100
AcDbLayout
  1
Layout2
 70
     1
 71
     2
 10
0.0
 20
0.0
 11
0.0
 21
0.0
 12
0.0
 22
0.0
 32
0.0
 14
0.0
 24
0.0
 34
0.0
 15
0.0
 25
0.0
 35
0.0
146
0.0
 13
0.0
 23
0.0
 33
0.0
 16
1.0
 26
0.0
 36
0.0
 17
0.0
 27
1.0
 37
0.0
 76
     0
330
23
  0
LAYOUT
  5
22
102
{ACAD_REACTORS
330
1A
102
}
330
1A
100
AcDbPlotSettings
  1

  2
none_device
  4
ANSI_A_(11.00_x_8.50_Inches)
  6

 40
6.35
 41
19.05
 42
6.35000508
 43
19.05000254
 44
279.4
 45
215.9
 46
103.1580199316263
 47
76.10510568527269
 48
0.0
 49
0.0
140
0.0
141
0.0
142
0.0663760467482972
143
1.0
 70
  1696
 72
     0
 73
     0
 74
     0
  7

 75
     0
147
0.0235690232323232
148
0.0
149
0.0
100
AcDbLayout
  1
Model
 70
     1
 71
     0
 10
0.0
 20
0.0
 11
420.0
 21
297.0
 12
0.0
 22
0.0
 32
0.0
 14
1.000000000000000E+20
 24
1.000000000000000E+20
 34
1.000000000000000E+20
 15
-1.000000000000000E+20
 25
-1.000000000000000E+20
 35
-1.000000000000000E+20
146
0.0
 13
0.0
 23
0.0
 33
0.0
 16
1.0
 26
0.0
 36
0.0
 17
0.0
 27
1.0
 37
0.0
 76
     0
330
1F
331
29
  0
MLINESTYLE
  5
18
102
{ACAD_REACTORS
330
17
102
}
330
17
100
AcDbMlineStyle
  2
Standard
 70
     0
  3

 62
   256
 51
90.0
 52
90.0
 71
     2
 49
0.5
 62
   256
  6
BYLAYER
 49
-0.5
 62
   256
  6
BYLAYER
  0
ACDBPLACEHOLDER
  5
F
102
{ACAD_REACTORS
330
E
102
}
330
E
  0
SCALE
  5
48
102
{ACAD_REACTORS
330
47
102
}
330
47
100
AcDbScale
 70
     0
300
1:1
140
1.0
141
1.0
290
     1
  0
SCALE
  5
49
102
{ACAD_REACTORS
330
47
102
}
330
47
100
AcDbScale
 70
     0
300
1:2
140
1.0
141
2.0
290
     0
  0
SCALE
  5
4A
102
{ACAD_REACTORS
330
47
102
}
330
47
100
AcDbScale
 70
     0
300
1:4
140
1.0
141
4.0
290
     0
  0
SCALE
  5
4B
102
{ACAD_REACTORS
330
47
102
}
330
47
100
AcDbScale
 70
     0
300
1:5
140
1.0
141
5.0
290
     0
  0
SCALE
  5
4C
102
{ACAD_REACTORS
330
47
102
}
330
47
100
AcDbScale
 70
     0
300
1:8
140
1.0
141
8.0
290
     0
  0
SCALE
  5
4D
102
{ACAD_REACTORS
330
47
102
}
330
47
100
AcDbScale
 70
     0
300
1:10
140
1.0
141
10.0
290
     0
  0
SCALE
  5
4E
102
{ACAD_REACTORS
330
47
102
}
330
47
100
AcDbScale
 70
     0
300
1:16
140
1.0
141
16.0
290
     0
  0
SCALE
  5
4F
102
{ACAD_REACTORS
330
47
102
}
330
47
100
AcDbScale
 70
     0
300
1:20
140
1.0
141
20.0
290
     0
  0
SCALE
  5
50
102
{ACAD_REACTORS
330
47
102
}
330
47
100
AcDbScale
 70
     0
300
1:30
140
1.0
141
30.0
290
     0
  0
SCALE
  5
51
102
{ACAD_REACTORS
330
47
102
}
330
47
100
AcDbScale
 70
     0
300
1:40
140
1.0
141
40.0
290
     0
  0
SCALE
  5
52
102
{ACAD_REACTORS
330
47
102
}
330
47
100
AcDbScale
 70
     0
300
1:50
140
1.0
141
50.0
290
     0
  0
SCALE
  5
53
102
{ACAD_REACTORS
330
47
102
}
330
47
100
AcDbScale
 70
     0
300
1:100
140
1.0
141
100.0
290
     0
  0
SCALE
  5
54
102
{ACAD_REACTORS
330
47
102
}
330
47
100
AcDbScale
 70
     0
300
2:1
140
2.0
141
1.0
290
     0
  0
SCALE
  5
55
102
{ACAD_REACTORS
330
47
102
}
330
47
100
AcDbScale
 70
     0
300
4:1
140
4.0
141
1.0
290
     0
  0
SCALE
  5
56
102
{ACAD_REACTORS
330
47
102
}
330
47
100
AcDbScale
 70
     0
300
8:1
140
8.0
141
1.0
290
     0
  0
SCALE
  5
57
102
{ACAD_REACTORS
330
47
102
}
330
47
100
AcDbScale
 70
     0
300
10:1
140
10.0
141
1.0
290
     0
  0
SCALE
  5
58
102
{ACAD_REACTORS
330
47
102
}
330
47
100
AcDbScale
 70
     0
300
100:1
140
100.0
141
1.0
290
     0
  0
SCALE
  5
59
102
{ACAD_REACTORS
330
47
102
}
330
47
100
AcDbScale
 70
     0
300
1/128" = 1'-0"
140
0.0078125
141
12.0
290
     0
  0
SCALE
  5
5A
102
{ACAD_REACTORS
330
47
102
}
330
47
100
AcDbScale
 70
     0
300
1/64" = 1'-0"
140
0.015625
141
12.0
290
     0
  0
SCALE
  5
5B
102
{ACAD_REACTORS
330
47
102
}
330
47
100
AcDbScale
 70
     0
300
1/32" = 1'-0"
140
0.03125
141
12.0
290
     0
  0
SCALE
  5
5C
102
{ACAD_REACTORS
330
47
102
}
330
47
100
AcDbScale
 70
     0
300
1/16" = 1'-0"
140
0.0625
141
12.0
290
     0
  0
SCALE
  5
5D
102
{ACAD_REACTORS
330
47
102
}
330
47
100
AcDbScale
 70
     0
300
3/32" = 1'-0"
140
0.09375
141
12.0
290
     0
  0
SCALE
  5
5E
102
{ACAD_REACTORS
330
47
102
}
330
47
100
AcDbScale
 70
     0
300
1/8" = 1'-0"
140
0.125
141
12.0
290
     0
  0
SCALE
  5
5F
102
{ACAD_REACTORS
330
47
102
}
330
47
100
AcDbScale
 70
     0
300
3/16" = 1'-0"
140
0.1875
141
12.0
290
     0
  0
SCALE
  5
60
102
{ACAD_REACTORS
330
47
102
}
330
47
100
AcDbScale
 70
     0
300
1/4" = 1'-0"
140
0.25
141
12.0
290
     0
  0
SCALE
  5
61
102
{ACAD_REACTORS
330
47
102
}
330
47
100
AcDbScale
 70
     0
300
3/8" = 1'-0"
140
0.375
141
12.0
290
     0
  0
SCALE
  5
62
102
{ACAD_REACTORS
330
47
102
}
330
47
100
AcDbScale
 70
     0
300
1/2" = 1'-0"
140
0.5
141
12.0
290
     0
  0
SCALE
  5
63
102
{ACAD_REACTORS
330
47
102
}
330
47
100
AcDbScale
 70
     0
300
3/4" = 1'-0"
140
0.75
141
12.0
290
     0
  0
SCALE
  5
64
102
{ACAD_REACTORS
330
47
102
}
330
47
100
AcDbScale
 70
     0
300
1" = 1'-0"
140
1.0
141
12.0
290
     0
  0
SCALE
  5
65
102
{ACAD_REACTORS
330
47
102
}
330
47
100
AcDbScale
 70
     0
300
1-1/2" = 1'-0"
140
1.5
141
12.0
290
     0
  0
SCALE
  5
66
102
{ACAD_REACTORS
330
47
102
}
330
47
100
AcDbScale
 70
     0
300
3" = 1'-0"
140
3.0
141
12.0
290
     0
  0
SCALE
  5
67
102
{ACAD_REACTORS
330
47
102
}
330
47
100
AcDbScale
 70
     0
300
6" = 1'-0"
140
6.0
141
12.0
290
     0
  0
SCALE
  5
68
102
{ACAD_REACTORS
330
47
102
}
330
47
100
AcDbScale
 70
     0
300
1'-0" = 1'-0"
140
12.0
141
12.0
290
     0
  0
ENDSEC
  0
EOF
