  0
SECTION
  2
HEADER
  9
$ACADVER
  1
AC1015
  9
$ACADMAINTVER
 70
     6
  9
$DWGCODEPAGE
  3
ANSI_949
  9
$INSBASE
 10
0.0
 20
0.0
 30
0.0
  9
$EXTMIN
 10
1.000000000000000E+20
 20
1.000000000000000E+20
 30
1.000000000000000E+20
  9
$EXTMAX
 10
-1.000000000000000E+20
 20
-1.000000000000000E+20
 30
-1.000000000000000E+20
  9
$LIMMIN
 10
0.0
 20
0.0
  9
$LIMMAX
 10
420.0
 20
297.0
  9
$ORTHOMODE
 70
     1
  9
$REGENMODE
 70
     1
  9
$FILLMODE
 70
     1
  9
$QTEXTMODE
 70
     0
  9
$MIRRTEXT
 70
     1
  9
$LTSCALE
 40
1.0
  9
$ATTMODE
 70
     1
  9
$TEXTSIZE
 40
3.5
  9
$TRACEWID
 40
1.0
  9
$TEXTSTYLE
  7
Standard
  9
$CLAYER
  8
0
  9
$CELTYPE
  6
ByLayer
  9
$CECOLOR
 62
   256
  9
$CELTSCALE
 40
1.0
  9
$DISPSILH
 70
     0
  9
$DIMSCALE
 40
1.0
  9
$DIMASZ
 40
3.302
  9
$DIMEXO
 40
1.0
  9
$DIMDLI
 40
3.75
  9
$DIMRND
 40
0.0
  9
$DIMDLE
 40
0.0
  9
$DIMEXE
 40
1.0
  9
$DIMTP
 40
0.0
  9
$DIMTM
 40
0.0
  9
$DIMTXT
 40
3.5
  9
$DIMCEN
 40
2.5
  9
$DIMTSZ
 40
0.0
  9
$DIMTOL
 70
     0
  9
$DIMLIM
 70
     0
  9
$DIMTIH
 70
     1
  9
$DIMTOH
 70
     1
  9
$DIMSE1
 70
     0
  9
$DIMSE2
 70
     0
  9
$DIMTAD
 70
     1
  9
$DIMZIN
 70
     0
  9
$DIMBLK
  1

  9
$DIMASO
 70
     1
  9
$DIMSHO
 70
     1
  9
$DIMPOST
  1

  9
$DIMAPOST
  1

  9
$DIMALT
 70
     0
  9
$DIMALTD
 70
     3
  9
$DIMALTF
 40
0.0393700787401575
  9
$DIMLFAC
 40
1.0
  9
$DIMTOFL
 70
     1
  9
$DIMTVP
 40
0.0
  9
$DIMTIX
 70
     0
  9
$DIMSOXD
 70
     0
  9
$DIMSAH
 70
     0
  9
$DIMBLK1
  1

  9
$DIMBLK2
  1

  9
$DIMSTYLE
  2
ISO-25
  9
$DIMCLRD
 70
     0
  9
$DIMCLRE
 70
     0
  9
$DIMCLRT
 70
     0
  9
$DIMTFAC
 40
1.0
  9
$DIMGAP
 40
1.524
  9
$DIMJUST
 70
     0
  9
$DIMSD1
 70
     0
  9
$DIMSD2
 70
     0
  9
$DIMTOLJ
 70
     0
  9
$DIMTZIN
 70
     0
  9
$DIMALTZ
 70
     0
  9
$DIMALTTZ
 70
     0
  9
$DIMUPT
 70
     0
  9
$DIMDEC
 70
     2
  9
$DIMTDEC
 70
     2
  9
$DIMALTU
 70
     2
  9
$DIMALTTD
 70
     3
  9
$DIMTXSTY
  7
Standard
  9
$DIMAUNIT
 70
     0
  9
$DIMADEC
 70
     2
  9
$DIMALTRND
 40
0.0
  9
$DIMAZIN
 70
     0
  9
$DIMDSEP
 70
    44
  9
$DIMATFIT
 70
     3
  9
$DIMFRAC
 70
     0
  9
$DIMLDRBLK
  1

  9
$DIMLUNIT
 70
     2
  9
$DIMLWD
 70
    -2
  9
$DIMLWE
 70
    -2
  9
$DIMTMOVE
 70
     0
  9
$LUNITS
 70
     2
  9
$LUPREC
 70
     2
  9
$SKETCHINC
 40
1.0
  9
$FILLETRAD
 40
10.0
  9
$AUNITS
 70
     0
  9
$AUPREC
 70
     2
  9
$MENU
  1
.
  9
$ELEVATION
 40
0.0
  9
$PELEVATION
 40
0.0
  9
$THICKNESS
 40
0.0
  9
$LIMCHECK
 70
     0
  9
$CHAMFERA
 40
0.0
  9
$CHAMFERB
 40
0.0
  9
$CHAMFERC
 40
0.0
  9
$CHAMFERD
 40
0.0
  9
$SKPOLY
 70
     0
  9
$TDCREATE
 40
2458311.573049989
  9
$TDUCREATE
 40
2458311.198049989
  9
$TDUPDATE
 40
2458318.662630914
  9
$TDUUPDATE
 40
2458318.287630914
  9
$TDINDWG
 40
0.0015942361
  9
$TDUSRTIMER
 40
2458318.287390127
  9
$USRTIMER
 70
     1
  9
$ANGBASE
 50
0.0
  9
$ANGDIR
 70
     0
  9
$PDMODE
 70
     0
  9
$PDSIZE
 40
-1.0
  9
$PLINEWID
 40
0.0
  9
$SPLFRAME
 70
     0
  9
$SPLINETYPE
 70
     6
  9
$SPLINESEGS
 70
     8
  9
$HANDSEED
  5
321
  9
$SURFTAB1
 70
     6
  9
$SURFTAB2
 70
     6
  9
$SURFTYPE
 70
     6
  9
$SURFU
 70
     6
  9
$SURFV
 70
     6
  9
$UCSBASE
  2

  9
$UCSNAME
  2

  9
$UCSORG
 10
0.0
 20
0.0
 30
0.0
  9
$UCSXDIR
 10
1.0
 20
0.0
 30
0.0
  9
$UCSYDIR
 10
0.0
 20
1.0
 30
0.0
  9
$UCSORTHOREF
  2

  9
$UCSORTHOVIEW
 70
     0
  9
$UCSORGTOP
 10
0.0
 20
0.0
 30
0.0
  9
$UCSORGBOTTOM
 10
0.0
 20
0.0
 30
0.0
  9
$UCSORGLEFT
 10
0.0
 20
0.0
 30
0.0
  9
$UCSORGRIGHT
 10
0.0
 20
0.0
 30
0.0
  9
$UCSORGFRONT
 10
0.0
 20
0.0
 30
0.0
  9
$UCSORGBACK
 10
0.0
 20
0.0
 30
0.0
  9
$PUCSBASE
  2

  9
$PUCSNAME
  2

  9
$PUCSORG
 10
0.0
 20
0.0
 30
0.0
  9
$PUCSXDIR
 10
1.0
 20
0.0
 30
0.0
  9
$PUCSYDIR
 10
0.0
 20
1.0
 30
0.0
  9
$PUCSORTHOREF
  2

  9
$PUCSORTHOVIEW
 70
     0
  9
$PUCSORGTOP
 10
0.0
 20
0.0
 30
0.0
  9
$PUCSORGBOTTOM
 10
0.0
 20
0.0
 30
0.0
  9
$PUCSORGLEFT
 10
0.0
 20
0.0
 30
0.0
  9
$PUCSORGRIGHT
 10
0.0
 20
0.0
 30
0.0
  9
$PUCSORGFRONT
 10
0.0
 20
0.0
 30
0.0
  9
$PUCSORGBACK
 10
0.0
 20
0.0
 30
0.0
  9
$USERI1
 70
     0
  9
$USERI2
 70
     0
  9
$USERI3
 70
     0
  9
$USERI4
 70
     0
  9
$USERI5
 70
     0
  9
$USERR1
 40
0.0
  9
$USERR2
 40
0.0
  9
$USERR3
 40
0.0
  9
$USERR4
 40
0.0
  9
$USERR5
 40
0.0
  9
$WORLDVIEW
 70
     1
  9
$SHADEDGE
 70
     3
  9
$SHADEDIF
 70
    70
  9
$TILEMODE
 70
     1
  9
$MAXACTVP
 70
    64
  9
$PINSBASE
 10
0.0
 20
0.0
 30
0.0
  9
$PLIMCHECK
 70
     0
  9
$PEXTMIN
 10
1.000000000000000E+20
 20
1.000000000000000E+20
 30
1.000000000000000E+20
  9
$PEXTMAX
 10
-1.000000000000000E+20
 20
-1.000000000000000E+20
 30
-1.000000000000000E+20
  9
$PLIMMIN
 10
0.0
 20
0.0
  9
$PLIMMAX
 10
0.0
 20
0.0
  9
$UNITMODE
 70
     0
  9
$VISRETAIN
 70
     1
  9
$PLINEGEN
 70
     0
  9
$PSLTSCALE
 70
     1
  9
$TREEDEPTH
 70
  3020
  9
$CMLSTYLE
  2
Standard
  9
$CMLJUST
 70
     0
  9
$CMLSCALE
 40
20.0
  9
$PROXYGRAPHICS
 70
     1
  9
$MEASUREMENT
 70
     1
  9
$CELWEIGHT
370
    -1
  9
$ENDCAPS
280
     0
  9
$JOINSTYLE
280
     0
  9
$LWDISPLAY
290
     1
  9
$INSUNITS
 70
     4
  9
$HYPERLINKBASE
  1

  9
$STYLESHEET
  1

  9
$XEDIT
290
     1
  9
$CEPSNTYPE
380
     0
  9
$PSTYLEMODE
290
     1
  9
$FINGERPRINTGUID
  2
{E022D18B-6881-44A4-AB8F-E1858A43B31A}
  9
$VERSIONGUID
  2
{FAEB1C32-E019-11D5-929B-00C0DF256EC4}
  9
$EXTNAMES
290
     1
  9
$PSVPSCALE
 40
0.0
  9
$OLESTARTUP
290
     0
  0
ENDSEC
  0
SECTION
  2
CLASSES
  0
CLASS
  1
ACDBDICTIONARYWDFLT
  2
AcDbDictionaryWithDefault
  3
ObjectDBX Classes
 90
        0
280
     0
281
     0
  0
CLASS
  1
VISUALSTYLE
  2
AcDbVisualStyle
  3
ObjectDBX Classes
 90
     4095
280
     0
281
     0
  0
CLASS
  1
MATERIAL
  2
AcDbMaterial
  3
ObjectDBX Classes
 90
     1153
280
     0
281
     0
  0
CLASS
  1
SCALE
  2
AcDbScale
  3
ObjectDBX Classes
 90
     1153
280
     0
281
     0
  0
CLASS
  1
SUN
  2
AcDbSun
  3
SCENEOE
 90
     1153
280
     0
281
     0
  0
CLASS
  1
ACDBPLACEHOLDER
  2
AcDbPlaceHolder
  3
ObjectDBX Classes
 90
        0
280
     0
281
     0
  0
CLASS
  1
LAYOUT
  2
AcDbLayout
  3
ObjectDBX Classes
 90
        0
280
     0
281
     0
  0
CLASS
  1
TABLESTYLE
  2
AcDbTableStyle
  3
ObjectDBX Classes
 90
     4095
280
     0
281
     0
  0
CLASS
  1
MLEADERSTYLE
  2
AcDbMLeaderStyle
  3
ACDB_MLEADERSTYLE_CLASS
 90
     4095
280
     0
281
     0
  0
CLASS
  1
RASTERVARIABLES
  2
AcDbRasterVariables
  3
ISM
 90
        0
280
     0
281
     0
  0
CLASS
  1
DIMASSOC
  2
AcDbDimAssoc
  3
"AcDbDimAssoc|Product Desc:     AcDim ARX App For Dimension|Company:          Autodesk, Inc.|WEB Address:      www.autodesk.com"
 90
        0
280
     0
281
     0
  0
ENDSEC
  0
SECTION
  2
TABLES
  0
TABLE
  2
VPORT
  5
8
330
0
100
AcDbSymbolTable
 70
     1
  0
VPORT
  5
29
330
8
100
AcDbSymbolTableRecord
100
AcDbViewportTableRecord
  2
*Active
 70
     0
 10
0.0
 20
0.0
 11
1.0
 21
1.0
 12
-30.72483054724277
 22
-66.73664645992538
 13
0.0
 23
0.0
 14
10.0
 24
10.0
 15
10.0
 25
10.0
 16
0.0
 26
0.0
 36
1.0
 17
0.0
 27
0.0
 37
0.0
 40
203.2870499095528
 41
1.740812379110251
 42
50.0
 43
0.0
 44
0.0
 50
0.0
 51
0.0
 71
    16
 72
  2000
 73
     1
 74
     3
 75
     0
 76
     0
 77
     0
 78
     0
281
     0
 65
     1
110
0.0
120
0.0
130
0.0
111
1.0
121
0.0
131
0.0
112
0.0
122
1.0
132
0.0
 79
     0
146
0.0
  0
ENDTAB
  0
TABLE
  2
LTYPE
  5
5
330
0
100
AcDbSymbolTable
 70
     6
  0
LTYPE
  5
14
330
5
100
AcDbSymbolTableRecord
100
AcDbLinetypeTableRecord
  2
ByBlock
 70
     0
  3

 72
    65
 73
     0
 40
0.0
  0
LTYPE
  5
15
330
5
100
AcDbSymbolTableRecord
100
AcDbLinetypeTableRecord
  2
ByLayer
 70
     0
  3

 72
    65
 73
     0
 40
0.0
  0
LTYPE
  5
16
330
5
100
AcDbSymbolTableRecord
100
AcDbLinetypeTableRecord
  2
Continuous
 70
     0
  3
Solid line
 72
    65
 73
     0
 40
0.0
  0
LTYPE
  5
6A
330
5
100
AcDbSymbolTableRecord
100
AcDbLinetypeTableRecord
  2
HIDDEN
 70
     0
  3
Hidden __ __ __ __ __ __ __ __ __ __ __ __ __ __
 72
    65
 73
     2
 40
1.905
 49
1.27
 74
     0
 49
-0.635
 74
     0
  0
LTYPE
  5
6B
330
5
100
AcDbSymbolTableRecord
100
AcDbLinetypeTableRecord
  2
PHANTOM
 70
     0
  3
Phantom ______  __  __  ______  __  __  ______
 72
    65
 73
     6
 40
12.7
 49
6.35
 74
     0
 49
-1.27
 74
     0
 49
1.27
 74
     0
 49
-1.27
 74
     0
 49
1.27
 74
     0
 49
-1.27
 74
     0
  0
LTYPE
  5
6C
330
5
100
AcDbSymbolTableRecord
100
AcDbLinetypeTableRecord
  2
CENTER
 70
     0
  3
Center ____ _ ____ _ ____ _ ____ _ ____ _ ____
 72
    65
 73
     4
 40
10.16
 49
6.35
 74
     0
 49
-1.27
 74
     0
 49
1.27
 74
     0
 49
-1.27
 74
     0
  0
LTYPE
  5
6D
330
5
100
AcDbSymbolTableRecord
100
AcDbLinetypeTableRecord
  2
CENTERX2
 70
     0
  3
Center (2x) ________  __  ________  __  _____
 72
    65
 73
     4
 40
20.32
 49
12.7
 74
     0
 49
-2.54
 74
     0
 49
2.54
 74
     0
 49
-2.54
 74
     0
  0
LTYPE
  5
6E
330
5
100
AcDbSymbolTableRecord
100
AcDbLinetypeTableRecord
  2
DOT2
 70
     0
  3
Dot (.5x) ........................................
 72
    65
 73
     2
 40
0.635
 49
0.0
 74
     0
 49
-0.635
 74
     0
  0
ENDTAB
  0
TABLE
  2
LAYER
  5
2
102
{ACAD_XDICTIONARY
360
1E8
102
}
330
0
100
AcDbSymbolTable
 70
    18
  0
LAYER
  5
10
330
2
100
AcDbSymbolTableRecord
100
AcDbLayerTableRecord
  2
0
 70
     0
 62
     7
  6
Continuous
370
    -3
390
F
  0
LAYER
  5
6F
330
2
100
AcDbSymbolTableRecord
100
AcDbLayerTableRecord
  2
FORMAT
 70
     0
 62
     2
  6
Continuous
370
    -3
390
F
  0
LAYER
  5
70
330
2
100
AcDbSymbolTableRecord
100
AcDbLayerTableRecord
  2
외형선
 70
     0
 62
     4
  6
Continuous
370
    30
390
F
  0
LAYER
  5
71
330
2
100
AcDbSymbolTableRecord
100
AcDbLayerTableRecord
  2
숨은선
 70
     0
 62
     2
  6
HIDDEN
370
    15
390
F
  0
LAYER
  5
72
330
2
100
AcDbSymbolTableRecord
100
AcDbLayerTableRecord
  2
중심선
 70
     0
 62
     1
  6
CENTERX2
370
    -3
390
F
  0
LAYER
  5
73
330
2
100
AcDbSymbolTableRecord
100
AcDbLayerTableRecord
  2
파단선
 70
     0
 62
     4
  6
Continuous
370
    -3
390
F
  0
LAYER
  5
74
330
2
100
AcDbSymbolTableRecord
100
AcDbLayerTableRecord
  2
해칭선
 70
     0
 62
   100
  6
Continuous
370
    -3
390
F
  0
LAYER
  5
75
330
2
100
AcDbSymbolTableRecord
100
AcDbLayerTableRecord
  2
가는실선
 70
     0
 62
     4
  6
Continuous
370
    -3
390
F
  0
LAYER
  5
76
330
2
100
AcDbSymbolTableRecord
100
AcDbLayerTableRecord
  2
치수_보조선
 70
     0
 62
     4
  6
Continuous
370
    -3
390
F
  0
LAYER
  5
77
330
2
100
AcDbSymbolTableRecord
100
AcDbLayerTableRecord
  2
치수문자_일반주서
 70
     0
 62
     7
  6
Continuous
370
    15
390
F
  0
LAYER
  5
78
330
2
100
AcDbSymbolTableRecord
100
AcDbLayerTableRecord
  2
개별주서
 70
     0
 62
   100
  6
Continuous
370
    30
390
F
  0
LAYER
  5
79
330
2
100
AcDbSymbolTableRecord
100
AcDbLayerTableRecord
  2
중간선
 70
     0
 62
     2
  6
Continuous
370
    15
390
F
  0
LAYER
  5
7A
330
2
100
AcDbSymbolTableRecord
100
AcDbLayerTableRecord
  2
윤곽선
 70
     0
 62
     3
  6
Continuous
370
    40
390
F
  0
LAYER
  5
7B
330
2
100
AcDbSymbolTableRecord
100
AcDbLayerTableRecord
  2
중심마크
 70
     0
 62
   100
  6
Continuous
370
    30
390
F
  0
LAYER
  5
7C
330
2
100
AcDbSymbolTableRecord
100
AcDbLayerTableRecord
  2
가상선
 70
     0
 62
     4
  6
PHANTOM
370
    -3
390
F
  0
LAYER
  5
7D
330
2
100
AcDbSymbolTableRecord
100
AcDbLayerTableRecord
  2
특수지정선
 70
     0
 62
     5
  6
CENTERX2
370
    60
390
F
  0
LAYER
  5
7E
330
2
100
AcDbSymbolTableRecord
100
AcDbLayerTableRecord
  2
참조1
 70
     0
 62
    -4
  6
Continuous
370
    -3
390
F
  0
LAYER
  5
13C
330
2
100
AcDbSymbolTableRecord
100
AcDbLayerTableRecord
  2
Defpoints
 70
     0
 62
     7
  6
Continuous
290
     0
370
    -3
390
F
  0
ENDTAB
  0
TABLE
  2
STYLE
  5
3
330
0
100
AcDbSymbolTable
 70
     2
  0
STYLE
  5
11
330
3
100
AcDbSymbolTableRecord
100
AcDbTextStyleTableRecord
  2
Standard
 70
     0
 40
0.0
 41
1.0
 50
0.0
 71
     0
 42
3.5
  3
txt
  4

  0
STYLE
  5
94
330
3
100
AcDbSymbolTableRecord
100
AcDbTextStyleTableRecord
  2
SLDTEXTSTYLE0
 70
     0
 40
0.0
 41
0.75
 50
0.0
 71
     0
 42
3.5
  3
TXT
  4

  0
ENDTAB
  0
TABLE
  2
VIEW
  5
6
330
0
100
AcDbSymbolTable
 70
     0
  0
ENDTAB
  0
TABLE
  2
UCS
  5
7
330
0
100
AcDbSymbolTable
 70
     0
  0
ENDTAB
  0
TABLE
  2
APPID
  5
9
330
0
100
AcDbSymbolTable
 70
     1
  0
APPID
  5
12
330
9
100
AcDbSymbolTableRecord
100
AcDbRegAppTableRecord
  2
ACAD
 70
     0
  0
ENDTAB
  0
TABLE
  2
DIMSTYLE
  5
A
330
0
100
AcDbSymbolTable
 70
     5
100
AcDbDimStyleTable
  0
DIMSTYLE
105
27
330
A
100
AcDbSymbolTableRecord
100
AcDbDimStyleTableRecord
  2
ISO-25
 70
     0
 41
2.5
 42
0.625
 43
3.75
 44
1.25
 73
     0
 74
     0
 77
     1
 78
     8
140
2.5
141
2.5
143
0.03937007874016
147
0.625
171
     3
172
     1
178
     0
271
     2
272
     2
274
     3
278
    44
283
     0
284
     8
340
11
  0
DIMSTYLE
105
BE
330
A
100
AcDbSymbolTableRecord
100
AcDbDimStyleTableRecord
  2
SLDDIMSTYLE0
 70
     0
 41
3.302
 44
0.0
 45
0.000000001
 73
     0
 74
     0
 77
     1
 78
     4
 79
     1
140
3.5
147
0.875
172
     1
173
     1
178
     0
271
     2
272
     2
276
     2
284
    12
289
     0
340
94
  0
DIMSTYLE
105
CC
102
{ACAD_REACTORS
330
CB
330
236
330
237
330
F5
102
}
330
A
100
AcDbSymbolTableRecord
100
AcDbDimStyleTableRecord
  2
SLDDIMSTYLE1
 70
     0
 41
3.302
 44
0.0
 45
0.000000001
 73
     0
 74
     0
 77
     1
 78
     4
 79
     1
140
3.5
143
0.0393700787401575
147
0.875
148
0.000000001
170
     1
172
     1
173
     1
178
     0
271
     2
272
     2
276
     2
284
    12
289
     0
340
94
  0
DIMSTYLE
105
E2
330
A
100
AcDbSymbolTableRecord
100
AcDbDimStyleTableRecord
  2
SLDDIMSTYLE2
 70
     0
 41
3.302
 44
0.0
 45
0.000000001
 73
     0
 74
     0
 77
     1
 78
     4
 79
     1
140
3.5
143
0.0393700787401575
147
0.875
148
0.000000001
170
     1
173
     1
178
     0
271
     2
272
     2
276
     2
284
    12
340
94
  0
DIMSTYLE
105
F6
102
{ACAD_REACTORS
102
}
330
A
100
AcDbSymbolTableRecord
100
AcDbDimStyleTableRecord
  2
SLDDIMSTYLE3
 70
     0
 41
3.302
 44
0.0
 45
0.000000001
 73
     0
 74
     0
 77
     1
 78
    12
 79
     3
140
3.5
143
0.0393700787401575
147
0.875
148
0.000000001
170
     1
173
     1
178
     0
271
     2
272
     2
276
     2
284
    12
340
94
  0
ENDTAB
  0
TABLE
  2
BLOCK_RECORD
  5
1
330
0
100
AcDbSymbolTable
 70
    20
  0
BLOCK_RECORD
  5
1F
330
1
100
AcDbSymbolTableRecord
100
AcDbBlockTableRecord
  2
*Model_Space
340
22
  0
BLOCK_RECORD
  5
1B
330
1
100
AcDbSymbolTableRecord
100
AcDbBlockTableRecord
  2
*Paper_Space
340
1E
  0
BLOCK_RECORD
  5
23
330
1
100
AcDbSymbolTableRecord
100
AcDbBlockTableRecord
  2
*Paper_Space0
340
26
  0
BLOCK_RECORD
  5
7F
330
1
100
AcDbSymbolTableRecord
100
AcDbBlockTableRecord
  2
블럭10
340
0
102
{BLKREFS
331
B6
102
}
  0
BLOCK_RECORD
  5
BF
330
1
100
AcDbSymbolTableRecord
100
AcDbBlockTableRecord
  2
_D
340
0
  0
BLOCK_RECORD
  5
CD
330
1
100
AcDbSymbolTableRecord
100
AcDbBlockTableRecord
  2
_D_1
340
0
  0
BLOCK_RECORD
  5
E3
330
1
100
AcDbSymbolTableRecord
100
AcDbBlockTableRecord
  2
_D_2
340
0
  0
BLOCK_RECORD
  5
F7
330
1
100
AcDbSymbolTableRecord
100
AcDbBlockTableRecord
  2
_D_3
340
0
  0
BLOCK_RECORD
  5
110
330
1
100
AcDbSymbolTableRecord
100
AcDbBlockTableRecord
  2
SW_DOWELSYMBOL_0
340
0
102
{BLKREFS
331
238
102
}
  0
BLOCK_RECORD
  5
1C6
330
1
100
AcDbSymbolTableRecord
100
AcDbBlockTableRecord
  2
*D7
340
0
  0
BLOCK_RECORD
  5
1D3
330
1
100
AcDbSymbolTableRecord
100
AcDbBlockTableRecord
  2
*D8
340
0
  0
BLOCK_RECORD
  5
1EC
330
1
100
AcDbSymbolTableRecord
100
AcDbBlockTableRecord
  2
*D9
340
0
  0
BLOCK_RECORD
  5
1F8
330
1
100
AcDbSymbolTableRecord
100
AcDbBlockTableRecord
  2
*D10
340
0
  0
BLOCK_RECORD
  5
23B
330
1
100
AcDbSymbolTableRecord
100
AcDbBlockTableRecord
  2
*D11
340
0
  0
BLOCK_RECORD
  5
247
330
1
100
AcDbSymbolTableRecord
100
AcDbBlockTableRecord
  2
*D12
340
0
  0
BLOCK_RECORD
  5
254
330
1
100
AcDbSymbolTableRecord
100
AcDbBlockTableRecord
  2
*D13
340
0
  0
BLOCK_RECORD
  5
260
330
1
100
AcDbSymbolTableRecord
100
AcDbBlockTableRecord
  2
*D14
340
0
  0
BLOCK_RECORD
  5
26F
330
1
100
AcDbSymbolTableRecord
100
AcDbBlockTableRecord
  2
*D15
340
0
  0
BLOCK_RECORD
  5
283
330
1
100
AcDbSymbolTableRecord
100
AcDbBlockTableRecord
  2
*D16
340
0
  0
BLOCK_RECORD
  5
294
330
1
100
AcDbSymbolTableRecord
100
AcDbBlockTableRecord
  2
*D17
340
0
  0
BLOCK_RECORD
  5
2AA
330
1
100
AcDbSymbolTableRecord
100
AcDbBlockTableRecord
  2
*D18
340
0
  0
ENDTAB
  0
ENDSEC
  0
SECTION
  2
BLOCKS
  0
BLOCK
  5
20
330
1F
100
AcDbEntity
  8
0
100
AcDbBlockBegin
  2
*Model_Space
 70
     0
 10
0.0
 20
0.0
 30
0.0
  3
*Model_Space
  1
*Model_Space
  0
ENDBLK
  5
21
330
1F
100
AcDbEntity
  8
0
100
AcDbBlockEnd
  0
BLOCK
  5
1C
330
1B
100
AcDbEntity
 67
     1
  8
0
100
AcDbBlockBegin
  2
*Paper_Space
 70
     0
 10
0.0
 20
0.0
 30
0.0
  3
*Paper_Space
  1
*Paper_Space
  0
ENDBLK
  5
1D
330
1B
100
AcDbEntity
 67
     1
  8
0
100
AcDbBlockEnd
  0
BLOCK
  5
24
330
23
100
AcDbEntity
  8
0
100
AcDbBlockBegin
  2
*Paper_Space0
 70
     0
 10
0.0
 20
0.0
 30
0.0
  3
*Paper_Space0
  1
*Paper_Space0
  0
ENDBLK
  5
25
330
23
100
AcDbEntity
  8
0
100
AcDbBlockEnd
  0
BLOCK
  5
80
330
7F
100
AcDbEntity
  8
0
100
AcDbBlockBegin
  2
블럭10
 70
     2
 10
0.0
 20
0.0
 30
0.0
  3
블럭10
  1
블럭10
  0
ELLIPSE
  5
82
330
7F
100
AcDbEntity
  8
중심선
100
AcDbEllipse
 10
20.54032771741204
 20
12.0471743016438
 30
0.0
 11
6.600054785286829
 21
-1.261213355974178E-13
 31
0.0
210
0.0
220
0.0
230
1.0
 40
0.636358354079598
 41
0.9219305317359503
 42
6.513795318482858
  0
ELLIPSE
  5
83
330
7F
100
AcDbEntity
  8
중심선
100
AcDbEllipse
 10
20.54032771746488
 20
12.04717430159265
 30
0.0
 11
3.960054785062283
 21
1.540847449632565E-10
 31
0.0
210
0.0
220
0.0
230
1.0
 40
0.3939339440162632
 41
1.131841032648279
 42
5.62031148352944
  0
LINE
  5
84
330
7F
100
AcDbEntity
  8
중심선
100
AcDbLine
 10
2.268634060543552
 20
16.24717430164393
 30
0.0
 11
5.714909304380834
 21
16.24717430164393
 31
0.0
  0
LINE
  5
85
330
7F
100
AcDbEntity
  8
중심선
100
AcDbLine
 10
5.245725140726316
 20
7.84717430164391
 30
0.0
 11
8.692000384563599
 21
7.84717430164391
 31
0.0
  0
LINE
  5
86
330
7F
100
AcDbEntity
  8
중심선
100
AcDbLine
 10
15.74043728645272
 20
16.24717430164393
 30
0.0
 11
8.692000384563599
 21
7.84717430164391
 31
0.0
  0
LINE
  5
87
330
7F
100
AcDbEntity
  8
중심선
100
AcDbLine
 10
0.1404042013395286
 20
13.71084872107135
 30
0.0
 11
3.58671253028996
 21
13.71088815037384
 31
0.0
  0
LINE
  5
88
330
7F
100
AcDbEntity
  8
중심선
100
AcDbLine
 10
2.750260043222114
 20
10.84717430164391
 30
0.0
 11
6.196535287059397
 21
10.84717430164391
 31
0.0
  0
LINE
  5
89
330
7F
100
AcDbEntity
  8
중심선
100
AcDbLine
 10
12.29416204261559
 20
16.24717430164393
 30
0.0
 11
5.245725140726316
 21
7.84717430164391
 31
0.0
  0
LINE
  5
8A
330
7F
100
AcDbEntity
  8
중심선
100
AcDbLine
 10
10.72767329541681
 20
16.24717430164393
 30
0.0
 11
6.196535287059397
 21
10.84717430164391
 31
0.0
  0
LINE
  5
8B
330
7F
100
AcDbEntity
  8
중심선
100
AcDbLine
 10
7.28139805157953
 20
16.24717430164393
 30
0.0
 11
2.750260043222114
 21
10.84717430164391
 31
0.0
  0
LINE
  5
8C
330
7F
100
AcDbEntity
  8
중심선
100
AcDbLine
 10
5.714909304380834
 20
16.24717430164393
 30
0.0
 11
3.58671253028996
 21
13.71088815037384
 31
0.0
  0
LINE
  5
8D
330
7F
100
AcDbEntity
  8
중심선
100
AcDbLine
 10
2.268634060543552
 20
16.24717430164393
 30
0.0
 11
0.1404042013395286
 21
13.71084872107135
 31
0.0
  0
LINE
  5
8E
330
7F
100
AcDbEntity
  8
중심선
100
AcDbLine
 10
7.28139805157953
 20
16.24717430164393
 30
0.0
 11
10.72767329541681
 21
16.24717430164393
 31
0.0
  0
LINE
  5
8F
330
7F
100
AcDbEntity
  8
중심선
100
AcDbLine
 10
12.29416204261559
 20
16.24717430164393
 30
0.0
 11
15.74043728645272
 21
16.24717430164393
 31
0.0
  0
LINE
  5
90
330
7F
100
AcDbEntity
  8
중심선
100
AcDbLine
 10
19.22036997980202
 20
11.08717430171403
 30
0.0
 11
23.66174974927406
 21
11.08717430171406
 31
0.0
  0
LINE
  5
91
330
7F
100
AcDbEntity
  8
중심선
100
AcDbLine
 10
19.22039502424796
 20
13.00717430171391
 30
0.0
 11
19.22036997980202
 21
11.08717430171403
 31
0.0
  0
LINE
  5
92
330
7F
100
AcDbEntity
  8
중심선
100
AcDbLine
 10
19.22039502424796
 20
13.00717430171391
 30
0.0
 11
26.96566020931264
 21
13.00717430171391
 31
0.0
  0
LINE
  5
93
330
7F
100
AcDbEntity
  8
중심선
100
AcDbLine
 10
22.22332737316547
 20
13.45928029700563
 30
0.0
 11
24.52862924686651
 21
15.39360700705356
 31
0.0
  0
ATTDEF
  5
95
330
7F
100
AcDbEntity
  8
FORMAT
 62
     2
100
AcDbText
 10
4.408487351596664
 20
2.075366912832191
 30
0.0
 40
4.233333333333333
  1
E1070983
 41
0.75
  7
SLDTEXTSTYLE0
 11
4.408487351596664
 21
-0.0412997538344756
 31
0.0
100
AcDbAttributeDefinition
  3

  2
AUTOATTR0
 70
     0
 74
     1
  0
ENDBLK
  5
81
330
7F
100
AcDbEntity
  8
0
100
AcDbBlockEnd
  0
BLOCK
  5
C0
330
BF
100
AcDbEntity
  8
0
100
AcDbBlockBegin
  2
_D
 70
     0
 10
0.0
 20
0.0
 30
0.0
  3
_D
  1
_D
  0
SOLID
  5
C2
330
BF
100
AcDbEntity
  8
치수문자_일반주서
100
AcDbTrace
 10
-59.5594211678731
 20
6.351074928723887
 30
0.0
 11
-59.05142116787309
 21
9.653074928723886
 31
0.0
 12
-60.0674211678731
 22
9.653074928723886
 32
0.0
 13
-60.0674211678731
 23
9.653074928723886
 33
0.0
  0
SOLID
  5
C3
330
BF
100
AcDbEntity
  8
치수문자_일반주서
100
AcDbTrace
 10
-59.5594211678731
 20
-6.348925071276102
 30
0.0
 11
-60.0674211678731
 21
-9.650925071276102
 31
0.0
 12
-59.05142116787309
 22
-9.650925071276102
 32
0.0
 13
-59.05142116787309
 23
-9.650925071276102
 33
0.0
  0
LINE
  5
C4
330
BF
100
AcDbEntity
  8
치수문자_일반주서
100
AcDbLine
 10
-47.05942116787307
 20
6.351074928723888
 30
0.0
 11
-60.5594211678731
 21
6.351074928723887
 31
0.0
  0
LINE
  5
C5
330
BF
100
AcDbEntity
  8
치수문자_일반주서
100
AcDbLine
 10
-47.05942116787307
 20
-6.348925071276101
 30
0.0
 11
-60.5594211678731
 21
-6.348925071276102
 31
0.0
  0
LINE
  5
C6
330
BF
100
AcDbEntity
  8
치수문자_일반주서
100
AcDbLine
 10
-59.5594211678731
 20
6.351074928723887
 30
0.0
 11
-59.5594211678731
 21
12.70107492872389
 31
0.0
  0
LINE
  5
C7
330
BF
100
AcDbEntity
  8
치수문자_일반주서
100
AcDbLine
 10
-59.5594211678731
 20
6.351074928723887
 30
0.0
 11
-59.5594211678731
 21
-6.348925071276102
 31
0.0
  0
LINE
  5
C8
330
BF
100
AcDbEntity
  8
치수문자_일반주서
100
AcDbLine
 10
-59.5594211678731
 20
-6.348925071276102
 30
0.0
 11
-59.5594211678731
 21
-12.6989250712761
 31
0.0
  0
MTEXT
  5
C9
330
BF
100
AcDbEntity
  8
치수문자_일반주서
100
AcDbMText
 10
-64.07115825707491
 20
-8.456894014097152
 30
0.0
 40
3.5
 41
0.0
 71
     1
 72
     1
  1
%%c
  7
SLDTEXTSTYLE0
 11
-7.044195017643634E-15
 21
1.0
 31
0.0
 73
     1
 44
1.0
  0
MTEXT
  5
CA
330
BF
100
AcDbEntity
  8
치수문자_일반주서
100
AcDbMText
 10
-64.1246304337348
 20
-3.178456615723071
 30
0.0
 40
3.5
 41
0.0
 71
     1
 72
     1
  1
12.70
  7
SLDTEXTSTYLE0
 11
-7.044195017643634E-15
 21
1.0
 31
0.0
 73
     1
 44
1.0
  0
ENDBLK
  5
C1
330
BF
100
AcDbEntity
  8
0
100
AcDbBlockEnd
  0
BLOCK
  5
CE
330
CD
100
AcDbEntity
  8
0
100
AcDbBlockBegin
  2
_D_1
 70
     0
 10
0.0
 20
0.0
 30
0.0
  3
_D_1
  1
_D_1
  0
LINE
  5
D0
330
CD
100
AcDbEntity
  8
0
  6
Continuous
 62
     0
370
    -2
100
AcDbLine
 10
88.19999999999999
 20
22.28569595521767
 30
0.0
 11
88.19999999999999
 21
34.46752151474234
 31
0.0
  0
LINE
  5
D1
330
CD
100
AcDbEntity
  8
0
  6
Continuous
 62
     0
370
    -2
100
AcDbLine
 10
12.0
 20
15.93569595521767
 30
0.0
 11
12.0
 21
34.46752151474234
 31
0.0
  0
LINE
  5
D2
330
CD
100
AcDbEntity
  8
0
  6
Continuous
 62
     0
370
    -2
100
AcDbLine
 10
84.898
 20
34.46752151474234
 30
0.0
 11
15.302
 21
34.46752151474234
 31
0.0
  0
SOLID
  5
D3
330
CD
100
AcDbEntity
  8
0
 62
     0
100
AcDbTrace
 10
84.898
 20
33.91718818140901
 30
0.0
 11
84.898
 21
35.01785484807568
 31
0.0
 12
88.19999999999999
 22
34.46752151474234
 32
0.0
 13
88.19999999999999
 23
34.46752151474234
 33
0.0
  0
SOLID
  5
D4
330
CD
100
AcDbEntity
  8
0
 62
     0
100
AcDbTrace
 10
15.302
 20
35.01785484807568
 30
0.0
 11
15.302
 21
33.91718818140901
 31
0.0
 12
12.0
 22
34.46752151474234
 32
0.0
 13
12.0
 23
34.46752151474234
 33
0.0
  0
MTEXT
  5
D5
330
CD
100
AcDbEntity
  8
0
 62
     0
370
    15
100
AcDbMText
 10
50.09999999999999
 20
38.84252151474234
 30
0.0
 40
3.5
 41
0.0
 71
     2
 72
     1
  1
\A1;76.20 [3]
  7
SLDTEXTSTYLE0
 73
     1
 44
1.0
  0
POINT
  5
D6
330
CD
100
AcDbEntity
  8
Defpoints
 62
     0
100
AcDbPoint
 10
88.19999999999999
 20
22.22319595521767
 30
0.0
  0
POINT
  5
D7
330
CD
100
AcDbEntity
  8
Defpoints
 62
     0
100
AcDbPoint
 10
12.0
 20
15.87319595521767
 30
0.0
  0
POINT
  5
D8
330
CD
100
AcDbEntity
  8
Defpoints
 62
     0
100
AcDbPoint
 10
12.0
 20
34.46752151474234
 30
0.0
  0
ENDBLK
  5
CF
330
CD
100
AcDbEntity
  8
0
100
AcDbBlockEnd
  0
BLOCK
  5
E4
330
E3
100
AcDbEntity
  8
0
100
AcDbBlockBegin
  2
_D_2
 70
     0
 10
0.0
 20
0.0
 30
0.0
  3
_D_2
  1
_D_2
  0
LINE
  5
E6
330
E3
100
AcDbEntity
  8
0
  6
Continuous
 62
     0
370
    -2
100
AcDbLine
 10
29.14057883212694
 20
6.606477789079263
 30
0.0
 11
29.14057883212694
 21
30.3105321911699
 31
0.0
  0
LINE
  5
E7
330
E3
100
AcDbEntity
  8
0
  6
Continuous
 62
     0
370
    -2
100
AcDbLine
 10
-47.05942116787307
 20
5.413574928723888
 30
0.0
 11
-47.05942116787308
 21
30.3105321911699
 31
0.0
  0
LINE
  5
E8
330
E3
100
AcDbEntity
  8
0
  6
Continuous
 62
     0
370
    -2
100
AcDbLine
 10
25.83857883212694
 20
30.3105321911699
 30
0.0
 11
-43.75742116787308
 21
30.3105321911699
 31
0.0
  0
SOLID
  5
E9
330
E3
100
AcDbEntity
  8
0
 62
     0
100
AcDbTrace
 10
25.83857883212694
 20
29.76019885783656
 30
0.0
 11
25.83857883212694
 21
30.86086552450323
 31
0.0
 12
29.14057883212694
 22
30.3105321911699
 32
0.0
 13
29.14057883212694
 23
30.3105321911699
 33
0.0
  0
SOLID
  5
EA
330
E3
100
AcDbEntity
  8
0
 62
     0
100
AcDbTrace
 10
-43.75742116787308
 20
30.86086552450323
 30
0.0
 11
-43.75742116787308
 21
29.76019885783656
 31
0.0
 12
-47.05942116787308
 22
30.3105321911699
 32
0.0
 13
-47.05942116787308
 23
30.3105321911699
 33
0.0
  0
MTEXT
  5
EB
330
E3
100
AcDbEntity
  8
0
 62
     0
370
    15
100
AcDbMText
 10
-8.959421167873067
 20
34.6855321911699
 30
0.0
 40
3.5
 41
0.0
 71
     2
 72
     1
  1
\A1;76.20 [3]
  7
SLDTEXTSTYLE0
 73
     1
 44
1.0
  0
POINT
  5
EC
330
E3
100
AcDbEntity
  8
Defpoints
 62
     0
100
AcDbPoint
 10
29.14057883212694
 20
6.543977789079263
 30
0.0
  0
POINT
  5
ED
330
E3
100
AcDbEntity
  8
Defpoints
 62
     0
100
AcDbPoint
 10
-47.05942116787307
 20
5.351074928723888
 30
0.0
  0
POINT
  5
EE
330
E3
100
AcDbEntity
  8
Defpoints
 62
     0
100
AcDbPoint
 10
-47.05942116787307
 20
30.3105321911699
 30
0.0
  0
ENDBLK
  5
E5
330
E3
100
AcDbEntity
  8
0
100
AcDbBlockEnd
  0
BLOCK
  5
F8
330
F7
100
AcDbEntity
  8
0
100
AcDbBlockBegin
  2
_D_3
 70
     0
 10
0.0
 20
0.0
 30
0.0
  3
_D_3
  1
_D_3
  0
LINE
  5
FA
330
F7
100
AcDbEntity
  8
0
  6
Continuous
 62
     0
370
    -2
100
AcDbLine
 10
88.26249999999999
 20
-22.22680404478233
 30
0.0
 11
107.2000000000003
 21
-22.22680404478226
 31
0.0
  0
LINE
  5
FB
330
F7
100
AcDbEntity
  8
0
  6
Continuous
 62
     0
370
    -2
100
AcDbLine
 10
88.26249999999999
 20
22.22319595521767
 30
0.0
 11
107.2000000000001
 21
22.22319595521773
 31
0.0
  0
LINE
  5
FC
330
F7
100
AcDbEntity
  8
0
  6
Continuous
 62
     0
370
    -2
100
AcDbLine
 10
107.2000000000001
 20
22.22319595521773
 30
0.0
 11
107.1999999999999
 21
83.63852492108464
 31
0.0
  0
LINE
  5
FD
330
F7
100
AcDbEntity
  8
0
  6
Continuous
 62
     0
370
    -2
100
AcDbLine
 10
107.2000000000003
 20
-22.22680404478226
 30
0.0
 11
107.2000000000001
 21
22.22319595521773
 31
0.0
  0
LINE
  5
FE
330
F7
100
AcDbEntity
  8
0
  6
Continuous
 62
     0
370
    -2
100
AcDbLine
 10
107.2000000000003
 20
-25.52880404478226
 30
0.0
 11
107.2000000000003
 21
-28.83080404478225
 31
0.0
  0
LINE
  5
FF
330
F7
100
AcDbEntity
  8
0
  6
Continuous
 62
     0
370
    -2
100
AcDbLine
 10
107.2000000000001
 20
25.52519595521773
 30
0.0
 11
107.2000000000001
 21
28.82719595521773
 31
0.0
  0
SOLID
  5
100
330
F7
100
AcDbEntity
  8
0
 62
     0
100
AcDbTrace
 10
107.7503333333336
 20
-25.52880404478225
 30
0.0
 11
106.649666666667
 21
-25.52880404478226
 31
0.0
 12
107.2000000000003
 22
-22.22680404478226
 32
0.0
 13
107.2000000000003
 23
-22.22680404478226
 33
0.0
  0
SOLID
  5
101
330
F7
100
AcDbEntity
  8
0
 62
     0
100
AcDbTrace
 10
106.6496666666668
 20
25.52519595521773
 30
0.0
 11
107.7503333333335
 21
25.52519595521774
 31
0.0
 12
107.2000000000001
 22
22.22319595521773
 32
0.0
 13
107.2000000000001
 23
22.22319595521773
 33
0.0
  0
MTEXT
  5
102
330
F7
100
AcDbEntity
  8
0
 62
     0
370
    15
100
AcDbMText
 10
102.825
 20
67.01352492108462
 30
0.0
 40
3.5
 41
0.0
 71
     2
 72
     1
  1
\A1;%%c44.45 [1 3/4]
  7
SLDTEXTSTYLE0
 11
-3.516746948643916E-15
 21
1.0
 31
0.0
 73
     1
 44
1.0
  0
POINT
  5
103
330
F7
100
AcDbEntity
  8
Defpoints
 62
     0
100
AcDbPoint
 10
88.19999999999999
 20
-22.22680404478233
 30
0.0
  0
POINT
  5
27D
330
F7
100
AcDbEntity
  8
Defpoints
 62
     0
100
AcDbPoint
 10
88.19999999999999
 20
22.22319595521767
 30
0.0
  0
POINT
  5
27E
330
F7
100
AcDbEntity
  8
Defpoints
 62
     0
100
AcDbPoint
 10
107.2000000000001
 20
22.22319595521774
 30
0.0
  0
ENDBLK
  5
F9
330
F7
100
AcDbEntity
  8
0
100
AcDbBlockEnd
  0
BLOCK
  5
111
330
110
100
AcDbEntity
  8
0
100
AcDbBlockBegin
  2
SW_DOWELSYMBOL_0
 70
     0
 10
0.0
 20
0.0
 30
0.0
  3
SW_DOWELSYMBOL_0
  1
SW_DOWELSYMBOL_0
  0
CIRCLE
  5
113
330
110
100
AcDbEntity
  8
해칭선
 62
     0
100
AcDbCircle
 10
0.0
 20
0.0
 30
0.0
 40
3.000000000000001
  0
HATCH
  5
114
330
110
100
AcDbEntity
  8
0
  6
Continuous
 62
     0
370
     0
100
AcDbHatch
 10
0.0
 20
0.0
 30
0.0
210
0.0
220
0.0
230
1.0
  2
SOLID
 70
     1
 71
     0
 91
        1
 92
        0
 93
        3
 72
     2
 10
0.0
 20
0.0
 40
3.000000000000001
 50
0.0
 51
90.0
 73
     1
 72
     1
 10
0.0
 20
3.000000000000001
 11
0.0
 21
0.0
 72
     1
 10
0.0
 20
0.0
 11
3.000000000000001
 21
0.0
 97
        0
 75
     0
 76
     1
 98
        1
 10
0.0
 20
0.0
  0
HATCH
  5
115
330
110
100
AcDbEntity
  8
0
  6
Continuous
 62
     0
370
     0
100
AcDbHatch
 10
0.0
 20
0.0
 30
0.0
210
0.0
220
0.0
230
1.0
  2
SOLID
 70
     1
 71
     0
 91
        1
 92
        0
 93
        3
 72
     2
 10
0.0
 20
0.0
 40
3.000000000000001
 50
180.0
 51
270.0000000000007
 73
     1
 72
     1
 10
0.0
 20
-3.000000000000001
 11
0.0
 21
0.0
 72
     1
 10
0.0
 20
0.0
 11
-3.000000000000001
 21
0.0
 97
        0
 75
     0
 76
     1
 98
        1
 10
0.0
 20
0.0
  0
ENDBLK
  5
112
330
110
100
AcDbEntity
  8
0
100
AcDbBlockEnd
  0
BLOCK
  5
1C7
330
1C6
100
AcDbEntity
  8
0
100
AcDbBlockBegin
  2
*D7
 70
     1
 10
0.0
 20
0.0
 30
0.0
  3
*D7
  1
*D8
  0
LINE
  5
1C8
330
1C6
100
AcDbEntity
  8
0
  6
Continuous
 62
     0
370
    -2
100
AcDbLine
 10
14.76258564276372
 20
65.84500334402938
 30
0.0
 11
4.374999999999995
 21
65.84500334402934
 31
0.0
  0
LINE
  5
1C9
330
1C6
100
AcDbEntity
  8
0
  6
Continuous
 62
     0
370
    -2
100
AcDbLine
 10
14.76258564276373
 20
34.09500334402939
 30
0.0
 11
4.375000000000106
 21
34.09500334402935
 31
0.0
  0
LINE
  5
1CA
330
1C6
100
AcDbEntity
  8
0
  6
Continuous
 62
     0
370
    -2
100
AcDbLine
 10
4.375000000000006
 20
62.54300334402934
 30
0.0
 11
4.375000000000094
 21
37.39700334402935
 31
0.0
  0
SOLID
  5
1CB
330
1C6
100
AcDbEntity
  8
0
 62
     0
100
AcDbTrace
 10
4.92533333333334
 20
62.54300334402934
 30
0.0
 11
3.824666666666673
 21
62.54300334402934
 31
0.0
 12
4.374999999999995
 22
65.84500334402934
 32
0.0
 13
4.374999999999995
 23
65.84500334402934
 33
0.0
  0
SOLID
  5
1CC
330
1C6
100
AcDbEntity
  8
0
 62
     0
100
AcDbTrace
 10
3.824666666666761
 20
37.39700334402935
 30
0.0
 11
4.925333333333428
 21
37.39700334402935
 31
0.0
 12
4.375000000000106
 22
34.09500334402935
 32
0.0
 13
4.375000000000106
 23
34.09500334402935
 33
0.0
  0
MTEXT
  5
1CD
330
1C6
100
AcDbEntity
  8
0
 62
     0
370
    15
100
AcDbMText
 10
0.0000000000000497
 20
49.9700033440294
 30
0.0
 40
3.5
 41
0.0
 71
     2
 72
     1
  1
\A1;%%c31.75 [1 1/4]
  7
SLDTEXTSTYLE0
 11
-3.496765431890259E-15
 21
1.0
 31
0.0
 73
     1
 44
1.0
  0
POINT
  5
1CE
330
1C6
100
AcDbEntity
  8
Defpoints
 62
     0
100
AcDbPoint
 10
14.82508564276372
 20
65.84500334402938
 30
0.0
  0
POINT
  5
1CF
330
1C6
100
AcDbEntity
  8
Defpoints
 62
     0
100
AcDbPoint
 10
14.82508564276373
 20
34.09500334402939
 30
0.0
  0
POINT
  5
1D0
330
1C6
100
AcDbEntity
  8
Defpoints
 62
     0
100
AcDbPoint
 10
4.375000000000107
 20
34.09500334402936
 30
0.0
  0
ENDBLK
  5
1D1
330
1C6
100
AcDbEntity
  8
0
100
AcDbBlockEnd
  0
BLOCK
  5
1D4
330
1D3
100
AcDbEntity
  8
0
100
AcDbBlockBegin
  2
*D8
 70
     1
 10
0.0
 20
0.0
 30
0.0
  3
*D8
  1
*D9
  0
LINE
  5
1D5
330
1D3
100
AcDbEntity
  8
0
  6
Continuous
 62
     0
370
    -2
100
AcDbLine
 10
153.5250856427637
 20
69.08430738881175
 30
0.0
 11
153.5250856427637
 21
95.55996920846991
 31
0.0
  0
LINE
  5
1D6
330
1D3
100
AcDbEntity
  8
0
  6
Continuous
 62
     0
370
    -2
100
AcDbLine
 10
13.82508564276373
 20
64.90750334402938
 30
0.0
 11
13.82508564276372
 21
95.55996920846991
 31
0.0
  0
LINE
  5
1D7
330
1D3
100
AcDbEntity
  8
0
  6
Continuous
 62
     0
370
    -2
100
AcDbLine
 10
150.2230856427637
 20
95.55996920846991
 30
0.0
 11
17.12708564276372
 21
95.55996920846991
 31
0.0
  0
SOLID
  5
1D8
330
1D3
100
AcDbEntity
  8
0
 62
     0
100
AcDbTrace
 10
150.2230856427637
 20
95.00963587513658
 30
0.0
 11
150.2230856427637
 21
96.11030254180324
 31
0.0
 12
153.5250856427637
 22
95.55996920846991
 32
0.0
 13
153.5250856427637
 23
95.55996920846991
 33
0.0
  0
SOLID
  5
1D9
330
1D3
100
AcDbEntity
  8
0
 62
     0
100
AcDbTrace
 10
17.12708564276372
 20
96.11030254180324
 30
0.0
 11
17.12708564276372
 21
95.00963587513658
 31
0.0
 12
13.82508564276372
 22
95.55996920846991
 32
0.0
 13
13.82508564276372
 23
95.55996920846991
 33
0.0
  0
MTEXT
  5
1DA
330
1D3
100
AcDbEntity
  8
0
 62
     0
370
    15
100
AcDbMText
 10
86.72500000000005
 20
99.93496920846991
 30
0.0
 40
3.5
 41
0.0
 71
     2
 72
     1
  1
\A1;139.70 [5 1/2]
  7
SLDTEXTSTYLE0
 73
     1
 44
1.0
  0
POINT
  5
1DB
330
1D3
100
AcDbEntity
  8
Defpoints
 62
     0
100
AcDbPoint
 10
153.5250856427637
 20
69.02180738881175
 30
0.0
  0
POINT
  5
1DC
330
1D3
100
AcDbEntity
  8
Defpoints
 62
     0
100
AcDbPoint
 10
13.82508564276373
 20
64.84500334402938
 30
0.0
  0
POINT
  5
1DD
330
1D3
100
AcDbEntity
  8
Defpoints
 62
     0
100
AcDbPoint
 10
13.82508564276373
 20
95.55996920846991
 30
0.0
  0
ENDBLK
  5
1DE
330
1D3
100
AcDbEntity
  8
0
100
AcDbBlockEnd
  0
BLOCK
  5
1ED
330
1EC
100
AcDbEntity
  8
0
100
AcDbBlockBegin
  2
*D9
 70
     1
 10
0.0
 20
0.0
 30
0.0
  3
*D9
  1
*D10
  0
LINE
  5
1EF
330
1EC
100
AcDbEntity
  8
0
  6
Continuous
 62
     0
370
    -2
100
AcDbLine
 10
153.5250856427637
 20
69.08430738881175
 30
0.0
 11
153.5250856427637
 21
78.90388158475724
 31
0.0
  0
LINE
  5
1F0
330
1EC
100
AcDbEntity
  8
0
  6
Continuous
 62
     0
370
    -2
100
AcDbLine
 10
77.32508564276372
 20
65.90750334402941
 30
0.0
 11
77.32508564276372
 21
78.90388158475724
 31
0.0
  0
LINE
  5
1F1
330
1EC
100
AcDbEntity
  8
0
  6
Continuous
 62
     0
370
    -2
100
AcDbLine
 10
150.2230856427637
 20
78.90388158475724
 30
0.0
 11
80.62708564276372
 21
78.90388158475724
 31
0.0
  0
SOLID
  5
1F2
330
1EC
100
AcDbEntity
  8
0
 62
     0
100
AcDbTrace
 10
150.2230856427637
 20
78.35354825142392
 30
0.0
 11
150.2230856427637
 21
79.45421491809057
 31
0.0
 12
153.5250856427637
 22
78.90388158475724
 32
0.0
 13
153.5250856427637
 23
78.90388158475724
 33
0.0
  0
SOLID
  5
1F3
330
1EC
100
AcDbEntity
  8
0
 62
     0
100
AcDbTrace
 10
80.62708564276372
 20
79.45421491809057
 30
0.0
 11
80.62708564276372
 21
78.35354825142392
 31
0.0
 12
77.32508564276372
 22
78.90388158475724
 32
0.0
 13
77.32508564276372
 23
78.90388158475724
 33
0.0
  0
MTEXT
  5
1F4
330
1EC
100
AcDbEntity
  8
0
 62
     0
370
    15
100
AcDbMText
 10
114.2410618917645
 20
83.27888158475724
 30
0.0
 40
3.5
 41
0.0
 71
     2
 72
     1
  1
\A1;76.20 [3]
  7
SLDTEXTSTYLE0
 73
     1
 44
1.0
  0
POINT
  5
1F5
330
1EC
100
AcDbEntity
  8
Defpoints
 62
     0
100
AcDbPoint
 10
153.5250856427637
 20
69.02180738881175
 30
0.0
  0
POINT
  5
1F6
330
1EC
100
AcDbEntity
  8
Defpoints
 62
     0
100
AcDbPoint
 10
77.32508564276372
 20
65.84500334402941
 30
0.0
  0
POINT
  5
1F7
330
1EC
100
AcDbEntity
  8
Defpoints
 62
     0
100
AcDbPoint
 10
77.32508564276372
 20
78.90388158475724
 30
0.0
  0
ENDBLK
  5
1EE
330
1EC
100
AcDbEntity
  8
0
100
AcDbBlockEnd
  0
BLOCK
  5
1F9
330
1F8
100
AcDbEntity
  8
0
100
AcDbBlockBegin
  2
*D10
 70
     1
 10
0.0
 20
0.0
 30
0.0
  3
*D10
  1
*D11
  0
LINE
  5
1FB
330
1F8
100
AcDbEntity
  8
0
  6
Continuous
 62
     0
370
    -2
100
AcDbLine
 10
153.5875856427637
 20
30.92180738881176
 30
0.0
 11
172.525085642764
 21
30.92180738881183
 31
0.0
  0
LINE
  5
1FC
330
1F8
100
AcDbEntity
  8
0
  6
Continuous
 62
     0
370
    -2
100
AcDbLine
 10
153.5875856427637
 20
69.02180738881177
 30
0.0
 11
172.5250856427639
 21
69.02180738881184
 31
0.0
  0
LINE
  5
1FD
330
1F8
100
AcDbEntity
  8
0
  6
Continuous
 62
     0
370
    -2
100
AcDbLine
 10
172.5250856427639
 20
69.02180738881184
 30
0.0
 11
172.5250856427637
 21
121.8432066189366
 31
0.0
  0
LINE
  5
1FE
330
1F8
100
AcDbEntity
  8
0
  6
Continuous
 62
     0
370
    -2
100
AcDbLine
 10
172.525085642764
 20
34.22380738881183
 30
0.0
 11
172.5250856427639
 21
65.71980738881183
 31
0.0
  0
SOLID
  5
1FF
330
1F8
100
AcDbEntity
  8
0
 62
     0
100
AcDbTrace
 10
171.9747523094307
 20
34.22380738881183
 30
0.0
 11
173.0754189760973
 21
34.22380738881183
 31
0.0
 12
172.525085642764
 22
30.92180738881183
 32
0.0
 13
172.525085642764
 23
30.92180738881183
 33
0.0
  0
SOLID
  5
200
330
1F8
100
AcDbEntity
  8
0
 62
     0
100
AcDbTrace
 10
173.0754189760972
 20
65.71980738881183
 30
0.0
 11
171.9747523094305
 21
65.71980738881183
 31
0.0
 12
172.5250856427639
 22
69.02180738881184
 32
0.0
 13
172.5250856427639
 23
69.02180738881184
 33
0.0
  0
MTEXT
  5
201
330
1F8
100
AcDbEntity
  8
0
 62
     0
370
    15
100
AcDbMText
 10
168.1500856427637
 20
107.4057066189366
 30
0.0
 40
3.5
 41
0.0
 71
     2
 72
     1
  1
\A1;%%c38.1 [1 1/2]
  7
SLDTEXTSTYLE0
 11
-3.729883127349606E-15
 21
1.0
 31
0.0
 73
     1
 44
1.0
  0
POINT
  5
202
330
1F8
100
AcDbEntity
  8
Defpoints
 62
     0
100
AcDbPoint
 10
153.5250856427637
 20
30.92180738881176
 30
0.0
  0
POINT
  5
203
330
1F8
100
AcDbEntity
  8
Defpoints
 62
     0
100
AcDbPoint
 10
153.5250856427637
 20
69.02180738881177
 30
0.0
  0
POINT
  5
204
330
1F8
100
AcDbEntity
  8
Defpoints
 62
     0
100
AcDbPoint
 10
172.5250856427638
 20
69.02180738881184
 30
0.0
  0
ENDBLK
  5
1FA
330
1F8
100
AcDbEntity
  8
0
100
AcDbBlockEnd
  0
BLOCK
  5
23C
330
23B
100
AcDbEntity
  8
0
100
AcDbBlockBegin
  2
*D11
 70
     1
 10
0.0
 20
0.0
 30
0.0
  3
*D11
  1
*D12
  0
LINE
  5
23E
330
23B
100
AcDbEntity
  8
0
  6
Continuous
 62
     0
370
    -2
100
AcDbLine
 10
273.2008493068085
 20
-48.53170396303469
 30
0.0
 11
273.2008493068085
 21
-38.71212976708919
 31
0.0
  0
LINE
  5
23F
330
23B
100
AcDbEntity
  8
0
  6
Continuous
 62
     0
370
    -2
100
AcDbLine
 10
197.0008493068086
 20
-51.70850800781703
 30
0.0
 11
197.0008493068086
 21
-38.71212976708919
 31
0.0
  0
LINE
  5
240
330
23B
100
AcDbEntity
  8
0
  6
Continuous
 62
     0
370
    -2
100
AcDbLine
 10
269.8988493068085
 20
-38.71212976708919
 30
0.0
 11
200.3028493068086
 21
-38.71212976708919
 31
0.0
  0
SOLID
  5
241
330
23B
100
AcDbEntity
  8
0
 62
     0
100
AcDbTrace
 10
269.8988493068085
 20
-39.26246310042253
 30
0.0
 11
269.8988493068085
 21
-38.16179643375586
 31
0.0
 12
273.2008493068085
 22
-38.71212976708919
 32
0.0
 13
273.2008493068085
 23
-38.71212976708919
 33
0.0
  0
SOLID
  5
242
330
23B
100
AcDbEntity
  8
0
 62
     0
100
AcDbTrace
 10
200.3028493068086
 20
-38.16179643375586
 30
0.0
 11
200.3028493068086
 21
-39.26246310042253
 31
0.0
 12
197.0008493068086
 22
-38.71212976708919
 32
0.0
 13
197.0008493068086
 23
-38.71212976708919
 33
0.0
  0
MTEXT
  5
243
330
23B
100
AcDbEntity
  8
0
 62
     0
370
    15
100
AcDbMText
 10
233.9168255558093
 20
-34.33712976708919
 30
0.0
 40
3.5
 41
0.0
 71
     2
 72
     1
  1
\A1;76.20 [3]
  7
SLDTEXTSTYLE0
 73
     1
 44
1.0
  0
POINT
  5
244
330
23B
100
AcDbEntity
  8
Defpoints
 62
     0
100
AcDbPoint
 10
273.2008493068085
 20
-48.59420396303469
 30
0.0
  0
POINT
  5
245
330
23B
100
AcDbEntity
  8
Defpoints
 62
     0
100
AcDbPoint
 10
197.0008493068086
 20
-51.77100800781703
 30
0.0
  0
POINT
  5
246
330
23B
100
AcDbEntity
  8
Defpoints
 62
     0
100
AcDbPoint
 10
197.0008493068086
 20
-38.71212976708919
 30
0.0
  0
ENDBLK
  5
23D
330
23B
100
AcDbEntity
  8
0
100
AcDbBlockEnd
  0
BLOCK
  5
248
330
247
100
AcDbEntity
  8
0
100
AcDbBlockBegin
  2
*D12
 70
     1
 10
0.0
 20
0.0
 30
0.0
  3
*D12
  1
*D13
  0
LINE
  5
24A
330
247
100
AcDbEntity
  8
0
  6
Continuous
 62
     0
370
    -2
100
AcDbLine
 10
273.2633493068085
 20
-86.69420396303468
 30
0.0
 11
292.2008493068088
 21
-86.69420396303461
 31
0.0
  0
LINE
  5
24B
330
247
100
AcDbEntity
  8
0
  6
Continuous
 62
     0
370
    -2
100
AcDbLine
 10
273.2633493068085
 20
-48.59420396303467
 30
0.0
 11
292.2008493068087
 21
-48.5942039630346
 31
0.0
  0
LINE
  5
24C
330
247
100
AcDbEntity
  8
0
  6
Continuous
 62
     0
370
    -2
100
AcDbLine
 10
292.2008493068087
 20
-48.5942039630346
 30
0.0
 11
292.2008493068085
 21
4.227195267090181
 31
0.0
  0
LINE
  5
24D
330
247
100
AcDbEntity
  8
0
  6
Continuous
 62
     0
370
    -2
100
AcDbLine
 10
292.2008493068088
 20
-83.3922039630346
 30
0.0
 11
292.2008493068087
 21
-51.8962039630346
 31
0.0
  0
SOLID
  5
24E
330
247
100
AcDbEntity
  8
0
 62
     0
100
AcDbTrace
 10
291.6505159734754
 20
-83.3922039630346
 30
0.0
 11
292.7511826401421
 21
-83.3922039630346
 31
0.0
 12
292.2008493068088
 22
-86.69420396303461
 32
0.0
 13
292.2008493068088
 23
-86.69420396303461
 33
0.0
  0
SOLID
  5
24F
330
247
100
AcDbEntity
  8
0
 62
     0
100
AcDbTrace
 10
292.751182640142
 20
-51.8962039630346
 30
0.0
 11
291.6505159734753
 21
-51.8962039630346
 31
0.0
 12
292.2008493068087
 22
-48.5942039630346
 32
0.0
 13
292.2008493068087
 23
-48.5942039630346
 33
0.0
  0
MTEXT
  5
250
330
247
100
AcDbEntity
  8
0
 62
     0
370
    15
100
AcDbMText
 10
287.8258493068085
 20
-10.21030473290983
 30
0.0
 40
3.5
 41
0.0
 71
     2
 72
     1
  1
\A1;%%c38.1 [1 1/2]
  7
SLDTEXTSTYLE0
 11
-2.983906501879685E-15
 21
1.0
 31
0.0
 73
     1
 44
1.0
  0
POINT
  5
251
330
247
100
AcDbEntity
  8
Defpoints
 62
     0
100
AcDbPoint
 10
273.2008493068085
 20
-86.69420396303468
 30
0.0
  0
POINT
  5
252
330
247
100
AcDbEntity
  8
Defpoints
 62
     0
100
AcDbPoint
 10
273.2008493068085
 20
-48.59420396303467
 30
0.0
  0
POINT
  5
253
330
247
100
AcDbEntity
  8
Defpoints
 62
     0
100
AcDbPoint
 10
292.2008493068087
 20
-48.5942039630346
 30
0.0
  0
ENDBLK
  5
249
330
247
100
AcDbEntity
  8
0
100
AcDbBlockEnd
  0
BLOCK
  5
255
330
254
100
AcDbEntity
  8
0
100
AcDbBlockBegin
  2
*D13
 70
     1
 10
0.0
 20
0.0
 30
0.0
  3
*D13
  1
*D14
  0
LINE
  5
257
330
254
100
AcDbEntity
  8
0
  6
Continuous
 62
     0
370
    -2
100
AcDbLine
 10
-50.5625
 20
15.87319595521764
 30
0.0
 11
-60.95008564276372
 21
15.8731959552176
 31
0.0
  0
LINE
  5
258
330
254
100
AcDbEntity
  8
0
  6
Continuous
 62
     0
370
    -2
100
AcDbLine
 10
-50.56249999999997
 20
-15.87680404478235
 30
0.0
 11
-60.95008564276361
 21
-15.87680404478239
 31
0.0
  0
LINE
  5
259
330
254
100
AcDbEntity
  8
0
  6
Continuous
 62
     0
370
    -2
100
AcDbLine
 10
-60.95008564276371
 20
12.5711959552176
 30
0.0
 11
-60.95008564276363
 21
-12.57480404478239
 31
0.0
  0
SOLID
  5
25A
330
254
100
AcDbEntity
  8
0
 62
     0
100
AcDbTrace
 10
-60.39975230943038
 20
12.5711959552176
 30
0.0
 11
-61.50041897609704
 21
12.5711959552176
 31
0.0
 12
-60.95008564276372
 22
15.8731959552176
 32
0.0
 13
-60.95008564276372
 23
15.8731959552176
 33
0.0
  0
SOLID
  5
25B
330
254
100
AcDbEntity
  8
0
 62
     0
100
AcDbTrace
 10
-61.50041897609696
 20
-12.57480404478239
 30
0.0
 11
-60.39975230943029
 21
-12.57480404478238
 31
0.0
 12
-60.95008564276361
 22
-15.87680404478239
 32
0.0
 13
-60.95008564276361
 23
-15.87680404478239
 33
0.0
  0
MTEXT
  5
25C
330
254
100
AcDbEntity
  8
0
 62
     0
370
    15
100
AcDbMText
 10
-65.32508564276367
 20
-0.0018040447823337
 30
0.0
 40
3.5
 41
0.0
 71
     2
 72
     1
  1
\A1;%%c31.75 [1 1/4]
  7
SLDTEXTSTYLE0
 11
-3.580687802255625E-15
 21
1.0
 31
0.0
 73
     1
 44
1.0
  0
POINT
  5
25D
330
254
100
AcDbEntity
  8
Defpoints
 62
     0
100
AcDbPoint
 10
-50.5
 20
15.87319595521764
 30
0.0
  0
POINT
  5
25E
330
254
100
AcDbEntity
  8
Defpoints
 62
     0
100
AcDbPoint
 10
-50.49999999999997
 20
-15.87680404478235
 30
0.0
  0
POINT
  5
25F
330
254
100
AcDbEntity
  8
Defpoints
 62
     0
100
AcDbPoint
 10
-60.95008564276361
 20
-15.87680404478239
 30
0.0
  0
ENDBLK
  5
256
330
254
100
AcDbEntity
  8
0
100
AcDbBlockEnd
  0
BLOCK
  5
261
330
260
100
AcDbEntity
  8
0
100
AcDbBlockBegin
  2
*D14
 70
     1
 10
0.0
 20
0.0
 30
0.0
  3
*D14
  1
*D15
  0
LINE
  5
263
330
260
100
AcDbEntity
  8
0
  6
Continuous
 62
     0
370
    -2
100
AcDbLine
 10
88.19999999999999
 20
22.28569595521767
 30
0.0
 11
88.19999999999999
 21
45.58816181965817
 31
0.0
  0
LINE
  5
264
330
260
100
AcDbEntity
  8
0
  6
Continuous
 62
     0
370
    -2
100
AcDbLine
 10
-51.49999999999997
 20
14.93569595521764
 30
0.0
 11
-51.49999999999997
 21
45.58816181965817
 31
0.0
  0
LINE
  5
265
330
260
100
AcDbEntity
  8
0
  6
Continuous
 62
     0
370
    -2
100
AcDbLine
 10
84.898
 20
45.58816181965817
 30
0.0
 11
-48.19799999999997
 21
45.58816181965817
 31
0.0
  0
SOLID
  5
266
330
260
100
AcDbEntity
  8
0
 62
     0
100
AcDbTrace
 10
84.898
 20
45.03782848632483
 30
0.0
 11
84.898
 21
46.1384951529915
 31
0.0
 12
88.19999999999999
 22
45.58816181965817
 32
0.0
 13
88.19999999999999
 23
45.58816181965817
 33
0.0
  0
SOLID
  5
267
330
260
100
AcDbEntity
  8
0
 62
     0
100
AcDbTrace
 10
-48.19799999999997
 20
46.1384951529915
 30
0.0
 11
-48.19799999999997
 21
45.03782848632483
 31
0.0
 12
-51.49999999999997
 22
45.58816181965817
 32
0.0
 13
-51.49999999999997
 23
45.58816181965817
 33
0.0
  0
MTEXT
  5
268
330
260
100
AcDbEntity
  8
0
 62
     0
370
    15
100
AcDbMText
 10
21.39991435723636
 20
49.96316181965817
 30
0.0
 40
3.5
 41
0.0
 71
     2
 72
     1
  1
\A1;139.70 [5 1/2]
  7
SLDTEXTSTYLE0
 73
     1
 44
1.0
  0
POINT
  5
269
330
260
100
AcDbEntity
  8
Defpoints
 62
     0
100
AcDbPoint
 10
88.19999999999999
 20
22.22319595521767
 30
0.0
  0
POINT
  5
26A
330
260
100
AcDbEntity
  8
Defpoints
 62
     0
100
AcDbPoint
 10
-51.49999999999997
 20
14.87319595521764
 30
0.0
  0
POINT
  5
26B
330
260
100
AcDbEntity
  8
Defpoints
 62
     0
100
AcDbPoint
 10
-51.49999999999997
 20
45.58816181965817
 30
0.0
  0
ENDBLK
  5
262
330
260
100
AcDbEntity
  8
0
100
AcDbBlockEnd
  0
BLOCK
  5
270
330
26F
100
AcDbEntity
  8
0
100
AcDbBlockBegin
  2
*D15
 70
     1
 10
0.0
 20
0.0
 30
0.0
  3
*D15
  1
*D16
  0
LINE
  5
272
330
26F
100
AcDbEntity
  8
0
 62
     0
370
    -2
100
AcDbLine
 10
-28.50942116787306
 20
15.86696173133589
 30
0.0
 11
-32.09293693597323
 21
15.86696173133589
 31
0.0
  0
LINE
  5
273
330
26F
100
AcDbEntity
  8
0
 62
     0
370
    -2
100
AcDbLine
 10
-28.50942116787306
 20
0.0010749287238916
 30
0.0
 11
-32.09293693597323
 21
0.0010749287238918
 31
0.0
  0
LINE
  5
274
330
26F
100
AcDbEntity
  8
0
 62
     0
370
    -2
100
AcDbLine
 10
-31.09293693597323
 20
-3.300925071276108
 30
0.0
 11
-46.0336036026399
 21
-3.300925071276108
 31
0.0
  0
LINE
  5
275
330
26F
100
AcDbEntity
  8
0
 62
     0
370
    -2
100
AcDbLine
 10
-31.09293693597323
 20
12.56496173133589
 30
0.0
 11
-31.09293693597323
 21
3.303074928723891
 31
0.0
  0
LINE
  5
276
330
26F
100
AcDbEntity
  8
0
 62
     0
370
    -2
100
AcDbLine
 10
-31.09293693597323
 20
0.0010749287238918
 30
0.0
 11
-31.09293693597323
 21
-3.300925071276108
 31
0.0
  0
SOLID
  5
277
330
26F
100
AcDbEntity
  8
0
 62
     0
100
AcDbTrace
 10
-30.54260360263989
 20
12.56496173133589
 30
0.0
 11
-31.64327026930656
 21
12.56496173133589
 31
0.0
 12
-31.09293693597323
 22
15.86696173133589
 32
0.0
 13
-31.09293693597323
 23
15.86696173133589
 33
0.0
  0
SOLID
  5
278
330
26F
100
AcDbEntity
  8
0
 62
     0
100
AcDbTrace
 10
-31.64327026930656
 20
3.303074928723891
 30
0.0
 11
-30.54260360263989
 21
3.303074928723891
 31
0.0
 12
-31.09293693597323
 22
0.0010749287238918
 32
0.0
 13
-31.09293693597323
 23
0.0010749287238918
 33
0.0
  0
MTEXT
  5
279
330
26F
100
AcDbEntity
  8
0
 62
     0
100
AcDbMText
 10
-39.32527026930656
 20
0.2647415953905581
 30
0.0
 40
3.5
 41
0.0
 71
     5
 72
     1
  1
15,87
 73
     1
 44
1.0
  0
POINT
  5
27A
330
26F
100
AcDbEntity
  8
Defpoints
 62
     0
100
AcDbPoint
 10
-27.50942116787306
 20
15.86696173133589
 30
0.0
  0
POINT
  5
27B
330
26F
100
AcDbEntity
  8
Defpoints
 62
     0
100
AcDbPoint
 10
-27.50942116787306
 20
0.0010749287238916
 30
0.0
  0
POINT
  5
27C
330
26F
100
AcDbEntity
  8
Defpoints
 62
     0
100
AcDbPoint
 10
-31.09293693597323
 20
0.0010749287238918
 30
0.0
  0
ENDBLK
  5
271
330
26F
100
AcDbEntity
  8
0
100
AcDbBlockEnd
  0
BLOCK
  5
284
330
283
100
AcDbEntity
  8
0
100
AcDbBlockBegin
  2
*D16
 70
     1
 10
0.0
 20
0.0
 30
0.0
  3
*D16
  1
*D17
  0
LINE
  5
286
330
283
100
AcDbEntity
  8
0
 62
     0
370
    -2
100
AcDbLine
 10
-28.50942116787306
 20
15.86696173133589
 30
0.0
 11
-37.77749208007184
 21
15.86696173133589
 31
0.0
  0
LINE
  5
287
330
283
100
AcDbEntity
  8
0
 62
     0
370
    -2
100
AcDbLine
 10
-36.20704570252303
 20
-0.0062342238817591
 30
0.0
 11
-37.77749208007184
 21
-0.006234223881759
 31
0.0
  0
LINE
  5
288
330
283
100
AcDbEntity
  8
0
 62
     0
370
    -2
100
AcDbLine
 10
-36.77749208007184
 20
-3.308234223881759
 30
0.0
 11
-64.55149208007185
 21
-3.308234223881759
 31
0.0
  0
LINE
  5
289
330
283
100
AcDbEntity
  8
0
 62
     0
370
    -2
100
AcDbLine
 10
-36.77749208007184
 20
12.56496173133589
 30
0.0
 11
-36.77749208007184
 21
3.295765776118241
 31
0.0
  0
LINE
  5
28A
330
283
100
AcDbEntity
  8
0
 62
     0
370
    -2
100
AcDbLine
 10
-36.77749208007184
 20
-0.0062342238817591
 30
0.0
 11
-36.77749208007184
 21
-3.308234223881759
 31
0.0
  0
SOLID
  5
28B
330
283
100
AcDbEntity
  8
0
 62
     0
100
AcDbTrace
 10
-36.22715874673851
 20
12.56496173133589
 30
0.0
 11
-37.32782541340518
 21
12.56496173133589
 31
0.0
 12
-36.77749208007184
 22
15.86696173133589
 32
0.0
 13
-36.77749208007184
 23
15.86696173133589
 33
0.0
  0
SOLID
  5
28C
330
283
100
AcDbEntity
  8
0
 62
     0
100
AcDbTrace
 10
-37.32782541340518
 20
3.295765776118241
 30
0.0
 11
-36.22715874673851
 21
3.295765776118241
 31
0.0
 12
-36.77749208007184
 22
-0.0062342238817591
 32
0.0
 13
-36.77749208007184
 23
-0.0062342238817591
 33
0.0
  0
MTEXT
  5
28D
330
283
100
AcDbEntity
  8
0
 62
     0
100
AcDbMText
 10
-51.42649208007185
 20
0.2574324427849097
 30
0.0
 40
3.5
 41
0.0
 71
     5
 72
     1
  1
15,873196
 73
     1
 44
1.0
  0
POINT
  5
28E
330
283
100
AcDbEntity
  8
Defpoints
 62
     0
100
AcDbPoint
 10
-27.50942116787306
 20
15.86696173133589
 30
0.0
  0
POINT
  5
28F
330
283
100
AcDbEntity
  8
Defpoints
 62
     0
100
AcDbPoint
 10
-35.20704570252303
 20
-0.0062342238817592
 30
0.0
  0
POINT
  5
290
330
283
100
AcDbEntity
  8
Defpoints
 62
     0
100
AcDbPoint
 10
-36.77749208007184
 20
-0.0062342238817591
 30
0.0
  0
ENDBLK
  5
285
330
283
100
AcDbEntity
  8
0
100
AcDbBlockEnd
  0
BLOCK
  5
295
330
294
100
AcDbEntity
  8
0
100
AcDbBlockBegin
  2
*D17
 70
     1
 10
0.0
 20
0.0
 30
0.0
  3
*D17
  1
*D18
  0
LINE
  5
297
330
294
100
AcDbEntity
  8
0
 62
     0
370
    -2
100
AcDbLine
 10
-65.75942116787303
 20
-0.0062342238817621
 30
0.0
 11
-33.68356357667342
 21
-0.0062342238817639
 31
0.0
  0
LINE
  5
298
330
294
100
AcDbEntity
  8
0
 62
     0
370
    -2
100
AcDbLine
 10
-32.75206367191563
 20
-15.88303826866411
 30
0.0
 11
-35.68356357667342
 21
-15.88303826866411
 31
0.0
  0
LINE
  5
299
330
294
100
AcDbEntity
  8
0
 62
     0
370
    -2
100
AcDbLine
 10
-34.68356357667342
 20
-19.18503826866411
 30
0.0
 11
-63.04089691000677
 21
-19.18503826866411
 31
0.0
  0
LINE
  5
29A
330
294
100
AcDbEntity
  8
0
 62
     0
370
    -2
100
AcDbLine
 10
-34.68356357667342
 20
-3.308234223881763
 30
0.0
 11
-34.68356357667342
 21
-12.58103826866411
 31
0.0
  0
LINE
  5
29B
330
294
100
AcDbEntity
  8
0
 62
     0
370
    -2
100
AcDbLine
 10
-34.68356357667342
 20
-15.88303826866411
 30
0.0
 11
-34.68356357667342
 21
-19.18503826866411
 31
0.0
  0
SOLID
  5
29C
330
294
100
AcDbEntity
  8
0
 62
     0
100
AcDbTrace
 10
-34.13323024334009
 20
-3.308234223881763
 30
0.0
 11
-35.23389691000676
 21
-3.308234223881763
 31
0.0
 12
-34.68356357667342
 22
-0.0062342238817639
 32
0.0
 13
-34.68356357667342
 23
-0.0062342238817639
 33
0.0
  0
SOLID
  5
29D
330
294
100
AcDbEntity
  8
0
 62
     0
100
AcDbTrace
 10
-35.23389691000676
 20
-12.58103826866411
 30
0.0
 11
-34.13323024334009
 21
-12.58103826866411
 31
0.0
 12
-34.68356357667342
 22
-15.88303826866411
 32
0.0
 13
-34.68356357667342
 23
-15.88303826866411
 33
0.0
  0
MTEXT
  5
29E
330
294
100
AcDbEntity
  8
0
 62
     0
100
AcDbMText
 10
-49.62423024334009
 20
-15.61937160199744
 30
0.0
 40
3.5
 41
0.0
 71
     5
 72
     1
  1
15,876804
 73
     1
 44
1.0
  0
POINT
  5
29F
330
294
100
AcDbEntity
  8
Defpoints
 62
     0
100
AcDbPoint
 10
-66.75942116787303
 20
-0.0062342238817621
 30
0.0
  0
POINT
  5
2A0
330
294
100
AcDbEntity
  8
Defpoints
 62
     0
100
AcDbPoint
 10
-31.75206367191563
 20
-15.88303826866411
 30
0.0
  0
POINT
  5
2A1
330
294
100
AcDbEntity
  8
Defpoints
 62
     0
100
AcDbPoint
 10
-34.68356357667342
 20
-15.88303826866411
 30
0.0
  0
ENDBLK
  5
296
330
294
100
AcDbEntity
  8
0
100
AcDbBlockEnd
  0
BLOCK
  5
2AB
330
2AA
100
AcDbEntity
  8
0
100
AcDbBlockBegin
  2
*D18
 70
     1
 10
0.0
 20
0.0
 30
0.0
  3
*D18
  1
*D19
  0
LINE
  5
2AD
330
2AA
100
AcDbEntity
  8
0
 62
     0
370
    -2
100
AcDbLine
 10
-26.50942116787306
 20
15.86696173133589
 30
0.0
 11
-20.50978474022951
 21
15.86696173133589
 31
0.0
  0
LINE
  5
2AE
330
2AA
100
AcDbEntity
  8
0
 62
     0
370
    -2
100
AcDbLine
 10
-34.41477870810965
 20
-0.0080382686641067
 30
0.0
 11
-20.50978474022951
 21
-0.0080382686641076
 31
0.0
  0
LINE
  5
2AF
330
2AA
100
AcDbEntity
  8
0
 62
     0
370
    -2
100
AcDbLine
 10
-21.50978474022951
 20
-3.310038268664107
 30
0.0
 11
-36.45045140689618
 21
-3.310038268664107
 31
0.0
  0
LINE
  5
2B0
330
2AA
100
AcDbEntity
  8
0
 62
     0
370
    -2
100
AcDbLine
 10
-21.50978474022951
 20
12.56496173133589
 30
0.0
 11
-21.50978474022951
 21
3.293961731335892
 31
0.0
  0
LINE
  5
2B1
330
2AA
100
AcDbEntity
  8
0
 62
     0
370
    -2
100
AcDbLine
 10
-21.50978474022951
 20
-0.0080382686641075
 30
0.0
 11
-21.50978474022951
 21
-3.310038268664107
 31
0.0
  0
SOLID
  5
2B2
330
2AA
100
AcDbEntity
  8
0
 62
     0
100
AcDbTrace
 10
-20.95945140689617
 20
12.56496173133589
 30
0.0
 11
-22.06011807356284
 21
12.56496173133589
 31
0.0
 12
-21.50978474022951
 22
15.86696173133589
 32
0.0
 13
-21.50978474022951
 23
15.86696173133589
 33
0.0
  0
SOLID
  5
2B3
330
2AA
100
AcDbEntity
  8
0
 62
     0
100
AcDbTrace
 10
-22.06011807356284
 20
3.293961731335892
 30
0.0
 11
-20.95945140689617
 21
3.293961731335892
 31
0.0
 12
-21.50978474022951
 22
-0.0080382686641075
 32
0.0
 13
-21.50978474022951
 23
-0.0080382686641075
 33
0.0
  0
MTEXT
  5
2B4
330
2AA
100
AcDbEntity
  8
0
 62
     0
100
AcDbMText
 10
-29.74211807356284
 20
0.25562839800256
 30
0.0
 40
3.5
 41
0.0
 71
     5
 72
     1
  1
15,88
 73
     1
 44
1.0
  0
POINT
  5
2B5
330
2AA
100
AcDbEntity
  8
Defpoints
 62
     0
100
AcDbPoint
 10
-27.50942116787306
 20
15.86696173133589
 30
0.0
  0
POINT
  5
2B6
330
2AA
100
AcDbEntity
  8
Defpoints
 62
     0
100
AcDbPoint
 10
-35.41477870810965
 20
-0.0080382686641067
 30
0.0
  0
POINT
  5
2B7
330
2AA
100
AcDbEntity
  8
Defpoints
 62
     0
100
AcDbPoint
 10
-21.50978474022951
 20
-0.0080382686641075
 30
0.0
  0
ENDBLK
  5
2AC
330
2AA
100
AcDbEntity
  8
0
100
AcDbBlockEnd
  0
ENDSEC
  0
SECTION
  2
ENTITIES
  0
LINE
  5
96
330
1F
100
AcDbEntity
  8
0
  6
Continuous
 62
     1
370
    15
100
AcDbLine
 10
18.15139719290775
 20
6.362971138375862
 30
0.0
 11
18.09018380664683
 21
6.39698720620609
 31
0.0
  0
SPLINE
  5
97
330
1F
100
AcDbEntity
  8
0
  6
Continuous
 62
     1
370
    15
100
AcDbSpline
210
0.0
220
0.0
230
1.0
 70
     8
 71
     3
 72
    19
 73
    15
 74
     0
 42
0.000000001
 43
0.00000001
 40
0.0
 40
0.0
 40
0.0
 40
0.0
 40
0.1307689653884891
 40
0.2342754199064155
 40
0.3129705702337503
 40
0.3742026951879272
 40
0.420617198692661
 40
0.469359389477599
 40
0.5262283077854766
 40
0.5920699289429519
 40
0.6689183549474009
 40
0.7571257654354672
 40
0.8655076694847714
 40
1.0
 40
1.0
 40
1.0
 40
1.0
 10
30.61953328451699
 20
5.702484670043123
 30
0.0
 10
30.35810691219508
 20
5.825590228796222
 30
0.0
 10
29.88975593175886
 20
6.046136490548897
 30
0.0
 10
29.2410258656437
 20
6.357952962415976
 30
0.0
 10
28.71715470044731
 20
6.612591112716745
 30
0.0
 10
28.32103032248377
 20
6.806855548627762
 30
0.0
 10
28.01259270941116
 20
6.959394790535912
 30
0.0
 10
27.70980965453841
 20
7.109884906020604
 30
0.0
 10
27.35972747255779
 20
7.284997140563762
 30
0.0
 10
26.9471643382459
 20
7.492959036066704
 30
0.0
 10
26.46438714509016
 20
7.738495305614719
 30
0.0
 10
25.88498407610439
 20
8.036085531976472
 30
0.0
 10
25.2023544752861
 20
8.391145877054525
 30
0.0
 10
24.72196979064903
 20
8.645394184531845
 30
0.0
 10
24.45595534125097
 20
8.78618494178729
 30
0.0
  0
SPLINE
  5
98
330
1F
100
AcDbEntity
  8
0
  6
Continuous
 62
     1
370
    15
100
AcDbSpline
210
0.0
220
0.0
230
1.0
 70
     8
 71
     3
 72
    21
 73
    17
 74
     0
 42
0.000000001
 43
0.00000001
 40
0.0
 40
0.0
 40
0.0
 40
0.0
 40
0.0772782837128019
 40
0.1419968046384109
 40
0.1991060486358968
 40
0.2918675072313864
 40
0.3829002026549413
 40
0.4715031557097404
 40
0.5734231025575225
 40
0.6671686451978076
 40
0.695844008868411
 40
0.7292583990482339
 40
0.7762714678734953
 40
0.8370161672763952
 40
0.9115915561119271
 40
1.0
 40
1.0
 40
1.0
 40
1.0
 10
23.27397809229318
 20
17.66815863743351
 30
0.0
 10
23.04909713821863
 20
17.65528949604066
 30
0.0
 10
22.63588432643702
 20
17.63164278873261
 30
0.0
 10
21.932524817051
 20
17.59044381692063
 30
0.0
 10
21.08600589628755
 20
17.55412095161674
 30
0.0
 10
20.16445350034235
 20
17.52335142826177
 30
0.0
 10
19.10136657153956
 20
17.4848666938136
 30
0.0
 10
18.00263331307723
 20
17.44996025188648
 30
0.0
 10
16.91928067706318
 20
17.42169087633772
 30
0.0
 10
16.07445429895401
 20
17.40402243406385
 30
0.0
 10
15.47853158855429
 20
17.39345937228822
 30
0.0
 10
15.06030145740072
 20
17.38676327128007
 30
0.0
 10
14.51938094524962
 20
17.37927798933556
 30
0.0
 10
13.82062863373031
 20
17.37173766252787
 30
0.0
 10
12.96326084676723
 20
17.36541244302336
 30
0.0
 10
12.33875500738849
 20
17.36441548628896
 30
0.0
 10
11.99999999999999
 20
17.36387470017515
 30
0.0
  0
SPLINE
  5
99
330
1F
100
AcDbEntity
  8
0
  6
Continuous
 62
     1
370
    15
100
AcDbSpline
210
0.0
220
0.0
230
1.0
 70
     8
 71
     3
 72
    50
 73
    46
 74
     0
 42
0.000000001
 43
0.00000001
 40
0.0
 40
0.0
 40
0.0
 40
0.0
 40
0.0286140453590678
 40
0.053093254993087
 40
0.0735229865544417
 40
0.0901502806253176
 40
0.1041173167232198
 40
0.1191863365053708
 40
0.1390975389846271
 40
0.1607379647923737
 40
0.1800806650236553
 40
0.1964841547974874
 40
0.2202866832539881
 40
0.2426921508722557
 40
0.2659970089736284
 40
0.2923601175971217
 40
0.3196077711466285
 40
0.3510610762452752
 40
0.3821394536921609
 40
0.4092756671686254
 40
0.433761075424218
 40
0.4560223851363218
 40
0.4767362987450899
 40
0.4966385191043799
 40
0.5204302156743875
 40
0.5478377268941925
 40
0.5794124967288209
 40
0.6140899759433583
 40
0.6458414409606718
 40
0.6743176071253684
 40
0.7000190993335949
 40
0.7236738678711327
 40
0.7417373321373105
 40
0.7613031349260109
 40
0.7848016756332734
 40
0.8106105174371636
 40
0.8362400633517519
 40
0.8520300674078553
 40
0.8671006164268192
 40
0.8815052357188898
 40
0.8958756098594366
 40
0.9142026969928037
 40
0.9376151336329157
 40
0.9662198024743176
 40
0.9999999999999999
 40
0.9999999999999999
 40
0.9999999999999999
 40
0.9999999999999999
 10
79.94114974780425
 20
15.20815438046705
 30
0.0
 10
79.59539194826328
 20
15.17880570393614
 30
0.0
 10
78.9538396341282
 20
15.1243493435295
 30
0.0
 10
78.04002258619401
 20
15.05253891342891
 30
0.0
 10
77.25404112270891
 20
14.99548868887983
 30
0.0
 10
76.57902074842907
 20
14.95130655989794
 30
0.0
 10
75.96719179831457
 20
14.91505542088065
 30
0.0
 10
75.31425156663823
 20
14.8770535853402
 30
0.0
 10
74.56581084588146
 20
14.83645787554527
 30
0.0
 10
73.77343573655723
 20
14.79750877370145
 30
0.0
 10
73.0266079009814
 20
14.76467498846364
 30
0.0
 10
72.25320724087882
 20
14.73415777100717
 30
0.0
 10
71.44205579279142
 20
14.70634735805042
 30
0.0
 10
70.54136705055463
 20
14.68081256418892
 30
0.0
 10
69.60360670929373
 20
14.65973616787833
 30
0.0
 10
68.59183293633649
 20
14.64338984616001
 30
0.0
 10
67.48271761216753
 20
14.63325200821233
 30
0.0
 10
66.33015481834214
 20
14.63169413197634
 30
0.0
 10
65.17880951613324
 20
14.63913499751234
 30
0.0
 10
64.10449712491852
 20
14.65406213157813
 30
0.0
 10
63.14514749331718
 20
14.67379265824654
 30
0.0
 10
62.27102214401161
 20
14.69703088879079
 30
0.0
 10
61.45696288993908
 20
14.72318909140552
 30
0.0
 10
60.62197515006923
 20
14.75431084624967
 30
0.0
 10
59.69978661499825
 20
14.79378637119366
 30
0.0
 10
58.62632099637049
 20
14.8466844467939
 30
0.0
 10
57.41117518836517
 20
14.91560850098523
 30
0.0
 10
56.13984616690747
 20
14.99846202520562
 30
0.0
 10
54.90586630473877
 20
15.08892117789351
 30
0.0
 10
53.78846605603668
 20
15.17906132923601
 30
0.0
 10
52.78068999314311
 20
15.2670339674706
 30
0.0
 10
51.90915064819439
 20
15.34832489519793
 30
0.0
 10
51.11461284166362
 20
15.42651249877421
 30
0.0
 10
50.32188232629916
 20
15.50798083311131
 30
0.0
 10
49.42917120666717
 20
15.60415365583257
 30
0.0
 10
48.45870444394659
 20
15.71420256679834
 30
0.0
 10
47.59067360282473
 20
15.81775443582443
 30
0.0
 10
46.86365097036694
 20
15.90787215397391
 30
0.0
 10
46.26918100824503
 20
15.98378770992075
 30
0.0
 10
45.68771899486021
 20
16.06004473329921
 30
0.0
 10
45.06167219526321
 20
16.14301022711736
 30
0.0
 10
44.32169712951094
 20
16.24423589582572
 30
0.0
 10
43.41358368262012
 20
16.37370924480336
 30
0.0
 10
42.32211950066905
 20
16.53543555932903
 30
0.0
 10
41.53953108067024
 20
16.65743455892034
 30
0.0
 10
41.11577460015913
 20
16.72349465560918
 30
0.0
  0
SPLINE
  5
9A
330
1F
100
AcDbEntity
  8
0
  6
Continuous
 62
     1
370
    15
100
AcDbSpline
210
0.0
220
0.0
230
1.0
 70
     8
 71
     3
 72
    25
 73
    21
 74
     0
 42
0.000000001
 43
0.00000001
 40
0.0
 40
0.0
 40
0.0
 40
0.0
 40
0.0431041019405311
 40
0.0845814039048654
 40
0.1258974668847025
 40
0.1685987876519725
 40
0.2330054403932929
 40
0.28681654036401
 40
0.3285210591604876
 40
0.3663859158051158
 40
0.4087331497816999
 40
0.4554648629714415
 40
0.5142006774124372
 40
0.5771985993296591
 40
0.6444663952784894
 40
0.7142595972920481
 40
0.8093110086648398
 40
0.8887805829560705
 40
0.9581399761647343
 40
1.0
 40
1.0
 40
1.0
 40
1.0
 10
41.11577460015913
 20
-16.70887635039788
 30
0.0
 10
41.29876437628683
 20
-16.67950324542842
 30
0.0
 10
41.6578376771637
 20
-16.62186561133992
 30
0.0
 10
42.29214123855552
 20
-16.51959628365838
 30
0.0
 10
42.97618173856032
 20
-16.41534710367178
 30
0.0
 10
43.82273430246823
 20
-16.29467324083307
 30
0.0
 10
44.73810040826338
 20
-16.17196063698682
 30
0.0
 10
45.6493180533945
 20
-16.05026926012582
 30
0.0
 10
46.41133719812697
 20
-15.95062944299918
 30
0.0
 10
47.10226642687091
 20
-15.86297249653196
 30
0.0
 10
47.79559103998179
 20
-15.77849621610589
 30
0.0
 10
48.58066273849165
 20
-15.68570862953956
 30
0.0
 10
49.51613764367189
 20
-15.57961529737242
 30
0.0
 10
50.58302895136823
 20
-15.46559481324456
 30
0.0
 10
51.7042073711153
 20
-15.35276590913605
 30
0.0
 10
52.99802135573416
 20
-15.23193362973294
 30
0.0
 10
54.35933050656056
 20
-15.11638866349985
 30
0.0
 10
55.71918807143495
 20
-15.01394723806164
 30
0.0
 10
56.77866875322023
 20
-14.94093855366783
 30
0.0
 10
57.39246486702046
 20
-14.90479646149564
 30
0.0
 10
57.62348136249016
 20
-14.89119354143009
 30
0.0
  0
SPLINE
  5
9B
330
1F
100
AcDbEntity
  8
0
  6
Continuous
 62
     1
370
    15
100
AcDbSpline
210
0.0
220
0.0
230
1.0
 70
     8
 71
     3
 72
    25
 73
    21
 74
     0
 42
0.000000001
 43
0.00000001
 40
0.0
 40
0.0
 40
0.0
 40
0.0
 40
0.088403359542709
 40
0.1629744595680768
 40
0.2237156655599724
 40
0.2756413666902736
 40
0.3111872425216547
 40
0.3438950122834925
 40
0.3782309500667908
 40
0.4142052990387414
 40
0.4517126712171444
 40
0.4898599856648139
 40
0.5285680312182791
 40
0.6352558662058428
 40
0.745011733004735
 40
0.7728903843118311
 40
0.800905401898361
 40
0.8580113615588857
 40
0.9227261605401045
 40
1.0
 40
1.0
 40
1.0
 40
1.0
 10
11.99999999999999
 20
-17.34925639496384
 30
0.0
 10
12.33875534852807
 20
-17.34979721581578
 30
0.0
 10
12.96326181680871
 20
-17.35079423659104
 30
0.0
 10
13.82062569252513
 20
-17.35711905781463
 30
0.0
 10
14.53822727593604
 20
-17.36486381178008
 30
0.0
 10
15.10612218916734
 20
-17.37279858891433
 30
0.0
 10
15.56691418246532
 20
-17.38032862918208
 30
0.0
 10
15.95843302072787
 20
-17.3874568115512
 30
0.0
 10
16.34954081127507
 20
-17.39527359696424
 30
0.0
 10
16.75716913584496
 20
-17.40416830099772
 30
0.0
 10
17.17612541794813
 20
-17.41404181412878
 30
0.0
 10
17.61242245413883
 20
-17.42528276520017
 30
0.0
 10
18.31984091287011
 20
-17.44518358193519
 30
0.0
 10
19.31648183730345
 20
-17.47757598463092
 30
0.0
 10
20.26682604095507
 20
-17.51191729717901
 30
0.0
 10
20.90576753142605
 20
-17.53488423143216
 30
0.0
 10
21.33995366135459
 20
-17.54994099328682
 30
0.0
 10
21.93308995082402
 20
-17.5760271268086
 30
0.0
 10
22.6357018701834
 20
-17.61695939108221
 30
0.0
 10
23.04903283585653
 20
-17.64064825054911
 30
0.0
 10
23.27397809229318
 20
-17.6535403322222
 30
0.0
  0
SPLINE
  5
9C
330
1F
100
AcDbEntity
  8
0
  6
Continuous
 62
     1
370
    15
100
AcDbSpline
210
0.0
220
0.0
230
1.0
 70
     8
 71
     3
 72
    58
 73
    54
 74
     0
 42
0.000000001
 43
0.00000001
 40
0.0
 40
0.0
 40
0.0
 40
0.0
 40
0.0625000000000002
 40
0.0625000000000002
 40
0.09375
 40
0.09375
 40
0.1249999999999999
 40
0.1249999999999999
 40
0.1562499999999998
 40
0.1562499999999998
 40
0.1874999999999997
 40
0.1874999999999997
 40
0.2187499999999998
 40
0.2187499999999998
 40
0.2499999999999998
 40
0.2499999999999998
 40
0.2812499999999999
 40
0.2812499999999999
 40
0.3125
 40
0.3125
 40
0.3750000000000001
 40
0.3750000000000001
 40
0.4062500000000002
 40
0.4062500000000002
 40
0.4375000000000003
 40
0.4375000000000003
 40
0.4687500000000004
 40
0.4687500000000004
 40
0.5000000000000004
 40
0.5000000000000004
 40
0.5312500000000006
 40
0.5312500000000006
 40
0.5625000000000006
 40
0.5625000000000006
 40
0.6250000000000006
 40
0.6250000000000006
 40
0.6875000000000004
 40
0.6875000000000004
 40
0.7500000000000003
 40
0.7500000000000003
 40
0.7812500000000003
 40
0.7812500000000003
 40
0.8125000000000003
 40
0.8125000000000003
 40
0.8437500000000003
 40
0.8437500000000003
 40
0.8750000000000002
 40
0.8750000000000002
 40
0.9062500000000002
 40
0.9062500000000002
 40
0.9375000000000002
 40
0.9375000000000002
 40
1.0
 40
1.0
 40
1.0
 40
1.0
 10
88.19999999999999
 20
-22.22680404478233
 30
0.0
 10
86.61619981947179
 20
-22.16126096896538
 30
0.0
 10
85.02234146986811
 20
-22.0667589499773
 30
0.0
 10
82.64380051608744
 20
-21.84124156531769
 30
0.0
 10
81.85149789202785
 20
-21.75212094982081
 30
0.0
 10
80.26258903214881
 20
-21.54606622060367
 30
0.0
 10
79.46742267901625
 20
-21.42917528719674
 30
0.0
 10
77.88022723825497
 20
-21.16836641515306
 30
0.0
 10
77.08892610143492
 20
-21.02451623606422
 30
0.0
 10
75.50080752588906
 20
-20.70984814916124
 30
0.0
 10
74.70556138511935
 20
-20.53910679371611
 30
0.0
 10
73.11725803194518
 20
-20.17178601079218
 30
0.0
 10
72.32584889329001
 20
-19.97535955296957
 30
0.0
 10
70.73891492560553
 20
-19.5569558201768
 30
0.0
 10
69.94378714243976
 20
-19.33498839555408
 30
0.0
 10
68.35477035344428
 20
-18.86676324685968
 30
0.0
 10
67.56214381322336
 20
-18.6206443649707
 30
0.0
 10
65.97678779615734
 20
-18.10499083401271
 30
0.0
 10
65.18197641745917
 20
-17.83521660288082
 30
0.0
 10
62.797973681906
 20
-16.99228585337828
 30
0.0
 10
61.21463480349814
 20
-16.38622264448084
 30
0.0
 10
58.83074751343834
 20
-15.41564636406528
 30
0.0
 10
58.0357894170611
 20
-15.08201720125133
 30
0.0
 10
56.44977236383602
 20
-14.39650454971805
 30
0.0
 10
55.65775163975739
 20
-14.04449719609086
 30
0.0
 10
54.06896567794139
 20
-13.32230181088849
 30
0.0
 10
53.27376826166773
 20
-12.95233812668622
 30
0.0
 10
51.68632626298869
 20
-12.19681544735325
 30
0.0
 10
50.89509108042712
 20
-11.81143344308642
 30
0.0
 10
49.30717222663881
 20
-11.02521082997369
 30
0.0
 10
48.51193359520841
 20
-10.62459363333489
 30
0.0
 10
46.92346041433642
 20
-9.810641119860884
 30
0.0
 10
46.13190122965569
 20
-9.397604722959468
 30
0.0
 10
43.75191484817991
 20
-8.140391566715705
 30
0.0
 10
42.16056132995706
 20
-7.27845042283333
 30
0.0
 10
38.9905549150571
 20
-5.524143621309867
 30
0.0
 10
37.39664911764432
 20
-4.628963889133536
 30
0.0
 10
34.22748102710521
 20
-2.823029168003189
 30
0.0
 10
32.63525871987957
 20
-1.909076092433212
 30
0.0
 10
30.25577083129755
 20
-0.535993949164701
 30
0.0
 10
29.46398998218271
 20
-0.0779276622916158
 30
0.0
 10
27.87534188351604
 20
0.8387080365705679
 30
0.0
 10
27.08012091190556
 20
1.296959757660197
 30
0.0
 10
25.49244727820332
 20
2.210702683933214
 30
0.0
 10
24.70123600025564
 20
2.665957970769488
 30
0.0
 10
23.11353180608466
 20
3.57350891447274
 30
0.0
 10
22.3183081930963
 20
4.025558392800756
 30
0.0
 10
20.72968013978957
 20
4.92360903808755
 30
0.0
 10
19.93792886959711
 20
5.369303076789063
 30
0.0
 10
18.35156256026995
 20
6.253828600656223
 30
0.0
 10
17.55653443241857
 20
6.692730543609738
 30
0.0
 10
15.17275284147369
 20
7.995555760140413
 30
0.0
 10
13.58935219180862
 20
8.844881918600496
 30
0.0
 10
11.99999999999996
 20
9.670578621587728
 30
0.0
  0
SPLINE
  5
9D
330
1F
100
AcDbEntity
  8
0
  6
Continuous
 62
     1
370
    15
100
AcDbSpline
210
0.0
220
0.0
230
1.0
 70
     8
 71
     3
 72
    12
 73
     8
 74
     0
 42
0.000000001
 43
0.00000001
 40
0.0
 40
0.0
 40
0.0
 40
0.0
 40
0.20140902655833
 40
0.401051823137103
 40
0.600766097765611
 40
0.8004086266367036
 40
1.0
 40
1.0
 40
1.0
 40
1.0
 10
32.9908597500135
 20
-2.109319424798076
 30
0.0
 10
31.58157810618907
 20
-1.543338750612362
 30
0.0
 10
28.77537332864027
 20
-0.4163406953548456
 30
0.0
 10
24.57196329874276
 20
1.286742999280682
 30
0.0
 10
20.38055152281137
 20
2.964994834425394
 30
0.0
 10
16.18980020270699
 20
4.614715666225042
 30
0.0
 10
13.39648076100569
 20
5.664945863989504
 30
0.0
 10
11.99999999999999
 20
6.189993677680311
 30
0.0
  0
SPLINE
  5
9E
330
1F
100
AcDbEntity
  8
외형선
  6
Continuous
370
    15
100
AcDbSpline
210
0.0
220
0.0
230
1.0
 70
    24
 71
     3
 72
    14
 73
    10
 74
     0
 42
0.000000001
 43
0.00000001
 40
0.0
 40
0.0
 40
0.0
 40
0.0
 40
0.2499999999999998
 40
0.2499999999999998
 40
0.4999999999999997
 40
0.4999999999999997
 40
0.7499999999999996
 40
0.7499999999999996
 40
1.0
 40
1.0
 40
1.0
 40
1.0
 10
11.99999999999999
 20
9.670578621587712
 30
0.0
 10
11.99999999999999
 20
9.580082073936495
 30
0.0
 10
11.99999999999999
 20
9.432951764936119
 30
0.0
 10
11.99999999999999
 20
9.02886748863114
 30
0.0
 10
11.99999999999999
 20
8.77196563438195
 30
0.0
 10
11.99999999999999
 20
8.164493715115581
 30
0.0
 10
11.99999999999999
 20
7.814080334532329
 30
0.0
 10
11.99999999999999
 20
7.04533538472389
 30
0.0
 10
11.99999999999999
 20
6.627199259296384
 30
0.0
 10
11.99999999999999
 20
6.189993677680314
 30
0.0
  0
SPLINE
  5
9F
330
1F
100
AcDbEntity
  8
0
  6
Continuous
 62
     1
370
    15
100
AcDbSpline
210
0.0
220
0.0
230
1.0
 70
     8
 71
     3
 72
    58
 73
    54
 74
     0
 42
0.000000001
 43
0.00000001
 40
0.0
 40
0.0
 40
0.0
 40
0.0
 40
0.0624999999999999
 40
0.0624999999999999
 40
0.0937499999999998
 40
0.0937499999999998
 40
0.1249999999999998
 40
0.1249999999999998
 40
0.1562499999999997
 40
0.1562499999999997
 40
0.1874999999999997
 40
0.1874999999999997
 40
0.2187499999999996
 40
0.2187499999999996
 40
0.2499999999999996
 40
0.2499999999999996
 40
0.2812499999999995
 40
0.2812499999999995
 40
0.3124999999999994
 40
0.3124999999999994
 40
0.3749999999999994
 40
0.3749999999999994
 40
0.4062499999999993
 40
0.4062499999999993
 40
0.4374999999999993
 40
0.4374999999999993
 40
0.4687499999999992
 40
0.4687499999999992
 40
0.4999999999999992
 40
0.4999999999999992
 40
0.5312499999999992
 40
0.5312499999999992
 40
0.5624999999999991
 40
0.5624999999999991
 40
0.6249999999999992
 40
0.6249999999999992
 40
0.6874999999999993
 40
0.6874999999999993
 40
0.7499999999999994
 40
0.7499999999999994
 40
0.7812499999999996
 40
0.7812499999999996
 40
0.8124999999999997
 40
0.8124999999999997
 40
0.8437499999999997
 40
0.8437499999999997
 40
0.8749999999999998
 40
0.8749999999999998
 40
0.9062499999999998
 40
0.9062499999999998
 40
0.9374999999999999
 40
0.9374999999999999
 40
1.0
 40
1.0
 40
1.0
 40
1.0
 10
88.20000000000002
 20
-21.08290166607332
 30
0.0
 10
86.61619981947177
 20
-20.79399886044824
 30
0.0
 10
85.02234146986804
 20
-20.45056382500871
 30
0.0
 10
82.64380051608725
 20
-19.85940915308265
 30
0.0
 10
81.85149789202768
 20
-19.64962200351281
 30
0.0
 10
80.26258903214857
 20
-19.20485290103732
 30
0.0
 10
79.46742267901595
 20
-18.96998842658943
 30
0.0
 10
77.88022723825463
 20
-18.47667325717424
 30
0.0
 10
77.0889261014346
 20
-18.21832248338732
 30
0.0
 10
75.50080752588869
 20
-17.67811211371046
 30
0.0
 10
74.70556138511897
 20
-17.39640736009729
 30
0.0
 10
73.11725803194471
 20
-16.81141236584774
 30
0.0
 10
72.32584889328956
 20
-16.50834637574921
 30
0.0
 10
70.73891492560504
 20
-15.88103284454052
 30
0.0
 10
69.94378714243925
 20
-15.5568170656512
 30
0.0
 10
68.35477035344368
 20
-14.88910107893414
 30
0.0
 10
67.56214381322278
 20
-14.5457898229205
 30
0.0
 10
65.97678779615673
 20
-13.84105974194461
 30
0.0
 10
65.18197641745851
 20
-13.47932168317289
 30
0.0
 10
62.79797368190525
 20
-12.36903445181972
 30
0.0
 10
61.21463480349739
 20
-11.59630160652551
 30
0.0
 10
58.83074751343749
 20
-10.39435891188014
 30
0.0
 10
58.03578941706023
 20
-9.986755560649142
 30
0.0
 10
56.44977236383513
 20
-9.160001543240071
 30
0.0
 10
55.65775163975646
 20
-8.740693233283286
 30
0.0
 10
54.06896567794038
 20
-7.890614592720041
 30
0.0
 10
53.27376826166672
 20
-7.460116185187879
 30
0.0
 10
51.68632626298763
 20
-6.590679268675853
 30
0.0
 10
50.89509108042601
 20
-6.151934478670423
 30
0.0
 10
49.30717222663768
 20
-5.266147667235217
 30
0.0
 10
48.51193359520726
 20
-4.819366921044749
 30
0.0
 10
46.92346041433521
 20
-3.920591835352115
 30
0.0
 10
46.13190122965448
 20
-3.468919261189661
 30
0.0
 10
43.75191484817861
 20
-2.107115166979935
 30
0.0
 10
42.16056132995573
 20
-1.190629179540596
 30
0.0
 10
38.99055491505567
 20
0.6413503142014368
 30
0.0
 10
37.39664911764284
 20
1.55976608797236
 30
0.0
 10
34.22748102710366
 20
3.380449215253713
 30
0.0
 10
32.63525871987794
 20
4.285951180498273
 30
0.0
 10
30.25577083129587
 20
5.62272534530333
 30
0.0
 10
29.463989982181
 20
6.064765520554997
 30
0.0
 10
27.87534188351427
 20
6.941499087997185
 30
0.0
 10
27.08012091190379
 20
7.375881815542003
 30
0.0
 10
25.49244727820151
 20
8.234192602682382
 30
0.0
 10
24.7012360002538
 20
8.65790735214816
 30
0.0
 10
23.11353180608276
 20
9.494709239486427
 30
0.0
 10
22.31830819309439
 20
9.907561036950973
 30
0.0
 10
20.72968013978761
 20
10.71979052689075
 30
0.0
 10
19.93792886959511
 20
11.11889746330633
 30
0.0
 10
18.35156256026789
 20
11.90292809352409
 30
0.0
 10
17.55653443241649
 20
12.28790711848437
 30
0.0
 10
15.17275284147155
 20
13.41838201557007
 30
0.0
 10
13.58935219180643
 20
14.1388158750456
 30
0.0
 10
11.99999999999775
 20
14.82229501271488
 30
0.0
  0
SPLINE
  5
A0
330
1F
100
AcDbEntity
  8
0
  6
Continuous
 62
     1
370
    15
100
AcDbSpline
210
0.0
220
0.0
230
1.0
 70
     8
 71
     3
 72
    22
 73
    18
 74
     0
 42
0.000000001
 43
0.00000001
 40
0.0
 40
0.0
 40
0.0
 40
0.0
 40
0.0687972849895405
 40
0.1375603172485675
 40
0.2063223728439519
 40
0.2751167330758371
 40
0.3439168249802501
 40
0.412680948392347
 40
0.4814421418315311
 40
0.5502336912178897
 40
0.6190362404382993
 40
0.68780156947277
 40
0.7565620152790982
 40
0.8253508677838138
 40
0.8941555246715593
 40
0.9629221737754725
 40
1.0
 40
1.0
 40
1.0
 40
1.0
 10
88.2
 20
-17.52759942297795
 30
0.0
 10
86.87874759934341
 20
-17.26852503557746
 30
0.0
 10
84.2369006219898
 20
-16.75050524850002
 30
0.0
 10
80.27491756090625
 20
-15.74601910252701
 30
0.0
 10
76.31299093096982
 20
-14.5880369898771
 30
0.0
 10
72.34996200425294
 20
-13.27224855864266
 30
0.0
 10
68.38679607087798
 20
-11.8170079789405
 30
0.0
 10
64.42475265900944
 20
-10.23580877072201
 30
0.0
 10
60.46287556503414
 20
-8.54626703681813
 30
0.0
 10
56.49991655597329
 20
-6.766445401853396
 30
0.0
 10
52.53669231290316
 20
-4.91527310224803
 30
0.0
 10
48.57458800411641
 20
-3.011190857572611
 30
0.0
 10
44.61275351364482
 20
-1.075465846733316
 30
0.0
 10
40.64986510940575
 20
0.872273081639195
 30
0.0
 10
36.68658595070053
 20
2.807420652019649
 30
0.0
 10
33.33282312699636
 20
4.430388935744495
 30
0.0
 10
31.30027798873528
 20
5.377998969356285
 30
0.0
 10
30.5882677000915
 20
5.709951298902537
 30
0.0
  0
LINE
  5
A1
330
1F
100
AcDbEntity
  8
0
  6
Continuous
 62
     1
370
    15
100
AcDbLine
 10
88.2
 20
-21.08290166607333
 30
0.0
 11
88.2
 21
-17.52759942297795
 31
0.0
  0
LINE
  5
A2
330
1F
100
AcDbEntity
  8
외형선
  6
Continuous
370
    15
100
AcDbLine
 10
11.99999999999999
 20
9.67057862158771
 30
0.0
 11
12.00000000000001
 21
14.82229501270974
 31
0.0
  0
LINE
  5
A3
330
1F
100
AcDbEntity
  8
0
  6
Continuous
 62
     1
370
    15
100
AcDbLine
 10
88.19999999999999
 20
-22.22680404478233
 30
0.0
 11
88.2
 21
-21.08290166607333
 31
0.0
  0
SPLINE
  5
A4
330
1F
100
AcDbEntity
  8
0
  6
Continuous
 62
     1
370
    15
100
AcDbSpline
210
0.0
220
0.0
230
1.0
 70
     8
 71
     3
 72
    24
 73
    20
 74
     0
 42
0.000000001
 43
0.00000001
 40
0.0
 40
0.0
 40
0.0
 40
0.0
 40
0.0610458020991239
 40
0.1220607858561899
 40
0.1830748907714124
 40
0.2441180610799082
 40
0.3051663889168989
 40
0.3661823545498288
 40
0.4271956836735322
 40
0.4882363247030446
 40
0.5492868636599411
 40
0.6103039141845441
 40
0.671316570581444
 40
0.7323547848904547
 40
0.7934072203046191
 40
0.8544254587165818
 40
0.9154375454638735
 40
0.9799802616064937
 40
1.0
 40
1.0
 40
1.0
 40
1.0
 10
88.2
 20
0.0073091526056678
 30
0.0
 10
86.87874916957804
 20
0.6173919980516606
 30
0.0
 10
84.2369145285559
 20
1.837249694926562
 30
0.0
 10
80.27491344300448
 20
3.648359072615953
 30
0.0
 10
76.31296955583399
 20
5.420884551195042
 30
0.0
 10
72.34995018408382
 20
7.1356834129352
 30
0.0
 10
68.38680239480337
 20
8.774887850697263
 30
0.0
 10
64.42474032812837
 20
10.32184423066242
 30
0.0
 10
60.46284668122399
 20
11.75951012712947
 30
0.0
 10
56.49989317151096
 20
13.07250273566462
 30
0.0
 10
52.53669080929332
 20
14.24700332240622
 30
0.0
 10
48.57456743543952
 20
15.27122996297545
 30
0.0
 10
44.61271733999457
 20
16.1336830511155
 30
0.0
 10
40.64982942871713
 20
16.82555945756427
 30
0.0
 10
36.6865800679285
 20
17.33829835466659
 30
0.0
 10
32.72439577163779
 20
17.67150156560557
 30
0.0
 10
28.68668712106587
 20
17.80622704556156
 30
0.0
 10
25.53606299625169
 20
17.7997337287614
 30
0.0
 10
23.70580449781988
 20
17.67522594103798
 30
0.0
 10
23.27249994756652
 20
17.64574934469449
 30
0.0
  0
SPLINE
  5
A5
330
1F
100
AcDbEntity
  8
0
  6
Continuous
 62
     1
370
    15
100
AcDbSpline
210
0.0
220
0.0
230
1.0
 70
    24
 71
     3
 72
    14
 73
    10
 74
     0
 42
0.000000001
 43
0.00000001
 40
0.0
 40
0.0
 40
0.0
 40
0.0
 40
0.2500000000000001
 40
0.2500000000000001
 40
0.5000000000000001
 40
0.5000000000000001
 40
0.75
 40
0.75
 40
1.0
 40
1.0
 40
1.0
 40
1.0
 10
88.2
 20
-17.52759942297794
 30
0.0
 10
88.20000000000002
 20
-16.5788175378515
 30
0.0
 10
88.20000000000002
 20
-15.4557116779306
 30
0.0
 10
88.20000000000002
 20
-12.90518475619549
 30
0.0
 10
88.2
 20
-11.47812314915856
 30
0.0
 10
88.2
 20
-8.413463425960831
 30
0.0
 10
88.20000000000002
 20
-6.776750290496977
 30
0.0
 10
88.20000000000003
 20
-3.417137944879914
 30
0.0
 10
88.20000000000002
 20
-1.695235297172458
 30
0.0
 10
88.2
 20
0.0073091526056678
 30
0.0
  0
SPLINE
  5
A6
330
1F
100
AcDbEntity
  8
외형선
  6
Continuous
370
    15
100
AcDbSpline
210
0.0
220
0.0
230
1.0
 70
    24
 71
     3
 72
    14
 73
    10
 74
     0
 42
0.000000001
 43
0.00000001
 40
0.0
 40
0.0
 40
0.0
 40
0.0
 40
0.0381114606400758
 40
0.2217775687661656
 40
0.410779574712736
 40
0.5997815806593063
 40
0.7659185809768477
 40
0.9320555812943889
 40
1.0
 40
1.0
 40
1.0
 40
1.0
 10
12.00000000000001
 20
17.34986952568449
 30
0.0
 10
12.00000000000001
 20
17.35420710945716
 30
0.0
 10
12.00000000000001
 20
17.3794483037663
 30
0.0
 10
12.00000000000001
 20
17.25936457725988
 30
0.0
 10
12.00000000000001
 20
16.97504279836849
 30
0.0
 10
12.00000000000001
 20
16.51938670620714
 30
0.0
 10
12.0
 20
15.92875709986612
 30
0.0
 10
11.99999999999998
 20
15.39403116252981
 30
0.0
 10
11.99999999999998
 20
15.00318627872474
 30
0.0
 10
11.99999999999998
 20
14.88973973288176
 30
0.0
  0
SPLINE
  5
A7
330
1F
100
AcDbEntity
  8
0
  6
Continuous
 62
     1
370
    15
100
AcDbSpline
210
0.0
220
0.0
230
1.0
 70
    24
 71
     3
 72
    10
 73
     6
 74
     0
 42
0.000000001
 43
0.00000001
 40
0.0
 40
0.0
 40
0.0
 40
0.0
 40
0.5
 40
0.5
 40
1.0
 40
1.0
 40
1.0
 40
1.0
 10
83.2
 20
10.46631954026195
 30
0.0
 10
83.19999999999997
 20
11.23592048457686
 30
0.0
 10
83.20000000000005
 20
11.92925339779234
 30
0.0
 10
83.2
 20
13.1389530532339
 30
0.0
 10
83.19999999999999
 20
13.65526270755368
 30
0.0
 10
83.19999999999999
 20
14.07733713627429
 30
0.0
  0
SPLINE
  5
A8
330
1F
100
AcDbEntity
  8
0
  6
Continuous
 62
     1
370
    15
100
AcDbSpline
210
0.0
220
0.0
230
1.0
 70
     8
 71
     3
 72
    10
 73
     6
 74
     0
 42
0.000000001
 43
0.00000001
 40
0.0
 40
0.0
 40
0.0
 40
0.0
 40
0.5000000000000001
 40
0.5000000000000001
 40
1.0
 40
1.0
 40
1.0
 40
1.0
 10
83.2
 20
10.46631954026195
 30
0.0
 10
84.13303537573834
 20
9.797968012363889
 30
0.0
 10
85.01995232143099
 20
9.051410406160034
 30
0.0
 10
86.69154225756601
 20
7.384913342664137
 30
0.0
 10
87.47639945866578
 20
6.465286263592425
 30
0.0
 10
88.20000000000002
 20
5.441782206799772
 30
0.0
  0
SPLINE
  5
A9
330
1F
100
AcDbEntity
  8
0
  6
Continuous
 62
     1
370
    15
100
AcDbSpline
210
0.0
220
0.0
230
1.0
 70
     8
 71
     3
 72
     9
 73
     5
 74
     0
 42
0.000000001
 43
0.00000001
 40
0.0
 40
0.0
 40
0.0
 40
0.0
 40
0.5993868292857736
 40
1.0
 40
1.0
 40
1.0
 40
1.0
 10
88.2
 20
15.56480915260565
 30
0.0
 10
86.54874601317448
 20
15.54742197538736
 30
0.0
 10
83.79384065632316
 20
15.51841370165035
 30
0.0
 10
81.03895234079715
 20
15.27658835598636
 30
0.0
 10
79.93530779775072
 20
15.17970993750084
 30
0.0
  0
SPLINE
  5
AA
330
1F
100
AcDbEntity
  8
0
  6
Continuous
 62
     1
370
    15
100
AcDbSpline
210
0.0
220
0.0
230
1.0
 70
     8
 71
     3
 72
     8
 73
     4
 74
     0
 42
0.000000001
 43
0.00000001
 40
0.0
 40
0.0
 40
0.0
 40
0.0
 40
1.0
 40
1.0
 40
1.0
 40
1.0
 10
88.2
 20
15.56480915260566
 30
0.0
 10
86.52598058323505
 20
15.11110269450597
 30
0.0
 10
84.85922931830575
 20
14.61576327935609
 30
0.0
 10
83.19999999999999
 20
14.07733713627431
 30
0.0
  0
SPLINE
  5
AB
330
1F
100
AcDbEntity
  8
0
  6
Continuous
 62
     1
370
    15
100
AcDbSpline
210
0.0
220
0.0
230
1.0
 70
    24
 71
     3
 72
     8
 73
     4
 74
     0
 42
0.000000001
 43
0.00000001
 40
0.0
 40
0.0
 40
0.0
 40
0.0
 40
1.0
 40
1.0
 40
1.0
 40
1.0
 10
88.2
 20
0.0073091526056656
 30
0.0
 10
88.2
 20
1.874860587761028
 30
0.0
 10
88.19999999999999
 20
3.719221791476504
 30
0.0
 10
88.19999999999999
 20
5.441782206799767
 30
0.0
  0
SPLINE
  5
AC
330
1F
100
AcDbEntity
  8
0
  6
Continuous
 62
     1
370
    15
100
AcDbSpline
210
0.0
220
0.0
230
1.0
 70
     8
 71
     3
 72
    15
 73
    11
 74
     0
 42
0.000000001
 43
0.00000001
 40
0.0
 40
0.0
 40
0.0
 40
0.0
 40
0.0160612822930234
 40
0.1521984230095743
 40
0.2882593098949845
 40
0.4243064795546477
 40
0.5682263866006124
 40
0.7121964789738646
 40
0.8561161976485955
 40
0.9999999999999999
 40
0.9999999999999999
 40
0.9999999999999999
 40
0.9999999999999999
 10
41.11777072324859
 20
-16.69954373717277
 30
0.0
 10
40.96187997909131
 20
-16.72703446034705
 30
0.0
 10
39.48464267078298
 20
-16.987539483432
 30
0.0
 10
36.68656438862352
 20
-17.31328523243183
 30
0.0
 10
32.72439957266473
 20
-17.65754135304222
 30
0.0
 10
28.6866875264681
 20
-17.79950393920718
 30
0.0
 10
24.57197299517189
 20
-17.748648380457
 30
0.0
 10
20.38053524699259
 20
-17.48162238655618
 30
0.0
 10
16.18978709255291
 20
-17.02171618978828
 30
0.0
 10
13.39647950095613
 20
-16.54612646227336
 30
0.0
 10
12.00000000000002
 20
-16.30836127402918
 30
0.0
  0
SPLINE
  5
AD
330
1F
100
AcDbEntity
  8
외형선
  6
Continuous
370
    15
100
AcDbSpline
210
0.0
220
0.0
230
1.0
 70
    24
 71
     3
 72
    14
 73
    10
 74
     0
 42
0.000000001
 43
0.00000001
 40
0.0
 40
0.0
 40
0.0
 40
0.0
 40
0.25
 40
0.25
 40
0.5
 40
0.5
 40
0.75
 40
0.75
 40
1.0
 40
1.0
 40
1.0
 40
1.0
 10
12.0
 20
6.189993677680307
 30
0.0
 10
12.0
 20
4.258193235020722
 30
0.0
 10
12.0
 20
2.217798275711531
 30
0.0
 10
12.0
 20
-1.90659449762504
 30
0.0
 10
12.0
 20
-3.988672072799854
 30
0.0
 10
12.0
 20
-7.987278400266993
 30
0.0
 10
12.0
 20
-9.901676527933422
 30
0.0
 10
12.0
 20
-13.38715642795004
 30
0.0
 10
12.0
 20
-14.95721534905238
 30
0.0
 10
12.0
 20
-16.30836127402917
 30
0.0
  0
SPLINE
  5
AE
330
1F
100
AcDbEntity
  8
외형선
  6
Continuous
370
    15
100
AcDbSpline
210
0.0
220
0.0
230
1.0
 70
    24
 71
     3
 72
    11
 73
     7
 74
     0
 42
0.000000001
 43
0.00000001
 40
0.0
 40
0.0
 40
0.0
 40
0.0
 40
0.2581428942043205
 40
0.516655616635679
 40
0.7747985108399994
 40
1.0
 40
1.0
 40
1.0
 40
1.0
 10
12.0
 20
-16.30836127402917
 30
0.0
 10
12.0
 20
-16.47324847841426
 30
0.0
 10
12.0
 20
-16.8032591127162
 30
0.0
 10
12.00000000000001
 20
-17.12220664116533
 30
0.0
 10
12.00000000000001
 20
-17.32108419506165
 30
0.0
 10
12.00000000000001
 20
-17.33074842772065
 30
0.0
 10
12.00000000000001
 20
-17.33525122047318
 30
0.0
  0
LINE
  5
AF
330
1F
100
AcDbEntity
  8
0
  6
Continuous
 62
     1
370
    15
100
AcDbLine
 10
88.2
 20
5.475509566885775
 30
0.0
 11
88.2
 21
15.56480915260566
 31
0.0
  0
SPLINE
  5
B0
330
1F
100
AcDbEntity
  8
0
  6
Continuous
 62
     1
370
    15
100
AcDbSpline
210
0.0
220
0.0
230
1.0
 70
     8
 71
     3
 72
    16
 73
    12
 74
     0
 42
0.000000001
 43
0.00000001
 40
0.0
 40
0.0
 40
0.0
 40
0.0
 40
0.0262940047421426
 40
0.1491100591160999
 40
0.2719631484073265
 40
0.394734442928398
 40
0.517512244969762
 40
0.6381828864315933
 40
0.7587877565181875
 40
0.8793578499839043
 40
1.0
 40
1.0
 40
1.0
 40
1.0
 10
57.62227334627995
 20
14.90528184289528
 30
0.0
 10
57.89025592454067
 20
15.02365088934394
 30
0.0
 10
59.40995208639987
 20
15.69490715808522
 30
0.0
 10
62.1820274270931
 20
16.77951275184316
 30
0.0
 10
65.93787268593262
 20
18.13332761527019
 30
0.0
 10
69.69247160117453
 20
19.30375171549856
 30
0.0
 10
73.42486012521925
 20
20.28758117253577
 30
0.0
 10
77.13611513383294
 20
21.07627513935565
 30
0.0
 10
80.82410700255039
 20
21.66377562649723
 30
0.0
 10
84.51149364225691
 20
22.06716213185613
 30
0.0
 10
86.97025304834739
 20
22.16472760953557
 30
0.0
 10
88.19999999999999
 20
22.22319595521767
 30
0.0
  0
SPLINE
  5
B1
330
1F
100
AcDbEntity
  8
0
  6
Continuous
 62
     1
370
    15
100
AcDbSpline
210
0.0
220
0.0
230
1.0
 70
    24
 71
     3
 72
    14
 73
    10
 74
     0
 42
0.000000001
 43
0.00000001
 40
0.0
 40
0.0
 40
0.0
 40
0.0
 40
0.25
 40
0.25
 40
0.5
 40
0.5
 40
0.75
 40
0.75
 40
1.0
 40
1.0
 40
1.0
 40
1.0
 10
88.2
 20
15.56480915260565
 30
0.0
 10
88.20000000000002
 20
16.03633760637693
 30
0.0
 10
88.20000000000002
 20
16.54492281059152
 30
0.0
 10
88.19999999999999
 20
17.6161046713453
 30
0.0
 10
88.20000000000002
 20
18.17859454362316
 30
0.0
 10
88.20000000000003
 20
19.32821258451482
 30
0.0
 10
88.20000000000002
 20
19.91514735986634
 30
0.0
 10
88.20000000000003
 20
21.0796448031805
 30
0.0
 10
88.20000000000003
 20
21.65699559218893
 30
0.0
 10
88.19999999999999
 20
22.22319595521767
 30
0.0
  0
LINE
  5
B3
330
1F
100
AcDbEntity
  8
참조1
100
AcDbLine
 10
16.44057883212694
 20
0.0010749287238892
 30
0.0
 11
16.44057883212694
 21
-39.99892507127611
 31
0.0
  0
LINE
  5
B4
330
1F
100
AcDbEntity
  8
참조1
100
AcDbLine
 10
16.44057883212694
 20
-39.99892507127611
 30
0.0
 11
-22.53075298218174
 21
-39.9989250712761
 31
0.0
  0
INSERT
  5
B6
330
1F
100
AcDbEntity
  8
0
  6
Continuous
 62
     7
100
AcDbBlockReference
 66
     1
  2
블럭10
 10
10.75972706787479
 20
-52.03986514903828
 30
0.0
  0
ATTRIB
  5
B7
330
B6
100
AcDbEntity
  8
FORMAT
 62
     2
100
AcDbText
 10
1.578431779133508
 20
-49.96449823620609
 30
0.0
 40
4.233333333333333
  1
E1070983 [ 2 FLUTE ]
 41
0.75
  7
SLDTEXTSTYLE0
 11
1.578431779133508
 21
-52.08116490287276
 31
0.0
100
AcDbAttribute
  2
AUTOATTR0
 70
     0
 74
     1
  0
SEQEND
  5
B8
330
B6
100
AcDbEntity
  8
0
  6
Continuous
 62
     7
  0
HATCH
  5
B9
330
1F
100
AcDbEntity
  8
중심선
100
AcDbHatch
 10
0.0
 20
0.0
 30
0.0
210
0.0
220
0.0
230
1.0
  2
SOLID
 70
     1
 71
     0
 91
        1
 92
        0
 93
        4
 72
     1
 10
16.47463637225562
 20
-35.79269084739434
 11
13.02836112841834
 21
-35.79269084739434
 72
     1
 10
13.02836112841834
 20
-35.79269084739434
 11
10.90013126921432
 21
-38.32901642796694
 72
     1
 10
10.90013126921432
 20
-38.32901642796694
 11
14.34643959816475
 21
-38.32897699866445
 72
     1
 10
14.34643959816475
 20
-38.32897699866445
 11
16.47463637225562
 21
-35.79269084739434
 97
        0
 75
     0
 76
     1
 98
        1
 10
8.259421167873057
 20
0.0062342238817621
  0
HATCH
  5
BA
330
1F
100
AcDbEntity
  8
중심선
100
AcDbHatch
 10
0.0
 20
0.0
 30
0.0
210
0.0
220
0.0
230
1.0
  2
SOLID
 70
     1
 71
     0
 91
        1
 92
        0
 93
        4
 72
     1
 10
21.4874003632916
 20
-35.79269084739432
 11
18.04112511945431
 21
-35.79269084739432
 72
     1
 10
18.04112511945432
 20
-35.79269084739432
 11
13.5099871110969
 21
-41.19269084739436
 72
     1
 10
13.5099871110969
 20
-41.19269084739436
 11
16.95626235493418
 21
-41.19269084739436
 72
     1
 10
16.95626235493418
 20
-41.19269084739436
 11
21.4874003632916
 21
-35.79269084739432
 97
        0
 75
     0
 76
     1
 98
        1
 10
8.259421167873057
 20
0.0062342238817621
  0
HATCH
  5
BB
330
1F
100
AcDbEntity
  8
중심선
100
AcDbHatch
 10
0.0
 20
0.0
 30
0.0
210
0.0
220
0.0
230
1.0
  2
SOLID
 70
     1
 71
     0
 91
        1
 92
        0
 93
        4
 72
     1
 10
26.50016435432747
 20
-35.79269084739434
 11
23.05388911049035
 21
-35.79269084739432
 72
     1
 10
23.05388911049035
 20
-35.79269084739432
 11
16.0054522086011
 21
-44.19269084739436
 72
     1
 10
16.0054522086011
 20
-44.19269084739436
 11
19.45172745243838
 21
-44.19269084739436
 72
     1
 10
19.45172745243838
 20
-44.19269084739436
 11
26.50016435432747
 21
-35.79269084739434
 97
        0
 75
     0
 76
     1
 98
        1
 10
8.259421167873057
 20
0.0062342238817621
  0
HATCH
  5
BC
330
1F
100
AcDbEntity
  8
중심선
100
AcDbHatch
 10
0.0
 20
0.0
 30
0.0
210
0.0
220
0.0
230
1.0
  2
SOLID
 70
     1
 71
     0
 91
        1
 92
        0
 93
        6
 72
     3
 10
31.30005478533967
 20
-39.99269084744562
 11
3.960054785062283
 21
1.540882976769353E-10
 40
0.3939339440162628
 50
17.09539180608439
 51
320.0019657685075
 73
     0
 72
     1
 10
32.98305444104027
 20
-38.58058485203262
 11
35.28835631474131
 21
-36.64625814198472
 72
     3
 10
31.30005478528682
 20
-39.99269084739449
 11
6.600054785286826
 21
-1.278976924368180E-13
 40
0.6363583540795983
 50
39.99873849337411
 51
368.4976242363724
 73
     1
 72
     1
 10
37.72538727718743
 20
-39.03269084732437
 11
29.98012209212277
 21
-39.03269084732434
 72
     1
 10
29.98012209212277
 20
-39.03269084732434
 11
29.98009704767681
 21
-40.95269084732426
 72
     1
 10
29.98009704767681
 20
-40.95269084732426
 11
34.42147681714884
 21
-40.95269084732423
 97
        0
 75
     0
 76
     1
 98
        1
 10
8.259421167873057
 20
0.0062342238817621
  0
DIMENSION
  5
CB
330
1F
100
AcDbEntity
  8
0
  6
Continuous
 62
     0
370
    15
100
AcDbDimension
  2
_D_1
 10
12.0
 20
34.46752151474234
 30
0.0
 11
50.09999999999999
 21
34.46752151474234
 31
0.0
 70
   160
  1
<>
 71
     2
 42
76.19999999999999
  3
SLDDIMSTYLE1
100
AcDbAlignedDimension
 13
88.19999999999999
 23
22.22319595521767
 33
0.0
 14
12.0
 24
15.87319595521767
 34
0.0
100
AcDbRotatedDimension
1001
ACAD
1000
DSTYLE
1002
{
1070
   171
1070
     6
1070
   273
1070
     7
1002
}
  0
DIMENSION
  5
F5
330
1F
100
AcDbEntity
  8
0
  6
Continuous
 62
     0
370
    15
100
AcDbDimension
  2
_D_3
 10
107.2000000000001
 20
22.22319595521773
 30
0.0
 11
107.2
 21
67.01352492108464
 31
0.0
 70
   160
  1
%%c<>
 71
     2
 42
44.45
 52
-270.0
  3
SLDDIMSTYLE1
100
AcDbAlignedDimension
 13
88.19999999999999
 23
-22.22680404478233
 33
0.0
 14
88.19999999999999
 24
22.22319595521767
 34
0.0
 50
90.0000000000002
100
AcDbRotatedDimension
1001
ACAD
1000
DSTYLE
1002
{
1070
   171
1070
     6
1070
   273
1070
     7
1002
}
  0
LINE
  5
109
330
1F
100
AcDbEntity
  8
참조1
100
AcDbLine
 10
75.44158764747253
 20
7.441074928723896
 30
0.0
 11
75.44158764747253
 21
-7.438925071276109
 31
0.0
  0
LINE
  5
10A
330
1F
100
AcDbEntity
  8
참조1
100
AcDbLine
 10
88.14158764747253
 20
5.441074928723896
 30
0.0
 11
75.44158764747253
 21
5.441074928723896
 31
0.0
  0
SOLID
  5
10B
330
1F
100
AcDbEntity
  8
참조1
100
AcDbTrace
 10
75.44158764747253
 20
5.441074928723896
 30
0.0
 11
81.79158764747253
 21
4.425074928723896
 31
0.0
 12
81.79158764747253
 22
6.457074928723896
 32
0.0
 13
81.79158764747253
 23
6.457074928723896
 33
0.0
  0
LINE
  5
10C
330
1F
100
AcDbEntity
  8
참조1
100
AcDbLine
 10
88.14158764747253
 20
-5.438925071276109
 30
0.0
 11
75.44158764747253
 21
-5.438925071276109
 31
0.0
  0
SOLID
  5
10D
330
1F
100
AcDbEntity
  8
참조1
100
AcDbTrace
 10
75.44158764747253
 20
-5.438925071276109
 30
0.0
 11
81.79158764747253
 21
-6.454925071276109
 31
0.0
 12
81.79158764747253
 22
-4.422925071276109
 32
0.0
 13
81.79158764747253
 23
-4.422925071276109
 33
0.0
  0
MTEXT
  5
10E
330
1F
100
AcDbEntity
  8
참조1
100
AcDbMText
 10
84.82593778009851
 20
11.01136670591222
 30
0.0
 40
3.5
 41
0.0
 71
     1
 72
     1
  1
A
  7
SLDTEXTSTYLE0
 73
     1
 44
1.0
  0
MTEXT
  5
10F
330
1F
100
AcDbEntity
  8
참조1
100
AcDbMText
 10
84.82593778009851
 20
0.1313667059122201
 30
0.0
 40
3.5
 41
0.0
 71
     1
 72
     1
  1
A
  7
SLDTEXTSTYLE0
 73
     1
 44
1.0
  0
LINE
  5
227
330
1F
100
AcDbEntity
  8
중심선
100
AcDbLine
 10
-58.49999999999997
 20
-0.001804044782347
 30
0.0
 11
95.20000000000005
 21
-0.0018040447823354
 31
0.0
  0
LINE
  5
232
330
1F
100
AcDbEntity
  8
외형선
  6
Continuous
370
    15
100
AcDbLine
 10
-51.49999999999997
 20
-14.87680404478235
 30
0.0
 11
-50.49999999999997
 21
-15.87680404478235
 31
0.0
  0
LINE
  5
233
330
1F
100
AcDbEntity
  8
외형선
  6
Continuous
370
    15
100
AcDbLine
 10
-50.49999999999997
 20
13.48559595521763
 30
0.0
 11
-50.49999999999997
 21
-15.87680404478236
 31
0.0
  0
LINE
  5
234
330
1F
100
AcDbEntity
  8
외형선
  6
Continuous
370
    15
100
AcDbLine
 10
-51.49999999999997
 20
13.48559595521763
 30
0.0
 11
-51.49999999999997
 21
-14.87680404478236
 31
0.0
  0
CIRCLE
  5
235
330
1F
100
AcDbEntity
  8
해칭선
100
AcDbCircle
 10
0.0
 20
0.0
 30
0.0
 40
2.999999999999995
  0
DIMENSION
  5
236
330
1F
100
AcDbEntity
  8
0
  6
Continuous
 62
     0
370
    15
100
AcDbDimension
  2
*D13
 10
-60.95008564276361
 20
-15.87680404478239
 30
0.0
 11
-60.95008564276367
 21
-0.0018040447823182
 31
0.0
 70
   160
  1
%%c<>
 71
     2
 42
31.74999999999999
 52
-270.0
  3
SLDDIMSTYLE1
100
AcDbAlignedDimension
 13
-50.5
 23
15.87319595521764
 33
0.0
 14
-50.49999999999997
 24
-15.87680404478235
 34
0.0
 50
90.0000000000002
100
AcDbRotatedDimension
1001
ACAD
1000
DSTYLE
1002
{
1070
   171
1070
     6
1070
   273
1070
     7
1002
}
  0
DIMENSION
  5
237
330
1F
100
AcDbEntity
  8
0
  6
Continuous
 62
     0
370
    15
100
AcDbDimension
  2
*D14
 10
-51.49999999999997
 20
45.58816181965817
 30
0.0
 11
21.39991435723636
 21
45.58816181965817
 31
0.0
 70
   160
  1
<>
 71
     2
 42
139.7
  3
SLDDIMSTYLE1
100
AcDbAlignedDimension
 13
88.19999999999999
 23
22.22319595521767
 33
0.0
 14
-51.49999999999997
 24
14.87319595521764
 34
0.0
 50
0.0000000000000029
100
AcDbRotatedDimension
1001
ACAD
1000
DSTYLE
1002
{
1070
   171
1070
     6
1070
   273
1070
     7
1002
}
  0
INSERT
  5
238
330
1F
100
AcDbEntity
  8
해칭선
100
AcDbBlockReference
  2
SW_DOWELSYMBOL_0
 10
0.0
 20
0.0
 30
0.0
  0
LINE
  5
239
330
1F
100
AcDbEntity
  8
외형선
  6
Continuous
370
    15
100
AcDbLine
 10
12.0
 20
15.87319595521767
 30
0.0
 11
-13.58732499999994
 21
15.87319595521766
 31
0.0
  0
LINE
  5
23A
330
1F
100
AcDbEntity
  8
외형선
  6
Continuous
370
    15
100
AcDbLine
 10
-50.49999999999997
 20
-15.87680404478235
 30
0.0
 11
12.0
 21
-15.87680404478235
 31
0.0
  0
LINE
  5
318
330
1F
100
AcDbEntity
  8
외형선
  6
Continuous
370
    15
100
AcDbLine
 10
-36.41240000000008
 20
15.87319595521764
 30
0.0
 11
-31.46892499999998
 21
15.87319595521764
 31
0.0
  0
LINE
  5
319
330
1F
100
AcDbEntity
  8
외형선
  6
Continuous
370
    15
100
AcDbLine
 10
-29.08132499999996
 20
13.48559595521763
 30
0.0
 11
-15.97492499999996
 21
13.48559595521763
 31
0.0
  0
LINE
  5
31A
330
1F
100
AcDbEntity
  8
외형선
  6
Continuous
370
    15
100
AcDbLine
 10
-15.97492499999996
 20
13.48559595521763
 30
0.0
 11
-13.58732499999994
 21
15.87319595521765
 31
0.0
  0
LINE
  5
31B
330
1F
100
AcDbEntity
  8
외형선
  6
Continuous
370
    15
100
AcDbLine
 10
-29.08132499999996
 20
13.48559595521763
 30
0.0
 11
-31.46892499999998
 21
15.87319595521765
 31
0.0
  0
LINE
  5
31C
330
1F
100
AcDbEntity
  8
외형선
  6
Continuous
370
    15
100
AcDbLine
 10
-51.49999999999997
 20
13.48559595521763
 30
0.0
 11
-38.79999999999998
 21
13.48559595521763
 31
0.0
  0
LINE
  5
31D
330
1F
100
AcDbEntity
  8
외형선
  6
Continuous
370
    15
100
AcDbLine
 10
-38.79999999999998
 20
13.48559595521763
 30
0.0
 11
-36.41240000000008
 21
15.87319595521762
 31
0.0
  0
LINE
  5
31E
330
1F
100
AcDbEntity
  8
외형선
  6
Continuous
370
    15
100
AcDbLine
 10
-31.46892499999997
 20
15.87319595521765
 30
0.0
 11
-36.41240000000005
 21
15.87319595521765
 31
0.0
  0
ENDSEC
  0
SECTION
  2
OBJECTS
  0
DICTIONARY
  5
C
330
0
100
AcDbDictionary
281
     1
  3
ACAD_GROUP
350
D
  3
ACAD_IMAGE_VARS
350
13A
  3
ACAD_LAYOUT
350
1A
  3
ACAD_MLINESTYLE
350
17
  3
ACAD_PLOTSETTINGS
350
19
  3
ACAD_PLOTSTYLENAME
350
E
  3
ACAD_SCALELIST
350
47
  3
APPDATA
350
138
  3
DWGPROPS
350
320
  0
DICTIONARY
  5
1E8
330
2
100
AcDbDictionary
280
     1
281
     1
  3
ACAD_LAYERSTATES
360
1E9
  0
DICTIONARY
  5
D
102
{ACAD_REACTORS
330
C
102
}
330
C
100
AcDbDictionary
281
     1
  0
RASTERVARIABLES
  5
13A
102
{ACAD_REACTORS
330
C
102
}
330
C
100
AcDbRasterVariables
 90
        0
 70
     1
 71
     1
 72
     1
  0
DICTIONARY
  5
1A
102
{ACAD_REACTORS
330
C
102
}
330
C
100
AcDbDictionary
281
     1
  3
Layout1
350
1E
  3
Layout2
350
26
  3
Model
350
22
  0
DICTIONARY
  5
17
102
{ACAD_REACTORS
330
C
102
}
330
C
100
AcDbDictionary
281
     1
  3
Standard
350
18
  0
DICTIONARY
  5
19
102
{ACAD_REACTORS
330
C
102
}
330
C
100
AcDbDictionary
281
     1
  0
ACDBDICTIONARYWDFLT
  5
E
102
{ACAD_REACTORS
330
C
102
}
330
C
100
AcDbDictionary
281
     1
  3
Normal
350
F
100
AcDbDictionaryWithDefault
340
F
  0
DICTIONARY
  5
47
102
{ACAD_REACTORS
330
C
102
}
330
C
100
AcDbDictionary
281
     1
  3
A0
350
48
  3
A1
350
49
  3
A2
350
4A
  3
A3
350
4B
  3
A4
350
4C
  3
A5
350
4D
  3
A6
350
4E
  3
A7
350
4F
  3
A8
350
50
  3
A9
350
51
  3
B0
350
52
  3
B1
350
53
  3
B2
350
54
  3
B3
350
55
  3
B4
350
56
  3
B5
350
57
  3
B6
350
58
  3
B7
350
59
  3
B8
350
5A
  3
B9
350
5B
  3
C0
350
5C
  3
C1
350
5D
  3
C2
350
5E
  3
C3
350
5F
  3
C4
350
60
  3
C5
350
61
  3
C6
350
62
  3
C7
350
63
  3
C8
350
64
  3
C9
350
65
  3
D0
350
66
  3
D1
350
67
  3
D2
350
68
  0
DICTIONARY
  5
138
102
{ACAD_REACTORS
330
C
102
}
330
C
100
AcDbDictionary
281
     1
  0
XRECORD
  5
320
102
{ACAD_REACTORS
330
C
102
}
330
C
100
AcDbXrecord
280
     1
  1
DWGPROPS COOKIE
  2

  3

  4

  6

  7

  8
12016016
  9

300
=
301
=
302
=
303
=
304
=
305
=
306
=
307
=
308
=
309
=
 40
0.0
 41
2458311.198049989
 42
2458318.287630914
  1

 90
        0
  0
DICTIONARY
  5
1E9
102
{ACAD_REACTORS
330
1E8
102
}
330
1E8
100
AcDbDictionary
281
     1
  0
LAYOUT
  5
1E
102
{ACAD_REACTORS
330
1A
102
}
330
1A
100
AcDbPlotSettings
  1

  2
none_device
  4

  6

 40
0.0
 41
0.0
 42
0.0
 43
0.0
 44
0.0
 45
0.0
 46
0.0
 47
0.0
 48
0.0
 49
0.0
140
0.0
141
0.0
142
1.0
143
1.0
 70
   688
 72
     1
 73
     0
 74
     5
  7

 75
    16
147
1.0
148
0.0
149
0.0
100
AcDbLayout
  1
Layout1
 70
     1
 71
     1
 10
0.0
 20
0.0
 11
420.0
 21
297.0
 12
0.0
 22
0.0
 32
0.0
 14
1.000000000000000E+20
 24
1.000000000000000E+20
 34
1.000000000000000E+20
 15
-1.000000000000000E+20
 25
-1.000000000000000E+20
 35
-1.000000000000000E+20
146
0.0
 13
0.0
 23
0.0
 33
0.0
 16
1.0
 26
0.0
 36
0.0
 17
0.0
 27
1.0
 37
0.0
 76
     0
330
1B
  0
LAYOUT
  5
26
102
{ACAD_REACTORS
330
1A
102
}
330
1A
100
AcDbPlotSettings
  1

  2
none_device
  4

  6

 40
0.0
 41
0.0
 42
0.0
 43
0.0
 44
0.0
 45
0.0
 46
0.0
 47
0.0
 48
0.0
 49
0.0
140
0.0
141
0.0
142
1.0
143
1.0
 70
   688
 72
     1
 73
     0
 74
     5
  7

 75
    16
147
1.0
148
0.0
149
0.0
100
AcDbLayout
  1
Layout2
 70
     1
 71
     2
 10
0.0
 20
0.0
 11
0.0
 21
0.0
 12
0.0
 22
0.0
 32
0.0
 14
0.0
 24
0.0
 34
0.0
 15
0.0
 25
0.0
 35
0.0
146
0.0
 13
0.0
 23
0.0
 33
0.0
 16
1.0
 26
0.0
 36
0.0
 17
0.0
 27
1.0
 37
0.0
 76
     0
330
23
  0
LAYOUT
  5
22
102
{ACAD_REACTORS
330
1A
102
}
330
1A
100
AcDbPlotSettings
  1

  2
none_device
  4
ANSI_A_(11.00_x_8.50_Inches)
  6

 40
6.35
 41
19.05
 42
6.35000508
 43
19.05000254
 44
279.4
 45
215.9
 46
103.1580199316263
 47
68.03587455377365
 48
0.0
 49
0.0
140
0.0
141
0.0
142
0.0663760467482972
143
1.0
 70
  1696
 72
     0
 73
     0
 74
     0
  7

 75
     0
147
0.0235690232323232
148
0.0
149
0.0
100
AcDbLayout
  1
Model
 70
     1
 71
     0
 10
0.0
 20
0.0
 11
420.0
 21
297.0
 12
0.0
 22
0.0
 32
0.0
 14
1.000000000000000E+20
 24
1.000000000000000E+20
 34
1.000000000000000E+20
 15
-1.000000000000000E+20
 25
-1.000000000000000E+20
 35
-1.000000000000000E+20
146
0.0
 13
0.0
 23
0.0
 33
0.0
 16
1.0
 26
0.0
 36
0.0
 17
0.0
 27
1.0
 37
0.0
 76
     0
330
1F
331
29
  0
MLINESTYLE
  5
18
102
{ACAD_REACTORS
330
17
102
}
330
17
100
AcDbMlineStyle
  2
Standard
 70
     0
  3

 62
   256
 51
90.0
 52
90.0
 71
     2
 49
0.5
 62
   256
  6
BYLAYER
 49
-0.5
 62
   256
  6
BYLAYER
  0
ACDBPLACEHOLDER
  5
F
102
{ACAD_REACTORS
330
E
102
}
330
E
  0
SCALE
  5
48
102
{ACAD_REACTORS
330
47
102
}
330
47
100
AcDbScale
 70
     0
300
1:1
140
1.0
141
1.0
290
     1
  0
SCALE
  5
49
102
{ACAD_REACTORS
330
47
102
}
330
47
100
AcDbScale
 70
     0
300
1:2
140
1.0
141
2.0
290
     0
  0
SCALE
  5
4A
102
{ACAD_REACTORS
330
47
102
}
330
47
100
AcDbScale
 70
     0
300
1:4
140
1.0
141
4.0
290
     0
  0
SCALE
  5
4B
102
{ACAD_REACTORS
330
47
102
}
330
47
100
AcDbScale
 70
     0
300
1:5
140
1.0
141
5.0
290
     0
  0
SCALE
  5
4C
102
{ACAD_REACTORS
330
47
102
}
330
47
100
AcDbScale
 70
     0
300
1:8
140
1.0
141
8.0
290
     0
  0
SCALE
  5
4D
102
{ACAD_REACTORS
330
47
102
}
330
47
100
AcDbScale
 70
     0
300
1:10
140
1.0
141
10.0
290
     0
  0
SCALE
  5
4E
102
{ACAD_REACTORS
330
47
102
}
330
47
100
AcDbScale
 70
     0
300
1:16
140
1.0
141
16.0
290
     0
  0
SCALE
  5
4F
102
{ACAD_REACTORS
330
47
102
}
330
47
100
AcDbScale
 70
     0
300
1:20
140
1.0
141
20.0
290
     0
  0
SCALE
  5
50
102
{ACAD_REACTORS
330
47
102
}
330
47
100
AcDbScale
 70
     0
300
1:30
140
1.0
141
30.0
290
     0
  0
SCALE
  5
51
102
{ACAD_REACTORS
330
47
102
}
330
47
100
AcDbScale
 70
     0
300
1:40
140
1.0
141
40.0
290
     0
  0
SCALE
  5
52
102
{ACAD_REACTORS
330
47
102
}
330
47
100
AcDbScale
 70
     0
300
1:50
140
1.0
141
50.0
290
     0
  0
SCALE
  5
53
102
{ACAD_REACTORS
330
47
102
}
330
47
100
AcDbScale
 70
     0
300
1:100
140
1.0
141
100.0
290
     0
  0
SCALE
  5
54
102
{ACAD_REACTORS
330
47
102
}
330
47
100
AcDbScale
 70
     0
300
2:1
140
2.0
141
1.0
290
     0
  0
SCALE
  5
55
102
{ACAD_REACTORS
330
47
102
}
330
47
100
AcDbScale
 70
     0
300
4:1
140
4.0
141
1.0
290
     0
  0
SCALE
  5
56
102
{ACAD_REACTORS
330
47
102
}
330
47
100
AcDbScale
 70
     0
300
8:1
140
8.0
141
1.0
290
     0
  0
SCALE
  5
57
102
{ACAD_REACTORS
330
47
102
}
330
47
100
AcDbScale
 70
     0
300
10:1
140
10.0
141
1.0
290
     0
  0
SCALE
  5
58
102
{ACAD_REACTORS
330
47
102
}
330
47
100
AcDbScale
 70
     0
300
100:1
140
100.0
141
1.0
290
     0
  0
SCALE
  5
59
102
{ACAD_REACTORS
330
47
102
}
330
47
100
AcDbScale
 70
     0
300
1/128" = 1'-0"
140
0.0078125
141
12.0
290
     0
  0
SCALE
  5
5A
102
{ACAD_REACTORS
330
47
102
}
330
47
100
AcDbScale
 70
     0
300
1/64" = 1'-0"
140
0.015625
141
12.0
290
     0
  0
SCALE
  5
5B
102
{ACAD_REACTORS
330
47
102
}
330
47
100
AcDbScale
 70
     0
300
1/32" = 1'-0"
140
0.03125
141
12.0
290
     0
  0
SCALE
  5
5C
102
{ACAD_REACTORS
330
47
102
}
330
47
100
AcDbScale
 70
     0
300
1/16" = 1'-0"
140
0.0625
141
12.0
290
     0
  0
SCALE
  5
5D
102
{ACAD_REACTORS
330
47
102
}
330
47
100
AcDbScale
 70
     0
300
3/32" = 1'-0"
140
0.09375
141
12.0
290
     0
  0
SCALE
  5
5E
102
{ACAD_REACTORS
330
47
102
}
330
47
100
AcDbScale
 70
     0
300
1/8" = 1'-0"
140
0.125
141
12.0
290
     0
  0
SCALE
  5
5F
102
{ACAD_REACTORS
330
47
102
}
330
47
100
AcDbScale
 70
     0
300
3/16" = 1'-0"
140
0.1875
141
12.0
290
     0
  0
SCALE
  5
60
102
{ACAD_REACTORS
330
47
102
}
330
47
100
AcDbScale
 70
     0
300
1/4" = 1'-0"
140
0.25
141
12.0
290
     0
  0
SCALE
  5
61
102
{ACAD_REACTORS
330
47
102
}
330
47
100
AcDbScale
 70
     0
300
3/8" = 1'-0"
140
0.375
141
12.0
290
     0
  0
SCALE
  5
62
102
{ACAD_REACTORS
330
47
102
}
330
47
100
AcDbScale
 70
     0
300
1/2" = 1'-0"
140
0.5
141
12.0
290
     0
  0
SCALE
  5
63
102
{ACAD_REACTORS
330
47
102
}
330
47
100
AcDbScale
 70
     0
300
3/4" = 1'-0"
140
0.75
141
12.0
290
     0
  0
SCALE
  5
64
102
{ACAD_REACTORS
330
47
102
}
330
47
100
AcDbScale
 70
     0
300
1" = 1'-0"
140
1.0
141
12.0
290
     0
  0
SCALE
  5
65
102
{ACAD_REACTORS
330
47
102
}
330
47
100
AcDbScale
 70
     0
300
1-1/2" = 1'-0"
140
1.5
141
12.0
290
     0
  0
SCALE
  5
66
102
{ACAD_REACTORS
330
47
102
}
330
47
100
AcDbScale
 70
     0
300
3" = 1'-0"
140
3.0
141
12.0
290
     0
  0
SCALE
  5
67
102
{ACAD_REACTORS
330
47
102
}
330
47
100
AcDbScale
 70
     0
300
6" = 1'-0"
140
6.0
141
12.0
290
     0
  0
SCALE
  5
68
102
{ACAD_REACTORS
330
47
102
}
330
47
100
AcDbScale
 70
     0
300
1'-0" = 1'-0"
140
12.0
141
12.0
290
     0
  0
ENDSEC
  0
EOF
