  0
SECTION
  2
HEADER
  9
$ACADVER
  1
AC1015
  9
$ACADMAINTVER
 70
     6
  9
$DWGCODEPAGE
  3
ANSI_949
  9
$INSBASE
 10
0.0
 20
0.0
 30
0.0
  9
$EXTMIN
 10
1.000000000000000E+20
 20
1.000000000000000E+20
 30
1.000000000000000E+20
  9
$EXTMAX
 10
-1.000000000000000E+20
 20
-1.000000000000000E+20
 30
-1.000000000000000E+20
  9
$LIMMIN
 10
0.0
 20
0.0
  9
$LIMMAX
 10
420.0
 20
297.0
  9
$ORTHOMODE
 70
     1
  9
$REGENMODE
 70
     1
  9
$FILLMODE
 70
     1
  9
$QTEXTMODE
 70
     0
  9
$MIRRTEXT
 70
     1
  9
$LTSCALE
 40
1.0
  9
$ATTMODE
 70
     1
  9
$TEXTSIZE
 40
3.5
  9
$TRACEWID
 40
1.0
  9
$TEXTSTYLE
  7
Standard
  9
$CLAYER
  8
0
  9
$CELTYPE
  6
ByLayer
  9
$CECOLOR
 62
   256
  9
$CELTSCALE
 40
1.0
  9
$DISPSILH
 70
     0
  9
$DIMSCALE
 40
1.0
  9
$DIMASZ
 40
3.302
  9
$DIMEXO
 40
1.0
  9
$DIMDLI
 40
3.75
  9
$DIMRND
 40
0.0
  9
$DIMDLE
 40
0.0
  9
$DIMEXE
 40
1.0
  9
$DIMTP
 40
0.0
  9
$DIMTM
 40
0.0
  9
$DIMTXT
 40
3.5
  9
$DIMCEN
 40
2.5
  9
$DIMTSZ
 40
0.0
  9
$DIMTOL
 70
     0
  9
$DIMLIM
 70
     0
  9
$DIMTIH
 70
     1
  9
$DIMTOH
 70
     1
  9
$DIMSE1
 70
     0
  9
$DIMSE2
 70
     0
  9
$DIMTAD
 70
     1
  9
$DIMZIN
 70
     0
  9
$DIMBLK
  1

  9
$DIMASO
 70
     1
  9
$DIMSHO
 70
     1
  9
$DIMPOST
  1

  9
$DIMAPOST
  1

  9
$DIMALT
 70
     0
  9
$DIMALTD
 70
     3
  9
$DIMALTF
 40
0.0393700787401575
  9
$DIMLFAC
 40
1.0
  9
$DIMTOFL
 70
     1
  9
$DIMTVP
 40
0.0
  9
$DIMTIX
 70
     0
  9
$DIMSOXD
 70
     0
  9
$DIMSAH
 70
     0
  9
$DIMBLK1
  1

  9
$DIMBLK2
  1

  9
$DIMSTYLE
  2
ISO-25
  9
$DIMCLRD
 70
     0
  9
$DIMCLRE
 70
     0
  9
$DIMCLRT
 70
     0
  9
$DIMTFAC
 40
1.0
  9
$DIMGAP
 40
1.524
  9
$DIMJUST
 70
     0
  9
$DIMSD1
 70
     0
  9
$DIMSD2
 70
     0
  9
$DIMTOLJ
 70
     0
  9
$DIMTZIN
 70
     0
  9
$DIMALTZ
 70
     0
  9
$DIMALTTZ
 70
     0
  9
$DIMUPT
 70
     0
  9
$DIMDEC
 70
     2
  9
$DIMTDEC
 70
     2
  9
$DIMALTU
 70
     2
  9
$DIMALTTD
 70
     3
  9
$DIMTXSTY
  7
Standard
  9
$DIMAUNIT
 70
     0
  9
$DIMADEC
 70
     2
  9
$DIMALTRND
 40
0.0
  9
$DIMAZIN
 70
     0
  9
$DIMDSEP
 70
    44
  9
$DIMATFIT
 70
     3
  9
$DIMFRAC
 70
     0
  9
$DIMLDRBLK
  1

  9
$DIMLUNIT
 70
     2
  9
$DIMLWD
 70
    -2
  9
$DIMLWE
 70
    -2
  9
$DIMTMOVE
 70
     0
  9
$LUNITS
 70
     2
  9
$LUPREC
 70
     2
  9
$SKETCHINC
 40
1.0
  9
$FILLETRAD
 40
10.0
  9
$AUNITS
 70
     0
  9
$AUPREC
 70
     2
  9
$MENU
  1
.
  9
$ELEVATION
 40
0.0
  9
$PELEVATION
 40
0.0
  9
$THICKNESS
 40
0.0
  9
$LIMCHECK
 70
     0
  9
$CHAMFERA
 40
0.0
  9
$CHAMFERB
 40
0.0
  9
$CHAMFERC
 40
0.0
  9
$CHAMFERD
 40
0.0
  9
$SKPOLY
 70
     0
  9
$TDCREATE
 40
2458311.573261783
  9
$TDUCREATE
 40
2458311.198261783
  9
$TDUPDATE
 40
2458318.662372095
  9
$TDUUPDATE
 40
2458318.287372095
  9
$TDINDWG
 40
0.0022595949
  9
$TDUSRTIMER
 40
2458318.287162674
  9
$USRTIMER
 70
     1
  9
$ANGBASE
 50
0.0
  9
$ANGDIR
 70
     0
  9
$PDMODE
 70
     0
  9
$PDSIZE
 40
-1.0
  9
$PLINEWID
 40
0.0
  9
$SPLFRAME
 70
     0
  9
$SPLINETYPE
 70
     6
  9
$SPLINESEGS
 70
     8
  9
$HANDSEED
  5
30D
  9
$SURFTAB1
 70
     6
  9
$SURFTAB2
 70
     6
  9
$SURFTYPE
 70
     6
  9
$SURFU
 70
     6
  9
$SURFV
 70
     6
  9
$UCSBASE
  2

  9
$UCSNAME
  2

  9
$UCSORG
 10
0.0
 20
0.0
 30
0.0
  9
$UCSXDIR
 10
1.0
 20
0.0
 30
0.0
  9
$UCSYDIR
 10
0.0
 20
1.0
 30
0.0
  9
$UCSORTHOREF
  2

  9
$UCSORTHOVIEW
 70
     0
  9
$UCSORGTOP
 10
0.0
 20
0.0
 30
0.0
  9
$UCSORGBOTTOM
 10
0.0
 20
0.0
 30
0.0
  9
$UCSORGLEFT
 10
0.0
 20
0.0
 30
0.0
  9
$UCSORGRIGHT
 10
0.0
 20
0.0
 30
0.0
  9
$UCSORGFRONT
 10
0.0
 20
0.0
 30
0.0
  9
$UCSORGBACK
 10
0.0
 20
0.0
 30
0.0
  9
$PUCSBASE
  2

  9
$PUCSNAME
  2

  9
$PUCSORG
 10
0.0
 20
0.0
 30
0.0
  9
$PUCSXDIR
 10
1.0
 20
0.0
 30
0.0
  9
$PUCSYDIR
 10
0.0
 20
1.0
 30
0.0
  9
$PUCSORTHOREF
  2

  9
$PUCSORTHOVIEW
 70
     0
  9
$PUCSORGTOP
 10
0.0
 20
0.0
 30
0.0
  9
$PUCSORGBOTTOM
 10
0.0
 20
0.0
 30
0.0
  9
$PUCSORGLEFT
 10
0.0
 20
0.0
 30
0.0
  9
$PUCSORGRIGHT
 10
0.0
 20
0.0
 30
0.0
  9
$PUCSORGFRONT
 10
0.0
 20
0.0
 30
0.0
  9
$PUCSORGBACK
 10
0.0
 20
0.0
 30
0.0
  9
$USERI1
 70
     0
  9
$USERI2
 70
     0
  9
$USERI3
 70
     0
  9
$USERI4
 70
     0
  9
$USERI5
 70
     0
  9
$USERR1
 40
0.0
  9
$USERR2
 40
0.0
  9
$USERR3
 40
0.0
  9
$USERR4
 40
0.0
  9
$USERR5
 40
0.0
  9
$WORLDVIEW
 70
     1
  9
$SHADEDGE
 70
     3
  9
$SHADEDIF
 70
    70
  9
$TILEMODE
 70
     1
  9
$MAXACTVP
 70
    64
  9
$PINSBASE
 10
0.0
 20
0.0
 30
0.0
  9
$PLIMCHECK
 70
     0
  9
$PEXTMIN
 10
1.000000000000000E+20
 20
1.000000000000000E+20
 30
1.000000000000000E+20
  9
$PEXTMAX
 10
-1.000000000000000E+20
 20
-1.000000000000000E+20
 30
-1.000000000000000E+20
  9
$PLIMMIN
 10
0.0
 20
0.0
  9
$PLIMMAX
 10
0.0
 20
0.0
  9
$UNITMODE
 70
     0
  9
$VISRETAIN
 70
     1
  9
$PLINEGEN
 70
     0
  9
$PSLTSCALE
 70
     1
  9
$TREEDEPTH
 70
  3020
  9
$CMLSTYLE
  2
Standard
  9
$CMLJUST
 70
     0
  9
$CMLSCALE
 40
20.0
  9
$PROXYGRAPHICS
 70
     1
  9
$MEASUREMENT
 70
     1
  9
$CELWEIGHT
370
    -1
  9
$ENDCAPS
280
     0
  9
$JOINSTYLE
280
     0
  9
$LWDISPLAY
290
     1
  9
$INSUNITS
 70
     4
  9
$HYPERLINKBASE
  1

  9
$STYLESHEET
  1

  9
$XEDIT
290
     1
  9
$CEPSNTYPE
380
     0
  9
$PSTYLEMODE
290
     1
  9
$FINGERPRINTGUID
  2
{5E272197-38C0-4DD1-8D8A-9237C7ECC8A0}
  9
$VERSIONGUID
  2
{FAEB1C32-E019-11D5-929B-00C0DF256EC4}
  9
$EXTNAMES
290
     1
  9
$PSVPSCALE
 40
0.0
  9
$OLESTARTUP
290
     0
  0
ENDSEC
  0
SECTION
  2
CLASSES
  0
CLASS
  1
ACDBDICTIONARYWDFLT
  2
AcDbDictionaryWithDefault
  3
ObjectDBX Classes
 90
        0
280
     0
281
     0
  0
CLASS
  1
VISUALSTYLE
  2
AcDbVisualStyle
  3
ObjectDBX Classes
 90
     4095
280
     0
281
     0
  0
CLASS
  1
MATERIAL
  2
AcDbMaterial
  3
ObjectDBX Classes
 90
     1153
280
     0
281
     0
  0
CLASS
  1
SCALE
  2
AcDbScale
  3
ObjectDBX Classes
 90
     1153
280
     0
281
     0
  0
CLASS
  1
SUN
  2
AcDbSun
  3
SCENEOE
 90
     1153
280
     0
281
     0
  0
CLASS
  1
ACDBPLACEHOLDER
  2
AcDbPlaceHolder
  3
ObjectDBX Classes
 90
        0
280
     0
281
     0
  0
CLASS
  1
LAYOUT
  2
AcDbLayout
  3
ObjectDBX Classes
 90
        0
280
     0
281
     0
  0
CLASS
  1
TABLESTYLE
  2
AcDbTableStyle
  3
ObjectDBX Classes
 90
     4095
280
     0
281
     0
  0
CLASS
  1
MLEADERSTYLE
  2
AcDbMLeaderStyle
  3
ACDB_MLEADERSTYLE_CLASS
 90
     4095
280
     0
281
     0
  0
CLASS
  1
RASTERVARIABLES
  2
AcDbRasterVariables
  3
ISM
 90
        0
280
     0
281
     0
  0
ENDSEC
  0
SECTION
  2
TABLES
  0
TABLE
  2
VPORT
  5
8
330
0
100
AcDbSymbolTable
 70
     1
  0
VPORT
  5
29
330
8
100
AcDbSymbolTableRecord
100
AcDbViewportTableRecord
  2
*Active
 70
     0
 10
0.0
 20
0.0
 11
1.0
 21
1.0
 12
-13.17002391055257
 22
-6.30201909830879
 13
0.0
 23
0.0
 14
10.0
 24
10.0
 15
10.0
 25
10.0
 16
0.0
 26
0.0
 36
1.0
 17
0.0
 27
0.0
 37
0.0
 40
666.9400921403651
 41
1.740812379110251
 42
50.0
 43
0.0
 44
0.0
 50
0.0
 51
0.0
 71
    16
 72
  2000
 73
     1
 74
     3
 75
     0
 76
     0
 77
     0
 78
     0
281
     0
 65
     1
110
0.0
120
0.0
130
0.0
111
1.0
121
0.0
131
0.0
112
0.0
122
1.0
132
0.0
 79
     0
146
0.0
  0
ENDTAB
  0
TABLE
  2
LTYPE
  5
5
330
0
100
AcDbSymbolTable
 70
     6
  0
LTYPE
  5
14
330
5
100
AcDbSymbolTableRecord
100
AcDbLinetypeTableRecord
  2
ByBlock
 70
     0
  3

 72
    65
 73
     0
 40
0.0
  0
LTYPE
  5
15
330
5
100
AcDbSymbolTableRecord
100
AcDbLinetypeTableRecord
  2
ByLayer
 70
     0
  3

 72
    65
 73
     0
 40
0.0
  0
LTYPE
  5
16
330
5
100
AcDbSymbolTableRecord
100
AcDbLinetypeTableRecord
  2
Continuous
 70
     0
  3
Solid line
 72
    65
 73
     0
 40
0.0
  0
LTYPE
  5
6A
330
5
100
AcDbSymbolTableRecord
100
AcDbLinetypeTableRecord
  2
HIDDEN
 70
     0
  3
Hidden __ __ __ __ __ __ __ __ __ __ __ __ __ __
 72
    65
 73
     2
 40
1.905
 49
1.27
 74
     0
 49
-0.635
 74
     0
  0
LTYPE
  5
6B
330
5
100
AcDbSymbolTableRecord
100
AcDbLinetypeTableRecord
  2
PHANTOM
 70
     0
  3
Phantom ______  __  __  ______  __  __  ______
 72
    65
 73
     6
 40
12.7
 49
6.35
 74
     0
 49
-1.27
 74
     0
 49
1.27
 74
     0
 49
-1.27
 74
     0
 49
1.27
 74
     0
 49
-1.27
 74
     0
  0
LTYPE
  5
6C
330
5
100
AcDbSymbolTableRecord
100
AcDbLinetypeTableRecord
  2
CENTER
 70
     0
  3
Center ____ _ ____ _ ____ _ ____ _ ____ _ ____
 72
    65
 73
     4
 40
10.16
 49
6.35
 74
     0
 49
-1.27
 74
     0
 49
1.27
 74
     0
 49
-1.27
 74
     0
  0
LTYPE
  5
6D
330
5
100
AcDbSymbolTableRecord
100
AcDbLinetypeTableRecord
  2
CENTERX2
 70
     0
  3
Center (2x) ________  __  ________  __  _____
 72
    65
 73
     4
 40
20.32
 49
12.7
 74
     0
 49
-2.54
 74
     0
 49
2.54
 74
     0
 49
-2.54
 74
     0
  0
LTYPE
  5
6E
330
5
100
AcDbSymbolTableRecord
100
AcDbLinetypeTableRecord
  2
DOT2
 70
     0
  3
Dot (.5x) ........................................
 72
    65
 73
     2
 40
0.635
 49
0.0
 74
     0
 49
-0.635
 74
     0
  0
ENDTAB
  0
TABLE
  2
LAYER
  5
2
102
{ACAD_XDICTIONARY
360
1E2
102
}
330
0
100
AcDbSymbolTable
 70
    18
  0
LAYER
  5
10
330
2
100
AcDbSymbolTableRecord
100
AcDbLayerTableRecord
  2
0
 70
     0
 62
     7
  6
Continuous
370
    -3
390
F
  0
LAYER
  5
6F
330
2
100
AcDbSymbolTableRecord
100
AcDbLayerTableRecord
  2
FORMAT
 70
     0
 62
     2
  6
Continuous
370
    -3
390
F
  0
LAYER
  5
70
330
2
100
AcDbSymbolTableRecord
100
AcDbLayerTableRecord
  2
외형선
 70
     0
 62
     4
  6
Continuous
370
    30
390
F
  0
LAYER
  5
71
330
2
100
AcDbSymbolTableRecord
100
AcDbLayerTableRecord
  2
숨은선
 70
     0
 62
     2
  6
HIDDEN
370
    15
390
F
  0
LAYER
  5
72
330
2
100
AcDbSymbolTableRecord
100
AcDbLayerTableRecord
  2
중심선
 70
     0
 62
     1
  6
CENTERX2
370
    -3
390
F
  0
LAYER
  5
73
330
2
100
AcDbSymbolTableRecord
100
AcDbLayerTableRecord
  2
파단선
 70
     0
 62
     4
  6
Continuous
370
    -3
390
F
  0
LAYER
  5
74
330
2
100
AcDbSymbolTableRecord
100
AcDbLayerTableRecord
  2
해칭선
 70
     0
 62
   100
  6
Continuous
370
    -3
390
F
  0
LAYER
  5
75
330
2
100
AcDbSymbolTableRecord
100
AcDbLayerTableRecord
  2
가는실선
 70
     0
 62
     4
  6
Continuous
370
    -3
390
F
  0
LAYER
  5
76
330
2
100
AcDbSymbolTableRecord
100
AcDbLayerTableRecord
  2
치수_보조선
 70
     0
 62
     4
  6
Continuous
370
    -3
390
F
  0
LAYER
  5
77
330
2
100
AcDbSymbolTableRecord
100
AcDbLayerTableRecord
  2
치수문자_일반주서
 70
     0
 62
     7
  6
Continuous
370
    15
390
F
  0
LAYER
  5
78
330
2
100
AcDbSymbolTableRecord
100
AcDbLayerTableRecord
  2
개별주서
 70
     0
 62
   100
  6
Continuous
370
    30
390
F
  0
LAYER
  5
79
330
2
100
AcDbSymbolTableRecord
100
AcDbLayerTableRecord
  2
중간선
 70
     0
 62
     2
  6
Continuous
370
    15
390
F
  0
LAYER
  5
7A
330
2
100
AcDbSymbolTableRecord
100
AcDbLayerTableRecord
  2
윤곽선
 70
     0
 62
     3
  6
Continuous
370
    40
390
F
  0
LAYER
  5
7B
330
2
100
AcDbSymbolTableRecord
100
AcDbLayerTableRecord
  2
중심마크
 70
     0
 62
   100
  6
Continuous
370
    30
390
F
  0
LAYER
  5
7C
330
2
100
AcDbSymbolTableRecord
100
AcDbLayerTableRecord
  2
가상선
 70
     0
 62
     4
  6
PHANTOM
370
    -3
390
F
  0
LAYER
  5
7D
330
2
100
AcDbSymbolTableRecord
100
AcDbLayerTableRecord
  2
특수지정선
 70
     0
 62
     5
  6
CENTERX2
370
    60
390
F
  0
LAYER
  5
7E
330
2
100
AcDbSymbolTableRecord
100
AcDbLayerTableRecord
  2
참조1
 70
     0
 62
    -4
  6
Continuous
370
    -3
390
F
  0
LAYER
  5
139
330
2
100
AcDbSymbolTableRecord
100
AcDbLayerTableRecord
  2
Defpoints
 70
     0
 62
     7
  6
Continuous
290
     0
370
    -3
390
F
  0
ENDTAB
  0
TABLE
  2
STYLE
  5
3
330
0
100
AcDbSymbolTable
 70
     2
  0
STYLE
  5
11
330
3
100
AcDbSymbolTableRecord
100
AcDbTextStyleTableRecord
  2
Standard
 70
     0
 40
0.0
 41
1.0
 50
0.0
 71
     0
 42
3.5
  3
txt
  4

  0
STYLE
  5
94
330
3
100
AcDbSymbolTableRecord
100
AcDbTextStyleTableRecord
  2
SLDTEXTSTYLE0
 70
     0
 40
0.0
 41
0.75
 50
0.0
 71
     0
 42
3.5
  3
TXT
  4

  0
ENDTAB
  0
TABLE
  2
VIEW
  5
6
330
0
100
AcDbSymbolTable
 70
     0
  0
ENDTAB
  0
TABLE
  2
UCS
  5
7
330
0
100
AcDbSymbolTable
 70
     0
  0
ENDTAB
  0
TABLE
  2
APPID
  5
9
330
0
100
AcDbSymbolTable
 70
     1
  0
APPID
  5
12
330
9
100
AcDbSymbolTableRecord
100
AcDbRegAppTableRecord
  2
ACAD
 70
     0
  0
ENDTAB
  0
TABLE
  2
DIMSTYLE
  5
A
330
0
100
AcDbSymbolTable
 70
     5
100
AcDbDimStyleTable
  0
DIMSTYLE
105
27
330
A
100
AcDbSymbolTableRecord
100
AcDbDimStyleTableRecord
  2
ISO-25
 70
     0
 41
2.5
 42
0.625
 43
3.75
 44
1.25
 73
     0
 74
     0
 77
     1
 78
     8
140
2.5
141
2.5
143
0.03937007874016
147
0.625
171
     3
172
     1
178
     0
271
     2
272
     2
274
     3
278
    44
283
     0
284
     8
340
11
  0
DIMSTYLE
105
BC
330
A
100
AcDbSymbolTableRecord
100
AcDbDimStyleTableRecord
  2
SLDDIMSTYLE0
 70
     0
 41
3.302
 44
0.0
 45
0.000000001
 73
     0
 74
     0
 77
     1
 78
     4
 79
     1
140
3.5
147
0.875
172
     1
173
     1
178
     0
271
     2
272
     2
276
     2
284
    12
289
     0
340
94
  0
DIMSTYLE
105
CA
102
{ACAD_REACTORS
330
22C
330
22D
102
}
330
A
100
AcDbSymbolTableRecord
100
AcDbDimStyleTableRecord
  2
SLDDIMSTYLE1
 70
     0
 41
3.302
 44
0.0
 45
0.000000001
 73
     0
 74
     0
 77
     1
 78
     4
 79
     1
140
3.5
143
0.0393700787401575
147
0.875
148
0.000000001
170
     1
172
     1
173
     1
178
     0
271
     2
272
     2
276
     2
284
    12
289
     0
340
94
  0
DIMSTYLE
105
E0
102
{ACAD_REACTORS
330
C9
330
F3
102
}
330
A
100
AcDbSymbolTableRecord
100
AcDbDimStyleTableRecord
  2
SLDDIMSTYLE2
 70
     0
 41
3.302
 44
0.0
 45
0.000000001
 73
     0
 74
     0
 77
     1
 78
     4
 79
     1
140
3.5
143
0.0393700787401575
147
0.875
148
0.000000001
170
     1
173
     1
178
     0
271
     2
272
     2
276
     2
284
    12
340
94
  0
DIMSTYLE
105
F4
330
A
100
AcDbSymbolTableRecord
100
AcDbDimStyleTableRecord
  2
SLDDIMSTYLE3
 70
     0
 41
3.302
 44
0.0
 45
0.000000001
 73
     0
 74
     0
 77
     1
 78
    12
 79
     3
140
3.5
143
0.0393700787401575
147
0.875
148
0.000000001
170
     1
173
     1
178
     0
271
     2
272
     2
276
     2
284
    12
340
94
  0
ENDTAB
  0
TABLE
  2
BLOCK_RECORD
  5
1
330
0
100
AcDbSymbolTable
 70
    17
  0
BLOCK_RECORD
  5
1F
330
1
100
AcDbSymbolTableRecord
100
AcDbBlockTableRecord
  2
*Model_Space
340
22
  0
BLOCK_RECORD
  5
1B
330
1
100
AcDbSymbolTableRecord
100
AcDbBlockTableRecord
  2
*Paper_Space
340
1E
  0
BLOCK_RECORD
  5
23
330
1
100
AcDbSymbolTableRecord
100
AcDbBlockTableRecord
  2
*Paper_Space0
340
26
  0
BLOCK_RECORD
  5
7F
330
1
100
AcDbSymbolTableRecord
100
AcDbBlockTableRecord
  2
블럭10
340
0
102
{BLKREFS
331
B4
331
0
102
}
  0
BLOCK_RECORD
  5
BD
330
1
100
AcDbSymbolTableRecord
100
AcDbBlockTableRecord
  2
_D
340
0
  0
BLOCK_RECORD
  5
CB
330
1
100
AcDbSymbolTableRecord
100
AcDbBlockTableRecord
  2
_D_1
340
0
  0
BLOCK_RECORD
  5
E1
330
1
100
AcDbSymbolTableRecord
100
AcDbBlockTableRecord
  2
_D_2
340
0
  0
BLOCK_RECORD
  5
F5
330
1
100
AcDbSymbolTableRecord
100
AcDbBlockTableRecord
  2
_D_3
340
0
  0
BLOCK_RECORD
  5
10E
330
1
100
AcDbSymbolTableRecord
100
AcDbBlockTableRecord
  2
SW_DOWELSYMBOL_0
340
0
102
{BLKREFS
331
22E
102
}
  0
BLOCK_RECORD
  5
1BF
330
1
100
AcDbSymbolTableRecord
100
AcDbBlockTableRecord
  2
*D7
340
0
  0
BLOCK_RECORD
  5
1CC
330
1
100
AcDbSymbolTableRecord
100
AcDbBlockTableRecord
  2
*D8
340
0
  0
BLOCK_RECORD
  5
1E6
330
1
100
AcDbSymbolTableRecord
100
AcDbBlockTableRecord
  2
*D9
340
0
  0
BLOCK_RECORD
  5
1F2
330
1
100
AcDbSymbolTableRecord
100
AcDbBlockTableRecord
  2
*D10
340
0
  0
BLOCK_RECORD
  5
232
330
1
100
AcDbSymbolTableRecord
100
AcDbBlockTableRecord
  2
*D11
340
0
  0
BLOCK_RECORD
  5
23E
330
1
100
AcDbSymbolTableRecord
100
AcDbBlockTableRecord
  2
*D12
340
0
  0
BLOCK_RECORD
  5
24D
330
1
100
AcDbSymbolTableRecord
100
AcDbBlockTableRecord
  2
*D13
340
0
  0
BLOCK_RECORD
  5
259
330
1
100
AcDbSymbolTableRecord
100
AcDbBlockTableRecord
  2
*D14
340
0
  0
ENDTAB
  0
ENDSEC
  0
SECTION
  2
BLOCKS
  0
BLOCK
  5
20
330
1F
100
AcDbEntity
  8
0
100
AcDbBlockBegin
  2
*Model_Space
 70
     0
 10
0.0
 20
0.0
 30
0.0
  3
*Model_Space
  1
*Model_Space
  0
ENDBLK
  5
21
330
1F
100
AcDbEntity
  8
0
100
AcDbBlockEnd
  0
BLOCK
  5
1C
330
1B
100
AcDbEntity
 67
     1
  8
0
100
AcDbBlockBegin
  2
*Paper_Space
 70
     0
 10
0.0
 20
0.0
 30
0.0
  3
*Paper_Space
  1
*Paper_Space
  0
ENDBLK
  5
1D
330
1B
100
AcDbEntity
 67
     1
  8
0
100
AcDbBlockEnd
  0
BLOCK
  5
24
330
23
100
AcDbEntity
  8
0
100
AcDbBlockBegin
  2
*Paper_Space0
 70
     0
 10
0.0
 20
0.0
 30
0.0
  3
*Paper_Space0
  1
*Paper_Space0
  0
ENDBLK
  5
25
330
23
100
AcDbEntity
  8
0
100
AcDbBlockEnd
  0
BLOCK
  5
80
330
7F
100
AcDbEntity
  8
0
100
AcDbBlockBegin
  2
블럭10
 70
     2
 10
0.0
 20
0.0
 30
0.0
  3
블럭10
  1
블럭10
  0
ELLIPSE
  5
82
330
7F
100
AcDbEntity
  8
중심선
100
AcDbEllipse
 10
20.54032771741204
 20
12.0471743016438
 30
0.0
 11
6.600054785286829
 21
-1.261213355974178E-13
 31
0.0
210
0.0
220
0.0
230
1.0
 40
0.636358354079598
 41
0.9219305317359503
 42
6.513795318482858
  0
ELLIPSE
  5
83
330
7F
100
AcDbEntity
  8
중심선
100
AcDbEllipse
 10
20.54032771746488
 20
12.04717430159265
 30
0.0
 11
3.960054785062283
 21
1.540847449632565E-10
 31
0.0
210
0.0
220
0.0
230
1.0
 40
0.3939339440162632
 41
1.131841032648279
 42
5.62031148352944
  0
LINE
  5
84
330
7F
100
AcDbEntity
  8
중심선
100
AcDbLine
 10
2.268634060543552
 20
16.24717430164393
 30
0.0
 11
5.714909304380834
 21
16.24717430164393
 31
0.0
  0
LINE
  5
85
330
7F
100
AcDbEntity
  8
중심선
100
AcDbLine
 10
5.245725140726316
 20
7.84717430164391
 30
0.0
 11
8.692000384563599
 21
7.84717430164391
 31
0.0
  0
LINE
  5
86
330
7F
100
AcDbEntity
  8
중심선
100
AcDbLine
 10
15.74043728645272
 20
16.24717430164393
 30
0.0
 11
8.692000384563599
 21
7.84717430164391
 31
0.0
  0
LINE
  5
87
330
7F
100
AcDbEntity
  8
중심선
100
AcDbLine
 10
0.1404042013395286
 20
13.71084872107135
 30
0.0
 11
3.58671253028996
 21
13.71088815037384
 31
0.0
  0
LINE
  5
88
330
7F
100
AcDbEntity
  8
중심선
100
AcDbLine
 10
2.750260043222114
 20
10.84717430164391
 30
0.0
 11
6.196535287059397
 21
10.84717430164391
 31
0.0
  0
LINE
  5
89
330
7F
100
AcDbEntity
  8
중심선
100
AcDbLine
 10
12.29416204261559
 20
16.24717430164393
 30
0.0
 11
5.245725140726316
 21
7.84717430164391
 31
0.0
  0
LINE
  5
8A
330
7F
100
AcDbEntity
  8
중심선
100
AcDbLine
 10
10.72767329541681
 20
16.24717430164393
 30
0.0
 11
6.196535287059397
 21
10.84717430164391
 31
0.0
  0
LINE
  5
8B
330
7F
100
AcDbEntity
  8
중심선
100
AcDbLine
 10
7.28139805157953
 20
16.24717430164393
 30
0.0
 11
2.750260043222114
 21
10.84717430164391
 31
0.0
  0
LINE
  5
8C
330
7F
100
AcDbEntity
  8
중심선
100
AcDbLine
 10
5.714909304380834
 20
16.24717430164393
 30
0.0
 11
3.58671253028996
 21
13.71088815037384
 31
0.0
  0
LINE
  5
8D
330
7F
100
AcDbEntity
  8
중심선
100
AcDbLine
 10
2.268634060543552
 20
16.24717430164393
 30
0.0
 11
0.1404042013395286
 21
13.71084872107135
 31
0.0
  0
LINE
  5
8E
330
7F
100
AcDbEntity
  8
중심선
100
AcDbLine
 10
7.28139805157953
 20
16.24717430164393
 30
0.0
 11
10.72767329541681
 21
16.24717430164393
 31
0.0
  0
LINE
  5
8F
330
7F
100
AcDbEntity
  8
중심선
100
AcDbLine
 10
12.29416204261559
 20
16.24717430164393
 30
0.0
 11
15.74043728645272
 21
16.24717430164393
 31
0.0
  0
LINE
  5
90
330
7F
100
AcDbEntity
  8
중심선
100
AcDbLine
 10
19.22036997980202
 20
11.08717430171403
 30
0.0
 11
23.66174974927406
 21
11.08717430171406
 31
0.0
  0
LINE
  5
91
330
7F
100
AcDbEntity
  8
중심선
100
AcDbLine
 10
19.22039502424796
 20
13.00717430171391
 30
0.0
 11
19.22036997980202
 21
11.08717430171403
 31
0.0
  0
LINE
  5
92
330
7F
100
AcDbEntity
  8
중심선
100
AcDbLine
 10
19.22039502424796
 20
13.00717430171391
 30
0.0
 11
26.96566020931264
 21
13.00717430171391
 31
0.0
  0
LINE
  5
93
330
7F
100
AcDbEntity
  8
중심선
100
AcDbLine
 10
22.22332737316547
 20
13.45928029700563
 30
0.0
 11
24.52862924686651
 21
15.39360700705356
 31
0.0
  0
ATTDEF
  5
95
330
7F
100
AcDbEntity
  8
FORMAT
 62
     2
100
AcDbText
 10
4.408487351596664
 20
2.075366912832191
 30
0.0
 40
4.233333333333333
  1
E1070984
 41
0.75
  7
SLDTEXTSTYLE0
 11
4.408487351596664
 21
-0.0412997538344756
 31
0.0
100
AcDbAttributeDefinition
  3

  2
AUTOATTR0
 70
     0
 74
     1
  0
ENDBLK
  5
81
330
7F
100
AcDbEntity
  8
0
100
AcDbBlockEnd
  0
BLOCK
  5
BE
330
BD
100
AcDbEntity
  8
0
100
AcDbBlockBegin
  2
_D
 70
     0
 10
0.0
 20
0.0
 30
0.0
  3
_D
  1
_D
  0
LINE
  5
C0
330
BD
100
AcDbEntity
  8
치수문자_일반주서
 62
     0
370
    -2
100
AcDbLine
 10
-46.12192116787307
 20
6.351074928723888
 30
0.0
 11
-59.5594211678731
 21
6.351074928723839
 31
0.0
  0
LINE
  5
C1
330
BD
100
AcDbEntity
  8
치수문자_일반주서
 62
     0
370
    -2
100
AcDbLine
 10
-46.12192116787307
 20
-6.348925071276101
 30
0.0
 11
-59.55942116787305
 21
-6.34892507127615
 31
0.0
  0
LINE
  5
C2
330
BD
100
AcDbEntity
  8
치수문자_일반주서
 62
     0
370
    -2
100
AcDbLine
 10
-59.55942116787308
 20
3.049074928723839
 30
0.0
 11
-59.55942116787307
 21
-3.04692507127615
 31
0.0
  0
SOLID
  5
C3
330
BD
100
AcDbEntity
  8
치수문자_일반주서
 62
     0
100
AcDbTrace
 10
-59.00908783453975
 20
3.049074928723841
 30
0.0
 11
-60.10975450120642
 21
3.049074928723837
 31
0.0
 12
-59.5594211678731
 22
6.351074928723839
 32
0.0
 13
-59.5594211678731
 23
6.351074928723839
 33
0.0
  0
SOLID
  5
C4
330
BD
100
AcDbEntity
  8
치수문자_일반주서
 62
     0
100
AcDbTrace
 10
-60.1097545012064
 20
-3.046925071276152
 30
0.0
 11
-59.00908783453973
 21
-3.046925071276148
 31
0.0
 12
-59.55942116787305
 22
-6.34892507127615
 32
0.0
 13
-59.55942116787305
 23
-6.34892507127615
 33
0.0
  0
MTEXT
  5
C5
330
BD
100
AcDbEntity
  8
치수문자_일반주서
 62
     0
100
AcDbMText
 10
-63.93442116787308
 20
0.0010749287238743
 30
0.0
 40
3.5
 41
0.0
 71
     2
 72
     1
  1
\A1;%%c12.70 [0.50]
  7
SLDTEXTSTYLE0
 11
-3.356894814614650E-15
 21
1.0
 31
0.0
 73
     1
 44
1.0
  0
POINT
  5
C6
330
BD
100
AcDbEntity
  8
Defpoints
 62
     0
100
AcDbPoint
 10
-46.05942116787307
 20
6.351074928723888
 30
0.0
  0
POINT
  5
C7
330
BD
100
AcDbEntity
  8
Defpoints
 62
     0
100
AcDbPoint
 10
-46.05942116787307
 20
-6.348925071276101
 30
0.0
  0
POINT
  5
C8
330
BD
100
AcDbEntity
  8
Defpoints
 62
     0
100
AcDbPoint
 10
-59.55942116787308
 20
-6.348925071276148
 30
0.0
  0
ENDBLK
  5
BF
330
BD
100
AcDbEntity
  8
0
100
AcDbBlockEnd
  0
BLOCK
  5
CC
330
CB
100
AcDbEntity
  8
0
100
AcDbBlockBegin
  2
_D_1
 70
     0
 10
0.0
 20
0.0
 30
0.0
  3
_D_1
  1
_D_1
  0
LINE
  5
CE
330
CB
100
AcDbEntity
  8
치수문자_일반주서
 62
     0
370
    -2
100
AcDbLine
 10
88.20000000000002
 20
25.46069595521768
 30
0.0
 11
88.20000000000002
 21
32.11714801179761
 31
0.0
  0
LINE
  5
CF
330
CB
100
AcDbEntity
  8
치수문자_일반주서
 62
     0
370
    -2
100
AcDbLine
 10
11.99999999999999
 20
20.13556396114531
 30
0.0
 11
11.99999999999999
 21
32.11714801179761
 31
0.0
  0
LINE
  5
D0
330
CB
100
AcDbEntity
  8
치수문자_일반주서
 62
     0
370
    -2
100
AcDbLine
 10
84.89800000000002
 20
32.11714801179761
 30
0.0
 11
15.30199999999999
 21
32.11714801179761
 31
0.0
  0
SOLID
  5
D1
330
CB
100
AcDbEntity
  8
치수문자_일반주서
 62
     0
100
AcDbTrace
 10
84.89800000000002
 20
31.56681467846428
 30
0.0
 11
84.89800000000002
 21
32.66748134513094
 31
0.0
 12
88.20000000000002
 22
32.11714801179761
 32
0.0
 13
88.20000000000002
 23
32.11714801179761
 33
0.0
  0
SOLID
  5
D2
330
CB
100
AcDbEntity
  8
치수문자_일반주서
 62
     0
100
AcDbTrace
 10
15.30199999999999
 20
32.66748134513094
 30
0.0
 11
15.30199999999999
 21
31.56681467846428
 31
0.0
 12
11.99999999999999
 22
32.11714801179761
 32
0.0
 13
11.99999999999999
 23
32.11714801179761
 33
0.0
  0
MTEXT
  5
D3
330
CB
100
AcDbEntity
  8
치수문자_일반주서
 62
     0
100
AcDbMText
 10
48.83008487208499
 20
36.49214801179761
 30
0.0
 40
3.5
 41
0.0
 71
     2
 72
     1
  1
\A1;76.20 [3]
  7
SLDTEXTSTYLE0
 73
     1
 44
1.0
  0
POINT
  5
D4
330
CB
100
AcDbEntity
  8
Defpoints
 62
     0
100
AcDbPoint
 10
88.20000000000002
 20
25.39819595521768
 30
0.0
  0
POINT
  5
D5
330
CB
100
AcDbEntity
  8
Defpoints
 62
     0
100
AcDbPoint
 10
11.99999999999999
 20
20.07306396114531
 30
0.0
  0
POINT
  5
D6
330
CB
100
AcDbEntity
  8
Defpoints
 62
     0
100
AcDbPoint
 10
11.99999999999999
 20
32.11714801179761
 30
0.0
  0
ENDBLK
  5
CD
330
CB
100
AcDbEntity
  8
0
100
AcDbBlockEnd
  0
BLOCK
  5
E2
330
E1
100
AcDbEntity
  8
0
100
AcDbBlockBegin
  2
_D_2
 70
     0
 10
0.0
 20
0.0
 30
0.0
  3
_D_2
  1
_D_2
  0
LINE
  5
E4
330
E1
100
AcDbEntity
  8
0
  6
Continuous
 62
     0
370
    -2
100
AcDbLine
 10
29.14057883212694
 20
6.606477789079263
 30
0.0
 11
29.14057883212693
 21
30.3105321911699
 31
0.0
  0
LINE
  5
E5
330
E1
100
AcDbEntity
  8
0
  6
Continuous
 62
     0
370
    -2
100
AcDbLine
 10
-47.05942116787307
 20
5.413574928723888
 30
0.0
 11
-47.05942116787308
 21
30.3105321911699
 31
0.0
  0
LINE
  5
E6
330
E1
100
AcDbEntity
  8
0
  6
Continuous
 62
     0
370
    -2
100
AcDbLine
 10
25.83857883212693
 20
30.3105321911699
 30
0.0
 11
-43.75742116787308
 21
30.3105321911699
 31
0.0
  0
SOLID
  5
E7
330
E1
100
AcDbEntity
  8
0
 62
     0
100
AcDbTrace
 10
25.83857883212693
 20
29.76019885783656
 30
0.0
 11
25.83857883212693
 21
30.86086552450323
 31
0.0
 12
29.14057883212693
 22
30.3105321911699
 32
0.0
 13
29.14057883212693
 23
30.3105321911699
 33
0.0
  0
SOLID
  5
E8
330
E1
100
AcDbEntity
  8
0
 62
     0
100
AcDbTrace
 10
-43.75742116787308
 20
30.86086552450323
 30
0.0
 11
-43.75742116787308
 21
29.76019885783656
 31
0.0
 12
-47.05942116787308
 22
30.3105321911699
 32
0.0
 13
-47.05942116787308
 23
30.3105321911699
 33
0.0
  0
MTEXT
  5
E9
330
E1
100
AcDbEntity
  8
0
 62
     0
370
    15
100
AcDbMText
 10
-8.959421167873067
 20
34.6855321911699
 30
0.0
 40
3.5
 41
0.0
 71
     2
 72
     1
  1
\A1;76.20 [3.00]
  7
SLDTEXTSTYLE0
 73
     1
 44
1.0
  0
POINT
  5
EA
330
E1
100
AcDbEntity
  8
Defpoints
 62
     0
100
AcDbPoint
 10
29.14057883212694
 20
6.543977789079263
 30
0.0
  0
POINT
  5
EB
330
E1
100
AcDbEntity
  8
Defpoints
 62
     0
100
AcDbPoint
 10
-47.05942116787307
 20
5.351074928723888
 30
0.0
  0
POINT
  5
EC
330
E1
100
AcDbEntity
  8
Defpoints
 62
     0
100
AcDbPoint
 10
-47.05942116787307
 20
30.31053219116989
 30
0.0
  0
ENDBLK
  5
E3
330
E1
100
AcDbEntity
  8
0
100
AcDbBlockEnd
  0
BLOCK
  5
F6
330
F5
100
AcDbEntity
  8
0
100
AcDbBlockBegin
  2
_D_3
 70
     0
 10
0.0
 20
0.0
 30
0.0
  3
_D_3
  1
_D_3
  0
LINE
  5
F8
330
F5
100
AcDbEntity
  8
치수문자_일반주서
 62
     0
370
    -2
100
AcDbLine
 10
88.26250000000002
 20
-25.40180404478232
 30
0.0
 11
107.2000000000003
 21
-25.40180404478224
 31
0.0
  0
LINE
  5
F9
330
F5
100
AcDbEntity
  8
치수문자_일반주서
 62
     0
370
    -2
100
AcDbLine
 10
88.26250000000002
 20
25.39819595521768
 30
0.0
 11
107.2000000000002
 21
25.39819595521775
 31
0.0
  0
LINE
  5
FA
330
F5
100
AcDbEntity
  8
치수문자_일반주서
 62
     0
370
    -2
100
AcDbLine
 10
107.2000000000002
 20
25.39819595521775
 30
0.0
 11
107.2
 21
62.78619556452553
 31
0.0
  0
LINE
  5
FB
330
F5
100
AcDbEntity
  8
치수문자_일반주서
 62
     0
370
    -2
100
AcDbLine
 10
107.2000000000003
 20
-22.09980404478224
 30
0.0
 11
107.2000000000002
 21
22.09619595521775
 31
0.0
  0
SOLID
  5
FC
330
F5
100
AcDbEntity
  8
치수문자_일반주서
 62
     0
100
AcDbTrace
 10
106.649666666667
 20
-22.09980404478224
 30
0.0
 11
107.7503333333337
 21
-22.09980404478224
 31
0.0
 12
107.2000000000003
 22
-25.40180404478224
 32
0.0
 13
107.2000000000003
 23
-25.40180404478224
 33
0.0
  0
SOLID
  5
FD
330
F5
100
AcDbEntity
  8
치수문자_일반주서
 62
     0
100
AcDbTrace
 10
107.7503333333335
 20
22.09619595521776
 30
0.0
 11
106.6496666666669
 21
22.09619595521775
 31
0.0
 12
107.2000000000002
 22
25.39819595521775
 32
0.0
 13
107.2000000000002
 23
25.39819595521775
 33
0.0
  0
MTEXT
  5
FE
330
F5
100
AcDbEntity
  8
치수문자_일반주서
 62
     0
100
AcDbMText
 10
102.8250000000001
 20
51.41119556452551
 30
0.0
 40
3.5
 41
0.0
 71
     2
 72
     1
  1
\A1;%%c50.80 [2]
  7
SLDTEXTSTYLE0
 11
-3.356894814614647E-15
 21
1.0
 31
0.0
 73
     1
 44
1.0
  0
POINT
  5
FF
330
F5
100
AcDbEntity
  8
Defpoints
 62
     0
100
AcDbPoint
 10
88.20000000000002
 20
-25.40180404478232
 30
0.0
  0
POINT
  5
100
330
F5
100
AcDbEntity
  8
Defpoints
 62
     0
100
AcDbPoint
 10
88.20000000000002
 20
25.39819595521768
 30
0.0
  0
POINT
  5
101
330
F5
100
AcDbEntity
  8
Defpoints
 62
     0
100
AcDbPoint
 10
107.2000000000002
 20
25.39819595521775
 30
0.0
  0
ENDBLK
  5
F7
330
F5
100
AcDbEntity
  8
0
100
AcDbBlockEnd
  0
BLOCK
  5
10F
330
10E
100
AcDbEntity
  8
0
100
AcDbBlockBegin
  2
SW_DOWELSYMBOL_0
 70
     0
 10
0.0
 20
0.0
 30
0.0
  3
SW_DOWELSYMBOL_0
  1
SW_DOWELSYMBOL_0
  0
CIRCLE
  5
111
330
10E
100
AcDbEntity
  8
해칭선
 62
     0
100
AcDbCircle
 10
0.0
 20
0.0
 30
0.0
 40
3.000000000000001
  0
HATCH
  5
112
330
10E
100
AcDbEntity
  8
0
  6
Continuous
 62
     0
370
     0
100
AcDbHatch
 10
0.0
 20
0.0
 30
0.0
210
0.0
220
0.0
230
1.0
  2
SOLID
 70
     1
 71
     0
 91
        1
 92
        0
 93
        3
 72
     2
 10
0.0
 20
0.0
 40
3.000000000000001
 50
0.0
 51
90.0
 73
     1
 72
     1
 10
0.0
 20
3.000000000000001
 11
0.0
 21
0.0
 72
     1
 10
0.0
 20
0.0
 11
3.000000000000001
 21
0.0
 97
        0
 75
     0
 76
     1
 98
        1
 10
0.0
 20
0.0
  0
HATCH
  5
113
330
10E
100
AcDbEntity
  8
0
  6
Continuous
 62
     0
370
     0
100
AcDbHatch
 10
0.0
 20
0.0
 30
0.0
210
0.0
220
0.0
230
1.0
  2
SOLID
 70
     1
 71
     0
 91
        1
 92
        0
 93
        3
 72
     2
 10
0.0
 20
0.0
 40
3.000000000000001
 50
180.0
 51
270.0000000000007
 73
     1
 72
     1
 10
0.0
 20
-3.000000000000001
 11
0.0
 21
0.0
 72
     1
 10
0.0
 20
0.0
 11
-3.000000000000001
 21
0.0
 97
        0
 75
     0
 76
     1
 98
        1
 10
0.0
 20
0.0
  0
ENDBLK
  5
110
330
10E
100
AcDbEntity
  8
0
100
AcDbBlockEnd
  0
BLOCK
  5
1C0
330
1BF
100
AcDbEntity
  8
0
100
AcDbBlockBegin
  2
*D7
 70
     1
 10
0.0
 20
0.0
 30
0.0
  3
*D7
  1
*D8
  0
LINE
  5
1C1
330
1BF
100
AcDbEntity
  8
0
  6
Continuous
 62
     0
370
    -2
100
AcDbLine
 10
14.76258564276372
 20
65.83769419142374
 30
0.0
 11
4.375000000000002
 21
65.8376941914237
 31
0.0
  0
LINE
  5
1C2
330
1BF
100
AcDbEntity
  8
0
  6
Continuous
 62
     0
370
    -2
100
AcDbLine
 10
14.76258564276375
 20
34.08769419142374
 30
0.0
 11
4.375000000000113
 21
34.0876941914237
 31
0.0
  0
LINE
  5
1C3
330
1BF
100
AcDbEntity
  8
0
  6
Continuous
 62
     0
370
    -2
100
AcDbLine
 10
4.375000000000013
 20
62.53569419142369
 30
0.0
 11
4.375000000000101
 21
37.3896941914237
 31
0.0
  0
SOLID
  5
1C4
330
1BF
100
AcDbEntity
  8
0
 62
     0
100
AcDbTrace
 10
4.925333333333347
 20
62.53569419142369
 30
0.0
 11
3.82466666666668
 21
62.53569419142369
 31
0.0
 12
4.375000000000002
 22
65.8376941914237
 32
0.0
 13
4.375000000000002
 23
65.8376941914237
 33
0.0
  0
SOLID
  5
1C5
330
1BF
100
AcDbEntity
  8
0
 62
     0
100
AcDbTrace
 10
3.824666666666768
 20
37.3896941914237
 30
0.0
 11
4.925333333333435
 21
37.3896941914237
 31
0.0
 12
4.375000000000113
 22
34.0876941914237
 32
0.0
 13
4.375000000000113
 23
34.0876941914237
 33
0.0
  0
MTEXT
  5
1C6
330
1BF
100
AcDbEntity
  8
0
 62
     0
370
    15
100
AcDbMText
 10
0.0000000000000568
 20
49.96269419142376
 30
0.0
 40
3.5
 41
0.0
 71
     2
 72
     1
  1
\A1;%%c31.75 [1 1/4]
  7
SLDTEXTSTYLE0
 11
-3.496765431890258E-15
 21
1.0
 31
0.0
 73
     1
 44
1.0
  0
POINT
  5
1C7
330
1BF
100
AcDbEntity
  8
Defpoints
 62
     0
100
AcDbPoint
 10
14.82508564276372
 20
65.83769419142374
 30
0.0
  0
POINT
  5
1C8
330
1BF
100
AcDbEntity
  8
Defpoints
 62
     0
100
AcDbPoint
 10
14.82508564276375
 20
34.08769419142374
 30
0.0
  0
POINT
  5
1C9
330
1BF
100
AcDbEntity
  8
Defpoints
 62
     0
100
AcDbPoint
 10
4.375000000000114
 20
34.08769419142371
 30
0.0
  0
ENDBLK
  5
1CA
330
1BF
100
AcDbEntity
  8
0
100
AcDbBlockEnd
  0
BLOCK
  5
1CD
330
1CC
100
AcDbEntity
  8
0
100
AcDbBlockBegin
  2
*D8
 70
     1
 10
0.0
 20
0.0
 30
0.0
  3
*D8
  1
*D9
  0
LINE
  5
1CE
330
1CC
100
AcDbEntity
  8
0
  6
Continuous
 62
     0
370
    -2
100
AcDbLine
 10
153.5250856427637
 20
72.25019419142376
 30
0.0
 11
153.5250856427637
 21
95.55266005586427
 31
0.0
  0
LINE
  5
1CF
330
1CC
100
AcDbEntity
  8
0
  6
Continuous
 62
     0
370
    -2
100
AcDbLine
 10
13.82508564276375
 20
64.90019419142374
 30
0.0
 11
13.82508564276375
 21
95.55266005586427
 31
0.0
  0
LINE
  5
1D0
330
1CC
100
AcDbEntity
  8
0
  6
Continuous
 62
     0
370
    -2
100
AcDbLine
 10
150.2230856427637
 20
95.55266005586427
 30
0.0
 11
17.12708564276375
 21
95.55266005586427
 31
0.0
  0
SOLID
  5
1D1
330
1CC
100
AcDbEntity
  8
0
 62
     0
100
AcDbTrace
 10
150.2230856427637
 20
95.00232672253094
 30
0.0
 11
150.2230856427637
 21
96.1029933891976
 31
0.0
 12
153.5250856427637
 22
95.55266005586427
 32
0.0
 13
153.5250856427637
 23
95.55266005586427
 33
0.0
  0
SOLID
  5
1D2
330
1CC
100
AcDbEntity
  8
0
 62
     0
100
AcDbTrace
 10
17.12708564276375
 20
96.1029933891976
 30
0.0
 11
17.12708564276375
 21
95.00232672253094
 31
0.0
 12
13.82508564276375
 22
95.55266005586427
 32
0.0
 13
13.82508564276375
 23
95.55266005586427
 33
0.0
  0
MTEXT
  5
1D3
330
1CC
100
AcDbEntity
  8
0
 62
     0
370
    15
100
AcDbMText
 10
86.72500000000008
 20
99.92766005586427
 30
0.0
 40
3.5
 41
0.0
 71
     2
 72
     1
  1
\A1;139.70 [5 1/2]
  7
SLDTEXTSTYLE0
 73
     1
 44
1.0
  0
POINT
  5
1D4
330
1CC
100
AcDbEntity
  8
Defpoints
 62
     0
100
AcDbPoint
 10
153.5250856427637
 20
72.18769419142376
 30
0.0
  0
POINT
  5
1D5
330
1CC
100
AcDbEntity
  8
Defpoints
 62
     0
100
AcDbPoint
 10
13.82508564276375
 20
64.83769419142374
 30
0.0
  0
POINT
  5
1D6
330
1CC
100
AcDbEntity
  8
Defpoints
 62
     0
100
AcDbPoint
 10
13.82508564276375
 20
95.55266005586427
 30
0.0
  0
ENDBLK
  5
1D7
330
1CC
100
AcDbEntity
  8
0
100
AcDbBlockEnd
  0
BLOCK
  5
1E7
330
1E6
100
AcDbEntity
  8
0
100
AcDbBlockBegin
  2
*D9
 70
     1
 10
0.0
 20
0.0
 30
0.0
  3
*D9
  1
*D10
  0
LINE
  5
1E9
330
1E6
100
AcDbEntity
  8
0
  6
Continuous
 62
     0
370
    -2
100
AcDbLine
 10
153.5250856427637
 20
72.25019419142376
 30
0.0
 11
153.5250856427637
 21
84.43201975094843
 31
0.0
  0
LINE
  5
1EA
330
1E6
100
AcDbEntity
  8
0
  6
Continuous
 62
     0
370
    -2
100
AcDbLine
 10
77.32508564276372
 20
65.90019419142376
 30
0.0
 11
77.32508564276372
 21
84.43201975094843
 31
0.0
  0
LINE
  5
1EB
330
1E6
100
AcDbEntity
  8
0
  6
Continuous
 62
     0
370
    -2
100
AcDbLine
 10
150.2230856427637
 20
84.43201975094843
 30
0.0
 11
80.62708564276372
 21
84.43201975094843
 31
0.0
  0
SOLID
  5
1EC
330
1E6
100
AcDbEntity
  8
0
 62
     0
100
AcDbTrace
 10
150.2230856427637
 20
83.8816864176151
 30
0.0
 11
150.2230856427637
 21
84.98235308428175
 31
0.0
 12
153.5250856427637
 22
84.43201975094843
 32
0.0
 13
153.5250856427637
 23
84.43201975094843
 33
0.0
  0
SOLID
  5
1ED
330
1E6
100
AcDbEntity
  8
0
 62
     0
100
AcDbTrace
 10
80.62708564276372
 20
84.98235308428175
 30
0.0
 11
80.62708564276372
 21
83.8816864176151
 31
0.0
 12
77.32508564276372
 22
84.43201975094843
 32
0.0
 13
77.32508564276372
 23
84.43201975094843
 33
0.0
  0
MTEXT
  5
1EE
330
1E6
100
AcDbEntity
  8
0
 62
     0
370
    15
100
AcDbMText
 10
115.4250856427637
 20
88.80701975094843
 30
0.0
 40
3.5
 41
0.0
 71
     2
 72
     1
  1
\A1;76.20 [3]
  7
SLDTEXTSTYLE0
 73
     1
 44
1.0
  0
POINT
  5
1EF
330
1E6
100
AcDbEntity
  8
Defpoints
 62
     0
100
AcDbPoint
 10
153.5250856427637
 20
72.18769419142376
 30
0.0
  0
POINT
  5
1F0
330
1E6
100
AcDbEntity
  8
Defpoints
 62
     0
100
AcDbPoint
 10
77.32508564276372
 20
65.83769419142376
 30
0.0
  0
POINT
  5
1F1
330
1E6
100
AcDbEntity
  8
Defpoints
 62
     0
100
AcDbPoint
 10
77.32508564276372
 20
84.43201975094843
 30
0.0
  0
ENDBLK
  5
1E8
330
1E6
100
AcDbEntity
  8
0
100
AcDbBlockEnd
  0
BLOCK
  5
1F3
330
1F2
100
AcDbEntity
  8
0
100
AcDbBlockBegin
  2
*D10
 70
     1
 10
0.0
 20
0.0
 30
0.0
  3
*D10
  1
*D11
  0
LINE
  5
1F5
330
1F2
100
AcDbEntity
  8
0
  6
Continuous
 62
     0
370
    -2
100
AcDbLine
 10
153.5875856427637
 20
27.73769419142376
 30
0.0
 11
172.525085642764
 21
27.73769419142383
 31
0.0
  0
LINE
  5
1F6
330
1F2
100
AcDbEntity
  8
0
  6
Continuous
 62
     0
370
    -2
100
AcDbLine
 10
153.5875856427637
 20
72.18769419142376
 30
0.0
 11
172.5250856427639
 21
72.18769419142382
 31
0.0
  0
LINE
  5
1F7
330
1F2
100
AcDbEntity
  8
0
  6
Continuous
 62
     0
370
    -2
100
AcDbLine
 10
172.5250856427639
 20
72.18769419142382
 30
0.0
 11
172.5250856427637
 21
133.6030231572907
 31
0.0
  0
LINE
  5
1F8
330
1F2
100
AcDbEntity
  8
0
  6
Continuous
 62
     0
370
    -2
100
AcDbLine
 10
172.525085642764
 20
27.73769419142383
 30
0.0
 11
172.5250856427639
 21
72.18769419142382
 31
0.0
  0
LINE
  5
1F9
330
1F2
100
AcDbEntity
  8
0
  6
Continuous
 62
     0
370
    -2
100
AcDbLine
 10
172.525085642764
 20
24.43569419142383
 30
0.0
 11
172.525085642764
 21
21.13369419142383
 31
0.0
  0
LINE
  5
1FA
330
1F2
100
AcDbEntity
  8
0
  6
Continuous
 62
     0
370
    -2
100
AcDbLine
 10
172.5250856427639
 20
75.48969419142381
 30
0.0
 11
172.5250856427639
 21
78.7916941914238
 31
0.0
  0
SOLID
  5
1FB
330
1F2
100
AcDbEntity
  8
0
 62
     0
100
AcDbTrace
 10
173.0754189760973
 20
24.43569419142383
 30
0.0
 11
171.9747523094307
 21
24.43569419142383
 31
0.0
 12
172.525085642764
 22
27.73769419142383
 32
0.0
 13
172.525085642764
 23
27.73769419142383
 33
0.0
  0
SOLID
  5
1FC
330
1F2
100
AcDbEntity
  8
0
 62
     0
100
AcDbTrace
 10
171.9747523094305
 20
75.48969419142381
 30
0.0
 11
173.0754189760972
 21
75.48969419142381
 31
0.0
 12
172.5250856427639
 22
72.18769419142382
 32
0.0
 13
172.5250856427639
 23
72.18769419142382
 33
0.0
  0
MTEXT
  5
1FD
330
1F2
100
AcDbEntity
  8
0
 62
     0
370
    15
100
AcDbMText
 10
168.1500856427637
 20
116.9780231572907
 30
0.0
 40
3.5
 41
0.0
 71
     2
 72
     1
  1
\A1;%%c44.45 [1 3/4]
  7
SLDTEXTSTYLE0
 11
-3.197042680585377E-15
 21
1.0
 31
0.0
 73
     1
 44
1.0
  0
POINT
  5
1FE
330
1F2
100
AcDbEntity
  8
Defpoints
 62
     0
100
AcDbPoint
 10
153.5250856427637
 20
27.73769419142376
 30
0.0
  0
POINT
  5
1FF
330
1F2
100
AcDbEntity
  8
Defpoints
 62
     0
100
AcDbPoint
 10
153.5250856427637
 20
72.18769419142376
 30
0.0
  0
POINT
  5
200
330
1F2
100
AcDbEntity
  8
Defpoints
 62
     0
100
AcDbPoint
 10
172.5250856427639
 20
72.18769419142383
 30
0.0
  0
ENDBLK
  5
1F4
330
1F2
100
AcDbEntity
  8
0
100
AcDbBlockEnd
  0
BLOCK
  5
233
330
232
100
AcDbEntity
  8
0
100
AcDbBlockBegin
  2
*D11
 70
     1
 10
0.0
 20
0.0
 30
0.0
  3
*D11
  1
*D12
  0
LINE
  5
235
330
232
100
AcDbEntity
  8
0
  6
Continuous
 62
     0
370
    -2
100
AcDbLine
 10
305.3306193225716
 20
-78.84175995981633
 30
0.0
 11
305.3306193225716
 21
-66.65993440029166
 31
0.0
  0
LINE
  5
236
330
232
100
AcDbEntity
  8
0
  6
Continuous
 62
     0
370
    -2
100
AcDbLine
 10
229.1306193225716
 20
-85.19175995981632
 30
0.0
 11
229.1306193225716
 21
-66.65993440029166
 31
0.0
  0
LINE
  5
237
330
232
100
AcDbEntity
  8
0
  6
Continuous
 62
     0
370
    -2
100
AcDbLine
 10
302.0286193225716
 20
-66.65993440029166
 30
0.0
 11
232.4326193225716
 21
-66.65993440029166
 31
0.0
  0
SOLID
  5
238
330
232
100
AcDbEntity
  8
0
 62
     0
100
AcDbTrace
 10
302.0286193225716
 20
-67.21026773362499
 30
0.0
 11
302.0286193225716
 21
-66.10960106695833
 31
0.0
 12
305.3306193225716
 22
-66.65993440029166
 32
0.0
 13
305.3306193225716
 23
-66.65993440029166
 33
0.0
  0
SOLID
  5
239
330
232
100
AcDbEntity
  8
0
 62
     0
100
AcDbTrace
 10
232.4326193225716
 20
-66.10960106695833
 30
0.0
 11
232.4326193225716
 21
-67.21026773362499
 31
0.0
 12
229.1306193225716
 22
-66.65993440029166
 32
0.0
 13
229.1306193225716
 23
-66.65993440029166
 33
0.0
  0
MTEXT
  5
23A
330
232
100
AcDbEntity
  8
0
 62
     0
370
    15
100
AcDbMText
 10
267.2306193225717
 20
-62.28493440029166
 30
0.0
 40
3.5
 41
0.0
 71
     2
 72
     1
  1
\A1;76.20 [3]
  7
SLDTEXTSTYLE0
 73
     1
 44
1.0
  0
POINT
  5
23B
330
232
100
AcDbEntity
  8
Defpoints
 62
     0
100
AcDbPoint
 10
305.3306193225716
 20
-78.90425995981633
 30
0.0
  0
POINT
  5
23C
330
232
100
AcDbEntity
  8
Defpoints
 62
     0
100
AcDbPoint
 10
229.1306193225716
 20
-85.25425995981632
 30
0.0
  0
POINT
  5
23D
330
232
100
AcDbEntity
  8
Defpoints
 62
     0
100
AcDbPoint
 10
229.1306193225716
 20
-66.65993440029166
 30
0.0
  0
ENDBLK
  5
234
330
232
100
AcDbEntity
  8
0
100
AcDbBlockEnd
  0
BLOCK
  5
23F
330
23E
100
AcDbEntity
  8
0
100
AcDbBlockBegin
  2
*D12
 70
     1
 10
0.0
 20
0.0
 30
0.0
  3
*D12
  1
*D13
  0
LINE
  5
241
330
23E
100
AcDbEntity
  8
0
  6
Continuous
 62
     0
370
    -2
100
AcDbLine
 10
305.3931193225716
 20
-123.3542599598163
 30
0.0
 11
324.330619322572
 21
-123.3542599598163
 31
0.0
  0
LINE
  5
242
330
23E
100
AcDbEntity
  8
0
  6
Continuous
 62
     0
370
    -2
100
AcDbLine
 10
305.3931193225716
 20
-78.90425995981633
 30
0.0
 11
324.3306193225718
 21
-78.90425995981626
 31
0.0
  0
LINE
  5
243
330
23E
100
AcDbEntity
  8
0
  6
Continuous
 62
     0
370
    -2
100
AcDbLine
 10
324.3306193225718
 20
-78.90425995981626
 30
0.0
 11
324.3306193225716
 21
-17.48893099394937
 31
0.0
  0
LINE
  5
244
330
23E
100
AcDbEntity
  8
0
  6
Continuous
 62
     0
370
    -2
100
AcDbLine
 10
324.330619322572
 20
-123.3542599598163
 30
0.0
 11
324.3306193225718
 21
-78.90425995981626
 31
0.0
  0
LINE
  5
245
330
23E
100
AcDbEntity
  8
0
  6
Continuous
 62
     0
370
    -2
100
AcDbLine
 10
324.330619322572
 20
-126.6562599598163
 30
0.0
 11
324.330619322572
 21
-129.9582599598162
 31
0.0
  0
LINE
  5
246
330
23E
100
AcDbEntity
  8
0
  6
Continuous
 62
     0
370
    -2
100
AcDbLine
 10
324.3306193225718
 20
-75.60225995981625
 30
0.0
 11
324.3306193225718
 21
-72.30025995981626
 31
0.0
  0
SOLID
  5
247
330
23E
100
AcDbEntity
  8
0
 62
     0
100
AcDbTrace
 10
324.8809526559053
 20
-126.6562599598163
 30
0.0
 11
323.7802859892386
 21
-126.6562599598163
 31
0.0
 12
324.330619322572
 22
-123.3542599598163
 32
0.0
 13
324.330619322572
 23
-123.3542599598163
 33
0.0
  0
SOLID
  5
248
330
23E
100
AcDbEntity
  8
0
 62
     0
100
AcDbTrace
 10
323.7802859892385
 20
-75.60225995981625
 30
0.0
 11
324.8809526559052
 21
-75.60225995981625
 31
0.0
 12
324.3306193225718
 22
-78.90425995981626
 32
0.0
 13
324.3306193225718
 23
-78.90425995981626
 33
0.0
  0
MTEXT
  5
249
330
23E
100
AcDbEntity
  8
0
 62
     0
370
    15
100
AcDbMText
 10
319.9556193225716
 20
-34.11393099394938
 30
0.0
 40
3.5
 41
0.0
 71
     2
 72
     1
  1
\A1;%%c44.45 [1 3/4]
  7
SLDTEXTSTYLE0
 11
-3.836451216702453E-15
 21
1.0
 31
0.0
 73
     1
 44
1.0
  0
POINT
  5
24A
330
23E
100
AcDbEntity
  8
Defpoints
 62
     0
100
AcDbPoint
 10
305.3306193225716
 20
-123.3542599598163
 30
0.0
  0
POINT
  5
24B
330
23E
100
AcDbEntity
  8
Defpoints
 62
     0
100
AcDbPoint
 10
305.3306193225716
 20
-78.90425995981633
 30
0.0
  0
POINT
  5
24C
330
23E
100
AcDbEntity
  8
Defpoints
 62
     0
100
AcDbPoint
 10
324.3306193225718
 20
-78.90425995981626
 30
0.0
  0
ENDBLK
  5
240
330
23E
100
AcDbEntity
  8
0
100
AcDbBlockEnd
  0
BLOCK
  5
24E
330
24D
100
AcDbEntity
  8
0
100
AcDbBlockBegin
  2
*D13
 70
     1
 10
0.0
 20
0.0
 30
0.0
  3
*D13
  1
*D14
  0
LINE
  5
250
330
24D
100
AcDbEntity
  8
0
  6
Continuous
 62
     0
370
    -2
100
AcDbLine
 10
-50.5625
 20
15.87319595521765
 30
0.0
 11
-60.95008564276372
 21
15.87319595521761
 31
0.0
  0
LINE
  5
251
330
24D
100
AcDbEntity
  8
0
  6
Continuous
 62
     0
370
    -2
100
AcDbLine
 10
-50.56249999999997
 20
-15.87680404478235
 30
0.0
 11
-60.95008564276361
 21
-15.87680404478239
 31
0.0
  0
LINE
  5
252
330
24D
100
AcDbEntity
  8
0
  6
Continuous
 62
     0
370
    -2
100
AcDbLine
 10
-60.95008564276371
 20
12.57119595521761
 30
0.0
 11
-60.95008564276363
 21
-12.57480404478239
 31
0.0
  0
SOLID
  5
253
330
24D
100
AcDbEntity
  8
0
 62
     0
100
AcDbTrace
 10
-60.39975230943038
 20
12.57119595521762
 30
0.0
 11
-61.50041897609704
 21
12.57119595521761
 31
0.0
 12
-60.95008564276372
 22
15.87319595521761
 32
0.0
 13
-60.95008564276372
 23
15.87319595521761
 33
0.0
  0
SOLID
  5
254
330
24D
100
AcDbEntity
  8
0
 62
     0
100
AcDbTrace
 10
-61.50041897609696
 20
-12.57480404478239
 30
0.0
 11
-60.39975230943029
 21
-12.57480404478238
 31
0.0
 12
-60.95008564276361
 22
-15.87680404478239
 32
0.0
 13
-60.95008564276361
 23
-15.87680404478239
 33
0.0
  0
MTEXT
  5
255
330
24D
100
AcDbEntity
  8
0
 62
     0
370
    15
100
AcDbMText
 10
-65.32508564276367
 20
-0.0018040447823337
 30
0.0
 40
3.5
 41
0.0
 71
     2
 72
     1
  1
\A1;%%c31.75 [1 1/4]
  7
SLDTEXTSTYLE0
 11
-3.580687802255623E-15
 21
1.0
 31
0.0
 73
     1
 44
1.0
  0
POINT
  5
256
330
24D
100
AcDbEntity
  8
Defpoints
 62
     0
100
AcDbPoint
 10
-50.5
 20
15.87319595521765
 30
0.0
  0
POINT
  5
257
330
24D
100
AcDbEntity
  8
Defpoints
 62
     0
100
AcDbPoint
 10
-50.49999999999997
 20
-15.87680404478235
 30
0.0
  0
POINT
  5
258
330
24D
100
AcDbEntity
  8
Defpoints
 62
     0
100
AcDbPoint
 10
-60.95008564276361
 20
-15.87680404478239
 30
0.0
  0
ENDBLK
  5
24F
330
24D
100
AcDbEntity
  8
0
100
AcDbBlockEnd
  0
BLOCK
  5
25A
330
259
100
AcDbEntity
  8
0
100
AcDbBlockBegin
  2
*D14
 70
     1
 10
0.0
 20
0.0
 30
0.0
  3
*D14
  1
*D15
  0
LINE
  5
25C
330
259
100
AcDbEntity
  8
0
  6
Continuous
 62
     0
370
    -2
100
AcDbLine
 10
88.20000000000002
 20
25.46069595521768
 30
0.0
 11
88.20000000000002
 21
45.58816181965818
 31
0.0
  0
LINE
  5
25D
330
259
100
AcDbEntity
  8
0
  6
Continuous
 62
     0
370
    -2
100
AcDbLine
 10
-51.49999999999997
 20
14.93569595521765
 30
0.0
 11
-51.49999999999997
 21
45.58816181965818
 31
0.0
  0
LINE
  5
25E
330
259
100
AcDbEntity
  8
0
  6
Continuous
 62
     0
370
    -2
100
AcDbLine
 10
84.89800000000002
 20
45.58816181965818
 30
0.0
 11
-48.19799999999997
 21
45.58816181965818
 31
0.0
  0
SOLID
  5
25F
330
259
100
AcDbEntity
  8
0
 62
     0
100
AcDbTrace
 10
84.89800000000002
 20
45.03782848632485
 30
0.0
 11
84.89800000000002
 21
46.13849515299152
 31
0.0
 12
88.20000000000002
 22
45.58816181965818
 32
0.0
 13
88.20000000000002
 23
45.58816181965818
 33
0.0
  0
SOLID
  5
260
330
259
100
AcDbEntity
  8
0
 62
     0
100
AcDbTrace
 10
-48.19799999999997
 20
46.13849515299152
 30
0.0
 11
-48.19799999999997
 21
45.03782848632485
 31
0.0
 12
-51.49999999999997
 22
45.58816181965818
 32
0.0
 13
-51.49999999999997
 23
45.58816181965818
 33
0.0
  0
MTEXT
  5
261
330
259
100
AcDbEntity
  8
0
 62
     0
370
    15
100
AcDbMText
 10
21.39991435723636
 20
49.96316181965818
 30
0.0
 40
3.5
 41
0.0
 71
     2
 72
     1
  1
\A1;139.70 [5 1/2]
  7
SLDTEXTSTYLE0
 73
     1
 44
1.0
  0
POINT
  5
262
330
259
100
AcDbEntity
  8
Defpoints
 62
     0
100
AcDbPoint
 10
88.20000000000002
 20
25.39819595521768
 30
0.0
  0
POINT
  5
263
330
259
100
AcDbEntity
  8
Defpoints
 62
     0
100
AcDbPoint
 10
-51.49999999999997
 20
14.87319595521765
 30
0.0
  0
POINT
  5
264
330
259
100
AcDbEntity
  8
Defpoints
 62
     0
100
AcDbPoint
 10
-51.49999999999997
 20
45.58816181965818
 30
0.0
  0
ENDBLK
  5
25B
330
259
100
AcDbEntity
  8
0
100
AcDbBlockEnd
  0
ENDSEC
  0
SECTION
  2
ENTITIES
  0
SPLINE
  5
96
330
1F
100
AcDbEntity
  8
0
  6
Continuous
 62
     1
370
    15
100
AcDbSpline
210
0.0
220
0.0
230
1.0
 70
     8
 71
     3
 72
    19
 73
    15
 74
     0
 42
0.000000001
 43
0.00000001
 40
0.0
 40
0.0
 40
0.0
 40
0.0
 40
0.1212931000701511
 40
0.219133184364722
 40
0.2950918372209025
 40
0.3589373542664376
 40
0.412894753819911
 40
0.4579561372904298
 40
0.5019883869311024
 40
0.6630559955289614
 40
0.7100441421236245
 40
0.7808140439906653
 40
0.8774742013419267
 40
1.0
 40
1.0
 40
1.0
 40
1.0
 10
22.39449598870656
 20
6.506941830109396
 30
0.0
 10
22.11912282107872
 20
6.636288652403662
 30
0.0
 10
21.621622146465
 20
6.869972027965891
 30
0.0
 10
20.93514614347354
 20
7.198797824396203
 30
0.0
 10
20.36269380060347
 20
7.476458611794878
 30
0.0
 10
19.8977659919365
 20
7.704202395421901
 30
0.0
 10
19.50955409793731
 20
7.895907863597412
 30
0.0
 10
19.17315207211891
 20
8.06317767760772
 30
0.0
 10
18.58542118553309
 20
8.357157830222732
 30
0.0
 10
17.99324861487995
 20
8.656819450588806
 30
0.0
 10
17.33566181635636
 20
8.993547515262758
 30
0.0
 10
16.83168682999873
 20
9.253378617497733
 30
0.0
 10
16.15047100683442
 20
9.607567640424211
 30
0.0
 10
15.6359453227957
 20
9.879303813993621
 30
0.0
 10
15.34832347185809
 20
10.03120538787668
 30
0.0
  0
SPLINE
  5
97
330
1F
100
AcDbEntity
  8
0
  6
Continuous
 62
     1
370
    15
100
AcDbSpline
210
0.0
220
0.0
230
1.0
 70
     8
 71
     3
 72
     9
 73
     5
 74
     0
 42
0.000000001
 43
0.00000001
 40
0.0
 40
0.0
 40
0.0
 40
0.0
 40
0.4989154309133375
 40
1.0
 40
1.0
 40
1.0
 40
1.0
 10
13.99753195186944
 20
20.1820233714938
 30
0.0
 10
13.66449715076255
 20
20.16415090962396
 30
0.0
 10
12.99697961077141
 20
20.12832828165447
 30
0.0
 10
12.33280676448198
 20
20.09151202116703
 30
0.0
 10
11.99999999999999
 20
20.07306396114531
 30
0.0
  0
SPLINE
  5
98
330
1F
100
AcDbEntity
  8
0
  6
Continuous
 62
     1
370
    15
100
AcDbSpline
210
0.0
220
0.0
230
1.0
 70
     8
 71
     3
 72
    51
 73
    47
 74
     0
 42
0.000000001
 43
0.00000001
 40
0.0
 40
0.0
 40
0.0
 40
0.0
 40
0.0277806798206349
 40
0.0527311662586664
 40
0.0751278768212317
 40
0.0953801043499209
 40
0.1142376621843378
 40
0.1379629585019567
 40
0.1609013109137211
 40
0.183112791808725
 40
0.2060062264312559
 40
0.2273742801694467
 40
0.2462048421196919
 40
0.2645720836211613
 40
0.2860217083563923
 40
0.3287897996769786
 40
0.3715293225507754
 40
0.4102226852913491
 40
0.4482819397640098
 40
0.4867537855361412
 40
0.5058894201862519
 40
0.5279112610775287
 40
0.550931167718044
 40
0.5711310665144882
 40
0.5884552068641445
 40
0.6038056332542632
 40
0.6176931306684458
 40
0.6362414618670278
 40
0.6582720910692776
 40
0.683486659291616
 40
0.7105797124877776
 40
0.7368341093354619
 40
0.7630766817655629
 40
0.7861753994966909
 40
0.8068354906573894
 40
0.8300159792998176
 40
0.8461526592869366
 40
0.860953968560173
 40
0.8732169092159132
 40
0.8832442630466939
 40
0.8924807589796666
 40
0.905798905344564
 40
0.9232179637946167
 40
0.9447253150987849
 40
0.9703030999555228
 40
1.0
 40
1.0
 40
1.0
 40
1.0
 10
78.7611088192973
 20
17.37059038000944
 30
0.0
 10
78.38741041670362
 20
17.33865074744136
 30
0.0
 10
77.6780846289621
 20
17.27802537448209
 30
0.0
 10
76.61291761300014
 20
17.19314622633224
 30
0.0
 10
75.61621394827284
 20
17.12130997267498
 30
0.0
 10
74.6781263316425
 20
17.06193288970377
 30
0.0
 10
73.71814599225655
 20
17.00617542431194
 30
0.0
 10
72.71809729340863
 20
16.95074918656097
 30
0.0
 10
71.69159658629277
 20
16.90012292912662
 30
0.0
 10
70.6914221826476
 20
16.85644425189341
 30
0.0
 10
69.70778525068403
 20
16.81910976513632
 30
0.0
 10
68.7733226269919
 20
16.78896432541369
 30
0.0
 10
67.90581899066841
 20
16.76543981758374
 30
0.0
 10
67.03647576861103
 20
16.74600705217593
 30
0.0
 10
65.81134440248695
 20
16.72487682476516
 30
0.0
 10
64.22586943195594
 20
16.71063675931252
 30
0.0
 10
62.38597949400305
 20
16.71443409935485
 30
0.0
 10
60.61476407896018
 20
16.73661443874908
 30
0.0
 10
58.90658416275983
 20
16.77496739316163
 30
0.0
 10
57.48866791478634
 20
16.82068372293518
 30
0.0
 10
56.30856703865494
 20
16.86736318302628
 30
0.0
 10
55.35749533742249
 20
16.90995987228314
 30
0.0
 10
54.39065264365549
 20
16.95879284785069
 30
0.0
 10
53.49338059171257
 20
17.00908269666373
 30
0.0
 10
52.70933254963526
 20
17.0566985555576
 30
0.0
 10
52.01883855063073
 20
17.10141890661061
 30
0.0
 10
51.31042308503913
 20
17.14985901835381
 30
0.0
 10
50.5033390420873
 20
17.20827338041343
 30
0.0
 10
49.52846553686074
 20
17.28370890777187
 30
0.0
 10
48.42699794248622
 20
17.37535235497983
 30
0.0
 10
47.26298703400138
 20
17.47976651591113
 30
0.0
 10
46.08311713135274
 20
17.59298386645266
 30
0.0
 10
44.96213364067489
 20
17.70747589255424
 30
0.0
 10
43.92466950617834
 20
17.81944988290438
 30
0.0
 10
42.93342440416712
 20
17.93151515040971
 30
0.0
 10
42.04896586673631
 20
18.0361160525338
 30
0.0
 10
41.254508836771
 20
18.13349114041235
 30
0.0
 10
40.61434577398179
 20
18.21412886354954
 30
0.0
 10
40.05760242722648
 20
18.28605146194119
 30
0.0
 10
39.57826641905824
 20
18.34900793588074
 30
0.0
 10
39.08735090306577
 20
18.41443523603429
 30
0.0
 10
38.49198773188151
 20
18.49543814782863
 30
0.0
 10
37.71837984623865
 20
18.60337300365539
 30
0.0
 10
36.7674223126335
 20
18.74026766428596
 30
0.0
 10
35.63844017592726
 20
18.90817608946291
 30
0.0
 10
34.82658334727747
 20
19.03452536804006
 30
0.0
 10
34.390404812132
 20
19.1024078336444
 30
0.0
  0
SPLINE
  5
99
330
1F
100
AcDbEntity
  8
0
  6
Continuous
 62
     1
370
    15
100
AcDbSpline
210
0.0
220
0.0
230
1.0
 70
     8
 71
     3
 72
    27
 73
    23
 74
     0
 42
0.000000001
 43
0.00000001
 40
0.0
 40
0.0
 40
0.0
 40
0.0
 40
0.0644713550066746
 40
0.1204105136480186
 40
0.1682074031340124
 40
0.2085344237751662
 40
0.2434219168370819
 40
0.2763951088155432
 40
0.3248423811987867
 40
0.3697341249224266
 40
0.4133415315643379
 40
0.460064787946664
 40
0.5010663377775265
 40
0.5361029291584279
 40
0.5773925065537909
 40
0.6280764941821714
 40
0.7018182310882046
 40
0.7797334872416628
 40
0.8608995790381809
 40
0.9411961630926081
 40
0.9992598119211942
 40
1.0
 40
1.0
 40
1.0
 40
1.0
 10
34.390404812132
 20
-19.10601592320906
 30
0.0
 10
34.7684021036948
 20
-19.04674874976063
 30
0.0
 10
35.47437218963331
 20
-18.9360578732209
 30
0.0
 10
36.49515499336911
 20
-18.78041735157395
 30
0.0
 10
37.39677755027252
 20
-18.64825356631106
 30
0.0
 10
38.19302971084614
 20
-18.53726835198492
 30
0.0
 10
38.89361163196179
 20
-18.44360162304093
 30
0.0
 10
39.64670291845361
 20
-18.34344943565311
 30
0.0
 10
40.46475586256467
 20
-18.23635434505654
 30
0.0
 10
41.35576028265989
 20
-18.12198537564916
 30
0.0
 10
42.22170272426305
 20
-18.01678742273272
 30
0.0
 10
42.98632700126402
 20
-17.92919636117047
 30
0.0
 10
43.72467834980927
 20
-17.84564755182363
 30
0.0
 10
44.46785746426641
 20
-17.76420324132792
 30
0.0
 10
45.27290407913954
 20
-17.67910506378773
 30
0.0
 10
46.32373972368909
 20
-17.57287018323985
 30
0.0
 10
47.60669659169211
 20
-17.45115595806587
 30
0.0
 10
49.08170551092866
 20
-17.32270645514456
 30
0.0
 10
50.59772052218952
 20
-17.20322622811259
 30
0.0
 10
51.98914530834526
 20
-17.1063975620493
 30
0.0
 10
52.87105200070793
 20
-17.04938747232002
 30
0.0
 10
53.24368268403075
 20
-17.02810827437831
 30
0.0
 10
53.24837313968975
 20
-17.02784042436254
 30
0.0
  0
SPLINE
  5
9A
330
1F
100
AcDbEntity
  8
0
  6
Continuous
 62
     1
370
    15
100
AcDbSpline
210
0.0
220
0.0
230
1.0
 70
     8
 71
     3
 72
     9
 73
     5
 74
     0
 42
0.000000001
 43
0.00000001
 40
0.0
 40
0.0
 40
0.0
 40
0.0
 40
0.5010845690866625
 40
1.0
 40
1.0
 40
1.0
 40
1.0
 10
11.99999999999999
 20
-20.07667205070998
 30
0.0
 10
12.33280676448198
 20
-20.09512011073171
 30
0.0
 10
12.99697961077141
 20
-20.13193637121914
 30
0.0
 10
13.66449715076255
 20
-20.16775899918862
 30
0.0
 10
13.99753195186944
 20
-20.18563146105847
 30
0.0
  0
SPLINE
  5
9B
330
1F
100
AcDbEntity
  8
0
  6
Continuous
 62
     1
370
    15
100
AcDbSpline
210
0.0
220
0.0
230
1.0
 70
     8
 71
     3
 72
    56
 73
    52
 74
     0
 42
0.000000001
 43
0.00000001
 40
0.0
 40
0.0
 40
0.0
 40
0.0
 40
0.0625000000000007
 40
0.0625000000000007
 40
0.0937500000000008
 40
0.0937500000000008
 40
0.125000000000001
 40
0.125000000000001
 40
0.1875000000000012
 40
0.1875000000000012
 40
0.2187500000000011
 40
0.2187500000000011
 40
0.2500000000000011
 40
0.2500000000000011
 40
0.281250000000001
 40
0.281250000000001
 40
0.3125000000000009
 40
0.3125000000000009
 40
0.3750000000000008
 40
0.3750000000000008
 40
0.4375000000000006
 40
0.4375000000000006
 40
0.4687500000000006
 40
0.4687500000000006
 40
0.5000000000000004
 40
0.5000000000000004
 40
0.5625000000000004
 40
0.5625000000000004
 40
0.5937500000000004
 40
0.5937500000000004
 40
0.6250000000000004
 40
0.6250000000000004
 40
0.6562500000000004
 40
0.6562500000000004
 40
0.6875000000000003
 40
0.6875000000000003
 40
0.7500000000000002
 40
0.7500000000000002
 40
0.7812500000000002
 40
0.7812500000000002
 40
0.8125000000000002
 40
0.8125000000000002
 40
0.8437500000000002
 40
0.8437500000000002
 40
0.8750000000000002
 40
0.8750000000000002
 40
0.9375000000000002
 40
0.9375000000000002
 40
0.9687500000000001
 40
0.9687500000000001
 40
1.0
 40
1.0
 40
1.0
 40
1.0
 10
88.19999999999999
 20
-24.10490212327258
 30
0.0
 10
86.6158744626456
 20
-23.8159767021623
 30
0.0
 10
85.02331402014389
 20
-23.47939167939166
 30
0.0
 10
82.64275091670937
 20
-22.90732198544902
 30
0.0
 10
81.85123450164632
 20
-22.70552823151355
 30
0.0
 10
80.26338415275347
 20
-22.27956440702926
 30
0.0
 10
79.46836305656582
 20
-22.0554928694859
 30
0.0
 10
77.08525128884277
 20
-21.35146791046052
 30
0.0
 10
75.50161454791042
 20
-20.84000440512277
 30
0.0
 10
73.11778677867763
 20
-20.01239319570424
 30
0.0
 10
72.32309806984034
 20
-19.72659368434539
 30
0.0
 10
70.73704974619855
 20
-19.13643032055587
 30
0.0
 10
69.94495181446
 20
-18.83198754777669
 30
0.0
 10
68.35647896643626
 20
-18.20445936977939
 30
0.0
 10
67.56143163080344
 20
-17.88153689961653
 30
0.0
 10
65.97320837731773
 20
-17.21879681050285
 30
0.0
 10
65.18143653323392
 20
-16.87918808002852
 30
0.0
 10
62.80167738941492
 20
-15.83552948202222
 30
0.0
 10
61.20901142099657
 20
-15.10649552446003
 30
0.0
 10
58.03927242002754
 20
-13.59474395713389
 30
0.0
 10
56.44831656327972
 20
-12.80984436618967
 30
0.0
 10
54.06703746013967
 20
-11.59812297529398
 30
0.0
 10
53.27559261172143
 20
-11.18875481380143
 30
0.0
 10
51.68817390709496
 20
-10.35872095697792
 30
0.0
 10
50.8932085555227
 20
-9.938221735304065
 30
0.0
 10
48.50978256660905
 20
-8.663033942850266
 30
0.0
 10
46.92634365316646
 20
-7.795314443621428
 30
0.0
 10
44.54260424688214
 20
-6.471896111860177
 30
0.0
 10
43.74778439218161
 20
-6.027332998195354
 30
0.0
 10
42.16115449311197
 20
-5.133321893443699
 30
0.0
 10
41.36945509577917
 20
-4.683898902798258
 30
0.0
 10
39.78130939473951
 20
-3.780023537641746
 30
0.0
 10
38.98626532808032
 20
-3.325834150781755
 30
0.0
 10
37.39772795570869
 20
-2.414946708785453
 30
0.0
 10
36.6055168517173
 20
-1.958495973026343
 30
0.0
 10
34.22664952827478
 20
-0.586521550210725
 30
0.0
 10
32.63393736767819
 20
0.3323646039388896
 30
0.0
 10
30.25560473051882
 20
1.704969595367374
 30
0.0
 10
29.46306933894054
 20
2.161849007886268
 30
0.0
 10
27.87438253760204
 20
3.073741634650891
 30
0.0
 10
27.07935308327289
 20
3.528538300170233
 30
0.0
 10
25.49141504687302
 20
4.433835628595589
 30
0.0
 10
24.69985789390067
 20
4.884082577195645
 30
0.0
 10
23.11292951994576
 20
5.780091084393862
 30
0.0
 10
22.31804941125818
 20
6.225755899988911
 30
0.0
 10
19.93439751446425
 20
7.552783400555041
 30
0.0
 10
18.35100168870385
 20
8.423380981088886
 30
0.0
 10
15.96743899739874
 20
9.703608959935076
 30
0.0
 10
15.17251747709502
 20
10.12588616125059
 30
0.0
 10
13.58536459170391
 20
10.95966606167372
 30
0.0
 10
12.79387988895904
 20
11.37104705215112
 30
0.0
 10
11.99999999999741
 20
11.77709002835166
 30
0.0
  0
SPLINE
  5
9C
330
1F
100
AcDbEntity
  8
0
  6
Continuous
 62
     1
370
    15
100
AcDbSpline
210
0.0
220
0.0
230
1.0
 70
     8
 71
     3
 72
    21
 73
    17
 74
     0
 42
0.000000001
 43
0.00000001
 40
0.0
 40
0.0
 40
0.0
 40
0.0
 40
0.0752439670212512
 40
0.1504741393136938
 40
0.2256958676170229
 40
0.3009145162411202
 40
0.3761354544483084
 40
0.451364047818864
 40
0.5266056496289803
 40
0.6018516830409976
 40
0.6770835501637856
 40
0.7523061847657169
 40
0.8275249496995705
 40
0.9027452140406012
 40
0.9664096108958617
 40
1.0
 40
1.0
 40
1.0
 40
1.0
 10
88.2
 20
-20.04169955973503
 30
0.0
 10
86.54861140976533
 20
-19.71574931486884
 30
0.0
 10
83.24613698390421
 20
-19.06390858268796
 30
0.0
 10
78.29294711123629
 20
-17.77669316068235
 30
0.0
 10
73.34038198761064
 20
-16.2826931612095
 30
0.0
 10
68.38805378130144
 20
-14.57769663121368
 30
0.0
 10
63.43554960341032
 20
-12.68944021803092
 30
0.0
 10
58.48247420609053
 20
-10.64009392959779
 30
0.0
 10
53.52869382913499
 20
-8.45616468672173
 30
0.0
 10
48.5747626256161
 20
-6.165299524995348
 30
0.0
 10
43.62145788039667
 20
-3.796115352380722
 30
0.0
 10
38.66882093518822
 20
-1.379289957321346
 30
0.0
 10
33.71649303105201
 20
1.055921182261615
 30
0.0
 10
29.01776333436336
 20
3.350180951308566
 30
0.0
 10
25.23268114842526
 20
5.176892187575461
 30
0.0
 10
23.09822612106585
 20
6.171490684491443
 30
0.0
 10
22.36101638699457
 20
6.515010545074409
 30
0.0
  0
LINE
  5
9D
330
1F
100
AcDbEntity
  8
0
  6
Continuous
 62
     1
370
    15
100
AcDbLine
 10
88.2
 20
-24.10490212327259
 30
0.0
 11
88.2
 21
-20.04169955973503
 31
0.0
  0
SPLINE
  5
9E
330
1F
100
AcDbEntity
  8
0
  6
Continuous
 62
     1
370
    15
100
AcDbSpline
210
0.0
220
0.0
230
1.0
 70
     8
 71
     3
 72
    56
 73
    52
 74
     0
 42
0.000000001
 43
0.00000001
 40
0.0
 40
0.0
 40
0.0
 40
0.0
 40
0.03125
 40
0.03125
 40
0.0625
 40
0.0625
 40
0.125
 40
0.125
 40
0.15625
 40
0.15625
 40
0.1875
 40
0.1875
 40
0.21875
 40
0.21875
 40
0.25
 40
0.25
 40
0.3125
 40
0.3125
 40
0.34375
 40
0.34375
 40
0.375
 40
0.375
 40
0.40625
 40
0.40625
 40
0.4374999999999999
 40
0.4374999999999999
 40
0.4999999999999998
 40
0.4999999999999998
 40
0.5312499999999997
 40
0.5312499999999997
 40
0.5624999999999996
 40
0.5624999999999996
 40
0.6249999999999996
 40
0.6249999999999996
 40
0.6874999999999996
 40
0.6874999999999996
 40
0.7187499999999996
 40
0.7187499999999996
 40
0.7499999999999996
 40
0.7499999999999996
 40
0.7812499999999993
 40
0.7812499999999993
 40
0.8124999999999993
 40
0.8124999999999993
 40
0.8749999999999991
 40
0.8749999999999991
 40
0.9062499999999992
 40
0.9062499999999992
 40
0.9374999999999993
 40
0.9374999999999993
 40
1.0
 40
1.0
 40
1.0
 40
1.0
 10
11.99999999999998
 20
5.103861960023388
 30
0.0
 10
12.79387988896158
 20
4.654914787223513
 30
0.0
 10
13.58536459170643
 20
4.203928283066436
 30
0.0
 10
15.1725174770975
 20
3.297498891454083
 30
0.0
 10
15.96743899740117
 20
2.842194886685113
 30
0.0
 10
18.35100168870621
 20
1.473009874853368
 30
0.0
 10
19.93439751446655
 20
0.556637736345723
 30
0.0
 10
22.3180494112604
 20
-0.8185170344274321
 30
0.0
 10
23.11292951994794
 20
-1.276789836031329
 30
0.0
 10
24.69985789390279
 20
-2.191099469332723
 30
0.0
 10
25.49141504687513
 20
-2.647043529556578
 30
0.0
 10
27.07935308327497
 20
-3.556827772704882
 30
0.0
 10
27.87438253760407
 20
-4.010407094203037
 30
0.0
 10
29.46306933894253
 20
-4.912945519162312
 30
0.0
 10
30.25560473052075
 20
-5.361693957022511
 30
0.0
 10
32.63393736768008
 20
-6.699579536933813
 30
0.0
 10
34.22664952827661
 20
-7.581475887884856
 30
0.0
 10
36.60551685171903
 20
-8.877681954428228
 30
0.0
 10
37.39772795571037
 20
-9.305497640686028
 30
0.0
 10
38.98626532808198
 20
-10.15236243589403
 30
0.0
 10
39.78130939474114
 20
-10.57117721709339
 30
0.0
 10
41.36945509578074
 20
-11.3977338722524
 30
0.0
 10
42.16115449311352
 20
-11.80524083360343
 30
0.0
 10
43.74778439218311
 20
-12.60889505330282
 30
0.0
 10
44.5426042468836
 20
-13.00501420232287
 30
0.0
 10
46.92634365316784
 20
-14.17360797045229
 30
0.0
 10
48.50978256661038
 20
-14.92557426790868
 30
0.0
 10
50.89320855552396
 20
-16.00893715444504
 30
0.0
 10
51.68817390709619
 20
-16.36248210850962
 30
0.0
 10
53.27559261172262
 20
-17.05288199988669
 30
0.0
 10
54.06703746014083
 20
-17.38960516655744
 30
0.0
 10
56.44831656328078
 20
-18.37480686310374
 30
0.0
 10
58.03927242002852
 20
-18.99739518795547
 30
0.0
 10
61.20901142099748
 20
-20.1645079713002
 30
0.0
 10
62.8016773894158
 20
-20.71070668521683
 30
0.0
 10
65.18143653323469
 20
-21.46672703384798
 30
0.0
 10
65.97320837731851
 20
-21.70823192635793
 30
0.0
 10
67.56143163080415
 20
-22.17028310064681
 30
0.0
 10
68.35647896643692
 20
-22.39067636293743
 30
0.0
 10
69.94495181446062
 20
-22.80922646400888
 30
0.0
 10
70.73704974619915
 20
-23.00728136994506
 30
0.0
 10
72.32309806984088
 20
-23.38091487661747
 30
0.0
 10
73.11778677867811
 20
-23.5565362833379
 30
0.0
 10
75.50161454791082
 20
-24.04858895238121
 30
0.0
 10
77.08525128884312
 20
-24.3299036912561
 30
0.0
 10
79.46836305656615
 20
-24.6802913495046
 30
0.0
 10
80.26338415275379
 20
-24.78511075973243
 30
0.0
 10
81.85123450164656
 20
-24.97034962861711
 30
0.0
 10
82.64275091670956
 20
-25.05073894979807
 30
0.0
 10
85.023314020144
 20
-25.25532919404004
 30
0.0
 10
86.61587446264564
 20
-25.34268775778362
 30
0.0
 10
88.20000000000002
 20
-25.40180404478231
 30
0.0
  0
SPLINE
  5
9F
330
1F
100
AcDbEntity
  8
0
  6
Continuous
 62
     1
370
    15
100
AcDbSpline
210
0.0
220
0.0
230
1.0
 70
     8
 71
     3
 72
    10
 73
     6
 74
     0
 42
0.000000001
 43
0.00000001
 40
0.0
 40
0.0
 40
0.0
 40
0.0
 40
0.2018060293542064
 40
0.6008952962953781
 40
1.0
 40
1.0
 40
1.0
 40
1.0
 10
25.0917973989798
 20
-2.413883568476467
 30
0.0
 10
24.21113238592342
 20
-2.062089567583112
 30
0.0
 10
21.58887444025687
 20
-1.014591823941772
 30
0.0
 10
17.22494988086552
 20
0.7583341568060449
 30
0.0
 10
13.74167241536929
 20
2.154905452089096
 30
0.0
 10
12.0
 20
2.853204604305648
 30
0.0
  0
SPLINE
  5
A0
330
1F
100
AcDbEntity
  8
외형선
  6
Continuous
370
    15
100
AcDbSpline
210
0.0
220
0.0
230
1.0
 70
    24
 71
     3
 72
    13
 73
     9
 74
     0
 42
0.000000001
 43
0.00000001
 40
0.0
 40
0.0
 40
0.0
 40
0.0
 40
0.041957219537679
 40
0.349019137860715
 40
0.5065677838926023
 40
0.6652751556747205
 40
0.8319505210266328
 40
1.0
 40
1.0
 40
1.0
 40
1.0
 10
12.00000000000001
 20
5.032334228445993
 30
0.0
 10
12.00000000000001
 20
5.023349968639833
 30
0.0
 10
12.00000000000001
 20
4.948614830172271
 30
0.0
 10
12.00000000000001
 20
4.695311475315258
 30
0.0
 10
12.00000000000001
 20
4.281333699402908
 30
0.0
 10
12.00000000000001
 20
3.885586433824803
 30
0.0
 10
12.00000000000001
 20
3.417292406833363
 30
0.0
 10
12.00000000000001
 20
3.041747767544531
 30
0.0
 10
12.00000000000001
 20
2.853204604305652
 30
0.0
  0
LINE
  5
A1
330
1F
100
AcDbEntity
  8
외형선
  6
Continuous
370
    15
100
AcDbLine
 10
12.00000000000001
 20
5.103861960023376
 30
0.0
 11
12.00000000000001
 21
11.77709002834919
 31
0.0
  0
LINE
  5
A2
330
1F
100
AcDbEntity
  8
0
  6
Continuous
 62
     1
370
    15
100
AcDbLine
 10
88.20000000000002
 20
-25.40180404478232
 30
0.0
 11
88.19999999999999
 21
-24.10490212327259
 31
0.0
  0
SPLINE
  5
A3
330
1F
100
AcDbEntity
  8
0
  6
Continuous
 62
     1
370
    15
100
AcDbSpline
210
0.0
220
0.0
230
1.0
 70
     8
 71
     3
 72
    23
 73
    19
 74
     0
 42
0.000000001
 43
0.00000001
 40
0.0
 40
0.0
 40
0.0
 40
0.0
 40
0.0667615912202118
 40
0.133510771575255
 40
0.2002523550288991
 40
0.266991167806993
 40
0.3337320406103551
 40
0.4004798008124734
 40
0.467239264668501
 40
0.5340027145569226
 40
0.60075341928843
 40
0.6674958178814111
 40
0.7342347352454585
 40
0.800975001912444
 40
0.8574624143386246
 40
0.9139647468249442
 40
0.9704330745068183
 40
1.0
 40
1.0
 40
1.0
 40
1.0
 10
88.2
 20
-0.001804044782334
 30
0.0
 10
86.54861389553395
 20
0.7608038211862488
 30
0.0
 10
83.24614867644293
 20
2.285877785630637
 30
0.0
 10
78.29295990484194
 20
4.544724804065297
 30
0.0
 10
73.34039715182156
 20
6.745880523145498
 30
0.0
 10
68.3880709215056
 20
8.861575223774532
 30
0.0
 10
63.4355689836075
 20
10.86506718627593
 30
0.0
 10
58.4824951125524
 20
12.73104955111608
 30
0.0
 10
53.5287230923945
 20
14.43576539887423
 30
0.0
 10
48.5748066654965
 20
15.95759334384692
 30
0.0
 10
43.62150292514588
 20
17.27749026453269
 30
0.0
 10
38.66886817765943
 20
18.37845182719165
 30
0.0
 10
33.71654328533103
 20
19.24690440144889
 30
0.0
 10
29.01780767071348
 20
19.83884367525521
 30
0.0
 10
24.57236928032339
 20
20.19295074385854
 30
0.0
 10
20.38059113566171
 20
20.33448996687553
 30
0.0
 10
16.85527898286785
 20
20.32740427659207
 30
0.0
 10
14.72733244587591
 20
20.20210643984455
 30
0.0
 10
13.9960410927291
 20
20.15904651188649
 30
0.0
  0
SPLINE
  5
A4
330
1F
100
AcDbEntity
  8
0
  6
Continuous
 62
     1
370
    15
100
AcDbSpline
210
0.0
220
0.0
230
1.0
 70
    24
 71
     3
 72
    14
 73
    10
 74
     0
 42
0.000000001
 43
0.00000001
 40
0.0
 40
0.0
 40
0.0
 40
0.0
 40
0.25
 40
0.25
 40
0.5
 40
0.5
 40
0.75
 40
0.75
 40
1.0
 40
1.0
 40
1.0
 40
1.0
 10
88.2
 20
-20.04169955973502
 30
0.0
 10
88.20000000000002
 20
-18.95737740530479
 30
0.0
 10
88.20000000000002
 20
-17.6738278511095
 30
0.0
 10
88.19999999999999
 20
-14.75893994055507
 30
0.0
 10
88.20000000000002
 20
-13.12801238965573
 30
0.0
 10
88.20000000000003
 20
-9.625544134572612
 30
0.0
 10
88.20000000000002
 20
-7.755014836899638
 30
0.0
 10
88.20000000000003
 20
-3.915457870480139
 30
0.0
 10
88.20000000000002
 20
-1.947569130243047
 30
0.0
 10
88.2
 20
-0.001804044782334
 30
0.0
  0
SPLINE
  5
A5
330
1F
100
AcDbEntity
  8
외형선
  6
Continuous
370
    15
100
AcDbSpline
210
0.0
220
0.0
230
1.0
 70
    24
 71
     3
 72
    18
 73
    14
 74
     0
 42
0.000000001
 43
0.00000001
 40
0.0
 40
0.0
 40
0.0
 40
0.0
 40
0.0530875978509471
 40
0.1280730678460708
 40
0.2030585378411944
 40
0.3123710994148284
 40
0.4216836609884625
 40
0.5341719889841274
 40
0.6466603169797922
 40
0.7455540132642008
 40
0.8444477095486094
 40
0.9456708734206157
 40
1.0
 40
1.0
 40
1.0
 40
1.0
 10
12.00000000000001
 20
20.06434493639066
 30
0.0
 10
12.00000000000001
 20
20.05346811323226
 30
0.0
 10
12.00000000000001
 20
20.0272279334783
 30
0.0
 10
12.00000000000001
 20
19.88125719154591
 30
0.0
 10
12.00000000000001
 20
19.60484417537003
 30
0.0
 10
12.00000000000001
 20
19.14359170171426
 30
0.0
 10
12.00000000000001
 20
18.43752057151448
 30
0.0
 10
12.00000000000001
 20
17.53553091947014
 30
0.0
 10
12.00000000000001
 20
16.48394426408535
 30
0.0
 10
12.00000000000001
 20
15.32390193640538
 30
0.0
 10
12.00000000000001
 20
14.06889175052267
 30
0.0
 10
12.00000000000001
 20
12.91085007382429
 30
0.0
 10
12.00000000000001
 20
12.12357587261692
 30
0.0
 10
12.00000000000001
 20
11.84860775992658
 30
0.0
  0
SPLINE
  5
A6
330
1F
100
AcDbEntity
  8
0
  6
Continuous
 62
     1
370
    15
100
AcDbSpline
210
0.0
220
0.0
230
1.0
 70
    24
 71
     3
 72
    10
 73
     6
 74
     0
 42
0.000000001
 43
0.00000001
 40
0.0
 40
0.0
 40
0.0
 40
0.0
 40
0.5
 40
0.5
 40
1.0
 40
1.0
 40
1.0
 40
1.0
 10
83.20000000000003
 20
13.02141409216099
 30
0.0
 10
83.20000000000007
 20
13.71640363349799
 30
0.0
 10
83.2
 20
14.3421709814964
 30
0.0
 10
83.19999999999999
 20
15.44094084913599
 30
0.0
 10
83.19999999999999
 20
15.91392684871218
 30
0.0
 10
83.19999999999999
 20
16.30754726568682
 30
0.0
  0
SPLINE
  5
A7
330
1F
100
AcDbEntity
  8
0
  6
Continuous
 62
     1
370
    15
100
AcDbSpline
210
0.0
220
0.0
230
1.0
 70
     8
 71
     3
 72
    10
 73
     6
 74
     0
 42
0.000000001
 43
0.00000001
 40
0.0
 40
0.0
 40
0.0
 40
0.0
 40
0.5
 40
0.5
 40
1.0
 40
1.0
 40
1.0
 40
1.0
 10
83.19999999999999
 20
13.021414092161
 30
0.0
 10
84.09431931368735
 20
12.47382110359058
 30
0.0
 10
84.96006898428246
 20
11.86618992322123
 30
0.0
 10
86.62914897846302
 20
10.51975529982535
 30
0.0
 10
87.43253921924455
 20
9.781077770871114
 30
0.0
 10
88.2
 20
8.966895630070423
 30
0.0
  0
SPLINE
  5
A8
330
1F
100
AcDbEntity
  8
0
  6
Continuous
 62
     1
370
    15
100
AcDbSpline
210
0.0
220
0.0
230
1.0
 70
     8
 71
     3
 72
     9
 73
     5
 74
     0
 42
0.000000001
 43
0.00000001
 40
0.0
 40
0.0
 40
0.0
 40
0.0
 40
0.5247575102545332
 40
0.9999999999999999
 40
0.9999999999999999
 40
0.9999999999999999
 40
0.9999999999999999
 10
88.2
 20
17.77819595521766
 30
0.0
 10
86.54861497332949
 20
17.76023975726555
 30
0.0
 10
83.40166615525635
 20
17.7260216706232
 30
0.0
 10
80.25481032600779
 20
17.47859222105922
 30
0.0
 10
78.75929072684568
 20
17.36100323341208
 30
0.0
  0
SPLINE
  5
A9
330
1F
100
AcDbEntity
  8
0
  6
Continuous
 62
     1
370
    15
100
AcDbSpline
210
0.0
220
0.0
230
1.0
 70
     8
 71
     3
 72
     8
 73
     4
 74
     0
 42
0.000000001
 43
0.00000001
 40
0.0
 40
0.0
 40
0.0
 40
0.0
 40
1.0
 40
1.0
 40
1.0
 40
1.0
 10
88.2
 20
17.77819595521767
 30
0.0
 10
86.52698159360297
 20
17.32477955644231
 30
0.0
 10
84.86025984458774
 20
16.83488245509068
 30
0.0
 10
83.2
 20
16.30754726568682
 30
0.0
  0
SPLINE
  5
AA
330
1F
100
AcDbEntity
  8
0
  6
Continuous
 62
     1
370
    15
100
AcDbSpline
210
0.0
220
0.0
230
1.0
 70
    24
 71
     3
 72
    10
 73
     6
 74
     0
 42
0.000000001
 43
0.00000001
 40
0.0
 40
0.0
 40
0.0
 40
0.0
 40
0.5
 40
0.5
 40
1.0
 40
1.0
 40
1.0
 40
1.0
 10
88.2
 20
-0.0018040447823396
 30
0.0
 10
88.2
 20
1.583806071676768
 30
0.0
 10
88.20000000000002
 20
3.154693647068955
 30
0.0
 10
88.20000000000002
 20
6.175111277004397
 30
0.0
 10
88.20000000000002
 20
7.624075117656212
 30
0.0
 10
88.20000000000002
 20
8.966895630070425
 30
0.0
  0
SPLINE
  5
AB
330
1F
100
AcDbEntity
  8
0
  6
Continuous
 62
     1
370
    15
100
AcDbSpline
210
0.0
220
0.0
230
1.0
 70
     8
 71
     3
 72
    13
 73
     9
 74
     0
 42
0.000000001
 43
0.00000001
 40
0.0
 40
0.0
 40
0.0
 40
0.0
 40
0.0302910638531971
 40
0.2514257718722269
 40
0.4385890554105151
 40
0.6258017745190704
 40
0.8129018233780468
 40
1.0
 40
1.0
 40
1.0
 40
1.0
 10
34.3949362896111
 20
-19.09106446130386
 30
0.0
 10
34.16881300547249
 20
-19.13122337328027
 30
0.0
 10
32.29191553074652
 20
-19.46455552332138
 30
0.0
 10
29.01780681231518
 20
-19.83054557964622
 30
0.0
 10
24.572368924424
 20
-20.19864754680229
 30
0.0
 10
20.38059338941858
 20
-20.3408551752412
 30
0.0
 10
16.18994512720547
 20
-20.31656869588326
 30
0.0
 10
13.3966437171327
 20
-20.14427408216932
 30
0.0
 10
12.0
 20
-20.05812720633573
 30
0.0
  0
SPLINE
  5
AC
330
1F
100
AcDbEntity
  8
외형선
  6
Continuous
370
    15
100
AcDbSpline
210
0.0
220
0.0
230
1.0
 70
    24
 71
     3
 72
    14
 73
    10
 74
     0
 42
0.000000001
 43
0.00000001
 40
0.0
 40
0.0
 40
0.0
 40
0.0
 40
0.25
 40
0.25
 40
0.5
 40
0.5
 40
0.75
 40
0.75
 40
1.0
 40
1.0
 40
1.0
 40
1.0
 10
12.0
 20
2.853204604305648
 30
0.0
 10
12.0
 20
0.6063481685402655
 30
0.0
 10
12.0
 20
-1.697975699170823
 30
0.0
 10
12.0
 20
-6.205723902028311
 30
0.0
 10
12.0
 20
-8.40676064158857
 30
0.0
 10
12.0
 20
-12.47876486346919
 30
0.0
 10
12.0
 20
-14.34756261169689
 30
0.0
 10
12.0
 20
-17.58937290901231
 30
0.0
 10
12.0
 20
-18.96177594060908
 30
0.0
 10
12.0
 20
-20.05812720633574
 30
0.0
  0
LINE
  5
AD
330
1F
100
AcDbEntity
  8
0
  6
Continuous
 62
     1
370
    15
100
AcDbLine
 10
88.2
 20
9.002664495859113
 30
0.0
 11
88.2
 21
17.77819595521767
 31
0.0
  0
SPLINE
  5
AE
330
1F
100
AcDbEntity
  8
0
  6
Continuous
 62
     1
370
    15
100
AcDbSpline
210
0.0
220
0.0
230
1.0
 70
    24
 71
     3
 72
    14
 73
    10
 74
     0
 42
0.000000001
 43
0.00000001
 40
0.0
 40
0.0
 40
0.0
 40
0.0
 40
0.25
 40
0.25
 40
0.5
 40
0.5
 40
0.75
 40
0.75
 40
1.0
 40
1.0
 40
1.0
 40
1.0
 10
88.2
 20
17.77819595521766
 30
0.0
 10
88.2
 20
18.31708561667055
 30
0.0
 10
88.20000000000003
 20
18.89832585005867
 30
0.0
 10
88.2
 20
20.12253369092013
 30
0.0
 10
88.20000000000002
 20
20.76537925923767
 30
0.0
 10
88.2
 20
22.07922844882815
 30
0.0
 10
88.20000000000002
 20
22.75001104922988
 30
0.0
 10
88.20000000000003
 20
24.08086527016036
 30
0.0
 10
88.19999999999999
 20
24.74069474331284
 30
0.0
 10
88.20000000000002
 20
25.39819595521768
 30
0.0
  0
SPLINE
  5
AF
330
1F
100
AcDbEntity
  8
0
  6
Continuous
 62
     1
370
    15
100
AcDbSpline
210
0.0
220
0.0
230
1.0
 70
     8
 71
     3
 72
    17
 73
    13
 74
     0
 42
0.000000001
 43
0.00000001
 40
0.0
 40
0.0
 40
0.0
 40
0.0
 40
0.024346785246102
 40
0.1325393313796006
 40
0.23917359786029
 40
0.3459995079980409
 40
0.4536537022665161
 40
0.5615053088361567
 40
0.6704946817288308
 40
0.7796885461766563
 40
0.8897389674204963
 40
1.0
 40
1.0
 40
1.0
 40
1.0
 10
53.24810714847864
 20
17.02453203176725
 30
0.0
 10
53.53175356189077
 20
17.14928959694885
 30
0.0
 10
55.07587142393524
 20
17.82844637705654
 30
0.0
 10
57.86299213022746
 20
18.92993297372273
 30
0.0
 10
61.60973206557674
 20
20.31374792915447
 30
0.0
 10
65.35104027117968
 20
21.53765633780273
 30
0.0
 10
69.10685215990438
 20
22.61235706292647
 30
0.0
 10
72.88674575580954
 20
23.52784833617048
 30
0.0
 10
76.6855662237067
 20
24.27325958498312
 30
0.0
 10
80.50998091580813
 20
24.83737816258596
 30
0.0
 10
84.34831821391464
 20
25.22919452891015
 30
0.0
 10
86.91528808848328
 20
25.32751901922041
 30
0.0
 10
88.2
 20
25.39819595521766
 30
0.0
  0
LINE
  5
B1
330
1F
100
AcDbEntity
  8
참조1
100
AcDbLine
 10
16.44057883212694
 20
0.0010749287238892
 30
0.0
 11
16.44057883212694
 21
-39.99892507127611
 31
0.0
  0
LINE
  5
B2
330
1F
100
AcDbEntity
  8
참조1
100
AcDbLine
 10
16.44057883212694
 20
-39.99892507127611
 30
0.0
 11
-22.53075298218174
 21
-39.9989250712761
 31
0.0
  0
INSERT
  5
B4
330
1F
100
AcDbEntity
  8
0
  6
Continuous
 62
     7
100
AcDbBlockReference
 66
     1
  2
블럭10
 10
10.75972706787479
 20
-52.04897834642627
 30
0.0
  0
ATTRIB
  5
B5
330
B4
100
AcDbEntity
  8
FORMAT
 62
     2
100
AcDbText
 10
1.578431779133508
 20
-49.97361143359408
 30
0.0
 40
4.233333333333333
  1
E1070984 [ 2 FLUTE ]
 41
0.75
  7
SLDTEXTSTYLE0
 11
1.578431779133508
 21
-52.09027810026075
 31
0.0
100
AcDbAttribute
  2
AUTOATTR0
 70
     0
 74
     1
  0
SEQEND
  5
B6
330
B4
100
AcDbEntity
  8
0
  6
Continuous
 62
     7
  0
HATCH
  5
B7
330
1F
100
AcDbEntity
  8
중심선
100
AcDbHatch
 10
0.0
 20
0.0
 30
0.0
210
0.0
220
0.0
230
1.0
  2
SOLID
 70
     1
 71
     0
 91
        1
 92
        0
 93
        4
 72
     1
 10
16.47463637225562
 20
-35.80180404478233
 11
13.02836112841834
 21
-35.80180404478233
 72
     1
 10
13.02836112841834
 20
-35.80180404478233
 11
10.90013126921432
 21
-38.33812962535493
 72
     1
 10
10.90013126921432
 20
-38.33812962535493
 11
14.34643959816475
 21
-38.33809019605244
 72
     1
 10
14.34643959816475
 20
-38.33809019605244
 11
16.47463637225562
 21
-35.80180404478233
 97
        0
 75
     0
 76
     1
 98
        1
 10
8.259421167873057
 20
-0.0028789735062276
  0
HATCH
  5
B8
330
1F
100
AcDbEntity
  8
중심선
100
AcDbHatch
 10
0.0
 20
0.0
 30
0.0
210
0.0
220
0.0
230
1.0
  2
SOLID
 70
     1
 71
     0
 91
        1
 92
        0
 93
        4
 72
     1
 10
21.4874003632916
 20
-35.80180404478231
 11
18.04112511945431
 21
-35.80180404478231
 72
     1
 10
18.04112511945432
 20
-35.80180404478231
 11
13.5099871110969
 21
-41.20180404478235
 72
     1
 10
13.5099871110969
 20
-41.20180404478235
 11
16.95626235493418
 21
-41.20180404478235
 72
     1
 10
16.95626235493418
 20
-41.20180404478235
 11
21.4874003632916
 21
-35.80180404478231
 97
        0
 75
     0
 76
     1
 98
        1
 10
8.259421167873057
 20
-0.0028789735062276
  0
HATCH
  5
B9
330
1F
100
AcDbEntity
  8
중심선
100
AcDbHatch
 10
0.0
 20
0.0
 30
0.0
210
0.0
220
0.0
230
1.0
  2
SOLID
 70
     1
 71
     0
 91
        1
 92
        0
 93
        4
 72
     1
 10
26.50016435432747
 20
-35.80180404478233
 11
23.05388911049035
 21
-35.80180404478231
 72
     1
 10
23.05388911049035
 20
-35.80180404478231
 11
16.0054522086011
 21
-44.20180404478235
 72
     1
 10
16.0054522086011
 20
-44.20180404478235
 11
19.45172745243838
 21
-44.20180404478235
 72
     1
 10
19.45172745243838
 20
-44.20180404478235
 11
26.50016435432747
 21
-35.80180404478233
 97
        0
 75
     0
 76
     1
 98
        1
 10
8.259421167873057
 20
-0.0028789735062276
  0
HATCH
  5
BA
330
1F
100
AcDbEntity
  8
중심선
100
AcDbHatch
 10
0.0
 20
0.0
 30
0.0
210
0.0
220
0.0
230
1.0
  2
SOLID
 70
     1
 71
     0
 91
        1
 92
        0
 93
        6
 72
     3
 10
31.30005478533967
 20
-40.00180404483361
 11
3.960054785062283
 21
1.540882976769353E-10
 40
0.3939339440162628
 50
17.09539180608439
 51
320.0019657685075
 73
     0
 72
     1
 10
32.98305444104027
 20
-38.5896980494206
 11
35.28835631474131
 21
-36.65537133937271
 72
     3
 10
31.30005478528682
 20
-40.00180404478248
 11
6.600054785286826
 21
-1.278976924368180E-13
 40
0.6363583540795983
 50
39.99873849337411
 51
368.4976242363724
 73
     1
 72
     1
 10
37.72538727718743
 20
-39.04180404471236
 11
29.98012209212277
 21
-39.04180404471233
 72
     1
 10
29.98012209212277
 20
-39.04180404471233
 11
29.98009704767681
 21
-40.96180404471225
 72
     1
 10
29.98009704767681
 20
-40.96180404471225
 11
34.42147681714884
 21
-40.96180404471222
 97
        0
 75
     0
 76
     1
 98
        1
 10
8.259421167873057
 20
-0.0028789735062276
  0
DIMENSION
  5
C9
330
1F
100
AcDbEntity
  8
치수문자_일반주서
100
AcDbDimension
  2
_D_1
 10
11.99999999999999
 20
32.11714801179761
 30
0.0
 11
48.83008487208499
 21
32.11714801179761
 31
0.0
 70
   160
  1
<>
 71
     2
 42
76.20000000000003
  3
SLDDIMSTYLE2
100
AcDbAlignedDimension
 13
88.20000000000002
 23
25.39819595521768
 33
0.0
 14
11.99999999999999
 24
20.07306396114531
 34
0.0
100
AcDbRotatedDimension
1001
ACAD
1000
DSTYLE
1002
{
1070
   171
1070
     6
1070
   273
1070
     7
1002
}
  0
DIMENSION
  5
F3
330
1F
100
AcDbEntity
  8
치수문자_일반주서
100
AcDbDimension
  2
_D_3
 10
107.2000000000002
 20
25.39819595521775
 30
0.0
 11
107.2000000000001
 21
51.41119556452553
 31
0.0
 70
   160
  1
%%c<>
 71
     2
 42
50.8
 52
-270.0
  3
SLDDIMSTYLE2
100
AcDbAlignedDimension
 13
88.20000000000002
 23
-25.40180404478232
 33
0.0
 14
88.20000000000002
 24
25.39819595521768
 34
0.0
 50
90.0000000000002
100
AcDbRotatedDimension
1001
ACAD
1000
DSTYLE
1002
{
1070
   171
1070
     6
1070
   273
1070
     7
1002
}
  0
LINE
  5
107
330
1F
100
AcDbEntity
  8
참조1
100
AcDbLine
 10
75.44158764747253
 20
7.441074928723896
 30
0.0
 11
75.44158764747253
 21
-7.438925071276109
 31
0.0
  0
LINE
  5
108
330
1F
100
AcDbEntity
  8
참조1
100
AcDbLine
 10
88.14158764747253
 20
5.441074928723896
 30
0.0
 11
75.44158764747253
 21
5.441074928723896
 31
0.0
  0
SOLID
  5
109
330
1F
100
AcDbEntity
  8
참조1
100
AcDbTrace
 10
75.44158764747253
 20
5.441074928723896
 30
0.0
 11
81.79158764747253
 21
4.425074928723896
 31
0.0
 12
81.79158764747253
 22
6.457074928723896
 32
0.0
 13
81.79158764747253
 23
6.457074928723896
 33
0.0
  0
LINE
  5
10A
330
1F
100
AcDbEntity
  8
참조1
100
AcDbLine
 10
88.14158764747253
 20
-5.438925071276109
 30
0.0
 11
75.44158764747253
 21
-5.438925071276109
 31
0.0
  0
SOLID
  5
10B
330
1F
100
AcDbEntity
  8
참조1
100
AcDbTrace
 10
75.44158764747253
 20
-5.438925071276109
 30
0.0
 11
81.79158764747253
 21
-6.454925071276109
 31
0.0
 12
81.79158764747253
 22
-4.422925071276109
 32
0.0
 13
81.79158764747253
 23
-4.422925071276109
 33
0.0
  0
MTEXT
  5
10C
330
1F
100
AcDbEntity
  8
참조1
100
AcDbMText
 10
84.82593778009851
 20
11.01136670591222
 30
0.0
 40
3.5
 41
0.0
 71
     1
 72
     1
  1
A
  7
SLDTEXTSTYLE0
 73
     1
 44
1.0
  0
MTEXT
  5
10D
330
1F
100
AcDbEntity
  8
참조1
100
AcDbMText
 10
84.82593778009851
 20
0.1313667059122201
 30
0.0
 40
3.5
 41
0.0
 71
     1
 72
     1
  1
A
  7
SLDTEXTSTYLE0
 73
     1
 44
1.0
  0
LINE
  5
228
330
1F
100
AcDbEntity
  8
외형선
  6
Continuous
370
    15
100
AcDbLine
 10
-51.49999999999997
 20
-14.87680404478235
 30
0.0
 11
-50.49999999999997
 21
-15.87680404478235
 31
0.0
  0
LINE
  5
229
330
1F
100
AcDbEntity
  8
외형선
  6
Continuous
370
    15
100
AcDbLine
 10
-50.49999999999997
 20
13.48559595521765
 30
0.0
 11
-50.49999999999997
 21
-15.87680404478235
 31
0.0
  0
LINE
  5
22A
330
1F
100
AcDbEntity
  8
외형선
  6
Continuous
370
    15
100
AcDbLine
 10
-51.49999999999997
 20
13.48559595521765
 30
0.0
 11
-51.49999999999997
 21
-14.87680404478235
 31
0.0
  0
CIRCLE
  5
22B
330
1F
100
AcDbEntity
  8
해칭선
100
AcDbCircle
 10
0.0
 20
0.0
 30
0.0
 40
2.999999999999995
  0
DIMENSION
  5
22C
330
1F
100
AcDbEntity
  8
0
  6
Continuous
 62
     0
370
    15
100
AcDbDimension
  2
*D13
 10
-60.95008564276361
 20
-15.87680404478239
 30
0.0
 11
-60.95008564276367
 21
-0.0018040447823182
 31
0.0
 70
   160
  1
%%c<>
 71
     2
 42
31.75
 52
-270.0
  3
SLDDIMSTYLE1
100
AcDbAlignedDimension
 13
-50.5
 23
15.87319595521765
 33
0.0
 14
-50.49999999999997
 24
-15.87680404478235
 34
0.0
 50
90.0000000000002
100
AcDbRotatedDimension
1001
ACAD
1000
DSTYLE
1002
{
1070
   171
1070
     6
1070
   273
1070
     7
1002
}
  0
DIMENSION
  5
22D
330
1F
100
AcDbEntity
  8
0
  6
Continuous
 62
     0
370
    15
100
AcDbDimension
  2
*D14
 10
-51.49999999999997
 20
45.58816181965818
 30
0.0
 11
21.39991435723636
 21
45.58816181965818
 31
0.0
 70
   160
  1
<>
 71
     2
 42
139.7
  3
SLDDIMSTYLE1
100
AcDbAlignedDimension
 13
88.20000000000002
 23
25.39819595521768
 33
0.0
 14
-51.49999999999997
 24
14.87319595521765
 34
0.0
 50
0.0000000000000029
100
AcDbRotatedDimension
1001
ACAD
1000
DSTYLE
1002
{
1070
   171
1070
     6
1070
   273
1070
     7
1002
}
  0
INSERT
  5
22E
330
1F
100
AcDbEntity
  8
해칭선
100
AcDbBlockReference
  2
SW_DOWELSYMBOL_0
 10
0.0
 20
0.0
 30
0.0
  0
LINE
  5
22F
330
1F
100
AcDbEntity
  8
외형선
  6
Continuous
370
    15
100
AcDbLine
 10
12.0
 20
15.87319595521768
 30
0.0
 11
-13.58732499999994
 21
15.87319595521767
 31
0.0
  0
LINE
  5
230
330
1F
100
AcDbEntity
  8
외형선
  6
Continuous
370
    15
100
AcDbLine
 10
-50.49999999999997
 20
-15.87680404478235
 30
0.0
 11
12.0
 21
-15.87680404478235
 31
0.0
  0
LINE
  5
231
330
1F
100
AcDbEntity
  8
중심선
100
AcDbLine
 10
-58.49999999999997
 20
-0.0018040447823466
 30
0.0
 11
95.20000000000005
 21
-0.0018040447823182
 31
0.0
  0
LINE
  5
304
330
1F
100
AcDbEntity
  8
외형선
  6
Continuous
370
    15
100
AcDbLine
 10
-36.41240000000008
 20
15.87319595521765
 30
0.0
 11
-31.46892499999998
 21
15.87319595521765
 31
0.0
  0
LINE
  5
305
330
1F
100
AcDbEntity
  8
외형선
  6
Continuous
370
    15
100
AcDbLine
 10
-29.08132499999996
 20
13.48559595521765
 30
0.0
 11
-15.97492499999996
 21
13.48559595521765
 31
0.0
  0
LINE
  5
306
330
1F
100
AcDbEntity
  8
외형선
  6
Continuous
370
    15
100
AcDbLine
 10
-15.97492499999996
 20
13.48559595521765
 30
0.0
 11
-13.58732499999994
 21
15.87319595521767
 31
0.0
  0
LINE
  5
307
330
1F
100
AcDbEntity
  8
외형선
  6
Continuous
370
    15
100
AcDbLine
 10
-29.08132499999996
 20
13.48559595521765
 30
0.0
 11
-31.46892499999998
 21
15.87319595521767
 31
0.0
  0
LINE
  5
308
330
1F
100
AcDbEntity
  8
외형선
  6
Continuous
370
    15
100
AcDbLine
 10
-51.49999999999997
 20
13.48559595521765
 30
0.0
 11
-38.79999999999998
 21
13.48559595521765
 31
0.0
  0
LINE
  5
309
330
1F
100
AcDbEntity
  8
외형선
  6
Continuous
370
    15
100
AcDbLine
 10
-38.79999999999998
 20
13.48559595521765
 30
0.0
 11
-36.41240000000008
 21
15.87319595521764
 31
0.0
  0
LINE
  5
30A
330
1F
100
AcDbEntity
  8
외형선
  6
Continuous
370
    15
100
AcDbLine
 10
-31.46892499999997
 20
15.87319595521766
 30
0.0
 11
-36.41240000000006
 21
15.87319595521766
 31
0.0
  0
ENDSEC
  0
SECTION
  2
OBJECTS
  0
DICTIONARY
  5
C
330
0
100
AcDbDictionary
281
     1
  3
ACAD_GROUP
350
D
  3
ACAD_IMAGE_VARS
350
138
  3
ACAD_LAYOUT
350
1A
  3
ACAD_MLINESTYLE
350
17
  3
ACAD_PLOTSETTINGS
350
19
  3
ACAD_PLOTSTYLENAME
350
E
  3
ACAD_SCALELIST
350
47
  3
APPDATA
350
136
  3
DWGPROPS
350
30C
  0
DICTIONARY
  5
1E2
330
2
100
AcDbDictionary
280
     1
281
     1
  3
ACAD_LAYERSTATES
360
1E3
  0
DICTIONARY
  5
D
102
{ACAD_REACTORS
330
C
102
}
330
C
100
AcDbDictionary
281
     1
  0
RASTERVARIABLES
  5
138
102
{ACAD_REACTORS
330
C
102
}
330
C
100
AcDbRasterVariables
 90
        0
 70
     1
 71
     1
 72
     1
  0
DICTIONARY
  5
1A
102
{ACAD_REACTORS
330
C
102
}
330
C
100
AcDbDictionary
281
     1
  3
Layout1
350
1E
  3
Layout2
350
26
  3
Model
350
22
  0
DICTIONARY
  5
17
102
{ACAD_REACTORS
330
C
102
}
330
C
100
AcDbDictionary
281
     1
  3
Standard
350
18
  0
DICTIONARY
  5
19
102
{ACAD_REACTORS
330
C
102
}
330
C
100
AcDbDictionary
281
     1
  0
ACDBDICTIONARYWDFLT
  5
E
102
{ACAD_REACTORS
330
C
102
}
330
C
100
AcDbDictionary
281
     1
  3
Normal
350
F
100
AcDbDictionaryWithDefault
340
F
  0
DICTIONARY
  5
47
102
{ACAD_REACTORS
330
C
102
}
330
C
100
AcDbDictionary
281
     1
  3
A0
350
48
  3
A1
350
49
  3
A2
350
4A
  3
A3
350
4B
  3
A4
350
4C
  3
A5
350
4D
  3
A6
350
4E
  3
A7
350
4F
  3
A8
350
50
  3
A9
350
51
  3
B0
350
52
  3
B1
350
53
  3
B2
350
54
  3
B3
350
55
  3
B4
350
56
  3
B5
350
57
  3
B6
350
58
  3
B7
350
59
  3
B8
350
5A
  3
B9
350
5B
  3
C0
350
5C
  3
C1
350
5D
  3
C2
350
5E
  3
C3
350
5F
  3
C4
350
60
  3
C5
350
61
  3
C6
350
62
  3
C7
350
63
  3
C8
350
64
  3
C9
350
65
  3
D0
350
66
  3
D1
350
67
  3
D2
350
68
  0
DICTIONARY
  5
136
102
{ACAD_REACTORS
330
C
102
}
330
C
100
AcDbDictionary
281
     1
  0
XRECORD
  5
30C
102
{ACAD_REACTORS
330
C
102
}
330
C
100
AcDbXrecord
280
     1
  1
DWGPROPS COOKIE
  2

  3

  4

  6

  7

  8
12016016
  9

300
=
301
=
302
=
303
=
304
=
305
=
306
=
307
=
308
=
309
=
 40
0.0
 41
2458311.198261783
 42
2458318.287372095
  1

 90
        0
  0
DICTIONARY
  5
1E3
102
{ACAD_REACTORS
330
1E2
102
}
330
1E2
100
AcDbDictionary
281
     1
  0
LAYOUT
  5
1E
102
{ACAD_REACTORS
330
1A
102
}
330
1A
100
AcDbPlotSettings
  1

  2
none_device
  4

  6

 40
0.0
 41
0.0
 42
0.0
 43
0.0
 44
0.0
 45
0.0
 46
0.0
 47
0.0
 48
0.0
 49
0.0
140
0.0
141
0.0
142
1.0
143
1.0
 70
   688
 72
     1
 73
     0
 74
     5
  7

 75
    16
147
1.0
148
0.0
149
0.0
100
AcDbLayout
  1
Layout1
 70
     1
 71
     1
 10
0.0
 20
0.0
 11
420.0
 21
297.0
 12
0.0
 22
0.0
 32
0.0
 14
1.000000000000000E+20
 24
1.000000000000000E+20
 34
1.000000000000000E+20
 15
-1.000000000000000E+20
 25
-1.000000000000000E+20
 35
-1.000000000000000E+20
146
0.0
 13
0.0
 23
0.0
 33
0.0
 16
1.0
 26
0.0
 36
0.0
 17
0.0
 27
1.0
 37
0.0
 76
     0
330
1B
  0
LAYOUT
  5
26
102
{ACAD_REACTORS
330
1A
102
}
330
1A
100
AcDbPlotSettings
  1

  2
none_device
  4

  6

 40
0.0
 41
0.0
 42
0.0
 43
0.0
 44
0.0
 45
0.0
 46
0.0
 47
0.0
 48
0.0
 49
0.0
140
0.0
141
0.0
142
1.0
143
1.0
 70
   688
 72
     1
 73
     0
 74
     5
  7

 75
    16
147
1.0
148
0.0
149
0.0
100
AcDbLayout
  1
Layout2
 70
     1
 71
     2
 10
0.0
 20
0.0
 11
0.0
 21
0.0
 12
0.0
 22
0.0
 32
0.0
 14
0.0
 24
0.0
 34
0.0
 15
0.0
 25
0.0
 35
0.0
146
0.0
 13
0.0
 23
0.0
 33
0.0
 16
1.0
 26
0.0
 36
0.0
 17
0.0
 27
1.0
 37
0.0
 76
     0
330
23
  0
LAYOUT
  5
22
102
{ACAD_REACTORS
330
1A
102
}
330
1A
100
AcDbPlotSettings
  1

  2
none_device
  4
ANSI_A_(11.00_x_8.50_Inches)
  6

 40
6.35
 41
19.05
 42
6.35000508
 43
19.05000254
 44
279.4
 45
215.9
 46
105.154018196337
 47
61.87943389557859
 48
0.0
 49
0.0
140
0.0
141
0.0
142
0.0619879117212539
143
1.0
 70
  1696
 72
     0
 73
     0
 74
     0
  7

 75
     0
147
0.0235690232323232
148
0.0
149
0.0
100
AcDbLayout
  1
Model
 70
     1
 71
     0
 10
0.0
 20
0.0
 11
420.0
 21
297.0
 12
0.0
 22
0.0
 32
0.0
 14
1.000000000000000E+20
 24
1.000000000000000E+20
 34
1.000000000000000E+20
 15
-1.000000000000000E+20
 25
-1.000000000000000E+20
 35
-1.000000000000000E+20
146
0.0
 13
0.0
 23
0.0
 33
0.0
 16
1.0
 26
0.0
 36
0.0
 17
0.0
 27
1.0
 37
0.0
 76
     0
330
1F
331
29
  0
MLINESTYLE
  5
18
102
{ACAD_REACTORS
330
17
102
}
330
17
100
AcDbMlineStyle
  2
Standard
 70
     0
  3

 62
   256
 51
90.0
 52
90.0
 71
     2
 49
0.5
 62
   256
  6
BYLAYER
 49
-0.5
 62
   256
  6
BYLAYER
  0
ACDBPLACEHOLDER
  5
F
102
{ACAD_REACTORS
330
E
102
}
330
E
  0
SCALE
  5
48
102
{ACAD_REACTORS
330
47
102
}
330
47
100
AcDbScale
 70
     0
300
1:1
140
1.0
141
1.0
290
     1
  0
SCALE
  5
49
102
{ACAD_REACTORS
330
47
102
}
330
47
100
AcDbScale
 70
     0
300
1:2
140
1.0
141
2.0
290
     0
  0
SCALE
  5
4A
102
{ACAD_REACTORS
330
47
102
}
330
47
100
AcDbScale
 70
     0
300
1:4
140
1.0
141
4.0
290
     0
  0
SCALE
  5
4B
102
{ACAD_REACTORS
330
47
102
}
330
47
100
AcDbScale
 70
     0
300
1:5
140
1.0
141
5.0
290
     0
  0
SCALE
  5
4C
102
{ACAD_REACTORS
330
47
102
}
330
47
100
AcDbScale
 70
     0
300
1:8
140
1.0
141
8.0
290
     0
  0
SCALE
  5
4D
102
{ACAD_REACTORS
330
47
102
}
330
47
100
AcDbScale
 70
     0
300
1:10
140
1.0
141
10.0
290
     0
  0
SCALE
  5
4E
102
{ACAD_REACTORS
330
47
102
}
330
47
100
AcDbScale
 70
     0
300
1:16
140
1.0
141
16.0
290
     0
  0
SCALE
  5
4F
102
{ACAD_REACTORS
330
47
102
}
330
47
100
AcDbScale
 70
     0
300
1:20
140
1.0
141
20.0
290
     0
  0
SCALE
  5
50
102
{ACAD_REACTORS
330
47
102
}
330
47
100
AcDbScale
 70
     0
300
1:30
140
1.0
141
30.0
290
     0
  0
SCALE
  5
51
102
{ACAD_REACTORS
330
47
102
}
330
47
100
AcDbScale
 70
     0
300
1:40
140
1.0
141
40.0
290
     0
  0
SCALE
  5
52
102
{ACAD_REACTORS
330
47
102
}
330
47
100
AcDbScale
 70
     0
300
1:50
140
1.0
141
50.0
290
     0
  0
SCALE
  5
53
102
{ACAD_REACTORS
330
47
102
}
330
47
100
AcDbScale
 70
     0
300
1:100
140
1.0
141
100.0
290
     0
  0
SCALE
  5
54
102
{ACAD_REACTORS
330
47
102
}
330
47
100
AcDbScale
 70
     0
300
2:1
140
2.0
141
1.0
290
     0
  0
SCALE
  5
55
102
{ACAD_REACTORS
330
47
102
}
330
47
100
AcDbScale
 70
     0
300
4:1
140
4.0
141
1.0
290
     0
  0
SCALE
  5
56
102
{ACAD_REACTORS
330
47
102
}
330
47
100
AcDbScale
 70
     0
300
8:1
140
8.0
141
1.0
290
     0
  0
SCALE
  5
57
102
{ACAD_REACTORS
330
47
102
}
330
47
100
AcDbScale
 70
     0
300
10:1
140
10.0
141
1.0
290
     0
  0
SCALE
  5
58
102
{ACAD_REACTORS
330
47
102
}
330
47
100
AcDbScale
 70
     0
300
100:1
140
100.0
141
1.0
290
     0
  0
SCALE
  5
59
102
{ACAD_REACTORS
330
47
102
}
330
47
100
AcDbScale
 70
     0
300
1/128" = 1'-0"
140
0.0078125
141
12.0
290
     0
  0
SCALE
  5
5A
102
{ACAD_REACTORS
330
47
102
}
330
47
100
AcDbScale
 70
     0
300
1/64" = 1'-0"
140
0.015625
141
12.0
290
     0
  0
SCALE
  5
5B
102
{ACAD_REACTORS
330
47
102
}
330
47
100
AcDbScale
 70
     0
300
1/32" = 1'-0"
140
0.03125
141
12.0
290
     0
  0
SCALE
  5
5C
102
{ACAD_REACTORS
330
47
102
}
330
47
100
AcDbScale
 70
     0
300
1/16" = 1'-0"
140
0.0625
141
12.0
290
     0
  0
SCALE
  5
5D
102
{ACAD_REACTORS
330
47
102
}
330
47
100
AcDbScale
 70
     0
300
3/32" = 1'-0"
140
0.09375
141
12.0
290
     0
  0
SCALE
  5
5E
102
{ACAD_REACTORS
330
47
102
}
330
47
100
AcDbScale
 70
     0
300
1/8" = 1'-0"
140
0.125
141
12.0
290
     0
  0
SCALE
  5
5F
102
{ACAD_REACTORS
330
47
102
}
330
47
100
AcDbScale
 70
     0
300
3/16" = 1'-0"
140
0.1875
141
12.0
290
     0
  0
SCALE
  5
60
102
{ACAD_REACTORS
330
47
102
}
330
47
100
AcDbScale
 70
     0
300
1/4" = 1'-0"
140
0.25
141
12.0
290
     0
  0
SCALE
  5
61
102
{ACAD_REACTORS
330
47
102
}
330
47
100
AcDbScale
 70
     0
300
3/8" = 1'-0"
140
0.375
141
12.0
290
     0
  0
SCALE
  5
62
102
{ACAD_REACTORS
330
47
102
}
330
47
100
AcDbScale
 70
     0
300
1/2" = 1'-0"
140
0.5
141
12.0
290
     0
  0
SCALE
  5
63
102
{ACAD_REACTORS
330
47
102
}
330
47
100
AcDbScale
 70
     0
300
3/4" = 1'-0"
140
0.75
141
12.0
290
     0
  0
SCALE
  5
64
102
{ACAD_REACTORS
330
47
102
}
330
47
100
AcDbScale
 70
     0
300
1" = 1'-0"
140
1.0
141
12.0
290
     0
  0
SCALE
  5
65
102
{ACAD_REACTORS
330
47
102
}
330
47
100
AcDbScale
 70
     0
300
1-1/2" = 1'-0"
140
1.5
141
12.0
290
     0
  0
SCALE
  5
66
102
{ACAD_REACTORS
330
47
102
}
330
47
100
AcDbScale
 70
     0
300
3" = 1'-0"
140
3.0
141
12.0
290
     0
  0
SCALE
  5
67
102
{ACAD_REACTORS
330
47
102
}
330
47
100
AcDbScale
 70
     0
300
6" = 1'-0"
140
6.0
141
12.0
290
     0
  0
SCALE
  5
68
102
{ACAD_REACTORS
330
47
102
}
330
47
100
AcDbScale
 70
     0
300
1'-0" = 1'-0"
140
12.0
141
12.0
290
     0
  0
ENDSEC
  0
EOF
