  0
SECTION
  2
HEADER
  9
$ACADVER
  1
AC1015
  9
$ACADMAINTVER
 70
     6
  9
$DWGCODEPAGE
  3
ANSI_949
  9
$INSBASE
 10
0.0
 20
0.0
 30
0.0
  9
$EXTMIN
 10
1.000000000000000E+20
 20
1.000000000000000E+20
 30
1.000000000000000E+20
  9
$EXTMAX
 10
-1.000000000000000E+20
 20
-1.000000000000000E+20
 30
-1.000000000000000E+20
  9
$LIMMIN
 10
0.0
 20
0.0
  9
$LIMMAX
 10
420.0
 20
297.0
  9
$ORTHOMODE
 70
     0
  9
$REGENMODE
 70
     1
  9
$FILLMODE
 70
     1
  9
$QTEXTMODE
 70
     0
  9
$MIRRTEXT
 70
     1
  9
$LTSCALE
 40
1.0
  9
$ATTMODE
 70
     1
  9
$TEXTSIZE
 40
3.5
  9
$TRACEWID
 40
1.0
  9
$TEXTSTYLE
  7
Standard
  9
$CLAYER
  8
0
  9
$CELTYPE
  6
ByLayer
  9
$CECOLOR
 62
   256
  9
$CELTSCALE
 40
1.0
  9
$DISPSILH
 70
     0
  9
$DIMSCALE
 40
1.0
  9
$DIMASZ
 40
3.302
  9
$DIMEXO
 40
1.0
  9
$DIMDLI
 40
3.75
  9
$DIMRND
 40
0.0
  9
$DIMDLE
 40
0.0
  9
$DIMEXE
 40
1.0
  9
$DIMTP
 40
0.0
  9
$DIMTM
 40
0.0
  9
$DIMTXT
 40
3.5
  9
$DIMCEN
 40
2.5
  9
$DIMTSZ
 40
0.0
  9
$DIMTOL
 70
     0
  9
$DIMLIM
 70
     0
  9
$DIMTIH
 70
     1
  9
$DIMTOH
 70
     1
  9
$DIMSE1
 70
     0
  9
$DIMSE2
 70
     0
  9
$DIMTAD
 70
     1
  9
$DIMZIN
 70
     0
  9
$DIMBLK
  1

  9
$DIMASO
 70
     1
  9
$DIMSHO
 70
     1
  9
$DIMPOST
  1

  9
$DIMAPOST
  1

  9
$DIMALT
 70
     0
  9
$DIMALTD
 70
     3
  9
$DIMALTF
 40
0.0393700787401575
  9
$DIMLFAC
 40
1.0
  9
$DIMTOFL
 70
     1
  9
$DIMTVP
 40
0.0
  9
$DIMTIX
 70
     0
  9
$DIMSOXD
 70
     0
  9
$DIMSAH
 70
     0
  9
$DIMBLK1
  1

  9
$DIMBLK2
  1

  9
$DIMSTYLE
  2
ISO-25
  9
$DIMCLRD
 70
     0
  9
$DIMCLRE
 70
     0
  9
$DIMCLRT
 70
     0
  9
$DIMTFAC
 40
1.0
  9
$DIMGAP
 40
1.524
  9
$DIMJUST
 70
     0
  9
$DIMSD1
 70
     0
  9
$DIMSD2
 70
     0
  9
$DIMTOLJ
 70
     0
  9
$DIMTZIN
 70
     0
  9
$DIMALTZ
 70
     0
  9
$DIMALTTZ
 70
     0
  9
$DIMUPT
 70
     0
  9
$DIMDEC
 70
     2
  9
$DIMTDEC
 70
     2
  9
$DIMALTU
 70
     2
  9
$DIMALTTD
 70
     3
  9
$DIMTXSTY
  7
Standard
  9
$DIMAUNIT
 70
     0
  9
$DIMADEC
 70
     2
  9
$DIMALTRND
 40
0.0
  9
$DIMAZIN
 70
     0
  9
$DIMDSEP
 70
    44
  9
$DIMATFIT
 70
     3
  9
$DIMFRAC
 70
     0
  9
$DIMLDRBLK
  1

  9
$DIMLUNIT
 70
     2
  9
$DIMLWD
 70
    -2
  9
$DIMLWE
 70
    -2
  9
$DIMTMOVE
 70
     0
  9
$LUNITS
 70
     2
  9
$LUPREC
 70
     2
  9
$SKETCHINC
 40
1.0
  9
$FILLETRAD
 40
10.0
  9
$AUNITS
 70
     0
  9
$AUPREC
 70
     2
  9
$MENU
  1
.
  9
$ELEVATION
 40
0.0
  9
$PELEVATION
 40
0.0
  9
$THICKNESS
 40
0.0
  9
$LIMCHECK
 70
     0
  9
$CHAMFERA
 40
0.0
  9
$CHAMFERB
 40
0.0
  9
$CHAMFERC
 40
0.0
  9
$CHAMFERD
 40
0.0
  9
$SKPOLY
 70
     0
  9
$TDCREATE
 40
2458311.465167535
  9
$TDUCREATE
 40
2458311.090167535
  9
$TDUPDATE
 40
2458318.670523588
  9
$TDUUPDATE
 40
2458318.295523588
  9
$TDINDWG
 40
0.0003222685
  9
$TDUSRTIMER
 40
2458318.295367477
  9
$USRTIMER
 70
     1
  9
$ANGBASE
 50
0.0
  9
$ANGDIR
 70
     0
  9
$PDMODE
 70
     0
  9
$PDSIZE
 40
-1.0
  9
$PLINEWID
 40
0.0
  9
$SPLFRAME
 70
     0
  9
$SPLINETYPE
 70
     6
  9
$SPLINESEGS
 70
     8
  9
$HANDSEED
  5
201
  9
$SURFTAB1
 70
     6
  9
$SURFTAB2
 70
     6
  9
$SURFTYPE
 70
     6
  9
$SURFU
 70
     6
  9
$SURFV
 70
     6
  9
$UCSBASE
  2

  9
$UCSNAME
  2

  9
$UCSORG
 10
0.0
 20
0.0
 30
0.0
  9
$UCSXDIR
 10
1.0
 20
0.0
 30
0.0
  9
$UCSYDIR
 10
0.0
 20
1.0
 30
0.0
  9
$UCSORTHOREF
  2

  9
$UCSORTHOVIEW
 70
     0
  9
$UCSORGTOP
 10
0.0
 20
0.0
 30
0.0
  9
$UCSORGBOTTOM
 10
0.0
 20
0.0
 30
0.0
  9
$UCSORGLEFT
 10
0.0
 20
0.0
 30
0.0
  9
$UCSORGRIGHT
 10
0.0
 20
0.0
 30
0.0
  9
$UCSORGFRONT
 10
0.0
 20
0.0
 30
0.0
  9
$UCSORGBACK
 10
0.0
 20
0.0
 30
0.0
  9
$PUCSBASE
  2

  9
$PUCSNAME
  2

  9
$PUCSORG
 10
0.0
 20
0.0
 30
0.0
  9
$PUCSXDIR
 10
1.0
 20
0.0
 30
0.0
  9
$PUCSYDIR
 10
0.0
 20
1.0
 30
0.0
  9
$PUCSORTHOREF
  2

  9
$PUCSORTHOVIEW
 70
     0
  9
$PUCSORGTOP
 10
0.0
 20
0.0
 30
0.0
  9
$PUCSORGBOTTOM
 10
0.0
 20
0.0
 30
0.0
  9
$PUCSORGLEFT
 10
0.0
 20
0.0
 30
0.0
  9
$PUCSORGRIGHT
 10
0.0
 20
0.0
 30
0.0
  9
$PUCSORGFRONT
 10
0.0
 20
0.0
 30
0.0
  9
$PUCSORGBACK
 10
0.0
 20
0.0
 30
0.0
  9
$USERI1
 70
     0
  9
$USERI2
 70
     0
  9
$USERI3
 70
     0
  9
$USERI4
 70
     0
  9
$USERI5
 70
     0
  9
$USERR1
 40
0.0
  9
$USERR2
 40
0.0
  9
$USERR3
 40
0.0
  9
$USERR4
 40
0.0
  9
$USERR5
 40
0.0
  9
$WORLDVIEW
 70
     1
  9
$SHADEDGE
 70
     3
  9
$SHADEDIF
 70
    70
  9
$TILEMODE
 70
     1
  9
$MAXACTVP
 70
    64
  9
$PINSBASE
 10
0.0
 20
0.0
 30
0.0
  9
$PLIMCHECK
 70
     0
  9
$PEXTMIN
 10
1.000000000000000E+20
 20
1.000000000000000E+20
 30
1.000000000000000E+20
  9
$PEXTMAX
 10
-1.000000000000000E+20
 20
-1.000000000000000E+20
 30
-1.000000000000000E+20
  9
$PLIMMIN
 10
0.0
 20
0.0
  9
$PLIMMAX
 10
0.0
 20
0.0
  9
$UNITMODE
 70
     0
  9
$VISRETAIN
 70
     1
  9
$PLINEGEN
 70
     0
  9
$PSLTSCALE
 70
     1
  9
$TREEDEPTH
 70
  3020
  9
$CMLSTYLE
  2
Standard
  9
$CMLJUST
 70
     0
  9
$CMLSCALE
 40
20.0
  9
$PROXYGRAPHICS
 70
     1
  9
$MEASUREMENT
 70
     1
  9
$CELWEIGHT
370
    -1
  9
$ENDCAPS
280
     0
  9
$JOINSTYLE
280
     0
  9
$LWDISPLAY
290
     1
  9
$INSUNITS
 70
     4
  9
$HYPERLINKBASE
  1

  9
$STYLESHEET
  1

  9
$XEDIT
290
     1
  9
$CEPSNTYPE
380
     0
  9
$PSTYLEMODE
290
     1
  9
$FINGERPRINTGUID
  2
{84CFF3A6-6C14-45E2-B784-964B092C0826}
  9
$VERSIONGUID
  2
{FAEB1C32-E019-11D5-929B-00C0DF256EC4}
  9
$EXTNAMES
290
     1
  9
$PSVPSCALE
 40
0.0
  9
$OLESTARTUP
290
     0
  0
ENDSEC
  0
SECTION
  2
CLASSES
  0
CLASS
  1
ACDBDICTIONARYWDFLT
  2
AcDbDictionaryWithDefault
  3
ObjectDBX Classes
 90
        0
280
     0
281
     0
  0
CLASS
  1
VISUALSTYLE
  2
AcDbVisualStyle
  3
ObjectDBX Classes
 90
     4095
280
     0
281
     0
  0
CLASS
  1
MATERIAL
  2
AcDbMaterial
  3
ObjectDBX Classes
 90
     1153
280
     0
281
     0
  0
CLASS
  1
SCALE
  2
AcDbScale
  3
ObjectDBX Classes
 90
     1153
280
     0
281
     0
  0
CLASS
  1
SUN
  2
AcDbSun
  3
SCENEOE
 90
     1153
280
     0
281
     0
  0
CLASS
  1
ACDBPLACEHOLDER
  2
AcDbPlaceHolder
  3
ObjectDBX Classes
 90
        0
280
     0
281
     0
  0
CLASS
  1
LAYOUT
  2
AcDbLayout
  3
ObjectDBX Classes
 90
        0
280
     0
281
     0
  0
CLASS
  1
TABLESTYLE
  2
AcDbTableStyle
  3
ObjectDBX Classes
 90
     4095
280
     0
281
     0
  0
CLASS
  1
MLEADERSTYLE
  2
AcDbMLeaderStyle
  3
ACDB_MLEADERSTYLE_CLASS
 90
     4095
280
     0
281
     0
  0
CLASS
  1
RASTERVARIABLES
  2
AcDbRasterVariables
  3
ISM
 90
        0
280
     0
281
     0
  0
ENDSEC
  0
SECTION
  2
TABLES
  0
TABLE
  2
VPORT
  5
8
330
0
100
AcDbSymbolTable
 70
     1
  0
VPORT
  5
29
330
8
100
AcDbSymbolTableRecord
100
AcDbViewportTableRecord
  2
*Active
 70
     0
 10
0.0
 20
0.0
 11
1.0
 21
1.0
 12
6.234660513202869
 22
5.345269101423874
 13
0.0
 23
0.0
 14
10.0
 24
10.0
 15
10.0
 25
10.0
 16
0.0
 26
0.0
 36
1.0
 17
0.0
 27
0.0
 37
0.0
 40
98.3481680486508
 41
1.740812379110251
 42
50.0
 43
0.0
 44
0.0
 50
0.0
 51
0.0
 71
    16
 72
  2000
 73
     1
 74
     3
 75
     0
 76
     0
 77
     0
 78
     0
281
     0
 65
     1
110
0.0
120
0.0
130
0.0
111
1.0
121
0.0
131
0.0
112
0.0
122
1.0
132
0.0
 79
     0
146
0.0
  0
ENDTAB
  0
TABLE
  2
LTYPE
  5
5
330
0
100
AcDbSymbolTable
 70
     6
  0
LTYPE
  5
14
330
5
100
AcDbSymbolTableRecord
100
AcDbLinetypeTableRecord
  2
ByBlock
 70
     0
  3

 72
    65
 73
     0
 40
0.0
  0
LTYPE
  5
15
330
5
100
AcDbSymbolTableRecord
100
AcDbLinetypeTableRecord
  2
ByLayer
 70
     0
  3

 72
    65
 73
     0
 40
0.0
  0
LTYPE
  5
16
330
5
100
AcDbSymbolTableRecord
100
AcDbLinetypeTableRecord
  2
Continuous
 70
     0
  3
Solid line
 72
    65
 73
     0
 40
0.0
  0
LTYPE
  5
6A
330
5
100
AcDbSymbolTableRecord
100
AcDbLinetypeTableRecord
  2
HIDDEN
 70
     0
  3
Hidden __ __ __ __ __ __ __ __ __ __ __ __ __ __
 72
    65
 73
     2
 40
1.905
 49
1.27
 74
     0
 49
-0.635
 74
     0
  0
LTYPE
  5
6B
330
5
100
AcDbSymbolTableRecord
100
AcDbLinetypeTableRecord
  2
PHANTOM
 70
     0
  3
Phantom ______  __  __  ______  __  __  ______
 72
    65
 73
     6
 40
12.7
 49
6.35
 74
     0
 49
-1.27
 74
     0
 49
1.27
 74
     0
 49
-1.27
 74
     0
 49
1.27
 74
     0
 49
-1.27
 74
     0
  0
LTYPE
  5
6C
330
5
100
AcDbSymbolTableRecord
100
AcDbLinetypeTableRecord
  2
CENTER
 70
     0
  3
Center ____ _ ____ _ ____ _ ____ _ ____ _ ____
 72
    65
 73
     4
 40
10.16
 49
6.35
 74
     0
 49
-1.27
 74
     0
 49
1.27
 74
     0
 49
-1.27
 74
     0
  0
LTYPE
  5
6D
330
5
100
AcDbSymbolTableRecord
100
AcDbLinetypeTableRecord
  2
CENTERX2
 70
     0
  3
Center (2x) ________  __  ________  __  _____
 72
    65
 73
     4
 40
20.32
 49
12.7
 74
     0
 49
-2.54
 74
     0
 49
2.54
 74
     0
 49
-2.54
 74
     0
  0
LTYPE
  5
6E
330
5
100
AcDbSymbolTableRecord
100
AcDbLinetypeTableRecord
  2
DOT2
 70
     0
  3
Dot (.5x) ........................................
 72
    65
 73
     2
 40
0.635
 49
0.0
 74
     0
 49
-0.635
 74
     0
  0
ENDTAB
  0
TABLE
  2
LAYER
  5
2
102
{ACAD_XDICTIONARY
360
194
102
}
330
0
100
AcDbSymbolTable
 70
    18
  0
LAYER
  5
10
330
2
100
AcDbSymbolTableRecord
100
AcDbLayerTableRecord
  2
0
 70
     0
 62
     7
  6
Continuous
370
    -3
390
F
  0
LAYER
  5
6F
330
2
100
AcDbSymbolTableRecord
100
AcDbLayerTableRecord
  2
FORMAT
 70
     0
 62
     2
  6
Continuous
370
    -3
390
F
  0
LAYER
  5
70
330
2
100
AcDbSymbolTableRecord
100
AcDbLayerTableRecord
  2
외형선
 70
     0
 62
     4
  6
Continuous
370
    30
390
F
  0
LAYER
  5
71
330
2
100
AcDbSymbolTableRecord
100
AcDbLayerTableRecord
  2
숨은선
 70
     0
 62
     2
  6
HIDDEN
370
    15
390
F
  0
LAYER
  5
72
330
2
100
AcDbSymbolTableRecord
100
AcDbLayerTableRecord
  2
중심선
 70
     0
 62
     1
  6
CENTERX2
370
    -3
390
F
  0
LAYER
  5
73
330
2
100
AcDbSymbolTableRecord
100
AcDbLayerTableRecord
  2
파단선
 70
     0
 62
     4
  6
Continuous
370
    -3
390
F
  0
LAYER
  5
74
330
2
100
AcDbSymbolTableRecord
100
AcDbLayerTableRecord
  2
해칭선
 70
     0
 62
   100
  6
Continuous
370
    -3
390
F
  0
LAYER
  5
75
330
2
100
AcDbSymbolTableRecord
100
AcDbLayerTableRecord
  2
가는실선
 70
     0
 62
     4
  6
Continuous
370
    -3
390
F
  0
LAYER
  5
76
330
2
100
AcDbSymbolTableRecord
100
AcDbLayerTableRecord
  2
치수_보조선
 70
     0
 62
     4
  6
Continuous
370
    -3
390
F
  0
LAYER
  5
77
330
2
100
AcDbSymbolTableRecord
100
AcDbLayerTableRecord
  2
치수문자_일반주서
 70
     0
 62
     7
  6
Continuous
370
    15
390
F
  0
LAYER
  5
78
330
2
100
AcDbSymbolTableRecord
100
AcDbLayerTableRecord
  2
개별주서
 70
     0
 62
   100
  6
Continuous
370
    30
390
F
  0
LAYER
  5
79
330
2
100
AcDbSymbolTableRecord
100
AcDbLayerTableRecord
  2
중간선
 70
     0
 62
     2
  6
Continuous
370
    15
390
F
  0
LAYER
  5
7A
330
2
100
AcDbSymbolTableRecord
100
AcDbLayerTableRecord
  2
윤곽선
 70
     0
 62
     3
  6
Continuous
370
    40
390
F
  0
LAYER
  5
7B
330
2
100
AcDbSymbolTableRecord
100
AcDbLayerTableRecord
  2
중심마크
 70
     0
 62
   100
  6
Continuous
370
    30
390
F
  0
LAYER
  5
7C
330
2
100
AcDbSymbolTableRecord
100
AcDbLayerTableRecord
  2
가상선
 70
     0
 62
     4
  6
PHANTOM
370
    -3
390
F
  0
LAYER
  5
7D
330
2
100
AcDbSymbolTableRecord
100
AcDbLayerTableRecord
  2
특수지정선
 70
     0
 62
     5
  6
CENTERX2
370
    60
390
F
  0
LAYER
  5
7E
330
2
100
AcDbSymbolTableRecord
100
AcDbLayerTableRecord
  2
참조1
 70
     0
 62
    -4
  6
Continuous
370
    -3
390
F
  0
LAYER
  5
19B
330
2
100
AcDbSymbolTableRecord
100
AcDbLayerTableRecord
  2
Defpoints
 70
     0
 62
     7
  6
Continuous
290
     0
370
    -3
390
F
  0
ENDTAB
  0
TABLE
  2
STYLE
  5
3
330
0
100
AcDbSymbolTable
 70
     2
  0
STYLE
  5
11
330
3
100
AcDbSymbolTableRecord
100
AcDbTextStyleTableRecord
  2
Standard
 70
     0
 40
0.0
 41
1.0
 50
0.0
 71
     0
 42
3.5
  3
txt
  4

  0
STYLE
  5
94
330
3
100
AcDbSymbolTableRecord
100
AcDbTextStyleTableRecord
  2
SLDTEXTSTYLE0
 70
     0
 40
0.0
 41
0.75
 50
0.0
 71
     0
 42
3.5
  3
TXT
  4

  0
ENDTAB
  0
TABLE
  2
VIEW
  5
6
330
0
100
AcDbSymbolTable
 70
     0
  0
ENDTAB
  0
TABLE
  2
UCS
  5
7
330
0
100
AcDbSymbolTable
 70
     0
  0
ENDTAB
  0
TABLE
  2
APPID
  5
9
330
0
100
AcDbSymbolTable
 70
     1
  0
APPID
  5
12
330
9
100
AcDbSymbolTableRecord
100
AcDbRegAppTableRecord
  2
ACAD
 70
     0
  0
ENDTAB
  0
TABLE
  2
DIMSTYLE
  5
A
330
0
100
AcDbSymbolTable
 70
     3
100
AcDbDimStyleTable
  0
DIMSTYLE
105
27
330
A
100
AcDbSymbolTableRecord
100
AcDbDimStyleTableRecord
  2
ISO-25
 70
     0
 41
2.5
 42
0.625
 43
3.75
 44
1.25
 73
     0
 74
     0
 77
     1
 78
     8
140
2.5
141
2.5
143
0.03937007874016
147
0.625
171
     3
172
     1
178
     0
271
     2
272
     2
274
     3
278
    44
283
     0
284
     8
340
11
  0
DIMSTYLE
105
EC
102
{ACAD_REACTORS
330
EB
330
128
330
100
330
115
102
}
330
A
100
AcDbSymbolTableRecord
100
AcDbDimStyleTableRecord
  2
SLDDIMSTYLE0
 70
     0
 41
3.302
 44
0.0
 45
0.000000001
 73
     0
 74
     0
 77
     1
 78
    12
 79
     3
140
3.5
143
0.0393700787401575
147
0.875
148
0.000000001
170
     1
172
     1
173
     1
178
     0
271
     2
272
     2
276
     2
284
    12
289
     0
340
94
  0
DIMSTYLE
105
101
330
A
100
AcDbSymbolTableRecord
100
AcDbDimStyleTableRecord
  2
SLDDIMSTYLE1
 70
     0
 41
3.302
 44
0.0
 45
0.000000001
 73
     0
 74
     0
 77
     1
 78
    12
 79
     3
140
3.5
143
0.0393700787401575
147
0.875
148
0.000000001
170
     1
173
     1
178
     0
271
     2
272
     2
276
     2
284
    12
340
94
  0
ENDTAB
  0
TABLE
  2
BLOCK_RECORD
  5
1
330
0
100
AcDbSymbolTable
 70
     8
  0
BLOCK_RECORD
  5
1F
330
1
100
AcDbSymbolTableRecord
100
AcDbBlockTableRecord
  2
*Model_Space
340
22
  0
BLOCK_RECORD
  5
1B
330
1
100
AcDbSymbolTableRecord
100
AcDbBlockTableRecord
  2
*Paper_Space
340
1E
  0
BLOCK_RECORD
  5
23
330
1
100
AcDbSymbolTableRecord
100
AcDbBlockTableRecord
  2
*Paper_Space0
340
26
  0
BLOCK_RECORD
  5
7F
330
1
100
AcDbSymbolTableRecord
100
AcDbBlockTableRecord
  2
블럭10
340
0
102
{BLKREFS
331
E4
102
}
  0
BLOCK_RECORD
  5
ED
330
1
100
AcDbSymbolTableRecord
100
AcDbBlockTableRecord
  2
_D
340
0
  0
BLOCK_RECORD
  5
102
330
1
100
AcDbSymbolTableRecord
100
AcDbBlockTableRecord
  2
_D_1
340
0
  0
BLOCK_RECORD
  5
116
330
1
100
AcDbSymbolTableRecord
100
AcDbBlockTableRecord
  2
_D_2
340
0
  0
BLOCK_RECORD
  5
129
330
1
100
AcDbSymbolTableRecord
100
AcDbBlockTableRecord
  2
_D_3
340
0
  0
BLOCK_RECORD
  5
143
330
1
100
AcDbSymbolTableRecord
100
AcDbBlockTableRecord
  2
SW_DOWELSYMBOL_0
340
0
102
{BLKREFS
331
149
102
}
  0
ENDTAB
  0
ENDSEC
  0
SECTION
  2
BLOCKS
  0
BLOCK
  5
20
330
1F
100
AcDbEntity
  8
0
100
AcDbBlockBegin
  2
*Model_Space
 70
     0
 10
0.0
 20
0.0
 30
0.0
  3
*Model_Space
  1
*Model_Space
  0
ENDBLK
  5
21
330
1F
100
AcDbEntity
  8
0
100
AcDbBlockEnd
  0
BLOCK
  5
1C
330
1B
100
AcDbEntity
 67
     1
  8
0
100
AcDbBlockBegin
  2
*Paper_Space
 70
     0
 10
0.0
 20
0.0
 30
0.0
  3
*Paper_Space
  1
*Paper_Space
  0
ENDBLK
  5
1D
330
1B
100
AcDbEntity
 67
     1
  8
0
100
AcDbBlockEnd
  0
BLOCK
  5
24
330
23
100
AcDbEntity
  8
0
100
AcDbBlockBegin
  2
*Paper_Space0
 70
     0
 10
0.0
 20
0.0
 30
0.0
  3
*Paper_Space0
  1
*Paper_Space0
  0
ENDBLK
  5
25
330
23
100
AcDbEntity
  8
0
100
AcDbBlockEnd
  0
BLOCK
  5
80
330
7F
100
AcDbEntity
  8
0
100
AcDbBlockBegin
  2
블럭10
 70
     2
 10
0.0
 20
0.0
 30
0.0
  3
블럭10
  1
블럭10
  0
ELLIPSE
  5
82
330
7F
100
AcDbEntity
  8
중심선
100
AcDbEllipse
 10
20.54032771741204
 20
12.0471743016438
 30
0.0
 11
6.600054785286829
 21
-1.261213355974178E-13
 31
0.0
210
0.0
220
0.0
230
1.0
 40
0.636358354079598
 41
0.9219305317359503
 42
6.513795318482858
  0
ELLIPSE
  5
83
330
7F
100
AcDbEntity
  8
중심선
100
AcDbEllipse
 10
20.54032771746488
 20
12.04717430159265
 30
0.0
 11
3.960054785062283
 21
1.540847449632565E-10
 31
0.0
210
0.0
220
0.0
230
1.0
 40
0.3939339440162632
 41
1.131841032648279
 42
5.62031148352944
  0
LINE
  5
84
330
7F
100
AcDbEntity
  8
중심선
100
AcDbLine
 10
2.268634060543552
 20
16.24717430164393
 30
0.0
 11
5.714909304380834
 21
16.24717430164393
 31
0.0
  0
LINE
  5
85
330
7F
100
AcDbEntity
  8
중심선
100
AcDbLine
 10
5.245725140726316
 20
7.84717430164391
 30
0.0
 11
8.692000384563599
 21
7.84717430164391
 31
0.0
  0
LINE
  5
86
330
7F
100
AcDbEntity
  8
중심선
100
AcDbLine
 10
15.74043728645272
 20
16.24717430164393
 30
0.0
 11
8.692000384563599
 21
7.84717430164391
 31
0.0
  0
LINE
  5
87
330
7F
100
AcDbEntity
  8
중심선
100
AcDbLine
 10
0.1404042013395286
 20
13.71084872107135
 30
0.0
 11
3.58671253028996
 21
13.71088815037384
 31
0.0
  0
LINE
  5
88
330
7F
100
AcDbEntity
  8
중심선
100
AcDbLine
 10
2.750260043222114
 20
10.84717430164391
 30
0.0
 11
6.196535287059397
 21
10.84717430164391
 31
0.0
  0
LINE
  5
89
330
7F
100
AcDbEntity
  8
중심선
100
AcDbLine
 10
12.29416204261559
 20
16.24717430164393
 30
0.0
 11
5.245725140726316
 21
7.84717430164391
 31
0.0
  0
LINE
  5
8A
330
7F
100
AcDbEntity
  8
중심선
100
AcDbLine
 10
10.72767329541681
 20
16.24717430164393
 30
0.0
 11
6.196535287059397
 21
10.84717430164391
 31
0.0
  0
LINE
  5
8B
330
7F
100
AcDbEntity
  8
중심선
100
AcDbLine
 10
7.28139805157953
 20
16.24717430164393
 30
0.0
 11
2.750260043222114
 21
10.84717430164391
 31
0.0
  0
LINE
  5
8C
330
7F
100
AcDbEntity
  8
중심선
100
AcDbLine
 10
5.714909304380834
 20
16.24717430164393
 30
0.0
 11
3.58671253028996
 21
13.71088815037384
 31
0.0
  0
LINE
  5
8D
330
7F
100
AcDbEntity
  8
중심선
100
AcDbLine
 10
2.268634060543552
 20
16.24717430164393
 30
0.0
 11
0.1404042013395286
 21
13.71084872107135
 31
0.0
  0
LINE
  5
8E
330
7F
100
AcDbEntity
  8
중심선
100
AcDbLine
 10
7.28139805157953
 20
16.24717430164393
 30
0.0
 11
10.72767329541681
 21
16.24717430164393
 31
0.0
  0
LINE
  5
8F
330
7F
100
AcDbEntity
  8
중심선
100
AcDbLine
 10
12.29416204261559
 20
16.24717430164393
 30
0.0
 11
15.74043728645272
 21
16.24717430164393
 31
0.0
  0
LINE
  5
90
330
7F
100
AcDbEntity
  8
중심선
100
AcDbLine
 10
19.22036997980202
 20
11.08717430171403
 30
0.0
 11
23.66174974927406
 21
11.08717430171406
 31
0.0
  0
LINE
  5
91
330
7F
100
AcDbEntity
  8
중심선
100
AcDbLine
 10
19.22039502424796
 20
13.00717430171391
 30
0.0
 11
19.22036997980202
 21
11.08717430171403
 31
0.0
  0
LINE
  5
92
330
7F
100
AcDbEntity
  8
중심선
100
AcDbLine
 10
19.22039502424796
 20
13.00717430171391
 30
0.0
 11
26.96566020931264
 21
13.00717430171391
 31
0.0
  0
LINE
  5
93
330
7F
100
AcDbEntity
  8
중심선
100
AcDbLine
 10
22.22332737316547
 20
13.45928029700563
 30
0.0
 11
24.52862924686651
 21
15.39360700705356
 31
0.0
  0
ATTDEF
  5
95
330
7F
100
AcDbEntity
  8
FORMAT
 62
     2
100
AcDbText
 10
4.408487351596664
 20
2.075366912832191
 30
0.0
 40
4.233333333333333
  1
E1071016
 41
0.75
  7
SLDTEXTSTYLE0
 11
4.408487351596664
 21
-0.0412997538344756
 31
0.0
100
AcDbAttributeDefinition
  3

  2
AUTOATTR0
 70
     0
 74
     1
  0
ENDBLK
  5
81
330
7F
100
AcDbEntity
  8
0
100
AcDbBlockEnd
  0
BLOCK
  5
EE
330
ED
100
AcDbEntity
  8
0
100
AcDbBlockBegin
  2
_D
 70
     0
 10
0.0
 20
0.0
 30
0.0
  3
_D
  1
_D
  0
LINE
  5
F0
330
ED
100
AcDbEntity
  8
치수문자_일반주서
 62
     0
370
    -2
100
AcDbLine
 10
-36.36536934298442
 20
4.763574928723897
 30
0.0
 11
-49.80286934298445
 21
4.763574928723846
 31
0.0
  0
LINE
  5
F1
330
ED
100
AcDbEntity
  8
치수문자_일반주서
 62
     0
370
    -2
100
AcDbLine
 10
-36.36536934298442
 20
-4.761425071276109
 30
0.0
 11
-49.80286934298442
 21
-4.761425071276159
 31
0.0
  0
LINE
  5
F2
330
ED
100
AcDbEntity
  8
치수문자_일반주서
 62
     0
370
    -2
100
AcDbLine
 10
-49.80286934298444
 20
1.461574928723847
 30
0.0
 11
-49.80286934298443
 21
-1.45942507127616
 31
0.0
  0
SOLID
  5
F3
330
ED
100
AcDbEntity
  8
치수문자_일반주서
 62
     0
100
AcDbTrace
 10
-49.2525360096511
 20
1.461574928723849
 30
0.0
 11
-50.35320267631777
 21
1.461574928723845
 31
0.0
 12
-49.80286934298445
 22
4.763574928723846
 32
0.0
 13
-49.80286934298445
 23
4.763574928723846
 33
0.0
  0
SOLID
  5
F4
330
ED
100
AcDbEntity
  8
치수문자_일반주서
 62
     0
100
AcDbTrace
 10
-50.35320267631776
 20
-1.459425071276162
 30
0.0
 11
-49.2525360096511
 21
-1.459425071276158
 31
0.0
 12
-49.80286934298442
 22
-4.761425071276159
 32
0.0
 13
-49.80286934298442
 23
-4.761425071276159
 33
0.0
  0
MTEXT
  5
F5
330
ED
100
AcDbEntity
  8
치수문자_일반주서
 62
     0
100
AcDbMText
 10
-54.17786934298444
 20
0.001074928723883
 30
0.0
 40
3.5
 41
0.0
 71
     2
 72
     1
  1
\A1;%%c9.53 [3/8]
  7
SLDTEXTSTYLE0
 11
-3.729883127349605E-15
 21
1.0
 31
0.0
 73
     1
 44
1.0
  0
POINT
  5
F6
330
ED
100
AcDbEntity
  8
Defpoints
 62
     0
100
AcDbPoint
 10
-36.30286934298442
 20
4.763574928723897
 30
0.0
  0
POINT
  5
F7
330
ED
100
AcDbEntity
  8
Defpoints
 62
     0
100
AcDbPoint
 10
-36.30286934298442
 20
-4.761425071276109
 30
0.0
  0
POINT
  5
F8
330
ED
100
AcDbEntity
  8
Defpoints
 62
     0
100
AcDbPoint
 10
-49.80286934298442
 20
-4.761425071276159
 30
0.0
  0
ENDBLK
  5
EF
330
ED
100
AcDbEntity
  8
0
100
AcDbBlockEnd
  0
BLOCK
  5
103
330
102
100
AcDbEntity
  8
0
100
AcDbBlockBegin
  2
_D_1
 70
     0
 10
0.0
 20
0.0
 30
0.0
  3
_D_1
  1
_D_1
  0
LINE
  5
105
330
102
100
AcDbEntity
  8
치수문자_일반주서
 62
     0
370
    -2
100
AcDbLine
 10
40.67463065701558
 20
3.238574928723898
 30
0.0
 11
40.67463065701558
 21
16.34973319790095
 31
0.0
  0
LINE
  5
106
330
102
100
AcDbEntity
  8
치수문자_일반주서
 62
     0
370
    -2
100
AcDbLine
 10
8.92463065701558
 20
3.182227193450717
 30
0.0
 11
8.92463065701558
 21
16.34973319790095
 31
0.0
  0
LINE
  5
107
330
102
100
AcDbEntity
  8
치수문자_일반주서
 62
     0
370
    -2
100
AcDbLine
 10
37.37263065701558
 20
16.34973319790095
 30
0.0
 11
12.22663065701558
 21
16.34973319790095
 31
0.0
  0
SOLID
  5
108
330
102
100
AcDbEntity
  8
치수문자_일반주서
 62
     0
100
AcDbTrace
 10
37.37263065701558
 20
15.79939986456762
 30
0.0
 11
37.37263065701558
 21
16.90006653123428
 31
0.0
 12
40.67463065701558
 22
16.34973319790095
 32
0.0
 13
40.67463065701558
 23
16.34973319790095
 33
0.0
  0
SOLID
  5
109
330
102
100
AcDbEntity
  8
치수문자_일반주서
 62
     0
100
AcDbTrace
 10
12.22663065701558
 20
16.90006653123428
 30
0.0
 11
12.22663065701558
 21
15.79939986456762
 31
0.0
 12
8.92463065701558
 22
16.34973319790095
 32
0.0
 13
8.92463065701558
 23
16.34973319790095
 33
0.0
  0
MTEXT
  5
10A
330
102
100
AcDbEntity
  8
치수문자_일반주서
 62
     0
100
AcDbMText
 10
24.79963065701558
 20
20.72473319790095
 30
0.0
 40
3.5
 41
0.0
 71
     2
 72
     1
  1
\A1;31.75 [1 1/4]
  7
SLDTEXTSTYLE0
 73
     1
 44
1.0
  0
POINT
  5
10B
330
102
100
AcDbEntity
  8
Defpoints
 62
     0
100
AcDbPoint
 10
40.67463065701558
 20
3.176074928723898
 30
0.0
  0
POINT
  5
10C
330
102
100
AcDbEntity
  8
Defpoints
 62
     0
100
AcDbPoint
 10
8.92463065701558
 20
3.119727193450717
 30
0.0
  0
POINT
  5
10D
330
102
100
AcDbEntity
  8
Defpoints
 62
     0
100
AcDbPoint
 10
8.92463065701558
 20
16.34973319790095
 30
0.0
  0
ENDBLK
  5
104
330
102
100
AcDbEntity
  8
0
100
AcDbBlockEnd
  0
BLOCK
  5
117
330
116
100
AcDbEntity
  8
0
100
AcDbBlockBegin
  2
_D_2
 70
     0
 10
0.0
 20
0.0
 30
0.0
  3
_D_2
  1
_D_2
  0
LINE
  5
119
330
116
100
AcDbEntity
  8
치수문자_일반주서
 62
     0
370
    -2
100
AcDbLine
 10
40.67463065701558
 20
3.238574928723898
 30
0.0
 11
40.67463065701559
 21
33.53949175391928
 31
0.0
  0
LINE
  5
11A
330
116
100
AcDbEntity
  8
치수문자_일반주서
 62
     0
370
    -2
100
AcDbLine
 10
-37.1128693429844
 20
4.01607492872389
 30
0.0
 11
-37.1128693429844
 21
33.53949175391928
 31
0.0
  0
LINE
  5
11B
330
116
100
AcDbEntity
  8
치수문자_일반주서
 62
     0
370
    -2
100
AcDbLine
 10
37.37263065701559
 20
33.53949175391928
 30
0.0
 11
-33.8108693429844
 21
33.53949175391928
 31
0.0
  0
SOLID
  5
11C
330
116
100
AcDbEntity
  8
치수문자_일반주서
 62
     0
100
AcDbTrace
 10
37.37263065701559
 20
32.98915842058594
 30
0.0
 11
37.37263065701559
 21
34.08982508725261
 31
0.0
 12
40.67463065701559
 22
33.53949175391928
 32
0.0
 13
40.67463065701559
 23
33.53949175391928
 33
0.0
  0
SOLID
  5
11D
330
116
100
AcDbEntity
  8
치수문자_일반주서
 62
     0
100
AcDbTrace
 10
-33.8108693429844
 20
34.08982508725261
 30
0.0
 11
-33.8108693429844
 21
32.98915842058594
 31
0.0
 12
-37.1128693429844
 22
33.53949175391928
 32
0.0
 13
-37.1128693429844
 23
33.53949175391928
 33
0.0
  0
MTEXT
  5
11E
330
116
100
AcDbEntity
  8
치수문자_일반주서
 62
     0
100
AcDbMText
 10
1.780880657015447
 20
37.91449175391928
 30
0.0
 40
3.5
 41
0.0
 71
     2
 72
     1
  1
\A1;77.79 [3 1/16]
  7
SLDTEXTSTYLE0
 73
     1
 44
1.0
  0
POINT
  5
11F
330
116
100
AcDbEntity
  8
Defpoints
 62
     0
100
AcDbPoint
 10
40.67463065701558
 20
3.176074928723898
 30
0.0
  0
POINT
  5
120
330
116
100
AcDbEntity
  8
Defpoints
 62
     0
100
AcDbPoint
 10
-37.1128693429844
 20
3.95357492872389
 30
0.0
  0
POINT
  5
121
330
116
100
AcDbEntity
  8
Defpoints
 62
     0
100
AcDbPoint
 10
-37.1128693429844
 20
33.53949175391928
 30
0.0
  0
ENDBLK
  5
118
330
116
100
AcDbEntity
  8
0
100
AcDbBlockEnd
  0
BLOCK
  5
12A
330
129
100
AcDbEntity
  8
0
100
AcDbBlockBegin
  2
_D_3
 70
     0
 10
0.0
 20
0.0
 30
0.0
  3
_D_3
  1
_D_3
  0
LINE
  5
12C
330
129
100
AcDbEntity
  8
치수문자_일반주서
 62
     0
370
    -2
100
AcDbLine
 10
40.7371306570156
 20
-3.173925071276102
 30
0.0
 11
55.13466867678068
 21
-3.173925071276045
 31
0.0
  0
LINE
  5
12D
330
129
100
AcDbEntity
  8
치수문자_일반주서
 62
     0
370
    -2
100
AcDbLine
 10
40.73713065701558
 20
3.176074928723898
 30
0.0
 11
55.13466867678066
 21
3.176074928723953
 31
0.0
  0
LINE
  5
12E
330
129
100
AcDbEntity
  8
치수문자_일반주서
 62
     0
370
    -2
100
AcDbLine
 10
55.13466867678066
 20
3.176074928723953
 30
0.0
 11
55.13466867678052
 21
45.87203131252016
 31
0.0
  0
LINE
  5
12F
330
129
100
AcDbEntity
  8
치수문자_일반주서
 62
     0
370
    -2
100
AcDbLine
 10
55.13466867678068
 20
-3.173925071276045
 30
0.0
 11
55.13466867678066
 21
3.176074928723953
 31
0.0
  0
LINE
  5
130
330
129
100
AcDbEntity
  8
치수문자_일반주서
 62
     0
370
    -2
100
AcDbLine
 10
55.1346686767807
 20
-6.475925071276045
 30
0.0
 11
55.13466867678071
 21
-9.777925071276044
 31
0.0
  0
LINE
  5
131
330
129
100
AcDbEntity
  8
치수문자_일반주서
 62
     0
370
    -2
100
AcDbLine
 10
55.13466867678065
 20
6.478074928723952
 30
0.0
 11
55.13466867678063
 21
9.780074928723952
 31
0.0
  0
SOLID
  5
132
330
129
100
AcDbEntity
  8
치수문자_일반주서
 62
     0
100
AcDbTrace
 10
55.68500201011403
 20
-6.475925071276043
 30
0.0
 11
54.58433534344736
 21
-6.475925071276047
 31
0.0
 12
55.13466867678068
 22
-3.173925071276045
 32
0.0
 13
55.13466867678068
 23
-3.173925071276045
 33
0.0
  0
SOLID
  5
133
330
129
100
AcDbEntity
  8
치수문자_일반주서
 62
     0
100
AcDbTrace
 10
54.58433534344731
 20
6.478074928723951
 30
0.0
 11
55.68500201011398
 21
6.478074928723954
 31
0.0
 12
55.13466867678066
 22
3.176074928723953
 32
0.0
 13
55.13466867678066
 23
3.176074928723953
 33
0.0
  0
MTEXT
  5
134
330
129
100
AcDbEntity
  8
치수문자_일반주서
 62
     0
100
AcDbMText
 10
50.75966867678056
 20
33.18453131252015
 30
0.0
 40
3.5
 41
0.0
 71
     2
 72
     1
  1
\A1;%%c6.35 [1/4]
  7
SLDTEXTSTYLE0
 11
-3.356894814614647E-15
 21
1.0
 31
0.0
 73
     1
 44
1.0
  0
POINT
  5
135
330
129
100
AcDbEntity
  8
Defpoints
 62
     0
100
AcDbPoint
 10
40.6746306570156
 20
-3.173925071276102
 30
0.0
  0
POINT
  5
136
330
129
100
AcDbEntity
  8
Defpoints
 62
     0
100
AcDbPoint
 10
40.67463065701558
 20
3.176074928723898
 30
0.0
  0
POINT
  5
137
330
129
100
AcDbEntity
  8
Defpoints
 62
     0
100
AcDbPoint
 10
55.13466867678066
 20
3.176074928723952
 30
0.0
  0
ENDBLK
  5
12B
330
129
100
AcDbEntity
  8
0
100
AcDbBlockEnd
  0
BLOCK
  5
144
330
143
100
AcDbEntity
  8
0
100
AcDbBlockBegin
  2
SW_DOWELSYMBOL_0
 70
     0
 10
0.0
 20
0.0
 30
0.0
  3
SW_DOWELSYMBOL_0
  1
SW_DOWELSYMBOL_0
  0
CIRCLE
  5
146
330
143
100
AcDbEntity
  8
해칭선
 62
     0
100
AcDbCircle
 10
0.0
 20
0.0
 30
0.0
 40
2.999999999999996
  0
HATCH
  5
147
330
143
100
AcDbEntity
  8
0
  6
Continuous
 62
     0
370
     0
100
AcDbHatch
 10
0.0
 20
0.0
 30
0.0
210
0.0
220
0.0
230
1.0
  2
SOLID
 70
     1
 71
     0
 91
        1
 92
        0
 93
        3
 72
     2
 10
0.0
 20
0.0
 40
2.999999999999996
 50
0.0
 51
90.0
 73
     1
 72
     1
 10
0.0
 20
2.999999999999996
 11
0.0
 21
0.0
 72
     1
 10
0.0
 20
0.0
 11
2.999999999999996
 21
0.0
 97
        0
 75
     0
 76
     1
 98
        1
 10
0.0
 20
0.0
  0
HATCH
  5
148
330
143
100
AcDbEntity
  8
0
  6
Continuous
 62
     0
370
     0
100
AcDbHatch
 10
0.0
 20
0.0
 30
0.0
210
0.0
220
0.0
230
1.0
  2
SOLID
 70
     1
 71
     0
 91
        1
 92
        0
 93
        3
 72
     2
 10
0.0
 20
0.0
 40
2.999999999999996
 50
180.0
 51
270.0000000000007
 73
     1
 72
     1
 10
0.0
 20
-2.999999999999996
 11
0.0
 21
0.0
 72
     1
 10
0.0
 20
0.0
 11
-2.999999999999996
 21
0.0
 97
        0
 75
     0
 76
     1
 98
        1
 10
0.0
 20
0.0
  0
ENDBLK
  5
145
330
143
100
AcDbEntity
  8
0
100
AcDbBlockEnd
  0
ENDSEC
  0
SECTION
  2
ENTITIES
  0
LINE
  5
96
330
1F
100
AcDbEntity
  8
외형선
  6
Continuous
370
    15
100
AcDbLine
 10
2.000000000000004
 20
4.763574928723893
 30
0.0
 11
-12.43041934298429
 21
4.763574928723892
 31
0.0
  0
LINE
  5
97
330
1F
100
AcDbEntity
  8
외형선
  6
Continuous
370
    15
100
AcDbLine
 10
-36.30286934298441
 20
-4.761425071276107
 30
0.0
 11
2.000000000000004
 21
-4.761425071276104
 31
0.0
  0
LINE
  5
98
330
1F
100
AcDbEntity
  8
외형선
  6
Continuous
370
    15
100
AcDbLine
 10
2.000000000000004
 20
-4.761425071276106
 30
0.0
 11
7.876549107103963
 21
-3.186808483745762
 31
0.0
  0
LINE
  5
99
330
1F
100
AcDbEntity
  8
외형선
  6
Continuous
370
    15
100
AcDbLine
 10
7.877133085153887
 20
3.188801864746674
 30
0.0
 11
2.000000000000004
 21
4.763574928723894
 31
0.0
  0
LINE
  5
9A
330
1F
100
AcDbEntity
  8
외형선
  6
Continuous
370
    15
100
AcDbLine
 10
-36.30286934298441
 20
4.763574928723888
 30
0.0
 11
-37.1128693429844
 21
3.953574928723889
 31
0.0
  0
LINE
  5
9B
330
1F
100
AcDbEntity
  8
외형선
  6
Continuous
370
    15
100
AcDbLine
 10
-37.1128693429844
 20
-3.951425071276107
 30
0.0
 11
-36.30286934298441
 21
-4.761425071276105
 31
0.0
  0
SPLINE
  5
9C
330
1F
100
AcDbEntity
  8
0
  6
Continuous
 62
     1
370
    15
100
AcDbSpline
210
0.0
220
0.0
230
1.0
 70
     8
 71
     3
 72
     9
 73
     5
 74
     0
 42
0.000000001
 43
0.00000001
 40
0.0
 40
0.0
 40
0.0
 40
0.0
 40
0.4368756005824451
 40
1.0
 40
1.0
 40
1.0
 40
1.0
 10
15.17143597938961
 20
0.8148139300300884
 30
0.0
 10
15.04342677119644
 20
0.8757985441177983
 30
0.0
 10
14.75041611090208
 20
1.015391174162609
 30
0.0
 10
14.45737258608785
 20
1.168835974225905
 30
0.0
 10
14.29235262717363
 20
1.255244485105295
 30
0.0
  0
LINE
  5
9D
330
1F
100
AcDbEntity
  8
0
  6
Continuous
 62
     1
370
    15
100
AcDbLine
 10
31.60840564758362
 20
1.234776223721846
 30
0.0
 11
31.56891182191
 21
1.255180819650365
 31
0.0
  0
SPLINE
  5
9E
330
1F
100
AcDbEntity
  8
0
  6
Continuous
 62
     1
370
    15
100
AcDbSpline
210
0.0
220
0.0
230
1.0
 70
     8
 71
     3
 72
     9
 73
     5
 74
     0
 42
0.000000001
 43
0.00000001
 40
0.0
 40
0.0
 40
0.0
 40
0.0
 40
0.5325038842993816
 40
0.9999999999999999
 40
0.9999999999999999
 40
0.9999999999999999
 40
0.9999999999999999
 10
32.44802110806789
 20
0.8147456173175107
 30
0.0
 10
32.29901204003863
 20
0.885924083964243
 30
0.0
 10
32.0191848454909
 20
1.019591590897798
 30
0.0
 10
31.73926642287132
 20
1.166225459650026
 30
0.0
 10
31.60840564758362
 20
1.234776223721846
 30
0.0
  0
LINE
  5
9F
330
1F
100
AcDbEntity
  8
0
  6
Continuous
 62
     1
370
    15
100
AcDbLine
 10
30.71313394848028
 20
0.8838938053097487
 30
0.0
 11
30.65865069146891
 21
0.9138277099849905
 31
0.0
  0
LINE
  5
A0
330
1F
100
AcDbEntity
  8
0
  6
Continuous
 62
     1
370
    15
100
AcDbLine
 10
13.45542287968417
 20
0.8737406174368129
 30
0.0
 11
13.38211948135556
 21
0.9138789512089504
 31
0.0
  0
LINE
  5
A1
330
1F
100
AcDbEntity
  8
0
  6
Continuous
 62
     1
370
    15
100
AcDbLine
 10
25.16345932492333
 20
3.176074928723896
 30
0.0
 11
23.62474569812127
 21
3.176074928723896
 31
0.0
  0
LINE
  5
A2
330
1F
100
AcDbEntity
  8
0
  6
Continuous
 62
     1
370
    15
100
AcDbLine
 10
23.62474569812126
 20
-3.173925071276109
 30
0.0
 11
25.16345932492337
 21
-3.173925071276109
 31
0.0
  0
SPLINE
  5
A3
330
1F
100
AcDbEntity
  8
0
  6
Continuous
 62
     1
370
    15
100
AcDbSpline
210
0.0
220
0.0
230
1.0
 70
     8
 71
     3
 72
    18
 73
    14
 74
     0
 42
0.000000001
 43
0.00000001
 40
0.0
 40
0.0
 40
0.0
 40
0.0
 40
0.1268506286652203
 40
0.2102836941677561
 40
0.2635892935348956
 40
0.3186325612576824
 40
0.4968744972161794
 40
0.6067599119364595
 40
0.7107555151792841
 40
0.752694287757476
 40
0.8091934788556439
 40
0.8913439837674553
 40
1.0
 40
1.0
 40
1.0
 40
1.0
 10
9.373631423557981
 20
-2.638259320114351
 30
0.0
 10
9.574867488915647
 20
-2.619274237167053
 30
0.0
 10
9.908461919376641
 20
-2.587802155252698
 30
0.0
 10
10.32510665441324
 20
-2.556581301608439
 30
0.0
 10
10.62635838389023
 20
-2.536624062312172
 30
0.0
 10
11.0798741211117
 20
-2.51050305431607
 30
0.0
 10
11.6241089634258
 20
-2.488824298304142
 30
0.0
 10
12.24476901981173
 20
-2.478128766309133
 30
0.0
 10
12.648482372102
 20
-2.478055339705381
 30
0.0
 10
12.97008507250635
 20
-2.48170494896022
 30
0.0
 10
13.2564546916896
 20
-2.487263859973541
 30
0.0
 10
13.64806364316744
 20
-2.498831927201485
 30
0.0
 10
13.95084035130079
 20
-2.513534345964454
 30
0.0
 10
14.12325851980187
 20
-2.521906734089271
 30
0.0
  0
SPLINE
  5
A4
330
1F
100
AcDbEntity
  8
0
  6
Continuous
 62
     1
370
    15
100
AcDbSpline
210
0.0
220
0.0
230
1.0
 70
     8
 71
     3
 72
    10
 73
     6
 74
     0
 42
0.000000001
 43
0.00000001
 40
0.0
 40
0.0
 40
0.0
 40
0.0
 40
0.3765142019002986
 40
0.9034743268487091
 40
1.0
 40
1.0
 40
1.0
 40
1.0
 10
31.39975257552584
 20
2.524059525053595
 30
0.0
 10
31.06858888323683
 20
2.509899602393867
 30
0.0
 10
30.27393653690446
 20
2.475921796168602
 30
0.0
 10
29.39496655293793
 20
2.473364562286078
 30
0.0
 10
28.84672646750801
 20
2.497174777650093
 30
0.0
 10
28.76185004617503
 20
2.50086098361163
 30
0.0
  0
SPLINE
  5
A5
330
1F
100
AcDbEntity
  8
0
  6
Continuous
 62
     1
370
    15
100
AcDbSpline
210
0.0
220
0.0
230
1.0
 70
     8
 71
     3
 72
    12
 73
     8
 74
     0
 42
0.000000001
 43
0.00000001
 40
0.0
 40
0.0
 40
0.0
 40
0.0
 40
0.2089047335310152
 40
0.501034445148408
 40
0.6985163065966827
 40
0.7920678330760766
 40
1.0
 40
1.0
 40
1.0
 40
1.0
 10
26.62313415012463
 20
-2.640984249185761
 30
0.0
 10
26.9558868315522
 20
-2.61048946116015
 30
0.0
 10
27.75395661337433
 20
-2.53735115098365
 30
0.0
 10
28.86572413589741
 20
-2.485055411234338
 30
0.0
 10
29.79425298492144
 20
-2.47582996087796
 30
0.0
 10
30.58834942013977
 20
-2.485704608814562
 30
0.0
 10
31.06855594525219
 20
-2.507131571919435
 30
0.0
 10
31.39975257552584
 20
-2.521909667605807
 30
0.0
  0
SPLINE
  5
A6
330
1F
100
AcDbEntity
  8
0
  6
Continuous
 62
     1
370
    15
100
AcDbSpline
210
0.0
220
0.0
230
1.0
 70
     8
 71
     3
 72
    13
 73
     9
 74
     0
 42
0.000000001
 43
0.00000001
 40
0.0
 40
0.0
 40
0.0
 40
0.0
 40
0.2453006572856264
 40
0.4124789049108881
 40
0.5168346699879377
 40
0.6132161502043272
 40
0.9231693310055615
 40
1.0
 40
1.0
 40
1.0
 40
1.0
 10
14.12325851980187
 20
2.524056591537059
 30
0.0
 10
13.91113454488224
 20
2.513967410585748
 30
0.0
 10
13.55444302253415
 20
2.497002212219407
 30
0.0
 10
13.10860510092653
 20
2.485991623130642
 30
0.0
 10
12.78995998294589
 20
2.481504989789557
 30
0.0
 10
12.34923295283765
 20
2.479501246393794
 30
0.0
 10
11.93356595516584
 20
2.482874533748304
 30
0.0
 10
11.59951591233198
 20
2.495092338509239
 30
0.0
 10
11.53316027653668
 20
2.49751928088008
 30
0.0
  0
SPLINE
  5
A7
330
1F
100
AcDbEntity
  8
0
  6
Continuous
 62
     1
370
    15
100
AcDbSpline
210
0.0
220
0.0
230
1.0
 70
     8
 71
     3
 72
    14
 73
    10
 74
     0
 42
0.000000001
 43
0.00000001
 40
0.0
 40
0.0
 40
0.0
 40
0.0
 40
0.1983752678241794
 40
0.3331126136112396
 40
0.4506312384638754
 40
0.5915098194516477
 40
0.7430494572739147
 40
0.8953309646334433
 40
0.9999999999999999
 40
0.9999999999999999
 40
0.9999999999999999
 40
0.9999999999999999
 10
33.94764453139968
 20
-2.3869656417799
 30
0.0
 10
34.1024462635993
 20
-2.363368013027761
 30
0.0
 10
34.36239000643656
 20
-2.323742772064661
 30
0.0
 10
34.72017286759498
 20
-2.27627435379183
 30
0.0
 10
35.03473041499915
 20
-2.237825883608946
 30
0.0
 10
35.3589336987314
 20
-2.202569502994245
 30
0.0
 10
35.71044813080751
 20
-2.169793749498708
 30
0.0
 10
36.03344795128115
 20
-2.144060556468095
 30
0.0
 10
36.23638847152407
 20
-2.131862453687669
 30
0.0
 10
36.31905647551136
 20
-2.126893545516534
 30
0.0
  0
SPLINE
  5
A8
330
1F
100
AcDbEntity
  8
0
  6
Continuous
 62
     1
370
    15
100
AcDbSpline
210
0.0
220
0.0
230
1.0
 70
     8
 71
     3
 72
    22
 73
    18
 74
     0
 42
0.000000001
 43
0.00000001
 40
0.0
 40
0.0
 40
0.0
 40
0.0
 40
0.0863182302329752
 40
0.1467679860648821
 40
0.1874406117964212
 40
0.2292969512003525
 40
0.2739028843649294
 40
0.3730831667856591
 40
0.4811467138933992
 40
0.5930412793419109
 40
0.6896555798767836
 40
0.7396576476246843
 40
0.7877615341611998
 40
0.8202783290489425
 40
0.8663313006590824
 40
0.9262870522587823
 40
1.0
 40
1.0
 40
1.0
 40
1.0
 10
22.21752362145771
 20
2.172616132728744
 30
0.0
 10
22.05811960760904
 20
2.159790695222677
 30
0.0
 10
21.78708293296818
 20
2.137983440508511
 30
0.0
 10
21.4410764336533
 20
2.118547699759373
 30
0.0
 10
21.17565060684774
 20
2.106714885777282
 30
0.0
 10
20.94015726214187
 20
2.098740226354603
 30
0.0
 10
20.59685371524217
 20
2.090843378548897
 30
0.0
 10
20.13161765427164
 20
2.088790334365481
 30
0.0
 10
19.54126086944515
 20
2.101824353510747
 30
0.0
 10
18.95643097632592
 20
2.131337314437876
 30
0.0
 10
18.47822858029205
 20
2.167771802246372
 30
0.0
 10
18.11811493022846
 20
2.201518191247879
 30
0.0
 10
17.8794127591525
 20
2.226655793875789
 30
0.0
 10
17.64650690893803
 20
2.253434182658063
 30
0.0
 10
17.39037716356161
 20
2.285328366545761
 30
0.0
 10
17.05698277796048
 20
2.330191727112742
 30
0.0
 10
16.80827565772977
 20
2.368179587014176
 30
0.0
 10
16.67112361655013
 20
2.389128374168701
 30
0.0
  0
SPLINE
  5
A9
330
1F
100
AcDbEntity
  8
0
  6
Continuous
 62
     1
370
    15
100
AcDbSpline
210
0.0
220
0.0
230
1.0
 70
     8
 71
     3
 72
    17
 73
    13
 74
     0
 42
0.000000001
 43
0.00000001
 40
0.0
 40
0.0
 40
0.0
 40
0.0
 40
0.1710403780625541
 40
0.3101591453195486
 40
0.4434602143295883
 40
0.5264750548231395
 40
0.5995404771340483
 40
0.6747450600746988
 40
0.7511122618555139
 40
0.8253907370163907
 40
0.9982232248239736
 40
1.0
 40
1.0
 40
1.0
 40
1.0
 10
16.67112361655013
 20
-2.386978516720913
 30
0.0
 10
16.80828324270757
 20
-2.366029367953612
 30
0.0
 10
17.05700411729418
 20
-2.32804085231515
 30
0.0
 10
17.41145058476119
 20
-2.28033702208604
 30
0.0
 10
17.69484350522338
 20
-2.245375100682814
 30
0.0
 10
17.92310988427873
 20
-2.219873075921492
 30
0.0
 10
18.10589115240809
 20
-2.200883899571195
 30
0.0
 10
18.28440244378032
 20
-2.183717820278827
 30
0.0
 10
18.46453219840124
 20
-2.16772173513572
 30
0.0
 10
18.72235394347391
 20
-2.147281266896828
 30
0.0
 10
18.92066068753206
 20
-2.131974221717387
 30
0.0
 10
19.05974455061358
 20
-2.125411144307813
 30
0.0
 10
19.0611598292253
 20
-2.125344360261993
 30
0.0
  0
SPLINE
  5
AA
330
1F
100
AcDbEntity
  8
0
  6
Continuous
 62
     1
370
    15
100
AcDbSpline
210
0.0
220
0.0
230
1.0
 70
     8
 71
     3
 72
    21
 73
    17
 74
     0
 42
0.000000001
 43
0.00000001
 40
0.0
 40
0.0
 40
0.0
 40
0.0
 40
0.0822844804104033
 40
0.1399616900701006
 40
0.1832940320115388
 40
0.2327531981123882
 40
0.2876052726418544
 40
0.3997598041004493
 40
0.504389340629551
 40
0.6212658289012869
 40
0.7294373284280686
 40
0.7588293035526454
 40
0.7917733747936729
 40
0.8424583868071005
 40
0.9118624085240752
 40
1.0
 40
1.0
 40
1.0
 40
1.0
 10
39.51139045302773
 20
2.174105608626707
 30
0.0
 10
39.35966714543022
 20
2.161721555562857
 30
0.0
 10
39.10159356401536
 20
2.140656915085221
 30
0.0
 10
38.76137587759689
 20
2.120788621725913
 30
0.0
 10
38.47864928907489
 20
2.10766003149408
 30
0.0
 10
38.20397003263903
 20
2.098179422799276
 30
0.0
 10
37.80262637684397
 20
2.089630340410463
 30
0.0
 10
37.30171674019753
 20
2.089758399528552
 30
0.0
 10
36.67210261181307
 20
2.107336910207247
 30
0.0
 10
36.06936518907636
 20
2.141983865106326
 30
0.0
 10
35.59864331771816
 20
2.181452779205862
 30
0.0
 10
35.28250031488822
 20
2.21325316275318
 30
0.0
 10
35.07322675019656
 20
2.235852788612293
 30
0.0
 10
34.79014421179001
 20
2.269460442607234
 30
0.0
 10
34.4042193267995
 20
2.319787624666937
 30
0.0
 10
34.1114410678196
 20
2.364244074337793
 30
0.0
 10
33.94764453139968
 20
2.389115499227688
 30
0.0
  0
LINE
  5
AB
330
1F
100
AcDbEntity
  8
외형선
  6
Continuous
370
    15
100
AcDbLine
 10
2.000000000000004
 20
4.763574928723894
 30
0.0
 11
2.000000000000004
 21
-4.761425071276104
 31
0.0
  0
LINE
  5
AC
330
1F
100
AcDbEntity
  8
외형선
  6
Continuous
370
    15
100
AcDbLine
 10
-36.30286934298441
 20
4.763574928723888
 30
0.0
 11
-36.30286934298441
 21
-4.761425071276107
 31
0.0
  0
SPLINE
  5
AD
330
1F
100
AcDbEntity
  8
외형선
  6
Continuous
370
    15
100
AcDbSpline
210
0.0
220
0.0
230
1.0
 70
     8
 71
     3
 72
     8
 73
     4
 74
     0
 42
0.000000001
 43
0.00000001
 40
0.0
 40
0.0
 40
0.0
 40
0.0
 40
1.0
 40
1.0
 40
1.0
 40
1.0
 10
7.924630657015585
 20
-3.173846283890458
 30
0.0
 10
7.750690579706091
 20
-3.221017988077292
 30
0.0
 10
7.577614930304564
 20
-3.264911027687807
 30
0.0
 10
7.404810954946924
 20
-3.305428848700689
 30
0.0
  0
LINE
  5
AE
330
1F
100
AcDbEntity
  8
외형선
  6
Continuous
370
    15
100
AcDbLine
 10
7.924630657015585
 20
3.175996141338246
 30
0.0
 11
7.877046591872191
 21
3.188479067424859
 31
0.0
  0
LINE
  5
AF
330
1F
100
AcDbEntity
  8
외형선
  6
Continuous
370
    15
100
AcDbLine
 10
7.924630657015585
 20
3.175996141338286
 30
0.0
 11
7.924630657015588
 21
3.046332421224
 31
0.0
  0
SPLINE
  5
B0
330
1F
100
AcDbEntity
  8
외형선
  6
Continuous
370
    15
100
AcDbSpline
210
0.0
220
0.0
230
1.0
 70
     8
 71
     3
 72
     8
 73
     4
 74
     0
 42
0.000000001
 43
0.00000001
 40
0.0
 40
0.0
 40
0.0
 40
0.0
 40
1.0
 40
1.0
 40
1.0
 40
1.0
 10
7.404718794851115
 20
3.244383941772223
 30
0.0
 10
7.578234659874219
 20
3.181271665384176
 30
0.0
 10
7.75133133943237
 20
3.115214747743949
 30
0.0
 10
7.924630657015443
 20
3.046332421219856
 30
0.0
  0
LINE
  5
B1
330
1F
100
AcDbEntity
  8
외형선
  6
Continuous
370
    15
100
AcDbLine
 10
7.404718794851115
 20
-3.305449191301036
 30
0.0
 11
7.404718794851115
 21
3.244397316910364
 31
0.0
  0
LINE
  5
B2
330
1F
100
AcDbEntity
  8
외형선
  6
Continuous
370
    15
100
AcDbLine
 10
-37.1128693429844
 20
3.95357492872389
 30
0.0
 11
-37.1128693429844
 21
-3.951425071276107
 31
0.0
  0
SPLINE
  5
B3
330
1F
100
AcDbEntity
  8
외형선
  6
Continuous
370
    15
100
AcDbSpline
210
0.0
220
0.0
230
1.0
 70
     8
 71
     3
 72
    14
 73
    10
 74
     0
 42
0.000000001
 43
0.00000001
 40
0.0
 40
0.0
 40
0.0
 40
0.0
 40
0.25
 40
0.25
 40
0.5
 40
0.5
 40
0.75
 40
0.75
 40
1.0
 40
1.0
 40
1.0
 40
1.0
 10
7.404718794851115
 20
2.637054643870607
 30
0.0
 10
7.404718794851115
 20
2.57623760115866
 30
0.0
 10
7.417362761230511
 20
2.516531067652784
 30
0.0
 10
7.456921413617997
 20
2.405168178997126
 30
0.0
 10
7.483942722755773
 20
2.353416534289713
 30
0.0
 10
7.549250863507795
 20
2.260578033276183
 30
0.0
 10
7.587502189539788
 20
2.219376250190116
 30
0.0
 10
7.676875705411157
 20
2.15374533368583
 30
0.0
 10
7.728247470961228
 20
2.129447571404093
 30
0.0
 10
7.784758271753648
 20
2.122634643702916
 30
0.0
  0
SPLINE
  5
B4
330
1F
100
AcDbEntity
  8
외형선
  6
Continuous
370
    15
100
AcDbSpline
210
0.0
220
0.0
230
1.0
 70
     8
 71
     3
 72
    28
 73
    24
 74
     0
 42
0.000000001
 43
0.00000001
 40
0.0
 40
0.0
 40
0.0
 40
0.0
 40
0.0000624729996277
 40
0.0001249451204522
 40
0.000197557165082
 40
0.000249554263761
 40
0.0004979539834184
 40
0.0009926292424835
 40
0.0019776994321322
 40
0.0039490695590541
 40
0.0078879006599066
 40
0.0157116682316258
 40
0.0313852688519788
 40
0.0626407712419354
 40
0.1251878691824323
 40
0.2501342520187727
 40
0.5001216929887864
 40
0.750124051447623
 40
0.8164393769447162
 40
0.8751565265983937
 40
0.9362838108569989
 40
0.977538665823089
 40
1.0
 40
1.0
 40
1.0
 40
1.0
 10
7.854898068296493
 20
-2.691810022897102
 30
0.0
 10
7.85488538155398
 20
-2.691809617072837
 30
0.0
 10
7.854860008247424
 20
-2.691808805430014
 30
0.0
 10
7.854819901659915
 20
-2.691807424044564
 30
0.0
 10
7.854781867539516
 20
-2.691806543360986
 30
0.0
 10
7.854705865397857
 20
-2.691806407909006
 30
0.0
 10
7.854543693219632
 20
-2.691807870025729
 30
0.0
 10
7.854190045739894
 20
-2.691825976145366
 30
0.0
 10
7.853482305501021
 20
-2.691909726695549
 30
0.0
 10
7.852074445062766
 20
-2.692225304954118
 30
0.0
 10
7.849327157198533
 20
-2.693219693790978
 30
0.0
 10
7.844047744194069
 20
-2.695914778113275
 30
0.0
 10
7.83400733979179
 20
-2.702430640443596
 30
0.0
 10
7.814869098501732
 20
-2.717126464003797
 30
0.0
 10
7.778254338551249
 20
-2.74891875922735
 30
0.0
 10
7.707858552624731
 20
-2.816221491236095
 30
0.0
 10
7.61125242515205
 20
-2.917049314372218
 30
0.0
 10
7.526911846554916
 20
-3.012075627626441
 30
0.0
 10
7.473611847541973
 20
-3.077436905402775
 30
0.0
 10
7.447708589901169
 20
-3.110526199893764
 30
0.0
 10
7.426872178495485
 20
-3.140090815574685
 30
0.0
 10
7.41035631332102
 20
-3.163590062375349
 30
0.0
 10
7.406256298730001
 20
-3.177311653567614
 30
0.0
 10
7.404810954946924
 20
-3.182148811115072
 30
0.0
  0
SPLINE
  5
B5
330
1F
100
AcDbEntity
  8
외형선
  6
Continuous
370
    15
100
AcDbSpline
210
0.0
220
0.0
230
1.0
 70
     8
 71
     3
 72
    14
 73
    10
 74
     0
 42
0.000000001
 43
0.00000001
 40
0.0
 40
0.0
 40
0.0
 40
0.0
 40
0.2499999999999999
 40
0.2499999999999999
 40
0.4999999999999998
 40
0.4999999999999998
 40
0.7499999999999999
 40
0.7499999999999999
 40
1.0
 40
1.0
 40
1.0
 40
1.0
 10
7.674308149294856
 20
-1.13436854549542
 30
0.0
 10
7.64523173301527
 20
-1.172819265408674
 30
0.0
 10
7.614754458772311
 20
-1.208465599821449
 30
0.0
 10
7.548432888911658
 20
-1.2684119912693
 30
0.0
 10
7.512997040200873
 20
-1.291759007639594
 30
0.0
 10
7.451108602678306
 20
-1.296059492471457
 30
0.0
 10
7.429935319657047
 20
-1.273796343619809
 30
0.0
 10
7.407870040335994
 20
-1.210295833764007
 30
0.0
 10
7.404718794851118
 20
-1.169554789672673
 30
0.0
 10
7.404718794851118
 20
-1.128257564299434
 30
0.0
  0
SPLINE
  5
B6
330
1F
100
AcDbEntity
  8
외형선
  6
Continuous
370
    15
100
AcDbSpline
210
0.0
220
0.0
230
1.0
 70
     8
 71
     3
 72
    16
 73
    12
 74
     0
 42
0.000000001
 43
0.00000001
 40
0.0
 40
0.0
 40
0.0
 40
0.0
 40
0.228366748283108
 40
0.4564610004036797
 40
0.6053385914358097
 40
0.7286515849671384
 40
0.8213478905594868
 40
0.8943101753666257
 40
0.9477480672388868
 40
0.9822024410061032
 40
1.0
 40
1.0
 40
1.0
 40
1.0
 10
7.674309440857408
 20
-1.134369634811298
 30
0.0
 10
7.692969767822514
 20
-1.109685889657308
 30
0.0
 10
7.730268155518574
 20
-1.060347852962352
 30
0.0
 10
7.779721454013651
 20
-0.9944546061035667
 30
0.0
 10
7.820856439264932
 20
-0.9400396576647972
 30
0.0
 10
7.851324371228581
 20
-0.9005599523398872
 30
0.0
 10
7.876125710294747
 20
-0.8699124571865261
 30
0.0
 10
7.895702772831208
 20
-0.8469547650328133
 30
0.0
 10
7.911288737533014
 20
-0.8319997479334107
 30
0.0
 10
7.922176790504461
 20
-0.8213193061205925
 30
0.0
 10
7.929381822501887
 20
-0.8205363254090442
 30
0.0
 10
7.931835932335747
 20
-0.8202696339266721
 30
0.0
  0
SPLINE
  5
B7
330
1F
100
AcDbEntity
  8
외형선
  6
Continuous
370
    15
100
AcDbSpline
210
0.0
220
0.0
230
1.0
 70
     8
 71
     3
 72
     8
 73
     4
 74
     0
 42
0.000000001
 43
0.00000001
 40
0.0
 40
0.0
 40
0.0
 40
0.0
 40
1.0
 40
1.0
 40
1.0
 40
1.0
 10
8.924630657015538
 20
1.94116716859724
 30
0.0
 10
8.547494878732863
 20
2.015820244933659
 30
0.0
 10
8.16346884654958
 20
2.076977393591855
 30
0.0
 10
7.784758271753652
 20
2.122634643702915
 30
0.0
  0
SPLINE
  5
B8
330
1F
100
AcDbEntity
  8
외형선
  6
Continuous
370
    15
100
AcDbSpline
210
0.0
220
0.0
230
1.0
 70
    24
 71
     3
 72
    14
 73
    10
 74
     0
 42
0.000000001
 43
0.00000001
 40
0.0
 40
0.0
 40
0.0
 40
0.0
 40
0.2500000000000001
 40
0.2500000000000001
 40
0.5000000000000001
 40
0.5000000000000001
 40
0.75
 40
0.75
 40
1.0
 40
1.0
 40
1.0
 40
1.0
 10
8.92463065701558
 20
1.941167168597232
 30
0.0
 10
8.924630657015584
 20
1.754834943453685
 30
0.0
 10
8.924630657015584
 20
1.536695221505691
 30
0.0
 10
8.92463065701558
 20
1.049224599188237
 30
0.0
 10
8.92463065701558
 20
0.7800311331053932
 30
0.0
 10
8.92463065701558
 20
0.2149940519258262
 30
0.0
 10
8.924630657015584
 20
-0.08054848779085
 30
0.0
 10
8.92463065701558
 20
-0.668417594209163
 30
0.0
 10
8.92463065701558
 20
-0.9604657115360159
 30
0.0
 10
8.92463065701558
 20
-1.238041728745832
 30
0.0
  0
SPLINE
  5
B9
330
1F
100
AcDbEntity
  8
외형선
  6
Continuous
370
    15
100
AcDbSpline
210
0.0
220
0.0
230
1.0
 70
     8
 71
     3
 72
     8
 73
     4
 74
     0
 42
0.000000001
 43
0.00000001
 40
0.0
 40
0.0
 40
0.0
 40
0.0
 40
1.0
 40
1.0
 40
1.0
 40
1.0
 10
8.924630657015577
 20
-1.238041728745831
 30
0.0
 10
8.596235331841132
 20
-1.105106215323113
 30
0.0
 10
8.262615738388927
 20
-0.9647358252169931
 30
0.0
 10
7.931830122894982
 20
-0.8202833116553583
 30
0.0
  0
SPLINE
  5
BA
330
1F
100
AcDbEntity
  8
외형선
  6
Continuous
370
    15
100
AcDbSpline
210
0.0
220
0.0
230
1.0
 70
    24
 71
     3
 72
    10
 73
     6
 74
     0
 42
0.000000001
 43
0.00000001
 40
0.0
 40
0.0
 40
0.0
 40
0.0
 40
0.5
 40
0.5
 40
1.0
 40
1.0
 40
1.0
 40
1.0
 10
8.92463065701558
 20
-1.238041728745832
 30
0.0
 10
8.92463065701558
 20
-1.635060110984807
 30
0.0
 10
8.92463065701558
 20
-1.988153927657547
 30
0.0
 10
8.92463065701558
 20
-2.490605961804286
 30
0.0
 10
8.92463065701558
 20
-2.637801429301027
 30
0.0
 10
8.92463065701558
 20
-2.675468927545255
 30
0.0
  0
SPLINE
  5
BB
330
1F
100
AcDbEntity
  8
외형선
  6
Continuous
370
    15
100
AcDbSpline
210
0.0
220
0.0
230
1.0
 70
     8
 71
     3
 72
     8
 73
     4
 74
     0
 42
0.000000001
 43
0.00000001
 40
0.0
 40
0.0
 40
0.0
 40
0.0
 40
1.0
 40
1.0
 40
1.0
 40
1.0
 10
8.924630657015118
 20
-2.675468927545284
 30
0.0
 10
8.570758382810492
 20
-2.697789942658948
 30
0.0
 10
8.210819290924423
 20
-2.703320855819797
 30
0.0
 10
7.854897967079633
 20
-2.691810019623652
 30
0.0
  0
SPLINE
  5
BC
330
1F
100
AcDbEntity
  8
외형선
  6
Continuous
370
    15
100
AcDbSpline
210
0.0
220
0.0
230
1.0
 70
     8
 71
     3
 72
     8
 73
     4
 74
     0
 42
0.000000001
 43
0.00000001
 40
0.0
 40
0.0
 40
0.0
 40
0.0
 40
1.0
 40
1.0
 40
1.0
 40
1.0
 10
8.924630657008244
 20
2.833960797509714
 30
0.0
 10
8.593852701838394
 20
2.920539809851213
 30
0.0
 10
8.257774320753992
 20
2.991952104099694
 30
0.0
 10
7.924630657015602
 20
3.046332421223996
 30
0.0
  0
SPLINE
  5
BD
330
1F
100
AcDbEntity
  8
외형선
  6
Continuous
370
    15
100
AcDbSpline
210
0.0
220
0.0
230
1.0
 70
    24
 71
     3
 72
    10
 73
     6
 74
     0
 42
0.000000001
 43
0.00000001
 40
0.0
 40
0.0
 40
0.0
 40
0.0
 40
0.5
 40
0.5
 40
1.0
 40
1.0
 40
1.0
 40
1.0
 10
8.92463065701558
 20
2.833960797507793
 30
0.0
 10
8.92463065701558
 20
2.715005524148043
 30
0.0
 10
8.92463065701558
 20
2.570386620105949
 30
0.0
 10
8.92463065701558
 20
2.260785603408931
 30
0.0
 10
8.92463065701558
 20
2.096716004434013
 30
0.0
 10
8.92463065701558
 20
1.941167168597232
 30
0.0
  0
SPLINE
  5
BE
330
1F
100
AcDbEntity
  8
외형선
  6
Continuous
370
    15
100
AcDbSpline
210
0.0
220
0.0
230
1.0
 70
     8
 71
     3
 72
     8
 73
     4
 74
     0
 42
0.000000001
 43
0.00000001
 40
0.0
 40
0.0
 40
0.0
 40
0.0
 40
1.0
 40
1.0
 40
1.0
 40
1.0
 10
8.92463065701558
 20
3.119727193450717
 30
0.0
 10
8.593852701843364
 20
3.155690191405866
 30
0.0
 10
8.257774320756454
 20
3.174642171705523
 30
0.0
 10
7.924630657015599
 20
3.175996141338286
 30
0.0
  0
LINE
  5
BF
330
1F
100
AcDbEntity
  8
외형선
  6
Continuous
370
    15
100
AcDbLine
 10
8.92463065701558
 20
3.119727193450714
 30
0.0
 11
8.92463065701558
 21
2.833960797507797
 31
0.0
  0
SPLINE
  5
C0
330
1F
100
AcDbEntity
  8
외형선
  6
Continuous
370
    15
100
AcDbSpline
210
0.0
220
0.0
230
1.0
 70
     8
 71
     3
 72
     8
 73
     4
 74
     0
 42
0.000000001
 43
0.00000001
 40
0.0
 40
0.0
 40
0.0
 40
0.0
 40
1.0
 40
1.0
 40
1.0
 40
1.0
 10
8.92463065701558
 20
-3.117577336002929
 30
0.0
 10
8.593852701843364
 20
-3.153540333958078
 30
0.0
 10
8.257774320756457
 20
-3.172492314257735
 30
0.0
 10
7.924630657015602
 20
-3.173846283890498
 30
0.0
  0
SPLINE
  5
C1
330
1F
100
AcDbEntity
  8
외형선
  6
Continuous
370
    15
100
AcDbSpline
210
0.0
220
0.0
230
1.0
 70
    24
 71
     3
 72
     8
 73
     4
 74
     0
 42
0.000000001
 43
0.00000001
 40
0.0
 40
0.0
 40
0.0
 40
0.0
 40
1.0
 40
1.0
 40
1.0
 40
1.0
 10
8.92463065701558
 20
-2.675468927545255
 30
0.0
 10
8.92463065701558
 20
-2.828692606825419
 30
0.0
 10
8.92463065701558
 20
-2.977035201423519
 30
0.0
 10
8.92463065701558
 20
-3.117577335997857
 30
0.0
  0
SPLINE
  5
C2
330
1F
100
AcDbEntity
  8
0
  6
Continuous
 62
     1
370
    15
100
AcDbSpline
210
0.0
220
0.0
230
1.0
 70
     8
 71
     3
 72
    22
 73
    18
 74
     0
 42
0.000000001
 43
0.00000001
 40
0.0
 40
0.0
 40
0.0
 40
0.0
 40
0.0281741085782414
 40
0.0980692795696826
 40
0.1679633395648196
 40
0.2378566079275776
 40
0.3077494043801313
 40
0.3776420488582896
 40
0.4475348613666714
 40
0.5174281618338163
 40
0.5873222699673674
 40
0.6572175051094693
 40
0.7257631962322867
 40
0.7943132224215111
 40
0.8628686553850737
 40
0.931430561350866
 40
0.9999999999999999
 40
0.9999999999999999
 40
0.9999999999999999
 40
0.9999999999999999
 10
28.75591441055149
 20
-2.500854749371626
 30
0.0
 10
28.56967041884051
 20
-2.57090840081186
 30
0.0
 10
27.92138676363431
 20
-2.814753245410601
 30
0.0
 10
26.81107700912169
 20
-3.058531735233503
 30
0.0
 10
25.42498866806052
 20
-3.205714254631327
 30
0.0
 10
24.03891954400605
 20
-3.140502186499352
 30
0.0
 10
22.65286157561426
 20
-2.879329878572359
 30
0.0
 10
21.26680713985247
 20
-2.435406152984259
 30
0.0
 10
19.88074911468241
 20
-1.837673681928959
 30
0.0
 10
18.49467792550471
 20
-1.123666708142156
 30
0.0
 10
17.10859331843898
 20
-0.3385992729844762
 30
0.0
 10
15.73139098331035
 20
0.4628206398808564
 30
0.0
 10
14.36314711888368
 20
1.229947086366668
 30
0.0
 10
13.00371972317054
 20
1.918335544086172
 30
0.0
 10
11.64416917178325
 20
2.486519293786598
 30
0.0
 10
10.2844654598223
 20
2.917199600474369
 30
0.0
 10
9.37792552349135
 20
3.052215523631352
 30
0.0
 10
8.92463065701288
 20
3.119727193451011
 30
0.0
  0
SPLINE
  5
C3
330
1F
100
AcDbEntity
  8
0
  6
Continuous
 62
     1
370
    15
100
AcDbSpline
210
0.0
220
0.0
230
1.0
 70
     8
 71
     3
 72
    16
 73
    12
 74
     0
 42
0.000000001
 43
0.00000001
 40
0.0
 40
0.0
 40
0.0
 40
0.0
 40
0.1047483757297977
 40
0.2256270602990119
 40
0.3465048921590609
 40
0.4673824494114083
 40
0.5882603102832661
 40
0.7091390528628134
 40
0.8300192548345543
 40
0.9509014932150682
 40
0.9999999999999999
 40
0.9999999999999999
 40
0.9999999999999999
 40
0.9999999999999999
 10
26.62609366241868
 20
-2.630921003311463
 30
0.0
 10
26.22572363147675
 20
-2.662862115673601
 30
0.0
 10
25.36333018161293
 20
-2.731662984753801
 30
0.0
 10
24.03891979398327
 20
-2.628663531302591
 30
0.0
 10
22.65286161411571
 20
-2.371008093513882
 30
0.0
 10
21.26680714079176
 20
-1.958986796823383
 30
0.0
 10
19.88074862472135
 20
-1.424490164303365
 30
0.0
 10
18.49467858435966
 20
-0.79869059776287
 30
0.0
 10
17.10858902124525
 20
-0.1257246615110175
 30
0.0
 10
15.99685647939477
 20
0.4303601904360491
 30
0.0
 10
15.34715098255486
 20
0.7283780987499413
 30
0.0
 10
15.15948519891711
 20
0.8144598151181038
 30
0.0
  0
SPLINE
  5
C4
330
1F
100
AcDbEntity
  8
0
  6
Continuous
 62
     1
370
    15
100
AcDbSpline
210
0.0
220
0.0
230
1.0
 70
     8
 71
     3
 72
    19
 73
    15
 74
     0
 42
0.000000001
 43
0.00000001
 40
0.0
 40
0.0
 40
0.0
 40
0.0
 40
0.089395506449717
 40
0.1787859682887546
 40
0.2681717815285659
 40
0.3575533442616948
 40
0.446931056487157
 40
0.5363053199340015
 40
0.6256765378832085
 40
0.7150451149880969
 40
0.8044114570934152
 40
0.8937759710532779
 40
0.9831390645481309
 40
0.9999999999999999
 40
0.9999999999999999
 40
0.9999999999999999
 40
0.9999999999999999
 10
40.6746306570156
 20
-3.01181233108739
 30
0.0
 10
40.21239977734794
 20
-2.909122652316106
 30
0.0
 10
39.28796410181623
 20
-2.703749089577672
 30
0.0
 10
37.90136777071125
 20
-2.173644621367219
 30
0.0
 10
36.51485671355651
 20
-1.519741443374032
 30
0.0
 10
35.12842506032182
 20
-0.7660531932757259
 30
0.0
 10
33.74206496354504
 20
0.0351579933004628
 30
0.0
 10
32.355769063842
 20
0.8343735686131308
 30
0.0
 10
30.96952982506576
 20
1.581176151310978
 30
0.0
 10
29.58333974908194
 20
2.226837155846985
 30
0.0
 10
28.19719120240693
 20
2.736560341212992
 30
0.0
 10
26.8110769159654
 20
3.055621221739929
 30
0.0
 10
25.79983669529057
 20
3.195894899252116
 30
0.0
 10
25.25063421112671
 20
3.165501947537309
 30
0.0
 10
25.16345932492334
 20
3.160677675645757
 30
0.0
  0
SPLINE
  5
C5
330
1F
100
AcDbEntity
  8
0
  6
Continuous
 62
     1
370
    15
100
AcDbSpline
210
0.0
220
0.0
230
1.0
 70
     8
 71
     3
 72
     9
 73
     5
 74
     0
 42
0.000000001
 43
0.00000001
 40
0.0
 40
0.0
 40
0.0
 40
0.0
 40
0.4779369745001782
 40
1.0
 40
1.0
 40
1.0
 40
1.0
 10
11.52941947937654
 20
-2.496512764438569
 30
0.0
 10
11.11445143961175
 20
-2.636110404646617
 30
0.0
 10
10.24620298447024
 20
-2.928194189028518
 30
0.0
 10
9.377925977988607
 20
-3.052619487982557
 30
0.0
 10
8.92463065701288
 20
-3.117577336003223
 30
0.0
  0
SPLINE
  5
C6
330
1F
100
AcDbEntity
  8
외형선
  6
Continuous
370
    15
100
AcDbSpline
210
0.0
220
0.0
230
1.0
 70
    24
 71
     3
 72
     8
 73
     4
 74
     0
 42
0.000000001
 43
0.00000001
 40
0.0
 40
0.0
 40
0.0
 40
0.0
 40
1.0
 40
1.0
 40
1.0
 40
1.0
 10
8.92463065701558
 20
-2.675468927545255
 30
0.0
 10
8.92463065701558
 20
-2.828692606825419
 30
0.0
 10
8.92463065701558
 20
-2.977035201423519
 30
0.0
 10
8.92463065701558
 20
-3.117577335997856
 30
0.0
  0
SPLINE
  5
C7
330
1F
100
AcDbEntity
  8
0
  6
Continuous
 62
     1
370
    15
100
AcDbSpline
210
0.0
220
0.0
230
1.0
 70
     8
 71
     3
 72
    13
 73
     9
 74
     0
 42
0.000000001
 43
0.00000001
 40
0.0
 40
0.0
 40
0.0
 40
0.0
 40
0.1680214342125631
 40
0.3360329637673052
 40
0.5040353660112321
 40
0.6720294224237765
 40
0.8400159182701399
 40
1.0
 40
1.0
 40
1.0
 40
1.0
 10
40.67463065701558
 20
-2.503912010645192
 30
0.0
 10
40.21240002683082
 20
-2.404124989065175
 30
0.0
 10
39.28796601439097
 20
-2.204556828227886
 30
0.0
 10
37.90136934286591
 20
-1.723395690782499
 30
0.0
 10
36.51485817183919
 20
-1.144304338185962
 30
0.0
 10
35.12842649153895
 20
-0.4908632398734927
 30
0.0
 10
33.76406126099121
 20
0.1860118848257622
 30
0.0
 10
32.86184303794086
 20
0.616233823242349
 30
0.0
 10
32.4217408952384
 20
0.8260961293866298
 30
0.0
  0
LINE
  5
C8
330
1F
100
AcDbEntity
  8
0
  6
Continuous
 62
     1
370
    15
100
AcDbLine
 10
9.379354370502288
 20
-2.620763705427641
 30
0.0
 11
8.924630657015118
 21
-2.675468927545284
 31
0.0
  0
LINE
  5
C9
330
1F
100
AcDbEntity
  8
0
  6
Continuous
 62
     1
370
    15
100
AcDbLine
 10
40.67463065701531
 20
-3.011812331087392
 30
0.0
 11
40.67463065701558
 21
-2.503912010645192
 31
0.0
  0
SPLINE
  5
CA
330
1F
100
AcDbEntity
  8
0
  6
Continuous
 62
     1
370
    15
100
AcDbSpline
210
0.0
220
0.0
230
1.0
 70
     8
 71
     3
 72
    23
 73
    19
 74
     0
 42
0.000000001
 43
0.00000001
 40
0.0
 40
0.0
 40
0.0
 40
0.0
 40
0.0377806592299997
 40
0.1019208187653485
 40
0.1660608244197041
 40
0.2302009697947719
 40
0.294341548429006
 40
0.3584828536647502
 40
0.4226251785155766
 40
0.4867688155339365
 40
0.5509140566792606
 40
0.6150611931866306
 40
0.6792105154361521
 40
0.7433623128231489
 40
0.8075168736293079
 40
0.8716744848948923
 40
0.9358354322921445
 40
1.0
 40
1.0
 40
1.0
 40
1.0
 10
19.06425755718038
 20
2.128782382304311
 30
0.0
 10
19.33640301180001
 20
2.246647541024151
 30
0.0
 10
20.07056933190688
 20
2.564612174925905
 30
0.0
 10
21.26675295343806
 20
2.915637151909264
 30
0.0
 10
22.65281126994215
 20
3.160972903758294
 30
0.0
 10
24.03887309124278
 20
3.20047766118243
 30
0.0
 10
25.42494617878919
 20
3.039401315936342
 30
0.0
 10
26.81103809864268
 20
2.685846394229756
 30
0.0
 10
28.19715645884024
 20
2.162711803429843
 30
0.0
 10
29.58330884147065
 20
1.502911545982575
 30
0.0
 10
30.96950281549684
 20
0.7481788385629303
 30
0.0
 10
32.35574593195753
 20
-0.0537697232472172
 30
0.0
 10
33.74204570899876
 20
-0.8523362025706459
 30
0.0
 10
35.12840967532729
 20
-1.59669140213971
 30
0.0
 10
36.51484519027088
 20
-2.241089520695076
 30
0.0
 10
37.90136009919791
 20
-2.739897493794975
 30
0.0
 10
39.28796027086246
 20
-3.079828764518632
 30
0.0
 10
40.21239850156863
 20
-3.140770088168884
 30
0.0
 10
40.6746306570156
 20
-3.173925071276102
 30
0.0
  0
SPLINE
  5
CB
330
1F
100
AcDbEntity
  8
0
  6
Continuous
 62
     1
370
    15
100
AcDbSpline
210
0.0
220
0.0
230
1.0
 70
     8
 71
     3
 72
    16
 73
    12
 74
     0
 42
0.000000001
 43
0.00000001
 40
0.0
 40
0.0
 40
0.0
 40
0.0
 40
0.0408547353676712
 40
0.1719527345175348
 40
0.3030465203644455
 40
0.4341367402651598
 40
0.565224043221267
 40
0.6963090795809901
 40
0.8273925007396615
 40
0.9584749588391835
 40
0.9999999999999999
 40
0.9999999999999999
 40
0.9999999999999999
 40
0.9999999999999999
 10
32.78774009098395
 20
-0.2994072138069239
 30
0.0
 10
32.64373911344219
 20
-0.2425169177564901
 30
0.0
 10
32.03765608197318
 20
-0.0030724106425082
 30
0.0
 10
30.96951137599363
 20
0.4348592918083413
 30
0.0
 10
29.58331774309013
 20
0.9695669642244763
 30
0.0
 10
28.19716610644836
 20
1.444891840382573
 30
0.0
 10
26.81104838364392
 20
1.827813367931748
 30
0.0
 10
25.42495712633657
 20
2.097994786663083
 30
0.0
 10
24.03888470351907
 20
2.225887453189757
 30
0.0
 10
22.96848085633252
 20
2.244077962391872
 30
0.0
 10
22.36010014475002
 20
2.174228041298218
 30
0.0
 10
22.21373898316569
 20
2.157423899757884
 30
0.0
  0
SPLINE
  5
CC
330
1F
100
AcDbEntity
  8
0
  6
Continuous
 62
     1
370
    15
100
AcDbSpline
210
0.0
220
0.0
230
1.0
 70
     8
 71
     3
 72
    18
 73
    14
 74
     0
 42
0.000000001
 43
0.00000001
 40
0.0
 40
0.0
 40
0.0
 40
0.0
 40
0.0925031383829651
 40
0.184996111477935
 40
0.2774803495995021
 40
0.3699572918998432
 40
0.462428384928377
 40
0.5567212983499435
 40
0.6510126921199965
 40
0.7453029969567552
 40
0.8395926440711512
 40
0.93388206497182
 40
1.0
 40
1.0
 40
1.0
 40
1.0
 10
8.92463065701558
 20
2.833960797507797
 30
0.0
 10
9.377920916224003
 20
2.699068334394316
 30
0.0
 10
10.28445162199544
 20
2.429298231672372
 30
0.0
 10
11.64414145528031
 20
1.830809220537545
 30
0.0
 10
13.00367808318155
 20
1.133453632317994
 30
0.0
 10
14.36309152819709
 20
0.3639471832076402
 30
0.0
 10
15.73132733109052
 20
-0.4318872506637016
 30
0.0
 10
17.10852758683448
 20
-1.206670337171321
 30
0.0
 10
18.49461603304492
 20
-1.909549530566223
 30
0.0
 10
19.88069106440671
 20
-2.493634257677515
 30
0.0
 10
21.26675298881598
 20
-2.91274725068076
 30
0.0
 10
22.51476970931581
 20
-3.148783036364866
 30
0.0
 10
23.30076721430331
 20
-3.151651029088576
 30
0.0
 10
23.62474569812126
 20
-3.152833180340116
 30
0.0
  0
SPLINE
  5
CD
330
1F
100
AcDbEntity
  8
0
  6
Continuous
 62
     1
370
    15
100
AcDbSpline
210
0.0
220
0.0
230
1.0
 70
     8
 71
     3
 72
    11
 73
     7
 74
     0
 42
0.000000001
 43
0.00000001
 40
0.0
 40
0.0
 40
0.0
 40
0.0
 40
0.0442050011919886
 40
0.36278629784559
 40
0.681384160408233
 40
1.0
 40
1.0
 40
1.0
 40
1.0
 10
36.32244060181305
 20
2.130597744323168
 30
0.0
 10
36.38656885567258
 20
2.160394467595815
 30
0.0
 10
36.91286341913064
 20
2.404933380219394
 30
0.0
 10
37.90136087412498
 20
2.734293037738775
 30
0.0
 10
39.28796007711375
 20
3.083917369961937
 30
0.0
 10
40.21239843698451
 20
3.143566207103024
 30
0.0
 10
40.67463065701558
 20
3.176074928723898
 30
0.0
  0
SPLINE
  5
CE
330
1F
100
AcDbEntity
  8
0
  6
Continuous
 62
     1
370
    15
100
AcDbSpline
210
0.0
220
0.0
230
1.0
 70
    24
 71
     3
 72
    10
 73
     6
 74
     0
 42
0.000000001
 43
0.00000001
 40
0.0
 40
0.0
 40
0.0
 40
0.0
 40
0.5
 40
0.5
 40
1.0
 40
1.0
 40
1.0
 40
1.0
 10
40.67463065701558
 20
2.223574928723894
 30
0.0
 10
40.6746306570156
 20
2.358297344087115
 30
0.0
 10
40.67463065701558
 20
2.514857267376991
 30
0.0
 10
40.6746306570156
 20
2.843319564774613
 30
0.0
 10
40.67463065701558
 20
3.014383087393572
 30
0.0
 10
40.67463065701558
 20
3.176074928723898
 30
0.0
  0
LINE
  5
CF
330
1F
100
AcDbEntity
  8
0
  6
Continuous
 62
     1
370
    15
100
AcDbLine
 10
40.67463065701558
 20
2.223574928723894
 30
0.0
 11
39.50918474918139
 21
2.164527156092507
 31
0.0
  0
SPLINE
  5
D0
330
1F
100
AcDbEntity
  8
0
  6
Continuous
 62
     1
370
    15
100
AcDbSpline
210
0.0
220
0.0
230
1.0
 70
     8
 71
     3
 72
    12
 73
     8
 74
     0
 42
0.000000001
 43
0.00000001
 40
0.0
 40
0.0
 40
0.0
 40
0.0
 40
0.1782662613103282
 40
0.3887528496108114
 40
0.5992462534014888
 40
0.7995972848224016
 40
1.0
 40
1.0
 40
1.0
 40
1.0
 10
15.51027600038242
 20
-0.3002530471300912
 30
0.0
 10
15.11894334827939
 20
-0.1425311793347509
 30
0.0
 10
14.26554752041731
 20
0.2014196339076974
 30
0.0
 10
12.95007407690029
 20
0.7280148446459765
 30
0.0
 10
11.58609451514072
 20
1.224908979562634
 30
0.0
 10
10.24432210469156
 20
1.648681749297059
 30
0.0
 10
9.364565625907925
 20
1.843663646794551
 30
0.0
 10
8.924630657015538
 20
1.94116716859724
 30
0.0
  0
SPLINE
  5
D1
330
1F
100
AcDbEntity
  8
외형선
  6
Continuous
370
    15
100
AcDbSpline
210
0.0
220
0.0
230
1.0
 70
    24
 71
     3
 72
    10
 73
     6
 74
     0
 42
0.000000001
 43
0.00000001
 40
0.0
 40
0.0
 40
0.0
 40
0.0
 40
0.5
 40
0.5
 40
1.0
 40
1.0
 40
1.0
 40
1.0
 10
8.92463065701558
 20
2.833960797507795
 30
0.0
 10
8.92463065701558
 20
2.715005524148045
 30
0.0
 10
8.92463065701558
 20
2.570386620105949
 30
0.0
 10
8.92463065701558
 20
2.260785603408932
 30
0.0
 10
8.92463065701558
 20
2.096716004434014
 30
0.0
 10
8.92463065701558
 20
1.941167168597232
 30
0.0
  0
LINE
  5
D2
330
1F
100
AcDbEntity
  8
0
  6
Continuous
 62
     1
370
    15
100
AcDbLine
 10
40.6746306570156
 20
-3.173925071276102
 30
0.0
 11
40.67463065701525
 21
-3.011812331087371
 31
0.0
  0
SPLINE
  5
D3
330
1F
100
AcDbEntity
  8
0
  6
Continuous
 62
     1
370
    15
100
AcDbSpline
210
0.0
220
0.0
230
1.0
 70
     8
 71
     3
 72
     8
 73
     4
 74
     0
 42
0.000000001
 43
0.00000001
 40
0.0
 40
0.0
 40
0.0
 40
0.0
 40
1.0
 40
1.0
 40
1.0
 40
1.0
 10
38.70955539003678
 20
0.8897344252684121
 30
0.0
 10
38.59689964179093
 20
1.02322623683617
 30
0.0
 10
38.49639108618294
 20
1.151667531814782
 30
0.0
 10
38.41087530356128
 20
1.273875184918921
 30
0.0
  0
LINE
  5
D4
330
1F
100
AcDbEntity
  8
0
  6
Continuous
 62
     1
370
    15
100
AcDbLine
 10
38.45100821889224
 20
1.3075506993712
 30
0.0
 11
40.67463065701558
 21
0.001074928723898
 31
0.0
  0
LINE
  5
D5
330
1F
100
AcDbEntity
  8
0
  6
Continuous
 62
     1
370
    15
100
AcDbLine
 10
40.67463065701558
 20
0.001074928723898
 30
0.0
 11
40.67463065701558
 21
-0.8474214249202245
 31
0.0
  0
SPLINE
  5
D6
330
1F
100
AcDbEntity
  8
0
  6
Continuous
 62
     1
370
    15
100
AcDbSpline
210
0.0
220
0.0
230
1.0
 70
     8
 71
     3
 72
    10
 73
     6
 74
     0
 42
0.000000001
 43
0.00000001
 40
0.0
 40
0.0
 40
0.0
 40
0.0
 40
0.5
 40
0.5
 40
1.0
 40
1.0
 40
1.0
 40
1.0
 10
40.67463065701558
 20
-0.8474214249202242
 30
0.0
 10
40.33446224274592
 20
-0.5799902288417169
 30
0.0
 10
39.99997927132608
 20
-0.3015901517580488
 30
0.0
 10
39.34266781458888
 20
0.2776949124879435
 30
0.0
 10
39.0167792461619
 20
0.5816325553744939
 30
0.0
 10
38.70955539003677
 20
0.8897344252684204
 30
0.0
  0
SPLINE
  5
D7
330
1F
100
AcDbEntity
  8
외형선
  6
Continuous
370
    15
100
AcDbSpline
210
0.0
220
0.0
230
1.0
 70
    24
 71
     3
 72
    10
 73
     6
 74
     0
 42
0.000000001
 43
0.00000001
 40
0.0
 40
0.0
 40
0.0
 40
0.0
 40
0.5
 40
0.5
 40
1.0
 40
1.0
 40
1.0
 40
1.0
 10
8.92463065701558
 20
-1.238041728745832
 30
0.0
 10
8.92463065701558
 20
-1.635060110984807
 30
0.0
 10
8.92463065701558
 20
-1.988153927657547
 30
0.0
 10
8.92463065701558
 20
-2.490605961804286
 30
0.0
 10
8.92463065701558
 20
-2.637801429301027
 30
0.0
 10
8.92463065701558
 20
-2.675468927545255
 30
0.0
  0
SPLINE
  5
D8
330
1F
100
AcDbEntity
  8
0
  6
Continuous
 62
     1
370
    15
100
AcDbSpline
210
0.0
220
0.0
230
1.0
 70
     8
 71
     3
 72
    13
 73
     9
 74
     0
 42
0.000000001
 43
0.00000001
 40
0.0
 40
0.0
 40
0.0
 40
0.0
 40
0.1499343294322754
 40
0.3001366267767642
 40
0.4897182946813922
 40
0.6792913119006642
 40
0.8688565807576727
 40
1.0
 40
1.0
 40
1.0
 40
1.0
 10
38.70955539003771
 20
0.8897344252680098
 30
0.0
 10
38.34416108084742
 20
1.04451525033858
 30
0.0
 10
37.61271941689321
 20
1.354353530219565
 30
0.0
 10
36.41880126042786
 20
1.790109840420949
 30
0.0
 10
35.12842630575228
 20
2.173978177068271
 30
0.0
 10
33.7420519678044
 20
2.441744470113791
 30
0.0
 10
32.4981526169718
 20
2.563687923255299
 30
0.0
 10
31.71637262657755
 20
2.523330803075303
 30
0.0
 10
31.39668904817762
 20
2.506828067329214
 30
0.0
  0
SPLINE
  5
D9
330
1F
100
AcDbEntity
  8
0
  6
Continuous
 62
     1
370
    15
100
AcDbSpline
210
0.0
220
0.0
230
1.0
 70
     8
 71
     3
 72
    13
 73
     9
 74
     0
 42
0.000000001
 43
0.00000001
 40
0.0
 40
0.0
 40
0.0
 40
0.0
 40
0.1235420938239822
 40
0.3022620053449865
 40
0.4809866939282736
 40
0.6597170190836049
 40
0.8298371394934698
 40
1.0
 40
1.0
 40
1.0
 40
1.0
 10
16.68062737094108
 20
-2.369321959385272
 30
0.0
 10
16.36123118055772
 20
-2.419283403472193
 30
0.0
 10
15.57978633033226
 20
-2.541520657287563
 30
0.0
 10
14.33627441400678
 20
-2.554726889803747
 30
0.0
 10
12.95008523326647
 20
-2.429274130775034
 30
0.0
 10
11.58609707462267
 20
-2.14768269658672
 30
0.0
 10
10.24433301048118
 20
-1.749330456921173
 30
0.0
 10
9.364568274798707
 20
-1.408485575028392
 30
0.0
 10
8.924630657015577
 20
-1.238041728745831
 30
0.0
  0
SPLINE
  5
DA
330
1F
100
AcDbEntity
  8
0
  6
Continuous
 62
     1
370
    15
100
AcDbSpline
210
0.0
220
0.0
230
1.0
 70
    24
 71
     3
 72
    10
 73
     6
 74
     0
 42
0.000000001
 43
0.00000001
 40
0.0
 40
0.0
 40
0.0
 40
0.0
 40
0.5
 40
0.5
 40
1.0
 40
1.0
 40
1.0
 40
1.0
 10
40.67463065701558
 20
-2.503912010645191
 30
0.0
 10
40.6746306570156
 20
-2.311885231363187
 30
0.0
 10
40.67463065701558
 20
-2.069252032679143
 30
0.0
 10
40.67463065701558
 20
-1.505153196579513
 30
0.0
 10
40.6746306570156
 20
-1.184176202964012
 30
0.0
 10
40.6746306570156
 20
-0.8474214249203265
 30
0.0
  0
SPLINE
  5
DB
330
1F
100
AcDbEntity
  8
0
  6
Continuous
 62
     1
370
    15
100
AcDbSpline
210
0.0
220
0.0
230
1.0
 70
     8
 71
     3
 72
    23
 73
    19
 74
     0
 42
0.000000001
 43
0.00000001
 40
0.0
 40
0.0
 40
0.0
 40
0.0
 40
0.0105887854477255
 40
0.0804974779255992
 40
0.1504036469966373
 40
0.2203076278821325
 40
0.2902097568051721
 40
0.3601103708375846
 40
0.4300098077460556
 40
0.4999084058375734
 40
0.5698065038043394
 40
0.6397044405683101
 40
0.7096025551255097
 40
0.7795011863902715
 40
0.8494006730395606
 40
0.9193013533575263
 40
0.98920356508044
 40
1.0
 40
1.0
 40
1.0
 40
1.0
 10
33.95201452948312
 20
-2.376743136027693
 30
0.0
 10
33.88202189633568
 20
-2.390816415283778
 30
0.0
 10
33.34992777944611
 20
-2.497803518937
 30
0.0
 10
32.35575624757222
 20
-2.552854127487469
 30
0.0
 10
30.96951377672267
 20
-2.520227469923523
 30
0.0
 10
29.58332119267269
 20
-2.314287146552106
 30
0.0
 10
28.19717000055694
 20
-1.965736367026687
 30
0.0
 10
26.81105288437472
 20
-1.491872184993246
 30
0.0
 10
25.42496219101328
 20
-0.9239149029480948
 30
0.0
 10
24.03889034061419
 20
-0.2974297121094652
 30
0.0
 10
22.65282972246041
 20
0.3479219548150212
 30
0.0
 10
21.26677272258563
 20
0.9712792453976538
 30
0.0
 10
19.88071173900983
 20
1.533600273948601
 30
0.0
 10
18.49463911478307
 20
1.997992731383635
 30
0.0
 10
17.10854741218277
 20
2.340154331601939
 30
0.0
 10
15.72242840445554
 20
2.519607608301459
 30
0.0
 10
14.72697513924894
 20
2.574005557548673
 30
0.0
 10
14.19355889696801
 20
2.520737155629201
 30
0.0
 10
14.12219470457534
 20
2.513610532587548
 30
0.0
  0
SPLINE
  5
DC
330
1F
100
AcDbEntity
  8
0
  6
Continuous
 62
     1
370
    15
100
AcDbSpline
210
0.0
220
0.0
230
1.0
 70
    24
 71
     3
 72
     8
 73
     4
 74
     0
 42
0.000000001
 43
0.00000001
 40
0.0
 40
0.0
 40
0.0
 40
0.0
 40
1.0
 40
1.0
 40
1.0
 40
1.0
 10
38.74228018698443
 20
1.551956900369639
 30
0.0
 10
38.63760358270135
 20
1.464122800322815
 30
0.0
 10
38.52648090600679
 20
1.370879803292826
 30
0.0
 10
38.41087530356139
 20
1.273875184918868
 30
0.0
  0
SPLINE
  5
DD
330
1F
100
AcDbEntity
  8
외형선
  6
Continuous
370
    15
100
AcDbSpline
210
0.0
220
0.0
230
1.0
 70
    24
 71
     3
 72
    14
 73
    10
 74
     0
 42
0.000000001
 43
0.00000001
 40
0.0
 40
0.0
 40
0.0
 40
0.0
 40
0.25
 40
0.25
 40
0.5
 40
0.5
 40
0.75
 40
0.75
 40
1.0
 40
1.0
 40
1.0
 40
1.0
 10
8.92463065701558
 20
1.941167168597232
 30
0.0
 10
8.92463065701558
 20
1.754834943453684
 30
0.0
 10
8.92463065701558
 20
1.536695221505691
 30
0.0
 10
8.92463065701558
 20
1.049224599188235
 30
0.0
 10
8.92463065701558
 20
0.7800311331053912
 30
0.0
 10
8.92463065701558
 20
0.2149940519258234
 30
0.0
 10
8.92463065701558
 20
-0.0805484877908528
 30
0.0
 10
8.92463065701558
 20
-0.6684175942091662
 30
0.0
 10
8.92463065701558
 20
-0.9604657115360158
 30
0.0
 10
8.92463065701558
 20
-1.238041728745832
 30
0.0
  0
SPLINE
  5
DE
330
1F
100
AcDbEntity
  8
0
  6
Continuous
 62
     1
370
    15
100
AcDbSpline
210
0.0
220
0.0
230
1.0
 70
     8
 71
     3
 72
     8
 73
     4
 74
     0
 42
0.000000001
 43
0.00000001
 40
0.0
 40
0.0
 40
0.0
 40
0.0
 40
1.0
 40
1.0
 40
1.0
 40
1.0
 10
40.67463065701558
 20
2.223574928723898
 30
0.0
 10
40.02160355521007
 20
2.046345035026488
 30
0.0
 10
39.37457967077776
 20
1.828664698735822
 30
0.0
 10
38.74228018699687
 20
1.551956900375081
 30
0.0
  0
LINE
  5
DF
330
1F
100
AcDbEntity
  8
0
  6
Continuous
 62
     1
370
    15
100
AcDbLine
 10
40.67463065701558
 20
0.001074928723898
 30
0.0
 11
40.67463065701558
 21
2.223574928723897
 31
0.0
  0
LINE
  5
E0
330
1F
100
AcDbEntity
  8
중심선
 48
0.8
100
AcDbLine
 10
-40.1128693429844
 20
0.0010749287238879
 30
0.0
 11
43.67463065701558
 21
0.0010749287238982
 31
0.0
  0
LINE
  5
E1
330
1F
100
AcDbEntity
  8
참조1
100
AcDbLine
 10
7.705511314031174
 20
0.0010749287238892
 30
0.0
 11
7.705511314031178
 21
-39.99892507127611
 31
0.0
  0
LINE
  5
E2
330
1F
100
AcDbEntity
  8
참조1
100
AcDbLine
 10
7.705511314031178
 20
-39.99892507127611
 30
0.0
 11
-20.15080122126847
 21
-39.9989250712761
 31
0.0
  0
CIRCLE
  5
E3
330
1F
100
AcDbEntity
  8
해칭선
100
AcDbCircle
 10
0.0
 20
0.0
 30
0.0
 40
2.999999999999996
  0
INSERT
  5
E4
330
1F
100
AcDbEntity
  8
0
  6
Continuous
 62
     7
100
AcDbBlockReference
 66
     1
  2
블럭10
 10
-12.15939227510962
 20
-52.04609937292004
 30
0.0
  0
ATTRIB
  5
E5
330
E4
100
AcDbEntity
  8
FORMAT
 62
     2
100
AcDbText
 10
-21.3406875638509
 20
-49.97073246008785
 30
0.0
 40
4.233333333333333
  1
E1071016 [ 2 FLUTE ]
 41
0.75
  7
SLDTEXTSTYLE0
 11
-21.3406875638509
 21
-52.08739912675452
 31
0.0
100
AcDbAttribute
  2
AUTOATTR0
 70
     0
 74
     1
  0
SEQEND
  5
E6
330
E4
100
AcDbEntity
  8
0
  6
Continuous
 62
     7
  0
HATCH
  5
E7
330
1F
100
AcDbEntity
  8
중심선
100
AcDbHatch
 10
0.0
 20
0.0
 30
0.0
210
0.0
220
0.0
230
1.0
  2
SOLID
 70
     1
 71
     0
 91
        1
 92
        0
 93
        4
 72
     1
 10
-6.444482970728765
 20
-35.7989250712761
 11
-9.890758214566047
 21
-35.7989250712761
 72
     1
 10
-9.890758214566047
 20
-35.7989250712761
 11
-12.01898807377007
 21
-38.3352506518487
 72
     1
 10
-12.01898807377007
 20
-38.3352506518487
 11
-8.572679744819638
 21
-38.33521122254621
 72
     1
 10
-8.572679744819638
 20
-38.33521122254621
 11
-6.444482970728765
 21
-35.7989250712761
 97
        0
 75
     0
 76
     1
 98
        1
 10
-5.924630657015583
 20
0.0
  0
HATCH
  5
E8
330
1F
100
AcDbEntity
  8
중심선
100
AcDbHatch
 10
0.0
 20
0.0
 30
0.0
210
0.0
220
0.0
230
1.0
  2
SOLID
 70
     1
 71
     0
 91
        1
 92
        0
 93
        4
 72
     1
 10
-1.431718979692813
 20
-35.79892507127613
 11
-4.877994223530068
 21
-35.79892507127608
 72
     1
 10
-4.877994223530068
 20
-35.79892507127608
 11
-9.409132231887485
 21
-41.19892507127612
 72
     1
 10
-9.409132231887483
 20
-41.19892507127612
 11
-5.9628569880502
 21
-41.19892507127612
 72
     1
 10
-5.962856988050202
 20
-41.19892507127612
 11
-1.431718979692814
 21
-35.79892507127613
 97
        0
 75
     0
 76
     1
 98
        1
 10
-5.924630657015583
 20
0.0
  0
HATCH
  5
E9
330
1F
100
AcDbEntity
  8
중심선
100
AcDbHatch
 10
0.0
 20
0.0
 30
0.0
210
0.0
220
0.0
230
1.0
  2
SOLID
 70
     1
 71
     0
 91
        1
 92
        0
 93
        4
 72
     1
 10
3.581045011343138
 20
-35.79892507127608
 11
0.1347697675060218
 21
-35.79892507127608
 72
     1
 10
0.1347697675060218
 20
-35.79892507127608
 11
-6.913667134383283
 21
-44.19892507127612
 72
     1
 10
-6.913667134383283
 20
-44.19892507127612
 11
-3.467391890546
 21
-44.19892507127612
 72
     1
 10
-3.467391890546
 20
-44.19892507127612
 11
3.581045011343138
 21
-35.79892507127608
 97
        0
 75
     0
 76
     1
 98
        1
 10
-5.924630657015583
 20
0.0
  0
HATCH
  5
EA
330
1F
100
AcDbEntity
  8
중심선
100
AcDbHatch
 10
0.0
 20
0.0
 30
0.0
210
0.0
220
0.0
230
1.0
  2
SOLID
 70
     1
 71
     0
 91
        1
 92
        0
 93
        6
 72
     3
 10
8.38093544235528
 20
-39.99892507132738
 11
3.960054785062283
 21
1.540882976769353E-10
 40
0.3939339440162628
 50
17.09539180608436
 51
320.0019657685086
 73
     0
 72
     1
 10
10.06393509805588
 20
-38.58681907591443
 11
12.36923697175691
 21
-36.65249236586651
 72
     3
 10
8.380935442302434
 20
-39.99892507127625
 11
6.600054785286829
 21
-1.278976924368180E-13
 40
0.636358354079598
 50
39.99873849337385
 51
368.4976242363724
 73
     1
 72
     1
 10
14.80626793420304
 20
-39.03892507120613
 11
7.061002749138357
 21
-39.03892507120613
 72
     1
 10
7.061002749138358
 20
-39.03892507120613
 11
7.060977704692424
 21
-40.95892507120602
 72
     1
 10
7.060977704692424
 20
-40.95892507120602
 11
11.50235747416446
 21
-40.95892507120599
 97
        0
 75
     0
 76
     1
 98
        1
 10
-5.924630657015583
 20
0.0
  0
DIMENSION
  5
EB
330
1F
100
AcDbEntity
  8
치수문자_일반주서
100
AcDbDimension
  2
_D
 10
-49.80286934298442
 20
-4.761425071276159
 30
0.0
 11
-49.80286934298444
 21
0.0010749287238993
 31
0.0
 70
   160
  1
%%c<>
 71
     2
 42
9.525000000000006
 52
-270.0
  3
SLDDIMSTYLE0
100
AcDbAlignedDimension
 13
-36.30286934298442
 23
4.763574928723897
 33
0.0
 14
-36.30286934298442
 24
-4.761425071276109
 34
0.0
 50
90.0000000000002
100
AcDbRotatedDimension
1001
ACAD
1000
DSTYLE
1002
{
1070
   171
1070
     6
1070
   273
1070
     7
1002
}
  0
DIMENSION
  5
100
330
1F
100
AcDbEntity
  8
치수문자_일반주서
100
AcDbDimension
  2
_D_1
 10
8.92463065701558
 20
16.34973319790095
 30
0.0
 11
24.79963065701558
 21
16.34973319790095
 31
0.0
 70
   160
  1
<>
 71
     2
 42
31.75
  3
SLDDIMSTYLE0
100
AcDbAlignedDimension
 13
40.67463065701558
 23
3.176074928723898
 33
0.0
 14
8.92463065701558
 24
3.119727193450717
 34
0.0
 50
0.0000000000000064
100
AcDbRotatedDimension
1001
ACAD
1000
DSTYLE
1002
{
1070
   171
1070
     6
1070
   273
1070
     7
1002
}
  0
DIMENSION
  5
115
330
1F
100
AcDbEntity
  8
치수문자_일반주서
100
AcDbDimension
  2
_D_2
 10
-37.1128693429844
 20
33.53949175391928
 30
0.0
 11
1.780880657015447
 21
33.53949175391928
 31
0.0
 70
   160
  1
<>
 71
     2
 42
77.7875
  3
SLDDIMSTYLE0
100
AcDbAlignedDimension
 13
40.67463065701558
 23
3.176074928723898
 33
0.0
 14
-37.1128693429844
 24
3.95357492872389
 34
0.0
100
AcDbRotatedDimension
1001
ACAD
1000
DSTYLE
1002
{
1070
   171
1070
     6
1070
   273
1070
     7
1002
}
  0
DIMENSION
  5
128
330
1F
100
AcDbEntity
  8
치수문자_일반주서
100
AcDbDimension
  2
_D_3
 10
55.13466867678066
 20
3.176074928723953
 30
0.0
 11
55.13466867678056
 21
33.18453131252016
 31
0.0
 70
   160
  1
%%c<>
 71
     2
 42
6.35
 52
-270.0
  3
SLDDIMSTYLE0
100
AcDbAlignedDimension
 13
40.6746306570156
 23
-3.173925071276102
 33
0.0
 14
40.67463065701558
 24
3.176074928723898
 34
0.0
 50
90.0000000000002
100
AcDbRotatedDimension
1001
ACAD
1000
DSTYLE
1002
{
1070
   171
1070
     6
1070
   273
1070
     7
1002
}
  0
LINE
  5
13C
330
1F
100
AcDbEntity
  8
참조1
100
AcDbLine
 10
77.82153940838579
 20
7.441074928723896
 30
0.0
 11
77.82153940838579
 21
-7.438925071276109
 31
0.0
  0
LINE
  5
13D
330
1F
100
AcDbEntity
  8
참조1
100
AcDbLine
 10
90.52153940838579
 20
5.441074928723896
 30
0.0
 11
77.82153940838579
 21
5.441074928723896
 31
0.0
  0
SOLID
  5
13E
330
1F
100
AcDbEntity
  8
참조1
100
AcDbTrace
 10
77.82153940838579
 20
5.441074928723896
 30
0.0
 11
84.17153940838578
 21
4.425074928723896
 31
0.0
 12
84.17153940838578
 22
6.457074928723896
 32
0.0
 13
84.17153940838578
 23
6.457074928723896
 33
0.0
  0
LINE
  5
13F
330
1F
100
AcDbEntity
  8
참조1
100
AcDbLine
 10
90.52153940838579
 20
-5.438925071276109
 30
0.0
 11
77.82153940838579
 21
-5.438925071276109
 31
0.0
  0
SOLID
  5
140
330
1F
100
AcDbEntity
  8
참조1
100
AcDbTrace
 10
77.82153940838579
 20
-5.438925071276109
 30
0.0
 11
84.17153940838578
 21
-6.454925071276109
 31
0.0
 12
84.17153940838578
 22
-4.422925071276109
 32
0.0
 13
84.17153940838578
 23
-4.422925071276109
 33
0.0
  0
MTEXT
  5
141
330
1F
100
AcDbEntity
  8
참조1
100
AcDbMText
 10
87.20588954101179
 20
11.01136670591222
 30
0.0
 40
3.5
 41
0.0
 71
     1
 72
     1
  1
A
  7
SLDTEXTSTYLE0
 73
     1
 44
1.0
  0
MTEXT
  5
142
330
1F
100
AcDbEntity
  8
참조1
100
AcDbMText
 10
87.20588954101179
 20
0.1313667059122192
 30
0.0
 40
3.5
 41
0.0
 71
     1
 72
     1
  1
A
  7
SLDTEXTSTYLE0
 73
     1
 44
1.0
  0
INSERT
  5
149
330
1F
100
AcDbEntity
  8
해칭선
100
AcDbBlockReference
  2
SW_DOWELSYMBOL_0
 10
0.0
 20
0.0
 30
0.0
  0
LINE
  5
1FC
330
1F
100
AcDbEntity
  8
외형선
  6
Continuous
370
    15
100
AcDbLine
 10
-20.83781934298452
 20
3.493574928723902
 30
0.0
 11
-13.70041934298439
 21
3.493574928723902
 31
0.0
  0
LINE
  5
1FD
330
1F
100
AcDbEntity
  8
외형선
  6
Continuous
370
    15
100
AcDbLine
 10
-20.83781934298452
 20
3.493574928723902
 30
0.0
 11
-22.1078193429845
 21
4.763574928723884
 31
0.0
  0
LINE
  5
1FE
330
1F
100
AcDbEntity
  8
외형선
  6
Continuous
370
    15
100
AcDbLine
 10
-13.70041934298439
 20
3.493574928723902
 30
0.0
 11
-12.43041934298429
 21
4.763574928723884
 31
0.0
  0
LINE
  5
1FF
330
1F
100
AcDbEntity
  8
외형선
  6
Continuous
370
    15
100
AcDbLine
 10
-22.10781934298451
 20
4.763574928723891
 30
0.0
 11
-36.30286934298441
 21
4.76357492872389
 31
0.0
  0
ENDSEC
  0
SECTION
  2
OBJECTS
  0
DICTIONARY
  5
C
330
0
100
AcDbDictionary
281
     1
  3
ACAD_GROUP
350
D
  3
ACAD_IMAGE_VARS
350
16D
  3
ACAD_LAYOUT
350
1A
  3
ACAD_MLINESTYLE
350
17
  3
ACAD_PLOTSETTINGS
350
19
  3
ACAD_PLOTSTYLENAME
350
E
  3
ACAD_SCALELIST
350
47
  3
APPDATA
350
16B
  3
DWGPROPS
350
200
  0
DICTIONARY
  5
194
330
2
100
AcDbDictionary
280
     1
281
     1
  3
ACAD_LAYERSTATES
360
195
  0
DICTIONARY
  5
D
102
{ACAD_REACTORS
330
C
102
}
330
C
100
AcDbDictionary
281
     1
  0
RASTERVARIABLES
  5
16D
102
{ACAD_REACTORS
330
C
102
}
330
C
100
AcDbRasterVariables
 90
        0
 70
     1
 71
     1
 72
     1
  0
DICTIONARY
  5
1A
102
{ACAD_REACTORS
330
C
102
}
330
C
100
AcDbDictionary
281
     1
  3
Layout1
350
1E
  3
Layout2
350
26
  3
Model
350
22
  0
DICTIONARY
  5
17
102
{ACAD_REACTORS
330
C
102
}
330
C
100
AcDbDictionary
281
     1
  3
Standard
350
18
  0
DICTIONARY
  5
19
102
{ACAD_REACTORS
330
C
102
}
330
C
100
AcDbDictionary
281
     1
  0
ACDBDICTIONARYWDFLT
  5
E
102
{ACAD_REACTORS
330
C
102
}
330
C
100
AcDbDictionary
281
     1
  3
Normal
350
F
100
AcDbDictionaryWithDefault
340
F
  0
DICTIONARY
  5
47
102
{ACAD_REACTORS
330
C
102
}
330
C
100
AcDbDictionary
281
     1
  3
A0
350
48
  3
A1
350
49
  3
A2
350
4A
  3
A3
350
4B
  3
A4
350
4C
  3
A5
350
4D
  3
A6
350
4E
  3
A7
350
4F
  3
A8
350
50
  3
A9
350
51
  3
B0
350
52
  3
B1
350
53
  3
B2
350
54
  3
B3
350
55
  3
B4
350
56
  3
B5
350
57
  3
B6
350
58
  3
B7
350
59
  3
B8
350
5A
  3
B9
350
5B
  3
C0
350
5C
  3
C1
350
5D
  3
C2
350
5E
  3
C3
350
5F
  3
C4
350
60
  3
C5
350
61
  3
C6
350
62
  3
C7
350
63
  3
C8
350
64
  3
C9
350
65
  3
D0
350
66
  3
D1
350
67
  3
D2
350
68
  0
DICTIONARY
  5
16B
102
{ACAD_REACTORS
330
C
102
}
330
C
100
AcDbDictionary
281
     1
  0
XRECORD
  5
200
102
{ACAD_REACTORS
330
C
102
}
330
C
100
AcDbXrecord
280
     1
  1
DWGPROPS COOKIE
  2

  3

  4

  6

  7

  8
12016016
  9

300
=
301
=
302
=
303
=
304
=
305
=
306
=
307
=
308
=
309
=
 40
0.0
 41
2458311.090167535
 42
2458318.295523588
  1

 90
        0
  0
DICTIONARY
  5
195
102
{ACAD_REACTORS
330
194
102
}
330
194
100
AcDbDictionary
281
     1
  0
LAYOUT
  5
1E
102
{ACAD_REACTORS
330
1A
102
}
330
1A
100
AcDbPlotSettings
  1

  2
none_device
  4

  6

 40
0.0
 41
0.0
 42
0.0
 43
0.0
 44
0.0
 45
0.0
 46
0.0
 47
0.0
 48
0.0
 49
0.0
140
0.0
141
0.0
142
1.0
143
1.0
 70
   688
 72
     1
 73
     0
 74
     5
  7

 75
    16
147
1.0
148
0.0
149
0.0
100
AcDbLayout
  1
Layout1
 70
     1
 71
     1
 10
0.0
 20
0.0
 11
420.0
 21
297.0
 12
0.0
 22
0.0
 32
0.0
 14
1.000000000000000E+20
 24
1.000000000000000E+20
 34
1.000000000000000E+20
 15
-1.000000000000000E+20
 25
-1.000000000000000E+20
 35
-1.000000000000000E+20
146
0.0
 13
0.0
 23
0.0
 33
0.0
 16
1.0
 26
0.0
 36
0.0
 17
0.0
 27
1.0
 37
0.0
 76
     0
330
1B
  0
LAYOUT
  5
26
102
{ACAD_REACTORS
330
1A
102
}
330
1A
100
AcDbPlotSettings
  1

  2
none_device
  4

  6

 40
0.0
 41
0.0
 42
0.0
 43
0.0
 44
0.0
 45
0.0
 46
0.0
 47
0.0
 48
0.0
 49
0.0
140
0.0
141
0.0
142
1.0
143
1.0
 70
   688
 72
     1
 73
     0
 74
     5
  7

 75
    16
147
1.0
148
0.0
149
0.0
100
AcDbLayout
  1
Layout2
 70
     1
 71
     2
 10
0.0
 20
0.0
 11
0.0
 21
0.0
 12
0.0
 22
0.0
 32
0.0
 14
0.0
 24
0.0
 34
0.0
 15
0.0
 25
0.0
 35
0.0
146
0.0
 13
0.0
 23
0.0
 33
0.0
 16
1.0
 26
0.0
 36
0.0
 17
0.0
 27
1.0
 37
0.0
 76
     0
330
23
  0
LAYOUT
  5
22
102
{ACAD_REACTORS
330
1A
102
}
330
1A
100
AcDbPlotSettings
  1

  2
none_device
  4
ANSI_A_(11.00_x_8.50_Inches)
  6

 40
6.35
 41
19.05
 42
6.35000508
 43
19.05000254
 44
279.4
 45
215.9
 46
99.20074703430114
 47
94.97947036451137
 48
0.0
 49
0.0
140
0.0
141
0.0
142
0.0750037916119238
143
1.0
 70
  1696
 72
     0
 73
     0
 74
     0
  7

 75
     0
147
0.0235690232323232
148
0.0
149
0.0
100
AcDbLayout
  1
Model
 70
     1
 71
     0
 10
0.0
 20
0.0
 11
420.0
 21
297.0
 12
0.0
 22
0.0
 32
0.0
 14
1.000000000000000E+20
 24
1.000000000000000E+20
 34
1.000000000000000E+20
 15
-1.000000000000000E+20
 25
-1.000000000000000E+20
 35
-1.000000000000000E+20
146
0.0
 13
0.0
 23
0.0
 33
0.0
 16
1.0
 26
0.0
 36
0.0
 17
0.0
 27
1.0
 37
0.0
 76
     0
330
1F
331
29
  0
MLINESTYLE
  5
18
102
{ACAD_REACTORS
330
17
102
}
330
17
100
AcDbMlineStyle
  2
Standard
 70
     0
  3

 62
   256
 51
90.0
 52
90.0
 71
     2
 49
0.5
 62
   256
  6
BYLAYER
 49
-0.5
 62
   256
  6
BYLAYER
  0
ACDBPLACEHOLDER
  5
F
102
{ACAD_REACTORS
330
E
102
}
330
E
  0
SCALE
  5
48
102
{ACAD_REACTORS
330
47
102
}
330
47
100
AcDbScale
 70
     0
300
1:1
140
1.0
141
1.0
290
     1
  0
SCALE
  5
49
102
{ACAD_REACTORS
330
47
102
}
330
47
100
AcDbScale
 70
     0
300
1:2
140
1.0
141
2.0
290
     0
  0
SCALE
  5
4A
102
{ACAD_REACTORS
330
47
102
}
330
47
100
AcDbScale
 70
     0
300
1:4
140
1.0
141
4.0
290
     0
  0
SCALE
  5
4B
102
{ACAD_REACTORS
330
47
102
}
330
47
100
AcDbScale
 70
     0
300
1:5
140
1.0
141
5.0
290
     0
  0
SCALE
  5
4C
102
{ACAD_REACTORS
330
47
102
}
330
47
100
AcDbScale
 70
     0
300
1:8
140
1.0
141
8.0
290
     0
  0
SCALE
  5
4D
102
{ACAD_REACTORS
330
47
102
}
330
47
100
AcDbScale
 70
     0
300
1:10
140
1.0
141
10.0
290
     0
  0
SCALE
  5
4E
102
{ACAD_REACTORS
330
47
102
}
330
47
100
AcDbScale
 70
     0
300
1:16
140
1.0
141
16.0
290
     0
  0
SCALE
  5
4F
102
{ACAD_REACTORS
330
47
102
}
330
47
100
AcDbScale
 70
     0
300
1:20
140
1.0
141
20.0
290
     0
  0
SCALE
  5
50
102
{ACAD_REACTORS
330
47
102
}
330
47
100
AcDbScale
 70
     0
300
1:30
140
1.0
141
30.0
290
     0
  0
SCALE
  5
51
102
{ACAD_REACTORS
330
47
102
}
330
47
100
AcDbScale
 70
     0
300
1:40
140
1.0
141
40.0
290
     0
  0
SCALE
  5
52
102
{ACAD_REACTORS
330
47
102
}
330
47
100
AcDbScale
 70
     0
300
1:50
140
1.0
141
50.0
290
     0
  0
SCALE
  5
53
102
{ACAD_REACTORS
330
47
102
}
330
47
100
AcDbScale
 70
     0
300
1:100
140
1.0
141
100.0
290
     0
  0
SCALE
  5
54
102
{ACAD_REACTORS
330
47
102
}
330
47
100
AcDbScale
 70
     0
300
2:1
140
2.0
141
1.0
290
     0
  0
SCALE
  5
55
102
{ACAD_REACTORS
330
47
102
}
330
47
100
AcDbScale
 70
     0
300
4:1
140
4.0
141
1.0
290
     0
  0
SCALE
  5
56
102
{ACAD_REACTORS
330
47
102
}
330
47
100
AcDbScale
 70
     0
300
8:1
140
8.0
141
1.0
290
     0
  0
SCALE
  5
57
102
{ACAD_REACTORS
330
47
102
}
330
47
100
AcDbScale
 70
     0
300
10:1
140
10.0
141
1.0
290
     0
  0
SCALE
  5
58
102
{ACAD_REACTORS
330
47
102
}
330
47
100
AcDbScale
 70
     0
300
100:1
140
100.0
141
1.0
290
     0
  0
SCALE
  5
59
102
{ACAD_REACTORS
330
47
102
}
330
47
100
AcDbScale
 70
     0
300
1/128" = 1'-0"
140
0.0078125
141
12.0
290
     0
  0
SCALE
  5
5A
102
{ACAD_REACTORS
330
47
102
}
330
47
100
AcDbScale
 70
     0
300
1/64" = 1'-0"
140
0.015625
141
12.0
290
     0
  0
SCALE
  5
5B
102
{ACAD_REACTORS
330
47
102
}
330
47
100
AcDbScale
 70
     0
300
1/32" = 1'-0"
140
0.03125
141
12.0
290
     0
  0
SCALE
  5
5C
102
{ACAD_REACTORS
330
47
102
}
330
47
100
AcDbScale
 70
     0
300
1/16" = 1'-0"
140
0.0625
141
12.0
290
     0
  0
SCALE
  5
5D
102
{ACAD_REACTORS
330
47
102
}
330
47
100
AcDbScale
 70
     0
300
3/32" = 1'-0"
140
0.09375
141
12.0
290
     0
  0
SCALE
  5
5E
102
{ACAD_REACTORS
330
47
102
}
330
47
100
AcDbScale
 70
     0
300
1/8" = 1'-0"
140
0.125
141
12.0
290
     0
  0
SCALE
  5
5F
102
{ACAD_REACTORS
330
47
102
}
330
47
100
AcDbScale
 70
     0
300
3/16" = 1'-0"
140
0.1875
141
12.0
290
     0
  0
SCALE
  5
60
102
{ACAD_REACTORS
330
47
102
}
330
47
100
AcDbScale
 70
     0
300
1/4" = 1'-0"
140
0.25
141
12.0
290
     0
  0
SCALE
  5
61
102
{ACAD_REACTORS
330
47
102
}
330
47
100
AcDbScale
 70
     0
300
3/8" = 1'-0"
140
0.375
141
12.0
290
     0
  0
SCALE
  5
62
102
{ACAD_REACTORS
330
47
102
}
330
47
100
AcDbScale
 70
     0
300
1/2" = 1'-0"
140
0.5
141
12.0
290
     0
  0
SCALE
  5
63
102
{ACAD_REACTORS
330
47
102
}
330
47
100
AcDbScale
 70
     0
300
3/4" = 1'-0"
140
0.75
141
12.0
290
     0
  0
SCALE
  5
64
102
{ACAD_REACTORS
330
47
102
}
330
47
100
AcDbScale
 70
     0
300
1" = 1'-0"
140
1.0
141
12.0
290
     0
  0
SCALE
  5
65
102
{ACAD_REACTORS
330
47
102
}
330
47
100
AcDbScale
 70
     0
300
1-1/2" = 1'-0"
140
1.5
141
12.0
290
     0
  0
SCALE
  5
66
102
{ACAD_REACTORS
330
47
102
}
330
47
100
AcDbScale
 70
     0
300
3" = 1'-0"
140
3.0
141
12.0
290
     0
  0
SCALE
  5
67
102
{ACAD_REACTORS
330
47
102
}
330
47
100
AcDbScale
 70
     0
300
6" = 1'-0"
140
6.0
141
12.0
290
     0
  0
SCALE
  5
68
102
{ACAD_REACTORS
330
47
102
}
330
47
100
AcDbScale
 70
     0
300
1'-0" = 1'-0"
140
12.0
141
12.0
290
     0
  0
ENDSEC
  0
EOF
