  0
SECTION
  2
HEADER
  9
$ACADVER
  1
AC1015
  9
$ACADMAINTVER
 70
     6
  9
$DWGCODEPAGE
  3
ANSI_949
  9
$INSBASE
 10
0.0
 20
0.0
 30
0.0
  9
$EXTMIN
 10
1.000000000000000E+20
 20
1.000000000000000E+20
 30
1.000000000000000E+20
  9
$EXTMAX
 10
-1.000000000000000E+20
 20
-1.000000000000000E+20
 30
-1.000000000000000E+20
  9
$LIMMIN
 10
0.0
 20
0.0
  9
$LIMMAX
 10
420.0
 20
297.0
  9
$ORTHOMODE
 70
     0
  9
$REGENMODE
 70
     1
  9
$FILLMODE
 70
     1
  9
$QTEXTMODE
 70
     0
  9
$MIRRTEXT
 70
     1
  9
$LTSCALE
 40
1.0
  9
$ATTMODE
 70
     1
  9
$TEXTSIZE
 40
3.5
  9
$TRACEWID
 40
1.0
  9
$TEXTSTYLE
  7
Standard
  9
$CLAYER
  8
0
  9
$CELTYPE
  6
ByLayer
  9
$CECOLOR
 62
   256
  9
$CELTSCALE
 40
1.0
  9
$DISPSILH
 70
     0
  9
$DIMSCALE
 40
1.0
  9
$DIMASZ
 40
3.302
  9
$DIMEXO
 40
1.0
  9
$DIMDLI
 40
3.75
  9
$DIMRND
 40
0.0
  9
$DIMDLE
 40
0.0
  9
$DIMEXE
 40
1.0
  9
$DIMTP
 40
0.0
  9
$DIMTM
 40
0.0
  9
$DIMTXT
 40
3.5
  9
$DIMCEN
 40
2.5
  9
$DIMTSZ
 40
0.0
  9
$DIMTOL
 70
     0
  9
$DIMLIM
 70
     0
  9
$DIMTIH
 70
     1
  9
$DIMTOH
 70
     1
  9
$DIMSE1
 70
     0
  9
$DIMSE2
 70
     0
  9
$DIMTAD
 70
     1
  9
$DIMZIN
 70
     0
  9
$DIMBLK
  1

  9
$DIMASO
 70
     1
  9
$DIMSHO
 70
     1
  9
$DIMPOST
  1

  9
$DIMAPOST
  1

  9
$DIMALT
 70
     0
  9
$DIMALTD
 70
     3
  9
$DIMALTF
 40
0.0393700787401575
  9
$DIMLFAC
 40
1.0
  9
$DIMTOFL
 70
     1
  9
$DIMTVP
 40
0.0
  9
$DIMTIX
 70
     0
  9
$DIMSOXD
 70
     0
  9
$DIMSAH
 70
     0
  9
$DIMBLK1
  1

  9
$DIMBLK2
  1

  9
$DIMSTYLE
  2
ISO-25
  9
$DIMCLRD
 70
     0
  9
$DIMCLRE
 70
     0
  9
$DIMCLRT
 70
     0
  9
$DIMTFAC
 40
1.0
  9
$DIMGAP
 40
1.524
  9
$DIMJUST
 70
     0
  9
$DIMSD1
 70
     0
  9
$DIMSD2
 70
     0
  9
$DIMTOLJ
 70
     0
  9
$DIMTZIN
 70
     0
  9
$DIMALTZ
 70
     0
  9
$DIMALTTZ
 70
     0
  9
$DIMUPT
 70
     0
  9
$DIMDEC
 70
     2
  9
$DIMTDEC
 70
     2
  9
$DIMALTU
 70
     2
  9
$DIMALTTD
 70
     3
  9
$DIMTXSTY
  7
Standard
  9
$DIMAUNIT
 70
     0
  9
$DIMADEC
 70
     2
  9
$DIMALTRND
 40
0.0
  9
$DIMAZIN
 70
     0
  9
$DIMDSEP
 70
    44
  9
$DIMATFIT
 70
     3
  9
$DIMFRAC
 70
     0
  9
$DIMLDRBLK
  1

  9
$DIMLUNIT
 70
     2
  9
$DIMLWD
 70
    -2
  9
$DIMLWE
 70
    -2
  9
$DIMTMOVE
 70
     0
  9
$LUNITS
 70
     2
  9
$LUPREC
 70
     2
  9
$SKETCHINC
 40
1.0
  9
$FILLETRAD
 40
10.0
  9
$AUNITS
 70
     0
  9
$AUPREC
 70
     2
  9
$MENU
  1
.
  9
$ELEVATION
 40
0.0
  9
$PELEVATION
 40
0.0
  9
$THICKNESS
 40
0.0
  9
$LIMCHECK
 70
     0
  9
$CHAMFERA
 40
0.0
  9
$CHAMFERB
 40
0.0
  9
$CHAMFERC
 40
0.0
  9
$CHAMFERD
 40
0.0
  9
$SKPOLY
 70
     0
  9
$TDCREATE
 40
2458311.465379699
  9
$TDUCREATE
 40
2458311.090379699
  9
$TDUPDATE
 40
2458318.676513958
  9
$TDUUPDATE
 40
2458318.301513958
  9
$TDINDWG
 40
0.0013996991
  9
$TDUSRTIMER
 40
2458318.301388194
  9
$USRTIMER
 70
     1
  9
$ANGBASE
 50
0.0
  9
$ANGDIR
 70
     0
  9
$PDMODE
 70
     0
  9
$PDSIZE
 40
-1.0
  9
$PLINEWID
 40
0.0
  9
$SPLFRAME
 70
     0
  9
$SPLINETYPE
 70
     6
  9
$SPLINESEGS
 70
     8
  9
$HANDSEED
  5
1FE
  9
$SURFTAB1
 70
     6
  9
$SURFTAB2
 70
     6
  9
$SURFTYPE
 70
     6
  9
$SURFU
 70
     6
  9
$SURFV
 70
     6
  9
$UCSBASE
  2

  9
$UCSNAME
  2

  9
$UCSORG
 10
0.0
 20
0.0
 30
0.0
  9
$UCSXDIR
 10
1.0
 20
0.0
 30
0.0
  9
$UCSYDIR
 10
0.0
 20
1.0
 30
0.0
  9
$UCSORTHOREF
  2

  9
$UCSORTHOVIEW
 70
     0
  9
$UCSORGTOP
 10
0.0
 20
0.0
 30
0.0
  9
$UCSORGBOTTOM
 10
0.0
 20
0.0
 30
0.0
  9
$UCSORGLEFT
 10
0.0
 20
0.0
 30
0.0
  9
$UCSORGRIGHT
 10
0.0
 20
0.0
 30
0.0
  9
$UCSORGFRONT
 10
0.0
 20
0.0
 30
0.0
  9
$UCSORGBACK
 10
0.0
 20
0.0
 30
0.0
  9
$PUCSBASE
  2

  9
$PUCSNAME
  2

  9
$PUCSORG
 10
0.0
 20
0.0
 30
0.0
  9
$PUCSXDIR
 10
1.0
 20
0.0
 30
0.0
  9
$PUCSYDIR
 10
0.0
 20
1.0
 30
0.0
  9
$PUCSORTHOREF
  2

  9
$PUCSORTHOVIEW
 70
     0
  9
$PUCSORGTOP
 10
0.0
 20
0.0
 30
0.0
  9
$PUCSORGBOTTOM
 10
0.0
 20
0.0
 30
0.0
  9
$PUCSORGLEFT
 10
0.0
 20
0.0
 30
0.0
  9
$PUCSORGRIGHT
 10
0.0
 20
0.0
 30
0.0
  9
$PUCSORGFRONT
 10
0.0
 20
0.0
 30
0.0
  9
$PUCSORGBACK
 10
0.0
 20
0.0
 30
0.0
  9
$USERI1
 70
     0
  9
$USERI2
 70
     0
  9
$USERI3
 70
     0
  9
$USERI4
 70
     0
  9
$USERI5
 70
     0
  9
$USERR1
 40
0.0
  9
$USERR2
 40
0.0
  9
$USERR3
 40
0.0
  9
$USERR4
 40
0.0
  9
$USERR5
 40
0.0
  9
$WORLDVIEW
 70
     1
  9
$SHADEDGE
 70
     3
  9
$SHADEDIF
 70
    70
  9
$TILEMODE
 70
     1
  9
$MAXACTVP
 70
    64
  9
$PINSBASE
 10
0.0
 20
0.0
 30
0.0
  9
$PLIMCHECK
 70
     0
  9
$PEXTMIN
 10
1.000000000000000E+20
 20
1.000000000000000E+20
 30
1.000000000000000E+20
  9
$PEXTMAX
 10
-1.000000000000000E+20
 20
-1.000000000000000E+20
 30
-1.000000000000000E+20
  9
$PLIMMIN
 10
0.0
 20
0.0
  9
$PLIMMAX
 10
0.0
 20
0.0
  9
$UNITMODE
 70
     0
  9
$VISRETAIN
 70
     1
  9
$PLINEGEN
 70
     0
  9
$PSLTSCALE
 70
     1
  9
$TREEDEPTH
 70
  3020
  9
$CMLSTYLE
  2
Standard
  9
$CMLJUST
 70
     0
  9
$CMLSCALE
 40
20.0
  9
$PROXYGRAPHICS
 70
     1
  9
$MEASUREMENT
 70
     1
  9
$CELWEIGHT
370
    -1
  9
$ENDCAPS
280
     0
  9
$JOINSTYLE
280
     0
  9
$LWDISPLAY
290
     1
  9
$INSUNITS
 70
     4
  9
$HYPERLINKBASE
  1

  9
$STYLESHEET
  1

  9
$XEDIT
290
     1
  9
$CEPSNTYPE
380
     0
  9
$PSTYLEMODE
290
     1
  9
$FINGERPRINTGUID
  2
{9323E51F-3FED-4452-880B-60B8D3FA6355}
  9
$VERSIONGUID
  2
{FAEB1C32-E019-11D5-929B-00C0DF256EC4}
  9
$EXTNAMES
290
     1
  9
$PSVPSCALE
 40
0.0
  9
$OLESTARTUP
290
     0
  0
ENDSEC
  0
SECTION
  2
CLASSES
  0
CLASS
  1
ACDBDICTIONARYWDFLT
  2
AcDbDictionaryWithDefault
  3
ObjectDBX Classes
 90
        0
280
     0
281
     0
  0
CLASS
  1
VISUALSTYLE
  2
AcDbVisualStyle
  3
ObjectDBX Classes
 90
     4095
280
     0
281
     0
  0
CLASS
  1
MATERIAL
  2
AcDbMaterial
  3
ObjectDBX Classes
 90
     1153
280
     0
281
     0
  0
CLASS
  1
SCALE
  2
AcDbScale
  3
ObjectDBX Classes
 90
     1153
280
     0
281
     0
  0
CLASS
  1
SUN
  2
AcDbSun
  3
SCENEOE
 90
     1153
280
     0
281
     0
  0
CLASS
  1
ACDBPLACEHOLDER
  2
AcDbPlaceHolder
  3
ObjectDBX Classes
 90
        0
280
     0
281
     0
  0
CLASS
  1
LAYOUT
  2
AcDbLayout
  3
ObjectDBX Classes
 90
        0
280
     0
281
     0
  0
CLASS
  1
TABLESTYLE
  2
AcDbTableStyle
  3
ObjectDBX Classes
 90
     4095
280
     0
281
     0
  0
CLASS
  1
MLEADERSTYLE
  2
AcDbMLeaderStyle
  3
ACDB_MLEADERSTYLE_CLASS
 90
     4095
280
     0
281
     0
  0
CLASS
  1
RASTERVARIABLES
  2
AcDbRasterVariables
  3
ISM
 90
        0
280
     0
281
     0
  0
ENDSEC
  0
SECTION
  2
TABLES
  0
TABLE
  2
VPORT
  5
8
330
0
100
AcDbSymbolTable
 70
     1
  0
VPORT
  5
29
330
8
100
AcDbSymbolTableRecord
100
AcDbViewportTableRecord
  2
*Active
 70
     0
 10
0.0
 20
0.0
 11
1.0
 21
1.0
 12
17.83903623387212
 22
2.859287351768856
 13
0.0
 23
0.0
 14
10.0
 24
10.0
 15
10.0
 25
10.0
 16
0.0
 26
0.0
 36
1.0
 17
0.0
 27
0.0
 37
0.0
 40
241.9835310056219
 41
1.740812379110251
 42
50.0
 43
0.0
 44
0.0
 50
0.0
 51
0.0
 71
    16
 72
  2000
 73
     1
 74
     3
 75
     0
 76
     0
 77
     0
 78
     0
281
     0
 65
     1
110
0.0
120
0.0
130
0.0
111
1.0
121
0.0
131
0.0
112
0.0
122
1.0
132
0.0
 79
     0
146
0.0
  0
ENDTAB
  0
TABLE
  2
LTYPE
  5
5
330
0
100
AcDbSymbolTable
 70
     6
  0
LTYPE
  5
14
330
5
100
AcDbSymbolTableRecord
100
AcDbLinetypeTableRecord
  2
ByBlock
 70
     0
  3

 72
    65
 73
     0
 40
0.0
  0
LTYPE
  5
15
330
5
100
AcDbSymbolTableRecord
100
AcDbLinetypeTableRecord
  2
ByLayer
 70
     0
  3

 72
    65
 73
     0
 40
0.0
  0
LTYPE
  5
16
330
5
100
AcDbSymbolTableRecord
100
AcDbLinetypeTableRecord
  2
Continuous
 70
     0
  3
Solid line
 72
    65
 73
     0
 40
0.0
  0
LTYPE
  5
6A
330
5
100
AcDbSymbolTableRecord
100
AcDbLinetypeTableRecord
  2
HIDDEN
 70
     0
  3
Hidden __ __ __ __ __ __ __ __ __ __ __ __ __ __
 72
    65
 73
     2
 40
1.905
 49
1.27
 74
     0
 49
-0.635
 74
     0
  0
LTYPE
  5
6B
330
5
100
AcDbSymbolTableRecord
100
AcDbLinetypeTableRecord
  2
PHANTOM
 70
     0
  3
Phantom ______  __  __  ______  __  __  ______
 72
    65
 73
     6
 40
12.7
 49
6.35
 74
     0
 49
-1.27
 74
     0
 49
1.27
 74
     0
 49
-1.27
 74
     0
 49
1.27
 74
     0
 49
-1.27
 74
     0
  0
LTYPE
  5
6C
330
5
100
AcDbSymbolTableRecord
100
AcDbLinetypeTableRecord
  2
CENTER
 70
     0
  3
Center ____ _ ____ _ ____ _ ____ _ ____ _ ____
 72
    65
 73
     4
 40
10.16
 49
6.35
 74
     0
 49
-1.27
 74
     0
 49
1.27
 74
     0
 49
-1.27
 74
     0
  0
LTYPE
  5
6D
330
5
100
AcDbSymbolTableRecord
100
AcDbLinetypeTableRecord
  2
CENTERX2
 70
     0
  3
Center (2x) ________  __  ________  __  _____
 72
    65
 73
     4
 40
20.32
 49
12.7
 74
     0
 49
-2.54
 74
     0
 49
2.54
 74
     0
 49
-2.54
 74
     0
  0
LTYPE
  5
6E
330
5
100
AcDbSymbolTableRecord
100
AcDbLinetypeTableRecord
  2
DOT2
 70
     0
  3
Dot (.5x) ........................................
 72
    65
 73
     2
 40
0.635
 49
0.0
 74
     0
 49
-0.635
 74
     0
  0
ENDTAB
  0
TABLE
  2
LAYER
  5
2
102
{ACAD_XDICTIONARY
360
190
102
}
330
0
100
AcDbSymbolTable
 70
    18
  0
LAYER
  5
10
330
2
100
AcDbSymbolTableRecord
100
AcDbLayerTableRecord
  2
0
 70
     0
 62
     7
  6
Continuous
370
    -3
390
F
  0
LAYER
  5
6F
330
2
100
AcDbSymbolTableRecord
100
AcDbLayerTableRecord
  2
FORMAT
 70
     0
 62
     2
  6
Continuous
370
    -3
390
F
  0
LAYER
  5
70
330
2
100
AcDbSymbolTableRecord
100
AcDbLayerTableRecord
  2
외형선
 70
     0
 62
     4
  6
Continuous
370
    30
390
F
  0
LAYER
  5
71
330
2
100
AcDbSymbolTableRecord
100
AcDbLayerTableRecord
  2
숨은선
 70
     0
 62
     2
  6
HIDDEN
370
    15
390
F
  0
LAYER
  5
72
330
2
100
AcDbSymbolTableRecord
100
AcDbLayerTableRecord
  2
중심선
 70
     0
 62
     1
  6
CENTERX2
370
    -3
390
F
  0
LAYER
  5
73
330
2
100
AcDbSymbolTableRecord
100
AcDbLayerTableRecord
  2
파단선
 70
     0
 62
     4
  6
Continuous
370
    -3
390
F
  0
LAYER
  5
74
330
2
100
AcDbSymbolTableRecord
100
AcDbLayerTableRecord
  2
해칭선
 70
     0
 62
   100
  6
Continuous
370
    -3
390
F
  0
LAYER
  5
75
330
2
100
AcDbSymbolTableRecord
100
AcDbLayerTableRecord
  2
가는실선
 70
     0
 62
     4
  6
Continuous
370
    -3
390
F
  0
LAYER
  5
76
330
2
100
AcDbSymbolTableRecord
100
AcDbLayerTableRecord
  2
치수_보조선
 70
     0
 62
     4
  6
Continuous
370
    -3
390
F
  0
LAYER
  5
77
330
2
100
AcDbSymbolTableRecord
100
AcDbLayerTableRecord
  2
치수문자_일반주서
 70
     0
 62
     7
  6
Continuous
370
    15
390
F
  0
LAYER
  5
78
330
2
100
AcDbSymbolTableRecord
100
AcDbLayerTableRecord
  2
개별주서
 70
     0
 62
   100
  6
Continuous
370
    30
390
F
  0
LAYER
  5
79
330
2
100
AcDbSymbolTableRecord
100
AcDbLayerTableRecord
  2
중간선
 70
     0
 62
     2
  6
Continuous
370
    15
390
F
  0
LAYER
  5
7A
330
2
100
AcDbSymbolTableRecord
100
AcDbLayerTableRecord
  2
윤곽선
 70
     0
 62
     3
  6
Continuous
370
    40
390
F
  0
LAYER
  5
7B
330
2
100
AcDbSymbolTableRecord
100
AcDbLayerTableRecord
  2
중심마크
 70
     0
 62
   100
  6
Continuous
370
    30
390
F
  0
LAYER
  5
7C
330
2
100
AcDbSymbolTableRecord
100
AcDbLayerTableRecord
  2
가상선
 70
     0
 62
     4
  6
PHANTOM
370
    -3
390
F
  0
LAYER
  5
7D
330
2
100
AcDbSymbolTableRecord
100
AcDbLayerTableRecord
  2
특수지정선
 70
     0
 62
     5
  6
CENTERX2
370
    60
390
F
  0
LAYER
  5
7E
330
2
100
AcDbSymbolTableRecord
100
AcDbLayerTableRecord
  2
참조1
 70
     0
 62
    -4
  6
Continuous
370
    -3
390
F
  0
LAYER
  5
197
330
2
100
AcDbSymbolTableRecord
100
AcDbLayerTableRecord
  2
Defpoints
 70
     0
 62
     7
  6
Continuous
290
     0
370
    -3
390
F
  0
ENDTAB
  0
TABLE
  2
STYLE
  5
3
330
0
100
AcDbSymbolTable
 70
     2
  0
STYLE
  5
11
330
3
100
AcDbSymbolTableRecord
100
AcDbTextStyleTableRecord
  2
Standard
 70
     0
 40
0.0
 41
1.0
 50
0.0
 71
     0
 42
3.5
  3
txt
  4

  0
STYLE
  5
94
330
3
100
AcDbSymbolTableRecord
100
AcDbTextStyleTableRecord
  2
SLDTEXTSTYLE0
 70
     0
 40
0.0
 41
0.75
 50
0.0
 71
     0
 42
3.5
  3
TXT
  4

  0
ENDTAB
  0
TABLE
  2
VIEW
  5
6
330
0
100
AcDbSymbolTable
 70
     0
  0
ENDTAB
  0
TABLE
  2
UCS
  5
7
330
0
100
AcDbSymbolTable
 70
     0
  0
ENDTAB
  0
TABLE
  2
APPID
  5
9
330
0
100
AcDbSymbolTable
 70
     1
  0
APPID
  5
12
330
9
100
AcDbSymbolTableRecord
100
AcDbRegAppTableRecord
  2
ACAD
 70
     0
  0
ENDTAB
  0
TABLE
  2
DIMSTYLE
  5
A
330
0
100
AcDbSymbolTable
 70
     3
100
AcDbDimStyleTable
  0
DIMSTYLE
105
27
330
A
100
AcDbSymbolTableRecord
100
AcDbDimStyleTableRecord
  2
ISO-25
 70
     0
 41
2.5
 42
0.625
 43
3.75
 44
1.25
 73
     0
 74
     0
 77
     1
 78
     8
140
2.5
141
2.5
143
0.03937007874016
147
0.625
171
     3
172
     1
178
     0
271
     2
272
     2
274
     3
278
    44
283
     0
284
     8
340
11
  0
DIMSTYLE
105
E9
102
{ACAD_REACTORS
330
E8
330
FD
330
112
330
125
102
}
330
A
100
AcDbSymbolTableRecord
100
AcDbDimStyleTableRecord
  2
SLDDIMSTYLE0
 70
     0
 41
3.302
 44
0.0
 45
0.000000001
 73
     0
 74
     0
 77
     1
 78
    12
 79
     3
140
3.5
143
0.0393700787401575
147
0.875
148
0.000000001
170
     1
172
     1
173
     1
178
     0
271
     2
272
     2
276
     2
284
    12
289
     0
340
94
  0
DIMSTYLE
105
FE
330
A
100
AcDbSymbolTableRecord
100
AcDbDimStyleTableRecord
  2
SLDDIMSTYLE1
 70
     0
 41
3.302
 44
0.0
 45
0.000000001
 73
     0
 74
     0
 77
     1
 78
    12
 79
     3
140
3.5
143
0.0393700787401575
147
0.875
148
0.000000001
170
     1
173
     1
178
     0
271
     2
272
     2
276
     2
284
    12
340
94
  0
ENDTAB
  0
TABLE
  2
BLOCK_RECORD
  5
1
330
0
100
AcDbSymbolTable
 70
     8
  0
BLOCK_RECORD
  5
1F
330
1
100
AcDbSymbolTableRecord
100
AcDbBlockTableRecord
  2
*Model_Space
340
22
  0
BLOCK_RECORD
  5
1B
330
1
100
AcDbSymbolTableRecord
100
AcDbBlockTableRecord
  2
*Paper_Space
340
1E
  0
BLOCK_RECORD
  5
23
330
1
100
AcDbSymbolTableRecord
100
AcDbBlockTableRecord
  2
*Paper_Space0
340
26
  0
BLOCK_RECORD
  5
7F
330
1
100
AcDbSymbolTableRecord
100
AcDbBlockTableRecord
  2
블럭10
340
0
102
{BLKREFS
331
E1
102
}
  0
BLOCK_RECORD
  5
EA
330
1
100
AcDbSymbolTableRecord
100
AcDbBlockTableRecord
  2
_D
340
0
  0
BLOCK_RECORD
  5
FF
330
1
100
AcDbSymbolTableRecord
100
AcDbBlockTableRecord
  2
_D_1
340
0
  0
BLOCK_RECORD
  5
113
330
1
100
AcDbSymbolTableRecord
100
AcDbBlockTableRecord
  2
_D_2
340
0
  0
BLOCK_RECORD
  5
126
330
1
100
AcDbSymbolTableRecord
100
AcDbBlockTableRecord
  2
_D_3
340
0
  0
BLOCK_RECORD
  5
13F
330
1
100
AcDbSymbolTableRecord
100
AcDbBlockTableRecord
  2
SW_DOWELSYMBOL_0
340
0
102
{BLKREFS
331
145
102
}
  0
ENDTAB
  0
ENDSEC
  0
SECTION
  2
BLOCKS
  0
BLOCK
  5
20
330
1F
100
AcDbEntity
  8
0
100
AcDbBlockBegin
  2
*Model_Space
 70
     0
 10
0.0
 20
0.0
 30
0.0
  3
*Model_Space
  1
*Model_Space
  0
ENDBLK
  5
21
330
1F
100
AcDbEntity
  8
0
100
AcDbBlockEnd
  0
BLOCK
  5
1C
330
1B
100
AcDbEntity
 67
     1
  8
0
100
AcDbBlockBegin
  2
*Paper_Space
 70
     0
 10
0.0
 20
0.0
 30
0.0
  3
*Paper_Space
  1
*Paper_Space
  0
ENDBLK
  5
1D
330
1B
100
AcDbEntity
 67
     1
  8
0
100
AcDbBlockEnd
  0
BLOCK
  5
24
330
23
100
AcDbEntity
  8
0
100
AcDbBlockBegin
  2
*Paper_Space0
 70
     0
 10
0.0
 20
0.0
 30
0.0
  3
*Paper_Space0
  1
*Paper_Space0
  0
ENDBLK
  5
25
330
23
100
AcDbEntity
  8
0
100
AcDbBlockEnd
  0
BLOCK
  5
80
330
7F
100
AcDbEntity
  8
0
100
AcDbBlockBegin
  2
블럭10
 70
     2
 10
0.0
 20
0.0
 30
0.0
  3
블럭10
  1
블럭10
  0
ELLIPSE
  5
82
330
7F
100
AcDbEntity
  8
중심선
100
AcDbEllipse
 10
20.54032771741204
 20
12.0471743016438
 30
0.0
 11
6.600054785286829
 21
-1.261213355974178E-13
 31
0.0
210
0.0
220
0.0
230
1.0
 40
0.636358354079598
 41
0.9219305317359503
 42
6.513795318482858
  0
ELLIPSE
  5
83
330
7F
100
AcDbEntity
  8
중심선
100
AcDbEllipse
 10
20.54032771746488
 20
12.04717430159265
 30
0.0
 11
3.960054785062283
 21
1.540847449632565E-10
 31
0.0
210
0.0
220
0.0
230
1.0
 40
0.3939339440162632
 41
1.131841032648279
 42
5.62031148352944
  0
LINE
  5
84
330
7F
100
AcDbEntity
  8
중심선
100
AcDbLine
 10
2.268634060543552
 20
16.24717430164393
 30
0.0
 11
5.714909304380834
 21
16.24717430164393
 31
0.0
  0
LINE
  5
85
330
7F
100
AcDbEntity
  8
중심선
100
AcDbLine
 10
5.245725140726316
 20
7.84717430164391
 30
0.0
 11
8.692000384563599
 21
7.84717430164391
 31
0.0
  0
LINE
  5
86
330
7F
100
AcDbEntity
  8
중심선
100
AcDbLine
 10
15.74043728645272
 20
16.24717430164393
 30
0.0
 11
8.692000384563599
 21
7.84717430164391
 31
0.0
  0
LINE
  5
87
330
7F
100
AcDbEntity
  8
중심선
100
AcDbLine
 10
0.1404042013395286
 20
13.71084872107135
 30
0.0
 11
3.58671253028996
 21
13.71088815037384
 31
0.0
  0
LINE
  5
88
330
7F
100
AcDbEntity
  8
중심선
100
AcDbLine
 10
2.750260043222114
 20
10.84717430164391
 30
0.0
 11
6.196535287059397
 21
10.84717430164391
 31
0.0
  0
LINE
  5
89
330
7F
100
AcDbEntity
  8
중심선
100
AcDbLine
 10
12.29416204261559
 20
16.24717430164393
 30
0.0
 11
5.245725140726316
 21
7.84717430164391
 31
0.0
  0
LINE
  5
8A
330
7F
100
AcDbEntity
  8
중심선
100
AcDbLine
 10
10.72767329541681
 20
16.24717430164393
 30
0.0
 11
6.196535287059397
 21
10.84717430164391
 31
0.0
  0
LINE
  5
8B
330
7F
100
AcDbEntity
  8
중심선
100
AcDbLine
 10
7.28139805157953
 20
16.24717430164393
 30
0.0
 11
2.750260043222114
 21
10.84717430164391
 31
0.0
  0
LINE
  5
8C
330
7F
100
AcDbEntity
  8
중심선
100
AcDbLine
 10
5.714909304380834
 20
16.24717430164393
 30
0.0
 11
3.58671253028996
 21
13.71088815037384
 31
0.0
  0
LINE
  5
8D
330
7F
100
AcDbEntity
  8
중심선
100
AcDbLine
 10
2.268634060543552
 20
16.24717430164393
 30
0.0
 11
0.1404042013395286
 21
13.71084872107135
 31
0.0
  0
LINE
  5
8E
330
7F
100
AcDbEntity
  8
중심선
100
AcDbLine
 10
7.28139805157953
 20
16.24717430164393
 30
0.0
 11
10.72767329541681
 21
16.24717430164393
 31
0.0
  0
LINE
  5
8F
330
7F
100
AcDbEntity
  8
중심선
100
AcDbLine
 10
12.29416204261559
 20
16.24717430164393
 30
0.0
 11
15.74043728645272
 21
16.24717430164393
 31
0.0
  0
LINE
  5
90
330
7F
100
AcDbEntity
  8
중심선
100
AcDbLine
 10
19.22036997980202
 20
11.08717430171403
 30
0.0
 11
23.66174974927406
 21
11.08717430171406
 31
0.0
  0
LINE
  5
91
330
7F
100
AcDbEntity
  8
중심선
100
AcDbLine
 10
19.22039502424796
 20
13.00717430171391
 30
0.0
 11
19.22036997980202
 21
11.08717430171403
 31
0.0
  0
LINE
  5
92
330
7F
100
AcDbEntity
  8
중심선
100
AcDbLine
 10
19.22039502424796
 20
13.00717430171391
 30
0.0
 11
26.96566020931264
 21
13.00717430171391
 31
0.0
  0
LINE
  5
93
330
7F
100
AcDbEntity
  8
중심선
100
AcDbLine
 10
22.22332737316547
 20
13.45928029700563
 30
0.0
 11
24.52862924686651
 21
15.39360700705356
 31
0.0
  0
ATTDEF
  5
95
330
7F
100
AcDbEntity
  8
FORMAT
 62
     2
100
AcDbText
 10
4.408487351596664
 20
2.075366912832191
 30
0.0
 40
4.233333333333333
  1
E1071020
 41
0.75
  7
SLDTEXTSTYLE0
 11
4.408487351596664
 21
-0.0412997538344756
 31
0.0
100
AcDbAttributeDefinition
  3

  2
AUTOATTR0
 70
     0
 74
     1
  0
ENDBLK
  5
81
330
7F
100
AcDbEntity
  8
0
100
AcDbBlockEnd
  0
BLOCK
  5
EB
330
EA
100
AcDbEntity
  8
0
100
AcDbBlockBegin
  2
_D
 70
     0
 10
0.0
 20
0.0
 30
0.0
  3
_D
  1
_D
  0
LINE
  5
ED
330
EA
100
AcDbEntity
  8
치수문자_일반주서
 62
     0
370
    -2
100
AcDbLine
 10
-37.74018467149222
 20
4.763574928723897
 30
0.0
 11
-51.17768467149225
 21
4.763574928723846
 31
0.0
  0
LINE
  5
EE
330
EA
100
AcDbEntity
  8
치수문자_일반주서
 62
     0
370
    -2
100
AcDbLine
 10
-37.74018467149222
 20
-4.761425071276109
 30
0.0
 11
-51.17768467149222
 21
-4.761425071276159
 31
0.0
  0
LINE
  5
EF
330
EA
100
AcDbEntity
  8
치수문자_일반주서
 62
     0
370
    -2
100
AcDbLine
 10
-51.17768467149224
 20
1.461574928723847
 30
0.0
 11
-51.17768467149223
 21
-1.45942507127616
 31
0.0
  0
SOLID
  5
F0
330
EA
100
AcDbEntity
  8
치수문자_일반주서
 62
     0
100
AcDbTrace
 10
-50.6273513381589
 20
1.461574928723849
 30
0.0
 11
-51.72801800482557
 21
1.461574928723845
 31
0.0
 12
-51.17768467149225
 22
4.763574928723846
 32
0.0
 13
-51.17768467149225
 23
4.763574928723846
 33
0.0
  0
SOLID
  5
F1
330
EA
100
AcDbEntity
  8
치수문자_일반주서
 62
     0
100
AcDbTrace
 10
-51.72801800482556
 20
-1.459425071276162
 30
0.0
 11
-50.6273513381589
 21
-1.459425071276158
 31
0.0
 12
-51.17768467149222
 22
-4.761425071276159
 32
0.0
 13
-51.17768467149222
 23
-4.761425071276159
 33
0.0
  0
MTEXT
  5
F2
330
EA
100
AcDbEntity
  8
치수문자_일반주서
 62
     0
100
AcDbMText
 10
-55.55268467149224
 20
0.0010749287238838
 30
0.0
 40
3.5
 41
0.0
 71
     2
 72
     1
  1
\A1;%%c9.53 [3/8]
  7
SLDTEXTSTYLE0
 11
-3.729883127349605E-15
 21
1.0
 31
0.0
 73
     1
 44
1.0
  0
POINT
  5
F3
330
EA
100
AcDbEntity
  8
Defpoints
 62
     0
100
AcDbPoint
 10
-37.67768467149222
 20
4.763574928723897
 30
0.0
  0
POINT
  5
F4
330
EA
100
AcDbEntity
  8
Defpoints
 62
     0
100
AcDbPoint
 10
-37.67768467149222
 20
-4.761425071276109
 30
0.0
  0
POINT
  5
F5
330
EA
100
AcDbEntity
  8
Defpoints
 62
     0
100
AcDbPoint
 10
-51.17768467149222
 20
-4.761425071276159
 30
0.0
  0
ENDBLK
  5
EC
330
EA
100
AcDbEntity
  8
0
100
AcDbBlockEnd
  0
BLOCK
  5
100
330
FF
100
AcDbEntity
  8
0
100
AcDbBlockBegin
  2
_D_1
 70
     0
 10
0.0
 20
0.0
 30
0.0
  3
_D_1
  1
_D_1
  0
LINE
  5
102
330
FF
100
AcDbEntity
  8
치수문자_일반주서
 62
     0
370
    -2
100
AcDbLine
 10
40.88731532850772
 20
4.032324928723899
 30
0.0
 11
40.88731532850772
 21
17.14281233248948
 31
0.0
  0
LINE
  5
103
330
FF
100
AcDbEntity
  8
치수문자_일반주서
 62
     0
370
    -2
100
AcDbLine
 10
5.96231532850779
 20
3.164052684674542
 30
0.0
 11
5.962315328507792
 21
17.14281233248948
 31
0.0
  0
LINE
  5
104
330
FF
100
AcDbEntity
  8
치수문자_일반주서
 62
     0
370
    -2
100
AcDbLine
 10
37.58531532850772
 20
17.14281233248948
 30
0.0
 11
9.264315328507791
 21
17.14281233248948
 31
0.0
  0
SOLID
  5
105
330
FF
100
AcDbEntity
  8
치수문자_일반주서
 62
     0
100
AcDbTrace
 10
37.58531532850772
 20
16.59247899915615
 30
0.0
 11
37.58531532850772
 21
17.69314566582282
 31
0.0
 12
40.88731532850772
 22
17.14281233248948
 32
0.0
 13
40.88731532850772
 23
17.14281233248948
 33
0.0
  0
SOLID
  5
106
330
FF
100
AcDbEntity
  8
치수문자_일반주서
 62
     0
100
AcDbTrace
 10
9.264315328507791
 20
17.69314566582282
 30
0.0
 11
9.264315328507791
 21
16.59247899915615
 31
0.0
 12
5.962315328507792
 22
17.14281233248948
 32
0.0
 13
5.962315328507792
 23
17.14281233248948
 33
0.0
  0
MTEXT
  5
107
330
FF
100
AcDbEntity
  8
치수문자_일반주서
 62
     0
100
AcDbMText
 10
23.4248153285078
 20
21.51781233248948
 30
0.0
 40
3.5
 41
0.0
 71
     2
 72
     1
  1
\A1;34.93 [1 3/8]
  7
SLDTEXTSTYLE0
 73
     1
 44
1.0
  0
POINT
  5
108
330
FF
100
AcDbEntity
  8
Defpoints
 62
     0
100
AcDbPoint
 10
40.88731532850772
 20
3.969824928723899
 30
0.0
  0
POINT
  5
109
330
FF
100
AcDbEntity
  8
Defpoints
 62
     0
100
AcDbPoint
 10
5.96231532850779
 20
3.101552684674542
 30
0.0
  0
POINT
  5
10A
330
FF
100
AcDbEntity
  8
Defpoints
 62
     0
100
AcDbPoint
 10
5.96231532850779
 20
17.14281233248948
 30
0.0
  0
ENDBLK
  5
101
330
FF
100
AcDbEntity
  8
0
100
AcDbBlockEnd
  0
BLOCK
  5
114
330
113
100
AcDbEntity
  8
0
100
AcDbBlockBegin
  2
_D_2
 70
     0
 10
0.0
 20
0.0
 30
0.0
  3
_D_2
  1
_D_2
  0
LINE
  5
116
330
113
100
AcDbEntity
  8
치수문자_일반주서
 62
     0
370
    -2
100
AcDbLine
 10
40.88731532850772
 20
4.032324928723899
 30
0.0
 11
40.88731532850771
 21
34.2927135688721
 31
0.0
  0
LINE
  5
117
330
113
100
AcDbEntity
  8
치수문자_일반주서
 62
     0
370
    -2
100
AcDbLine
 10
-38.4876846714922
 20
4.016074928723889
 30
0.0
 11
-38.48768467149222
 21
34.2927135688721
 31
0.0
  0
LINE
  5
118
330
113
100
AcDbEntity
  8
치수문자_일반주서
 62
     0
370
    -2
100
AcDbLine
 10
37.58531532850771
 20
34.2927135688721
 30
0.0
 11
-35.18568467149222
 21
34.2927135688721
 31
0.0
  0
SOLID
  5
119
330
113
100
AcDbEntity
  8
치수문자_일반주서
 62
     0
100
AcDbTrace
 10
37.58531532850771
 20
33.74238023553877
 30
0.0
 11
37.58531532850771
 21
34.84304690220544
 31
0.0
 12
40.88731532850771
 22
34.2927135688721
 32
0.0
 13
40.88731532850771
 23
34.2927135688721
 33
0.0
  0
SOLID
  5
11A
330
113
100
AcDbEntity
  8
치수문자_일반주서
 62
     0
100
AcDbTrace
 10
-35.18568467149222
 20
34.84304690220544
 30
0.0
 11
-35.18568467149222
 21
33.74238023553877
 31
0.0
 12
-38.48768467149222
 22
34.2927135688721
 32
0.0
 13
-38.48768467149222
 23
34.2927135688721
 33
0.0
  0
MTEXT
  5
11B
330
113
100
AcDbEntity
  8
치수문자_일반주서
 62
     0
100
AcDbMText
 10
1.19981532850765
 20
38.6677135688721
 30
0.0
 40
3.5
 41
0.0
 71
     2
 72
     1
  1
\A1;79.38 [3 1/8]
  7
SLDTEXTSTYLE0
 73
     1
 44
1.0
  0
POINT
  5
11C
330
113
100
AcDbEntity
  8
Defpoints
 62
     0
100
AcDbPoint
 10
40.88731532850772
 20
3.969824928723899
 30
0.0
  0
POINT
  5
11D
330
113
100
AcDbEntity
  8
Defpoints
 62
     0
100
AcDbPoint
 10
-38.4876846714922
 20
3.953574928723889
 30
0.0
  0
POINT
  5
11E
330
113
100
AcDbEntity
  8
Defpoints
 62
     0
100
AcDbPoint
 10
-38.4876846714922
 20
34.2927135688721
 30
0.0
  0
ENDBLK
  5
115
330
113
100
AcDbEntity
  8
0
100
AcDbBlockEnd
  0
BLOCK
  5
127
330
126
100
AcDbEntity
  8
0
100
AcDbBlockBegin
  2
_D_3
 70
     0
 10
0.0
 20
0.0
 30
0.0
  3
_D_3
  1
_D_3
  0
LINE
  5
129
330
126
100
AcDbEntity
  8
치수문자_일반주서
 62
     0
370
    -2
100
AcDbLine
 10
40.94981532850772
 20
-3.9676750712761
 30
0.0
 11
54.9886394623653
 21
-3.967675071276048
 31
0.0
  0
LINE
  5
12A
330
126
100
AcDbEntity
  8
치수문자_일반주서
 62
     0
370
    -2
100
AcDbLine
 10
40.94981532850772
 20
3.9698249287239
 30
0.0
 11
54.98863946236527
 21
3.969824928723952
 31
0.0
  0
LINE
  5
12B
330
126
100
AcDbEntity
  8
치수문자_일반주서
 62
     0
370
    -2
100
AcDbLine
 10
54.98863946236527
 20
3.969824928723952
 30
0.0
 11
54.9886394623651
 21
50.90732492872385
 31
0.0
  0
LINE
  5
12C
330
126
100
AcDbEntity
  8
치수문자_일반주서
 62
     0
370
    -2
100
AcDbLine
 10
54.9886394623653
 20
-3.967675071276048
 30
0.0
 11
54.98863946236527
 21
3.969824928723952
 31
0.0
  0
LINE
  5
12D
330
126
100
AcDbEntity
  8
치수문자_일반주서
 62
     0
370
    -2
100
AcDbLine
 10
54.98863946236531
 20
-7.269675071276048
 30
0.0
 11
54.98863946236533
 21
-10.57167507127605
 31
0.0
  0
LINE
  5
12E
330
126
100
AcDbEntity
  8
치수문자_일반주서
 62
     0
370
    -2
100
AcDbLine
 10
54.98863946236526
 20
7.271824928723952
 30
0.0
 11
54.98863946236524
 21
10.57382492872395
 31
0.0
  0
SOLID
  5
12F
330
126
100
AcDbEntity
  8
치수문자_일반주서
 62
     0
100
AcDbTrace
 10
55.53897279569865
 20
-7.269675071276046
 30
0.0
 11
54.43830612903198
 21
-7.269675071276049
 31
0.0
 12
54.9886394623653
 22
-3.967675071276048
 32
0.0
 13
54.9886394623653
 23
-3.967675071276048
 33
0.0
  0
SOLID
  5
130
330
126
100
AcDbEntity
  8
치수문자_일반주서
 62
     0
100
AcDbTrace
 10
54.43830612903192
 20
7.27182492872395
 30
0.0
 11
55.53897279569859
 21
7.271824928723953
 31
0.0
 12
54.98863946236527
 22
3.969824928723952
 32
0.0
 13
54.98863946236527
 23
3.969824928723952
 33
0.0
  0
MTEXT
  5
131
330
126
100
AcDbEntity
  8
치수문자_일반주서
 62
     0
100
AcDbMText
 10
50.61363946236515
 20
36.90732492872384
 30
0.0
 40
3.5
 41
0.0
 71
     2
 72
     1
  1
\A1;%%c7.94 [5/16]
  7
SLDTEXTSTYLE0
 11
-3.580687802255623E-15
 21
1.0
 31
0.0
 73
     1
 44
1.0
  0
POINT
  5
132
330
126
100
AcDbEntity
  8
Defpoints
 62
     0
100
AcDbPoint
 10
40.88731532850772
 20
-3.967675071276101
 30
0.0
  0
POINT
  5
133
330
126
100
AcDbEntity
  8
Defpoints
 62
     0
100
AcDbPoint
 10
40.88731532850772
 20
3.969824928723899
 30
0.0
  0
POINT
  5
19A
330
126
100
AcDbEntity
  8
Defpoints
 62
     0
100
AcDbPoint
 10
54.98863946236527
 20
3.969824928723952
 30
0.0
  0
ENDBLK
  5
128
330
126
100
AcDbEntity
  8
0
100
AcDbBlockEnd
  0
BLOCK
  5
140
330
13F
100
AcDbEntity
  8
0
100
AcDbBlockBegin
  2
SW_DOWELSYMBOL_0
 70
     0
 10
0.0
 20
0.0
 30
0.0
  3
SW_DOWELSYMBOL_0
  1
SW_DOWELSYMBOL_0
  0
CIRCLE
  5
142
330
13F
100
AcDbEntity
  8
해칭선
 62
     0
100
AcDbCircle
 10
0.0
 20
0.0
 30
0.0
 40
2.999999999999996
  0
HATCH
  5
143
330
13F
100
AcDbEntity
  8
0
  6
Continuous
 62
     0
370
     0
100
AcDbHatch
 10
0.0
 20
0.0
 30
0.0
210
0.0
220
0.0
230
1.0
  2
SOLID
 70
     1
 71
     0
 91
        1
 92
        0
 93
        3
 72
     2
 10
0.0
 20
0.0
 40
2.999999999999996
 50
0.0
 51
90.0
 73
     1
 72
     1
 10
0.0
 20
2.999999999999996
 11
0.0
 21
0.0
 72
     1
 10
0.0
 20
0.0
 11
2.999999999999996
 21
0.0
 97
        0
 75
     0
 76
     1
 98
        1
 10
0.0
 20
0.0
  0
HATCH
  5
144
330
13F
100
AcDbEntity
  8
0
  6
Continuous
 62
     0
370
     0
100
AcDbHatch
 10
0.0
 20
0.0
 30
0.0
210
0.0
220
0.0
230
1.0
  2
SOLID
 70
     1
 71
     0
 91
        1
 92
        0
 93
        3
 72
     2
 10
0.0
 20
0.0
 40
2.999999999999996
 50
180.0
 51
270.0000000000007
 73
     1
 72
     1
 10
0.0
 20
-2.999999999999996
 11
0.0
 21
0.0
 72
     1
 10
0.0
 20
0.0
 11
-2.999999999999996
 21
0.0
 97
        0
 75
     0
 76
     1
 98
        1
 10
0.0
 20
0.0
  0
ENDBLK
  5
141
330
13F
100
AcDbEntity
  8
0
100
AcDbBlockEnd
  0
ENDSEC
  0
SECTION
  2
ENTITIES
  0
LINE
  5
96
330
1F
100
AcDbEntity
  8
외형선
  6
Continuous
370
    15
100
AcDbLine
 10
2.000000000000004
 20
4.763574928723894
 30
0.0
 11
-13.80523467149207
 21
4.763574928723893
 31
0.0
  0
LINE
  5
97
330
1F
100
AcDbEntity
  8
외형선
  6
Continuous
370
    15
100
AcDbLine
 10
-37.67768467149221
 20
-4.761425071276108
 30
0.0
 11
2.000000000000004
 21
-4.761425071276105
 31
0.0
  0
LINE
  5
98
330
1F
100
AcDbEntity
  8
외형선
  6
Continuous
370
    15
100
AcDbLine
 10
2.000000000000004
 20
-4.761425071276106
 30
0.0
 11
4.442257873304332
 21
-4.10702404641566
 31
0.0
  0
LINE
  5
99
330
1F
100
AcDbEntity
  8
외형선
  6
Continuous
370
    15
100
AcDbLine
 10
4.442257873304332
 20
4.109173903863447
 30
0.0
 11
2.000000000000004
 21
4.763574928723894
 31
0.0
  0
LINE
  5
9A
330
1F
100
AcDbEntity
  8
외형선
  6
Continuous
370
    15
100
AcDbLine
 10
-37.67768467149221
 20
4.763574928723889
 30
0.0
 11
-38.4876846714922
 21
3.953574928723888
 31
0.0
  0
LINE
  5
9B
330
1F
100
AcDbEntity
  8
외형선
  6
Continuous
370
    15
100
AcDbLine
 10
-38.4876846714922
 20
-3.951425071276106
 30
0.0
 11
-37.67768467149221
 21
-4.761425071276106
 31
0.0
  0
SPLINE
  5
9C
330
1F
100
AcDbEntity
  8
외형선
  6
Continuous
370
    15
100
AcDbSpline
210
0.0
220
0.0
230
1.0
 70
     8
 71
     3
 72
     9
 73
     5
 74
     0
 42
0.000000001
 43
0.00000001
 40
0.0
 40
0.0
 40
0.0
 40
0.0
 40
0.4971662576648629
 40
1.0
 40
1.0
 40
1.0
 40
1.0
 10
5.96231532850779
 20
3.101552681748909
 30
0.0
 10
5.739477100265603
 20
3.100714075799498
 30
0.0
 10
5.291260382403783
 20
3.099027304148201
 30
0.0
 10
4.843148905825032
 20
3.11105521093734
 30
0.0
 10
4.617823335073616
 20
3.117103248320581
 30
0.0
  0
SPLINE
  5
9D
330
1F
100
AcDbEntity
  8
외형선
  6
Continuous
370
    15
100
AcDbSpline
210
0.0
220
0.0
230
1.0
 70
     8
 71
     3
 72
    17
 73
    13
 74
     0
 42
0.000000001
 43
0.00000001
 40
0.0
 40
0.0
 40
0.0
 40
0.0
 40
0.0084100745906017
 40
0.0180350719328651
 40
0.0432830187911771
 40
0.132543765221212
 40
0.5007291590422024
 40
0.8691966721207157
 40
0.9582143829839593
 40
0.9829283150294404
 40
0.992125721836706
 40
1.0
 40
1.0
 40
1.0
 40
1.0
 10
4.442257873304328
 20
-3.602645423247697
 30
0.0
 10
4.442362235777535
 20
-3.601744842490881
 30
0.0
 10
4.442586036968725
 20
-3.599813582719575
 30
0.0
 10
4.445225241889995
 20
-3.593386416095153
 30
0.0
 10
4.458279787133609
 20
-3.57156988228701
 30
0.0
 10
4.52974096975089
 20
-3.481369489281866
 30
0.0
 10
4.66690180556054
 20
-3.335776715139509
 30
0.0
 10
4.809932524048374
 20
-3.195875305292545
 30
0.0
 10
4.899692502037299
 20
-3.122616495051336
 30
0.0
 10
4.922270368987519
 20
-3.108945517855791
 30
0.0
 10
4.929150483769893
 20
-3.106116738029485
 30
0.0
 10
4.931334317568989
 20
-3.105841464840854
 30
0.0
 10
4.93234160623593
 20
-3.105714495671617
 30
0.0
  0
SPLINE
  5
9E
330
1F
100
AcDbEntity
  8
외형선
  6
Continuous
370
    15
100
AcDbSpline
210
0.0
220
0.0
230
1.0
 70
     8
 71
     3
 72
     9
 73
     5
 74
     0
 42
0.000000001
 43
0.00000001
 40
0.0
 40
0.0
 40
0.0
 40
0.0
 40
0.4154030517274415
 40
1.0
 40
1.0
 40
1.0
 40
1.0
 10
4.932355842824494
 20
-3.105977365629609
 30
0.0
 10
5.073849980928491
 20
-3.103443170721969
 30
0.0
 10
5.414468899146819
 20
-3.097342601895858
 30
0.0
 10
5.760201250807729
 20
-3.098642757375464
 30
0.0
 10
5.96231532850779
 20
-3.099402824301122
 30
0.0
  0
LINE
  5
9F
330
1F
100
AcDbEntity
  8
0
  6
Continuous
 62
     1
370
    15
100
AcDbLine
 10
29.54206307876655
 20
1.548995042676901
 30
0.0
 11
29.50354061482499
 21
1.568769870309269
 31
0.0
  0
SPLINE
  5
A0
330
1F
100
AcDbEntity
  8
0
  6
Continuous
 62
     1
370
    15
100
AcDbSpline
210
0.0
220
0.0
230
1.0
 70
     8
 71
     3
 72
     9
 73
     5
 74
     0
 42
0.000000001
 43
0.00000001
 40
0.0
 40
0.0
 40
0.0
 40
0.0
 40
0.4541774592368339
 40
1.0
 40
1.0
 40
1.0
 40
1.0
 10
30.60601820794309
 20
1.018025954735762
 30
0.0
 10
30.44481111778691
 20
1.094564173872805
 30
0.0
 10
30.08986816128905
 20
1.263084688443589
 30
0.0
 10
29.73549043158403
 20
1.448041464977692
 30
0.0
 10
29.54206307876655
 20
1.548995042676901
 30
0.0
  0
LINE
  5
A1
330
1F
100
AcDbEntity
  8
0
  6
Continuous
 62
     1
370
    15
100
AcDbLine
 10
7.940549233934805
 20
1.552063159646389
 30
0.0
 11
7.907719176360414
 21
1.568914712665908
 31
0.0
  0
SPLINE
  5
A2
330
1F
100
AcDbEntity
  8
0
  6
Continuous
 62
     1
370
    15
100
AcDbSpline
210
0.0
220
0.0
230
1.0
 70
     8
 71
     3
 72
     9
 73
     5
 74
     0
 42
0.000000001
 43
0.00000001
 40
0.0
 40
0.0
 40
0.0
 40
0.0
 40
0.4505432522374023
 40
1.0
 40
1.0
 40
1.0
 40
1.0
 10
9.010662189723826
 20
1.017935769700745
 30
0.0
 10
8.849932773164772
 20
1.094246796212956
 30
0.0
 10
8.493186965163273
 20
1.263622380317812
 30
0.0
 10
8.136521487390842
 20
1.449778450659938
 30
0.0
 10
7.940549233934805
 20
1.552063159646389
 30
0.0
  0
LINE
  5
A3
330
1F
100
AcDbEntity
  8
0
  6
Continuous
 62
     1
370
    15
100
AcDbLine
 10
21.49676483898004
 20
3.969824928723897
 30
0.0
 11
19.57448752679038
 21
3.969824928723897
 31
0.0
  0
LINE
  5
A4
330
1F
100
AcDbEntity
  8
0
  6
Continuous
 62
     1
370
    15
100
AcDbLine
 10
19.57448752679038
 20
-3.967675071276109
 30
0.0
 11
21.49676483898004
 21
-3.967675071276109
 31
0.0
  0
SPLINE
  5
A5
330
1F
100
AcDbEntity
  8
0
  6
Continuous
 62
     1
370
    15
100
AcDbSpline
210
0.0
220
0.0
230
1.0
 70
     8
 71
     3
 72
    21
 73
    17
 74
     0
 42
0.000000001
 43
0.00000001
 40
0.0
 40
0.0
 40
0.0
 40
0.0
 40
0.087916269593848
 40
0.1542724635623029
 40
0.1994023013189353
 40
0.271830229516169
 40
0.3437246006131419
 40
0.4168429229189562
 40
0.505831388206058
 40
0.6046535870556858
 40
0.6971280294168477
 40
0.7733914269468517
 40
0.8145074119124606
 40
0.8552365028411775
 40
0.9153950455790693
 40
1.0
 40
1.0
 40
1.0
 40
1.0
 10
23.32378116790317
 20
-3.301484201557418
 30
0.0
 10
23.49955079822355
 20
-3.284520763788309
 30
0.0
 10
23.807985335019
 20
-3.254753903260491
 30
0.0
 10
24.20567209844255
 20
-3.221781851184177
 30
0.0
 10
24.57033690102248
 20
-3.194248811996004
 30
0.0
 10
24.9442904411243
 20
-3.169436325649091
 30
0.0
 10
25.37796129437961
 20
-3.145315470702278
 30
0.0
 10
25.84338553734436
 20
-3.1245646595397
 30
0.0
 10
26.36245912059216
 20
-3.107949798226407
 30
0.0
 10
26.92027824237054
 20
-3.098533490466281
 30
0.0
 10
27.45271004500376
 20
-3.097596571296639
 30
0.0
 10
27.87008716820933
 20
-3.102554391172464
 30
0.0
 10
28.18525772744804
 20
-3.10920780592872
 30
0.0
 10
28.4688898819801
 20
-3.117069186756188
 30
0.0
 10
28.83758836553082
 20
-3.129931695536739
 30
0.0
 10
29.12514222958084
 20
-3.14427147612396
 30
0.0
 10
29.29319897067229
 20
-3.152652155693043
 30
0.0
  0
SPLINE
  5
A6
330
1F
100
AcDbEntity
  8
0
  6
Continuous
 62
     1
370
    15
100
AcDbSpline
210
0.0
220
0.0
230
1.0
 70
     8
 71
     3
 72
     9
 73
     5
 74
     0
 42
0.000000001
 43
0.00000001
 40
0.0
 40
0.0
 40
0.0
 40
0.0
 40
0.5126055890651297
 40
1.0
 40
1.0
 40
1.0
 40
1.0
 10
7.697447966782891
 20
3.154791165836225
 30
0.0
 10
7.3995054674269
 20
3.140585547285742
 30
0.0
 10
6.818273998805255
 20
3.11287297673732
 30
0.0
 10
6.242798748928795
 20
3.10526215414367
 30
0.0
 10
5.962315328507662
 20
3.101552681748908
 30
0.0
  0
SPLINE
  5
A7
330
1F
100
AcDbEntity
  8
0
  6
Continuous
 62
     1
370
    15
100
AcDbSpline
210
0.0
220
0.0
230
1.0
 70
     8
 71
     3
 72
     9
 73
     5
 74
     0
 42
0.000000001
 43
0.00000001
 40
0.0
 40
0.0
 40
0.0
 40
0.0
 40
0.4873944109348706
 40
1.0
 40
1.0
 40
1.0
 40
1.0
 10
5.962315328507662
 20
-3.09940282430112
 30
0.0
 10
6.242798748928795
 20
-3.103112296695882
 30
0.0
 10
6.818273998805255
 20
-3.110723119289533
 30
0.0
 10
7.3995054674269
 20
-3.138435689837954
 30
0.0
 10
7.697447966782891
 20
-3.152641308388437
 30
0.0
  0
SPLINE
  5
A8
330
1F
100
AcDbEntity
  8
0
  6
Continuous
 62
     1
370
    15
100
AcDbSpline
210
0.0
220
0.0
230
1.0
 70
     8
 71
     3
 72
    15
 73
    11
 74
     0
 42
0.000000001
 43
0.00000001
 40
0.0
 40
0.0
 40
0.0
 40
0.0
 40
0.1577503794481123
 40
0.2689441795622136
 40
0.3445841124243838
 40
0.421701083310247
 40
0.5032269166300439
 40
0.69351583382311
 40
0.907304077923589
 40
0.9999999999999999
 40
0.9999999999999999
 40
0.9999999999999999
 40
0.9999999999999999
 10
29.29319897067229
 20
3.154802013140831
 30
0.0
 10
29.1225334037744
 20
3.146300750145623
 30
0.0
 10
28.8315704848296
 20
3.13180718626649
 30
0.0
 10
28.45848989121738
 20
3.118883787329841
 30
0.0
 10
28.17132634692233
 20
3.11101059300165
 30
0.0
 10
27.91699511383631
 20
3.105753052666403
 30
0.0
 10
27.53883379107107
 20
3.100463076980907
 30
0.0
 10
27.01267887295757
 20
3.099692327405632
 30
0.0
 10
26.4741150671466
 20
3.107047900686116
 30
0.0
 10
26.14204693424323
 20
3.118066438662197
 30
0.0
 10
26.04161315929282
 20
3.121398987780043
 30
0.0
  0
SPLINE
  5
A9
330
1F
100
AcDbEntity
  8
0
  6
Continuous
 62
     1
370
    15
100
AcDbSpline
210
0.0
220
0.0
230
1.0
 70
     8
 71
     3
 72
    17
 73
    13
 74
     0
 42
0.000000001
 43
0.00000001
 40
0.0
 40
0.0
 40
0.0
 40
0.0
 40
0.160432643984959
 40
0.2888144987123241
 40
0.4068818432911514
 40
0.476006459656198
 40
0.53874705740115
 40
0.6015703843590398
 40
0.6666316184331078
 40
0.7430243404996215
 40
0.8880437694747367
 40
1.0
 40
1.0
 40
1.0
 40
1.0
 10
32.48008917377095
 20
-2.983925829719217
 30
0.0
 10
32.63948670649027
 20
-2.959385988305503
 30
0.0
 10
32.92643777433296
 20
-2.915208807026575
 30
0.0
 10
33.32954197787907
 20
-2.860329178427107
 30
0.0
 10
33.64185556845707
 20
-2.821180256849233
 30
0.0
 10
33.88570165080313
 20
-2.792870640728566
 30
0.0
 10
34.07636383032449
 20
-2.771878191904081
 30
0.0
 10
34.2638350257455
 20
-2.752336347202703
 30
0.0
 10
34.46568036378699
 20
-2.73261367238465
 30
0.0
 10
34.74863671523716
 20
-2.707212369715253
 30
0.0
 10
35.07796981532945
 20
-2.68084250908923
 30
0.0
 10
35.33169793215931
 20
-2.66561331926199
 30
0.0
 10
35.44223931025626
 20
-2.658978439171299
 30
0.0
  0
SPLINE
  5
AA
330
1F
100
AcDbEntity
  8
0
  6
Continuous
 62
     1
370
    15
100
AcDbSpline
210
0.0
220
0.0
230
1.0
 70
     8
 71
     3
 72
    23
 73
    19
 74
     0
 42
0.000000001
 43
0.00000001
 40
0.0
 40
0.0
 40
0.0
 40
0.0
 40
0.0772786749474826
 40
0.1338502901834704
 40
0.1794216092491514
 40
0.2359490544290504
 40
0.2978242432207271
 40
0.4028503569254381
 40
0.4898790520719204
 40
0.5437909384295169
 40
0.6077482993170464
 40
0.6802447899573961
 40
0.7499059574737325
 40
0.7905641793324419
 40
0.8269381875698949
 40
0.8627757853734547
 40
0.9195151428875722
 40
1.0
 40
1.0
 40
1.0
 40
1.0
 10
17.81627145696159
 20
2.715500751918733
 30
0.0
 10
17.6400788308064
 20
2.701183532585721
 30
0.0
 10
17.33490493703705
 20
2.676385437074295
 30
0.0
 10
16.92049733599774
 20
2.651802748184645
 30
0.0
 10
16.54786064862684
 20
2.634239996721449
 30
0.0
 10
16.16796399524101
 20
2.621254977062124
 30
0.0
 10
15.6523846705762
 20
2.611383735352283
 30
0.0
 10
15.06564744176851
 20
2.612824502825636
 30
0.0
 10
14.49684058626227
 20
2.62817362673753
 30
0.0
 10
14.02482787689817
 20
2.649528147419975
 30
0.0
 10
13.58492542236534
 20
2.67581494329423
 30
0.0
 10
13.10769060110013
 20
2.712315182234263
 30
0.0
 10
12.68149022485879
 20
2.752482275676603
 30
0.0
 10
12.33960859159351
 20
2.789176462414443
 30
0.0
 10
12.07884427995807
 20
2.819449978436274
 30
0.0
 10
11.78494613913277
 20
2.856048976669264
 30
0.0
 10
11.38669950809523
 20
2.909114361789094
 30
0.0
 10
11.07004879565363
 20
2.957645146723222
 30
0.0
 10
10.88432656423282
 20
2.98610946187057
 30
0.0
  0
SPLINE
  5
AB
330
1F
100
AcDbEntity
  8
0
  6
Continuous
 62
     1
370
    15
100
AcDbSpline
210
0.0
220
0.0
230
1.0
 70
     8
 71
     3
 72
    16
 73
    12
 74
     0
 42
0.000000001
 43
0.00000001
 40
0.0
 40
0.0
 40
0.0
 40
0.0
 40
0.1736668938712723
 40
0.3015048793863288
 40
0.3839292463267146
 40
0.4584568865004179
 40
0.5413377654757294
 40
0.6316329572916137
 40
0.7252324689583749
 40
0.9030139632745723
 40
1.0
 40
1.0
 40
1.0
 40
1.0
 10
10.88432656423282
 20
-2.983959604422782
 30
0.0
 10
11.05539826552795
 20
-2.957675328730805
 30
0.0
 10
11.35239760440962
 20
-2.912042927553983
 30
0.0
 10
11.72978316736848
 20
-2.861118251501874
 30
0.0
 10
12.0071102993752
 20
-2.826070498995289
 30
0.0
 10
12.24258138856218
 20
-2.798099053760134
 30
0.0
 10
12.48812160186444
 20
-2.770854976735049
 30
0.0
 10
12.7540668210061
 20
-2.743524899770342
 30
0.0
 10
13.11342081325515
 20
-2.710274647141262
 30
0.0
 10
13.4780135588866
 20
-2.680731169834149
 30
0.0
 10
13.74891553159854
 20
-2.664953777143625
 30
0.0
 10
13.84453712333038
 20
-2.65938475382739
 30
0.0
  0
SPLINE
  5
AC
330
1F
100
AcDbEntity
  8
0
  6
Continuous
 62
     1
370
    15
100
AcDbSpline
210
0.0
220
0.0
230
1.0
 70
     8
 71
     3
 72
    26
 73
    22
 74
     0
 42
0.000000001
 43
0.00000001
 40
0.0
 40
0.0
 40
0.0
 40
0.0
 40
0.0645761264613785
 40
0.1166144200547746
 40
0.1652309215632244
 40
0.1947220657380058
 40
0.2225449940673283
 40
0.2514334303273027
 40
0.2818610908920981
 40
0.3163455637560493
 40
0.3793085161183591
 40
0.4419157729642341
 40
0.4964929453495518
 40
0.5665566069448904
 40
0.631297202686622
 40
0.6991431944084958
 40
0.7350115751059866
 40
0.7770649621269134
 40
0.8351678892219458
 40
0.9097212232325856
 40
1.0
 40
1.0
 40
1.0
 40
1.0
 10
39.41178855672108
 20
2.715498029102174
 30
0.0
 10
39.26163619576138
 20
2.703203467890205
 30
0.0
 10
38.99048443345119
 20
2.681001406476394
 30
0.0
 10
38.60752549195193
 20
2.656967446403729
 30
0.0
 10
38.30631875157785
 20
2.641592569062329
 30
0.0
 10
38.06404598621432
 20
2.631683895192592
 30
0.0
 10
37.86615092327993
 20
2.624970892060448
 30
0.0
 10
37.66539943808263
 20
2.619595750614377
 30
0.0
 10
37.44866725777079
 20
2.615430620949011
 30
0.0
 10
37.1532129465055
 20
2.612255662064732
 30
0.0
 10
36.78330599869952
 20
2.612919151699605
 30
0.0
 10
36.36704948152814
 20
2.620342562404851
 30
0.0
 10
35.93458748339147
 20
2.634575244941749
 30
0.0
 10
35.49703285703013
 20
2.655997912778686
 30
0.0
 10
35.02903595588973
 20
2.686658494535423
 30
0.0
 10
34.64200153106466
 20
2.718261277312767
 30
0.0
 10
34.30476402804708
 20
2.750142888070486
 30
0.0
 10
33.98991095450688
 20
2.782933983237046
 30
0.0
 10
33.58618996134
 20
2.829548540043182
 30
0.0
 10
33.0706402429394
 20
2.895987180968672
 30
0.0
 10
32.68907370068071
 20
2.954195118608599
 30
0.0
 10
32.48008917377095
 20
2.986075687167005
 30
0.0
  0
LINE
  5
AD
330
1F
100
AcDbEntity
  8
외형선
  6
Continuous
370
    15
100
AcDbLine
 10
2.000000000000004
 20
4.763574928723894
 30
0.0
 11
2.000000000000004
 21
-4.761425071276109
 31
0.0
  0
LINE
  5
AE
330
1F
100
AcDbEntity
  8
외형선
  6
Continuous
370
    15
100
AcDbLine
 10
-37.67768467149221
 20
4.763574928723889
 30
0.0
 11
-37.67768467149221
 21
-4.761425071276109
 31
0.0
  0
LINE
  5
AF
330
1F
100
AcDbEntity
  8
외형선
  6
Continuous
370
    15
100
AcDbLine
 10
4.442257873304332
 20
3.206311398194729
 30
0.0
 11
4.442257873304332
 21
4.109173903863447
 31
0.0
  0
SPLINE
  5
B0
330
1F
100
AcDbEntity
  8
외형선
  6
Continuous
370
    15
100
AcDbSpline
210
0.0
220
0.0
230
1.0
 70
     8
 71
     3
 72
     8
 73
     4
 74
     0
 42
0.000000001
 43
0.00000001
 40
0.0
 40
0.0
 40
0.0
 40
0.0
 40
1.0
 40
1.0
 40
1.0
 40
1.0
 10
4.962315328507794
 20
2.942118092102801
 30
0.0
 10
4.788441699227505
 20
3.030464070752669
 30
0.0
 10
4.615070861666959
 20
3.118536858647025
 30
0.0
 10
4.442197824374471
 20
3.206249173720964
 30
0.0
  0
LINE
  5
B1
330
1F
100
AcDbEntity
  8
외형선
  6
Continuous
370
    15
100
AcDbLine
 10
4.962315328507794
 20
2.94211809210277
 30
0.0
 11
4.962315328507794
 21
2.091757485280478
 31
0.0
  0
SPLINE
  5
B2
330
1F
100
AcDbEntity
  8
외형선
  6
Continuous
370
    15
100
AcDbSpline
210
0.0
220
0.0
230
1.0
 70
     8
 71
     3
 72
     8
 73
     4
 74
     0
 42
0.000000001
 43
0.00000001
 40
0.0
 40
0.0
 40
0.0
 40
0.0
 40
0.0005967799889794
 40
0.0005967799889794
 40
0.0005967799889794
 40
0.0005967799889794
 10
4.442257873304332
 20
2.383273782221443
 30
0.0
 10
4.615622729987665
 20
2.286449789910995
 30
0.0
 10
4.789013988408074
 20
2.189250715396871
 30
0.0
 10
4.962315328507957
 20
2.091757485278335
 30
0.0
  0
LINE
  5
B3
330
1F
100
AcDbEntity
  8
외형선
  6
Continuous
370
    15
100
AcDbLine
 10
4.442257873304332
 20
-4.10702404641566
 30
0.0
 11
4.442257873304332
 21
2.383325410978025
 31
0.0
  0
LINE
  5
B4
330
1F
100
AcDbEntity
  8
외형선
  6
Continuous
370
    15
100
AcDbLine
 10
-38.4876846714922
 20
3.953574928723889
 30
0.0
 11
-38.4876846714922
 21
-3.951425071276106
 31
0.0
  0
SPLINE
  5
B5
330
1F
100
AcDbEntity
  8
외형선
  6
Continuous
370
    15
100
AcDbSpline
210
0.0
220
0.0
230
1.0
 70
     8
 71
     3
 72
     8
 73
     4
 74
     0
 42
0.000000001
 43
0.00000001
 40
0.0
 40
0.0
 40
0.0
 40
0.0
 40
1.0
 40
1.0
 40
1.0
 40
1.0
 10
4.962315328506389
 20
2.091757485278409
 30
0.0
 10
5.296306908321561
 20
1.928175371886965
 30
0.0
 10
5.631396763626331
 20
1.757005991650605
 30
0.0
 10
5.962315328508218
 20
1.581005359193989
 30
0.0
  0
SPLINE
  5
B6
330
1F
100
AcDbEntity
  8
외형선
  6
Continuous
370
    15
100
AcDbSpline
210
0.0
220
0.0
230
1.0
 70
    24
 71
     3
 72
    10
 73
     6
 74
     0
 42
0.000000001
 43
0.00000001
 40
0.0
 40
0.0
 40
0.0
 40
0.0
 40
0.5
 40
0.5
 40
1.0
 40
1.0
 40
1.0
 40
1.0
 10
5.96231532850779
 20
1.581005359194651
 30
0.0
 10
5.96231532850779
 20
1.556888605540431
 30
0.0
 10
5.96231532850779
 20
1.491153945846892
 30
0.0
 10
5.96231532850779
 20
1.28864264587046
 30
0.0
 10
5.96231532850779
 20
1.152674427983939
 30
0.0
 10
5.96231532850779
 20
1.00133436108789
 30
0.0
  0
SPLINE
  5
B7
330
1F
100
AcDbEntity
  8
외형선
  6
Continuous
370
    15
100
AcDbSpline
210
0.0
220
0.0
230
1.0
 70
     8
 71
     3
 72
     8
 73
     4
 74
     0
 42
0.000000001
 43
0.00000001
 40
0.0
 40
0.0
 40
0.0
 40
0.0
 40
1.0
 40
1.0
 40
1.0
 40
1.0
 10
5.962315328507742
 20
1.001334361087909
 30
0.0
 10
5.585104069115243
 20
1.14415591182969
 30
0.0
 10
5.202470148881183
 20
1.283070185818552
 30
0.0
 10
4.82222706289626
 20
1.415193670778289
 30
0.0
  0
SPLINE
  5
B8
330
1F
100
AcDbEntity
  8
외형선
  6
Continuous
370
    15
100
AcDbSpline
210
0.0
220
0.0
230
1.0
 70
     8
 71
     3
 72
    14
 73
    10
 74
     0
 42
0.000000001
 43
0.00000001
 40
0.0
 40
0.0
 40
0.0
 40
0.0
 40
0.2500000000000001
 40
0.2500000000000001
 40
0.5000000000000001
 40
0.5000000000000001
 40
0.7500000000000001
 40
0.7500000000000001
 40
1.0
 40
1.0
 40
1.0
 40
1.0
 10
4.44225787330446
 20
1.940226700636792
 30
0.0
 10
4.442257873304358
 20
1.895701915100072
 30
0.0
 10
4.454355174896838
 20
1.846238617097802
 30
0.0
 10
4.49310098968766
 20
1.745725885974773
 30
0.0
 10
4.519543285011165
 20
1.695293687699639
 30
0.0
 10
4.584904018823702
 20
1.597613349662792
 30
0.0
 10
4.622699130370137
 20
1.551716756058902
 30
0.0
 10
4.713318463006191
 20
1.469676976996229
 30
0.0
 10
4.76510953936558
 20
1.435040359749885
 30
0.0
 10
4.82222706289626
 20
1.415193670778288
 30
0.0
  0
SPLINE
  5
B9
330
1F
100
AcDbEntity
  8
외형선
  6
Continuous
370
    15
100
AcDbSpline
210
0.0
220
0.0
230
1.0
 70
     8
 71
     3
 72
     8
 73
     4
 74
     0
 42
0.000000001
 43
0.00000001
 40
0.0
 40
0.0
 40
0.0
 40
0.0
 40
1.0
 40
1.0
 40
1.0
 40
1.0
 10
5.96231532850779
 20
2.525050218887141
 30
0.0
 10
5.631396763626507
 20
2.673111423147924
 30
0.0
 10
5.296306908322361
 20
2.812897599831111
 30
0.0
 10
4.962315328507794
 20
2.94211809210277
 30
0.0
  0
LINE
  5
BA
330
1F
100
AcDbEntity
  8
외형선
  6
Continuous
370
    15
100
AcDbLine
 10
5.96231532850779
 20
2.525050218887139
 30
0.0
 11
5.96231532850779
 21
1.581005359194912
 31
0.0
  0
SPLINE
  5
BB
330
1F
100
AcDbEntity
  8
외형선
  6
Continuous
370
    15
100
AcDbSpline
210
0.0
220
0.0
230
1.0
 70
     8
 71
     3
 72
     8
 73
     4
 74
     0
 42
0.000000001
 43
0.00000001
 40
0.0
 40
0.0
 40
0.0
 40
0.0
 40
1.0
 40
1.0
 40
1.0
 40
1.0
 10
5.962315328507771
 20
-2.960989345096376
 30
0.0
 10
5.633716778576421
 20
-2.906114057328074
 30
0.0
 10
5.301005345571056
 20
-2.840718887828739
 30
0.0
 10
4.969340167979283
 20
-2.765727822765856
 30
0.0
  0
SPLINE
  5
BC
330
1F
100
AcDbEntity
  8
외형선
  6
Continuous
370
    15
100
AcDbSpline
210
0.0
220
0.0
230
1.0
 70
     8
 71
     3
 72
    16
 73
    12
 74
     0
 42
0.000000001
 43
0.00000001
 40
0.0
 40
0.0
 40
0.0
 40
0.0
 40
0.2521385667808144
 40
0.4390711642146005
 40
0.5975918784498229
 40
0.7199186935704605
 40
0.8156174543142312
 40
0.8909218156783065
 40
0.9460533707445761
 40
0.9815873561786874
 40
1.0
 40
1.0
 40
1.0
 40
1.0
 10
4.717192854606392
 20
-3.041325013869607
 30
0.0
 10
4.737146405202706
 20
-3.016839130731303
 30
0.0
 10
4.77189328586597
 20
-2.974199698955268
 30
0.0
 10
4.819476325910751
 20
-2.917074736500553
 30
0.0
 10
4.857113581201745
 20
-2.872902942366717
 30
0.0
 10
4.887866231700242
 20
-2.837779981807828
 30
0.0
 10
4.912596353377767
 20
-2.811060040611889
 30
0.0
 10
4.932451700685057
 20
-2.790701520623565
 30
0.0
 10
4.948299823380289
 20
-2.777188788988364
 30
0.0
 10
4.959401516938689
 20
-2.767591887365741
 30
0.0
 10
4.966810103929497
 20
-2.766204162870524
 30
0.0
 10
4.969338745206326
 20
-2.765730515541576
 30
0.0
  0
SPLINE
  5
BD
330
1F
100
AcDbEntity
  8
외형선
  6
Continuous
370
    15
100
AcDbSpline
210
0.0
220
0.0
230
1.0
 70
    24
 71
     3
 72
    14
 73
    10
 74
     0
 42
0.000000001
 43
0.00000001
 40
0.0
 40
0.0
 40
0.0
 40
0.0
 40
0.2500000000000001
 40
0.2500000000000001
 40
0.5000000000000001
 40
0.5000000000000001
 40
0.7500000000000001
 40
0.7500000000000001
 40
1.0
 40
1.0
 40
1.0
 40
1.0
 10
5.96231532850779
 20
1.00133436108789
 30
0.0
 10
5.96231532850779
 20
0.6539134032645395
 30
0.0
 10
5.96231532850779
 20
0.2887350665366399
 30
0.0
 10
5.96231532850779
 20
-0.4455591775938275
 30
0.0
 10
5.96231532850779
 20
-0.8143257729596526
 30
0.0
 10
5.96231532850779
 20
-1.518544933739567
 30
0.0
 10
5.96231532850779
 20
-1.853622261742642
 30
0.0
 10
5.96231532850779
 20
-2.45954951200104
 30
0.0
 10
5.96231532850779
 20
-2.730230420588875
 30
0.0
 10
5.96231532850779
 20
-2.960989345096378
 30
0.0
  0
SPLINE
  5
BE
330
1F
100
AcDbEntity
  8
외형선
  6
Continuous
370
    15
100
AcDbSpline
210
0.0
220
0.0
230
1.0
 70
    24
 71
     3
 72
    11
 73
     7
 74
     0
 42
0.000000001
 43
0.00000001
 40
0.0
 40
0.0
 40
0.0
 40
0.0
 40
0.2877142517777799
 40
0.6368745052581563
 40
0.9427247128118891
 40
1.0
 40
1.0
 40
1.0
 40
1.0
 10
5.96231532850779
 20
3.093781356155667
 30
0.0
 10
5.96231532850779
 20
3.088782908100995
 30
0.0
 10
5.96231532850779
 20
3.077718513090294
 30
0.0
 10
5.96231532850779
 20
2.90957998375306
 30
0.0
 10
5.96231532850779
 20
2.73660731478491
 30
0.0
 10
5.96231532850779
 20
2.601337564947858
 30
0.0
 10
5.96231532850779
 20
2.580001652482419
 30
0.0
  0
SPLINE
  5
BF
330
1F
100
AcDbEntity
  8
외형선
  6
Continuous
370
    15
100
AcDbSpline
210
0.0
220
0.0
230
1.0
 70
     8
 71
     3
 72
    14
 73
    10
 74
     0
 42
0.000000001
 43
0.00000001
 40
0.0
 40
0.0
 40
0.0
 40
0.0
 40
0.25
 40
0.25
 40
0.5
 40
0.5
 40
0.75
 40
0.75
 40
1.0
 40
1.0
 40
1.0
 40
1.0
 10
4.717196085666568
 20
-3.041326547388288
 30
0.0
 10
4.68819122832738
 20
-3.077087748876254
 30
0.0
 10
4.657749469474854
 20
-3.113199540466538
 30
0.0
 10
4.591330057354568
 20
-3.187221087388608
 30
0.0
 10
4.554222026807023
 20
-3.226267327165075
 30
0.0
 10
4.48965882971588
 20
-3.283169350177998
 30
0.0
 10
4.467841567364715
 20
-3.295034024199807
 30
0.0
 10
4.445412828692012
 20
-3.293591437664216
 30
0.0
 10
4.442257873304328
 20
-3.28234495159459
 30
0.0
 10
4.442257873304328
 20
-3.268149945015095
 30
0.0
  0
SPLINE
  5
C0
330
1F
100
AcDbEntity
  8
외형선
  6
Continuous
370
    15
100
AcDbSpline
210
0.0
220
0.0
230
1.0
 70
    24
 71
     3
 72
    11
 73
     7
 74
     0
 42
0.000000001
 43
0.00000001
 40
0.0
 40
0.0
 40
0.0
 40
0.0
 40
0.2232288831284156
 40
0.6731346897548687
 40
0.900022604798213
 40
1.0
 40
1.0
 40
1.0
 40
1.0
 10
5.96231532850779
 20
-2.96098934509638
 30
0.0
 10
5.96231532850779
 20
-2.980229129108117
 30
0.0
 10
5.96231532850779
 20
-3.038245662901554
 30
0.0
 10
5.96231532850779
 20
-3.080720730782268
 30
0.0
 10
5.96231532850779
 20
-3.100382346921226
 30
0.0
 10
5.96231532850779
 20
-3.097198224954988
 30
0.0
 10
5.96231532850779
 20
-3.096224306309566
 30
0.0
  0
SPLINE
  5
C1
330
1F
100
AcDbEntity
  8
0
  6
Continuous
 62
     1
370
    15
100
AcDbSpline
210
0.0
220
0.0
230
1.0
 70
     8
 71
     3
 72
    31
 73
    27
 74
     0
 42
0.000000001
 43
0.00000001
 40
0.0
 40
0.0
 40
0.0
 40
0.0
 40
0.0126527923341558
 40
0.0551229907724382
 40
0.0972950719942947
 40
0.1397587082544781
 40
0.1819278562531456
 40
0.2243902358692015
 40
0.266559076203321
 40
0.3090190027738412
 40
0.3511879562626395
 40
0.3936491154875527
 40
0.4358180153257258
 40
0.4782791371083411
 40
0.5204480409095642
 40
0.5629080162758585
 40
0.6050770193324592
 40
0.6475388428367849
 40
0.6897076467359067
 40
0.7321679324177932
 40
0.7743368718396868
 40
0.8167974221532422
 40
0.8616880178885206
 40
0.9069323844919288
 40
0.9532726244497255
 40
1.0
 40
1.0
 40
1.0
 40
1.0
 10
13.8443920826641
 20
2.661470925256161
 30
0.0
 10
13.95848050139067
 20
2.712315803593932
 30
0.0
 10
14.45551662485018
 20
2.933825940283114
 30
0.0
 10
15.33255208404752
 20
3.249342588796437
 30
0.0
 10
16.47781162773993
 20
3.591652408300155
 30
0.0
 10
17.62118550779162
 20
3.82802989082334
 30
0.0
 10
18.76711381717245
 20
3.960736650898014
 30
0.0
 10
19.9096411658762
 20
3.983458997042987
 30
0.0
 10
21.05527730006295
 20
3.895899239760183
 30
0.0
 10
22.19881363329117
 20
3.701428651272237
 30
0.0
 10
23.34396615709517
 20
3.403511992605383
 30
0.0
 10
24.48675344381367
 20
3.012197685818036
 30
0.0
 10
25.63305902234102
 20
2.537882598499689
 30
0.0
 10
26.77570836082056
 20
1.993288931383643
 30
0.0
 10
27.92094160617799
 20
1.392106119154469
 30
0.0
 10
29.06460103421954
 20
0.7556080220591892
 30
0.0
 10
30.2100364527617
 20
0.0953935932876637
 30
0.0
 10
31.352579887908
 20
-0.5664619152568715
 30
0.0
 10
32.49871408141138
 20
-1.212396867505003
 30
0.0
 10
33.64176433832715
 20
-1.824211913330281
 30
0.0
 10
34.78688241673913
 20
-2.387668019968162
 30
0.0
 10
35.95462268131077
 20
-2.893289712640298
 30
0.0
 10
37.1502793755468
 20
-3.325642106308578
 30
0.0
 10
38.38020341203543
 20
-3.663598333099611
 30
0.0
 10
39.62681164128135
 20
-3.895846103982286
 30
0.0
 10
40.46598385783328
 20
-3.941432654983396
 30
0.0
 10
40.88731532850772
 20
-3.967675071276101
 30
0.0
  0
SPLINE
  5
C2
330
1F
100
AcDbEntity
  8
0
  6
Continuous
 62
     1
370
    15
100
AcDbSpline
210
0.0
220
0.0
230
1.0
 70
     8
 71
     3
 72
    17
 73
    13
 74
     0
 42
0.000000001
 43
0.00000001
 40
0.0
 40
0.0
 40
0.0
 40
0.0
 40
0.0575257685494302
 40
0.1725013053427644
 40
0.2874906882429777
 40
0.4025002352557983
 40
0.5175362221474287
 40
0.6326002025335266
 40
0.7476449018583202
 40
0.8626613752437511
 40
0.9776558839709246
 40
0.9999999999999999
 40
0.9999999999999999
 40
0.9999999999999999
 40
0.9999999999999999
 10
31.01783354836005
 20
-0.3705823885810468
 30
0.0
 10
30.76464627814313
 20
-0.2696028020553051
 30
0.0
 10
30.00541896645477
 20
0.0332025481017348
 30
0.0
 10
28.74008151709597
 20
0.5482418353155469
 30
0.0
 10
27.22172235716457
 20
1.136104980869749
 30
0.0
 10
25.70306820883453
 20
1.669727502416136
 30
0.0
 10
24.18405402895451
 20
2.122244409135929
 30
0.0
 10
22.66482491570607
 20
2.470845972605954
 30
0.0
 10
21.1457259034398
 20
2.702497600849633
 30
0.0
 10
19.62697326618713
 20
2.791341916929661
 30
0.0
 10
18.51625699091812
 20
2.788467762136348
 30
0.0
 10
17.91178484388313
 20
2.716694019359955
 30
0.0
 10
17.8134410908882
 20
2.705016890371056
 30
0.0
  0
SPLINE
  5
C3
330
1F
100
AcDbEntity
  8
0
  6
Continuous
 62
     1
370
    15
100
AcDbSpline
210
0.0
220
0.0
230
1.0
 70
     8
 71
     3
 72
    19
 73
    15
 74
     0
 42
0.000000001
 43
0.00000001
 40
0.0
 40
0.0
 40
0.0
 40
0.0
 40
0.0915808995733292
 40
0.1839232818243412
 40
0.2677772221797942
 40
0.3522109863634187
 40
0.4360057061704865
 40
0.5203823736115877
 40
0.6041767347994697
 40
0.6885507750281242
 40
0.7723325563331922
 40
0.8566935597148512
 40
0.9404695136892153
 40
1.0
 40
1.0
 40
1.0
 40
1.0
 10
5.96231532850779
 20
1.581005359196143
 30
0.0
 10
6.377942274665299
 20
1.356021264332896
 30
0.0
 10
7.212652048297828
 20
0.9041823625715697
 30
0.0
 10
8.4275212484873
 20
0.2029374987724134
 30
0.0
 10
9.609681488199216
 20
-0.4816230467948894
 30
0.0
 10
10.75418431879185
 20
-1.129493544667742
 30
0.0
 10
11.90008685612885
 20
-1.748751246071534
 30
0.0
 10
13.04291505711634
 20
-2.318316297669107
 30
0.0
 10
14.18937969730759
 20
-2.823578136166928
 30
0.0
 10
15.33254883009111
 20
-3.250318514942468
 30
0.0
 10
16.47781232670103
 20
-3.589277529820539
 30
0.0
 10
17.62118598715981
 20
-3.823623646653373
 30
0.0
 10
18.65443174938209
 20
-3.953607357807099
 30
0.0
 10
19.30446091585049
 20
-3.95541613774343
 30
0.0
 10
19.57448752679038
 20
-3.956167517437354
 30
0.0
  0
SPLINE
  5
C4
330
1F
100
AcDbEntity
  8
0
  6
Continuous
 62
     1
370
    15
100
AcDbSpline
210
0.0
220
0.0
230
1.0
 70
     8
 71
     3
 72
    12
 73
     8
 74
     0
 42
0.000000001
 43
0.00000001
 40
0.0
 40
0.0
 40
0.0
 40
0.0
 40
0.0901966705184371
 40
0.3131281049032179
 40
0.5378164027420014
 40
0.7679469232734523
 40
1.0
 40
1.0
 40
1.0
 40
1.0
 10
35.4415286988096
 20
2.660821814593889
 30
0.0
 10
35.60526154290332
 20
2.732851283968808
 30
0.0
 10
36.17367892335422
 20
2.98290986277125
 30
0.0
 10
37.15029652470135
 20
3.324819508660374
 30
0.0
 10
38.38019870083744
 20
3.666564780339619
 30
0.0
 10
39.62681284239246
 20
3.897787773387333
 30
0.0
 10
40.46598425931241
 20
3.9435129242379
 30
0.0
 10
40.88731532850772
 20
3.969824928723899
 30
0.0
  0
SPLINE
  5
C5
330
1F
100
AcDbEntity
  8
0
  6
Continuous
 62
     1
370
    15
100
AcDbSpline
210
0.0
220
0.0
230
1.0
 70
    24
 71
     3
 72
    10
 73
     6
 74
     0
 42
0.000000001
 43
0.00000001
 40
0.0
 40
0.0
 40
0.0
 40
0.0
 40
0.5
 40
0.5
 40
1.0
 40
1.0
 40
1.0
 40
1.0
 10
40.88731532850779
 20
2.779199928723894
 30
0.0
 10
40.88731532850779
 20
2.94760294792792
 30
0.0
 10
40.88731532850779
 20
3.143302852040267
 30
0.0
 10
40.8873153285078
 20
3.553880723787291
 30
0.0
 10
40.88731532850779
 20
3.76771012706099
 30
0.0
 10
40.88731532850772
 20
3.969824928723899
 30
0.0
  0
LINE
  5
C6
330
1F
100
AcDbEntity
  8
0
  6
Continuous
 62
     1
370
    15
100
AcDbLine
 10
40.88731532850779
 20
2.779199928723894
 30
0.0
 11
39.41129627077905
 21
2.71359103121015
 31
0.0
  0
SPLINE
  5
C7
330
1F
100
AcDbEntity
  8
0
  6
Continuous
 62
     1
370
    15
100
AcDbSpline
210
0.0
220
0.0
230
1.0
 70
     8
 71
     3
 72
    10
 73
     6
 74
     0
 42
0.000000001
 43
0.00000001
 40
0.0
 40
0.0
 40
0.0
 40
0.0
 40
0.1211660343862686
 40
0.5605279668093057
 40
1.0
 40
1.0
 40
1.0
 40
1.0
 10
9.418313880032864
 20
-0.3688037773578896
 30
0.0
 10
9.278734934976915
 20
-0.3136181867405959
 30
0.0
 10
8.633026732361488
 20
-0.0583233174930812
 30
0.0
 10
7.481036422688886
 20
0.4158166193848373
 30
0.0
 10
6.46859797283669
 20
0.8061454803205832
 30
0.0
 10
5.962315328507787
 20
1.001334361087892
 30
0.0
  0
SPLINE
  5
C8
330
1F
100
AcDbEntity
  8
외형선
  6
Continuous
370
    15
100
AcDbSpline
210
0.0
220
0.0
230
1.0
 70
    24
 71
     3
 72
    10
 73
     6
 74
     0
 42
0.000000001
 43
0.00000001
 40
0.0
 40
0.0
 40
0.0
 40
0.0
 40
0.5
 40
0.5
 40
1.0
 40
1.0
 40
1.0
 40
1.0
 10
5.96231532850779
 20
1.581005359194652
 30
0.0
 10
5.96231532850779
 20
1.556888605540431
 30
0.0
 10
5.96231532850779
 20
1.491153945846891
 30
0.0
 10
5.96231532850779
 20
1.288642645870459
 30
0.0
 10
5.96231532850779
 20
1.152674427983938
 30
0.0
 10
5.96231532850779
 20
1.00133436108789
 30
0.0
  0
SPLINE
  5
C9
330
1F
100
AcDbEntity
  8
0
  6
Continuous
 62
     1
370
    15
100
AcDbSpline
210
0.0
220
0.0
230
1.0
 70
     8
 71
     3
 72
    20
 73
    16
 74
     0
 42
0.000000001
 43
0.00000001
 40
0.0
 40
0.0
 40
0.0
 40
0.0
 40
0.0783468680888822
 40
0.1566746721953754
 40
0.2349873214681424
 40
0.3132887560110945
 40
0.3915829388941433
 40
0.4698738480640877
 40
0.5481654681906452
 40
0.6264617824831464
 40
0.7047667645136021
 40
0.7830843700818202
 40
0.8614185291579359
 40
0.939770218148579
 40
1.0
 40
1.0
 40
1.0
 40
1.0
 10
40.88731532850779
 20
-3.765034146040211
 30
0.0
 10
40.38087339380879
 20
-3.655074475666599
 30
0.0
 10
39.36811275588585
 20
-3.435181891179973
 30
0.0
 10
37.849228908324
 20
-2.889223373224017
 30
0.0
 10
36.33069109415347
 20
-2.215967755693611
 30
0.0
 10
34.81241578771073
 20
-1.431485187652751
 30
0.0
 10
33.29430868330609
 20
-0.5783628585432391
 30
0.0
 10
31.77627782905285
 20
0.3031624901453191
 30
0.0
 10
30.25823045717313
 20
1.169912520991777
 30
0.0
 10
28.74007372565068
 20
1.980021545620672
 30
0.0
 10
27.22171611923167
 20
2.693547267769183
 30
0.0
 10
25.70306230020833
 20
3.277907293903657
 30
0.0
 10
24.18405237308223
 20
3.696859564593781
 30
0.0
 10
22.78185091338343
 20
3.938918047683219
 30
0.0
 10
21.88608110188266
 20
3.948484397296388
 30
0.0
 10
21.49676483898004
 20
3.95264208985669
 30
0.0
  0
SPLINE
  5
CA
330
1F
100
AcDbEntity
  8
0
  6
Continuous
 62
     1
370
    15
100
AcDbSpline
210
0.0
220
0.0
230
1.0
 70
     8
 71
     3
 72
    14
 73
    10
 74
     0
 42
0.000000001
 43
0.00000001
 40
0.0
 40
0.0
 40
0.0
 40
0.0
 40
0.1474669689663605
 40
0.2948964527733606
 40
0.4422961368068361
 40
0.5896737680804777
 40
0.7370371393322347
 40
0.8843940729201415
 40
1.0
 40
1.0
 40
1.0
 40
1.0
 10
40.88731532850779
 20
-3.130158745487464
 30
0.0
 10
40.38087460672809
 20
-3.022958104960355
 30
0.0
 10
39.36812189715765
 20
-2.808584073622612
 30
0.0
 10
37.84923524524488
 20
-2.309603860252385
 30
0.0
 10
36.33069600891992
 20
-1.709383689492026
 30
0.0
 10
34.81241897414873
 20
-1.022755789856764
 30
0.0
 10
33.29430990339718
 20
-0.2886391782128715
 30
0.0
 10
31.88531127498575
 20
0.4110362650160593
 30
0.0
 10
30.98233274812063
 20
0.8366823188528912
 30
0.0
 10
30.58535779330624
 20
1.023808388810961
 30
0.0
  0
LINE
  5
CB
330
1F
100
AcDbEntity
  8
0
  6
Continuous
 62
     1
370
    15
100
AcDbLine
 10
40.88731532850751
 20
-3.765034146040213
 30
0.0
 11
40.88731532850779
 21
-3.130158745487464
 31
0.0
  0
SPLINE
  5
CC
330
1F
100
AcDbEntity
  8
0
  6
Continuous
 62
     1
370
    15
100
AcDbSpline
210
0.0
220
0.0
230
1.0
 70
     8
 71
     3
 72
    21
 73
    17
 74
     0
 42
0.000000001
 43
0.00000001
 40
0.0
 40
0.0
 40
0.0
 40
0.0
 40
0.0168258312273775
 40
0.0924752968760546
 40
0.1681416916484053
 40
0.2437964311942766
 40
0.3194341031259803
 40
0.3950584941601809
 40
0.4706734181683248
 40
0.5462827084229512
 40
0.6218902097595554
 40
0.6974926631203301
 40
0.7731010359935517
 40
0.8487191720113763
 40
0.9243508947610481
 40
1.0
 40
1.0
 40
1.0
 40
1.0
 10
26.04100261496577
 20
-3.119481636095242
 30
0.0
 10
25.92838882798377
 20
-3.163283011668105
 30
0.0
 10
25.30945991785941
 20
-3.404016747490289
 30
0.0
 10
24.18404807129426
 20
-3.690802975441945
 30
0.0
 10
22.66479018755953
 20
-3.944636076646382
 30
0.0
 10
21.14568615022181
 20
-3.994304123507576
 30
0.0
 10
19.62693395778894
 20
-3.853071930255975
 30
0.0
 10
18.10850095311332
 20
-3.52364256507904
 30
0.0
 10
16.59029608713047
 20
-3.023174306344364
 30
0.0
 10
15.07222687724014
 20
-2.375710628248855
 30
0.0
 10
13.55424825420357
 20
-1.612755678777257
 30
0.0
 10
12.03626777300432
 20
-0.7715703094790967
 30
0.0
 10
10.51819265047219
 20
0.1077862975070657
 30
0.0
 10
8.999880819651603
 20
0.9796435190667443
 30
0.0
 10
7.481247901284027
 20
1.812820435501922
 30
0.0
 10
6.468664968743196
 20
2.287622105851849
 30
0.0
 10
5.96231532850519
 20
2.525050218888305
 30
0.0
  0
SPLINE
  5
CD
330
1F
100
AcDbEntity
  8
0
  6
Continuous
 62
     1
370
    15
100
AcDbSpline
210
0.0
220
0.0
230
1.0
 70
     8
 71
     3
 72
    17
 73
    13
 74
     0
 42
0.000000001
 43
0.00000001
 40
0.0
 40
0.0
 40
0.0
 40
0.0
 40
0.0464418604935927
 40
0.1524837022822099
 40
0.2585005524452932
 40
0.3644979551054801
 40
0.4704814946446981
 40
0.5764567842097555
 40
0.6824294540916226
 40
0.7884051400292711
 40
0.8943894714895284
 40
1.0
 40
1.0
 40
1.0
 40
1.0
 10
23.33006028039259
 20
-3.281107558831021
 30
0.0
 10
23.10828113984685
 20
-3.307940008577646
 30
0.0
 10
22.38010823548946
 20
-3.396039650477894
 30
0.0
 10
21.14569381032994
 20
-3.372978259914036
 30
0.0
 10
19.62693992195112
 20
-3.215349891666252
 30
0.0
 10
18.10850520423457
 20
-2.892100490051897
 30
0.0
 10
16.5902986332482
 20
-2.430743795754983
 30
0.0
 10
15.07222763252687
 20
-1.850630814331631
 30
0.0
 10
13.55419994460292
 20
-1.180466484427317
 30
0.0
 10
12.03612183536501
 20
-0.4537930845471035
 30
0.0
 10
10.51975754516389
 20
0.2976624508167476
 30
0.0
 10
9.509387723982227
 20
0.7798196792032015
 30
0.0
 10
9.005095271789456
 20
1.020472404520261
 30
0.0
  0
LINE
  5
CE
330
1F
100
AcDbEntity
  8
0
  6
Continuous
 62
     1
370
    15
100
AcDbLine
 10
40.88731532850772
 20
-3.967675071276101
 30
0.0
 11
40.88731532850775
 21
-3.765034146040192
 31
0.0
  0
SPLINE
  5
CF
330
1F
100
AcDbEntity
  8
0
  6
Continuous
 62
     1
370
    15
100
AcDbSpline
210
0.0
220
0.0
230
1.0
 70
     8
 71
     3
 72
     8
 73
     4
 74
     0
 42
0.000000001
 43
0.00000001
 40
0.0
 40
0.0
 40
0.0
 40
0.0
 40
1.0
 40
1.0
 40
1.0
 40
1.0
 10
38.43137201609247
 20
1.111485145506416
 30
0.0
 10
38.29034740254563
 20
1.278576252661452
 30
0.0
 10
38.16458913985582
 20
1.439272873725319
 30
0.0
 10
38.0576400006932
 20
1.59209107774587
 30
0.0
  0
LINE
  5
D0
330
1F
100
AcDbEntity
  8
0
  6
Continuous
 62
     1
370
    15
100
AcDbLine
 10
38.10778728085363
 20
1.634169642033026
 30
0.0
 11
40.88731532850779
 21
0.0010749287238984
 31
0.0
  0
LINE
  5
D1
330
1F
100
AcDbEntity
  8
0
  6
Continuous
 62
     1
370
    15
100
AcDbLine
 10
40.88731532850779
 20
0.0010749287238984
 30
0.0
 11
40.88731532850779
 21
-1.059545513331255
 31
0.0
  0
SPLINE
  5
D2
330
1F
100
AcDbEntity
  8
0
  6
Continuous
 62
     1
370
    15
100
AcDbSpline
210
0.0
220
0.0
230
1.0
 70
     8
 71
     3
 72
    10
 73
     6
 74
     0
 42
0.000000001
 43
0.00000001
 40
0.0
 40
0.0
 40
0.0
 40
0.0
 40
0.5
 40
0.5
 40
1.0
 40
1.0
 40
1.0
 40
1.0
 10
40.88731532850779
 20
-1.059545513331255
 30
0.0
 10
40.46217989139857
 20
-0.7253165338647191
 30
0.0
 10
40.0441475666067
 20
-0.3773816523656882
 30
0.0
 10
39.22264919222002
 20
0.3465946549062849
 30
0.0
 10
38.81534972886617
 20
0.7264346543097607
 30
0.0
 10
38.43137201609245
 20
1.111485145506423
 30
0.0
  0
SPLINE
  5
D3
330
1F
100
AcDbEntity
  8
0
  6
Continuous
 62
     1
370
    15
100
AcDbSpline
210
0.0
220
0.0
230
1.0
 70
     8
 71
     3
 72
    24
 73
    20
 74
     0
 42
0.000000001
 43
0.00000001
 40
0.0
 40
0.0
 40
0.0
 40
0.0
 40
0.0287638885113633
 40
0.0899941554399127
 40
0.1512283120435183
 40
0.2124696505812538
 40
0.273721448344635
 40
0.3349869608729012
 40
0.396266994698058
 40
0.4575370273915294
 40
0.5187924186042645
 40
0.5800364164145384
 40
0.641272292578223
 40
0.7025033357684228
 40
0.7637328447406184
 40
0.8249641214533211
 40
0.8862004641745809
 40
0.9474451606047943
 40
1.0
 40
1.0
 40
1.0
 40
1.0
 10
32.48940586220406
 20
-2.96429658487605
 30
0.0
 10
32.25170109132413
 20
-3.005694743536961
 30
0.0
 10
31.50798940258895
 20
-3.135217993635238
 30
0.0
 10
30.25823905580049
 20
-3.193892234871774
 30
0.0
 10
28.74008154446994
 20
-3.139647448189974
 30
0.0
 10
27.22172301800082
 20
-2.924797165233624
 30
0.0
 10
25.7030694615778
 20
-2.569863614928859
 30
0.0
 10
24.18405636374091
 20
-2.089345394843832
 30
0.0
 10
22.6648170290712
 20
-1.507440203769726
 30
0.0
 10
21.14571724551086
 20
-0.8521000682996341
 30
0.0
 10
19.62696412877973
 20
-0.1553281327458238
 30
0.0
 10
18.10853058358284
 20
0.5490033297272221
 30
0.0
 10
16.59032503964499
 20
1.22664990777636
 30
0.0
 10
15.07225516171875
 20
1.844799707867151
 30
0.0
 10
13.55422826413476
 20
2.37305975633851
 30
0.0
 10
12.03615207506139
 20
2.787158675799098
 30
0.0
 10
10.5179324607462
 20
3.061795722098839
 30
0.0
 10
9.07139408510527
 20
3.196258687374228
 30
0.0
 10
8.130895648484826
 20
3.161401299755061
 30
0.0
 10
7.696555174865873
 20
3.145303480069118
 30
0.0
  0
SPLINE
  5
D4
330
1F
100
AcDbEntity
  8
외형선
  6
Continuous
370
    15
100
AcDbSpline
210
0.0
220
0.0
230
1.0
 70
    24
 71
     3
 72
    11
 73
     7
 74
     0
 42
0.000000001
 43
0.00000001
 40
0.0
 40
0.0
 40
0.0
 40
0.0
 40
0.2899658506523337
 40
0.6380223773829656
 40
0.9429057651107654
 40
1.0
 40
1.0
 40
1.0
 40
1.0
 10
5.96231532850779
 20
3.094177249178619
 30
0.0
 10
5.96231532850779
 20
3.089163009975841
 30
0.0
 10
5.96231532850779
 20
3.078129997606534
 30
0.0
 10
5.96231532850779
 20
2.9096201757158
 30
0.0
 10
5.96231532850779
 20
2.736605953790992
 30
0.0
 10
5.96231532850779
 20
2.601337379526419
 30
0.0
 10
5.96231532850779
 20
2.580001652482419
 30
0.0
  0
SPLINE
  5
D5
330
1F
100
AcDbEntity
  8
0
  6
Continuous
 62
     1
370
    15
100
AcDbSpline
210
0.0
220
0.0
230
1.0
 70
     8
 71
     3
 72
    14
 73
    10
 74
     0
 42
0.000000001
 43
0.00000001
 40
0.0
 40
0.0
 40
0.0
 40
0.0
 40
0.1147848419936978
 40
0.2298452117263787
 40
0.3959434379706646
 40
0.5620253679035476
 40
0.728099941187072
 40
0.8941761128392295
 40
1.0
 40
1.0
 40
1.0
 40
1.0
 10
38.43137201470858
 20
1.111485146103793
 30
0.0
 10
38.08175448042883
 20
1.260415246827957
 30
0.0
 10
37.38168019540962
 20
1.558632937760144
 30
0.0
 10
36.17506088260561
 20
2.021607564117436
 30
0.0
 10
34.81244417626861
 20
2.475536530105098
 30
0.0
 10
33.29431391585285
 20
2.861320296544659
 30
0.0
 10
31.77628783924362
 20
3.102198604198655
 30
0.0
 10
30.44185128222598
 20
3.202011578933743
 30
0.0
 10
29.61340703855632
 20
3.155098071525601
 30
0.0
 10
29.29097536809682
 20
3.136839268140454
 30
0.0
  0
SPLINE
  5
D6
330
1F
100
AcDbEntity
  8
0
  6
Continuous
 62
     1
370
    15
100
AcDbSpline
210
0.0
220
0.0
230
1.0
 70
     8
 71
     3
 72
    11
 73
     7
 74
     0
 42
0.000000001
 43
0.00000001
 40
0.0
 40
0.0
 40
0.0
 40
0.0
 40
0.0757062602699823
 40
0.3837856820223899
 40
0.6918552436029882
 40
1.0
 40
1.0
 40
1.0
 40
1.0
 10
10.89112358846372
 20
-2.969641710691747
 30
0.0
 10
10.76674847133877
 20
-2.993279365234593
 30
0.0
 10
10.13624065095261
 20
-3.113108205515226
 30
0.0
 10
8.999590420610636
 20
-3.182226964361777
 30
0.0
 10
7.481040056238468
 20
-3.173402240469197
 30
0.0
 10
6.468598086187546
 20
-3.031799403346226
 30
0.0
 10
5.962315328507797
 20
-2.96098934509638
 30
0.0
  0
SPLINE
  5
D7
330
1F
100
AcDbEntity
  8
0
  6
Continuous
 62
     1
370
    15
100
AcDbSpline
210
0.0
220
0.0
230
1.0
 70
    24
 71
     3
 72
    10
 73
     6
 74
     0
 42
0.000000001
 43
0.00000001
 40
0.0
 40
0.0
 40
0.0
 40
0.0
 40
0.5
 40
0.5
 40
1.0
 40
1.0
 40
1.0
 40
1.0
 10
40.88731532850779
 20
-3.130158745487463
 30
0.0
 10
40.88731532850779
 20
-2.890125271384957
 30
0.0
 10
40.8873153285078
 20
-2.586833773029902
 30
0.0
 10
40.88731532850779
 20
-1.881710227905365
 30
0.0
 10
40.88731532850779
 20
-1.480488985885989
 30
0.0
 10
40.88731532850779
 20
-1.059545513331382
 30
0.0
  0
SPLINE
  5
D8
330
1F
100
AcDbEntity
  8
외형선
  6
Continuous
370
    15
100
AcDbSpline
210
0.0
220
0.0
230
1.0
 70
    24
 71
     3
 72
    10
 73
     6
 74
     0
 42
0.000000001
 43
0.00000001
 40
0.0
 40
0.0
 40
0.0
 40
0.0
 40
0.4499074584937855
 40
0.9057030246929579
 40
1.0
 40
1.0
 40
1.0
 40
1.0
 10
5.96231532850779
 20
-2.96098934509638
 30
0.0
 10
5.96231532850779
 20
-2.995519384707269
 30
0.0
 10
5.96231532850779
 20
-3.065031371512399
 30
0.0
 10
5.96231532850779
 20
-3.108326594885064
 30
0.0
 10
5.96231532850779
 20
-3.094412541577713
 30
0.0
 10
5.96231532850779
 20
-3.092027391730831
 30
0.0
  0
SPLINE
  5
D9
330
1F
100
AcDbEntity
  8
0
  6
Continuous
 62
     1
370
    15
100
AcDbSpline
210
0.0
220
0.0
230
1.0
 70
    24
 71
     3
 72
     8
 73
     4
 74
     0
 42
0.000000001
 43
0.00000001
 40
0.0
 40
0.0
 40
0.0
 40
0.0
 40
1.0
 40
1.0
 40
1.0
 40
1.0
 10
38.47172670354912
 20
1.93955107738582
 30
0.0
 10
38.34076265365989
 20
1.82965919142628
 30
0.0
 10
38.20229240707265
 20
1.713468858587797
 30
0.0
 10
38.05764000069323
 20
1.592091077745923
 30
0.0
  0
SPLINE
  5
DA
330
1F
100
AcDbEntity
  8
0
  6
Continuous
 62
     1
370
    15
100
AcDbSpline
210
0.0
220
0.0
230
1.0
 70
     8
 71
     3
 72
    10
 73
     6
 74
     0
 42
0.000000001
 43
0.00000001
 40
0.0
 40
0.0
 40
0.0
 40
0.0
 40
0.5
 40
0.5
 40
1.0
 40
1.0
 40
1.0
 40
1.0
 10
40.88731532850779
 20
2.779199928723898
 30
0.0
 10
40.47909082708859
 20
2.668439599858911
 30
0.0
 10
40.07334721220604
 20
2.544189316503822
 30
0.0
 10
39.26731886294914
 20
2.266005792296365
 30
0.0
 10
38.86697298425934
 20
2.112562201032438
 30
0.0
 10
38.47172670355589
 20
1.939551077390116
 30
0.0
  0
SPLINE
  5
DB
330
1F
100
AcDbEntity
  8
외형선
  6
Continuous
370
    15
100
AcDbSpline
210
0.0
220
0.0
230
1.0
 70
    24
 71
     3
 72
    14
 73
    10
 74
     0
 42
0.000000001
 43
0.00000001
 40
0.0
 40
0.0
 40
0.0
 40
0.0
 40
0.2499999999999999
 40
0.2499999999999999
 40
0.4999999999999999
 40
0.4999999999999999
 40
0.7499999999999999
 40
0.7499999999999999
 40
1.0
 40
1.0
 40
1.0
 40
1.0
 10
5.962315328507797
 20
1.001334361087888
 30
0.0
 10
5.962315328507797
 20
0.6539134032645383
 30
0.0
 10
5.962315328507797
 20
0.2887350665366384
 30
0.0
 10
5.962315328507797
 20
-0.445559177593828
 30
0.0
 10
5.962315328507797
 20
-0.8143257729596536
 30
0.0
 10
5.962315328507797
 20
-1.518544933739567
 30
0.0
 10
5.962315328507797
 20
-1.85362226174264
 30
0.0
 10
5.962315328507797
 20
-2.459549512001038
 30
0.0
 10
5.962315328507797
 20
-2.730230420588877
 30
0.0
 10
5.962315328507797
 20
-2.960989345096379
 30
0.0
  0
LINE
  5
DC
330
1F
100
AcDbEntity
  8
0
  6
Continuous
 62
     1
370
    15
100
AcDbLine
 10
40.88731532850779
 20
0.0010749287238984
 30
0.0
 11
40.88731532850779
 21
2.779199928723898
 31
0.0
  0
LINE
  5
DD
330
1F
100
AcDbEntity
  8
중심선
 48
0.8
100
AcDbLine
 10
-41.4876846714922
 20
0.0010749287238888
 30
0.0
 11
43.88731532850779
 21
0.0010749287238993
 31
0.0
  0
LINE
  5
DE
330
1F
100
AcDbEntity
  8
참조1
100
AcDbLine
 10
10.08676131403116
 20
0.0010749287238892
 30
0.0
 11
10.08676131403117
 21
-39.99892507127611
 31
0.0
  0
LINE
  5
DF
330
1F
100
AcDbEntity
  8
참조1
100
AcDbLine
 10
10.08676131403117
 20
-39.99892507127611
 30
0.0
 11
-20.15080122126847
 21
-39.9989250712761
 31
0.0
  0
CIRCLE
  5
E0
330
1F
100
AcDbEntity
  8
해칭선
100
AcDbCircle
 10
0.0
 20
0.0
 30
0.0
 40
2.999999999999995
  0
INSERT
  5
E1
330
1F
100
AcDbEntity
  8
0
  6
Continuous
 62
     7
100
AcDbBlockReference
 66
     1
  2
블럭10
 10
-12.74045760361741
 20
-52.04609937292004
 30
0.0
  0
ATTRIB
  5
E2
330
E1
100
AcDbEntity
  8
FORMAT
 62
     2
100
AcDbText
 10
-21.92175289235869
 20
-49.97073246008785
 30
0.0
 40
4.233333333333333
  1
E1071020 [ 2 FLUTE ]
 41
0.75
  7
SLDTEXTSTYLE0
 11
-21.92175289235869
 21
-52.08739912675452
 31
0.0
100
AcDbAttribute
  2
AUTOATTR0
 70
     0
 74
     1
  0
SEQEND
  5
E3
330
E1
100
AcDbEntity
  8
0
  6
Continuous
 62
     7
  0
HATCH
  5
E4
330
1F
100
AcDbEntity
  8
중심선
100
AcDbHatch
 10
0.0
 20
0.0
 30
0.0
210
0.0
220
0.0
230
1.0
  2
SOLID
 70
     1
 71
     0
 91
        1
 92
        0
 93
        4
 72
     1
 10
-7.025548299236554
 20
-35.7989250712761
 11
-10.47182354307384
 21
-35.7989250712761
 72
     1
 10
-10.47182354307384
 20
-35.7989250712761
 11
-12.60005340227786
 21
-38.3352506518487
 72
     1
 10
-12.60005340227786
 20
-38.3352506518487
 11
-9.153745073327427
 21
-38.33521122254621
 72
     1
 10
-9.153745073327428
 20
-38.33521122254621
 11
-7.025548299236554
 21
-35.7989250712761
 97
        0
 75
     0
 76
     1
 98
        1
 10
-8.886945985523374
 20
0.0
  0
HATCH
  5
E5
330
1F
100
AcDbEntity
  8
중심선
100
AcDbHatch
 10
0.0
 20
0.0
 30
0.0
210
0.0
220
0.0
230
1.0
  2
SOLID
 70
     1
 71
     0
 91
        1
 92
        0
 93
        4
 72
     1
 10
-2.012784308200603
 20
-35.7989250712761
 11
-5.459059552037886
 21
-35.7989250712761
 72
     1
 10
-5.459059552037886
 20
-35.7989250712761
 11
-9.990197560395274
 21
-41.19892507127612
 72
     1
 10
-9.990197560395274
 20
-41.19892507127612
 11
-6.543922316557991
 21
-41.19892507127612
 72
     1
 10
-6.543922316557991
 20
-41.19892507127612
 11
-2.012784308200603
 21
-35.7989250712761
 97
        0
 75
     0
 76
     1
 98
        1
 10
-8.886945985523374
 20
0.0
  0
HATCH
  5
E6
330
1F
100
AcDbEntity
  8
중심선
100
AcDbHatch
 10
0.0
 20
0.0
 30
0.0
210
0.0
220
0.0
230
1.0
  2
SOLID
 70
     1
 71
     0
 91
        1
 92
        0
 93
        4
 72
     1
 10
2.999979682835292
 20
-35.79892507127613
 11
-0.4462955610017953
 21
-35.79892507127608
 72
     1
 10
-0.4462955610017953
 20
-35.79892507127608
 11
-7.494732462891072
 21
-44.19892507127612
 72
     1
 10
-7.494732462891072
 20
-44.19892507127612
 11
-4.048457219053789
 21
-44.19892507127612
 72
     1
 10
-4.048457219053789
 20
-44.19892507127612
 11
2.999979682835292
 21
-35.79892507127613
 97
        0
 75
     0
 76
     1
 98
        1
 10
-8.886945985523374
 20
0.0
  0
HATCH
  5
E7
330
1F
100
AcDbEntity
  8
중심선
100
AcDbHatch
 10
0.0
 20
0.0
 30
0.0
210
0.0
220
0.0
230
1.0
  2
SOLID
 70
     1
 71
     0
 91
        1
 92
        0
 93
        6
 72
     3
 10
7.799870113847492
 20
-39.99892507132738
 11
3.960054785062283
 21
1.540882976769353E-10
 40
0.3939339440162628
 50
17.09539180608436
 51
320.0019657685075
 73
     0
 72
     1
 10
9.482869769548087
 20
-38.58681907591438
 11
11.78817164324915
 21
-36.65249236586646
 72
     3
 10
7.799870113794645
 20
-39.99892507127625
 11
6.600054785286829
 21
-1.278976924368180E-13
 40
0.636358354079598
 50
39.99873849337413
 51
368.4976242363724
 73
     1
 72
     1
 10
14.22520260569525
 20
-39.03892507120613
 11
6.479937420630568
 21
-39.03892507120613
 72
     1
 10
6.479937420630568
 20
-39.03892507120613
 11
6.479912376184634
 21
-40.95892507120602
 72
     1
 10
6.479912376184634
 20
-40.95892507120602
 11
10.92129214565667
 21
-40.95892507120599
 97
        0
 75
     0
 76
     1
 98
        1
 10
-8.886945985523374
 20
0.0
  0
DIMENSION
  5
E8
330
1F
100
AcDbEntity
  8
치수문자_일반주서
100
AcDbDimension
  2
_D
 10
-51.17768467149222
 20
-4.761425071276159
 30
0.0
 11
-51.17768467149224
 21
0.0010749287239001
 31
0.0
 70
   160
  1
%%c<>
 71
     2
 42
9.525000000000006
 52
-270.0
  3
SLDDIMSTYLE0
100
AcDbAlignedDimension
 13
-37.67768467149222
 23
4.763574928723897
 33
0.0
 14
-37.67768467149222
 24
-4.761425071276109
 34
0.0
 50
90.0000000000002
100
AcDbRotatedDimension
1001
ACAD
1000
DSTYLE
1002
{
1070
   171
1070
     6
1070
   273
1070
     7
1002
}
  0
DIMENSION
  5
FD
330
1F
100
AcDbEntity
  8
치수문자_일반주서
100
AcDbDimension
  2
_D_1
 10
5.962315328507792
 20
17.14281233248948
 30
0.0
 11
23.4248153285078
 21
17.14281233248948
 31
0.0
 70
   160
  1
<>
 71
     2
 42
34.92499999999993
  3
SLDDIMSTYLE0
100
AcDbAlignedDimension
 13
40.88731532850772
 23
3.969824928723899
 33
0.0
 14
5.96231532850779
 24
3.101552684674542
 34
0.0
100
AcDbRotatedDimension
1001
ACAD
1000
DSTYLE
1002
{
1070
   171
1070
     6
1070
   273
1070
     7
1002
}
  0
DIMENSION
  5
112
330
1F
100
AcDbEntity
  8
치수문자_일반주서
100
AcDbDimension
  2
_D_2
 10
-38.48768467149222
 20
34.2927135688721
 30
0.0
 11
1.19981532850765
 21
34.2927135688721
 31
0.0
 70
   160
  1
<>
 71
     2
 42
79.37499999999991
  3
SLDDIMSTYLE0
100
AcDbAlignedDimension
 13
40.88731532850772
 23
3.969824928723899
 33
0.0
 14
-38.4876846714922
 24
3.953574928723889
 34
0.0
100
AcDbRotatedDimension
1001
ACAD
1000
DSTYLE
1002
{
1070
   171
1070
     6
1070
   273
1070
     7
1002
}
  0
DIMENSION
  5
125
330
1F
100
AcDbEntity
  8
치수문자_일반주서
100
AcDbDimension
  2
_D_3
 10
54.98863946236527
 20
3.969824928723952
 30
0.0
 11
54.98863946236515
 21
36.90732492872385
 31
0.0
 70
   160
  1
%%c<>
 71
     2
 42
7.9375
 52
-270.0
  3
SLDDIMSTYLE0
100
AcDbAlignedDimension
 13
40.88731532850772
 23
-3.967675071276101
 33
0.0
 14
40.88731532850772
 24
3.969824928723899
 34
0.0
 50
90.0000000000002
100
AcDbRotatedDimension
1001
ACAD
1000
DSTYLE
1002
{
1070
   171
1070
     6
1070
   273
1070
     7
1002
}
  0
LINE
  5
138
330
1F
100
AcDbEntity
  8
참조1
100
AcDbLine
 10
77.82153940838579
 20
7.441074928723896
 30
0.0
 11
77.82153940838579
 21
-7.438925071276109
 31
0.0
  0
LINE
  5
139
330
1F
100
AcDbEntity
  8
참조1
100
AcDbLine
 10
90.52153940838579
 20
5.441074928723896
 30
0.0
 11
77.82153940838579
 21
5.441074928723896
 31
0.0
  0
SOLID
  5
13A
330
1F
100
AcDbEntity
  8
참조1
100
AcDbTrace
 10
77.82153940838579
 20
5.441074928723896
 30
0.0
 11
84.17153940838578
 21
4.425074928723896
 31
0.0
 12
84.17153940838578
 22
6.457074928723896
 32
0.0
 13
84.17153940838578
 23
6.457074928723896
 33
0.0
  0
LINE
  5
13B
330
1F
100
AcDbEntity
  8
참조1
100
AcDbLine
 10
90.52153940838579
 20
-5.438925071276109
 30
0.0
 11
77.82153940838579
 21
-5.438925071276109
 31
0.0
  0
SOLID
  5
13C
330
1F
100
AcDbEntity
  8
참조1
100
AcDbTrace
 10
77.82153940838579
 20
-5.438925071276109
 30
0.0
 11
84.17153940838578
 21
-6.454925071276109
 31
0.0
 12
84.17153940838578
 22
-4.422925071276109
 32
0.0
 13
84.17153940838578
 23
-4.422925071276109
 33
0.0
  0
MTEXT
  5
13D
330
1F
100
AcDbEntity
  8
참조1
100
AcDbMText
 10
87.20588954101179
 20
11.01136670591222
 30
0.0
 40
3.5
 41
0.0
 71
     1
 72
     1
  1
A
  7
SLDTEXTSTYLE0
 73
     1
 44
1.0
  0
MTEXT
  5
13E
330
1F
100
AcDbEntity
  8
참조1
100
AcDbMText
 10
87.20588954101179
 20
0.1313667059122192
 30
0.0
 40
3.5
 41
0.0
 71
     1
 72
     1
  1
A
  7
SLDTEXTSTYLE0
 73
     1
 44
1.0
  0
INSERT
  5
145
330
1F
100
AcDbEntity
  8
해칭선
100
AcDbBlockReference
  2
SW_DOWELSYMBOL_0
 10
0.0
 20
0.0
 30
0.0
  0
LINE
  5
1F9
330
1F
100
AcDbEntity
  8
외형선
  6
Continuous
370
    15
100
AcDbLine
 10
-22.21263467149231
 20
3.493574928723895
 30
0.0
 11
-15.07523467149218
 21
3.493574928723895
 31
0.0
  0
LINE
  5
1FA
330
1F
100
AcDbEntity
  8
외형선
  6
Continuous
370
    15
100
AcDbLine
 10
-22.21263467149231
 20
3.493574928723895
 30
0.0
 11
-23.48263467149229
 21
4.763574928723877
 31
0.0
  0
LINE
  5
1FB
330
1F
100
AcDbEntity
  8
외형선
  6
Continuous
370
    15
100
AcDbLine
 10
-15.07523467149218
 20
3.493574928723895
 30
0.0
 11
-13.80523467149209
 21
4.763574928723877
 31
0.0
  0
LINE
  5
1FC
330
1F
100
AcDbEntity
  8
외형선
  6
Continuous
370
    15
100
AcDbLine
 10
-23.4826346714923
 20
4.763574928723892
 30
0.0
 11
-37.67768467149221
 21
4.763574928723891
 31
0.0
  0
ENDSEC
  0
SECTION
  2
OBJECTS
  0
DICTIONARY
  5
C
330
0
100
AcDbDictionary
281
     1
  3
ACAD_GROUP
350
D
  3
ACAD_IMAGE_VARS
350
169
  3
ACAD_LAYOUT
350
1A
  3
ACAD_MLINESTYLE
350
17
  3
ACAD_PLOTSETTINGS
350
19
  3
ACAD_PLOTSTYLENAME
350
E
  3
ACAD_SCALELIST
350
47
  3
APPDATA
350
167
  3
DWGPROPS
350
1FD
  0
DICTIONARY
  5
190
330
2
100
AcDbDictionary
280
     1
281
     1
  3
ACAD_LAYERSTATES
360
191
  0
DICTIONARY
  5
D
102
{ACAD_REACTORS
330
C
102
}
330
C
100
AcDbDictionary
281
     1
  0
RASTERVARIABLES
  5
169
102
{ACAD_REACTORS
330
C
102
}
330
C
100
AcDbRasterVariables
 90
        0
 70
     1
 71
     1
 72
     1
  0
DICTIONARY
  5
1A
102
{ACAD_REACTORS
330
C
102
}
330
C
100
AcDbDictionary
281
     1
  3
Layout1
350
1E
  3
Layout2
350
26
  3
Model
350
22
  0
DICTIONARY
  5
17
102
{ACAD_REACTORS
330
C
102
}
330
C
100
AcDbDictionary
281
     1
  3
Standard
350
18
  0
DICTIONARY
  5
19
102
{ACAD_REACTORS
330
C
102
}
330
C
100
AcDbDictionary
281
     1
  0
ACDBDICTIONARYWDFLT
  5
E
102
{ACAD_REACTORS
330
C
102
}
330
C
100
AcDbDictionary
281
     1
  3
Normal
350
F
100
AcDbDictionaryWithDefault
340
F
  0
DICTIONARY
  5
47
102
{ACAD_REACTORS
330
C
102
}
330
C
100
AcDbDictionary
281
     1
  3
A0
350
48
  3
A1
350
49
  3
A2
350
4A
  3
A3
350
4B
  3
A4
350
4C
  3
A5
350
4D
  3
A6
350
4E
  3
A7
350
4F
  3
A8
350
50
  3
A9
350
51
  3
B0
350
52
  3
B1
350
53
  3
B2
350
54
  3
B3
350
55
  3
B4
350
56
  3
B5
350
57
  3
B6
350
58
  3
B7
350
59
  3
B8
350
5A
  3
B9
350
5B
  3
C0
350
5C
  3
C1
350
5D
  3
C2
350
5E
  3
C3
350
5F
  3
C4
350
60
  3
C5
350
61
  3
C6
350
62
  3
C7
350
63
  3
C8
350
64
  3
C9
350
65
  3
D0
350
66
  3
D1
350
67
  3
D2
350
68
  0
DICTIONARY
  5
167
102
{ACAD_REACTORS
330
C
102
}
330
C
100
AcDbDictionary
281
     1
  0
XRECORD
  5
1FD
102
{ACAD_REACTORS
330
C
102
}
330
C
100
AcDbXrecord
280
     1
  1
DWGPROPS COOKIE
  2

  3

  4

  6

  7

  8
12016016
  9

300
=
301
=
302
=
303
=
304
=
305
=
306
=
307
=
308
=
309
=
 40
0.0
 41
2458311.090379699
 42
2458318.301513958
  1

 90
        0
  0
DICTIONARY
  5
191
102
{ACAD_REACTORS
330
190
102
}
330
190
100
AcDbDictionary
281
     1
  0
LAYOUT
  5
1E
102
{ACAD_REACTORS
330
1A
102
}
330
1A
100
AcDbPlotSettings
  1

  2
none_device
  4

  6

 40
0.0
 41
0.0
 42
0.0
 43
0.0
 44
0.0
 45
0.0
 46
0.0
 47
0.0
 48
0.0
 49
0.0
140
0.0
141
0.0
142
1.0
143
1.0
 70
   688
 72
     1
 73
     0
 74
     5
  7

 75
    16
147
1.0
148
0.0
149
0.0
100
AcDbLayout
  1
Layout1
 70
     1
 71
     1
 10
0.0
 20
0.0
 11
420.0
 21
297.0
 12
0.0
 22
0.0
 32
0.0
 14
1.000000000000000E+20
 24
1.000000000000000E+20
 34
1.000000000000000E+20
 15
-1.000000000000000E+20
 25
-1.000000000000000E+20
 35
-1.000000000000000E+20
146
0.0
 13
0.0
 23
0.0
 33
0.0
 16
1.0
 26
0.0
 36
0.0
 17
0.0
 27
1.0
 37
0.0
 76
     0
330
1B
  0
LAYOUT
  5
26
102
{ACAD_REACTORS
330
1A
102
}
330
1A
100
AcDbPlotSettings
  1

  2
none_device
  4

  6

 40
0.0
 41
0.0
 42
0.0
 43
0.0
 44
0.0
 45
0.0
 46
0.0
 47
0.0
 48
0.0
 49
0.0
140
0.0
141
0.0
142
1.0
143
1.0
 70
   688
 72
     1
 73
     0
 74
     5
  7

 75
    16
147
1.0
148
0.0
149
0.0
100
AcDbLayout
  1
Layout2
 70
     1
 71
     2
 10
0.0
 20
0.0
 11
0.0
 21
0.0
 12
0.0
 22
0.0
 32
0.0
 14
0.0
 24
0.0
 34
0.0
 15
0.0
 25
0.0
 35
0.0
146
0.0
 13
0.0
 23
0.0
 33
0.0
 16
1.0
 26
0.0
 36
0.0
 17
0.0
 27
1.0
 37
0.0
 76
     0
330
23
  0
LAYOUT
  5
22
102
{ACAD_REACTORS
330
1A
102
}
330
1A
100
AcDbPlotSettings
  1

  2
none_device
  4
ANSI_A_(11.00_x_8.50_Inches)
  6

 40
6.35
 41
19.05
 42
6.35000508
 43
19.05000254
 44
279.4
 45
215.9
 46
94.597971587285
 47
94.17829996692298
 48
0.0
 49
0.0
140
0.0
141
0.0
142
0.0738331270619602
143
1.0
 70
  1696
 72
     0
 73
     0
 74
     0
  7

 75
     0
147
0.0235690232323232
148
0.0
149
0.0
100
AcDbLayout
  1
Model
 70
     1
 71
     0
 10
0.0
 20
0.0
 11
420.0
 21
297.0
 12
0.0
 22
0.0
 32
0.0
 14
1.000000000000000E+20
 24
1.000000000000000E+20
 34
1.000000000000000E+20
 15
-1.000000000000000E+20
 25
-1.000000000000000E+20
 35
-1.000000000000000E+20
146
0.0
 13
0.0
 23
0.0
 33
0.0
 16
1.0
 26
0.0
 36
0.0
 17
0.0
 27
1.0
 37
0.0
 76
     0
330
1F
331
29
  0
MLINESTYLE
  5
18
102
{ACAD_REACTORS
330
17
102
}
330
17
100
AcDbMlineStyle
  2
Standard
 70
     0
  3

 62
   256
 51
90.0
 52
90.0
 71
     2
 49
0.5
 62
   256
  6
BYLAYER
 49
-0.5
 62
   256
  6
BYLAYER
  0
ACDBPLACEHOLDER
  5
F
102
{ACAD_REACTORS
330
E
102
}
330
E
  0
SCALE
  5
48
102
{ACAD_REACTORS
330
47
102
}
330
47
100
AcDbScale
 70
     0
300
1:1
140
1.0
141
1.0
290
     1
  0
SCALE
  5
49
102
{ACAD_REACTORS
330
47
102
}
330
47
100
AcDbScale
 70
     0
300
1:2
140
1.0
141
2.0
290
     0
  0
SCALE
  5
4A
102
{ACAD_REACTORS
330
47
102
}
330
47
100
AcDbScale
 70
     0
300
1:4
140
1.0
141
4.0
290
     0
  0
SCALE
  5
4B
102
{ACAD_REACTORS
330
47
102
}
330
47
100
AcDbScale
 70
     0
300
1:5
140
1.0
141
5.0
290
     0
  0
SCALE
  5
4C
102
{ACAD_REACTORS
330
47
102
}
330
47
100
AcDbScale
 70
     0
300
1:8
140
1.0
141
8.0
290
     0
  0
SCALE
  5
4D
102
{ACAD_REACTORS
330
47
102
}
330
47
100
AcDbScale
 70
     0
300
1:10
140
1.0
141
10.0
290
     0
  0
SCALE
  5
4E
102
{ACAD_REACTORS
330
47
102
}
330
47
100
AcDbScale
 70
     0
300
1:16
140
1.0
141
16.0
290
     0
  0
SCALE
  5
4F
102
{ACAD_REACTORS
330
47
102
}
330
47
100
AcDbScale
 70
     0
300
1:20
140
1.0
141
20.0
290
     0
  0
SCALE
  5
50
102
{ACAD_REACTORS
330
47
102
}
330
47
100
AcDbScale
 70
     0
300
1:30
140
1.0
141
30.0
290
     0
  0
SCALE
  5
51
102
{ACAD_REACTORS
330
47
102
}
330
47
100
AcDbScale
 70
     0
300
1:40
140
1.0
141
40.0
290
     0
  0
SCALE
  5
52
102
{ACAD_REACTORS
330
47
102
}
330
47
100
AcDbScale
 70
     0
300
1:50
140
1.0
141
50.0
290
     0
  0
SCALE
  5
53
102
{ACAD_REACTORS
330
47
102
}
330
47
100
AcDbScale
 70
     0
300
1:100
140
1.0
141
100.0
290
     0
  0
SCALE
  5
54
102
{ACAD_REACTORS
330
47
102
}
330
47
100
AcDbScale
 70
     0
300
2:1
140
2.0
141
1.0
290
     0
  0
SCALE
  5
55
102
{ACAD_REACTORS
330
47
102
}
330
47
100
AcDbScale
 70
     0
300
4:1
140
4.0
141
1.0
290
     0
  0
SCALE
  5
56
102
{ACAD_REACTORS
330
47
102
}
330
47
100
AcDbScale
 70
     0
300
8:1
140
8.0
141
1.0
290
     0
  0
SCALE
  5
57
102
{ACAD_REACTORS
330
47
102
}
330
47
100
AcDbScale
 70
     0
300
10:1
140
10.0
141
1.0
290
     0
  0
SCALE
  5
58
102
{ACAD_REACTORS
330
47
102
}
330
47
100
AcDbScale
 70
     0
300
100:1
140
100.0
141
1.0
290
     0
  0
SCALE
  5
59
102
{ACAD_REACTORS
330
47
102
}
330
47
100
AcDbScale
 70
     0
300
1/128" = 1'-0"
140
0.0078125
141
12.0
290
     0
  0
SCALE
  5
5A
102
{ACAD_REACTORS
330
47
102
}
330
47
100
AcDbScale
 70
     0
300
1/64" = 1'-0"
140
0.015625
141
12.0
290
     0
  0
SCALE
  5
5B
102
{ACAD_REACTORS
330
47
102
}
330
47
100
AcDbScale
 70
     0
300
1/32" = 1'-0"
140
0.03125
141
12.0
290
     0
  0
SCALE
  5
5C
102
{ACAD_REACTORS
330
47
102
}
330
47
100
AcDbScale
 70
     0
300
1/16" = 1'-0"
140
0.0625
141
12.0
290
     0
  0
SCALE
  5
5D
102
{ACAD_REACTORS
330
47
102
}
330
47
100
AcDbScale
 70
     0
300
3/32" = 1'-0"
140
0.09375
141
12.0
290
     0
  0
SCALE
  5
5E
102
{ACAD_REACTORS
330
47
102
}
330
47
100
AcDbScale
 70
     0
300
1/8" = 1'-0"
140
0.125
141
12.0
290
     0
  0
SCALE
  5
5F
102
{ACAD_REACTORS
330
47
102
}
330
47
100
AcDbScale
 70
     0
300
3/16" = 1'-0"
140
0.1875
141
12.0
290
     0
  0
SCALE
  5
60
102
{ACAD_REACTORS
330
47
102
}
330
47
100
AcDbScale
 70
     0
300
1/4" = 1'-0"
140
0.25
141
12.0
290
     0
  0
SCALE
  5
61
102
{ACAD_REACTORS
330
47
102
}
330
47
100
AcDbScale
 70
     0
300
3/8" = 1'-0"
140
0.375
141
12.0
290
     0
  0
SCALE
  5
62
102
{ACAD_REACTORS
330
47
102
}
330
47
100
AcDbScale
 70
     0
300
1/2" = 1'-0"
140
0.5
141
12.0
290
     0
  0
SCALE
  5
63
102
{ACAD_REACTORS
330
47
102
}
330
47
100
AcDbScale
 70
     0
300
3/4" = 1'-0"
140
0.75
141
12.0
290
     0
  0
SCALE
  5
64
102
{ACAD_REACTORS
330
47
102
}
330
47
100
AcDbScale
 70
     0
300
1" = 1'-0"
140
1.0
141
12.0
290
     0
  0
SCALE
  5
65
102
{ACAD_REACTORS
330
47
102
}
330
47
100
AcDbScale
 70
     0
300
1-1/2" = 1'-0"
140
1.5
141
12.0
290
     0
  0
SCALE
  5
66
102
{ACAD_REACTORS
330
47
102
}
330
47
100
AcDbScale
 70
     0
300
3" = 1'-0"
140
3.0
141
12.0
290
     0
  0
SCALE
  5
67
102
{ACAD_REACTORS
330
47
102
}
330
47
100
AcDbScale
 70
     0
300
6" = 1'-0"
140
6.0
141
12.0
290
     0
  0
SCALE
  5
68
102
{ACAD_REACTORS
330
47
102
}
330
47
100
AcDbScale
 70
     0
300
1'-0" = 1'-0"
140
12.0
141
12.0
290
     0
  0
ENDSEC
  0
EOF
