  0
SECTION
  2
HEADER
  9
$ACADVER
  1
AC1015
  9
$ACADMAINTVER
 70
     6
  9
$DWGCODEPAGE
  3
ANSI_949
  9
$INSBASE
 10
0.0
 20
0.0
 30
0.0
  9
$EXTMIN
 10
1.000000000000000E+20
 20
1.000000000000000E+20
 30
1.000000000000000E+20
  9
$EXTMAX
 10
-1.000000000000000E+20
 20
-1.000000000000000E+20
 30
-1.000000000000000E+20
  9
$LIMMIN
 10
0.0
 20
0.0
  9
$LIMMAX
 10
420.0
 20
297.0
  9
$ORTHOMODE
 70
     1
  9
$REGENMODE
 70
     1
  9
$FILLMODE
 70
     1
  9
$QTEXTMODE
 70
     0
  9
$MIRRTEXT
 70
     1
  9
$LTSCALE
 40
1.0
  9
$ATTMODE
 70
     1
  9
$TEXTSIZE
 40
3.5
  9
$TRACEWID
 40
1.0
  9
$TEXTSTYLE
  7
Standard
  9
$CLAYER
  8
0
  9
$CELTYPE
  6
ByLayer
  9
$CECOLOR
 62
   256
  9
$CELTSCALE
 40
1.0
  9
$DISPSILH
 70
     0
  9
$DIMSCALE
 40
1.0
  9
$DIMASZ
 40
3.302
  9
$DIMEXO
 40
1.0
  9
$DIMDLI
 40
3.75
  9
$DIMRND
 40
0.0
  9
$DIMDLE
 40
0.0
  9
$DIMEXE
 40
1.0
  9
$DIMTP
 40
0.0
  9
$DIMTM
 40
0.0
  9
$DIMTXT
 40
3.5
  9
$DIMCEN
 40
2.5
  9
$DIMTSZ
 40
0.0
  9
$DIMTOL
 70
     0
  9
$DIMLIM
 70
     0
  9
$DIMTIH
 70
     1
  9
$DIMTOH
 70
     1
  9
$DIMSE1
 70
     0
  9
$DIMSE2
 70
     0
  9
$DIMTAD
 70
     1
  9
$DIMZIN
 70
     0
  9
$DIMBLK
  1

  9
$DIMASO
 70
     1
  9
$DIMSHO
 70
     1
  9
$DIMPOST
  1

  9
$DIMAPOST
  1

  9
$DIMALT
 70
     0
  9
$DIMALTD
 70
     3
  9
$DIMALTF
 40
0.0393700787401575
  9
$DIMLFAC
 40
1.0
  9
$DIMTOFL
 70
     1
  9
$DIMTVP
 40
0.0
  9
$DIMTIX
 70
     0
  9
$DIMSOXD
 70
     0
  9
$DIMSAH
 70
     0
  9
$DIMBLK1
  1

  9
$DIMBLK2
  1

  9
$DIMSTYLE
  2
ISO-25
  9
$DIMCLRD
 70
     0
  9
$DIMCLRE
 70
     0
  9
$DIMCLRT
 70
     0
  9
$DIMTFAC
 40
1.0
  9
$DIMGAP
 40
1.524
  9
$DIMJUST
 70
     0
  9
$DIMSD1
 70
     0
  9
$DIMSD2
 70
     0
  9
$DIMTOLJ
 70
     0
  9
$DIMTZIN
 70
     0
  9
$DIMALTZ
 70
     0
  9
$DIMALTTZ
 70
     0
  9
$DIMUPT
 70
     0
  9
$DIMDEC
 70
     2
  9
$DIMTDEC
 70
     2
  9
$DIMALTU
 70
     2
  9
$DIMALTTD
 70
     3
  9
$DIMTXSTY
  7
Standard
  9
$DIMAUNIT
 70
     0
  9
$DIMADEC
 70
     2
  9
$DIMALTRND
 40
0.0
  9
$DIMAZIN
 70
     0
  9
$DIMDSEP
 70
    44
  9
$DIMATFIT
 70
     3
  9
$DIMFRAC
 70
     0
  9
$DIMLDRBLK
  1

  9
$DIMLUNIT
 70
     2
  9
$DIMLWD
 70
    -2
  9
$DIMLWE
 70
    -2
  9
$DIMTMOVE
 70
     0
  9
$LUNITS
 70
     2
  9
$LUPREC
 70
     2
  9
$SKETCHINC
 40
1.0
  9
$FILLETRAD
 40
10.0
  9
$AUNITS
 70
     0
  9
$AUPREC
 70
     2
  9
$MENU
  1
.
  9
$ELEVATION
 40
0.0
  9
$PELEVATION
 40
0.0
  9
$THICKNESS
 40
0.0
  9
$LIMCHECK
 70
     0
  9
$CHAMFERA
 40
0.0
  9
$CHAMFERB
 40
0.0
  9
$CHAMFERC
 40
0.0
  9
$CHAMFERD
 40
0.0
  9
$SKPOLY
 70
     0
  9
$TDCREATE
 40
2458311.465591667
  9
$TDUCREATE
 40
2458311.090591667
  9
$TDUPDATE
 40
2458318.676369201
  9
$TDUUPDATE
 40
2458318.301369201
  9
$TDINDWG
 40
0.0015705787
  9
$TDUSRTIMER
 40
2458318.301252801
  9
$USRTIMER
 70
     1
  9
$ANGBASE
 50
0.0
  9
$ANGDIR
 70
     0
  9
$PDMODE
 70
     0
  9
$PDSIZE
 40
-1.0
  9
$PLINEWID
 40
0.0
  9
$SPLFRAME
 70
     0
  9
$SPLINETYPE
 70
     6
  9
$SPLINESEGS
 70
     8
  9
$HANDSEED
  5
1F7
  9
$SURFTAB1
 70
     6
  9
$SURFTAB2
 70
     6
  9
$SURFTYPE
 70
     6
  9
$SURFU
 70
     6
  9
$SURFV
 70
     6
  9
$UCSBASE
  2

  9
$UCSNAME
  2

  9
$UCSORG
 10
0.0
 20
0.0
 30
0.0
  9
$UCSXDIR
 10
1.0
 20
0.0
 30
0.0
  9
$UCSYDIR
 10
0.0
 20
1.0
 30
0.0
  9
$UCSORTHOREF
  2

  9
$UCSORTHOVIEW
 70
     0
  9
$UCSORGTOP
 10
0.0
 20
0.0
 30
0.0
  9
$UCSORGBOTTOM
 10
0.0
 20
0.0
 30
0.0
  9
$UCSORGLEFT
 10
0.0
 20
0.0
 30
0.0
  9
$UCSORGRIGHT
 10
0.0
 20
0.0
 30
0.0
  9
$UCSORGFRONT
 10
0.0
 20
0.0
 30
0.0
  9
$UCSORGBACK
 10
0.0
 20
0.0
 30
0.0
  9
$PUCSBASE
  2

  9
$PUCSNAME
  2

  9
$PUCSORG
 10
0.0
 20
0.0
 30
0.0
  9
$PUCSXDIR
 10
1.0
 20
0.0
 30
0.0
  9
$PUCSYDIR
 10
0.0
 20
1.0
 30
0.0
  9
$PUCSORTHOREF
  2

  9
$PUCSORTHOVIEW
 70
     0
  9
$PUCSORGTOP
 10
0.0
 20
0.0
 30
0.0
  9
$PUCSORGBOTTOM
 10
0.0
 20
0.0
 30
0.0
  9
$PUCSORGLEFT
 10
0.0
 20
0.0
 30
0.0
  9
$PUCSORGRIGHT
 10
0.0
 20
0.0
 30
0.0
  9
$PUCSORGFRONT
 10
0.0
 20
0.0
 30
0.0
  9
$PUCSORGBACK
 10
0.0
 20
0.0
 30
0.0
  9
$USERI1
 70
     0
  9
$USERI2
 70
     0
  9
$USERI3
 70
     0
  9
$USERI4
 70
     0
  9
$USERI5
 70
     0
  9
$USERR1
 40
0.0
  9
$USERR2
 40
0.0
  9
$USERR3
 40
0.0
  9
$USERR4
 40
0.0
  9
$USERR5
 40
0.0
  9
$WORLDVIEW
 70
     1
  9
$SHADEDGE
 70
     3
  9
$SHADEDIF
 70
    70
  9
$TILEMODE
 70
     1
  9
$MAXACTVP
 70
    64
  9
$PINSBASE
 10
0.0
 20
0.0
 30
0.0
  9
$PLIMCHECK
 70
     0
  9
$PEXTMIN
 10
1.000000000000000E+20
 20
1.000000000000000E+20
 30
1.000000000000000E+20
  9
$PEXTMAX
 10
-1.000000000000000E+20
 20
-1.000000000000000E+20
 30
-1.000000000000000E+20
  9
$PLIMMIN
 10
0.0
 20
0.0
  9
$PLIMMAX
 10
0.0
 20
0.0
  9
$UNITMODE
 70
     0
  9
$VISRETAIN
 70
     1
  9
$PLINEGEN
 70
     0
  9
$PSLTSCALE
 70
     1
  9
$TREEDEPTH
 70
  3020
  9
$CMLSTYLE
  2
Standard
  9
$CMLJUST
 70
     0
  9
$CMLSCALE
 40
20.0
  9
$PROXYGRAPHICS
 70
     1
  9
$MEASUREMENT
 70
     1
  9
$CELWEIGHT
370
    -1
  9
$ENDCAPS
280
     0
  9
$JOINSTYLE
280
     0
  9
$LWDISPLAY
290
     1
  9
$INSUNITS
 70
     4
  9
$HYPERLINKBASE
  1

  9
$STYLESHEET
  1

  9
$XEDIT
290
     1
  9
$CEPSNTYPE
380
     0
  9
$PSTYLEMODE
290
     1
  9
$FINGERPRINTGUID
  2
{F4E8D351-9524-41F5-B516-F4B68CDA5D38}
  9
$VERSIONGUID
  2
{FAEB1C32-E019-11D5-929B-00C0DF256EC4}
  9
$EXTNAMES
290
     1
  9
$PSVPSCALE
 40
0.0
  9
$OLESTARTUP
290
     0
  0
ENDSEC
  0
SECTION
  2
CLASSES
  0
CLASS
  1
ACDBDICTIONARYWDFLT
  2
AcDbDictionaryWithDefault
  3
ObjectDBX Classes
 90
        0
280
     0
281
     0
  0
CLASS
  1
VISUALSTYLE
  2
AcDbVisualStyle
  3
ObjectDBX Classes
 90
     4095
280
     0
281
     0
  0
CLASS
  1
MATERIAL
  2
AcDbMaterial
  3
ObjectDBX Classes
 90
     1153
280
     0
281
     0
  0
CLASS
  1
SCALE
  2
AcDbScale
  3
ObjectDBX Classes
 90
     1153
280
     0
281
     0
  0
CLASS
  1
SUN
  2
AcDbSun
  3
SCENEOE
 90
     1153
280
     0
281
     0
  0
CLASS
  1
ACDBPLACEHOLDER
  2
AcDbPlaceHolder
  3
ObjectDBX Classes
 90
        0
280
     0
281
     0
  0
CLASS
  1
LAYOUT
  2
AcDbLayout
  3
ObjectDBX Classes
 90
        0
280
     0
281
     0
  0
CLASS
  1
TABLESTYLE
  2
AcDbTableStyle
  3
ObjectDBX Classes
 90
     4095
280
     0
281
     0
  0
CLASS
  1
MLEADERSTYLE
  2
AcDbMLeaderStyle
  3
ACDB_MLEADERSTYLE_CLASS
 90
     4095
280
     0
281
     0
  0
CLASS
  1
RASTERVARIABLES
  2
AcDbRasterVariables
  3
ISM
 90
        0
280
     0
281
     0
  0
ENDSEC
  0
SECTION
  2
TABLES
  0
TABLE
  2
VPORT
  5
8
330
0
100
AcDbSymbolTable
 70
     1
  0
VPORT
  5
29
330
8
100
AcDbSymbolTableRecord
100
AcDbViewportTableRecord
  2
*Active
 70
     0
 10
0.0
 20
0.0
 11
1.0
 21
1.0
 12
-35.12946856778446
 22
-19.86929609210969
 13
0.0
 23
0.0
 14
10.0
 24
10.0
 15
10.0
 25
10.0
 16
0.0
 26
0.0
 36
1.0
 17
0.0
 27
0.0
 37
0.0
 40
132.0146318822494
 41
1.740812379110251
 42
50.0
 43
0.0
 44
0.0
 50
0.0
 51
0.0
 71
    16
 72
  2000
 73
     1
 74
     3
 75
     0
 76
     0
 77
     0
 78
     0
281
     0
 65
     1
110
0.0
120
0.0
130
0.0
111
1.0
121
0.0
131
0.0
112
0.0
122
1.0
132
0.0
 79
     0
146
0.0
  0
ENDTAB
  0
TABLE
  2
LTYPE
  5
5
330
0
100
AcDbSymbolTable
 70
     6
  0
LTYPE
  5
14
330
5
100
AcDbSymbolTableRecord
100
AcDbLinetypeTableRecord
  2
ByBlock
 70
     0
  3

 72
    65
 73
     0
 40
0.0
  0
LTYPE
  5
15
330
5
100
AcDbSymbolTableRecord
100
AcDbLinetypeTableRecord
  2
ByLayer
 70
     0
  3

 72
    65
 73
     0
 40
0.0
  0
LTYPE
  5
16
330
5
100
AcDbSymbolTableRecord
100
AcDbLinetypeTableRecord
  2
Continuous
 70
     0
  3
Solid line
 72
    65
 73
     0
 40
0.0
  0
LTYPE
  5
6A
330
5
100
AcDbSymbolTableRecord
100
AcDbLinetypeTableRecord
  2
HIDDEN
 70
     0
  3
Hidden __ __ __ __ __ __ __ __ __ __ __ __ __ __
 72
    65
 73
     2
 40
1.905
 49
1.27
 74
     0
 49
-0.635
 74
     0
  0
LTYPE
  5
6B
330
5
100
AcDbSymbolTableRecord
100
AcDbLinetypeTableRecord
  2
PHANTOM
 70
     0
  3
Phantom ______  __  __  ______  __  __  ______
 72
    65
 73
     6
 40
12.7
 49
6.35
 74
     0
 49
-1.27
 74
     0
 49
1.27
 74
     0
 49
-1.27
 74
     0
 49
1.27
 74
     0
 49
-1.27
 74
     0
  0
LTYPE
  5
6C
330
5
100
AcDbSymbolTableRecord
100
AcDbLinetypeTableRecord
  2
CENTER
 70
     0
  3
Center ____ _ ____ _ ____ _ ____ _ ____ _ ____
 72
    65
 73
     4
 40
10.16
 49
6.35
 74
     0
 49
-1.27
 74
     0
 49
1.27
 74
     0
 49
-1.27
 74
     0
  0
LTYPE
  5
6D
330
5
100
AcDbSymbolTableRecord
100
AcDbLinetypeTableRecord
  2
CENTERX2
 70
     0
  3
Center (2x) ________  __  ________  __  _____
 72
    65
 73
     4
 40
20.32
 49
12.7
 74
     0
 49
-2.54
 74
     0
 49
2.54
 74
     0
 49
-2.54
 74
     0
  0
LTYPE
  5
6E
330
5
100
AcDbSymbolTableRecord
100
AcDbLinetypeTableRecord
  2
DOT2
 70
     0
  3
Dot (.5x) ........................................
 72
    65
 73
     2
 40
0.635
 49
0.0
 74
     0
 49
-0.635
 74
     0
  0
ENDTAB
  0
TABLE
  2
LAYER
  5
2
102
{ACAD_XDICTIONARY
360
186
102
}
330
0
100
AcDbSymbolTable
 70
    18
  0
LAYER
  5
10
330
2
100
AcDbSymbolTableRecord
100
AcDbLayerTableRecord
  2
0
 70
     0
 62
     7
  6
Continuous
370
    -3
390
F
  0
LAYER
  5
6F
330
2
100
AcDbSymbolTableRecord
100
AcDbLayerTableRecord
  2
FORMAT
 70
     0
 62
     2
  6
Continuous
370
    -3
390
F
  0
LAYER
  5
70
330
2
100
AcDbSymbolTableRecord
100
AcDbLayerTableRecord
  2
외형선
 70
     0
 62
     4
  6
Continuous
370
    30
390
F
  0
LAYER
  5
71
330
2
100
AcDbSymbolTableRecord
100
AcDbLayerTableRecord
  2
숨은선
 70
     0
 62
     2
  6
HIDDEN
370
    15
390
F
  0
LAYER
  5
72
330
2
100
AcDbSymbolTableRecord
100
AcDbLayerTableRecord
  2
중심선
 70
     0
 62
     1
  6
CENTERX2
370
    -3
390
F
  0
LAYER
  5
73
330
2
100
AcDbSymbolTableRecord
100
AcDbLayerTableRecord
  2
파단선
 70
     0
 62
     4
  6
Continuous
370
    -3
390
F
  0
LAYER
  5
74
330
2
100
AcDbSymbolTableRecord
100
AcDbLayerTableRecord
  2
해칭선
 70
     0
 62
   100
  6
Continuous
370
    -3
390
F
  0
LAYER
  5
75
330
2
100
AcDbSymbolTableRecord
100
AcDbLayerTableRecord
  2
가는실선
 70
     0
 62
     4
  6
Continuous
370
    -3
390
F
  0
LAYER
  5
76
330
2
100
AcDbSymbolTableRecord
100
AcDbLayerTableRecord
  2
치수_보조선
 70
     0
 62
     4
  6
Continuous
370
    -3
390
F
  0
LAYER
  5
77
330
2
100
AcDbSymbolTableRecord
100
AcDbLayerTableRecord
  2
치수문자_일반주서
 70
     0
 62
     7
  6
Continuous
370
    15
390
F
  0
LAYER
  5
78
330
2
100
AcDbSymbolTableRecord
100
AcDbLayerTableRecord
  2
개별주서
 70
     0
 62
   100
  6
Continuous
370
    30
390
F
  0
LAYER
  5
79
330
2
100
AcDbSymbolTableRecord
100
AcDbLayerTableRecord
  2
중간선
 70
     0
 62
     2
  6
Continuous
370
    15
390
F
  0
LAYER
  5
7A
330
2
100
AcDbSymbolTableRecord
100
AcDbLayerTableRecord
  2
윤곽선
 70
     0
 62
     3
  6
Continuous
370
    40
390
F
  0
LAYER
  5
7B
330
2
100
AcDbSymbolTableRecord
100
AcDbLayerTableRecord
  2
중심마크
 70
     0
 62
   100
  6
Continuous
370
    30
390
F
  0
LAYER
  5
7C
330
2
100
AcDbSymbolTableRecord
100
AcDbLayerTableRecord
  2
가상선
 70
     0
 62
     4
  6
PHANTOM
370
    -3
390
F
  0
LAYER
  5
7D
330
2
100
AcDbSymbolTableRecord
100
AcDbLayerTableRecord
  2
특수지정선
 70
     0
 62
     5
  6
CENTERX2
370
    60
390
F
  0
LAYER
  5
7E
330
2
100
AcDbSymbolTableRecord
100
AcDbLayerTableRecord
  2
참조1
 70
     0
 62
    -4
  6
Continuous
370
    -3
390
F
  0
LAYER
  5
18D
330
2
100
AcDbSymbolTableRecord
100
AcDbLayerTableRecord
  2
Defpoints
 70
     0
 62
     7
  6
Continuous
290
     0
370
    -3
390
F
  0
ENDTAB
  0
TABLE
  2
STYLE
  5
3
330
0
100
AcDbSymbolTable
 70
     2
  0
STYLE
  5
11
330
3
100
AcDbSymbolTableRecord
100
AcDbTextStyleTableRecord
  2
Standard
 70
     0
 40
0.0
 41
1.0
 50
0.0
 71
     0
 42
3.5
  3
txt
  4

  0
STYLE
  5
94
330
3
100
AcDbSymbolTableRecord
100
AcDbTextStyleTableRecord
  2
SLDTEXTSTYLE0
 70
     0
 40
0.0
 41
0.75
 50
0.0
 71
     0
 42
3.5
  3
TXT
  4

  0
ENDTAB
  0
TABLE
  2
VIEW
  5
6
330
0
100
AcDbSymbolTable
 70
     0
  0
ENDTAB
  0
TABLE
  2
UCS
  5
7
330
0
100
AcDbSymbolTable
 70
     0
  0
ENDTAB
  0
TABLE
  2
APPID
  5
9
330
0
100
AcDbSymbolTable
 70
     1
  0
APPID
  5
12
330
9
100
AcDbSymbolTableRecord
100
AcDbRegAppTableRecord
  2
ACAD
 70
     0
  0
ENDTAB
  0
TABLE
  2
DIMSTYLE
  5
A
330
0
100
AcDbSymbolTable
 70
     4
100
AcDbDimStyleTable
  0
DIMSTYLE
105
27
330
A
100
AcDbSymbolTableRecord
100
AcDbDimStyleTableRecord
  2
ISO-25
 70
     0
 41
2.5
 42
0.625
 43
3.75
 44
1.25
 73
     0
 74
     0
 77
     1
 78
     8
140
2.5
141
2.5
143
0.03937007874016
147
0.625
171
     3
172
     1
178
     0
271
     2
272
     2
274
     3
278
    44
283
     0
284
     8
340
11
  0
DIMSTYLE
105
DE
102
{ACAD_REACTORS
330
DD
330
F2
330
107
330
11B
102
}
330
A
100
AcDbSymbolTableRecord
100
AcDbDimStyleTableRecord
  2
SLDDIMSTYLE0
 70
     0
 41
3.302
 44
0.0
 45
0.000000001
 73
     0
 74
     0
 77
     1
 78
    12
 79
     3
140
3.5
143
0.0393700787401575
147
0.875
148
0.000000001
170
     1
172
     1
173
     1
178
     0
271
     2
272
     2
276
     2
284
    12
289
     0
340
94
  0
DIMSTYLE
105
F3
330
A
100
AcDbSymbolTableRecord
100
AcDbDimStyleTableRecord
  2
SLDDIMSTYLE1
 70
     0
 41
3.302
 44
0.0
 45
0.000000001
 73
     0
 74
     0
 77
     1
 78
     4
 79
     1
140
3.5
143
0.0393700787401575
147
0.875
148
0.000000001
170
     1
173
     1
178
     0
271
     2
272
     2
276
     2
284
    12
340
94
  0
DIMSTYLE
105
108
330
A
100
AcDbSymbolTableRecord
100
AcDbDimStyleTableRecord
  2
SLDDIMSTYLE2
 70
     0
 41
3.302
 44
0.0
 45
0.000000001
 73
     0
 74
     0
 77
     1
 78
    12
 79
     3
140
3.5
143
0.0393700787401575
147
0.875
148
0.000000001
170
     1
173
     1
178
     0
271
     2
272
     2
276
     2
284
    12
340
94
  0
ENDTAB
  0
TABLE
  2
BLOCK_RECORD
  5
1
330
0
100
AcDbSymbolTable
 70
     8
  0
BLOCK_RECORD
  5
1F
330
1
100
AcDbSymbolTableRecord
100
AcDbBlockTableRecord
  2
*Model_Space
340
22
  0
BLOCK_RECORD
  5
1B
330
1
100
AcDbSymbolTableRecord
100
AcDbBlockTableRecord
  2
*Paper_Space
340
1E
  0
BLOCK_RECORD
  5
23
330
1
100
AcDbSymbolTableRecord
100
AcDbBlockTableRecord
  2
*Paper_Space0
340
26
  0
BLOCK_RECORD
  5
7F
330
1
100
AcDbSymbolTableRecord
100
AcDbBlockTableRecord
  2
블럭10
340
0
102
{BLKREFS
331
D6
102
}
  0
BLOCK_RECORD
  5
DF
330
1
100
AcDbSymbolTableRecord
100
AcDbBlockTableRecord
  2
_D
340
0
  0
BLOCK_RECORD
  5
F4
330
1
100
AcDbSymbolTableRecord
100
AcDbBlockTableRecord
  2
_D_1
340
0
  0
BLOCK_RECORD
  5
109
330
1
100
AcDbSymbolTableRecord
100
AcDbBlockTableRecord
  2
_D_2
340
0
  0
BLOCK_RECORD
  5
11C
330
1
100
AcDbSymbolTableRecord
100
AcDbBlockTableRecord
  2
_D_3
340
0
  0
BLOCK_RECORD
  5
135
330
1
100
AcDbSymbolTableRecord
100
AcDbBlockTableRecord
  2
SW_DOWELSYMBOL_0
340
0
102
{BLKREFS
331
13B
102
}
  0
ENDTAB
  0
ENDSEC
  0
SECTION
  2
BLOCKS
  0
BLOCK
  5
20
330
1F
100
AcDbEntity
  8
0
100
AcDbBlockBegin
  2
*Model_Space
 70
     0
 10
0.0
 20
0.0
 30
0.0
  3
*Model_Space
  1
*Model_Space
  0
ENDBLK
  5
21
330
1F
100
AcDbEntity
  8
0
100
AcDbBlockEnd
  0
BLOCK
  5
1C
330
1B
100
AcDbEntity
 67
     1
  8
0
100
AcDbBlockBegin
  2
*Paper_Space
 70
     0
 10
0.0
 20
0.0
 30
0.0
  3
*Paper_Space
  1
*Paper_Space
  0
ENDBLK
  5
1D
330
1B
100
AcDbEntity
 67
     1
  8
0
100
AcDbBlockEnd
  0
BLOCK
  5
24
330
23
100
AcDbEntity
  8
0
100
AcDbBlockBegin
  2
*Paper_Space0
 70
     0
 10
0.0
 20
0.0
 30
0.0
  3
*Paper_Space0
  1
*Paper_Space0
  0
ENDBLK
  5
25
330
23
100
AcDbEntity
  8
0
100
AcDbBlockEnd
  0
BLOCK
  5
80
330
7F
100
AcDbEntity
  8
0
100
AcDbBlockBegin
  2
블럭10
 70
     2
 10
0.0
 20
0.0
 30
0.0
  3
블럭10
  1
블럭10
  0
ELLIPSE
  5
82
330
7F
100
AcDbEntity
  8
중심선
100
AcDbEllipse
 10
20.54032771741204
 20
12.0471743016438
 30
0.0
 11
6.600054785286829
 21
-1.261213355974178E-13
 31
0.0
210
0.0
220
0.0
230
1.0
 40
0.636358354079598
 41
0.9219305317359503
 42
6.513795318482858
  0
ELLIPSE
  5
83
330
7F
100
AcDbEntity
  8
중심선
100
AcDbEllipse
 10
20.54032771746488
 20
12.04717430159265
 30
0.0
 11
3.960054785062283
 21
1.540847449632565E-10
 31
0.0
210
0.0
220
0.0
230
1.0
 40
0.3939339440162632
 41
1.131841032648279
 42
5.62031148352944
  0
LINE
  5
84
330
7F
100
AcDbEntity
  8
중심선
100
AcDbLine
 10
2.268634060543552
 20
16.24717430164393
 30
0.0
 11
5.714909304380834
 21
16.24717430164393
 31
0.0
  0
LINE
  5
85
330
7F
100
AcDbEntity
  8
중심선
100
AcDbLine
 10
5.245725140726316
 20
7.84717430164391
 30
0.0
 11
8.692000384563599
 21
7.84717430164391
 31
0.0
  0
LINE
  5
86
330
7F
100
AcDbEntity
  8
중심선
100
AcDbLine
 10
15.74043728645272
 20
16.24717430164393
 30
0.0
 11
8.692000384563599
 21
7.84717430164391
 31
0.0
  0
LINE
  5
87
330
7F
100
AcDbEntity
  8
중심선
100
AcDbLine
 10
0.1404042013395286
 20
13.71084872107135
 30
0.0
 11
3.58671253028996
 21
13.71088815037384
 31
0.0
  0
LINE
  5
88
330
7F
100
AcDbEntity
  8
중심선
100
AcDbLine
 10
2.750260043222114
 20
10.84717430164391
 30
0.0
 11
6.196535287059397
 21
10.84717430164391
 31
0.0
  0
LINE
  5
89
330
7F
100
AcDbEntity
  8
중심선
100
AcDbLine
 10
12.29416204261559
 20
16.24717430164393
 30
0.0
 11
5.245725140726316
 21
7.84717430164391
 31
0.0
  0
LINE
  5
8A
330
7F
100
AcDbEntity
  8
중심선
100
AcDbLine
 10
10.72767329541681
 20
16.24717430164393
 30
0.0
 11
6.196535287059397
 21
10.84717430164391
 31
0.0
  0
LINE
  5
8B
330
7F
100
AcDbEntity
  8
중심선
100
AcDbLine
 10
7.28139805157953
 20
16.24717430164393
 30
0.0
 11
2.750260043222114
 21
10.84717430164391
 31
0.0
  0
LINE
  5
8C
330
7F
100
AcDbEntity
  8
중심선
100
AcDbLine
 10
5.714909304380834
 20
16.24717430164393
 30
0.0
 11
3.58671253028996
 21
13.71088815037384
 31
0.0
  0
LINE
  5
8D
330
7F
100
AcDbEntity
  8
중심선
100
AcDbLine
 10
2.268634060543552
 20
16.24717430164393
 30
0.0
 11
0.1404042013395286
 21
13.71084872107135
 31
0.0
  0
LINE
  5
8E
330
7F
100
AcDbEntity
  8
중심선
100
AcDbLine
 10
7.28139805157953
 20
16.24717430164393
 30
0.0
 11
10.72767329541681
 21
16.24717430164393
 31
0.0
  0
LINE
  5
8F
330
7F
100
AcDbEntity
  8
중심선
100
AcDbLine
 10
12.29416204261559
 20
16.24717430164393
 30
0.0
 11
15.74043728645272
 21
16.24717430164393
 31
0.0
  0
LINE
  5
90
330
7F
100
AcDbEntity
  8
중심선
100
AcDbLine
 10
19.22036997980202
 20
11.08717430171403
 30
0.0
 11
23.66174974927406
 21
11.08717430171406
 31
0.0
  0
LINE
  5
91
330
7F
100
AcDbEntity
  8
중심선
100
AcDbLine
 10
19.22039502424796
 20
13.00717430171391
 30
0.0
 11
19.22036997980202
 21
11.08717430171403
 31
0.0
  0
LINE
  5
92
330
7F
100
AcDbEntity
  8
중심선
100
AcDbLine
 10
19.22039502424796
 20
13.00717430171391
 30
0.0
 11
26.96566020931264
 21
13.00717430171391
 31
0.0
  0
LINE
  5
93
330
7F
100
AcDbEntity
  8
중심선
100
AcDbLine
 10
22.22332737316547
 20
13.45928029700563
 30
0.0
 11
24.52862924686651
 21
15.39360700705356
 31
0.0
  0
ATTDEF
  5
95
330
7F
100
AcDbEntity
  8
FORMAT
 62
     2
100
AcDbText
 10
4.408487351596664
 20
2.075366912832191
 30
0.0
 40
4.233333333333333
  1
E1071024
 41
0.75
  7
SLDTEXTSTYLE0
 11
4.408487351596664
 21
-0.0412997538344756
 31
0.0
100
AcDbAttributeDefinition
  3

  2
AUTOATTR0
 70
     0
 74
     1
  0
ENDBLK
  5
81
330
7F
100
AcDbEntity
  8
0
100
AcDbBlockEnd
  0
BLOCK
  5
E0
330
DF
100
AcDbEntity
  8
0
100
AcDbBlockBegin
  2
_D
 70
     0
 10
0.0
 20
0.0
 30
0.0
  3
_D
  1
_D
  0
LINE
  5
E2
330
DF
100
AcDbEntity
  8
치수문자_일반주서
 62
     0
370
    -2
100
AcDbLine
 10
-33.51249999999998
 20
4.762500000000004
 30
0.0
 11
-46.95000000000001
 21
4.762499999999953
 31
0.0
  0
LINE
  5
E3
330
DF
100
AcDbEntity
  8
치수문자_일반주서
 62
     0
370
    -2
100
AcDbLine
 10
-33.51249999999998
 20
-4.762500000000002
 30
0.0
 11
-46.94999999999997
 21
-4.762500000000053
 31
0.0
  0
LINE
  5
E4
330
DF
100
AcDbEntity
  8
치수문자_일반주서
 62
     0
370
    -2
100
AcDbLine
 10
-46.95
 20
1.460499999999954
 30
0.0
 11
-46.94999999999999
 21
-1.460500000000053
 31
0.0
  0
SOLID
  5
E5
330
DF
100
AcDbEntity
  8
치수문자_일반주서
 62
     0
100
AcDbTrace
 10
-46.39966666666666
 20
1.460499999999956
 30
0.0
 11
-47.50033333333333
 21
1.460499999999952
 31
0.0
 12
-46.95000000000001
 22
4.762499999999953
 32
0.0
 13
-46.95000000000001
 23
4.762499999999953
 33
0.0
  0
SOLID
  5
E6
330
DF
100
AcDbEntity
  8
치수문자_일반주서
 62
     0
100
AcDbTrace
 10
-47.50033333333332
 20
-1.460500000000055
 30
0.0
 11
-46.39966666666665
 21
-1.460500000000051
 31
0.0
 12
-46.94999999999997
 22
-4.762500000000053
 32
0.0
 13
-46.94999999999997
 23
-4.762500000000053
 33
0.0
  0
MTEXT
  5
E7
330
DF
100
AcDbEntity
  8
치수문자_일반주서
 62
     0
100
AcDbMText
 10
-51.325
 20
-0.0000000000000097
 30
0.0
 40
3.5
 41
0.0
 71
     2
 72
     1
  1
\A1;%%c9.53 [3/8]
  7
SLDTEXTSTYLE0
 11
-3.729883127349605E-15
 21
1.0
 31
0.0
 73
     1
 44
1.0
  0
POINT
  5
E8
330
DF
100
AcDbEntity
  8
Defpoints
 62
     0
100
AcDbPoint
 10
-33.44999999999998
 20
4.762500000000004
 30
0.0
  0
POINT
  5
E9
330
DF
100
AcDbEntity
  8
Defpoints
 62
     0
100
AcDbPoint
 10
-33.44999999999998
 20
-4.762500000000002
 30
0.0
  0
POINT
  5
EA
330
DF
100
AcDbEntity
  8
Defpoints
 62
     0
100
AcDbPoint
 10
-46.94999999999997
 20
-4.762500000000053
 30
0.0
  0
ENDBLK
  5
E1
330
DF
100
AcDbEntity
  8
0
100
AcDbBlockEnd
  0
BLOCK
  5
F5
330
F4
100
AcDbEntity
  8
0
100
AcDbBlockBegin
  2
_D_1
 70
     0
 10
0.0
 20
0.0
 30
0.0
  3
_D_1
  1
_D_1
  0
LINE
  5
F7
330
F4
100
AcDbEntity
  8
치수문자_일반주서
 62
     0
370
    -2
100
AcDbLine
 10
48.1
 20
4.825000000000006
 30
0.0
 11
48.09999999999999
 21
17.93481653835412
 31
0.0
  0
LINE
  5
F8
330
F4
100
AcDbEntity
  8
치수문자_일반주서
 62
     0
370
    -2
100
AcDbLine
 10
10.0
 20
3.855813724889204
 30
0.0
 11
9.999999999999996
 21
17.93481653835412
 31
0.0
  0
LINE
  5
F9
330
F4
100
AcDbEntity
  8
치수문자_일반주서
 62
     0
370
    -2
100
AcDbLine
 10
44.79799999999999
 20
17.93481653835412
 30
0.0
 11
13.302
 21
17.93481653835412
 31
0.0
  0
SOLID
  5
FA
330
F4
100
AcDbEntity
  8
치수문자_일반주서
 62
     0
100
AcDbTrace
 10
44.79799999999999
 20
17.38448320502078
 30
0.0
 11
44.79799999999999
 21
18.48514987168745
 31
0.0
 12
48.09999999999999
 22
17.93481653835412
 32
0.0
 13
48.09999999999999
 23
17.93481653835412
 33
0.0
  0
SOLID
  5
FB
330
F4
100
AcDbEntity
  8
치수문자_일반주서
 62
     0
100
AcDbTrace
 10
13.302
 20
18.48514987168745
 30
0.0
 11
13.302
 21
17.38448320502078
 31
0.0
 12
9.999999999999996
 22
17.93481653835412
 32
0.0
 13
9.999999999999996
 23
17.93481653835412
 33
0.0
  0
MTEXT
  5
FC
330
F4
100
AcDbEntity
  8
치수문자_일반주서
 62
     0
100
AcDbMText
 10
29.05
 20
22.30981653835412
 30
0.0
 40
3.5
 41
0.0
 71
     2
 72
     1
  1
\A1;38.1 [1 1/2]
  7
SLDTEXTSTYLE0
 73
     1
 44
1.0
  0
POINT
  5
FD
330
F4
100
AcDbEntity
  8
Defpoints
 62
     0
100
AcDbPoint
 10
48.1
 20
4.762500000000006
 30
0.0
  0
POINT
  5
FE
330
F4
100
AcDbEntity
  8
Defpoints
 62
     0
100
AcDbPoint
 10
10.0
 20
3.793313724889204
 30
0.0
  0
POINT
  5
FF
330
F4
100
AcDbEntity
  8
Defpoints
 62
     0
100
AcDbPoint
 10
10.0
 20
17.93481653835412
 30
0.0
  0
ENDBLK
  5
F6
330
F4
100
AcDbEntity
  8
0
100
AcDbBlockEnd
  0
BLOCK
  5
10A
330
109
100
AcDbEntity
  8
0
100
AcDbBlockBegin
  2
_D_2
 70
     0
 10
0.0
 20
0.0
 30
0.0
  3
_D_2
  1
_D_2
  0
LINE
  5
10C
330
109
100
AcDbEntity
  8
치수문자_일반주서
 62
     0
370
    -2
100
AcDbLine
 10
48.10000000000002
 20
4.825000000000006
 30
0.0
 11
48.10000000000002
 21
35.04486045510103
 31
0.0
  0
LINE
  5
10D
330
109
100
AcDbEntity
  8
치수문자_일반주서
 62
     0
370
    -2
100
AcDbLine
 10
-34.45
 20
3.824999999999996
 30
0.0
 11
-34.45
 21
35.04486045510103
 31
0.0
  0
LINE
  5
10E
330
109
100
AcDbEntity
  8
치수문자_일반주서
 62
     0
370
    -2
100
AcDbLine
 10
44.79800000000002
 20
35.04486045510103
 30
0.0
 11
-31.148
 21
35.04486045510103
 31
0.0
  0
SOLID
  5
10F
330
109
100
AcDbEntity
  8
치수문자_일반주서
 62
     0
100
AcDbTrace
 10
44.79800000000002
 20
34.4945271217677
 30
0.0
 11
44.79800000000002
 21
35.59519378843436
 31
0.0
 12
48.10000000000002
 22
35.04486045510103
 32
0.0
 13
48.10000000000002
 23
35.04486045510103
 33
0.0
  0
SOLID
  5
110
330
109
100
AcDbEntity
  8
치수문자_일반주서
 62
     0
100
AcDbTrace
 10
-31.148
 20
35.59519378843436
 30
0.0
 11
-31.148
 21
34.4945271217677
 31
0.0
 12
-34.45
 22
35.04486045510103
 32
0.0
 13
-34.45
 23
35.04486045510103
 33
0.0
  0
MTEXT
  5
111
330
109
100
AcDbEntity
  8
치수문자_일반주서
 62
     0
100
AcDbMText
 10
6.824999999999863
 20
39.41986045510103
 30
0.0
 40
3.5
 41
0.0
 71
     2
 72
     1
  1
\A1;82.55 [3 1/4]
  7
SLDTEXTSTYLE0
 73
     1
 44
1.0
  0
POINT
  5
112
330
109
100
AcDbEntity
  8
Defpoints
 62
     0
100
AcDbPoint
 10
48.10000000000002
 20
4.762500000000006
 30
0.0
  0
POINT
  5
113
330
109
100
AcDbEntity
  8
Defpoints
 62
     0
100
AcDbPoint
 10
-34.45
 20
3.762499999999996
 30
0.0
  0
POINT
  5
114
330
109
100
AcDbEntity
  8
Defpoints
 62
     0
100
AcDbPoint
 10
-34.45
 20
35.04486045510103
 30
0.0
  0
ENDBLK
  5
10B
330
109
100
AcDbEntity
  8
0
100
AcDbBlockEnd
  0
BLOCK
  5
11D
330
11C
100
AcDbEntity
  8
0
100
AcDbBlockBegin
  2
_D_3
 70
     0
 10
0.0
 20
0.0
 30
0.0
  3
_D_3
  1
_D_3
  0
LINE
  5
11F
330
11C
100
AcDbEntity
  8
치수문자_일반주서
 62
     0
370
    -2
100
AcDbLine
 10
48.1625
 20
-4.762499999999998
 30
0.0
 11
61.70263290383858
 21
-4.76249999999995
 31
0.0
  0
LINE
  5
120
330
11C
100
AcDbEntity
  8
치수문자_일반주서
 62
     0
370
    -2
100
AcDbLine
 10
48.1625
 20
4.762500000000006
 30
0.0
 11
61.70263290383854
 21
4.762500000000056
 31
0.0
  0
LINE
  5
121
330
11C
100
AcDbEntity
  8
치수문자_일반주서
 62
     0
370
    -2
100
AcDbLine
 10
61.70263290383854
 20
4.762500000000056
 30
0.0
 11
61.70263290383842
 21
37.61650000000004
 31
0.0
  0
LINE
  5
122
330
11C
100
AcDbEntity
  8
치수문자_일반주서
 62
     0
370
    -2
100
AcDbLine
 10
61.70263290383858
 20
-4.76249999999995
 30
0.0
 11
61.70263290383854
 21
4.762500000000056
 31
0.0
  0
LINE
  5
123
330
11C
100
AcDbEntity
  8
치수문자_일반주서
 62
     0
370
    -2
100
AcDbLine
 10
61.70263290383859
 20
-8.06449999999995
 30
0.0
 11
61.70263290383861
 21
-11.36649999999995
 31
0.0
  0
LINE
  5
124
330
11C
100
AcDbEntity
  8
치수문자_일반주서
 62
     0
370
    -2
100
AcDbLine
 10
61.70263290383853
 20
8.064500000000056
 30
0.0
 11
61.70263290383851
 21
11.36650000000006
 31
0.0
  0
SOLID
  5
125
330
11C
100
AcDbEntity
  8
치수문자_일반주서
 62
     0
100
AcDbTrace
 10
62.25296623717193
 20
-8.064499999999947
 30
0.0
 11
61.15229957050526
 21
-8.064499999999951
 31
0.0
 12
61.70263290383858
 22
-4.76249999999995
 32
0.0
 13
61.70263290383858
 23
-4.76249999999995
 33
0.0
  0
SOLID
  5
126
330
11C
100
AcDbEntity
  8
치수문자_일반주서
 62
     0
100
AcDbTrace
 10
61.15229957050519
 20
8.064500000000054
 30
0.0
 11
62.25296623717186
 21
8.064500000000058
 31
0.0
 12
61.70263290383854
 22
4.762500000000056
 32
0.0
 13
61.70263290383854
 23
4.762500000000056
 33
0.0
  0
MTEXT
  5
127
330
11C
100
AcDbEntity
  8
치수문자_일반주서
 62
     0
100
AcDbMText
 10
57.32763290383847
 20
24.49150000000003
 30
0.0
 40
3.5
 41
0.0
 71
     2
 72
     1
  1
\A1;%%c9.53 [3/8]
  7
SLDTEXTSTYLE0
 11
-3.729883127349606E-15
 21
1.0
 31
0.0
 73
     1
 44
1.0
  0
POINT
  5
128
330
11C
100
AcDbEntity
  8
Defpoints
 62
     0
100
AcDbPoint
 10
48.1
 20
-4.762499999999998
 30
0.0
  0
POINT
  5
190
330
11C
100
AcDbEntity
  8
Defpoints
 62
     0
100
AcDbPoint
 10
48.1
 20
4.762500000000006
 30
0.0
  0
POINT
  5
191
330
11C
100
AcDbEntity
  8
Defpoints
 62
     0
100
AcDbPoint
 10
61.70263290383853
 20
4.762500000000056
 30
0.0
  0
ENDBLK
  5
11E
330
11C
100
AcDbEntity
  8
0
100
AcDbBlockEnd
  0
BLOCK
  5
136
330
135
100
AcDbEntity
  8
0
100
AcDbBlockBegin
  2
SW_DOWELSYMBOL_0
 70
     0
 10
0.0
 20
0.0
 30
0.0
  3
SW_DOWELSYMBOL_0
  1
SW_DOWELSYMBOL_0
  0
CIRCLE
  5
138
330
135
100
AcDbEntity
  8
해칭선
 62
     0
100
AcDbCircle
 10
0.0
 20
0.0
 30
0.0
 40
2.999999999999996
  0
HATCH
  5
139
330
135
100
AcDbEntity
  8
0
  6
Continuous
 62
     0
370
     0
100
AcDbHatch
 10
0.0
 20
0.0
 30
0.0
210
0.0
220
0.0
230
1.0
  2
SOLID
 70
     1
 71
     0
 91
        1
 92
        0
 93
        3
 72
     2
 10
0.0
 20
0.0
 40
2.999999999999996
 50
0.0
 51
90.0
 73
     1
 72
     1
 10
0.0
 20
2.999999999999996
 11
0.0
 21
0.0
 72
     1
 10
0.0
 20
0.0
 11
2.999999999999996
 21
0.0
 97
        0
 75
     0
 76
     1
 98
        1
 10
0.0
 20
0.0
  0
HATCH
  5
13A
330
135
100
AcDbEntity
  8
0
  6
Continuous
 62
     0
370
     0
100
AcDbHatch
 10
0.0
 20
0.0
 30
0.0
210
0.0
220
0.0
230
1.0
  2
SOLID
 70
     1
 71
     0
 91
        1
 92
        0
 93
        3
 72
     2
 10
0.0
 20
0.0
 40
2.999999999999996
 50
180.0
 51
270.0000000000007
 73
     1
 72
     1
 10
0.0
 20
-2.999999999999996
 11
0.0
 21
0.0
 72
     1
 10
0.0
 20
0.0
 11
-2.999999999999996
 21
0.0
 97
        0
 75
     0
 76
     1
 98
        1
 10
0.0
 20
0.0
  0
ENDBLK
  5
137
330
135
100
AcDbEntity
  8
0
100
AcDbBlockEnd
  0
ENDSEC
  0
SECTION
  2
ENTITIES
  0
LINE
  5
96
330
1F
100
AcDbEntity
  8
외형선
  6
Continuous
370
    15
100
AcDbLine
 10
8.48005027878313
 20
4.7625
 30
0.0
 11
-9.767549999999892
 21
4.762499999999999
 31
0.0
  0
LINE
  5
97
330
1F
100
AcDbEntity
  8
외형선
  6
Continuous
370
    15
100
AcDbLine
 10
-33.44999999999999
 20
-4.762500000000001
 30
0.0
 11
8.48005027878313
 21
-4.762499999999998
 31
0.0
  0
LINE
  5
98
330
1F
100
AcDbEntity
  8
외형선
  6
Continuous
370
    15
100
AcDbLine
 10
-33.44999999999999
 20
4.762499999999996
 30
0.0
 11
-34.45
 21
3.762499999999995
 31
0.0
  0
LINE
  5
99
330
1F
100
AcDbEntity
  8
외형선
  6
Continuous
370
    15
100
AcDbLine
 10
-34.45
 20
-3.7625
 30
0.0
 11
-33.44999999999999
 21
-4.762499999999999
 31
0.0
  0
SPLINE
  5
9A
330
1F
100
AcDbEntity
  8
외형선
  6
Continuous
370
    15
100
AcDbSpline
210
0.0
220
0.0
230
1.0
 70
     8
 71
     3
 72
     9
 73
     5
 74
     0
 42
0.000000001
 43
0.00000001
 40
0.0
 40
0.0
 40
0.0
 40
0.0
 40
0.4368974310639008
 40
1.0
 40
1.0
 40
1.0
 40
1.0
 10
9.743370204365077
 20
1.268345434411025
 30
0.0
 10
9.59049383353732
 20
1.341877285086227
 30
0.0
 10
9.240580192581636
 20
1.510181892637117
 30
0.0
 10
8.887991109655133
 20
1.691987028106503
 30
0.0
 10
8.689447291280393
 20
1.794361966935089
 30
0.0
  0
SPLINE
  5
9B
330
1F
100
AcDbEntity
  8
0
  6
Continuous
 62
     1
370
    15
100
AcDbSpline
210
0.0
220
0.0
230
1.0
 70
     8
 71
     3
 72
     9
 73
     5
 74
     0
 42
0.000000001
 43
0.00000001
 40
0.0
 40
0.0
 40
0.0
 40
0.0
 40
0.4404647664277515
 40
1.0
 40
1.0
 40
1.0
 40
1.0
 10
35.76088676553247
 20
1.220367590874529
 30
0.0
 10
35.56666890814368
 20
1.312842529786603
 30
0.0
 10
35.1257304445205
 20
1.52279107950163
 30
0.0
 10
34.68660996452
 20
1.752585465668326
 30
0.0
 10
34.44090658417655
 20
1.881163521205699
 30
0.0
  0
LINE
  5
9C
330
1F
100
AcDbEntity
  8
0
  6
Continuous
 62
     1
370
    15
100
AcDbLine
 10
24.83317358363204
 20
4.762500000000005
 30
0.0
 11
22.52510689945239
 21
4.762500000000005
 31
0.0
  0
LINE
  5
9D
330
1F
100
AcDbEntity
  8
0
  6
Continuous
 62
     1
370
    15
100
AcDbLine
 10
22.52510689945239
 20
-4.762500000000003
 30
0.0
 11
24.83317358363203
 21
-4.762500000000003
 31
0.0
  0
SPLINE
  5
9E
330
1F
100
AcDbEntity
  8
0
  6
Continuous
 62
     1
370
    15
100
AcDbSpline
210
0.0
220
0.0
230
1.0
 70
     8
 71
     3
 72
    21
 73
    17
 74
     0
 42
0.000000001
 43
0.00000001
 40
0.0
 40
0.0
 40
0.0
 40
0.0
 40
0.1121788558320866
 40
0.2071419087078815
 40
0.2864308877632895
 40
0.3552081205445763
 40
0.416052075087934
 40
0.4733640357417046
 40
0.5383616546710462
 40
0.6074648485117417
 40
0.664485161891519
 40
0.6924897033656113
 40
0.7315136392382829
 40
0.7818897176902907
 40
0.878263159080597
 40
1.0
 40
1.0
 40
1.0
 40
1.0
 10
27.02461419930863
 20
-3.963062057349236
 30
0.0
 10
27.28732898867965
 20
-3.937653877361866
 30
0.0
 10
27.77244039860129
 20
-3.890736845980697
 30
0.0
 10
28.46004661309392
 20
-3.837514947379194
 30
0.0
 10
29.05127467592243
 20
-3.799842678176844
 30
0.0
 10
29.55871459848127
 20
-3.771512677242844
 30
0.0
 10
30.00737565238657
 20
-3.752166376513013
 30
0.0
 10
30.42827106394869
 20
-3.73849360507237
 30
0.0
 10
30.88322132464913
 20
-3.727005952840172
 30
0.0
 10
31.34065630756087
 20
-3.720488464148945
 30
0.0
 10
31.70837193665682
 20
-3.718931978621642
 30
0.0
 10
32.00409377154018
 20
-3.719694573136859
 30
0.0
 10
32.28459506297508
 20
-3.721903931191932
 30
0.0
 10
32.72884089454643
 20
-3.728655731930356
 30
0.0
 10
33.37142425772629
 20
-3.745252663250462
 30
0.0
 10
33.89486892055579
 20
-3.770418059385009
 30
0.0
 10
34.18702616767954
 20
-3.784463962189148
 30
0.0
  0
SPLINE
  5
9F
330
1F
100
AcDbEntity
  8
0
  6
Continuous
 62
     1
370
    15
100
AcDbSpline
210
0.0
220
0.0
230
1.0
 70
     8
 71
     3
 72
    16
 73
    12
 74
     0
 42
0.000000001
 43
0.00000001
 40
0.0
 40
0.0
 40
0.0
 40
0.0
 40
0.1577520741182084
 40
0.3005138850277297
 40
0.4311882102281086
 40
0.5475149085486241
 40
0.6419502840657557
 40
0.7149697547716016
 40
0.7953495294166361
 40
0.9170463984797975
 40
1.0
 40
1.0
 40
1.0
 40
1.0
 10
34.18702616767954
 20
3.78446396218915
 30
0.0
 10
33.99020475244403
 20
3.774406752498232
 30
0.0
 10
33.61526471771103
 20
3.755248011330165
 30
0.0
 10
33.05767555590276
 20
3.735002466213237
 30
0.0
 10
32.54115841549456
 20
3.724457334840272
 30
0.0
 10
32.08776484629961
 20
3.719961555399569
 30
0.0
 10
31.71116241181932
 20
3.718753563400725
 30
0.0
 10
31.38774050113074
 20
3.720397871949848
 30
0.0
 10
31.03639355364587
 20
3.724717513370467
 30
0.0
 10
30.66686034534887
 20
3.731533401500932
 30
0.0
 10
30.4011776118858
 20
3.740380530804059
 30
0.0
 10
30.29348502002579
 20
3.743966651259669
 30
0.0
  0
SPLINE
  5
A0
330
1F
100
AcDbEntity
  8
0
  6
Continuous
 62
     1
370
    15
100
AcDbSpline
210
0.0
220
0.0
230
1.0
 70
     8
 71
     3
 72
    17
 73
    13
 74
     0
 42
0.000000001
 43
0.00000001
 40
0.0
 40
0.0
 40
0.0
 40
0.0
 40
0.1488967318632882
 40
0.2640348040804321
 40
0.3461400480638458
 40
0.421942328458117
 40
0.5151459198801192
 40
0.6231322441173057
 40
0.7215447216107476
 40
0.8641854265807204
 40
0.9880836042003738
 40
0.9999999999999999
 40
0.9999999999999999
 40
0.9999999999999999
 40
0.9999999999999999
 10
38.01080436799314
 20
-3.582036270317471
 30
0.0
 10
38.18536582445612
 20
-3.555246849009169
 30
0.0
 10
38.49491123475776
 20
-3.507741846595414
 30
0.0
 10
38.90102584752627
 20
-3.451216420273064
 30
0.0
 10
39.22460826722368
 20
-3.40909864779639
 30
0.0
 10
39.52352628691892
 20
-3.372603496239047
 30
0.0
 10
39.85118836002557
 20
-3.335280252019739
 30
0.0
 10
40.20458341845045
 20
-3.298564187071279
 30
0.0
 10
40.61576812190307
 20
-3.259856450507889
 30
0.0
 10
41.04613150512439
 20
-3.225241082073224
 30
0.0
 10
41.37290986405419
 20
-3.20189285890308
 30
0.0
 10
41.53272901338002
 20
-3.193356379496299
 30
0.0
 10
41.54675157511089
 20
-3.192607387213765
 30
0.0
  0
SPLINE
  5
A1
330
1F
100
AcDbEntity
  8
0
  6
Continuous
 62
     1
370
    15
100
AcDbSpline
210
0.0
220
0.0
230
1.0
 70
     8
 71
     3
 72
    29
 73
    25
 74
     0
 42
0.000000001
 43
0.00000001
 40
0.0
 40
0.0
 40
0.0
 40
0.0
 40
0.0706398528652521
 40
0.1253531125689292
 40
0.1672512536392598
 40
0.1923462685979007
 40
0.2173507212884188
 40
0.2442545489657845
 40
0.2732172003232325
 40
0.3043676186267408
 40
0.3377013461208718
 40
0.4019733477213748
 40
0.4557001412742768
 40
0.5002933864655049
 40
0.5434751297354626
 40
0.5951103263251878
 40
0.6571532337652091
 40
0.7155181344484114
 40
0.7678005961817398
 40
0.8136054862712864
 40
0.8369735772128717
 40
0.8750079332836478
 40
0.9292032351376124
 40
1.0
 40
1.0
 40
1.0
 40
1.0
 10
20.41523031794303
 20
3.257313589446039
 30
0.0
 10
20.21802619894552
 20
3.241266307482911
 30
0.0
 10
19.86807996993925
 20
3.212789793719689
 30
0.0
 10
19.40286420812168
 20
3.184515810883173
 30
0.0
 10
19.06499759981901
 20
3.167715073617468
 30
0.0
 10
18.81301795150119
 20
3.15738493948214
 30
0.0
 10
18.60093341126432
 20
3.149972773386819
 30
0.0
 10
18.3774598370659
 20
3.143623251104007
 30
0.0
 10
18.13609000577238
 20
3.138517259767859
 30
0.0
 10
17.87620144425398
 20
3.135037528442533
 30
0.0
 10
17.51744603235155
 20
3.133211262131427
 30
0.0
 10
17.09414543161447
 20
3.136327581917463
 30
0.0
 10
16.64385206009066
 20
3.146652789108407
 30
0.0
 10
16.2574144384942
 20
3.160356329184276
 30
0.0
 10
15.87074822409721
 20
3.178212852998894
 30
0.0
 10
15.43573508800702
 20
3.203495475500036
 30
0.0
 10
14.95864031650654
 20
3.237984476491877
 30
0.0
 10
14.48005738473563
 20
3.279862409715025
 30
0.0
 10
14.04568118625619
 20
3.323392785055594
 30
0.0
 10
13.71051204959401
 20
3.360788045012573
 30
0.0
 10
13.4160570482719
 20
3.395910623881308
 30
0.0
 10
13.09524135378948
 20
3.436534878879367
 30
0.0
 10
12.64233809567691
 20
3.498453980314325
 30
0.0
 10
12.29364241538581
 20
3.55181394785129
 30
0.0
 10
12.0961376718078
 20
3.582037570630101
 30
0.0
  0
SPLINE
  5
A2
330
1F
100
AcDbEntity
  8
0
  6
Continuous
 62
     1
370
    15
100
AcDbSpline
210
0.0
220
0.0
230
1.0
 70
     8
 71
     3
 72
    18
 73
    14
 74
     0
 42
0.000000001
 43
0.00000001
 40
0.0
 40
0.0
 40
0.0
 40
0.0
 40
0.1652102345194664
 40
0.2916795519600376
 40
0.3885322495896702
 40
0.4469815119084561
 40
0.5059831072524664
 40
0.5697880580558397
 40
0.6383044978397951
 40
0.7112788099058219
 40
0.7886251303999801
 40
0.9376075678596469
 40
1.0
 40
1.0
 40
1.0
 40
1.0
 10
12.0961376718078
 20
-3.582037570630099
 30
0.0
 10
12.29364160595653
 20
-3.551814437535013
 30
0.0
 10
12.6423358571959
 20
-3.498455334537283
 30
0.0
 10
13.10488583294281
 20
-3.435213543135609
 30
0.0
 10
13.4399569761932
 20
-3.392920960411591
 30
0.0
 10
13.69193985141126
 20
-3.363114297469441
 30
0.0
 10
13.90621126470333
 20
-3.338966135488463
 30
0.0
 10
14.13307758034643
 20
-3.31476833109606
 30
0.0
 10
14.3772261731525
 20
-3.290330028917489
 30
0.0
 10
14.63730309725723
 20
-3.266097649022914
 30
0.0
 10
14.99279704593346
 20
-3.235811842195403
 30
0.0
 10
15.33588310507419
 20
-3.209844195661525
 30
0.0
 10
15.58708841666015
 20
-3.195581816640528
 30
0.0
 10
15.66123777219178
 20
-3.191371928696367
 30
0.0
  0
SPLINE
  5
A3
330
1F
100
AcDbEntity
  8
0
  6
Continuous
 62
     1
370
    15
100
AcDbSpline
210
0.0
220
0.0
230
1.0
 70
     8
 71
     3
 72
    27
 73
    23
 74
     0
 42
0.000000001
 43
0.00000001
 40
0.0
 40
0.0
 40
0.0
 40
0.0
 40
0.0658815538681415
 40
0.1159906280124328
 40
0.1499689943921986
 40
0.1807226108090222
 40
0.2194568544945329
 40
0.2650650839941238
 40
0.3076434825375963
 40
0.3716915626978258
 40
0.4257384888453765
 40
0.4791749179547002
 40
0.5326899664439336
 40
0.5928528306639388
 40
0.6567745356888858
 40
0.710347992470496
 40
0.7402194582938343
 40
0.7678249439991459
 40
0.7957818426163187
 40
0.8421265386567771
 40
0.9100752646215624
 40
1.0
 40
1.0
 40
1.0
 40
1.0
 10
46.32999286157455
 20
3.257322577186162
 30
0.0
 10
46.14805011728608
 20
3.242446581199796
 30
0.0
 10
45.82772292502579
 20
3.216256001053149
 30
0.0
 10
45.41319940434547
 20
3.190203999345424
 30
0.0
 10
45.09341623811215
 20
3.173169185004536
 30
0.0
 10
44.80415673292334
 20
3.160184446313255
 30
0.0
 10
44.48427549274873
 20
3.148600681635795
 30
0.0
 10
44.13246887053982
 20
3.139652271560649
 30
0.0
 10
43.71043521117169
 20
3.133750308982511
 30
0.0
 10
43.26496213293657
 20
3.133607007250665
 30
0.0
 10
42.78923098592374
 20
3.140645338979281
 30
0.0
 10
42.34282698358989
 20
3.153494767539916
 30
0.0
 10
41.87968535840111
 20
3.173074136444267
 30
0.0
 10
41.38495326274967
 20
3.20102485524585
 30
0.0
 10
40.88768270328925
 20
3.23680315608657
 30
0.0
 10
40.47949297054826
 20
3.272388304151662
 30
0.0
 10
40.17640268189164
 20
3.301704313606027
 30
0.0
 10
39.94235282023761
 20
3.325832947922549
 30
0.0
 10
39.6627194809118
 20
3.356393709678838
 30
0.0
 10
39.26839693502271
 20
3.402933207948834
 30
0.0
 10
38.70160062567491
 20
3.476978783623276
 30
0.0
 10
38.26149090039849
 20
3.543911429961549
 30
0.0
 10
38.01080436799315
 20
3.582036270317473
 30
0.0
  0
SPLINE
  5
A4
330
1F
100
AcDbEntity
  8
외형선
  6
Continuous
370
    15
100
AcDbSpline
210
0.0
220
0.0
230
1.0
 70
     8
 71
     3
 72
     8
 73
     4
 74
     0
 42
0.000000001
 43
0.00000001
 40
0.0
 40
0.0
 40
0.0
 40
0.0
 40
1.0
 40
1.0
 40
1.0
 40
1.0
 10
10.0
 20
-0.2499534386703777
 30
0.0
 10
9.491546982110354
 20
0.0426332571239531
 30
0.0
 10
8.988458887993332
 20
0.335606161494979
 30
0.0
 10
8.480050278783127
 20
0.6260457461702832
 30
0.0
  0
SPLINE
  5
A5
330
1F
100
AcDbEntity
  8
외형선
  6
Continuous
370
    15
100
AcDbSpline
210
0.0
220
0.0
230
1.0
 70
    24
 71
     3
 72
     9
 73
     5
 74
     0
 42
0.000000001
 43
0.00000001
 40
0.0
 40
0.0
 40
0.0
 40
0.0
 40
0.2230663096542548
 40
1.0
 40
1.0
 40
1.0
 40
1.0
 10
10.0
 20
-0.2499534386703823
 30
0.0
 10
10.0
 20
-0.2538493921277336
 30
0.0
 10
10.0
 20
-0.2713148420353858
 30
0.0
 10
10.0
 20
-0.2940230618014049
 30
0.0
 10
10.0
 20
-0.3116658427854004
 30
0.0
  0
SPLINE
  5
A6
330
1F
100
AcDbEntity
  8
외형선
  6
Continuous
370
    15
100
AcDbSpline
210
0.0
220
0.0
230
1.0
 70
     8
 71
     3
 72
     8
 73
     4
 74
     0
 42
0.000000001
 43
0.00000001
 40
0.0
 40
0.0
 40
0.0
 40
0.0
 40
1.0
 40
1.0
 40
1.0
 40
1.0
 10
10.0
 20
-0.3116658427856052
 30
0.0
 10
9.618388785905786
 20
-0.1584104854106705
 30
0.0
 10
9.240466000487586
 20
-0.0046553144871436
 30
0.0
 10
8.860059019215333
 20
0.1489585984747754
 30
0.0
  0
SPLINE
  5
A7
330
1F
100
AcDbEntity
  8
외형선
  6
Continuous
370
    15
100
AcDbSpline
210
0.0
220
0.0
230
1.0
 70
     8
 71
     3
 72
    12
 73
     8
 74
     0
 42
0.000000001
 43
0.00000001
 40
0.0
 40
0.0
 40
0.0
 40
0.0
 40
0.5000000000000006
 40
0.5000000000000006
 40
0.7500000000000002
 40
0.7500000000000002
 40
1.0
 40
1.0
 40
1.0
 40
1.0
 10
8.480050278783283
 20
0.5293089856443758
 30
0.0
 10
8.480050379076435
 20
0.4857274183661387
 30
0.0
 10
8.523459101382013
 20
0.4155961303758044
 30
0.0
 10
8.621392172151756
 20
0.3079988933832721
 30
0.0
 10
8.659869358383915
 20
0.2718325185979145
 30
0.0
 10
8.749989118466203
 20
0.204085952456081
 30
0.0
 10
8.802255828332394
 20
0.1723003739162162
 30
0.0
 10
8.860059019215333
 20
0.1489585984747753
 30
0.0
  0
LINE
  5
A8
330
1F
100
AcDbEntity
  8
외형선
  6
Continuous
370
    15
100
AcDbLine
 10
8.480050278783127
 20
1.905752534738143
 30
0.0
 11
8.48005027878313
 21
4.7625
 31
0.0
  0
SPLINE
  5
A9
330
1F
100
AcDbEntity
  8
외형선
  6
Continuous
370
    15
100
AcDbSpline
210
0.0
220
0.0
230
1.0
 70
     8
 71
     3
 72
     8
 73
     4
 74
     0
 42
0.000000001
 43
0.00000001
 40
0.0
 40
0.0
 40
0.0
 40
0.0
 40
1.0
 40
1.0
 40
1.0
 40
1.0
 10
10.0
 20
1.073266480881011
 30
0.0
 10
9.491564550942051
 20
1.358710251456841
 30
0.0
 10
8.988493918086835
 20
1.637067549488521
 30
0.0
 10
8.480102980669374
 20
1.90556547958866
 30
0.0
  0
LINE
  5
AA
330
1F
100
AcDbEntity
  8
외형선
  6
Continuous
370
    15
100
AcDbLine
 10
10.0
 20
1.073266480881011
 30
0.0
 11
10.0
 21
-0.2499534386703796
 31
0.0
  0
LINE
  5
AB
330
1F
100
AcDbEntity
  8
외형선
  6
Continuous
370
    15
100
AcDbLine
 10
8.48005027878313
 20
-4.762499999999998
 30
0.0
 11
8.480050278783127
 21
0.6260422507629608
 31
0.0
  0
LINE
  5
AC
330
1F
100
AcDbEntity
  8
외형선
  6
Continuous
370
    15
100
AcDbLine
 10
-33.44999999999999
 20
4.762499999999996
 30
0.0
 11
-33.44999999999999
 21
-4.762500000000001
 31
0.0
  0
LINE
  5
AD
330
1F
100
AcDbEntity
  8
외형선
  6
Continuous
370
    15
100
AcDbLine
 10
-34.45
 20
3.762499999999996
 30
0.0
 11
-34.45
 21
-3.762499999999998
 31
0.0
  0
LINE
  5
AE
330
1F
100
AcDbEntity
  8
외형선
  6
Continuous
370
    15
100
AcDbLine
 10
10.00000000000001
 20
1.148329998544374
 30
0.0
 11
9.726655811933423
 21
1.27279318210972
 31
0.0
  0
SPLINE
  5
AF
330
1F
100
AcDbEntity
  8
외형선
  6
Continuous
370
    15
100
AcDbSpline
210
0.0
220
0.0
230
1.0
 70
    24
 71
     3
 72
     8
 73
     4
 74
     0
 42
0.000000001
 43
0.00000001
 40
0.0
 40
0.0
 40
0.0
 40
0.0
 40
1.0
 40
1.0
 40
1.0
 40
1.0
 10
10.0
 20
1.148329998544376
 30
0.0
 10
10.0
 20
1.143613160745078
 30
0.0
 10
10.0
 20
1.118521273184221
 30
0.0
 10
10.0
 20
1.073266480882848
 30
0.0
  0
SPLINE
  5
B0
330
1F
100
AcDbEntity
  8
외형선
  6
Continuous
370
    15
100
AcDbSpline
210
0.0
220
0.0
230
1.0
 70
     8
 71
     3
 72
     8
 73
     4
 74
     0
 42
0.000000001
 43
0.00000001
 40
0.0
 40
0.0
 40
0.0
 40
0.0
 40
1.0
 40
1.0
 40
1.0
 40
1.0
 10
10.0
 20
3.793313724889205
 30
0.0
 10
9.491553396117297
 20
3.815226340842194
 30
0.0
 10
8.988471676739744
 20
3.815566924167852
 30
0.0
 10
8.480069519122615
 20
3.794333960426891
 30
0.0
  0
SPLINE
  5
B1
330
1F
100
AcDbEntity
  8
외형선
  6
Continuous
370
    15
100
AcDbSpline
210
0.0
220
0.0
230
1.0
 70
    24
 71
     3
 72
    14
 73
    10
 74
     0
 42
0.000000001
 43
0.00000001
 40
0.0
 40
0.0
 40
0.0
 40
0.0
 40
0.25
 40
0.25
 40
0.5
 40
0.5
 40
0.75
 40
0.75
 40
1.0
 40
1.0
 40
1.0
 40
1.0
 10
10.0
 20
3.793313724889205
 30
0.0
 10
10.0
 20
3.716942071928234
 30
0.0
 10
10.0
 20
3.600553420279724
 30
0.0
 10
10.0
 20
3.287471577014937
 30
0.0
 10
10.0
 20
3.090776191809662
 30
0.0
 10
10.0
 20
2.628499752802188
 30
0.0
 10
9.999999999999996
 20
2.363052190402661
 30
0.0
 10
10.0
 20
1.784642520313053
 30
0.0
 10
10.0
 20
1.471887149250905
 30
0.0
 10
10.0
 20
1.14832999854438
 30
0.0
  0
SPLINE
  5
B2
330
1F
100
AcDbEntity
  8
외형선
  6
Continuous
370
    15
100
AcDbSpline
210
0.0
220
0.0
230
1.0
 70
     8
 71
     3
 72
     8
 73
     4
 74
     0
 42
0.000000001
 43
0.00000001
 40
0.0
 40
0.0
 40
0.0
 40
0.0
 40
1.0
 40
1.0
 40
1.0
 40
1.0
 10
10.0
 20
-3.793313724889204
 30
0.0
 10
9.667496956244916
 20
-3.807643669165292
 30
0.0
 10
9.337551798685563
 20
-3.812737021055746
 30
0.0
 10
9.006774522346538
 20
-3.808622024348455
 30
0.0
  0
SPLINE
  5
B3
330
1F
100
AcDbEntity
  8
외형선
  6
Continuous
370
    15
100
AcDbSpline
210
0.0
220
0.0
230
1.0
 70
     8
 71
     3
 72
    15
 73
    11
 74
     0
 42
0.000000001
 43
0.00000001
 40
0.0
 40
0.0
 40
0.0
 40
0.0
 40
0.4261759796912223
 40
0.5510682848635388
 40
0.6561343073195827
 40
0.7747491473796349
 40
0.8678676563245078
 40
0.9357177206181359
 40
0.9788798057142933
 40
0.9999999999999999
 40
0.9999999999999999
 40
0.9999999999999999
 40
0.9999999999999999
 10
8.758392610567675
 20
-3.972437687446206
 30
0.0
 10
8.791397295437461
 20
-3.947654922909104
 30
0.0
 10
8.834074114287814
 20
-3.915609485816351
 30
0.0
 10
8.885933767215626
 20
-3.879171433784666
 30
0.0
 10
8.913824461150291
 20
-3.860068241301206
 30
0.0
 10
8.939829876216962
 20
-3.843078449140326
 30
0.0
 10
8.963577686882921
 20
-3.828234899043053
 30
0.0
 10
8.982475907129897
 20
-3.818124171826422
 30
0.0
 10
8.995205014535715
 20
-3.811072780896011
 30
0.0
 10
9.00391199673435
 20
-3.809229480161756
 30
0.0
 10
9.00677270978693
 20
-3.808623856496746
 30
0.0
  0
SPLINE
  5
B4
330
1F
100
AcDbEntity
  8
외형선
  6
Continuous
370
    15
100
AcDbSpline
210
0.0
220
0.0
230
1.0
 70
    24
 71
     3
 72
    14
 73
    10
 74
     0
 42
0.000000001
 43
0.00000001
 40
0.0
 40
0.0
 40
0.0
 40
0.0
 40
0.25
 40
0.25
 40
0.5
 40
0.5
 40
0.75
 40
0.75
 40
1.0
 40
1.0
 40
1.0
 40
1.0
 10
10.0
 20
-0.3116658427856052
 30
0.0
 10
10.0
 20
-0.7136759344064809
 30
0.0
 10
10.0
 20
-1.112910496431317
 30
0.0
 10
10.0
 20
-1.864567327214833
 30
0.0
 10
10.0
 20
-2.216533157417045
 30
0.0
 10
10.0
 20
-2.835322365840224
 30
0.0
 10
10.0
 20
-3.101816027300464
 30
0.0
 10
10.0
 20
-3.527796278567033
 30
0.0
 10
10.0
 20
-3.687283860145516
 30
0.0
 10
10.0
 20
-3.793313724889202
 30
0.0
  0
SPLINE
  5
B5
330
1F
100
AcDbEntity
  8
외형선
  6
Continuous
370
    15
100
AcDbSpline
210
0.0
220
0.0
230
1.0
 70
     8
 71
     3
 72
    14
 73
    10
 74
     0
 42
0.000000001
 43
0.00000001
 40
0.0
 40
0.0
 40
0.0
 40
0.0
 40
0.2500000000000001
 40
0.2500000000000001
 40
0.5000000000000001
 40
0.5000000000000001
 40
0.7500000000000002
 40
0.7500000000000002
 40
1.0
 40
1.0
 40
1.0
 40
1.0
 10
8.758400470235706
 20
-3.972438469227197
 30
0.0
 10
8.729408957007369
 20
-3.994523102881911
 30
0.0
 10
8.698902410727282
 20
-4.019075951460184
 30
0.0
 10
8.631794715760119
 20
-4.078974637571203
 30
0.0
 10
8.593860555826872
 20
-4.115923215816666
 30
0.0
 10
8.527886736821213
 20
-4.192906272650939
 30
0.0
 10
8.505773069347518
 20
-4.226529210854882
 30
0.0
 10
8.483181717979434
 20
-4.270948406348816
 30
0.0
 10
8.48005027878313
 20
-4.284694237484444
 30
0.0
 10
8.48005027878313
 20
-4.294382429436286
 30
0.0
  0
SPLINE
  5
B6
330
1F
100
AcDbEntity
  8
0
  6
Continuous
 62
     1
370
    15
100
AcDbSpline
210
0.0
220
0.0
230
1.0
 70
     8
 71
     3
 72
    22
 73
    18
 74
     0
 42
0.000000001
 43
0.00000001
 40
0.0
 40
0.0
 40
0.0
 40
0.0
 40
0.0709844993982653
 40
0.1419460738394112
 40
0.2128910023659038
 40
0.2838256104544935
 40
0.3547562524350302
 40
0.4256892937385218
 40
0.496631093079395
 40
0.5675879846775721
 40
0.6385662606255844
 40
0.7095555936816349
 40
0.7805222316289491
 40
0.8514706728200048
 40
0.922407232922272
 40
0.993338260804557
 40
1.0
 40
1.0
 40
1.0
 40
1.0
 10
48.10000000000002
 20
-4.519330889716926
 30
0.0
 10
47.54941461937768
 20
-4.401618479673075
 30
0.0
 10
46.44842167366106
 20
-4.16623167565896
 30
0.0
 10
44.79729303256976
 20
-3.598423438784016
 30
0.0
 10
43.14661909464992
 20
-2.899974367677941
 30
0.0
 10
41.49623573088763
 20
-2.082346839408021
 30
0.0
 10
39.84596228754775
 20
-1.182558024735582
 30
0.0
 10
38.19562227579419
 20
-0.2353073381493829
 30
0.0
 10
36.54503711296126
 20
0.7213074322431042
 30
0.0
 10
34.89403361107843
 20
1.649259114370824
 30
0.0
 10
33.24255184488899
 20
2.511275891898289
 30
0.0
 10
31.59090423748443
 20
3.27333185229796
 30
0.0
 10
29.93965067919662
 20
3.903385161608922
 30
0.0
 10
28.28887832694492
 20
4.382856576732808
 30
0.0
 10
26.63843949611721
 20
4.667486466062949
 30
0.0
 10
25.4865805456945
 20
4.787878265371607
 30
0.0
 10
24.88483641998685
 20
4.757052556842049
 30
0.0
 10
24.83317358363203
 20
4.754406010798228
 30
0.0
  0
SPLINE
  5
B7
330
1F
100
AcDbEntity
  8
0
  6
Continuous
 62
     1
370
    15
100
AcDbSpline
210
0.0
220
0.0
230
1.0
 70
     8
 71
     3
 72
    15
 73
    11
 74
     0
 42
0.000000001
 43
0.00000001
 40
0.0
 40
0.0
 40
0.0
 40
0.0
 40
0.1336741497768804
 40
0.26730320012764
 40
0.4008995023349363
 40
0.5344755002247794
 40
0.6680436951297516
 40
0.8016166105084477
 40
0.9352067564324327
 40
1.0
 40
1.0
 40
1.0
 40
1.0
 10
48.10000000000002
 20
-3.757480409053629
 30
0.0
 10
47.54941639610821
 20
-3.642456901598158
 30
0.0
 10
46.44843494603923
 20
-3.412448693698032
 30
0.0
 10
44.79730132265281
 20
-2.890962759223888
 30
0.0
 10
43.14662461198114
 20
-2.264839219949207
 30
0.0
 10
41.49623760473777
 20
-1.545658522491819
 30
0.0
 10
39.84596166696455
 20
-0.7648667311793664
 30
0.0
 10
38.19561538699726
 20
0.044019675732894
 30
0.0
 10
36.82849220463044
 20
0.7207226152878526
 30
0.0
 10
36.01143526964733
 20
1.09889762899145
 30
0.0
 10
35.74457941476646
 20
1.222411930450185
 30
0.0
  0
LINE
  5
B8
330
1F
100
AcDbEntity
  8
0
  6
Continuous
 62
     1
370
    15
100
AcDbLine
 10
48.09999999999972
 20
-4.519330889716928
 30
0.0
 11
48.10000000000002
 21
-3.757480409053629
 31
0.0
  0
SPLINE
  5
B9
330
1F
100
AcDbEntity
  8
0
  6
Continuous
 62
     1
370
    15
100
AcDbSpline
210
0.0
220
0.0
230
1.0
 70
     8
 71
     3
 72
    20
 73
    16
 74
     0
 42
0.000000001
 43
0.00000001
 40
0.0
 40
0.0
 40
0.0
 40
0.0
 40
0.0175196331836731
 40
0.0988569170160159
 40
0.1801805800347821
 40
0.2614979007613235
 40
0.3428161754656967
 40
0.4241426977472522
 40
0.5054847381310554
 40
0.5868495238009916
 40
0.6695102107561977
 40
0.7521557319770324
 40
0.8347826984856578
 40
0.9173958611354964
 40
1.0
 40
1.0
 40
1.0
 40
1.0
 10
30.29509761480444
 20
-3.743354382868556
 30
0.0
 10
30.17657174358117
 20
-3.789204239265834
 30
0.0
 10
29.50777336790003
 20
-4.047918300316264
 30
0.0
 10
28.28888375234053
 20
-4.371782204142669
 30
0.0
 10
26.63843890722691
 20
-4.682002566001547
 30
0.0
 10
24.98815662423029
 20
-4.792984569150218
 30
0.0
 10
23.3378488740208
 20
-4.715983140152572
 30
0.0
 10
21.68734118177224
 20
-4.449856484035159
 30
0.0
 10
20.03645488446391
 20
-4.006311981964372
 30
0.0
 10
18.37645315934851
 20
-3.39955736015065
 30
0.0
 10
16.7074984195325
 20
-2.651395883169094
 30
0.0
 10
15.03011208577311
 20
-1.789839853387818
 30
0.0
 10
13.35311907414539
 20
-0.8554661865982954
 30
0.0
 10
11.6764618225239
 20
0.1172442592346488
 30
0.0
 10
10.55880025948058
 20
0.754604010702644
 30
0.0
 10
9.999999999998456
 20
1.073266480881879
 30
0.0
  0
SPLINE
  5
BA
330
1F
100
AcDbEntity
  8
외형선
  6
Continuous
370
    15
100
AcDbSpline
210
0.0
220
0.0
230
1.0
 70
    24
 71
     3
 72
     8
 73
     4
 74
     0
 42
0.000000001
 43
0.00000001
 40
0.0
 40
0.0
 40
0.0
 40
0.0
 40
1.0
 40
1.0
 40
1.0
 40
1.0
 10
10.0
 20
1.148329998544376
 30
0.0
 10
10.0
 20
1.143613160745078
 30
0.0
 10
10.0
 20
1.118521273184221
 30
0.0
 10
10.0
 20
1.073266480882848
 30
0.0
  0
SPLINE
  5
BB
330
1F
100
AcDbEntity
  8
0
  6
Continuous
 62
     1
370
    15
100
AcDbSpline
210
0.0
220
0.0
230
1.0
 70
     8
 71
     3
 72
    18
 73
    14
 74
     0
 42
0.000000001
 43
0.00000001
 40
0.0
 40
0.0
 40
0.0
 40
0.0
 40
0.0228508030492528
 40
0.1197721018803525
 40
0.2166945886729964
 40
0.3136273458605758
 40
0.4105794267675632
 40
0.5075598300439935
 40
0.604566754636668
 40
0.7015466595978888
 40
0.7984983786620399
 40
0.8992521723439353
 40
1.0
 40
1.0
 40
1.0
 40
1.0
 10
27.02747772645334
 20
-3.948522293350013
 30
0.0
 10
26.89778554126393
 20
-3.965833139354257
 30
0.0
 10
26.21800612239132
 20
-4.056567649068703
 30
0.0
 10
24.98815732042958
 20
-4.063668367167514
 30
0.0
 10
23.33784480747068
 20
-3.959049818190185
 30
0.0
 10
21.68733427705603
 20
-3.683528924292289
 30
0.0
 10
20.03644430791154
 20
-3.264399285763579
 30
0.0
 10
18.38506623456718
 20
-2.713949345352365
 30
0.0
 10
16.73342001299996
 20
-2.055579024480819
 30
0.0
 10
15.08204294304215
 20
-1.31471505184816
 30
0.0
 10
13.40949381657592
 20
-0.5119252696403205
 30
0.0
 10
11.71550130914098
 20
0.3265348577214324
 30
0.0
 10
10.57182248243076
 20
0.874403692005903
 30
0.0
 10
10.00000000000001
 20
1.148329998544374
 30
0.0
  0
SPLINE
  5
BC
330
1F
100
AcDbEntity
  8
0
  6
Continuous
 62
     1
370
    15
100
AcDbSpline
210
0.0
220
0.0
230
1.0
 70
     8
 71
     3
 72
    27
 73
    23
 74
     0
 42
0.000000001
 43
0.00000001
 40
0.0
 40
0.0
 40
0.0
 40
0.0
 40
0.0322512880499927
 40
0.0839671885667914
 40
0.1348726229298866
 40
0.1857638279954234
 40
0.2366453252635659
 40
0.2875216633472283
 40
0.338397405292888
 40
0.3892771158159035
 40
0.4401653485259364
 40
0.4910666332181837
 40
0.5419841951951303
 40
0.5928938238243444
 40
0.6437881151384479
 40
0.6946715820307164
 40
0.7455487676082517
 40
0.7964242325453752
 40
0.8473025423330042
 40
0.8981882544994769
 40
0.9490859058785734
 40
1.0
 40
1.0
 40
1.0
 40
1.0
 10
15.6611185827934
 20
3.191322335623847
 30
0.0
 10
16.00986976113767
 20
3.341391576105616
 30
0.0
 10
16.91785383636378
 20
3.73210131129744
 30
0.0
 10
18.37641949113123
 20
4.197760773872951
 30
0.0
 10
20.03641711909864
 20
4.578741359124328
 30
0.0
 10
21.6873062475134
 20
4.769433851444317
 30
0.0
 10
23.33781601687613
 20
4.77120085229821
 30
0.0
 10
24.98812548219286
 20
4.582143215927555
 30
0.0
 10
26.63841188277267
 20
4.210311880335412
 30
0.0
 10
28.28885176283585
 20
3.670391484851133
 30
0.0
 10
29.9396266727513
 20
2.983933820326663
 30
0.0
 10
31.5908823885368
 20
2.178252510537741
 30
0.0
 10
33.24253222327935
 20
1.285738289378997
 30
0.0
 10
34.89401613048214
 20
0.3417920001250834
 30
0.0
 10
36.54502178108051
 20
-0.6157832039724752
 30
0.0
 10
38.19560911086165
 20
-1.548671459672755
 30
0.0
 10
39.84595130772594
 20
-2.419772286636171
 30
0.0
 10
41.49622694702909
 20
-3.194021897014993
 30
0.0
 10
43.14661251220454
 20
-3.841785620372721
 30
0.0
 10
44.79728865097032
 20
-4.33258463965685
 30
0.0
 10
46.44841948682205
 20
-4.664093140746147
 30
0.0
 10
47.549413891551
 20
-4.727010864835395
 30
0.0
 10
48.10000000000002
 20
-4.762499999999993
 30
0.0
  0
SPLINE
  5
BD
330
1F
100
AcDbEntity
  8
0
  6
Continuous
 62
     1
370
    15
100
AcDbSpline
210
0.0
220
0.0
230
1.0
 70
     8
 71
     3
 72
    17
 73
    13
 74
     0
 42
0.000000001
 43
0.00000001
 40
0.0
 40
0.0
 40
0.0
 40
0.0
 40
0.0866894343833383
 40
0.1908426792853312
 40
0.2950135735982167
 40
0.399148251619335
 40
0.5032538879119363
 40
0.6073405607249179
 40
0.711418402619103
 40
0.8154975714840551
 40
0.9195882214018423
 40
1.0
 40
1.0
 40
1.0
 40
1.0
 10
36.26875771876626
 20
-0.4525461833646036
 30
0.0
 10
35.81056415289964
 20
-0.2682142462348764
 30
0.0
 10
34.80187274357957
 20
0.1375837729808731
 30
0.0
 10
33.24252207243367
 20
0.7666372260703875
 30
0.0
 10
31.5909151604765
 20
1.400511806079015
 30
0.0
 10
29.93965000813663
 20
1.979008944892559
 30
0.0
 10
28.28887051762403
 20
2.478388721659889
 30
0.0
 10
26.63842427391209
 20
2.878548153585032
 30
0.0
 10
24.98813228494688
 20
3.164904762428266
 30
0.0
 10
23.33781574917917
 20
3.320807884869641
 30
0.0
 10
21.81256870804236
 20
3.356674643841177
 30
0.0
 10
20.83738435936063
 20
3.279203762102692
 30
0.0
 10
20.41236931446756
 20
3.245439591949121
 30
0.0
  0
LINE
  5
BE
330
1F
100
AcDbEntity
  8
0
  6
Continuous
 62
     1
370
    15
100
AcDbLine
 10
48.1
 20
-4.762499999999998
 30
0.0
 11
48.09999999999996
 21
-4.519330889716908
 31
0.0
  0
SPLINE
  5
BF
330
1F
100
AcDbEntity
  8
0
  6
Continuous
 62
     1
370
    15
100
AcDbSpline
210
0.0
220
0.0
230
1.0
 70
     8
 71
     3
 72
    15
 73
    11
 74
     0
 42
0.000000001
 43
0.00000001
 40
0.0
 40
0.0
 40
0.0
 40
0.0
 40
0.1338506935891069
 40
0.2677160109482772
 40
0.4016036987327873
 40
0.5355214562399129
 40
0.6694637825134424
 40
0.8013070305362174
 40
0.9331134251890003
 40
1.0
 40
1.0
 40
1.0
 40
1.0
 10
10.00000000000048
 20
-0.2499534386706557
 30
0.0
 10
10.558797626985
 20
-0.5711939015362624
 30
0.0
 10
11.67645393202361
 20
-1.213709924184331
 30
0.0
 10
13.35310330443092
 20
-2.124700186582607
 30
0.0
 10
15.03008852438031
 20
-2.94918471776914
 30
0.0
 10
16.7074669037252
 20
-3.65132249239792
 30
0.0
 10
18.37641765854817
 20
-4.202900415538751
 30
0.0
 10
20.03641615669036
 20
-4.571676232752663
 30
0.0
 10
21.41638127684991
 20
-4.756353376988712
 30
0.0
 10
22.24587282100114
 20
-4.743135195080588
 30
0.0
 10
22.52510689945239
 20
-4.738685521217193
 30
0.0
  0
SPLINE
  5
C0
330
1F
100
AcDbEntity
  8
0
  6
Continuous
 62
     1
370
    15
100
AcDbSpline
210
0.0
220
0.0
230
1.0
 70
     8
 71
     3
 72
    11
 73
     7
 74
     0
 42
0.000000001
 43
0.00000001
 40
0.0
 40
0.0
 40
0.0
 40
0.0
 40
0.2439979952925304
 40
0.4959321204350443
 40
0.7479253563762329
 40
0.9999999999999999
 40
0.9999999999999999
 40
0.9999999999999999
 40
0.9999999999999999
 10
41.54795370413071
 20
3.193075510426919
 30
0.0
 10
42.08081317139249
 20
3.410699714674225
 30
0.0
 10
43.16386356767218
 20
3.853026435190764
 30
0.0
 10
44.79728890430619
 20
4.330932593072842
 30
0.0
 10
46.44841942345802
 20
4.664506348443905
 30
0.0
 10
47.54941387042738
 20
4.727148615563547
 30
0.0
 10
48.10000000000002
 20
4.762500000000001
 30
0.0
  0
SPLINE
  5
C1
330
1F
100
AcDbEntity
  8
0
  6
Continuous
 62
     1
370
    15
100
AcDbSpline
210
0.0
220
0.0
230
1.0
 70
    24
 71
     3
 72
    10
 73
     6
 74
     0
 42
0.000000001
 43
0.00000001
 40
0.0
 40
0.0
 40
0.0
 40
0.0
 40
0.4999999999999996
 40
0.4999999999999996
 40
1.0
 40
1.0
 40
1.0
 40
1.0
 10
48.10000000000002
 20
3.333750000000001
 30
0.0
 10
48.10000000000002
 20
3.535833623044833
 30
0.0
 10
48.10000000000002
 20
3.770673507979647
 30
0.0
 10
48.1
 20
4.263366954076076
 30
0.0
 10
48.10000000000002
 20
4.519962238004517
 30
0.0
 10
48.10000000000002
 20
4.762500000000006
 30
0.0
  0
SPLINE
  5
C2
330
1F
100
AcDbEntity
  8
0
  6
Continuous
 62
     1
370
    15
100
AcDbSpline
210
0.0
220
0.0
230
1.0
 70
     8
 71
     3
 72
     9
 73
     5
 74
     0
 42
0.000000001
 43
0.00000001
 40
0.0
 40
0.0
 40
0.0
 40
0.0
 40
0.932417514745844
 40
1.0
 40
1.0
 40
1.0
 40
1.0
 10
48.10000000000002
 20
3.333750000000001
 30
0.0
 10
47.54941271038883
 20
3.33184296797422
 30
0.0
 10
46.95891834396621
 20
3.329797712500547
 30
0.0
 10
46.36845603716374
 20
3.257771216416396
 30
0.0
 10
46.32855112702114
 20
3.252903486806881
 30
0.0
  0
LINE
  5
C3
330
1F
100
AcDbEntity
  8
0
  6
Continuous
 62
     1
370
    15
100
AcDbLine
 10
10.35466382490728
 20
-0.4519776875457924
 30
0.0
 11
10.0
 21
-0.3116658427856052
 31
0.0
  0
SPLINE
  5
C4
330
1F
100
AcDbEntity
  8
외형선
  6
Continuous
370
    15
100
AcDbSpline
210
0.0
220
0.0
230
1.0
 70
    24
 71
     3
 72
    11
 73
     7
 74
     0
 42
0.000000001
 43
0.00000001
 40
0.0
 40
0.0
 40
0.0
 40
0.0
 40
0.2877234641380274
 40
0.685521334115193
 40
0.8424015226317978
 40
0.9999999999999999
 40
0.9999999999999999
 40
0.9999999999999999
 40
0.9999999999999999
 10
10.00000000000004
 20
-0.1432731490688199
 30
0.0
 10
10.00000000000002
 20
-0.1440540150295186
 30
0.0
 10
9.999999999999991
 20
-0.145914482950503
 30
0.0
 10
10.0
 20
-0.1985522298760882
 30
0.0
 10
10.0
 20
-0.2602080791582965
 30
0.0
 10
10.0
 20
-0.2944871563941845
 30
0.0
 10
10.0
 20
-0.3116658427853999
 30
0.0
  0
SPLINE
  5
C5
330
1F
100
AcDbEntity
  8
0
  6
Continuous
 62
     1
370
    15
100
AcDbSpline
210
0.0
220
0.0
230
1.0
 70
     8
 71
     3
 72
     8
 73
     4
 74
     0
 42
0.000000001
 43
0.00000001
 40
0.0
 40
0.0
 40
0.0
 40
0.0
 40
1.0
 40
1.0
 40
1.0
 40
1.0
 10
45.15319177087816
 20
1.332157722516806
 30
0.0
 10
44.98341672496233
 20
1.533287874480675
 30
0.0
 10
44.83247175025961
 20
1.726224115458038
 30
0.0
 10
44.70438349322804
 20
1.909214249066984
 30
0.0
  0
LINE
  5
C6
330
1F
100
AcDbEntity
  8
0
  6
Continuous
 62
     1
370
    15
100
AcDbLine
 10
44.76456634281502
 20
1.959713655970956
 30
0.0
 11
48.10000000000002
 21
0.0000000000000052
 31
0.0
  0
LINE
  5
C7
330
1F
100
AcDbEntity
  8
0
  6
Continuous
 62
     1
370
    15
100
AcDbLine
 10
48.10000000000002
 20
0.0000000000000052
 30
0.0
 11
48.10000000000002
 21
-1.272744530466179
 31
0.0
  0
SPLINE
  5
C8
330
1F
100
AcDbEntity
  8
0
  6
Continuous
 62
     1
370
    15
100
AcDbSpline
210
0.0
220
0.0
230
1.0
 70
     8
 71
     3
 72
    12
 73
     8
 74
     0
 42
0.000000001
 43
0.00000001
 40
0.0
 40
0.0
 40
0.0
 40
0.0
 40
0.5
 40
0.5
 40
0.75
 40
0.75
 40
1.0
 40
1.0
 40
1.0
 40
1.0
 10
48.10000000000002
 20
-1.272744530466179
 30
0.0
 10
47.58989851532634
 20
-0.8717186828896191
 30
0.0
 10
47.08831718328908
 20
-0.4542496700308831
 30
0.0
 10
46.34905392059149
 20
0.1972525864200623
 30
0.0
 10
46.10485565325277
 20
0.4187098580069621
 30
0.0
 10
45.62144649459787
 20
0.8712496099959952
 30
0.0
 10
45.38355473523949
 20
1.101157755784052
 30
0.0
 10
45.15319177087809
 20
1.33215772251686
 30
0.0
  0
SPLINE
  5
C9
330
1F
100
AcDbEntity
  8
0
  6
Continuous
 62
     1
370
    15
100
AcDbSpline
210
0.0
220
0.0
230
1.0
 70
     8
 71
     3
 72
    24
 73
    20
 74
     0
 42
0.000000001
 43
0.00000001
 40
0.0
 40
0.0
 40
0.0
 40
0.0
 40
0.0524476382503676
 40
0.1113803735502885
 40
0.1703319220322
 40
0.229293200083702
 40
0.2882345124016488
 40
0.3471598147776325
 40
0.4060746633017068
 40
0.4649846437777463
 40
0.5238953558664731
 40
0.5828123971452697
 40
0.6417413471805095
 40
0.7006877517080089
 40
0.7596505038656068
 40
0.8185966064625143
 40
0.8775253372527957
 40
0.9387645076100828
 40
0.9999999999999999
 40
0.9999999999999999
 40
0.9999999999999999
 40
0.9999999999999999
 10
38.01437644052076
 20
-3.574402911633996
 30
0.0
 10
37.52463126999666
 20
-3.643489904907515
 30
0.0
 10
36.48458443743903
 20
-3.790206427804842
 30
0.0
 10
34.89400675194874
 20
-3.831532352400396
 30
0.0
 10
33.2425299744387
 20
-3.73478452458432
 30
0.0
 10
31.59090880584765
 20
-3.485393919736571
 30
0.0
 10
29.93964738193986
 20
-3.097761740550501
 30
0.0
 10
28.28886975006332
 20
-2.58624557549876
 30
0.0
 10
26.63842608346213
 20
-1.971600966171112
 30
0.0
 10
24.98813613609481
 20
-1.278266155752657
 30
0.0
 10
23.33782309241771
 20
-0.5339160997748351
 30
0.0
 10
21.68730958396748
 20
0.2317810876709806
 30
0.0
 10
20.03641743360328
 20
0.9882675914840112
 30
0.0
 10
18.38503745907012
 20
1.705415327814586
 30
0.0
 10
16.73339749983409
 20
2.354141536430562
 30
0.0
 10
15.08201888533693
 20
2.90979655242852
 30
0.0
 10
13.40946851423571
 20
3.352000386719269
 30
0.0
 10
11.7154877506645
 20
3.671694027294796
 30
0.0
 10
10.57181780191958
 20
3.752774637319726
 30
0.0
 10
10.00000000000001
 20
3.793313724889205
 30
0.0
  0
SPLINE
  5
CA
330
1F
100
AcDbEntity
  8
외형선
  6
Continuous
370
    15
100
AcDbSpline
210
0.0
220
0.0
230
1.0
 70
    24
 71
     3
 72
    14
 73
    10
 74
     0
 42
0.000000001
 43
0.00000001
 40
0.0
 40
0.0
 40
0.0
 40
0.0
 40
0.25
 40
0.25
 40
0.5
 40
0.5
 40
0.75
 40
0.75
 40
1.0
 40
1.0
 40
1.0
 40
1.0
 10
10.0
 20
3.793313724889205
 30
0.0
 10
10.0
 20
3.716942071928234
 30
0.0
 10
10.0
 20
3.600553420279724
 30
0.0
 10
10.0
 20
3.287471577014937
 30
0.0
 10
10.0
 20
3.090776191809662
 30
0.0
 10
10.0
 20
2.628499752802188
 30
0.0
 10
9.999999999999996
 20
2.363052190402661
 30
0.0
 10
10.0
 20
1.784642520313053
 30
0.0
 10
10.0
 20
1.471887149250905
 30
0.0
 10
10.0
 20
1.14832999854438
 30
0.0
  0
SPLINE
  5
CB
330
1F
100
AcDbEntity
  8
0
  6
Continuous
 62
     1
370
    15
100
AcDbSpline
210
0.0
220
0.0
230
1.0
 70
     8
 71
     3
 72
    15
 73
    11
 74
     0
 42
0.000000001
 43
0.00000001
 40
0.0
 40
0.0
 40
0.0
 40
0.0
 40
0.0913511126263075
 40
0.1829753529302927
 40
0.3334419562074725
 40
0.4838996464922529
 40
0.6343627280236455
 40
0.784845489689567
 40
0.9353621643923096
 40
0.9999999999999999
 40
0.9999999999999999
 40
0.9999999999999999
 40
0.9999999999999999
 10
45.15319177087812
 20
1.332157722516841
 30
0.0
 10
44.81935191935745
 20
1.474951870189503
 30
0.0
 10
44.15067407955849
 20
1.76096710104572
 30
0.0
 10
42.93132919447685
 20
2.242610293297527
 30
0.0
 10
41.49625793847312
 20
2.753205593366179
 30
0.0
 10
39.84594678180925
 20
3.228341326544962
 30
0.0
 10
38.19561032545359
 20
3.577418327183286
 30
0.0
 10
36.54501398853112
 20
3.774704095331746
 30
0.0
 10
35.20818076442819
 20
3.839394550921
 30
0.0
 10
34.42149211010702
 20
3.782801704273015
 30
0.0
 10
34.18515101812119
 20
3.765799787311452
 30
0.0
  0
SPLINE
  5
CC
330
1F
100
AcDbEntity
  8
0
  6
Continuous
 62
     1
370
    15
100
AcDbSpline
210
0.0
220
0.0
230
1.0
 70
     8
 71
     3
 72
     9
 73
     5
 74
     0
 42
0.000000001
 43
0.00000001
 40
0.0
 40
0.0
 40
0.0
 40
0.0
 40
0.1841559408248314
 40
1.0
 40
1.0
 40
1.0
 40
1.0
 10
12.10268319465704
 20
-3.567557485512972
 30
0.0
 10
11.97360839287822
 20
-3.592127435495259
 30
0.0
 10
11.27270892039473
 20
-3.725546698931654
 30
0.0
 10
10.57181783122662
 20
-3.762866547855427
 30
0.0
 10
10.00000000000001
 20
-3.793313724889204
 30
0.0
  0
SPLINE
  5
CD
330
1F
100
AcDbEntity
  8
0
  6
Continuous
 62
     1
370
    15
100
AcDbSpline
210
0.0
220
0.0
230
1.0
 70
    24
 71
     3
 72
    10
 73
     6
 74
     0
 42
0.000000001
 43
0.00000001
 40
0.0
 40
0.0
 40
0.0
 40
0.0
 40
0.5
 40
0.5
 40
1.0
 40
1.0
 40
1.0
 40
1.0
 10
48.10000000000002
 20
-3.757480409053627
 30
0.0
 10
48.10000000000002
 20
-3.469440240130619
 30
0.0
 10
48.09999999999999
 20
-3.105490442104553
 30
0.0
 10
48.1
 20
-2.25934218795511
 30
0.0
 10
48.10000000000002
 20
-1.77787669753186
 30
0.0
 10
48.10000000000002
 20
-1.272744530466332
 30
0.0
  0
SPLINE
  5
CE
330
1F
100
AcDbEntity
  8
0
  6
Continuous
 62
     1
370
    15
100
AcDbSpline
210
0.0
220
0.0
230
1.0
 70
    24
 71
     3
 72
     8
 73
     4
 74
     0
 42
0.000000001
 43
0.00000001
 40
0.0
 40
0.0
 40
0.0
 40
0.0
 40
1.0
 40
1.0
 40
1.0
 40
1.0
 10
45.20116348196437
 20
2.326062154403922
 30
0.0
 10
45.04396695349191
 20
2.194158605340327
 30
0.0
 10
44.87783853855075
 20
2.054760313635454
 30
0.0
 10
44.70438349322262
 20
1.909214249074781
 30
0.0
  0
SPLINE
  5
CF
330
1F
100
AcDbEntity
  8
0
  6
Continuous
 62
     1
370
    15
100
AcDbSpline
210
0.0
220
0.0
230
1.0
 70
     8
 71
     3
 72
    10
 73
     6
 74
     0
 42
0.000000001
 43
0.00000001
 40
0.0
 40
0.0
 40
0.0
 40
0.0
 40
0.5
 40
0.5
 40
1.0
 40
1.0
 40
1.0
 40
1.0
 10
48.10000000000002
 20
3.333750000000006
 30
0.0
 10
47.61010084443065
 20
3.200858771186567
 30
0.0
 10
47.12319019079001
 20
3.05171718624011
 30
0.0
 10
46.15590601612548
 20
2.717887533311611
 30
0.0
 10
45.67548240013404
 20
2.533688937192368
 30
0.0
 10
45.20116348197362
 20
2.326062154408235
 30
0.0
  0
SPLINE
  5
D0
330
1F
100
AcDbEntity
  8
외형선
  6
Continuous
370
    15
100
AcDbSpline
210
0.0
220
0.0
230
1.0
 70
    24
 71
     3
 72
    14
 73
    10
 74
     0
 42
0.000000001
 43
0.00000001
 40
0.0
 40
0.0
 40
0.0
 40
0.0
 40
0.25
 40
0.25
 40
0.5
 40
0.5
 40
0.75
 40
0.75
 40
1.0
 40
1.0
 40
1.0
 40
1.0
 10
10.0
 20
-0.3116658427856052
 30
0.0
 10
10.0
 20
-0.7136759344064809
 30
0.0
 10
10.0
 20
-1.112910496431317
 30
0.0
 10
10.0
 20
-1.864567327214833
 30
0.0
 10
10.0
 20
-2.216533157417045
 30
0.0
 10
10.0
 20
-2.835322365840224
 30
0.0
 10
10.0
 20
-3.101816027300464
 30
0.0
 10
10.0
 20
-3.527796278567032
 30
0.0
 10
10.0
 20
-3.687283860145516
 30
0.0
 10
10.0
 20
-3.793313724889202
 30
0.0
  0
LINE
  5
D1
330
1F
100
AcDbEntity
  8
0
  6
Continuous
 62
     1
370
    15
100
AcDbLine
 10
48.10000000000002
 20
0.0000000000000052
 30
0.0
 11
48.10000000000002
 21
3.333750000000006
 31
0.0
  0
LINE
  5
D2
330
1F
100
AcDbEntity
  8
중심선
 48
0.8
100
AcDbLine
 10
-37.44999999999999
 20
-0.0000000000000048
 30
0.0
 11
51.1
 21
0.0000000000000065
 31
0.0
  0
LINE
  5
D3
330
1F
100
AcDbEntity
  8
참조1
100
AcDbLine
 10
11.67426131403116
 20
0.0010749287238892
 30
0.0
 11
11.67426131403116
 21
-39.99892507127611
 31
0.0
  0
LINE
  5
D4
330
1F
100
AcDbEntity
  8
참조1
100
AcDbLine
 10
11.67426131403116
 20
-39.99892507127611
 30
0.0
 11
-20.15080122126847
 21
-39.9989250712761
 31
0.0
  0
CIRCLE
  5
D5
330
1F
100
AcDbEntity
  8
해칭선
100
AcDbCircle
 10
0.0
 20
0.0
 30
0.0
 40
2.999999999999995
  0
INSERT
  5
D6
330
1F
100
AcDbEntity
  8
0
  6
Continuous
 62
     7
100
AcDbBlockReference
 66
     1
  2
블럭10
 10
-7.11527293212521
 20
-52.04717430164393
 30
0.0
  0
ATTRIB
  5
D7
330
D6
100
AcDbEntity
  8
FORMAT
 62
     2
100
AcDbText
 10
-16.29656822086649
 20
-49.97180738881174
 30
0.0
 40
4.233333333333333
  1
E1071024 [ 2 FLUTE ]
 41
0.75
  7
SLDTEXTSTYLE0
 11
-16.29656822086649
 21
-52.08847405547841
 31
0.0
100
AcDbAttribute
  2
AUTOATTR0
 70
     0
 74
     1
  0
SEQEND
  5
D8
330
D6
100
AcDbEntity
  8
0
  6
Continuous
 62
     7
  0
HATCH
  5
D9
330
1F
100
AcDbEntity
  8
중심선
100
AcDbHatch
 10
0.0
 20
0.0
 30
0.0
210
0.0
220
0.0
230
1.0
  2
SOLID
 70
     1
 71
     0
 91
        1
 92
        0
 93
        4
 72
     1
 10
-1.400363627744377
 20
-35.8
 11
-4.846638871581659
 21
-35.8
 72
     1
 10
-4.846638871581659
 20
-35.8
 11
-6.974868730785682
 21
-38.3363255805726
 72
     1
 10
-6.974868730785682
 20
-38.3363255805726
 11
-3.52856040183525
 21
-38.33628615127011
 72
     1
 10
-3.52856040183525
 20
-38.33628615127011
 11
-1.400363627744377
 21
-35.8
 97
        0
 75
     0
 76
     1
 98
        1
 10
-4.84926131403116
 20
-0.0010749287238936
  0
HATCH
  5
DA
330
1F
100
AcDbEntity
  8
중심선
100
AcDbHatch
 10
0.0
 20
0.0
 30
0.0
210
0.0
220
0.0
230
1.0
  2
SOLID
 70
     1
 71
     0
 91
        1
 92
        0
 93
        4
 72
     1
 10
3.612400363291602
 20
-35.79999999999998
 11
0.1661251194543478
 21
-35.79999999999998
 72
     1
 10
0.1661251194543478
 20
-35.79999999999998
 11
-4.365012888903096
 21
-41.20000000000002
 72
     1
 10
-4.365012888903096
 20
-41.20000000000002
 11
-0.9187376450658138
 21
-41.20000000000002
 72
     1
 10
-0.9187376450658138
 20
-41.20000000000002
 11
3.612400363291603
 21
-35.79999999999998
 97
        0
 75
     0
 76
     1
 98
        1
 10
-4.84926131403116
 20
-0.0010749287238936
  0
HATCH
  5
DB
330
1F
100
AcDbEntity
  8
중심선
100
AcDbHatch
 10
0.0
 20
0.0
 30
0.0
210
0.0
220
0.0
230
1.0
  2
SOLID
 70
     1
 71
     0
 91
        1
 92
        0
 93
        4
 72
     1
 10
8.62516435432747
 20
-35.8
 11
5.17888911049041
 21
-35.79999999999998
 72
     1
 10
5.17888911049041
 20
-35.79999999999998
 11
-1.869547791398895
 21
-44.20000000000002
 72
     1
 10
-1.869547791398895
 20
-44.20000000000002
 11
1.576727452438387
 21
-44.20000000000002
 72
     1
 10
1.576727452438387
 20
-44.20000000000002
 11
8.62516435432747
 21
-35.8
 97
        0
 75
     0
 76
     1
 98
        1
 10
-4.84926131403116
 20
-0.0010749287238936
  0
HATCH
  5
DC
330
1F
100
AcDbEntity
  8
중심선
100
AcDbHatch
 10
0.0
 20
0.0
 30
0.0
210
0.0
220
0.0
230
1.0
  2
SOLID
 70
     1
 71
     0
 91
        1
 92
        0
 93
        6
 72
     3
 10
13.42505478533967
 20
-40.00000000005127
 11
3.960054785062283
 21
1.540882976769353E-10
 40
0.3939339440162628
 50
17.09539180608436
 51
320.0019657685075
 73
     0
 72
     1
 10
15.10805444104027
 20
-38.58789400463827
 11
17.41335631474133
 21
-36.65356729459035
 72
     3
 10
13.42505478528682
 20
-40.00000000000015
 11
6.600054785286829
 21
-1.278976924368180E-13
 40
0.636358354079598
 50
39.99873849337411
 51
368.4976242363724
 73
     1
 72
     1
 10
19.85038727718743
 20
-39.03999999993002
 11
12.10512209212274
 21
-39.03999999993002
 72
     1
 10
12.10512209212274
 20
-39.03999999993002
 11
12.10509704767681
 21
-40.95999999992991
 72
     1
 10
12.10509704767681
 20
-40.95999999992991
 11
16.54647681714885
 21
-40.95999999992988
 97
        0
 75
     0
 76
     1
 98
        1
 10
-4.84926131403116
 20
-0.0010749287238936
  0
DIMENSION
  5
DD
330
1F
100
AcDbEntity
  8
치수문자_일반주서
100
AcDbDimension
  2
_D
 10
-46.94999999999997
 20
-4.762500000000053
 30
0.0
 11
-46.95
 21
0.0000000000000065
 31
0.0
 70
   160
  1
%%c<>
 71
     2
 42
9.525000000000006
 52
-270.0
  3
SLDDIMSTYLE0
100
AcDbAlignedDimension
 13
-33.44999999999998
 23
4.762500000000004
 33
0.0
 14
-33.44999999999998
 24
-4.762500000000002
 34
0.0
 50
90.0000000000002
100
AcDbRotatedDimension
1001
ACAD
1000
DSTYLE
1002
{
1070
   171
1070
     6
1070
   273
1070
     7
1002
}
  0
DIMENSION
  5
F2
330
1F
100
AcDbEntity
  8
치수문자_일반주서
100
AcDbDimension
  2
_D_1
 10
9.999999999999996
 20
17.93481653835412
 30
0.0
 11
29.05
 21
17.93481653835412
 31
0.0
 70
   160
  1
<>
 71
     2
 42
38.09999999999999
  3
SLDDIMSTYLE0
100
AcDbAlignedDimension
 13
48.1
 23
4.762500000000006
 33
0.0
 14
10.0
 24
3.793313724889204
 34
0.0
100
AcDbRotatedDimension
1001
ACAD
1000
DSTYLE
1002
{
1070
   171
1070
     6
1070
   273
1070
     7
1002
}
  0
DIMENSION
  5
107
330
1F
100
AcDbEntity
  8
치수문자_일반주서
100
AcDbDimension
  2
_D_2
 10
-34.45
 20
35.04486045510103
 30
0.0
 11
6.824999999999863
 21
35.04486045510103
 31
0.0
 70
   160
  1
<>
 71
     2
 42
82.55000000000001
  3
SLDDIMSTYLE0
100
AcDbAlignedDimension
 13
48.10000000000002
 23
4.762500000000006
 33
0.0
 14
-34.45
 24
3.762499999999996
 34
0.0
 50
0.0000000000000099
100
AcDbRotatedDimension
1001
ACAD
1000
DSTYLE
1002
{
1070
   171
1070
     6
1070
   273
1070
     7
1002
}
  0
DIMENSION
  5
11B
330
1F
100
AcDbEntity
  8
치수문자_일반주서
100
AcDbDimension
  2
_D_3
 10
61.70263290383854
 20
4.762500000000056
 30
0.0
 11
61.70263290383847
 21
24.49150000000005
 31
0.0
 70
   160
  1
%%c<>
 71
     2
 42
9.525000000000002
 52
-270.0
  3
SLDDIMSTYLE0
100
AcDbAlignedDimension
 13
48.1
 23
-4.762499999999998
 33
0.0
 14
48.1
 24
4.762500000000006
 34
0.0
 50
90.0000000000002
100
AcDbRotatedDimension
1001
ACAD
1000
DSTYLE
1002
{
1070
   171
1070
     6
1070
   273
1070
     7
1002
}
  0
LINE
  5
12E
330
1F
100
AcDbEntity
  8
참조1
100
AcDbLine
 10
77.82153940838579
 20
7.441074928723896
 30
0.0
 11
77.82153940838579
 21
-7.438925071276109
 31
0.0
  0
LINE
  5
12F
330
1F
100
AcDbEntity
  8
참조1
100
AcDbLine
 10
90.52153940838579
 20
5.441074928723896
 30
0.0
 11
77.82153940838579
 21
5.441074928723896
 31
0.0
  0
SOLID
  5
130
330
1F
100
AcDbEntity
  8
참조1
100
AcDbTrace
 10
77.82153940838579
 20
5.441074928723896
 30
0.0
 11
84.17153940838578
 21
4.425074928723896
 31
0.0
 12
84.17153940838578
 22
6.457074928723896
 32
0.0
 13
84.17153940838578
 23
6.457074928723896
 33
0.0
  0
LINE
  5
131
330
1F
100
AcDbEntity
  8
참조1
100
AcDbLine
 10
90.52153940838579
 20
-5.438925071276109
 30
0.0
 11
77.82153940838579
 21
-5.438925071276109
 31
0.0
  0
SOLID
  5
132
330
1F
100
AcDbEntity
  8
참조1
100
AcDbTrace
 10
77.82153940838579
 20
-5.438925071276109
 30
0.0
 11
84.17153940838578
 21
-6.454925071276109
 31
0.0
 12
84.17153940838578
 22
-4.422925071276109
 32
0.0
 13
84.17153940838578
 23
-4.422925071276109
 33
0.0
  0
MTEXT
  5
133
330
1F
100
AcDbEntity
  8
참조1
100
AcDbMText
 10
87.20588954101179
 20
11.01136670591222
 30
0.0
 40
3.5
 41
0.0
 71
     1
 72
     1
  1
A
  7
SLDTEXTSTYLE0
 73
     1
 44
1.0
  0
MTEXT
  5
134
330
1F
100
AcDbEntity
  8
참조1
100
AcDbMText
 10
87.20588954101179
 20
0.1313667059122192
 30
0.0
 40
3.5
 41
0.0
 71
     1
 72
     1
  1
A
  7
SLDTEXTSTYLE0
 73
     1
 44
1.0
  0
INSERT
  5
13B
330
1F
100
AcDbEntity
  8
해칭선
100
AcDbBlockReference
  2
SW_DOWELSYMBOL_0
 10
0.0
 20
0.0
 30
0.0
  0
LINE
  5
1F2
330
1F
100
AcDbEntity
  8
외형선
  6
Continuous
370
    15
100
AcDbLine
 10
-18.17495000000012
 20
3.492500000000007
 30
0.0
 11
-11.03755
 21
3.492500000000007
 31
0.0
  0
LINE
  5
1F3
330
1F
100
AcDbEntity
  8
외형선
  6
Continuous
370
    15
100
AcDbLine
 10
-18.17495000000012
 20
3.492500000000007
 30
0.0
 11
-19.44495000000011
 21
4.762499999999989
 31
0.0
  0
LINE
  5
1F4
330
1F
100
AcDbEntity
  8
외형선
  6
Continuous
370
    15
100
AcDbLine
 10
-11.03755
 20
3.492500000000007
 30
0.0
 11
-9.7675499999999
 21
4.762499999999989
 31
0.0
  0
LINE
  5
1F5
330
1F
100
AcDbEntity
  8
외형선
  6
Continuous
370
    15
100
AcDbLine
 10
-19.44495000000012
 20
4.762499999999999
 30
0.0
 11
-33.44999999999999
 21
4.762499999999998
 31
0.0
  0
ENDSEC
  0
SECTION
  2
OBJECTS
  0
DICTIONARY
  5
C
330
0
100
AcDbDictionary
281
     1
  3
ACAD_GROUP
350
D
  3
ACAD_IMAGE_VARS
350
15F
  3
ACAD_LAYOUT
350
1A
  3
ACAD_MLINESTYLE
350
17
  3
ACAD_PLOTSETTINGS
350
19
  3
ACAD_PLOTSTYLENAME
350
E
  3
ACAD_SCALELIST
350
47
  3
APPDATA
350
15D
  3
DWGPROPS
350
1F6
  0
DICTIONARY
  5
186
330
2
100
AcDbDictionary
280
     1
281
     1
  3
ACAD_LAYERSTATES
360
187
  0
DICTIONARY
  5
D
102
{ACAD_REACTORS
330
C
102
}
330
C
100
AcDbDictionary
281
     1
  0
RASTERVARIABLES
  5
15F
102
{ACAD_REACTORS
330
C
102
}
330
C
100
AcDbRasterVariables
 90
        0
 70
     1
 71
     1
 72
     1
  0
DICTIONARY
  5
1A
102
{ACAD_REACTORS
330
C
102
}
330
C
100
AcDbDictionary
281
     1
  3
Layout1
350
1E
  3
Layout2
350
26
  3
Model
350
22
  0
DICTIONARY
  5
17
102
{ACAD_REACTORS
330
C
102
}
330
C
100
AcDbDictionary
281
     1
  3
Standard
350
18
  0
DICTIONARY
  5
19
102
{ACAD_REACTORS
330
C
102
}
330
C
100
AcDbDictionary
281
     1
  0
ACDBDICTIONARYWDFLT
  5
E
102
{ACAD_REACTORS
330
C
102
}
330
C
100
AcDbDictionary
281
     1
  3
Normal
350
F
100
AcDbDictionaryWithDefault
340
F
  0
DICTIONARY
  5
47
102
{ACAD_REACTORS
330
C
102
}
330
C
100
AcDbDictionary
281
     1
  3
A0
350
48
  3
A1
350
49
  3
A2
350
4A
  3
A3
350
4B
  3
A4
350
4C
  3
A5
350
4D
  3
A6
350
4E
  3
A7
350
4F
  3
A8
350
50
  3
A9
350
51
  3
B0
350
52
  3
B1
350
53
  3
B2
350
54
  3
B3
350
55
  3
B4
350
56
  3
B5
350
57
  3
B6
350
58
  3
B7
350
59
  3
B8
350
5A
  3
B9
350
5B
  3
C0
350
5C
  3
C1
350
5D
  3
C2
350
5E
  3
C3
350
5F
  3
C4
350
60
  3
C5
350
61
  3
C6
350
62
  3
C7
350
63
  3
C8
350
64
  3
C9
350
65
  3
D0
350
66
  3
D1
350
67
  3
D2
350
68
  0
DICTIONARY
  5
15D
102
{ACAD_REACTORS
330
C
102
}
330
C
100
AcDbDictionary
281
     1
  0
XRECORD
  5
1F6
102
{ACAD_REACTORS
330
C
102
}
330
C
100
AcDbXrecord
280
     1
  1
DWGPROPS COOKIE
  2

  3

  4

  6

  7

  8
12016016
  9

300
=
301
=
302
=
303
=
304
=
305
=
306
=
307
=
308
=
309
=
 40
0.0
 41
2458311.090591667
 42
2458318.301369201
  1

 90
        0
  0
DICTIONARY
  5
187
102
{ACAD_REACTORS
330
186
102
}
330
186
100
AcDbDictionary
281
     1
  0
LAYOUT
  5
1E
102
{ACAD_REACTORS
330
1A
102
}
330
1A
100
AcDbPlotSettings
  1

  2
none_device
  4

  6

 40
0.0
 41
0.0
 42
0.0
 43
0.0
 44
0.0
 45
0.0
 46
0.0
 47
0.0
 48
0.0
 49
0.0
140
0.0
141
0.0
142
1.0
143
1.0
 70
   688
 72
     1
 73
     0
 74
     5
  7

 75
    16
147
1.0
148
0.0
149
0.0
100
AcDbLayout
  1
Layout1
 70
     1
 71
     1
 10
0.0
 20
0.0
 11
420.0
 21
297.0
 12
0.0
 22
0.0
 32
0.0
 14
1.000000000000000E+20
 24
1.000000000000000E+20
 34
1.000000000000000E+20
 15
-1.000000000000000E+20
 25
-1.000000000000000E+20
 35
-1.000000000000000E+20
146
0.0
 13
0.0
 23
0.0
 33
0.0
 16
1.0
 26
0.0
 36
0.0
 17
0.0
 27
1.0
 37
0.0
 76
     0
330
1B
  0
LAYOUT
  5
26
102
{ACAD_REACTORS
330
1A
102
}
330
1A
100
AcDbPlotSettings
  1

  2
none_device
  4

  6

 40
0.0
 41
0.0
 42
0.0
 43
0.0
 44
0.0
 45
0.0
 46
0.0
 47
0.0
 48
0.0
 49
0.0
140
0.0
141
0.0
142
1.0
143
1.0
 70
   688
 72
     1
 73
     0
 74
     5
  7

 75
    16
147
1.0
148
0.0
149
0.0
100
AcDbLayout
  1
Layout2
 70
     1
 71
     2
 10
0.0
 20
0.0
 11
0.0
 21
0.0
 12
0.0
 22
0.0
 32
0.0
 14
0.0
 24
0.0
 34
0.0
 15
0.0
 25
0.0
 35
0.0
146
0.0
 13
0.0
 23
0.0
 33
0.0
 16
1.0
 26
0.0
 36
0.0
 17
0.0
 27
1.0
 37
0.0
 76
     0
330
23
  0
LAYOUT
  5
22
102
{ACAD_REACTORS
330
1A
102
}
330
1A
100
AcDbPlotSettings
  1

  2
none_device
  4
ANSI_A_(11.00_x_8.50_Inches)
  6

 40
6.35
 41
19.05
 42
6.35000508
 43
19.05000254
 44
279.4
 45
215.9
 46
90.16588674915816
 47
88.23571328110361
 48
0.0
 49
0.0
140
0.0
141
0.0
142
0.07079942973327
143
1.0
 70
  1696
 72
     0
 73
     0
 74
     0
  7

 75
     0
147
0.0235690232323232
148
0.0
149
0.0
100
AcDbLayout
  1
Model
 70
     1
 71
     0
 10
0.0
 20
0.0
 11
420.0
 21
297.0
 12
0.0
 22
0.0
 32
0.0
 14
1.000000000000000E+20
 24
1.000000000000000E+20
 34
1.000000000000000E+20
 15
-1.000000000000000E+20
 25
-1.000000000000000E+20
 35
-1.000000000000000E+20
146
0.0
 13
0.0
 23
0.0
 33
0.0
 16
1.0
 26
0.0
 36
0.0
 17
0.0
 27
1.0
 37
0.0
 76
     0
330
1F
331
29
  0
MLINESTYLE
  5
18
102
{ACAD_REACTORS
330
17
102
}
330
17
100
AcDbMlineStyle
  2
Standard
 70
     0
  3

 62
   256
 51
90.0
 52
90.0
 71
     2
 49
0.5
 62
   256
  6
BYLAYER
 49
-0.5
 62
   256
  6
BYLAYER
  0
ACDBPLACEHOLDER
  5
F
102
{ACAD_REACTORS
330
E
102
}
330
E
  0
SCALE
  5
48
102
{ACAD_REACTORS
330
47
102
}
330
47
100
AcDbScale
 70
     0
300
1:1
140
1.0
141
1.0
290
     1
  0
SCALE
  5
49
102
{ACAD_REACTORS
330
47
102
}
330
47
100
AcDbScale
 70
     0
300
1:2
140
1.0
141
2.0
290
     0
  0
SCALE
  5
4A
102
{ACAD_REACTORS
330
47
102
}
330
47
100
AcDbScale
 70
     0
300
1:4
140
1.0
141
4.0
290
     0
  0
SCALE
  5
4B
102
{ACAD_REACTORS
330
47
102
}
330
47
100
AcDbScale
 70
     0
300
1:5
140
1.0
141
5.0
290
     0
  0
SCALE
  5
4C
102
{ACAD_REACTORS
330
47
102
}
330
47
100
AcDbScale
 70
     0
300
1:8
140
1.0
141
8.0
290
     0
  0
SCALE
  5
4D
102
{ACAD_REACTORS
330
47
102
}
330
47
100
AcDbScale
 70
     0
300
1:10
140
1.0
141
10.0
290
     0
  0
SCALE
  5
4E
102
{ACAD_REACTORS
330
47
102
}
330
47
100
AcDbScale
 70
     0
300
1:16
140
1.0
141
16.0
290
     0
  0
SCALE
  5
4F
102
{ACAD_REACTORS
330
47
102
}
330
47
100
AcDbScale
 70
     0
300
1:20
140
1.0
141
20.0
290
     0
  0
SCALE
  5
50
102
{ACAD_REACTORS
330
47
102
}
330
47
100
AcDbScale
 70
     0
300
1:30
140
1.0
141
30.0
290
     0
  0
SCALE
  5
51
102
{ACAD_REACTORS
330
47
102
}
330
47
100
AcDbScale
 70
     0
300
1:40
140
1.0
141
40.0
290
     0
  0
SCALE
  5
52
102
{ACAD_REACTORS
330
47
102
}
330
47
100
AcDbScale
 70
     0
300
1:50
140
1.0
141
50.0
290
     0
  0
SCALE
  5
53
102
{ACAD_REACTORS
330
47
102
}
330
47
100
AcDbScale
 70
     0
300
1:100
140
1.0
141
100.0
290
     0
  0
SCALE
  5
54
102
{ACAD_REACTORS
330
47
102
}
330
47
100
AcDbScale
 70
     0
300
2:1
140
2.0
141
1.0
290
     0
  0
SCALE
  5
55
102
{ACAD_REACTORS
330
47
102
}
330
47
100
AcDbScale
 70
     0
300
4:1
140
4.0
141
1.0
290
     0
  0
SCALE
  5
56
102
{ACAD_REACTORS
330
47
102
}
330
47
100
AcDbScale
 70
     0
300
8:1
140
8.0
141
1.0
290
     0
  0
SCALE
  5
57
102
{ACAD_REACTORS
330
47
102
}
330
47
100
AcDbScale
 70
     0
300
10:1
140
10.0
141
1.0
290
     0
  0
SCALE
  5
58
102
{ACAD_REACTORS
330
47
102
}
330
47
100
AcDbScale
 70
     0
300
100:1
140
100.0
141
1.0
290
     0
  0
SCALE
  5
59
102
{ACAD_REACTORS
330
47
102
}
330
47
100
AcDbScale
 70
     0
300
1/128" = 1'-0"
140
0.0078125
141
12.0
290
     0
  0
SCALE
  5
5A
102
{ACAD_REACTORS
330
47
102
}
330
47
100
AcDbScale
 70
     0
300
1/64" = 1'-0"
140
0.015625
141
12.0
290
     0
  0
SCALE
  5
5B
102
{ACAD_REACTORS
330
47
102
}
330
47
100
AcDbScale
 70
     0
300
1/32" = 1'-0"
140
0.03125
141
12.0
290
     0
  0
SCALE
  5
5C
102
{ACAD_REACTORS
330
47
102
}
330
47
100
AcDbScale
 70
     0
300
1/16" = 1'-0"
140
0.0625
141
12.0
290
     0
  0
SCALE
  5
5D
102
{ACAD_REACTORS
330
47
102
}
330
47
100
AcDbScale
 70
     0
300
3/32" = 1'-0"
140
0.09375
141
12.0
290
     0
  0
SCALE
  5
5E
102
{ACAD_REACTORS
330
47
102
}
330
47
100
AcDbScale
 70
     0
300
1/8" = 1'-0"
140
0.125
141
12.0
290
     0
  0
SCALE
  5
5F
102
{ACAD_REACTORS
330
47
102
}
330
47
100
AcDbScale
 70
     0
300
3/16" = 1'-0"
140
0.1875
141
12.0
290
     0
  0
SCALE
  5
60
102
{ACAD_REACTORS
330
47
102
}
330
47
100
AcDbScale
 70
     0
300
1/4" = 1'-0"
140
0.25
141
12.0
290
     0
  0
SCALE
  5
61
102
{ACAD_REACTORS
330
47
102
}
330
47
100
AcDbScale
 70
     0
300
3/8" = 1'-0"
140
0.375
141
12.0
290
     0
  0
SCALE
  5
62
102
{ACAD_REACTORS
330
47
102
}
330
47
100
AcDbScale
 70
     0
300
1/2" = 1'-0"
140
0.5
141
12.0
290
     0
  0
SCALE
  5
63
102
{ACAD_REACTORS
330
47
102
}
330
47
100
AcDbScale
 70
     0
300
3/4" = 1'-0"
140
0.75
141
12.0
290
     0
  0
SCALE
  5
64
102
{ACAD_REACTORS
330
47
102
}
330
47
100
AcDbScale
 70
     0
300
1" = 1'-0"
140
1.0
141
12.0
290
     0
  0
SCALE
  5
65
102
{ACAD_REACTORS
330
47
102
}
330
47
100
AcDbScale
 70
     0
300
1-1/2" = 1'-0"
140
1.5
141
12.0
290
     0
  0
SCALE
  5
66
102
{ACAD_REACTORS
330
47
102
}
330
47
100
AcDbScale
 70
     0
300
3" = 1'-0"
140
3.0
141
12.0
290
     0
  0
SCALE
  5
67
102
{ACAD_REACTORS
330
47
102
}
330
47
100
AcDbScale
 70
     0
300
6" = 1'-0"
140
6.0
141
12.0
290
     0
  0
SCALE
  5
68
102
{ACAD_REACTORS
330
47
102
}
330
47
100
AcDbScale
 70
     0
300
1'-0" = 1'-0"
140
12.0
141
12.0
290
     0
  0
ENDSEC
  0
EOF
