  0
SECTION
  2
HEADER
  9
$ACADVER
  1
AC1015
  9
$ACADMAINTVER
 70
     6
  9
$DWGCODEPAGE
  3
ANSI_949
  9
$INSBASE
 10
0.0
 20
0.0
 30
0.0
  9
$EXTMIN
 10
1.000000000000000E+20
 20
1.000000000000000E+20
 30
1.000000000000000E+20
  9
$EXTMAX
 10
-1.000000000000000E+20
 20
-1.000000000000000E+20
 30
-1.000000000000000E+20
  9
$LIMMIN
 10
0.0
 20
0.0
  9
$LIMMAX
 10
420.0
 20
297.0
  9
$ORTHOMODE
 70
     0
  9
$REGENMODE
 70
     1
  9
$FILLMODE
 70
     1
  9
$QTEXTMODE
 70
     0
  9
$MIRRTEXT
 70
     1
  9
$LTSCALE
 40
1.0
  9
$ATTMODE
 70
     1
  9
$TEXTSIZE
 40
3.5
  9
$TRACEWID
 40
1.0
  9
$TEXTSTYLE
  7
Standard
  9
$CLAYER
  8
0
  9
$CELTYPE
  6
ByLayer
  9
$CECOLOR
 62
   256
  9
$CELTSCALE
 40
1.0
  9
$DISPSILH
 70
     0
  9
$DIMSCALE
 40
1.0
  9
$DIMASZ
 40
3.302
  9
$DIMEXO
 40
1.0
  9
$DIMDLI
 40
3.75
  9
$DIMRND
 40
0.0
  9
$DIMDLE
 40
0.0
  9
$DIMEXE
 40
1.0
  9
$DIMTP
 40
0.0
  9
$DIMTM
 40
0.0
  9
$DIMTXT
 40
3.5
  9
$DIMCEN
 40
2.5
  9
$DIMTSZ
 40
0.0
  9
$DIMTOL
 70
     0
  9
$DIMLIM
 70
     0
  9
$DIMTIH
 70
     1
  9
$DIMTOH
 70
     1
  9
$DIMSE1
 70
     0
  9
$DIMSE2
 70
     0
  9
$DIMTAD
 70
     1
  9
$DIMZIN
 70
     0
  9
$DIMBLK
  1

  9
$DIMASO
 70
     1
  9
$DIMSHO
 70
     1
  9
$DIMPOST
  1

  9
$DIMAPOST
  1

  9
$DIMALT
 70
     0
  9
$DIMALTD
 70
     3
  9
$DIMALTF
 40
0.0393700787401575
  9
$DIMLFAC
 40
1.0
  9
$DIMTOFL
 70
     1
  9
$DIMTVP
 40
0.0
  9
$DIMTIX
 70
     0
  9
$DIMSOXD
 70
     0
  9
$DIMSAH
 70
     0
  9
$DIMBLK1
  1

  9
$DIMBLK2
  1

  9
$DIMSTYLE
  2
ISO-25
  9
$DIMCLRD
 70
     0
  9
$DIMCLRE
 70
     0
  9
$DIMCLRT
 70
     0
  9
$DIMTFAC
 40
1.0
  9
$DIMGAP
 40
1.524
  9
$DIMJUST
 70
     0
  9
$DIMSD1
 70
     0
  9
$DIMSD2
 70
     0
  9
$DIMTOLJ
 70
     0
  9
$DIMTZIN
 70
     0
  9
$DIMALTZ
 70
     0
  9
$DIMALTTZ
 70
     0
  9
$DIMUPT
 70
     0
  9
$DIMDEC
 70
     2
  9
$DIMTDEC
 70
     2
  9
$DIMALTU
 70
     2
  9
$DIMALTTD
 70
     3
  9
$DIMTXSTY
  7
Standard
  9
$DIMAUNIT
 70
     0
  9
$DIMADEC
 70
     2
  9
$DIMALTRND
 40
0.0
  9
$DIMAZIN
 70
     0
  9
$DIMDSEP
 70
    44
  9
$DIMATFIT
 70
     3
  9
$DIMFRAC
 70
     0
  9
$DIMLDRBLK
  1

  9
$DIMLUNIT
 70
     2
  9
$DIMLWD
 70
    -2
  9
$DIMLWE
 70
    -2
  9
$DIMTMOVE
 70
     0
  9
$LUNITS
 70
     2
  9
$LUPREC
 70
     2
  9
$SKETCHINC
 40
1.0
  9
$FILLETRAD
 40
10.0
  9
$AUNITS
 70
     0
  9
$AUPREC
 70
     2
  9
$MENU
  1
.
  9
$ELEVATION
 40
0.0
  9
$PELEVATION
 40
0.0
  9
$THICKNESS
 40
0.0
  9
$LIMCHECK
 70
     0
  9
$CHAMFERA
 40
0.0
  9
$CHAMFERB
 40
0.0
  9
$CHAMFERC
 40
0.0
  9
$CHAMFERD
 40
0.0
  9
$SKPOLY
 70
     0
  9
$TDCREATE
 40
2458311.465803275
  9
$TDUCREATE
 40
2458311.090803275
  9
$TDUPDATE
 40
2458318.676175613
  9
$TDUUPDATE
 40
2458318.301175613
  9
$TDINDWG
 40
0.0016344329
  9
$TDUSRTIMER
 40
2458318.3009961
  9
$USRTIMER
 70
     1
  9
$ANGBASE
 50
0.0
  9
$ANGDIR
 70
     0
  9
$PDMODE
 70
     0
  9
$PDSIZE
 40
-1.0
  9
$PLINEWID
 40
0.0
  9
$SPLFRAME
 70
     0
  9
$SPLINETYPE
 70
     6
  9
$SPLINESEGS
 70
     8
  9
$HANDSEED
  5
235
  9
$SURFTAB1
 70
     6
  9
$SURFTAB2
 70
     6
  9
$SURFTYPE
 70
     6
  9
$SURFU
 70
     6
  9
$SURFV
 70
     6
  9
$UCSBASE
  2

  9
$UCSNAME
  2

  9
$UCSORG
 10
0.0
 20
0.0
 30
0.0
  9
$UCSXDIR
 10
1.0
 20
0.0
 30
0.0
  9
$UCSYDIR
 10
0.0
 20
1.0
 30
0.0
  9
$UCSORTHOREF
  2

  9
$UCSORTHOVIEW
 70
     0
  9
$UCSORGTOP
 10
0.0
 20
0.0
 30
0.0
  9
$UCSORGBOTTOM
 10
0.0
 20
0.0
 30
0.0
  9
$UCSORGLEFT
 10
0.0
 20
0.0
 30
0.0
  9
$UCSORGRIGHT
 10
0.0
 20
0.0
 30
0.0
  9
$UCSORGFRONT
 10
0.0
 20
0.0
 30
0.0
  9
$UCSORGBACK
 10
0.0
 20
0.0
 30
0.0
  9
$PUCSBASE
  2

  9
$PUCSNAME
  2

  9
$PUCSORG
 10
0.0
 20
0.0
 30
0.0
  9
$PUCSXDIR
 10
1.0
 20
0.0
 30
0.0
  9
$PUCSYDIR
 10
0.0
 20
1.0
 30
0.0
  9
$PUCSORTHOREF
  2

  9
$PUCSORTHOVIEW
 70
     0
  9
$PUCSORGTOP
 10
0.0
 20
0.0
 30
0.0
  9
$PUCSORGBOTTOM
 10
0.0
 20
0.0
 30
0.0
  9
$PUCSORGLEFT
 10
0.0
 20
0.0
 30
0.0
  9
$PUCSORGRIGHT
 10
0.0
 20
0.0
 30
0.0
  9
$PUCSORGFRONT
 10
0.0
 20
0.0
 30
0.0
  9
$PUCSORGBACK
 10
0.0
 20
0.0
 30
0.0
  9
$USERI1
 70
     0
  9
$USERI2
 70
     0
  9
$USERI3
 70
     0
  9
$USERI4
 70
     0
  9
$USERI5
 70
     0
  9
$USERR1
 40
0.0
  9
$USERR2
 40
0.0
  9
$USERR3
 40
0.0
  9
$USERR4
 40
0.0
  9
$USERR5
 40
0.0
  9
$WORLDVIEW
 70
     1
  9
$SHADEDGE
 70
     3
  9
$SHADEDIF
 70
    70
  9
$TILEMODE
 70
     1
  9
$MAXACTVP
 70
    64
  9
$PINSBASE
 10
0.0
 20
0.0
 30
0.0
  9
$PLIMCHECK
 70
     0
  9
$PEXTMIN
 10
1.000000000000000E+20
 20
1.000000000000000E+20
 30
1.000000000000000E+20
  9
$PEXTMAX
 10
-1.000000000000000E+20
 20
-1.000000000000000E+20
 30
-1.000000000000000E+20
  9
$PLIMMIN
 10
0.0
 20
0.0
  9
$PLIMMAX
 10
0.0
 20
0.0
  9
$UNITMODE
 70
     0
  9
$VISRETAIN
 70
     1
  9
$PLINEGEN
 70
     0
  9
$PSLTSCALE
 70
     1
  9
$TREEDEPTH
 70
  3020
  9
$CMLSTYLE
  2
Standard
  9
$CMLJUST
 70
     0
  9
$CMLSCALE
 40
20.0
  9
$PROXYGRAPHICS
 70
     1
  9
$MEASUREMENT
 70
     1
  9
$CELWEIGHT
370
    -1
  9
$ENDCAPS
280
     0
  9
$JOINSTYLE
280
     0
  9
$LWDISPLAY
290
     1
  9
$INSUNITS
 70
     4
  9
$HYPERLINKBASE
  1

  9
$STYLESHEET
  1

  9
$XEDIT
290
     1
  9
$CEPSNTYPE
380
     0
  9
$PSTYLEMODE
290
     1
  9
$FINGERPRINTGUID
  2
{491DA1AD-00B6-4167-91DB-84E5D713B720}
  9
$VERSIONGUID
  2
{FAEB1C32-E019-11D5-929B-00C0DF256EC4}
  9
$EXTNAMES
290
     1
  9
$PSVPSCALE
 40
0.0
  9
$OLESTARTUP
290
     0
  0
ENDSEC
  0
SECTION
  2
CLASSES
  0
CLASS
  1
ACDBDICTIONARYWDFLT
  2
AcDbDictionaryWithDefault
  3
ObjectDBX Classes
 90
        0
280
     0
281
     0
  0
CLASS
  1
VISUALSTYLE
  2
AcDbVisualStyle
  3
ObjectDBX Classes
 90
     4095
280
     0
281
     0
  0
CLASS
  1
MATERIAL
  2
AcDbMaterial
  3
ObjectDBX Classes
 90
     1153
280
     0
281
     0
  0
CLASS
  1
SCALE
  2
AcDbScale
  3
ObjectDBX Classes
 90
     1153
280
     0
281
     0
  0
CLASS
  1
SUN
  2
AcDbSun
  3
SCENEOE
 90
     1153
280
     0
281
     0
  0
CLASS
  1
ACDBPLACEHOLDER
  2
AcDbPlaceHolder
  3
ObjectDBX Classes
 90
        0
280
     0
281
     0
  0
CLASS
  1
LAYOUT
  2
AcDbLayout
  3
ObjectDBX Classes
 90
        0
280
     0
281
     0
  0
CLASS
  1
TABLESTYLE
  2
AcDbTableStyle
  3
ObjectDBX Classes
 90
     4095
280
     0
281
     0
  0
CLASS
  1
MLEADERSTYLE
  2
AcDbMLeaderStyle
  3
ACDB_MLEADERSTYLE_CLASS
 90
     4095
280
     0
281
     0
  0
CLASS
  1
RASTERVARIABLES
  2
AcDbRasterVariables
  3
ISM
 90
        0
280
     0
281
     0
  0
ENDSEC
  0
SECTION
  2
TABLES
  0
TABLE
  2
VPORT
  5
8
330
0
100
AcDbSymbolTable
 70
     1
  0
VPORT
  5
29
330
8
100
AcDbSymbolTableRecord
100
AcDbViewportTableRecord
  2
*Active
 70
     0
 10
0.0
 20
0.0
 11
1.0
 21
1.0
 12
-46.57020617236289
 22
-24.21030735689352
 13
0.0
 23
0.0
 14
10.0
 24
10.0
 15
10.0
 25
10.0
 16
0.0
 26
0.0
 36
1.0
 17
0.0
 27
0.0
 37
0.0
 40
114.4594968582653
 41
1.740812379110251
 42
50.0
 43
0.0
 44
0.0
 50
0.0
 51
0.0
 71
    16
 72
  2000
 73
     1
 74
     3
 75
     0
 76
     0
 77
     0
 78
     0
281
     0
 65
     1
110
0.0
120
0.0
130
0.0
111
1.0
121
0.0
131
0.0
112
0.0
122
1.0
132
0.0
 79
     0
146
0.0
  0
ENDTAB
  0
TABLE
  2
LTYPE
  5
5
330
0
100
AcDbSymbolTable
 70
     6
  0
LTYPE
  5
14
330
5
100
AcDbSymbolTableRecord
100
AcDbLinetypeTableRecord
  2
ByBlock
 70
     0
  3

 72
    65
 73
     0
 40
0.0
  0
LTYPE
  5
15
330
5
100
AcDbSymbolTableRecord
100
AcDbLinetypeTableRecord
  2
ByLayer
 70
     0
  3

 72
    65
 73
     0
 40
0.0
  0
LTYPE
  5
16
330
5
100
AcDbSymbolTableRecord
100
AcDbLinetypeTableRecord
  2
Continuous
 70
     0
  3
Solid line
 72
    65
 73
     0
 40
0.0
  0
LTYPE
  5
6A
330
5
100
AcDbSymbolTableRecord
100
AcDbLinetypeTableRecord
  2
HIDDEN
 70
     0
  3
Hidden __ __ __ __ __ __ __ __ __ __ __ __ __ __
 72
    65
 73
     2
 40
1.905
 49
1.27
 74
     0
 49
-0.635
 74
     0
  0
LTYPE
  5
6B
330
5
100
AcDbSymbolTableRecord
100
AcDbLinetypeTableRecord
  2
PHANTOM
 70
     0
  3
Phantom ______  __  __  ______  __  __  ______
 72
    65
 73
     6
 40
12.7
 49
6.35
 74
     0
 49
-1.27
 74
     0
 49
1.27
 74
     0
 49
-1.27
 74
     0
 49
1.27
 74
     0
 49
-1.27
 74
     0
  0
LTYPE
  5
6C
330
5
100
AcDbSymbolTableRecord
100
AcDbLinetypeTableRecord
  2
CENTER
 70
     0
  3
Center ____ _ ____ _ ____ _ ____ _ ____ _ ____
 72
    65
 73
     4
 40
10.16
 49
6.35
 74
     0
 49
-1.27
 74
     0
 49
1.27
 74
     0
 49
-1.27
 74
     0
  0
LTYPE
  5
6D
330
5
100
AcDbSymbolTableRecord
100
AcDbLinetypeTableRecord
  2
CENTERX2
 70
     0
  3
Center (2x) ________  __  ________  __  _____
 72
    65
 73
     4
 40
20.32
 49
12.7
 74
     0
 49
-2.54
 74
     0
 49
2.54
 74
     0
 49
-2.54
 74
     0
  0
LTYPE
  5
6E
330
5
100
AcDbSymbolTableRecord
100
AcDbLinetypeTableRecord
  2
DOT2
 70
     0
  3
Dot (.5x) ........................................
 72
    65
 73
     2
 40
0.635
 49
0.0
 74
     0
 49
-0.635
 74
     0
  0
ENDTAB
  0
TABLE
  2
LAYER
  5
2
102
{ACAD_XDICTIONARY
360
18D
102
}
330
0
100
AcDbSymbolTable
 70
    18
  0
LAYER
  5
10
330
2
100
AcDbSymbolTableRecord
100
AcDbLayerTableRecord
  2
0
 70
     0
 62
     7
  6
Continuous
370
    -3
390
F
  0
LAYER
  5
6F
330
2
100
AcDbSymbolTableRecord
100
AcDbLayerTableRecord
  2
FORMAT
 70
     0
 62
     2
  6
Continuous
370
    -3
390
F
  0
LAYER
  5
70
330
2
100
AcDbSymbolTableRecord
100
AcDbLayerTableRecord
  2
외형선
 70
     0
 62
     4
  6
Continuous
370
    30
390
F
  0
LAYER
  5
71
330
2
100
AcDbSymbolTableRecord
100
AcDbLayerTableRecord
  2
숨은선
 70
     0
 62
     2
  6
HIDDEN
370
    15
390
F
  0
LAYER
  5
72
330
2
100
AcDbSymbolTableRecord
100
AcDbLayerTableRecord
  2
중심선
 70
     0
 62
     1
  6
CENTERX2
370
    -3
390
F
  0
LAYER
  5
73
330
2
100
AcDbSymbolTableRecord
100
AcDbLayerTableRecord
  2
파단선
 70
     0
 62
     4
  6
Continuous
370
    -3
390
F
  0
LAYER
  5
74
330
2
100
AcDbSymbolTableRecord
100
AcDbLayerTableRecord
  2
해칭선
 70
     0
 62
   100
  6
Continuous
370
    -3
390
F
  0
LAYER
  5
75
330
2
100
AcDbSymbolTableRecord
100
AcDbLayerTableRecord
  2
가는실선
 70
     0
 62
     4
  6
Continuous
370
    -3
390
F
  0
LAYER
  5
76
330
2
100
AcDbSymbolTableRecord
100
AcDbLayerTableRecord
  2
치수_보조선
 70
     0
 62
     4
  6
Continuous
370
    -3
390
F
  0
LAYER
  5
77
330
2
100
AcDbSymbolTableRecord
100
AcDbLayerTableRecord
  2
치수문자_일반주서
 70
     0
 62
     7
  6
Continuous
370
    15
390
F
  0
LAYER
  5
78
330
2
100
AcDbSymbolTableRecord
100
AcDbLayerTableRecord
  2
개별주서
 70
     0
 62
   100
  6
Continuous
370
    30
390
F
  0
LAYER
  5
79
330
2
100
AcDbSymbolTableRecord
100
AcDbLayerTableRecord
  2
중간선
 70
     0
 62
     2
  6
Continuous
370
    15
390
F
  0
LAYER
  5
7A
330
2
100
AcDbSymbolTableRecord
100
AcDbLayerTableRecord
  2
윤곽선
 70
     0
 62
     3
  6
Continuous
370
    40
390
F
  0
LAYER
  5
7B
330
2
100
AcDbSymbolTableRecord
100
AcDbLayerTableRecord
  2
중심마크
 70
     0
 62
   100
  6
Continuous
370
    30
390
F
  0
LAYER
  5
7C
330
2
100
AcDbSymbolTableRecord
100
AcDbLayerTableRecord
  2
가상선
 70
     0
 62
     4
  6
PHANTOM
370
    -3
390
F
  0
LAYER
  5
7D
330
2
100
AcDbSymbolTableRecord
100
AcDbLayerTableRecord
  2
특수지정선
 70
     0
 62
     5
  6
CENTERX2
370
    60
390
F
  0
LAYER
  5
7E
330
2
100
AcDbSymbolTableRecord
100
AcDbLayerTableRecord
  2
참조1
 70
     0
 62
    -4
  6
Continuous
370
    -3
390
F
  0
LAYER
  5
194
330
2
100
AcDbSymbolTableRecord
100
AcDbLayerTableRecord
  2
Defpoints
 70
     0
 62
     7
  6
Continuous
290
     0
370
    -3
390
F
  0
ENDTAB
  0
TABLE
  2
STYLE
  5
3
330
0
100
AcDbSymbolTable
 70
     2
  0
STYLE
  5
11
330
3
100
AcDbSymbolTableRecord
100
AcDbTextStyleTableRecord
  2
Standard
 70
     0
 40
0.0
 41
1.0
 50
0.0
 71
     0
 42
3.5
  3
txt
  4

  0
STYLE
  5
94
330
3
100
AcDbSymbolTableRecord
100
AcDbTextStyleTableRecord
  2
SLDTEXTSTYLE0
 70
     0
 40
0.0
 41
0.75
 50
0.0
 71
     0
 42
3.5
  3
TXT
  4

  0
ENDTAB
  0
TABLE
  2
VIEW
  5
6
330
0
100
AcDbSymbolTable
 70
     0
  0
ENDTAB
  0
TABLE
  2
UCS
  5
7
330
0
100
AcDbSymbolTable
 70
     0
  0
ENDTAB
  0
TABLE
  2
APPID
  5
9
330
0
100
AcDbSymbolTable
 70
     1
  0
APPID
  5
12
330
9
100
AcDbSymbolTableRecord
100
AcDbRegAppTableRecord
  2
ACAD
 70
     0
  0
ENDTAB
  0
TABLE
  2
DIMSTYLE
  5
A
330
0
100
AcDbSymbolTable
 70
     4
100
AcDbDimStyleTable
  0
DIMSTYLE
105
27
330
A
100
AcDbSymbolTableRecord
100
AcDbDimStyleTableRecord
  2
ISO-25
 70
     0
 41
2.5
 42
0.625
 43
3.75
 44
1.25
 73
     0
 74
     0
 77
     1
 78
     8
140
2.5
141
2.5
143
0.03937007874016
147
0.625
171
     3
172
     1
178
     0
271
     2
272
     2
274
     3
278
    44
283
     0
284
     8
340
11
  0
DIMSTYLE
105
E5
102
{ACAD_REACTORS
330
E4
330
10E
330
121
330
F9
102
}
330
A
100
AcDbSymbolTableRecord
100
AcDbDimStyleTableRecord
  2
SLDDIMSTYLE0
 70
     0
 41
3.302
 44
0.0
 45
0.000000001
 73
     0
 74
     0
 77
     1
 78
     4
 79
     1
140
3.5
143
0.0393700787401575
147
0.875
148
0.000000001
170
     1
172
     1
173
     1
178
     0
271
     2
272
     2
276
     2
284
    12
289
     0
340
94
  0
DIMSTYLE
105
FA
330
A
100
AcDbSymbolTableRecord
100
AcDbDimStyleTableRecord
  2
SLDDIMSTYLE1
 70
     0
 41
3.302
 44
0.0
 45
0.000000001
 73
     0
 74
     0
 77
     1
 78
    12
 79
     3
140
3.5
143
0.0393700787401575
147
0.875
148
0.000000001
170
     1
173
     1
178
     0
271
     2
272
     2
276
     2
284
    12
340
94
  0
DIMSTYLE
105
122
330
A
100
AcDbSymbolTableRecord
100
AcDbDimStyleTableRecord
  2
SLDDIMSTYLE2
 70
     0
 41
3.302
 44
0.0
 45
0.000000001
 73
     0
 74
     0
 77
     1
 78
     4
 79
     1
140
3.5
143
0.0393700787401575
147
0.875
148
0.000000001
170
     1
173
     1
178
     0
271
     2
272
     2
276
     2
284
    12
340
94
  0
ENDTAB
  0
TABLE
  2
BLOCK_RECORD
  5
1
330
0
100
AcDbSymbolTable
 70
     8
  0
BLOCK_RECORD
  5
1F
330
1
100
AcDbSymbolTableRecord
100
AcDbBlockTableRecord
  2
*Model_Space
340
22
  0
BLOCK_RECORD
  5
1B
330
1
100
AcDbSymbolTableRecord
100
AcDbBlockTableRecord
  2
*Paper_Space
340
1E
  0
BLOCK_RECORD
  5
23
330
1
100
AcDbSymbolTableRecord
100
AcDbBlockTableRecord
  2
*Paper_Space0
340
26
  0
BLOCK_RECORD
  5
7F
330
1
100
AcDbSymbolTableRecord
100
AcDbBlockTableRecord
  2
블럭10
340
0
102
{BLKREFS
331
DD
102
}
  0
BLOCK_RECORD
  5
E6
330
1
100
AcDbSymbolTableRecord
100
AcDbBlockTableRecord
  2
_D
340
0
  0
BLOCK_RECORD
  5
FB
330
1
100
AcDbSymbolTableRecord
100
AcDbBlockTableRecord
  2
_D_1
340
0
  0
BLOCK_RECORD
  5
10F
330
1
100
AcDbSymbolTableRecord
100
AcDbBlockTableRecord
  2
_D_2
340
0
  0
BLOCK_RECORD
  5
123
330
1
100
AcDbSymbolTableRecord
100
AcDbBlockTableRecord
  2
_D_3
340
0
  0
BLOCK_RECORD
  5
13C
330
1
100
AcDbSymbolTableRecord
100
AcDbBlockTableRecord
  2
SW_DOWELSYMBOL_0
340
0
102
{BLKREFS
331
142
102
}
  0
ENDTAB
  0
ENDSEC
  0
SECTION
  2
BLOCKS
  0
BLOCK
  5
20
330
1F
100
AcDbEntity
  8
0
100
AcDbBlockBegin
  2
*Model_Space
 70
     0
 10
0.0
 20
0.0
 30
0.0
  3
*Model_Space
  1
*Model_Space
  0
ENDBLK
  5
21
330
1F
100
AcDbEntity
  8
0
100
AcDbBlockEnd
  0
BLOCK
  5
1C
330
1B
100
AcDbEntity
 67
     1
  8
0
100
AcDbBlockBegin
  2
*Paper_Space
 70
     0
 10
0.0
 20
0.0
 30
0.0
  3
*Paper_Space
  1
*Paper_Space
  0
ENDBLK
  5
1D
330
1B
100
AcDbEntity
 67
     1
  8
0
100
AcDbBlockEnd
  0
BLOCK
  5
24
330
23
100
AcDbEntity
  8
0
100
AcDbBlockBegin
  2
*Paper_Space0
 70
     0
 10
0.0
 20
0.0
 30
0.0
  3
*Paper_Space0
  1
*Paper_Space0
  0
ENDBLK
  5
25
330
23
100
AcDbEntity
  8
0
100
AcDbBlockEnd
  0
BLOCK
  5
80
330
7F
100
AcDbEntity
  8
0
100
AcDbBlockBegin
  2
블럭10
 70
     2
 10
0.0
 20
0.0
 30
0.0
  3
블럭10
  1
블럭10
  0
ELLIPSE
  5
82
330
7F
100
AcDbEntity
  8
중심선
100
AcDbEllipse
 10
20.54032771741204
 20
12.0471743016438
 30
0.0
 11
6.600054785286829
 21
-1.261213355974178E-13
 31
0.0
210
0.0
220
0.0
230
1.0
 40
0.636358354079598
 41
0.9219305317359503
 42
6.513795318482858
  0
ELLIPSE
  5
83
330
7F
100
AcDbEntity
  8
중심선
100
AcDbEllipse
 10
20.54032771746488
 20
12.04717430159265
 30
0.0
 11
3.960054785062283
 21
1.540847449632565E-10
 31
0.0
210
0.0
220
0.0
230
1.0
 40
0.3939339440162632
 41
1.131841032648279
 42
5.62031148352944
  0
LINE
  5
84
330
7F
100
AcDbEntity
  8
중심선
100
AcDbLine
 10
2.268634060543552
 20
16.24717430164393
 30
0.0
 11
5.714909304380834
 21
16.24717430164393
 31
0.0
  0
LINE
  5
85
330
7F
100
AcDbEntity
  8
중심선
100
AcDbLine
 10
5.245725140726316
 20
7.84717430164391
 30
0.0
 11
8.692000384563599
 21
7.84717430164391
 31
0.0
  0
LINE
  5
86
330
7F
100
AcDbEntity
  8
중심선
100
AcDbLine
 10
15.74043728645272
 20
16.24717430164393
 30
0.0
 11
8.692000384563599
 21
7.84717430164391
 31
0.0
  0
LINE
  5
87
330
7F
100
AcDbEntity
  8
중심선
100
AcDbLine
 10
0.1404042013395286
 20
13.71084872107135
 30
0.0
 11
3.58671253028996
 21
13.71088815037384
 31
0.0
  0
LINE
  5
88
330
7F
100
AcDbEntity
  8
중심선
100
AcDbLine
 10
2.750260043222114
 20
10.84717430164391
 30
0.0
 11
6.196535287059397
 21
10.84717430164391
 31
0.0
  0
LINE
  5
89
330
7F
100
AcDbEntity
  8
중심선
100
AcDbLine
 10
12.29416204261559
 20
16.24717430164393
 30
0.0
 11
5.245725140726316
 21
7.84717430164391
 31
0.0
  0
LINE
  5
8A
330
7F
100
AcDbEntity
  8
중심선
100
AcDbLine
 10
10.72767329541681
 20
16.24717430164393
 30
0.0
 11
6.196535287059397
 21
10.84717430164391
 31
0.0
  0
LINE
  5
8B
330
7F
100
AcDbEntity
  8
중심선
100
AcDbLine
 10
7.28139805157953
 20
16.24717430164393
 30
0.0
 11
2.750260043222114
 21
10.84717430164391
 31
0.0
  0
LINE
  5
8C
330
7F
100
AcDbEntity
  8
중심선
100
AcDbLine
 10
5.714909304380834
 20
16.24717430164393
 30
0.0
 11
3.58671253028996
 21
13.71088815037384
 31
0.0
  0
LINE
  5
8D
330
7F
100
AcDbEntity
  8
중심선
100
AcDbLine
 10
2.268634060543552
 20
16.24717430164393
 30
0.0
 11
0.1404042013395286
 21
13.71084872107135
 31
0.0
  0
LINE
  5
8E
330
7F
100
AcDbEntity
  8
중심선
100
AcDbLine
 10
7.28139805157953
 20
16.24717430164393
 30
0.0
 11
10.72767329541681
 21
16.24717430164393
 31
0.0
  0
LINE
  5
8F
330
7F
100
AcDbEntity
  8
중심선
100
AcDbLine
 10
12.29416204261559
 20
16.24717430164393
 30
0.0
 11
15.74043728645272
 21
16.24717430164393
 31
0.0
  0
LINE
  5
90
330
7F
100
AcDbEntity
  8
중심선
100
AcDbLine
 10
19.22036997980202
 20
11.08717430171403
 30
0.0
 11
23.66174974927406
 21
11.08717430171406
 31
0.0
  0
LINE
  5
91
330
7F
100
AcDbEntity
  8
중심선
100
AcDbLine
 10
19.22039502424796
 20
13.00717430171391
 30
0.0
 11
19.22036997980202
 21
11.08717430171403
 31
0.0
  0
LINE
  5
92
330
7F
100
AcDbEntity
  8
중심선
100
AcDbLine
 10
19.22039502424796
 20
13.00717430171391
 30
0.0
 11
26.96566020931264
 21
13.00717430171391
 31
0.0
  0
LINE
  5
93
330
7F
100
AcDbEntity
  8
중심선
100
AcDbLine
 10
22.22332737316547
 20
13.45928029700563
 30
0.0
 11
24.52862924686651
 21
15.39360700705356
 31
0.0
  0
ATTDEF
  5
95
330
7F
100
AcDbEntity
  8
FORMAT
 62
     2
100
AcDbText
 10
4.408487351596664
 20
2.075366912832191
 30
0.0
 40
4.233333333333333
  1
E1071028
 41
0.75
  7
SLDTEXTSTYLE0
 11
4.408487351596664
 21
-0.0412997538344756
 31
0.0
100
AcDbAttributeDefinition
  3

  2
AUTOATTR0
 70
     0
 74
     1
  0
ENDBLK
  5
81
330
7F
100
AcDbEntity
  8
0
100
AcDbBlockEnd
  0
BLOCK
  5
E7
330
E6
100
AcDbEntity
  8
0
100
AcDbBlockBegin
  2
_D
 70
     0
 10
0.0
 20
0.0
 30
0.0
  3
_D
  1
_D
  0
LINE
  5
E9
330
E6
100
AcDbEntity
  8
치수문자_일반주서
 62
     0
370
    -2
100
AcDbLine
 10
-43.90018467149222
 20
6.351074928723889
 30
0.0
 11
-57.33768467149226
 21
6.351074928723839
 31
0.0
  0
LINE
  5
EA
330
E6
100
AcDbEntity
  8
치수문자_일반주서
 62
     0
370
    -2
100
AcDbLine
 10
-43.90018467149222
 20
-6.348925071276101
 30
0.0
 11
-57.33768467149221
 21
-6.348925071276151
 31
0.0
  0
LINE
  5
EB
330
E6
100
AcDbEntity
  8
치수문자_일반주서
 62
     0
370
    -2
100
AcDbLine
 10
-57.33768467149224
 20
3.049074928723839
 30
0.0
 11
-57.33768467149223
 21
-3.046925071276151
 31
0.0
  0
SOLID
  5
EC
330
E6
100
AcDbEntity
  8
치수문자_일반주서
 62
     0
100
AcDbTrace
 10
-56.78735133815891
 20
3.049074928723841
 30
0.0
 11
-57.88801800482558
 21
3.049074928723837
 31
0.0
 12
-57.33768467149226
 22
6.351074928723839
 32
0.0
 13
-57.33768467149226
 23
6.351074928723839
 33
0.0
  0
SOLID
  5
ED
330
E6
100
AcDbEntity
  8
치수문자_일반주서
 62
     0
100
AcDbTrace
 10
-57.88801800482556
 20
-3.046925071276153
 30
0.0
 11
-56.78735133815889
 21
-3.046925071276149
 31
0.0
 12
-57.33768467149221
 22
-6.348925071276151
 32
0.0
 13
-57.33768467149221
 23
-6.348925071276151
 33
0.0
  0
MTEXT
  5
EE
330
E6
100
AcDbEntity
  8
치수문자_일반주서
 62
     0
100
AcDbMText
 10
-61.71268467149223
 20
0.0010749287238769
 30
0.0
 40
3.5
 41
0.0
 71
     2
 72
     1
  1
\A1;%%c12.70 [1/2]
  7
SLDTEXTSTYLE0
 11
-3.356894814614649E-15
 21
1.0
 31
0.0
 73
     1
 44
1.0
  0
POINT
  5
EF
330
E6
100
AcDbEntity
  8
Defpoints
 62
     0
100
AcDbPoint
 10
-43.83768467149222
 20
6.351074928723889
 30
0.0
  0
POINT
  5
F0
330
E6
100
AcDbEntity
  8
Defpoints
 62
     0
100
AcDbPoint
 10
-43.83768467149222
 20
-6.348925071276101
 30
0.0
  0
POINT
  5
F1
330
E6
100
AcDbEntity
  8
Defpoints
 62
     0
100
AcDbPoint
 10
-57.33768467149221
 20
-6.348925071276152
 30
0.0
  0
ENDBLK
  5
E8
330
E6
100
AcDbEntity
  8
0
100
AcDbBlockEnd
  0
BLOCK
  5
FC
330
FB
100
AcDbEntity
  8
0
100
AcDbBlockBegin
  2
_D_1
 70
     0
 10
0.0
 20
0.0
 30
0.0
  3
_D_1
  1
_D_1
  0
LINE
  5
FE
330
FB
100
AcDbEntity
  8
치수문자_일반주서
 62
     0
370
    -2
100
AcDbLine
 10
50.41231532850779
 20
5.619824928723902
 30
0.0
 11
50.41231532850779
 21
18.72897060166654
 31
0.0
  0
LINE
  5
FF
330
FB
100
AcDbEntity
  8
치수문자_일반주서
 62
     0
370
    -2
100
AcDbLine
 10
5.96231532850779
 20
4.489107607761301
 30
0.0
 11
5.962315328507792
 21
18.72897060166654
 31
0.0
  0
LINE
  5
100
330
FB
100
AcDbEntity
  8
치수문자_일반주서
 62
     0
370
    -2
100
AcDbLine
 10
47.1103153285078
 20
18.72897060166654
 30
0.0
 11
9.264315328507791
 21
18.72897060166654
 31
0.0
  0
SOLID
  5
101
330
FB
100
AcDbEntity
  8
치수문자_일반주서
 62
     0
100
AcDbTrace
 10
47.1103153285078
 20
18.1786372683332
 30
0.0
 11
47.1103153285078
 21
19.27930393499987
 31
0.0
 12
50.41231532850779
 22
18.72897060166654
 32
0.0
 13
50.41231532850779
 23
18.72897060166654
 33
0.0
  0
SOLID
  5
102
330
FB
100
AcDbEntity
  8
치수문자_일반주서
 62
     0
100
AcDbTrace
 10
9.264315328507791
 20
19.27930393499987
 30
0.0
 11
9.264315328507791
 21
18.1786372683332
 31
0.0
 12
5.962315328507792
 22
18.72897060166654
 32
0.0
 13
5.962315328507792
 23
18.72897060166654
 33
0.0
  0
MTEXT
  5
103
330
FB
100
AcDbEntity
  8
치수문자_일반주서
 62
     0
100
AcDbMText
 10
28.18731532850779
 20
23.10397060166654
 30
0.0
 40
3.5
 41
0.0
 71
     2
 72
     1
  1
\A1;44.45 [1 3/4]
  7
SLDTEXTSTYLE0
 73
     1
 44
1.0
  0
POINT
  5
104
330
FB
100
AcDbEntity
  8
Defpoints
 62
     0
100
AcDbPoint
 10
50.41231532850779
 20
5.557324928723902
 30
0.0
  0
POINT
  5
105
330
FB
100
AcDbEntity
  8
Defpoints
 62
     0
100
AcDbPoint
 10
5.96231532850779
 20
4.426607607761301
 30
0.0
  0
POINT
  5
106
330
FB
100
AcDbEntity
  8
Defpoints
 62
     0
100
AcDbPoint
 10
5.96231532850779
 20
18.72897060166654
 30
0.0
  0
ENDBLK
  5
FD
330
FB
100
AcDbEntity
  8
0
100
AcDbBlockEnd
  0
BLOCK
  5
110
330
10F
100
AcDbEntity
  8
0
100
AcDbBlockBegin
  2
_D_2
 70
     0
 10
0.0
 20
0.0
 30
0.0
  3
_D_2
  1
_D_2
  0
LINE
  5
112
330
10F
100
AcDbEntity
  8
치수문자_일반주서
 62
     0
370
    -2
100
AcDbLine
 10
50.41231532850779
 20
5.619824928723902
 30
0.0
 11
50.41231532850779
 21
35.79915719877775
 31
0.0
  0
LINE
  5
113
330
10F
100
AcDbEntity
  8
치수문자_일반주서
 62
     0
370
    -2
100
AcDbLine
 10
-44.83768467149221
 20
5.413574928723887
 30
0.0
 11
-44.83768467149221
 21
35.79915719877775
 31
0.0
  0
LINE
  5
114
330
10F
100
AcDbEntity
  8
치수문자_일반주서
 62
     0
370
    -2
100
AcDbLine
 10
47.11031532850779
 20
35.79915719877775
 30
0.0
 11
-41.53568467149221
 21
35.79915719877775
 31
0.0
  0
SOLID
  5
115
330
10F
100
AcDbEntity
  8
치수문자_일반주서
 62
     0
100
AcDbTrace
 10
47.11031532850779
 20
35.24882386544441
 30
0.0
 11
47.11031532850779
 21
36.34949053211108
 31
0.0
 12
50.41231532850779
 22
35.79915719877775
 32
0.0
 13
50.41231532850779
 23
35.79915719877775
 33
0.0
  0
SOLID
  5
116
330
10F
100
AcDbEntity
  8
치수문자_일반주서
 62
     0
100
AcDbTrace
 10
-41.53568467149221
 20
36.34949053211108
 30
0.0
 11
-41.53568467149221
 21
35.24882386544441
 31
0.0
 12
-44.83768467149221
 22
35.79915719877775
 32
0.0
 13
-44.83768467149221
 23
35.79915719877775
 33
0.0
  0
MTEXT
  5
117
330
10F
100
AcDbEntity
  8
치수문자_일반주서
 62
     0
100
AcDbMText
 10
2.787315328507649
 20
40.17415719877775
 30
0.0
 40
3.5
 41
0.0
 71
     2
 72
     1
  1
\A1;95.25 [3 3/4]
  7
SLDTEXTSTYLE0
 73
     1
 44
1.0
  0
POINT
  5
118
330
10F
100
AcDbEntity
  8
Defpoints
 62
     0
100
AcDbPoint
 10
50.41231532850779
 20
5.557324928723902
 30
0.0
  0
POINT
  5
119
330
10F
100
AcDbEntity
  8
Defpoints
 62
     0
100
AcDbPoint
 10
-44.83768467149221
 20
5.351074928723887
 30
0.0
  0
POINT
  5
11A
330
10F
100
AcDbEntity
  8
Defpoints
 62
     0
100
AcDbPoint
 10
-44.83768467149221
 20
35.79915719877775
 30
0.0
  0
ENDBLK
  5
111
330
10F
100
AcDbEntity
  8
0
100
AcDbBlockEnd
  0
BLOCK
  5
124
330
123
100
AcDbEntity
  8
0
100
AcDbBlockBegin
  2
_D_3
 70
     0
 10
0.0
 20
0.0
 30
0.0
  3
_D_3
  1
_D_3
  0
LINE
  5
126
330
123
100
AcDbEntity
  8
치수문자_일반주서
 62
     0
370
    -2
100
AcDbLine
 10
50.47481532850779
 20
-5.555175071276099
 30
0.0
 11
66.75916789463051
 21
-5.555175071276039
 31
0.0
  0
LINE
  5
127
330
123
100
AcDbEntity
  8
치수문자_일반주서
 62
     0
370
    -2
100
AcDbLine
 10
50.47481532850779
 20
5.557324928723902
 30
0.0
 11
66.75916789463047
 21
5.557324928723961
 31
0.0
  0
LINE
  5
128
330
123
100
AcDbEntity
  8
치수문자_일반주서
 62
     0
370
    -2
100
AcDbLine
 10
66.75916789463047
 20
5.557324928723961
 30
0.0
 11
66.75916789463032
 21
39.50037887084366
 31
0.0
  0
LINE
  5
129
330
123
100
AcDbEntity
  8
치수문자_일반주서
 62
     0
370
    -2
100
AcDbLine
 10
66.75916789463051
 20
-5.555175071276039
 30
0.0
 11
66.75916789463047
 21
5.557324928723961
 31
0.0
  0
LINE
  5
12A
330
123
100
AcDbEntity
  8
치수문자_일반주서
 62
     0
370
    -2
100
AcDbLine
 10
66.75916789463052
 20
-8.857175071276039
 30
0.0
 11
66.75916789463054
 21
-12.15917507127604
 31
0.0
  0
LINE
  5
12B
330
123
100
AcDbEntity
  8
치수문자_일반주서
 62
     0
370
    -2
100
AcDbLine
 10
66.75916789463045
 20
8.85932492872396
 30
0.0
 11
66.75916789463044
 21
12.16132492872396
 31
0.0
  0
SOLID
  5
12C
330
123
100
AcDbEntity
  8
치수문자_일반주서
 62
     0
100
AcDbTrace
 10
67.30950122796385
 20
-8.857175071276037
 30
0.0
 11
66.2088345612972
 21
-8.85717507127604
 31
0.0
 12
66.75916789463051
 22
-5.555175071276039
 32
0.0
 13
66.75916789463051
 23
-5.555175071276039
 33
0.0
  0
SOLID
  5
12D
330
123
100
AcDbEntity
  8
치수문자_일반주서
 62
     0
100
AcDbTrace
 10
66.20883456129712
 20
8.859324928723959
 30
0.0
 11
67.30950122796378
 21
8.859324928723963
 31
0.0
 12
66.75916789463047
 22
5.557324928723961
 32
0.0
 13
66.75916789463047
 23
5.557324928723961
 33
0.0
  0
MTEXT
  5
12E
330
123
100
AcDbEntity
  8
치수문자_일반주서
 62
     0
100
AcDbMText
 10
62.38416789463038
 20
25.93787887084364
 30
0.0
 40
3.5
 41
0.0
 71
     2
 72
     1
  1
\A1;%%c11.11 [7/16]
  7
SLDTEXTSTYLE0
 11
-3.836451216702453E-15
 21
1.0
 31
0.0
 73
     1
 44
1.0
  0
POINT
  5
12F
330
123
100
AcDbEntity
  8
Defpoints
 62
     0
100
AcDbPoint
 10
50.41231532850779
 20
-5.555175071276099
 30
0.0
  0
POINT
  5
195
330
123
100
AcDbEntity
  8
Defpoints
 62
     0
100
AcDbPoint
 10
50.41231532850779
 20
5.557324928723902
 30
0.0
  0
POINT
  5
196
330
123
100
AcDbEntity
  8
Defpoints
 62
     0
100
AcDbPoint
 10
66.75916789463047
 20
5.557324928723963
 30
0.0
  0
ENDBLK
  5
125
330
123
100
AcDbEntity
  8
0
100
AcDbBlockEnd
  0
BLOCK
  5
13D
330
13C
100
AcDbEntity
  8
0
100
AcDbBlockBegin
  2
SW_DOWELSYMBOL_0
 70
     0
 10
0.0
 20
0.0
 30
0.0
  3
SW_DOWELSYMBOL_0
  1
SW_DOWELSYMBOL_0
  0
CIRCLE
  5
13F
330
13C
100
AcDbEntity
  8
해칭선
 62
     0
100
AcDbCircle
 10
0.0
 20
0.0
 30
0.0
 40
2.999999999999996
  0
HATCH
  5
140
330
13C
100
AcDbEntity
  8
0
  6
Continuous
 62
     0
370
     0
100
AcDbHatch
 10
0.0
 20
0.0
 30
0.0
210
0.0
220
0.0
230
1.0
  2
SOLID
 70
     1
 71
     0
 91
        1
 92
        0
 93
        3
 72
     2
 10
0.0
 20
0.0
 40
2.999999999999996
 50
0.0
 51
90.0
 73
     1
 72
     1
 10
0.0
 20
2.999999999999996
 11
0.0
 21
0.0
 72
     1
 10
0.0
 20
0.0
 11
2.999999999999996
 21
0.0
 97
        0
 75
     0
 76
     1
 98
        1
 10
0.0
 20
0.0
  0
HATCH
  5
141
330
13C
100
AcDbEntity
  8
0
  6
Continuous
 62
     0
370
     0
100
AcDbHatch
 10
0.0
 20
0.0
 30
0.0
210
0.0
220
0.0
230
1.0
  2
SOLID
 70
     1
 71
     0
 91
        1
 92
        0
 93
        3
 72
     2
 10
0.0
 20
0.0
 40
2.999999999999996
 50
180.0
 51
270.0000000000007
 73
     1
 72
     1
 10
0.0
 20
-2.999999999999996
 11
0.0
 21
0.0
 72
     1
 10
0.0
 20
0.0
 11
-2.999999999999996
 21
0.0
 97
        0
 75
     0
 76
     1
 98
        1
 10
0.0
 20
0.0
  0
ENDBLK
  5
13E
330
13C
100
AcDbEntity
  8
0
100
AcDbBlockEnd
  0
ENDSEC
  0
SECTION
  2
ENTITIES
  0
LINE
  5
96
330
1F
100
AcDbEntity
  8
외형선
  6
Continuous
370
    15
100
AcDbLine
 10
2.000000000000007
 20
6.351074928723892
 30
0.0
 11
-15.10380967149219
 21
6.351074928723891
 31
0.0
  0
LINE
  5
97
330
1F
100
AcDbEntity
  8
외형선
  6
Continuous
370
    15
100
AcDbLine
 10
-43.83768467149221
 20
-6.348925071276106
 30
0.0
 11
2.000000000000011
 21
-6.348925071276104
 31
0.0
  0
LINE
  5
98
330
1F
100
AcDbEntity
  8
외형선
  6
Continuous
370
    15
100
AcDbLine
 10
2.000000000000011
 20
-6.348925071276105
 30
0.0
 11
3.932300787736235
 21
-5.83116663566816
 31
0.0
  0
LINE
  5
99
330
1F
100
AcDbEntity
  8
외형선
  6
Continuous
370
    15
100
AcDbLine
 10
3.932300787736235
 20
5.833316493115948
 30
0.0
 11
2.000000000000007
 21
6.351074928723893
 31
0.0
  0
LINE
  5
9A
330
1F
100
AcDbEntity
  8
외형선
  6
Continuous
370
    15
100
AcDbLine
 10
-43.83768467149221
 20
6.351074928723888
 30
0.0
 11
-44.83768467149221
 21
5.351074928723887
 31
0.0
  0
LINE
  5
9B
330
1F
100
AcDbEntity
  8
외형선
  6
Continuous
370
    15
100
AcDbLine
 10
-44.83768467149221
 20
-5.348925071276105
 30
0.0
 11
-43.83768467149221
 21
-6.348925071276105
 31
0.0
  0
SPLINE
  5
9C
330
1F
100
AcDbEntity
  8
외형선
  6
Continuous
370
    15
100
AcDbSpline
210
0.0
220
0.0
230
1.0
 70
     8
 71
     3
 72
     9
 73
     5
 74
     0
 42
0.000000001
 43
0.00000001
 40
0.0
 40
0.0
 40
0.0
 40
0.0
 40
0.440569004545741
 40
1.0
 40
1.0
 40
1.0
 40
1.0
 10
5.631626559861578
 20
1.495373095896839
 30
0.0
 10
5.38777829207015
 20
1.613596495308268
 30
0.0
 10
4.834293445711399
 20
1.881939020977601
 30
0.0
 10
4.255872275348576
 20
2.189403223339675
 30
0.0
 10
3.932285544220685
 20
2.361408228133639
 30
0.0
  0
SPLINE
  5
9D
330
1F
100
AcDbEntity
  8
외형선
  6
Continuous
370
    15
100
AcDbSpline
210
0.0
220
0.0
230
1.0
 70
     8
 71
     3
 72
     9
 73
     5
 74
     0
 42
0.000000001
 43
0.00000001
 40
0.0
 40
0.0
 40
0.0
 40
0.0
 40
0.5212676893824163
 40
1.0
 40
1.0
 40
1.0
 40
1.0
 10
4.186968380533699
 20
4.42771029415989
 30
0.0
 10
4.14236241325567
 20
4.422402303417855
 30
0.0
 10
4.056790320093951
 20
4.41221945331962
 30
0.0
 10
3.972603661383745
 20
4.39313539370131
 30
0.0
 10
3.932300787736235
 20
4.383999237744272
 30
0.0
  0
SPLINE
  5
9E
330
1F
100
AcDbEntity
  8
0
  6
Continuous
 62
     1
370
    15
100
AcDbSpline
210
0.0
220
0.0
230
1.0
 70
     8
 71
     3
 72
     9
 73
     5
 74
     0
 42
0.000000001
 43
0.00000001
 40
0.0
 40
0.0
 40
0.0
 40
0.0
 40
0.440464766427755
 40
0.9999999999999999
 40
0.9999999999999999
 40
0.9999999999999999
 40
0.9999999999999999
 10
36.016683221629
 20
1.42483711807751
 30
0.0
 10
35.79009572134248
 20
1.532724546808062
 30
0.0
 10
35.27566751378303
 20
1.777664521475136
 30
0.0
 10
34.76336028711671
 20
2.045757972002423
 30
0.0
 10
34.47670634338322
 20
2.195765703462399
 30
0.0
  0
LINE
  5
9F
330
1F
100
AcDbEntity
  8
0
  6
Continuous
 62
     1
370
    15
100
AcDbLine
 10
20.57492134181672
 20
-5.555175071276111
 30
0.0
 11
23.2669949401719
 21
-5.555175071276111
 31
0.0
  0
LINE
  5
A0
330
1F
100
AcDbEntity
  8
0
  6
Continuous
 62
     1
370
    15
100
AcDbLine
 10
23.26699494017183
 20
5.557324928723899
 30
0.0
 11
20.57492134181675
 21
5.557324928723899
 31
0.0
  0
SPLINE
  5
A1
330
1F
100
AcDbEntity
  8
0
  6
Continuous
 62
     1
370
    15
100
AcDbSpline
210
0.0
220
0.0
230
1.0
 70
     8
 71
     3
 72
    16
 73
    12
 74
     0
 42
0.000000001
 43
0.00000001
 40
0.0
 40
0.0
 40
0.0
 40
0.0
 40
0.1574670757822497
 40
0.2999709700921029
 40
0.4304092162079914
 40
0.5465257561795005
 40
0.6407905226886174
 40
0.7136780748269248
 40
0.7939126336188777
 40
0.9153896424655035
 40
1.0
 40
1.0
 40
1.0
 40
1.0
 10
34.18051252413392
 20
4.416282884611235
 30
0.0
 10
33.95088753975364
 20
4.404549472632617
 30
0.0
 10
33.51345749934833
 20
4.382197606655352
 30
0.0
 10
32.8629368097838
 20
4.358577812686362
 30
0.0
 10
32.26033348190318
 20
4.346275130875085
 30
0.0
 10
31.73137430984026
 20
4.341030142857693
 30
0.0
 10
31.29200482515856
 20
4.339620574601605
 30
0.0
 10
30.91467919892148
 20
4.341539635800385
 30
0.0
 10
30.50477471760168
 20
4.346576020223632
 30
0.0
 10
30.0709136057057
 20
4.354594731418958
 30
0.0
 10
29.75820847635983
 20
4.365015166606558
 30
0.0
 10
29.62982558098186
 20
4.369293336405949
 30
0.0
  0
SPLINE
  5
A2
330
1F
100
AcDbEntity
  8
0
  6
Continuous
 62
     1
370
    15
100
AcDbSpline
210
0.0
220
0.0
230
1.0
 70
     8
 71
     3
 72
    21
 73
    17
 74
     0
 42
0.000000001
 43
0.00000001
 40
0.0
 40
0.0
 40
0.0
 40
0.0
 40
0.1121788558320857
 40
0.2071419087078811
 40
0.2864308877632907
 40
0.3552081205445773
 40
0.4160520750879347
 40
0.473364035741706
 40
0.5383616546710474
 40
0.6074648485117412
 40
0.6644851618915192
 40
0.6924897033656119
 40
0.7315136392382839
 40
0.7818897176902903
 40
0.8782631590805973
 40
1.0
 40
1.0
 40
1.0
 40
1.0
 10
25.82436522770119
 20
-4.622497471516884
 30
0.0
 10
26.1308658153007
 20
-4.59285459486495
 30
0.0
 10
26.69682912687595
 20
-4.538118058253587
 30
0.0
 10
27.49903637711737
 20
-4.476025843218501
 30
0.0
 10
28.18880245041729
 20
-4.432074862482425
 30
0.0
 10
28.78081569340262
 20
-4.39902319472609
 30
0.0
 10
29.30425358962547
 20
-4.37645251054129
 30
0.0
 10
29.79529823644793
 20
-4.360500943860543
 30
0.0
 10
30.32607354059844
 20
-4.347098682922975
 30
0.0
 10
30.85974768732881
 20
-4.339494946116544
 30
0.0
 10
31.28874925460739
 20
-4.337679046334688
 30
0.0
 10
31.63375806197135
 20
-4.338568739935778
 30
0.0
 10
31.96100956864537
 20
-4.341146324333366
 30
0.0
 10
32.47929637214529
 20
-4.349023425194856
 30
0.0
 10
33.22897696252179
 20
-4.368386511734982
 30
0.0
 10
33.83966240248955
 20
-4.39774614055862
 30
0.0
 10
34.18051252413392
 20
-4.414133027163446
 30
0.0
  0
SPLINE
  5
A3
330
1F
100
AcDbEntity
  8
0
  6
Continuous
 62
     1
370
    15
100
AcDbSpline
210
0.0
220
0.0
230
1.0
 70
     8
 71
     3
 72
    17
 73
    13
 74
     0
 42
0.000000001
 43
0.00000001
 40
0.0
 40
0.0
 40
0.0
 40
0.0
 40
0.1487672552098872
 40
0.263805206409718
 40
0.3458390538481253
 40
0.4215754185875472
 40
0.5146979626356323
 40
0.6225903848260812
 40
0.7209172854362704
 40
0.8634339538280977
 40
0.9872243928748511
 40
1.0
 40
1.0
 40
1.0
 40
1.0
 10
38.64158709116644
 20
-4.177967386646492
 30
0.0
 10
38.84524212373765
 20
-4.14671306199032
 30
0.0
 10
39.20637843581132
 20
-4.091290559535158
 30
0.0
 10
39.6801788170626
 20
-4.025344226781996
 30
0.0
 10
40.05769164083528
 20
-3.976206830749361
 30
0.0
 10
40.40642932776848
 20
-3.933629136173953
 30
0.0
 10
40.7887017593447
 20
-3.89008543608519
 30
0.0
 10
41.20099593799041
 20
-3.847249658980228
 30
0.0
 10
41.68071165132119
 20
-3.802092113079957
 30
0.0
 10
42.18280112104275
 20
-3.761700023178458
 30
0.0
 10
42.56523699976127
 20
-3.734394054578916
 30
0.0
 10
42.75288850030547
 20
-3.724377403331892
 30
0.0
 10
42.77044309688785
 20
-3.723440356352583
 30
0.0
  0
SPLINE
  5
A4
330
1F
100
AcDbEntity
  8
0
  6
Continuous
 62
     1
370
    15
100
AcDbSpline
210
0.0
220
0.0
230
1.0
 70
     8
 71
     3
 72
    29
 73
    25
 74
     0
 42
0.000000001
 43
0.00000001
 40
0.0
 40
0.0
 40
0.0
 40
0.0
 40
0.070639852865252
 40
0.1253531125689293
 40
0.1672512536392601
 40
0.192346268597901
 40
0.2173507212884191
 40
0.2442545489657843
 40
0.2732172003232332
 40
0.3043676186267412
 40
0.3377013461208724
 40
0.4019733477213747
 40
0.455700141274277
 40
0.5002933864655053
 40
0.5434751297354631
 40
0.595110326325187
 40
0.6571532337652092
 40
0.7155181344484114
 40
0.7678005961817403
 40
0.8136054862712876
 40
0.8369735772128722
 40
0.8750079332836478
 40
0.9292032351376129
 40
1.0
 40
1.0
 40
1.0
 40
1.0
 10
18.11341736610799
 20
3.801274116410938
 30
0.0
 10
17.88334589394422
 20
3.782552287453956
 30
0.0
 10
17.47507529343692
 20
3.749329688063529
 30
0.0
 10
16.93232357131642
 20
3.716343374754262
 30
0.0
 10
16.53814586162996
 20
3.696742514610937
 30
0.0
 10
16.24416960525918
 20
3.684690691453058
 30
0.0
 10
15.99673764164948
 20
3.676043164341848
 30
0.0
 10
15.73601847175133
 20
3.668635388345235
 30
0.0
 10
15.45442033524223
 20
3.662678398453063
 30
0.0
 10
15.15121701347076
 20
3.65861871190685
 30
0.0
 10
14.73266903291792
 20
3.656488067877224
 30
0.0
 10
14.238818332058
 20
3.660123774294266
 30
0.0
 10
13.71347606528022
 20
3.67216984935037
 30
0.0
 10
13.26263217341768
 20
3.688157312772216
 30
0.0
 10
12.81152158995453
 20
3.708989923889272
 30
0.0
 10
12.30400626451598
 20
3.73848631680727
 30
0.0
 10
11.74739569776543
 20
3.778723484631084
 30
0.0
 10
11.18904894403269
 20
3.827581073391422
 30
0.0
 10
10.68227671247333
 20
3.878366511288752
 30
0.0
 10
10.29124605303413
 20
3.921994314571898
 30
0.0
 10
9.947715218158324
 20
3.962970656585418
 30
0.0
 10
9.573430241262175
 20
4.010365620749825
 30
0.0
 10
9.04504310679752
 20
4.082604572423941
 30
0.0
 10
8.638231479791239
 20
4.144857867883731
 30
0.0
 10
8.407809278950223
 20
4.180118761125678
 30
0.0
  0
SPLINE
  5
A5
330
1F
100
AcDbEntity
  8
0
  6
Continuous
 62
     1
370
    15
100
AcDbSpline
210
0.0
220
0.0
230
1.0
 70
     8
 71
     3
 72
    18
 73
    14
 74
     0
 42
0.000000001
 43
0.00000001
 40
0.0
 40
0.0
 40
0.0
 40
0.0
 40
0.1651946837234567
 40
0.2916520969465764
 40
0.3884956780917023
 40
0.4469394387382822
 40
0.5059354804204623
 40
0.5697344254350499
 40
0.6382444159504029
 40
0.7112118591402717
 40
0.788550899232852
 40
0.937519313375496
 40
1.0
 40
1.0
 40
1.0
 40
1.0
 10
8.407809278950223
 20
-4.17796890367789
 30
0.0
 10
8.638230535457057
 20
-4.142708581730511
 30
0.0
 10
9.045040495236291
 20
-4.080456294894331
 30
0.0
 10
9.584682133607872
 20
-4.006674204957164
 30
0.0
 10
9.975598467399523
 20
-3.957332858369301
 30
0.0
 10
10.2695784884883
 20
-3.922558418439332
 30
0.0
 10
10.51956180399215
 20
-3.894385562220684
 30
0.0
 10
10.78423917225729
 20
-3.866154792816234
 30
0.0
 10
11.06907919713607
 20
-3.837643430362404
 30
0.0
 10
11.37250227551117
 20
-3.80937236116038
 30
0.0
 10
11.78724521430461
 20
-3.774038706162999
 30
0.0
 10
12.18764279602586
 20
-3.743734453515703
 30
0.0
 10
12.48084618346313
 20
-3.727088146918033
 30
0.0
 10
12.56748428644511
 20
-3.722169361913931
 30
0.0
  0
SPLINE
  5
A6
330
1F
100
AcDbEntity
  8
0
  6
Continuous
 62
     1
370
    15
100
AcDbSpline
210
0.0
220
0.0
230
1.0
 70
     8
 71
     3
 72
    27
 73
    23
 74
     0
 42
0.000000001
 43
0.00000001
 40
0.0
 40
0.0
 40
0.0
 40
0.0
 40
0.0658815538681427
 40
0.1159906280124343
 40
0.1499689943922
 40
0.180722610809022
 40
0.2194568544945345
 40
0.2650650839941246
 40
0.3076434825375974
 40
0.3716915626978275
 40
0.4257384888453777
 40
0.4791749179547008
 40
0.5326899664439344
 40
0.5928528306639401
 40
0.6567745356888856
 40
0.7103479924704967
 40
0.7402194582938336
 40
0.7678249439991461
 40
0.7957818426163188
 40
0.842126538656776
 40
0.9100752646215634
 40
1.0
 40
1.0
 40
1.0
 40
1.0
 10
48.34730700034476
 20
3.801284602107749
 30
0.0
 10
48.13504046534155
 20
3.783929273456989
 30
0.0
 10
47.76132540770455
 20
3.753373596619234
 30
0.0
 10
47.2777146335775
 20
3.722979594626887
 30
0.0
 10
46.90463427297193
 20
3.703105644562516
 30
0.0
 10
46.56716485025169
 20
3.687956782756026
 30
0.0
 10
46.19397007004797
 20
3.674442390632319
 30
0.0
 10
45.78352901080424
 20
3.664002578877985
 30
0.0
 10
45.29115640820808
 20
3.657116955870155
 30
0.0
 10
44.77143781693376
 20
3.656949770516334
 30
0.0
 10
44.21641814541881
 20
3.665161157533056
 30
0.0
 10
43.69561347602932
 20
3.680152157520464
 30
0.0
 10
43.15528157997574
 20
3.70299475457554
 30
0.0
 10
42.57809413504907
 20
3.735603926510717
 30
0.0
 10
41.99794514901188
 20
3.777345277491563
 30
0.0
 10
41.5217237941474
 20
3.818861283567492
 30
0.0
 10
41.16811845738138
 20
3.853063294597598
 30
0.0
 10
40.89506028545166
 20
3.881213367966864
 30
0.0
 10
40.56882138957153
 20
3.916867590015873
 30
0.0
 10
40.10877841936761
 20
3.971163671330871
 30
0.0
 10
39.44751605846182
 20
4.057550176284377
 30
0.0
 10
38.93405471230599
 20
4.135638263679033
 30
0.0
 10
38.64158709116644
 20
4.18011724409428
 30
0.0
  0
LINE
  5
A7
330
1F
100
AcDbEntity
  8
외형선
  6
Continuous
370
    15
100
AcDbLine
 10
2.000000000000007
 20
6.351074928723893
 30
0.0
 11
2.000000000000011
 21
-6.348925071276104
 31
0.0
  0
LINE
  5
A8
330
1F
100
AcDbEntity
  8
외형선
  6
Continuous
370
    15
100
AcDbLine
 10
-43.83768467149221
 20
6.351074928723888
 30
0.0
 11
-43.83768467149221
 21
-6.348925071276106
 31
0.0
  0
LINE
  5
A9
330
1F
100
AcDbEntity
  8
외형선
  6
Continuous
370
    15
100
AcDbLine
 10
3.932300787736231
 20
2.360648928312104
 30
0.0
 11
3.932300787736235
 21
5.833316493115948
 31
0.0
  0
SPLINE
  5
AA
330
1F
100
AcDbEntity
  8
외형선
  6
Continuous
370
    15
100
AcDbSpline
210
0.0
220
0.0
230
1.0
 70
     8
 71
     3
 72
     8
 73
     4
 74
     0
 42
0.000000001
 43
0.00000001
 40
0.0
 40
0.0
 40
0.0
 40
0.0
 40
1.0
 40
1.0
 40
1.0
 40
1.0
 10
4.962315328507794
 20
1.808349605784752
 30
0.0
 10
4.618029800627975
 20
1.989395366084294
 30
0.0
 10
4.274686704945582
 20
2.173431535816216
 30
0.0
 10
3.932285544220685
 20
2.360547135228866
 30
0.0
  0
LINE
  5
AB
330
1F
100
AcDbEntity
  8
외형선
  6
Continuous
370
    15
100
AcDbLine
 10
4.962315328507797
 20
1.808349605784751
 30
0.0
 11
4.962315328507797
 21
0.286972751545602
 31
0.0
  0
SPLINE
  5
AC
330
1F
100
AcDbEntity
  8
외형선
  6
Continuous
370
    15
100
AcDbSpline
210
0.0
220
0.0
230
1.0
 70
     8
 71
     3
 72
     8
 73
     4
 74
     0
 42
0.000000001
 43
0.00000001
 40
0.0
 40
0.0
 40
0.0
 40
0.0
 40
1.0
 40
1.0
 40
1.0
 40
1.0
 10
3.932300787736228
 20
0.8196934296488156
 30
0.0
 10
4.276238369094317
 20
0.6400639806406936
 30
0.0
 10
4.619561174872338
 20
0.4624066137934423
 30
0.0
 10
4.962315328507609
 20
0.2869727515456975
 30
0.0
  0
LINE
  5
AD
330
1F
100
AcDbEntity
  8
외형선
  6
Continuous
370
    15
100
AcDbLine
 10
3.932300787736235
 20
-5.83116663566816
 30
0.0
 11
3.932300787736228
 21
0.8197949134396939
 31
0.0
  0
LINE
  5
AE
330
1F
100
AcDbEntity
  8
외형선
  6
Continuous
370
    15
100
AcDbLine
 10
-44.83768467149221
 20
5.351074928723887
 30
0.0
 11
-44.83768467149221
 21
-5.348925071276114
 31
0.0
  0
SPLINE
  5
AF
330
1F
100
AcDbEntity
  8
외형선
  6
Continuous
370
    15
100
AcDbSpline
210
0.0
220
0.0
230
1.0
 70
     8
 71
     3
 72
     8
 73
     4
 74
     0
 42
0.000000001
 43
0.00000001
 40
0.0
 40
0.0
 40
0.0
 40
0.0
 40
1.0
 40
1.0
 40
1.0
 40
1.0
 10
5.96231532850779
 20
-0.2905374163915473
 30
0.0
 10
5.627652301686156
 20
-0.0979572845463616
 30
0.0
 10
5.294467910787297
 20
0.0948646425070193
 30
0.0
 10
4.962315328507797
 20
0.286972751545602
 30
0.0
  0
SPLINE
  5
B0
330
1F
100
AcDbEntity
  8
외형선
  6
Continuous
370
    15
100
AcDbSpline
210
0.0
220
0.0
230
1.0
 70
    24
 71
     3
 72
     9
 73
     5
 74
     0
 42
0.000000001
 43
0.00000001
 40
0.0
 40
0.0
 40
0.0
 40
0.0
 40
0.2230663096542746
 40
1.0
 40
1.0
 40
1.0
 40
1.0
 10
5.96231532850779
 20
-0.2905374163915522
 30
0.0
 10
5.96231532850779
 20
-0.295082695425129
 30
0.0
 10
5.96231532850779
 20
-0.3154590536507234
 30
0.0
 10
5.96231532850779
 20
-0.3419519767110805
 30
0.0
 10
5.96231532850779
 20
-0.3625352211924092
 30
0.0
  0
SPLINE
  5
B1
330
1F
100
AcDbEntity
  8
외형선
  6
Continuous
370
    15
100
AcDbSpline
210
0.0
220
0.0
230
1.0
 70
     8
 71
     3
 72
     8
 73
     4
 74
     0
 42
0.000000001
 43
0.00000001
 40
0.0
 40
0.0
 40
0.0
 40
0.0
 40
1.0
 40
1.0
 40
1.0
 40
1.0
 10
5.96231532850779
 20
-0.3625352211926468
 30
0.0
 10
5.410206697203638
 20
-0.1408079698037155
 30
0.0
 10
4.864024547157655
 20
0.0819094733660043
 30
0.0
 10
4.312259140657909
 20
0.3038900550088443
 30
0.0
  0
SPLINE
  5
B2
330
1F
100
AcDbEntity
  8
외형선
  6
Continuous
370
    15
100
AcDbSpline
210
0.0
220
0.0
230
1.0
 70
     8
 71
     3
 72
    12
 73
     8
 74
     0
 42
0.000000001
 43
0.00000001
 40
0.0
 40
0.0
 40
0.0
 40
0.0
 40
0.5000000000000003
 40
0.5000000000000003
 40
0.7500000000000004
 40
0.7500000000000004
 40
1.0
 40
1.0
 40
1.0
 40
1.0
 10
3.932300787740814
 20
0.7041890698603691
 30
0.0
 10
3.932300246949923
 20
0.6533638090470371
 30
0.0
 10
3.974735382069731
 20
0.579175980073794
 30
0.0
 10
4.07219397778724
 20
0.4670689081984681
 30
0.0
 10
4.110724468856239
 20
0.429591399794128
 30
0.0
 10
4.20178904406448
 20
0.3595268802462204
 30
0.0
 10
4.254431715986135
 20
0.3271545895598236
 30
0.0
 10
4.312259140657909
 20
0.303890055008845
 30
0.0
  0
SPLINE
  5
B3
330
1F
100
AcDbEntity
  8
외형선
  6
Continuous
370
    15
100
AcDbSpline
210
0.0
220
0.0
230
1.0
 70
    24
 71
     3
 72
     8
 73
     4
 74
     0
 42
0.000000001
 43
0.00000001
 40
0.0
 40
0.0
 40
0.0
 40
0.0
 40
1.0
 40
1.0
 40
1.0
 40
1.0
 10
5.96231532850779
 20
1.340793260359
 30
0.0
 10
5.96231532850779
 20
1.335290282926486
 30
0.0
 10
5.96231532850779
 20
1.306016414105486
 30
0.0
 10
5.96231532850779
 20
1.25321915642055
 30
0.0
  0
SPLINE
  5
B4
330
1F
100
AcDbEntity
  8
외형선
  6
Continuous
370
    15
100
AcDbSpline
210
0.0
220
0.0
230
1.0
 70
     8
 71
     3
 72
     8
 73
     4
 74
     0
 42
0.000000001
 43
0.00000001
 40
0.0
 40
0.0
 40
0.0
 40
0.0
 40
1.0
 40
1.0
 40
1.0
 40
1.0
 10
5.96231532850779
 20
1.253219156418408
 30
0.0
 10
5.627652301686156
 20
1.441104317504805
 30
0.0
 10
5.294467910787295
 20
1.626447062117687
 30
0.0
 10
4.96231532850779
 20
1.808349605784755
 30
0.0
  0
LINE
  5
B5
330
1F
100
AcDbEntity
  8
외형선
  6
Continuous
370
    15
100
AcDbLine
 10
5.96231532850779
 20
1.340793260359
 30
0.0
 11
5.595057639096041
 21
1.506989874409295
 31
0.0
  0
LINE
  5
B6
330
1F
100
AcDbEntity
  8
외형선
  6
Continuous
370
    15
100
AcDbLine
 10
5.96231532850779
 20
1.253219156418408
 30
0.0
 11
5.96231532850779
 21
-0.2905374163915492
 31
0.0
  0
SPLINE
  5
B7
330
1F
100
AcDbEntity
  8
외형선
  6
Continuous
370
    15
100
AcDbSpline
210
0.0
220
0.0
230
1.0
 70
     8
 71
     3
 72
    10
 73
     6
 74
     0
 42
0.000000001
 43
0.00000001
 40
0.0
 40
0.0
 40
0.0
 40
0.0
 40
0.5
 40
0.5
 40
1.0
 40
1.0
 40
1.0
 40
1.0
 10
5.96231532850779
 20
4.426607607761301
 30
0.0
 10
5.62293386458327
 20
4.441233992565036
 30
0.0
 10
5.285175268114118
 20
4.447609697322918
 30
0.0
 10
4.6113539998425
 20
4.443918585040882
 30
0.0
 10
4.271757792063067
 20
4.433825873234567
 30
0.0
 10
3.932295222800933
 20
4.415508152759889
 30
0.0
  0
SPLINE
  5
B8
330
1F
100
AcDbEntity
  8
외형선
  6
Continuous
370
    15
100
AcDbSpline
210
0.0
220
0.0
230
1.0
 70
    24
 71
     3
 72
    14
 73
    10
 74
     0
 42
0.000000001
 43
0.00000001
 40
0.0
 40
0.0
 40
0.0
 40
0.0
 40
0.2500000000000001
 40
0.2500000000000001
 40
0.5000000000000001
 40
0.5000000000000001
 40
0.7500000000000002
 40
0.7500000000000002
 40
1.0
 40
1.0
 40
1.0
 40
1.0
 10
5.96231532850779
 20
4.4266076077613
 30
0.0
 10
5.96231532850779
 20
4.337507345973502
 30
0.0
 10
5.96231532850779
 20
4.201720585716907
 30
0.0
 10
5.96231532850779
 20
3.836458435241318
 30
0.0
 10
5.96231532850779
 20
3.606980485835166
 30
0.0
 10
5.96231532850779
 20
3.067657973659776
 30
0.0
 10
5.96231532850779
 20
2.757969150860328
 30
0.0
 10
5.96231532850779
 20
2.083157869089118
 30
0.0
 10
5.96231532850779
 20
1.718276602849946
 30
0.0
 10
5.96231532850779
 20
1.340793260359
 30
0.0
  0
SPLINE
  5
B9
330
1F
100
AcDbEntity
  8
외형선
  6
Continuous
370
    15
100
AcDbSpline
210
0.0
220
0.0
230
1.0
 70
     8
 71
     3
 72
     8
 73
     4
 74
     0
 42
0.000000001
 43
0.00000001
 40
0.0
 40
0.0
 40
0.0
 40
0.0
 40
1.0
 40
1.0
 40
1.0
 40
1.0
 10
5.96231532850779
 20
-4.424457750313512
 30
0.0
 10
5.459150770009421
 20
-4.446142724993909
 30
0.0
 10
4.961305126787304
 20
-4.449716386321708
 30
0.0
 10
4.45893416552429
 20
-4.435186924533761
 30
0.0
  0
SPLINE
  5
BA
330
1F
100
AcDbEntity
  8
외형선
  6
Continuous
370
    15
100
AcDbSpline
210
0.0
220
0.0
230
1.0
 70
     8
 71
     3
 72
    16
 73
    12
 74
     0
 42
0.000000001
 43
0.00000001
 40
0.0
 40
0.0
 40
0.0
 40
0.0
 40
0.4158485522169566
 40
0.542231935759175
 40
0.6498521536328677
 40
0.7522679326720485
 40
0.8366374120668895
 40
0.9030685572589113
 40
0.9517735521332527
 40
0.9833062464706003
 40
1.0
 40
1.0
 40
1.0
 40
1.0
 10
4.21316623153362
 20
-4.607436730080295
 30
0.0
 10
4.24487205566615
 20
-4.582154788125187
 30
0.0
 10
4.286213814108178
 20
-4.549189237919502
 30
0.0
 10
4.336944932772859
 20
-4.511125697378617
 30
0.0
 10
4.363587798883175
 20
-4.491667027905965
 30
0.0
 10
4.387421649451413
 20
-4.474871072646286
 30
0.0
 10
4.408660805850886
 20
-4.460725250129333
 30
0.0
 10
4.426120823000264
 20
-4.44967049383778
 30
0.0
 10
4.440096639368004
 20
-4.442138382061986
 30
0.0
 10
4.450033124857978
 20
-4.436795635194199
 30
0.0
 10
4.456645331015926
 20
-4.435600589636623
 30
0.0
 10
4.458934169293865
 20
-4.435186920438973
 30
0.0
  0
SPLINE
  5
BB
330
1F
100
AcDbEntity
  8
외형선
  6
Continuous
370
    15
100
AcDbSpline
210
0.0
220
0.0
230
1.0
 70
    24
 71
     3
 72
    14
 73
    10
 74
     0
 42
0.000000001
 43
0.00000001
 40
0.0
 40
0.0
 40
0.0
 40
0.0
 40
0.2499999999999999
 40
0.2499999999999999
 40
0.4999999999999999
 40
0.4999999999999999
 40
0.7499999999999999
 40
0.7499999999999999
 40
1.0
 40
1.0
 40
1.0
 40
1.0
 10
5.96231532850779
 20
-0.3625352211926468
 30
0.0
 10
5.96231532850779
 20
-0.8315469947503351
 30
0.0
 10
5.96231532850779
 20
-1.297320650445978
 30
0.0
 10
5.96231532850779
 20
-2.174253619693413
 30
0.0
 10
5.96231532850779
 20
-2.584880421595994
 30
0.0
 10
5.96231532850779
 20
-3.30680116475637
 30
0.0
 10
5.96231532850779
 20
-3.617710436459984
 30
0.0
 10
5.96231532850779
 20
-4.114687396270979
 30
0.0
 10
5.96231532850779
 20
-4.300756241445881
 30
0.0
 10
5.96231532850779
 20
-4.42445775031351
 30
0.0
  0
SPLINE
  5
BC
330
1F
100
AcDbEntity
  8
외형선
  6
Continuous
370
    15
100
AcDbSpline
210
0.0
220
0.0
230
1.0
 70
     8
 71
     3
 72
    13
 73
     9
 74
     0
 42
0.000000001
 43
0.00000001
 40
0.0
 40
0.0
 40
0.0
 40
0.0
 40
0.4265769783208276
 40
0.5755626935507333
 40
0.7258055422865743
 40
0.842664254992838
 40
0.9593140998029814
 40
1.0
 40
1.0
 40
1.0
 40
1.0
 10
4.213165345733705
 20
-4.607446880724853
 30
0.0
 10
4.178522853041493
 20
-4.636179818985765
 30
0.0
 10
4.131781168847168
 20
-4.674947985529058
 30
0.0
 10
4.062857537207551
 20
-4.741810687830867
 30
0.0
 10
4.022410438735966
 20
-4.784680691692612
 30
0.0
 10
3.989656119955454
 20
-4.823505179748726
 30
0.0
 10
3.970905591765467
 20
-4.848235730367652
 30
0.0
 10
3.963668938579588
 20
-4.859243124879802
 30
0.0
 10
3.961797591739311
 20
-4.862089558501925
 30
0.0
  0
SPLINE
  5
BD
330
1F
100
AcDbEntity
  8
0
  6
Continuous
 62
     1
370
    15
100
AcDbSpline
210
0.0
220
0.0
230
1.0
 70
     8
 71
     3
 72
    20
 73
    16
 74
     0
 42
0.000000001
 43
0.00000001
 40
0.0
 40
0.0
 40
0.0
 40
0.0
 40
0.0221287971835602
 40
0.1039543399857846
 40
0.185763852239627
 40
0.2675636455916454
 40
0.349360056456956
 40
0.4311594298794147
 40
0.5129681033451414
 40
0.5947923906369124
 40
0.675850299454388
 40
0.7569228181385598
 40
0.8379679343808959
 40
0.9189909870029819
 40
1.0
 40
1.0
 40
1.0
 40
1.0
 10
29.63169155146941
 20
-4.366444553941067
 30
0.0
 10
29.4570864379225
 20
-4.433359940151147
 30
0.0
 10
28.63684486824533
 20
-4.747708015677397
 30
0.0
 10
27.17120504732987
 20
-5.130207593737654
 30
0.0
 10
25.23481483123365
 20
-5.478443538346499
 30
0.0
 10
23.2987096208776
 20
-5.59216474588976
 30
0.0
 10
21.36269797422033
 20
-5.483759837017582
 30
0.0
 10
19.42660294653261
 20
-5.153055953269802
 30
0.0
 10
17.49024349454054
 20
-4.614597516001831
 30
0.0
 10
15.55966115645582
 20
-3.892022208815675
 30
0.0
 10
13.63478116473537
 20
-3.01657400569994
 30
0.0
 10
11.71592063195408
 20
-2.024372587943574
 30
0.0
 10
9.797539940838481
 20
-0.9527661099878314
 30
0.0
 10
7.879746082650238
 20
0.1600287803501397
 30
0.0
 10
6.601421992152313
 20
0.888843414312518
 30
0.0
 10
5.962315328505987
 20
1.25321915641942
 30
0.0
  0
SPLINE
  5
BE
330
1F
100
AcDbEntity
  8
외형선
  6
Continuous
370
    15
100
AcDbSpline
210
0.0
220
0.0
230
1.0
 70
    24
 71
     3
 72
     8
 73
     4
 74
     0
 42
0.000000001
 43
0.00000001
 40
0.0
 40
0.0
 40
0.0
 40
0.0
 40
1.0
 40
1.0
 40
1.0
 40
1.0
 10
5.96231532850779
 20
1.340793260359
 30
0.0
 10
5.96231532850779
 20
1.335290282926486
 30
0.0
 10
5.96231532850779
 20
1.306016414105486
 30
0.0
 10
5.96231532850779
 20
1.253219156420551
 30
0.0
  0
SPLINE
  5
BF
330
1F
100
AcDbEntity
  8
0
  6
Continuous
 62
     1
370
    15
100
AcDbSpline
210
0.0
220
0.0
230
1.0
 70
     8
 71
     3
 72
    18
 73
    14
 74
     0
 42
0.000000001
 43
0.00000001
 40
0.0
 40
0.0
 40
0.0
 40
0.0
 40
0.0298804629763378
 40
0.1273396634581926
 40
0.2247946534473647
 40
0.3222533312055716
 40
0.4197235854649572
 40
0.5172132750705577
 40
0.6147302087857647
 40
0.7122674423906986
 40
0.8097769804490618
 40
0.9049001067497484
 40
1.0
 40
1.0
 40
1.0
 40
1.0
 10
25.82834446873861
 20
-4.602212847457381
 30
0.0
 10
25.63047833372605
 20
-4.627691973631065
 30
0.0
 10
24.78724484493354
 20
-4.736274740729925
 30
0.0
 10
23.29871307077305
 20
-4.737542944807179
 30
0.0
 10
21.36269596629186
 20
-4.598337839858612
 30
0.0
 10
19.42659811109193
 20
-4.26002877644526
 30
0.0
 10
17.4902352909592
 20
-3.753359420584225
 30
0.0
 10
15.55342989105883
 20
-3.09412344921103
 30
0.0
 10
13.6160992250637
 20
-2.310231810636309
 30
0.0
 10
11.6785388890905
 20
-1.432828764522249
 30
0.0
 10
9.756947013023774
 20
-0.5059818748822642
 30
0.0
 10
7.851616273768192
 20
0.4365248090187746
 30
0.0
 10
6.59203103008924
 20
1.039394987266412
 30
0.0
 10
5.96231532850779
 20
1.340793260359
 30
0.0
  0
SPLINE
  5
C0
330
1F
100
AcDbEntity
  8
0
  6
Continuous
 62
     1
370
    15
100
AcDbSpline
210
0.0
220
0.0
230
1.0
 70
     8
 71
     3
 72
    22
 73
    18
 74
     0
 42
0.000000001
 43
0.00000001
 40
0.0
 40
0.0
 40
0.0
 40
0.0
 40
0.0713750272408323
 40
0.1427289160180069
 40
0.2140671203803222
 40
0.2853951342389642
 40
0.3567184774625407
 40
0.4280426818320359
 40
0.4993732769313751
 40
0.5707157760498679
 40
0.6420756621727022
 40
0.7134558023717792
 40
0.7848236682307531
 40
0.8561720881924236
 40
0.9275065301924577
 40
0.9988324977202773
 40
1.0
 40
1.0
 40
1.0
 40
1.0
 10
50.41231532850779
 20
-5.271477775945852
 30
0.0
 10
49.7664201558119
 20
-5.133271751026688
 30
0.0
 10
48.47482109905652
 20
-4.856900632353613
 30
0.0
 10
46.5378131742687
 20
-4.189165644248888
 30
0.0
 10
44.60130549290702
 20
-3.367643027345208
 30
0.0
 10
42.66513230180507
 20
-2.406125194919124
 30
0.0
 10
40.72911049881051
 20
-1.34859008553727
 30
0.0
 10
38.79306060316107
 20
-0.2362898325154981
 30
0.0
 10
36.85680354731108
 20
0.8855420668427751
 30
0.0
 10
34.92015544023256
 20
1.971806197679789
 30
0.0
 10
32.98297789478723
 20
2.978481481133346
 30
0.0
 10
31.0453976800768
 20
3.865355919993099
 30
0.0
 10
29.108036591926
 20
4.594422221396713
 30
0.0
 10
27.17119949277648
 20
5.145244242969095
 30
0.0
 10
25.23481672707359
 20
5.461510654791261
 30
0.0
 10
23.9334704635637
 20
5.593413795659814
 30
0.0
 10
23.27755835891165
 20
5.556120293252282
 30
0.0
 10
23.26699494017184
 20
5.555519683994714
 30
0.0
  0
SPLINE
  5
C1
330
1F
100
AcDbEntity
  8
0
  6
Continuous
 62
     1
370
    15
100
AcDbSpline
210
0.0
220
0.0
230
1.0
 70
     8
 71
     3
 72
    15
 73
    11
 74
     0
 42
0.000000001
 43
0.00000001
 40
0.0
 40
0.0
 40
0.0
 40
0.0
 40
0.134415177877557
 40
0.2687887691350435
 40
0.4031315026246424
 40
0.5374541866373317
 40
0.6717676811948691
 40
0.8060828700598619
 40
0.9404106326162509
 40
1.0
 40
1.0
 40
1.0
 40
1.0
 10
50.41231532850779
 20
-4.382652215172007
 30
0.0
 10
49.76642206083819
 20
-4.247619789948682
 30
0.0
 10
48.47483535797588
 20
-3.977596717091839
 30
0.0
 10
46.53782230246449
 20
-3.364505404910315
 30
0.0
 10
44.60131182728131
 20
-2.628266074133686
 30
0.0
 10
42.66513496687094
 20
-1.782798929478975
 30
0.0
 10
40.72911052977088
 20
-0.8653680806996613
 30
0.0
 10
38.79305467469096
 20
0.0838746178689812
 30
0.0
 10
37.21600921788709
 20
0.8646104452791116
 30
0.0
 10
36.28426834750893
 20
1.294783967032184
 30
0.0
 10
35.99795094456182
 20
1.426973258583776
 30
0.0
  0
LINE
  5
C2
330
1F
100
AcDbEntity
  8
0
  6
Continuous
 62
     1
370
    15
100
AcDbLine
 10
50.41231532850752
 20
-5.271477775945856
 30
0.0
 11
50.41231532850779
 21
-4.382652215172007
 31
0.0
  0
SPLINE
  5
C3
330
1F
100
AcDbEntity
  8
0
  6
Continuous
 62
     1
370
    15
100
AcDbSpline
210
0.0
220
0.0
230
1.0
 70
     8
 71
     3
 72
    27
 73
    23
 74
     0
 42
0.000000001
 43
0.00000001
 40
0.0
 40
0.0
 40
0.0
 40
0.0
 40
0.0282054041787195
 40
0.0789018559047707
 40
0.130077550040901
 40
0.1812434785100885
 40
0.232403590200929
 40
0.2835618488275259
 40
0.3347222228313342
 40
0.3858886752574414
 40
0.4370651536600258
 40
0.4882555800914691
 40
0.5394548112719689
 40
0.5906395148380387
 40
0.6418117469666464
 40
0.6929754405033575
 40
0.7441345500305961
 40
0.7952930418188238
 40
0.8464548837145605
 40
0.8976240350198856
 40
0.9488044364181224
 40
1.0
 40
1.0
 40
1.0
 40
1.0
 10
12.56734725586626
 20
3.724261454341059
 30
0.0
 10
12.92319453182892
 20
3.87882792604907
 30
0.0
 10
13.91864243657102
 20
4.311212493245439
 30
0.0
 10
15.55967300380394
 20
4.84754261495572
 30
0.0
 10
17.49025388274238
 20
5.311214625851831
 30
0.0
 10
19.426613173707
 20
5.554853443124374
 30
0.0
 10
21.36270757546212
 20
5.576279753522403
 30
0.0
 10
23.2987181276594
 20
5.372212129253854
 30
0.0
 10
25.2348245337155
 20
4.951531387551629
 30
0.0
 10
27.17120721231531
 20
4.331006740970382
 30
0.0
 10
29.10804351178151
 20
3.535672177876641
 30
0.0
 10
31.04540399478387
 20
2.597613073516029
 30
0.0
 10
32.98298357111615
 20
1.554870883696165
 30
0.0
 10
34.92016050000943
 20
0.4492549494876736
 30
0.0
 10
36.85680798348167
 20
-0.6743424162863182
 30
0.0
 10
38.79306441105059
 20
-1.770588655827651
 30
0.0
 10
40.72911367388205
 20
-2.795382374912105
 30
0.0
 10
42.66513484141991
 20
-3.707015763409927
 30
0.0
 10
44.60130739585833
 20
-4.470187724920049
 30
0.0
 10
46.53781444093282
 20
-5.048640745740849
 30
0.0
 10
48.4748217312593
 20
-5.439394918690481
 30
0.0
 10
49.7664203662305
 20
-5.51344732603375
 30
0.0
 10
50.41231532850779
 20
-5.555175071276097
 30
0.0
  0
SPLINE
  5
C4
330
1F
100
AcDbEntity
  8
0
  6
Continuous
 62
     1
370
    15
100
AcDbSpline
210
0.0
220
0.0
230
1.0
 70
     8
 71
     3
 72
    17
 73
    13
 74
     0
 42
0.000000001
 43
0.00000001
 40
0.0
 40
0.0
 40
0.0
 40
0.0
 40
0.007266151309492
 40
0.1256660782039843
 40
0.2440660560534124
 40
0.3624660612929084
 40
0.4808660703562164
 40
0.599266059676887
 40
0.7176660056894703
 40
0.8360658848307124
 40
0.9544656735407482
 40
0.9999999999999999
 40
0.9999999999999999
 40
0.9999999999999999
 40
0.9999999999999999
 10
36.60771393965272
 20
-0.5262760742723861
 30
0.0
 10
36.56290017469817
 20
-0.5087617045697902
 30
0.0
 10
35.78785849836569
 20
-0.2058555223293061
 30
0.0
 10
34.28272444458837
 20
0.4162403036885902
 30
0.0
 10
32.09213765928972
 20
1.282142862413867
 30
0.0
 10
29.9015770730213
 20
2.086736503145749
 30
0.0
 10
27.71100923862376
 20
2.782682981168192
 30
0.0
 10
25.5204437294336
 20
3.334594211369275
 30
0.0
 10
23.32987858526042
 20
3.717782204375608
 30
0.0
 10
21.13931495939242
 20
3.896837419990359
 30
0.0
 10
19.39812343732441
 20
3.916291050638304
 30
0.0
 10
18.38711995470777
 20
3.807656899146819
 30
0.0
 10
18.10630370983178
 20
3.777482686088549
 30
0.0
  0
SPLINE
  5
C5
330
1F
100
AcDbEntity
  8
0
  6
Continuous
 62
     1
370
    15
100
AcDbSpline
210
0.0
220
0.0
230
1.0
 70
     8
 71
     3
 72
    15
 73
    11
 74
     0
 42
0.000000001
 43
0.00000001
 40
0.0
 40
0.0
 40
0.0
 40
0.0
 40
0.1312196585918739
 40
0.2624620582077257
 40
0.3937401958577429
 40
0.5250627202593252
 40
0.6563615823386614
 40
0.7889016354868232
 40
0.9214163965107165
 40
1.0
 40
1.0
 40
1.0
 40
1.0
 10
5.96231532850835
 20
-0.2905374163918716
 30
0.0
 10
6.601422753670734
 20
-0.6579826270697557
 30
0.0
 10
7.879748364512912
 20
-1.392936728520689
 30
0.0
 10
9.797544489897957
 20
-2.437047298014059
 30
0.0
 10
11.71592746091566
 20
-3.385768746012518
 30
0.0
 10
13.63479019301107
 20
-4.199331157692034
 30
0.0
 10
15.55967176609714
 20
-4.851519326035892
 30
0.0
 10
17.49025350424321
 20
-5.30162357257856
 30
0.0
 10
19.16400767317957
 20
-5.539043591370049
 30
0.0
 10
20.19217511477905
 20
-5.53103555738232
 30
0.0
 10
20.57492134181672
 20
-5.528054481858254
 30
0.0
  0
SPLINE
  5
C6
330
1F
100
AcDbEntity
  8
0
  6
Continuous
 62
     1
370
    15
100
AcDbSpline
210
0.0
220
0.0
230
1.0
 70
     8
 71
     3
 72
    11
 73
     7
 74
     0
 42
0.000000001
 43
0.00000001
 40
0.0
 40
0.0
 40
0.0
 40
0.0
 40
0.239449516954132
 40
0.492904160669183
 40
0.7464145291367059
 40
1.0
 40
1.0
 40
1.0
 40
1.0
 10
42.77181988338872
 20
3.726128596050687
 30
0.0
 10
43.38161823968792
 20
3.976064219783886
 30
0.0
 10
44.63688135657564
 20
4.490553914332484
 30
0.0
 10
46.53781482289209
 20
5.048717866415057
 30
0.0
 10
48.47482163572772
 20
5.442063186911827
 30
0.0
 10
49.76642033438349
 20
5.515770004133698
 30
0.0
 10
50.41231532850779
 20
5.557324928723901
 30
0.0
  0
LINE
  5
C7
330
1F
100
AcDbEntity
  8
0
  6
Continuous
 62
     1
370
    15
100
AcDbLine
 10
50.41231532850779
 20
-5.555175071276099
 30
0.0
 11
50.41231532850746
 21
-5.271477775945836
 31
0.0
  0
SPLINE
  5
C8
330
1F
100
AcDbEntity
  8
0
  6
Continuous
 62
     1
370
    15
100
AcDbSpline
210
0.0
220
0.0
230
1.0
 70
    24
 71
     3
 72
    10
 73
     6
 74
     0
 42
0.000000001
 43
0.00000001
 40
0.0
 40
0.0
 40
0.0
 40
0.0
 40
0.5
 40
0.5
 40
1.0
 40
1.0
 40
1.0
 40
1.0
 10
50.41231532850779
 20
3.890449928723894
 30
0.0
 10
50.41231532850779
 20
4.126214155609532
 30
0.0
 10
50.41231532850779
 20
4.400194021366813
 30
0.0
 10
50.41231532850781
 20
4.97500304181265
 30
0.0
 10
50.41231532850781
 20
5.274364206395828
 30
0.0
 10
50.41231532850779
 20
5.557324928723902
 30
0.0
  0
LINE
  5
C9
330
1F
100
AcDbEntity
  8
0
  6
Continuous
 62
     1
370
    15
100
AcDbLine
 10
50.41231532850779
 20
3.890449928723894
 30
0.0
 11
48.34478937828407
 21
3.790069768209074
 31
0.0
  0
LINE
  5
CA
330
1F
100
AcDbEntity
  8
0
  6
Continuous
 62
     1
370
    15
100
AcDbLine
 10
6.373679860766996
 20
-0.524954111457887
 30
0.0
 11
5.96231532850779
 21
-0.3625352211926468
 31
0.0
  0
SPLINE
  5
CB
330
1F
100
AcDbEntity
  8
외형선
  6
Continuous
370
    15
100
AcDbSpline
210
0.0
220
0.0
230
1.0
 70
    24
 71
     3
 72
     9
 73
     5
 74
     0
 42
0.000000001
 43
0.00000001
 40
0.0
 40
0.0
 40
0.0
 40
0.0
 40
0.2230663096542786
 40
1.0
 40
1.0
 40
1.0
 40
1.0
 10
5.96231532850779
 20
-0.290537416391552
 30
0.0
 10
5.96231532850779
 20
-0.2950826954251289
 30
0.0
 10
5.96231532850779
 20
-0.3154590536507237
 30
0.0
 10
5.96231532850779
 20
-0.3419519767110807
 30
0.0
 10
5.96231532850779
 20
-0.3625352211924092
 30
0.0
  0
SPLINE
  5
CC
330
1F
100
AcDbEntity
  8
0
  6
Continuous
 62
     1
370
    15
100
AcDbSpline
210
0.0
220
0.0
230
1.0
 70
     8
 71
     3
 72
     8
 73
     4
 74
     0
 42
0.000000001
 43
0.00000001
 40
0.0
 40
0.0
 40
0.0
 40
0.0
 40
1.0
 40
1.0
 40
1.0
 40
1.0
 10
46.97437239453232
 20
1.555258938326828
 30
0.0
 10
46.77696563604368
 20
1.789123998526551
 30
0.0
 10
46.60073716245164
 20
2.014234283957355
 30
0.0
 10
46.4507627372673
 20
2.228491552644698
 30
0.0
  0
LINE
  5
CD
330
1F
100
AcDbEntity
  8
0
  6
Continuous
 62
     1
370
    15
100
AcDbLine
 10
46.52097606179197
 20
2.287407527356676
 30
0.0
 11
50.41231532850779
 21
0.0010749287238996
 31
0.0
  0
LINE
  5
CE
330
1F
100
AcDbEntity
  8
0
  6
Continuous
 62
     1
370
    15
100
AcDbLine
 10
50.41231532850779
 20
0.0010749287238996
 30
0.0
 11
50.41231532850779
 21
-1.483793690153315
 31
0.0
  0
SPLINE
  5
CF
330
1F
100
AcDbEntity
  8
0
  6
Continuous
 62
     1
370
    15
100
AcDbSpline
210
0.0
220
0.0
230
1.0
 70
     8
 71
     3
 72
    12
 73
     8
 74
     0
 42
0.000000001
 43
0.00000001
 40
0.0
 40
0.0
 40
0.0
 40
0.0
 40
0.5000000000000018
 40
0.5000000000000018
 40
0.7500000000000009
 40
0.7500000000000009
 40
1.0
 40
1.0
 40
1.0
 40
1.0
 10
50.41231532850781
 20
-1.483793690153319
 30
0.0
 10
49.81719692972187
 20
-1.015930201313996
 30
0.0
 10
49.23201870901173
 20
-0.5288830196454787
 30
0.0
 10
48.36954490253119
 20
0.2312029462139533
 30
0.0
 10
48.08464692396936
 20
0.4895697630653341
 30
0.0
 10
47.5206695722053
 20
1.017532807052536
 30
0.0
 10
47.24312918628721
 20
1.285758977138611
 30
0.0
 10
46.97437239453225
 20
1.555258938326886
 30
0.0
  0
SPLINE
  5
D0
330
1F
100
AcDbEntity
  8
0
  6
Continuous
 62
     1
370
    15
100
AcDbSpline
210
0.0
220
0.0
230
1.0
 70
     8
 71
     3
 72
    13
 73
     9
 74
     0
 42
0.000000001
 43
0.00000001
 40
0.0
 40
0.0
 40
0.0
 40
0.0
 40
0.1675369655030038
 40
0.3350738787494781
 40
0.5026107443272853
 40
0.6701475668249273
 40
0.8376843508314857
 40
0.9999999999999999
 40
0.9999999999999999
 40
0.9999999999999999
 40
0.9999999999999999
 10
46.97437239453225
 20
1.555258938326885
 30
0.0
 10
46.25986548742822
 20
1.857012148195064
 30
0.0
 10
44.83085189608236
 20
2.460518473811444
 30
0.0
 10
42.68733193846744
 20
3.223387874071117
 30
0.0
 10
40.54381266448076
 20
3.83377379980992
 30
0.0
 10
38.40029401773332
 20
4.24879254808188
 30
0.0
 10
36.27904272449761
 20
4.46893721576181
 30
0.0
 10
34.87229766666778
 20
4.431411102933964
 30
0.0
 10
34.18005860971026
 20
4.41294504129
 30
0.0
  0
SPLINE
  5
D1
330
1F
100
AcDbEntity
  8
0
  6
Continuous
 62
     1
370
    15
100
AcDbSpline
210
0.0
220
0.0
230
1.0
 70
     8
 71
     3
 72
     9
 73
     5
 74
     0
 42
0.000000001
 43
0.00000001
 40
0.0
 40
0.0
 40
0.0
 40
0.0
 40
0.1910513938467888
 40
1.0
 40
1.0
 40
1.0
 40
1.0
 10
8.415553543344805
 20
-4.160810971945178
 30
0.0
 10
8.259320556204878
 20
-4.19041660435099
 30
0.0
 10
7.441566840860547
 20
-4.345378218656477
 30
0.0
 10
6.62382580204882
 20
-4.389093961264114
 30
0.0
 10
5.96231532850779
 20
-4.424457750313512
 30
0.0
  0
SPLINE
  5
D2
330
1F
100
AcDbEntity
  8
0
  6
Continuous
 62
     1
370
    15
100
AcDbSpline
210
0.0
220
0.0
230
1.0
 70
    24
 71
     3
 72
    10
 73
     6
 74
     0
 42
0.000000001
 43
0.00000001
 40
0.0
 40
0.0
 40
0.0
 40
0.0
 40
0.5
 40
0.5
 40
1.0
 40
1.0
 40
1.0
 40
1.0
 10
50.41231532850779
 20
-4.382652215172006
 30
0.0
 10
50.41231532850779
 20
-4.046605351428497
 30
0.0
 10
50.41231532850779
 20
-3.621997253731422
 30
0.0
 10
50.41231532850781
 20
-2.634824290557071
 30
0.0
 10
50.41231532850781
 20
-2.073114551729947
 30
0.0
 10
50.41231532850779
 20
-1.483793690153498
 30
0.0
  0
SPLINE
  5
D3
330
1F
100
AcDbEntity
  8
0
  6
Continuous
 62
     1
370
    15
100
AcDbSpline
210
0.0
220
0.0
230
1.0
 70
     8
 71
     3
 72
    24
 73
    20
 74
     0
 42
0.000000001
 43
0.00000001
 40
0.0
 40
0.0
 40
0.0
 40
0.0
 40
0.0075257677781078
 40
0.0731066984972779
 40
0.1386876159459844
 40
0.2005130697901111
 40
0.262338830569424
 40
0.3241660655480418
 40
0.3859959405087222
 40
0.4478296185831729
 40
0.5096682590880062
 40
0.5715130163688069
 40
0.6333650386547454
 40
0.6952235147043906
 40
0.7570760820354886
 40
0.8178187974817253
 40
0.8785521431700757
 40
0.9392784349771683
 40
0.9999999999999999
 40
0.9999999999999999
 40
0.9999999999999999
 40
0.9999999999999999
 10
38.64627420515965
 20
-4.166869589608595
 30
0.0
 10
38.56428073565746
 20
-4.183125660369316
 30
0.0
 10
37.76778102554411
 20
-4.341040134864734
 30
0.0
 10
36.25678722911927
 20
-4.445673921887547
 30
0.0
 10
34.15413493622952
 20
-4.450497828385815
 30
0.0
 10
32.0926212809652
 20
-4.230163776820013
 30
0.0
 10
30.07194293953381
 20
-3.8333043877948
 30
0.0
 10
28.05122512829664
 20
-3.26662542984529
 30
0.0
 10
26.03040556884183
 20
-2.556718248352105
 30
0.0
 10
24.00944629944525
 20
-1.734306513828988
 30
0.0
 10
21.98830321313311
 20
-0.8356382649800583
 30
0.0
 10
19.96693333964532
 20
0.0998452869791909
 30
0.0
 10
17.94531771562575
 20
1.03100361455371
 30
0.0
 10
15.9235737227238
 20
1.916913576570398
 30
0.0
 10
13.91395078643328
 20
2.713655171407994
 30
0.0
 10
11.91664103765509
 20
3.389589170987361
 30
0.0
 10
9.931641584021312
 20
3.914194838374299
 30
0.0
 10
7.946902666438229
 20
4.286359925383177
 30
0.0
 10
6.623827276330926
 20
4.379859593312926
 30
0.0
 10
5.96231532850779
 20
4.426607607761301
 30
0.0
  0
SPLINE
  5
D4
330
1F
100
AcDbEntity
  8
외형선
  6
Continuous
370
    15
100
AcDbSpline
210
0.0
220
0.0
230
1.0
 70
    24
 71
     3
 72
    14
 73
    10
 74
     0
 42
0.000000001
 43
0.00000001
 40
0.0
 40
0.0
 40
0.0
 40
0.0
 40
0.2500000000000001
 40
0.2500000000000001
 40
0.5000000000000001
 40
0.5000000000000001
 40
0.7500000000000002
 40
0.7500000000000002
 40
1.0
 40
1.0
 40
1.0
 40
1.0
 10
5.96231532850779
 20
4.4266076077613
 30
0.0
 10
5.96231532850779
 20
4.337507345973502
 30
0.0
 10
5.96231532850779
 20
4.201720585716907
 30
0.0
 10
5.96231532850779
 20
3.836458435241318
 30
0.0
 10
5.96231532850779
 20
3.606980485835166
 30
0.0
 10
5.96231532850779
 20
3.067657973659776
 30
0.0
 10
5.96231532850779
 20
2.757969150860328
 30
0.0
 10
5.96231532850779
 20
2.083157869089118
 30
0.0
 10
5.96231532850779
 20
1.718276602849946
 30
0.0
 10
5.96231532850779
 20
1.340793260359
 30
0.0
  0
SPLINE
  5
D5
330
1F
100
AcDbEntity
  8
0
  6
Continuous
 62
     1
370
    15
100
AcDbSpline
210
0.0
220
0.0
230
1.0
 70
    24
 71
     3
 72
     8
 73
     4
 74
     0
 42
0.000000001
 43
0.00000001
 40
0.0
 40
0.0
 40
0.0
 40
0.0
 40
1.0
 40
1.0
 40
1.0
 40
1.0
 10
47.03033939079957
 20
2.714814108861813
 30
0.0
 10
46.84694344091502
 20
2.560926634954283
 30
0.0
 10
46.653126956817
 20
2.398295294631926
 30
0.0
 10
46.45076273726752
 20
2.228491552644472
 30
0.0
  0
SPLINE
  5
D6
330
1F
100
AcDbEntity
  8
0
  6
Continuous
 62
     1
370
    15
100
AcDbSpline
210
0.0
220
0.0
230
1.0
 70
     8
 71
     3
 72
    10
 73
     6
 74
     0
 42
0.000000001
 43
0.00000001
 40
0.0
 40
0.0
 40
0.0
 40
0.0
 40
0.5
 40
0.5
 40
1.0
 40
1.0
 40
1.0
 40
1.0
 10
50.41231532850779
 20
3.890449928723899
 30
0.0
 10
49.84076631367498
 20
3.735410161774372
 30
0.0
 10
49.27270388442567
 20
3.56141164600286
 30
0.0
 10
48.14420568064669
 20
3.171943717584699
 30
0.0
 10
47.58371146198816
 20
2.95704535544465
 30
0.0
 10
47.03033939079928
 20
2.714814108861981
 30
0.0
  0
SPLINE
  5
D7
330
1F
100
AcDbEntity
  8
외형선
  6
Continuous
370
    15
100
AcDbSpline
210
0.0
220
0.0
230
1.0
 70
    24
 71
     3
 72
    14
 73
    10
 74
     0
 42
0.000000001
 43
0.00000001
 40
0.0
 40
0.0
 40
0.0
 40
0.0
 40
0.2499999999999998
 40
0.2499999999999998
 40
0.4999999999999999
 40
0.4999999999999999
 40
0.75
 40
0.75
 40
1.0
 40
1.0
 40
1.0
 40
1.0
 10
5.96231532850779
 20
-0.3625352211926468
 30
0.0
 10
5.96231532850779
 20
-0.8315469947503358
 30
0.0
 10
5.96231532850779
 20
-1.297320650445978
 30
0.0
 10
5.96231532850779
 20
-2.174253619693413
 30
0.0
 10
5.96231532850779
 20
-2.584880421595995
 30
0.0
 10
5.96231532850779
 20
-3.30680116475637
 30
0.0
 10
5.96231532850779
 20
-3.617710436459984
 30
0.0
 10
5.96231532850779
 20
-4.11468739627098
 30
0.0
 10
5.96231532850779
 20
-4.30075624144588
 30
0.0
 10
5.96231532850779
 20
-4.42445775031351
 30
0.0
  0
LINE
  5
D8
330
1F
100
AcDbEntity
  8
0
  6
Continuous
 62
     1
370
    15
100
AcDbLine
 10
50.41231532850779
 20
0.0010749287238996
 30
0.0
 11
50.41231532850779
 21
3.890449928723898
 31
0.0
  0
LINE
  5
D9
330
1F
100
AcDbEntity
  8
중심선
 48
0.8
100
AcDbLine
 10
-47.83768467149221
 20
0.0010749287238888
 30
0.0
 11
53.41231532850779
 21
0.0010749287239012
 31
0.0
  0
LINE
  5
DA
330
1F
100
AcDbEntity
  8
참조1
100
AcDbLine
 10
11.67426131403116
 20
0.0010749287238892
 30
0.0
 11
11.67426131403116
 21
-39.99892507127611
 31
0.0
  0
LINE
  5
DB
330
1F
100
AcDbEntity
  8
참조1
100
AcDbLine
 10
11.67426131403116
 20
-39.99892507127611
 30
0.0
 11
-20.15080122126847
 21
-39.9989250712761
 31
0.0
  0
CIRCLE
  5
DC
330
1F
100
AcDbEntity
  8
해칭선
100
AcDbCircle
 10
0.0
 20
0.0
 30
0.0
 40
2.999999999999995
  0
INSERT
  5
DD
330
1F
100
AcDbEntity
  8
0
  6
Continuous
 62
     7
100
AcDbBlockReference
 66
     1
  2
블럭10
 10
-11.15295760361742
 20
-52.04609937292004
 30
0.0
  0
ATTRIB
  5
DE
330
DD
100
AcDbEntity
  8
FORMAT
 62
     2
100
AcDbText
 10
-20.33425289235871
 20
-49.97073246008785
 30
0.0
 40
4.233333333333333
  1
E1071028 [ 2 FLUTE ]
 41
0.75
  7
SLDTEXTSTYLE0
 11
-20.33425289235871
 21
-52.08739912675452
 31
0.0
100
AcDbAttribute
  2
AUTOATTR0
 70
     0
 74
     1
  0
SEQEND
  5
DF
330
DD
100
AcDbEntity
  8
0
  6
Continuous
 62
     7
  0
HATCH
  5
E0
330
1F
100
AcDbEntity
  8
중심선
100
AcDbHatch
 10
0.0
 20
0.0
 30
0.0
210
0.0
220
0.0
230
1.0
  2
SOLID
 70
     1
 71
     0
 91
        1
 92
        0
 93
        4
 72
     1
 10
-5.43804829923659
 20
-35.7989250712761
 11
-8.884323543073872
 21
-35.7989250712761
 72
     1
 10
-8.884323543073872
 20
-35.7989250712761
 11
-11.0125534022779
 21
-38.3352506518487
 72
     1
 10
-11.0125534022779
 20
-38.3352506518487
 11
-7.566245073327464
 21
-38.33521122254621
 72
     1
 10
-7.566245073327464
 20
-38.33521122254621
 11
-5.43804829923659
 21
-35.7989250712761
 97
        0
 75
     0
 76
     1
 98
        1
 10
-8.886945985523374
 20
0.0
  0
HATCH
  5
E1
330
1F
100
AcDbEntity
  8
중심선
100
AcDbHatch
 10
0.0
 20
0.0
 30
0.0
210
0.0
220
0.0
230
1.0
  2
SOLID
 70
     1
 71
     0
 91
        1
 92
        0
 93
        4
 72
     1
 10
-0.4252843082006112
 20
-35.79892507127608
 11
-3.871559552037866
 21
-35.79892507127608
 72
     1
 10
-3.871559552037866
 20
-35.79892507127608
 11
-8.40269756039531
 21
-41.19892507127612
 72
     1
 10
-8.40269756039531
 20
-41.19892507127612
 11
-4.956422316558028
 21
-41.19892507127612
 72
     1
 10
-4.956422316558028
 20
-41.19892507127612
 11
-0.4252843082006112
 21
-35.79892507127608
 97
        0
 75
     0
 76
     1
 98
        1
 10
-8.886945985523374
 20
0.0
  0
HATCH
  5
E2
330
1F
100
AcDbEntity
  8
중심선
100
AcDbHatch
 10
0.0
 20
0.0
 30
0.0
210
0.0
220
0.0
230
1.0
  2
SOLID
 70
     1
 71
     0
 91
        1
 92
        0
 93
        4
 72
     1
 10
4.587479682835257
 20
-35.7989250712761
 11
1.141204438998196
 21
-35.79892507127608
 72
     1
 10
1.141204438998196
 20
-35.79892507127608
 11
-5.907232462891108
 21
-44.19892507127612
 72
     1
 10
-5.907232462891108
 20
-44.19892507127612
 11
-2.460957219053826
 21
-44.19892507127612
 72
     1
 10
-2.460957219053826
 20
-44.19892507127612
 11
4.587479682835257
 21
-35.7989250712761
 97
        0
 75
     0
 76
     1
 98
        1
 10
-8.886945985523374
 20
0.0
  0
HATCH
  5
E3
330
1F
100
AcDbEntity
  8
중심선
100
AcDbHatch
 10
0.0
 20
0.0
 30
0.0
210
0.0
220
0.0
230
1.0
  2
SOLID
 70
     1
 71
     0
 91
        1
 92
        0
 93
        6
 72
     3
 10
9.387370113847455
 20
-39.99892507132738
 11
3.960054785062283
 21
1.540882976769353E-10
 40
0.3939339440162628
 50
17.09539180608436
 51
320.0019657685075
 73
     0
 72
     1
 10
11.07036976954805
 20
-38.58681907591438
 11
13.37567164324912
 21
-36.65249236586646
 72
     3
 10
9.387370113794608
 20
-39.99892507127625
 11
6.600054785286829
 21
-1.278976924368180E-13
 40
0.636358354079598
 50
39.99873849337411
 51
368.4976242363724
 73
     1
 72
     1
 10
15.81270260569522
 20
-39.03892507120613
 11
8.067437420630531
 21
-39.03892507120613
 72
     1
 10
8.067437420630531
 20
-39.03892507120613
 11
8.067412376184597
 21
-40.95892507120602
 72
     1
 10
8.067412376184597
 20
-40.95892507120602
 11
12.50879214565664
 21
-40.95892507120599
 97
        0
 75
     0
 76
     1
 98
        1
 10
-8.886945985523374
 20
0.0
  0
DIMENSION
  5
E4
330
1F
100
AcDbEntity
  8
치수문자_일반주서
100
AcDbDimension
  2
_D
 10
-57.33768467149221
 20
-6.348925071276151
 30
0.0
 11
-57.33768467149223
 21
0.0010749287238914
 31
0.0
 70
   160
  1
%%c<>
 71
     2
 42
12.69999999999999
 52
-270.0
  3
SLDDIMSTYLE0
100
AcDbAlignedDimension
 13
-43.83768467149222
 23
6.351074928723889
 33
0.0
 14
-43.83768467149222
 24
-6.348925071276101
 34
0.0
 50
90.0000000000002
100
AcDbRotatedDimension
1001
ACAD
1000
DSTYLE
1002
{
1070
   171
1070
     6
1070
   273
1070
     7
1002
}
  0
DIMENSION
  5
F9
330
1F
100
AcDbEntity
  8
치수문자_일반주서
100
AcDbDimension
  2
_D_1
 10
5.962315328507792
 20
18.72897060166654
 30
0.0
 11
28.18731532850779
 21
18.72897060166654
 31
0.0
 70
   160
  1
<>
 71
     2
 42
44.45
  3
SLDDIMSTYLE0
100
AcDbAlignedDimension
 13
50.41231532850779
 23
5.557324928723902
 33
0.0
 14
5.96231532850779
 24
4.426607607761301
 34
0.0
 50
0.0000000000000046
100
AcDbRotatedDimension
1001
ACAD
1000
DSTYLE
1002
{
1070
   171
1070
     6
1070
   273
1070
     7
1002
}
  0
DIMENSION
  5
10E
330
1F
100
AcDbEntity
  8
치수문자_일반주서
100
AcDbDimension
  2
_D_2
 10
-44.83768467149221
 20
35.79915719877775
 30
0.0
 11
2.787315328507649
 21
35.79915719877775
 31
0.0
 70
   160
  1
<>
 71
     2
 42
95.25
  3
SLDDIMSTYLE0
100
AcDbAlignedDimension
 13
50.41231532850779
 23
5.557324928723902
 33
0.0
 14
-44.83768467149221
 24
5.351074928723887
 34
0.0
100
AcDbRotatedDimension
1001
ACAD
1000
DSTYLE
1002
{
1070
   171
1070
     6
1070
   273
1070
     7
1002
}
  0
DIMENSION
  5
121
330
1F
100
AcDbEntity
  8
치수문자_일반주서
100
AcDbDimension
  2
_D_3
 10
66.75916789463047
 20
5.557324928723961
 30
0.0
 11
66.75916789463038
 21
25.93787887084366
 31
0.0
 70
   160
  1
%%c<>
 71
     2
 42
11.1125
 52
-270.0
  3
SLDDIMSTYLE0
100
AcDbAlignedDimension
 13
50.41231532850779
 23
-5.555175071276099
 33
0.0
 14
50.41231532850779
 24
5.557324928723902
 34
0.0
 50
90.0000000000002
100
AcDbRotatedDimension
1001
ACAD
1000
DSTYLE
1002
{
1070
   171
1070
     6
1070
   273
1070
     7
1002
}
  0
LINE
  5
135
330
1F
100
AcDbEntity
  8
참조1
100
AcDbLine
 10
77.82153940838579
 20
7.441074928723896
 30
0.0
 11
77.82153940838579
 21
-7.438925071276109
 31
0.0
  0
LINE
  5
136
330
1F
100
AcDbEntity
  8
참조1
100
AcDbLine
 10
90.52153940838579
 20
5.441074928723896
 30
0.0
 11
77.82153940838579
 21
5.441074928723896
 31
0.0
  0
SOLID
  5
137
330
1F
100
AcDbEntity
  8
참조1
100
AcDbTrace
 10
77.82153940838579
 20
5.441074928723896
 30
0.0
 11
84.17153940838578
 21
4.425074928723896
 31
0.0
 12
84.17153940838578
 22
6.457074928723896
 32
0.0
 13
84.17153940838578
 23
6.457074928723896
 33
0.0
  0
LINE
  5
138
330
1F
100
AcDbEntity
  8
참조1
100
AcDbLine
 10
90.52153940838579
 20
-5.438925071276109
 30
0.0
 11
77.82153940838579
 21
-5.438925071276109
 31
0.0
  0
SOLID
  5
139
330
1F
100
AcDbEntity
  8
참조1
100
AcDbTrace
 10
77.82153940838579
 20
-5.438925071276109
 30
0.0
 11
84.17153940838578
 21
-6.454925071276109
 31
0.0
 12
84.17153940838578
 22
-4.422925071276109
 32
0.0
 13
84.17153940838578
 23
-4.422925071276109
 33
0.0
  0
MTEXT
  5
13A
330
1F
100
AcDbEntity
  8
참조1
100
AcDbMText
 10
87.20588954101179
 20
11.01136670591222
 30
0.0
 40
3.5
 41
0.0
 71
     1
 72
     1
  1
A
  7
SLDTEXTSTYLE0
 73
     1
 44
1.0
  0
MTEXT
  5
13B
330
1F
100
AcDbEntity
  8
참조1
100
AcDbMText
 10
87.20588954101179
 20
0.1313667059122192
 30
0.0
 40
3.5
 41
0.0
 71
     1
 72
     1
  1
A
  7
SLDTEXTSTYLE0
 73
     1
 44
1.0
  0
INSERT
  5
142
330
1F
100
AcDbEntity
  8
해칭선
100
AcDbBlockReference
  2
SW_DOWELSYMBOL_0
 10
0.0
 20
0.0
 30
0.0
  0
LINE
  5
230
330
1F
100
AcDbEntity
  8
외형선
  6
Continuous
370
    15
100
AcDbLine
 10
-27.80380967149219
 20
4.827074928723881
 30
0.0
 11
-16.62780967149232
 21
4.827074928723881
 31
0.0
  0
LINE
  5
231
330
1F
100
AcDbEntity
  8
외형선
  6
Continuous
370
    15
100
AcDbLine
 10
-27.80380967149219
 20
4.827074928723881
 30
0.0
 11
-29.32780967149219
 21
6.351074928723882
 31
0.0
  0
LINE
  5
232
330
1F
100
AcDbEntity
  8
외형선
  6
Continuous
370
    15
100
AcDbLine
 10
-16.6278096714922
 20
4.827074928723881
 30
0.0
 11
-15.1038096714922
 21
6.351074928723882
 31
0.0
  0
LINE
  5
233
330
1F
100
AcDbEntity
  8
외형선
  6
Continuous
370
    15
100
AcDbLine
 10
-29.3278096714922
 20
6.351074928723889
 30
0.0
 11
-43.83768467149221
 21
6.351074928723889
 31
0.0
  0
ENDSEC
  0
SECTION
  2
OBJECTS
  0
DICTIONARY
  5
C
330
0
100
AcDbDictionary
281
     1
  3
ACAD_GROUP
350
D
  3
ACAD_IMAGE_VARS
350
166
  3
ACAD_LAYOUT
350
1A
  3
ACAD_MLINESTYLE
350
17
  3
ACAD_PLOTSETTINGS
350
19
  3
ACAD_PLOTSTYLENAME
350
E
  3
ACAD_SCALELIST
350
47
  3
APPDATA
350
164
  3
DWGPROPS
350
234
  0
DICTIONARY
  5
18D
330
2
100
AcDbDictionary
280
     1
281
     1
  3
ACAD_LAYERSTATES
360
18E
  0
DICTIONARY
  5
D
102
{ACAD_REACTORS
330
C
102
}
330
C
100
AcDbDictionary
281
     1
  0
RASTERVARIABLES
  5
166
102
{ACAD_REACTORS
330
C
102
}
330
C
100
AcDbRasterVariables
 90
        0
 70
     1
 71
     1
 72
     1
  0
DICTIONARY
  5
1A
102
{ACAD_REACTORS
330
C
102
}
330
C
100
AcDbDictionary
281
     1
  3
Layout1
350
1E
  3
Layout2
350
26
  3
Model
350
22
  0
DICTIONARY
  5
17
102
{ACAD_REACTORS
330
C
102
}
330
C
100
AcDbDictionary
281
     1
  3
Standard
350
18
  0
DICTIONARY
  5
19
102
{ACAD_REACTORS
330
C
102
}
330
C
100
AcDbDictionary
281
     1
  0
ACDBDICTIONARYWDFLT
  5
E
102
{ACAD_REACTORS
330
C
102
}
330
C
100
AcDbDictionary
281
     1
  3
Normal
350
F
100
AcDbDictionaryWithDefault
340
F
  0
DICTIONARY
  5
47
102
{ACAD_REACTORS
330
C
102
}
330
C
100
AcDbDictionary
281
     1
  3
A0
350
48
  3
A1
350
49
  3
A2
350
4A
  3
A3
350
4B
  3
A4
350
4C
  3
A5
350
4D
  3
A6
350
4E
  3
A7
350
4F
  3
A8
350
50
  3
A9
350
51
  3
B0
350
52
  3
B1
350
53
  3
B2
350
54
  3
B3
350
55
  3
B4
350
56
  3
B5
350
57
  3
B6
350
58
  3
B7
350
59
  3
B8
350
5A
  3
B9
350
5B
  3
C0
350
5C
  3
C1
350
5D
  3
C2
350
5E
  3
C3
350
5F
  3
C4
350
60
  3
C5
350
61
  3
C6
350
62
  3
C7
350
63
  3
C8
350
64
  3
C9
350
65
  3
D0
350
66
  3
D1
350
67
  3
D2
350
68
  0
DICTIONARY
  5
164
102
{ACAD_REACTORS
330
C
102
}
330
C
100
AcDbDictionary
281
     1
  0
XRECORD
  5
234
102
{ACAD_REACTORS
330
C
102
}
330
C
100
AcDbXrecord
280
     1
  1
DWGPROPS COOKIE
  2

  3

  4

  6

  7

  8
12016016
  9

300
=
301
=
302
=
303
=
304
=
305
=
306
=
307
=
308
=
309
=
 40
0.0
 41
2458311.090803275
 42
2458318.301175613
  1

 90
        0
  0
DICTIONARY
  5
18E
102
{ACAD_REACTORS
330
18D
102
}
330
18D
100
AcDbDictionary
281
     1
  0
LAYOUT
  5
1E
102
{ACAD_REACTORS
330
1A
102
}
330
1A
100
AcDbPlotSettings
  1

  2
none_device
  4

  6

 40
0.0
 41
0.0
 42
0.0
 43
0.0
 44
0.0
 45
0.0
 46
0.0
 47
0.0
 48
0.0
 49
0.0
140
0.0
141
0.0
142
1.0
143
1.0
 70
   688
 72
     1
 73
     0
 74
     5
  7

 75
    16
147
1.0
148
0.0
149
0.0
100
AcDbLayout
  1
Layout1
 70
     1
 71
     1
 10
0.0
 20
0.0
 11
420.0
 21
297.0
 12
0.0
 22
0.0
 32
0.0
 14
1.000000000000000E+20
 24
1.000000000000000E+20
 34
1.000000000000000E+20
 15
-1.000000000000000E+20
 25
-1.000000000000000E+20
 35
-1.000000000000000E+20
146
0.0
 13
0.0
 23
0.0
 33
0.0
 16
1.0
 26
0.0
 36
0.0
 17
0.0
 27
1.0
 37
0.0
 76
     0
330
1B
  0
LAYOUT
  5
26
102
{ACAD_REACTORS
330
1A
102
}
330
1A
100
AcDbPlotSettings
  1

  2
none_device
  4

  6

 40
0.0
 41
0.0
 42
0.0
 43
0.0
 44
0.0
 45
0.0
 46
0.0
 47
0.0
 48
0.0
 49
0.0
140
0.0
141
0.0
142
1.0
143
1.0
 70
   688
 72
     1
 73
     0
 74
     5
  7

 75
    16
147
1.0
148
0.0
149
0.0
100
AcDbLayout
  1
Layout2
 70
     1
 71
     2
 10
0.0
 20
0.0
 11
0.0
 21
0.0
 12
0.0
 22
0.0
 32
0.0
 14
0.0
 24
0.0
 34
0.0
 15
0.0
 25
0.0
 35
0.0
146
0.0
 13
0.0
 23
0.0
 33
0.0
 16
1.0
 26
0.0
 36
0.0
 17
0.0
 27
1.0
 37
0.0
 76
     0
330
23
  0
LAYOUT
  5
22
102
{ACAD_REACTORS
330
1A
102
}
330
1A
100
AcDbPlotSettings
  1

  2
none_device
  4
ANSI_A_(11.00_x_8.50_Inches)
  6

 40
6.35
 41
19.05
 42
6.35000508
 43
19.05000254
 44
279.4
 45
215.9
 46
89.66924747840686
 47
81.3828324407947
 48
0.0
 49
0.0
140
0.0
141
0.0
142
0.0628807862942328
143
1.0
 70
  1696
 72
     0
 73
     0
 74
     0
  7

 75
     0
147
0.0235690232323232
148
0.0
149
0.0
100
AcDbLayout
  1
Model
 70
     1
 71
     0
 10
0.0
 20
0.0
 11
420.0
 21
297.0
 12
0.0
 22
0.0
 32
0.0
 14
1.000000000000000E+20
 24
1.000000000000000E+20
 34
1.000000000000000E+20
 15
-1.000000000000000E+20
 25
-1.000000000000000E+20
 35
-1.000000000000000E+20
146
0.0
 13
0.0
 23
0.0
 33
0.0
 16
1.0
 26
0.0
 36
0.0
 17
0.0
 27
1.0
 37
0.0
 76
     0
330
1F
331
29
  0
MLINESTYLE
  5
18
102
{ACAD_REACTORS
330
17
102
}
330
17
100
AcDbMlineStyle
  2
Standard
 70
     0
  3

 62
   256
 51
90.0
 52
90.0
 71
     2
 49
0.5
 62
   256
  6
BYLAYER
 49
-0.5
 62
   256
  6
BYLAYER
  0
ACDBPLACEHOLDER
  5
F
102
{ACAD_REACTORS
330
E
102
}
330
E
  0
SCALE
  5
48
102
{ACAD_REACTORS
330
47
102
}
330
47
100
AcDbScale
 70
     0
300
1:1
140
1.0
141
1.0
290
     1
  0
SCALE
  5
49
102
{ACAD_REACTORS
330
47
102
}
330
47
100
AcDbScale
 70
     0
300
1:2
140
1.0
141
2.0
290
     0
  0
SCALE
  5
4A
102
{ACAD_REACTORS
330
47
102
}
330
47
100
AcDbScale
 70
     0
300
1:4
140
1.0
141
4.0
290
     0
  0
SCALE
  5
4B
102
{ACAD_REACTORS
330
47
102
}
330
47
100
AcDbScale
 70
     0
300
1:5
140
1.0
141
5.0
290
     0
  0
SCALE
  5
4C
102
{ACAD_REACTORS
330
47
102
}
330
47
100
AcDbScale
 70
     0
300
1:8
140
1.0
141
8.0
290
     0
  0
SCALE
  5
4D
102
{ACAD_REACTORS
330
47
102
}
330
47
100
AcDbScale
 70
     0
300
1:10
140
1.0
141
10.0
290
     0
  0
SCALE
  5
4E
102
{ACAD_REACTORS
330
47
102
}
330
47
100
AcDbScale
 70
     0
300
1:16
140
1.0
141
16.0
290
     0
  0
SCALE
  5
4F
102
{ACAD_REACTORS
330
47
102
}
330
47
100
AcDbScale
 70
     0
300
1:20
140
1.0
141
20.0
290
     0
  0
SCALE
  5
50
102
{ACAD_REACTORS
330
47
102
}
330
47
100
AcDbScale
 70
     0
300
1:30
140
1.0
141
30.0
290
     0
  0
SCALE
  5
51
102
{ACAD_REACTORS
330
47
102
}
330
47
100
AcDbScale
 70
     0
300
1:40
140
1.0
141
40.0
290
     0
  0
SCALE
  5
52
102
{ACAD_REACTORS
330
47
102
}
330
47
100
AcDbScale
 70
     0
300
1:50
140
1.0
141
50.0
290
     0
  0
SCALE
  5
53
102
{ACAD_REACTORS
330
47
102
}
330
47
100
AcDbScale
 70
     0
300
1:100
140
1.0
141
100.0
290
     0
  0
SCALE
  5
54
102
{ACAD_REACTORS
330
47
102
}
330
47
100
AcDbScale
 70
     0
300
2:1
140
2.0
141
1.0
290
     0
  0
SCALE
  5
55
102
{ACAD_REACTORS
330
47
102
}
330
47
100
AcDbScale
 70
     0
300
4:1
140
4.0
141
1.0
290
     0
  0
SCALE
  5
56
102
{ACAD_REACTORS
330
47
102
}
330
47
100
AcDbScale
 70
     0
300
8:1
140
8.0
141
1.0
290
     0
  0
SCALE
  5
57
102
{ACAD_REACTORS
330
47
102
}
330
47
100
AcDbScale
 70
     0
300
10:1
140
10.0
141
1.0
290
     0
  0
SCALE
  5
58
102
{ACAD_REACTORS
330
47
102
}
330
47
100
AcDbScale
 70
     0
300
100:1
140
100.0
141
1.0
290
     0
  0
SCALE
  5
59
102
{ACAD_REACTORS
330
47
102
}
330
47
100
AcDbScale
 70
     0
300
1/128" = 1'-0"
140
0.0078125
141
12.0
290
     0
  0
SCALE
  5
5A
102
{ACAD_REACTORS
330
47
102
}
330
47
100
AcDbScale
 70
     0
300
1/64" = 1'-0"
140
0.015625
141
12.0
290
     0
  0
SCALE
  5
5B
102
{ACAD_REACTORS
330
47
102
}
330
47
100
AcDbScale
 70
     0
300
1/32" = 1'-0"
140
0.03125
141
12.0
290
     0
  0
SCALE
  5
5C
102
{ACAD_REACTORS
330
47
102
}
330
47
100
AcDbScale
 70
     0
300
1/16" = 1'-0"
140
0.0625
141
12.0
290
     0
  0
SCALE
  5
5D
102
{ACAD_REACTORS
330
47
102
}
330
47
100
AcDbScale
 70
     0
300
3/32" = 1'-0"
140
0.09375
141
12.0
290
     0
  0
SCALE
  5
5E
102
{ACAD_REACTORS
330
47
102
}
330
47
100
AcDbScale
 70
     0
300
1/8" = 1'-0"
140
0.125
141
12.0
290
     0
  0
SCALE
  5
5F
102
{ACAD_REACTORS
330
47
102
}
330
47
100
AcDbScale
 70
     0
300
3/16" = 1'-0"
140
0.1875
141
12.0
290
     0
  0
SCALE
  5
60
102
{ACAD_REACTORS
330
47
102
}
330
47
100
AcDbScale
 70
     0
300
1/4" = 1'-0"
140
0.25
141
12.0
290
     0
  0
SCALE
  5
61
102
{ACAD_REACTORS
330
47
102
}
330
47
100
AcDbScale
 70
     0
300
3/8" = 1'-0"
140
0.375
141
12.0
290
     0
  0
SCALE
  5
62
102
{ACAD_REACTORS
330
47
102
}
330
47
100
AcDbScale
 70
     0
300
1/2" = 1'-0"
140
0.5
141
12.0
290
     0
  0
SCALE
  5
63
102
{ACAD_REACTORS
330
47
102
}
330
47
100
AcDbScale
 70
     0
300
3/4" = 1'-0"
140
0.75
141
12.0
290
     0
  0
SCALE
  5
64
102
{ACAD_REACTORS
330
47
102
}
330
47
100
AcDbScale
 70
     0
300
1" = 1'-0"
140
1.0
141
12.0
290
     0
  0
SCALE
  5
65
102
{ACAD_REACTORS
330
47
102
}
330
47
100
AcDbScale
 70
     0
300
1-1/2" = 1'-0"
140
1.5
141
12.0
290
     0
  0
SCALE
  5
66
102
{ACAD_REACTORS
330
47
102
}
330
47
100
AcDbScale
 70
     0
300
3" = 1'-0"
140
3.0
141
12.0
290
     0
  0
SCALE
  5
67
102
{ACAD_REACTORS
330
47
102
}
330
47
100
AcDbScale
 70
     0
300
6" = 1'-0"
140
6.0
141
12.0
290
     0
  0
SCALE
  5
68
102
{ACAD_REACTORS
330
47
102
}
330
47
100
AcDbScale
 70
     0
300
1'-0" = 1'-0"
140
12.0
141
12.0
290
     0
  0
ENDSEC
  0
EOF
