  0
SECTION
  2
HEADER
  9
$ACADVER
  1
AC1015
  9
$ACADMAINTVER
 70
     6
  9
$DWGCODEPAGE
  3
ANSI_949
  9
$INSBASE
 10
0.0
 20
0.0
 30
0.0
  9
$EXTMIN
 10
1.000000000000000E+20
 20
1.000000000000000E+20
 30
1.000000000000000E+20
  9
$EXTMAX
 10
-1.000000000000000E+20
 20
-1.000000000000000E+20
 30
-1.000000000000000E+20
  9
$LIMMIN
 10
0.0
 20
0.0
  9
$LIMMAX
 10
420.0
 20
297.0
  9
$ORTHOMODE
 70
     0
  9
$REGENMODE
 70
     1
  9
$FILLMODE
 70
     1
  9
$QTEXTMODE
 70
     0
  9
$MIRRTEXT
 70
     1
  9
$LTSCALE
 40
1.0
  9
$ATTMODE
 70
     1
  9
$TEXTSIZE
 40
3.5
  9
$TRACEWID
 40
1.0
  9
$TEXTSTYLE
  7
Standard
  9
$CLAYER
  8
0
  9
$CELTYPE
  6
ByLayer
  9
$CECOLOR
 62
   256
  9
$CELTSCALE
 40
1.0
  9
$DISPSILH
 70
     0
  9
$DIMSCALE
 40
1.0
  9
$DIMASZ
 40
3.302
  9
$DIMEXO
 40
1.0
  9
$DIMDLI
 40
3.75
  9
$DIMRND
 40
0.0
  9
$DIMDLE
 40
0.0
  9
$DIMEXE
 40
1.0
  9
$DIMTP
 40
0.0
  9
$DIMTM
 40
0.0
  9
$DIMTXT
 40
3.5
  9
$DIMCEN
 40
2.5
  9
$DIMTSZ
 40
0.0
  9
$DIMTOL
 70
     0
  9
$DIMLIM
 70
     0
  9
$DIMTIH
 70
     1
  9
$DIMTOH
 70
     1
  9
$DIMSE1
 70
     0
  9
$DIMSE2
 70
     0
  9
$DIMTAD
 70
     1
  9
$DIMZIN
 70
     0
  9
$DIMBLK
  1

  9
$DIMASO
 70
     1
  9
$DIMSHO
 70
     1
  9
$DIMPOST
  1

  9
$DIMAPOST
  1

  9
$DIMALT
 70
     0
  9
$DIMALTD
 70
     3
  9
$DIMALTF
 40
0.0393700787401575
  9
$DIMLFAC
 40
1.0
  9
$DIMTOFL
 70
     1
  9
$DIMTVP
 40
0.0
  9
$DIMTIX
 70
     0
  9
$DIMSOXD
 70
     0
  9
$DIMSAH
 70
     0
  9
$DIMBLK1
  1

  9
$DIMBLK2
  1

  9
$DIMSTYLE
  2
ISO-25
  9
$DIMCLRD
 70
     0
  9
$DIMCLRE
 70
     0
  9
$DIMCLRT
 70
     0
  9
$DIMTFAC
 40
1.0
  9
$DIMGAP
 40
1.524
  9
$DIMJUST
 70
     0
  9
$DIMSD1
 70
     0
  9
$DIMSD2
 70
     0
  9
$DIMTOLJ
 70
     0
  9
$DIMTZIN
 70
     0
  9
$DIMALTZ
 70
     0
  9
$DIMALTTZ
 70
     0
  9
$DIMUPT
 70
     0
  9
$DIMDEC
 70
     2
  9
$DIMTDEC
 70
     2
  9
$DIMALTU
 70
     2
  9
$DIMALTTD
 70
     3
  9
$DIMTXSTY
  7
Standard
  9
$DIMAUNIT
 70
     0
  9
$DIMADEC
 70
     2
  9
$DIMALTRND
 40
0.0
  9
$DIMAZIN
 70
     0
  9
$DIMDSEP
 70
    44
  9
$DIMATFIT
 70
     3
  9
$DIMFRAC
 70
     0
  9
$DIMLDRBLK
  1

  9
$DIMLUNIT
 70
     2
  9
$DIMLWD
 70
    -2
  9
$DIMLWE
 70
    -2
  9
$DIMTMOVE
 70
     0
  9
$LUNITS
 70
     2
  9
$LUPREC
 70
     2
  9
$SKETCHINC
 40
1.0
  9
$FILLETRAD
 40
10.0
  9
$AUNITS
 70
     0
  9
$AUPREC
 70
     2
  9
$MENU
  1
.
  9
$ELEVATION
 40
0.0
  9
$PELEVATION
 40
0.0
  9
$THICKNESS
 40
0.0
  9
$LIMCHECK
 70
     0
  9
$CHAMFERA
 40
0.0
  9
$CHAMFERB
 40
0.0
  9
$CHAMFERC
 40
0.0
  9
$CHAMFERD
 40
0.0
  9
$SKPOLY
 70
     0
  9
$TDCREATE
 40
2458311.46622669
  9
$TDUCREATE
 40
2458311.09122669
  9
$TDUPDATE
 40
2458318.675795544
  9
$TDUUPDATE
 40
2458318.300795544
  9
$TDINDWG
 40
0.0001620833
  9
$TDUSRTIMER
 40
2458318.300694016
  9
$USRTIMER
 70
     1
  9
$ANGBASE
 50
0.0
  9
$ANGDIR
 70
     0
  9
$PDMODE
 70
     0
  9
$PDSIZE
 40
-1.0
  9
$PLINEWID
 40
0.0
  9
$SPLFRAME
 70
     0
  9
$SPLINETYPE
 70
     6
  9
$SPLINESEGS
 70
     8
  9
$HANDSEED
  5
1FB
  9
$SURFTAB1
 70
     6
  9
$SURFTAB2
 70
     6
  9
$SURFTYPE
 70
     6
  9
$SURFU
 70
     6
  9
$SURFV
 70
     6
  9
$UCSBASE
  2

  9
$UCSNAME
  2

  9
$UCSORG
 10
0.0
 20
0.0
 30
0.0
  9
$UCSXDIR
 10
1.0
 20
0.0
 30
0.0
  9
$UCSYDIR
 10
0.0
 20
1.0
 30
0.0
  9
$UCSORTHOREF
  2

  9
$UCSORTHOVIEW
 70
     0
  9
$UCSORGTOP
 10
0.0
 20
0.0
 30
0.0
  9
$UCSORGBOTTOM
 10
0.0
 20
0.0
 30
0.0
  9
$UCSORGLEFT
 10
0.0
 20
0.0
 30
0.0
  9
$UCSORGRIGHT
 10
0.0
 20
0.0
 30
0.0
  9
$UCSORGFRONT
 10
0.0
 20
0.0
 30
0.0
  9
$UCSORGBACK
 10
0.0
 20
0.0
 30
0.0
  9
$PUCSBASE
  2

  9
$PUCSNAME
  2

  9
$PUCSORG
 10
0.0
 20
0.0
 30
0.0
  9
$PUCSXDIR
 10
1.0
 20
0.0
 30
0.0
  9
$PUCSYDIR
 10
0.0
 20
1.0
 30
0.0
  9
$PUCSORTHOREF
  2

  9
$PUCSORTHOVIEW
 70
     0
  9
$PUCSORGTOP
 10
0.0
 20
0.0
 30
0.0
  9
$PUCSORGBOTTOM
 10
0.0
 20
0.0
 30
0.0
  9
$PUCSORGLEFT
 10
0.0
 20
0.0
 30
0.0
  9
$PUCSORGRIGHT
 10
0.0
 20
0.0
 30
0.0
  9
$PUCSORGFRONT
 10
0.0
 20
0.0
 30
0.0
  9
$PUCSORGBACK
 10
0.0
 20
0.0
 30
0.0
  9
$USERI1
 70
     0
  9
$USERI2
 70
     0
  9
$USERI3
 70
     0
  9
$USERI4
 70
     0
  9
$USERI5
 70
     0
  9
$USERR1
 40
0.0
  9
$USERR2
 40
0.0
  9
$USERR3
 40
0.0
  9
$USERR4
 40
0.0
  9
$USERR5
 40
0.0
  9
$WORLDVIEW
 70
     1
  9
$SHADEDGE
 70
     3
  9
$SHADEDIF
 70
    70
  9
$TILEMODE
 70
     1
  9
$MAXACTVP
 70
    64
  9
$PINSBASE
 10
0.0
 20
0.0
 30
0.0
  9
$PLIMCHECK
 70
     0
  9
$PEXTMIN
 10
1.000000000000000E+20
 20
1.000000000000000E+20
 30
1.000000000000000E+20
  9
$PEXTMAX
 10
-1.000000000000000E+20
 20
-1.000000000000000E+20
 30
-1.000000000000000E+20
  9
$PLIMMIN
 10
0.0
 20
0.0
  9
$PLIMMAX
 10
0.0
 20
0.0
  9
$UNITMODE
 70
     0
  9
$VISRETAIN
 70
     1
  9
$PLINEGEN
 70
     0
  9
$PSLTSCALE
 70
     1
  9
$TREEDEPTH
 70
  3020
  9
$CMLSTYLE
  2
Standard
  9
$CMLJUST
 70
     0
  9
$CMLSCALE
 40
20.0
  9
$PROXYGRAPHICS
 70
     1
  9
$MEASUREMENT
 70
     1
  9
$CELWEIGHT
370
    -1
  9
$ENDCAPS
280
     0
  9
$JOINSTYLE
280
     0
  9
$LWDISPLAY
290
     1
  9
$INSUNITS
 70
     4
  9
$HYPERLINKBASE
  1

  9
$STYLESHEET
  1

  9
$XEDIT
290
     1
  9
$CEPSNTYPE
380
     0
  9
$PSTYLEMODE
290
     1
  9
$FINGERPRINTGUID
  2
{153BB009-0235-4BD6-BE51-1FF80B3968C3}
  9
$VERSIONGUID
  2
{FAEB1C32-E019-11D5-929B-00C0DF256EC4}
  9
$EXTNAMES
290
     1
  9
$PSVPSCALE
 40
0.0
  9
$OLESTARTUP
290
     0
  0
ENDSEC
  0
SECTION
  2
CLASSES
  0
CLASS
  1
ACDBDICTIONARYWDFLT
  2
AcDbDictionaryWithDefault
  3
ObjectDBX Classes
 90
        0
280
     0
281
     0
  0
CLASS
  1
VISUALSTYLE
  2
AcDbVisualStyle
  3
ObjectDBX Classes
 90
     4095
280
     0
281
     0
  0
CLASS
  1
MATERIAL
  2
AcDbMaterial
  3
ObjectDBX Classes
 90
     1153
280
     0
281
     0
  0
CLASS
  1
SCALE
  2
AcDbScale
  3
ObjectDBX Classes
 90
     1153
280
     0
281
     0
  0
CLASS
  1
SUN
  2
AcDbSun
  3
SCENEOE
 90
     1153
280
     0
281
     0
  0
CLASS
  1
ACDBPLACEHOLDER
  2
AcDbPlaceHolder
  3
ObjectDBX Classes
 90
        0
280
     0
281
     0
  0
CLASS
  1
LAYOUT
  2
AcDbLayout
  3
ObjectDBX Classes
 90
        0
280
     0
281
     0
  0
CLASS
  1
TABLESTYLE
  2
AcDbTableStyle
  3
ObjectDBX Classes
 90
     4095
280
     0
281
     0
  0
CLASS
  1
MLEADERSTYLE
  2
AcDbMLeaderStyle
  3
ACDB_MLEADERSTYLE_CLASS
 90
     4095
280
     0
281
     0
  0
CLASS
  1
RASTERVARIABLES
  2
AcDbRasterVariables
  3
ISM
 90
        0
280
     0
281
     0
  0
ENDSEC
  0
SECTION
  2
TABLES
  0
TABLE
  2
VPORT
  5
8
330
0
100
AcDbSymbolTable
 70
     1
  0
VPORT
  5
29
330
8
100
AcDbSymbolTableRecord
100
AcDbViewportTableRecord
  2
*Active
 70
     0
 10
0.0
 20
0.0
 11
1.0
 21
1.0
 12
-32.06451747661831
 22
-29.31307669044936
 13
0.0
 23
0.0
 14
10.0
 24
10.0
 15
10.0
 25
10.0
 16
0.0
 26
0.0
 36
1.0
 17
0.0
 27
0.0
 37
0.0
 40
118.2248196367388
 41
1.740812379110251
 42
50.0
 43
0.0
 44
0.0
 50
0.0
 51
0.0
 71
    16
 72
  2000
 73
     1
 74
     3
 75
     0
 76
     0
 77
     0
 78
     0
281
     0
 65
     1
110
0.0
120
0.0
130
0.0
111
1.0
121
0.0
131
0.0
112
0.0
122
1.0
132
0.0
 79
     0
146
0.0
  0
ENDTAB
  0
TABLE
  2
LTYPE
  5
5
330
0
100
AcDbSymbolTable
 70
     6
  0
LTYPE
  5
14
330
5
100
AcDbSymbolTableRecord
100
AcDbLinetypeTableRecord
  2
ByBlock
 70
     0
  3

 72
    65
 73
     0
 40
0.0
  0
LTYPE
  5
15
330
5
100
AcDbSymbolTableRecord
100
AcDbLinetypeTableRecord
  2
ByLayer
 70
     0
  3

 72
    65
 73
     0
 40
0.0
  0
LTYPE
  5
16
330
5
100
AcDbSymbolTableRecord
100
AcDbLinetypeTableRecord
  2
Continuous
 70
     0
  3
Solid line
 72
    65
 73
     0
 40
0.0
  0
LTYPE
  5
6A
330
5
100
AcDbSymbolTableRecord
100
AcDbLinetypeTableRecord
  2
HIDDEN
 70
     0
  3
Hidden __ __ __ __ __ __ __ __ __ __ __ __ __ __
 72
    65
 73
     2
 40
1.905
 49
1.27
 74
     0
 49
-0.635
 74
     0
  0
LTYPE
  5
6B
330
5
100
AcDbSymbolTableRecord
100
AcDbLinetypeTableRecord
  2
PHANTOM
 70
     0
  3
Phantom ______  __  __  ______  __  __  ______
 72
    65
 73
     6
 40
12.7
 49
6.35
 74
     0
 49
-1.27
 74
     0
 49
1.27
 74
     0
 49
-1.27
 74
     0
 49
1.27
 74
     0
 49
-1.27
 74
     0
  0
LTYPE
  5
6C
330
5
100
AcDbSymbolTableRecord
100
AcDbLinetypeTableRecord
  2
CENTER
 70
     0
  3
Center ____ _ ____ _ ____ _ ____ _ ____ _ ____
 72
    65
 73
     4
 40
10.16
 49
6.35
 74
     0
 49
-1.27
 74
     0
 49
1.27
 74
     0
 49
-1.27
 74
     0
  0
LTYPE
  5
6D
330
5
100
AcDbSymbolTableRecord
100
AcDbLinetypeTableRecord
  2
CENTERX2
 70
     0
  3
Center (2x) ________  __  ________  __  _____
 72
    65
 73
     4
 40
20.32
 49
12.7
 74
     0
 49
-2.54
 74
     0
 49
2.54
 74
     0
 49
-2.54
 74
     0
  0
LTYPE
  5
6E
330
5
100
AcDbSymbolTableRecord
100
AcDbLinetypeTableRecord
  2
DOT2
 70
     0
  3
Dot (.5x) ........................................
 72
    65
 73
     2
 40
0.635
 49
0.0
 74
     0
 49
-0.635
 74
     0
  0
ENDTAB
  0
TABLE
  2
LAYER
  5
2
102
{ACAD_XDICTIONARY
360
18A
102
}
330
0
100
AcDbSymbolTable
 70
    18
  0
LAYER
  5
10
330
2
100
AcDbSymbolTableRecord
100
AcDbLayerTableRecord
  2
0
 70
     0
 62
     7
  6
Continuous
370
    -3
390
F
  0
LAYER
  5
6F
330
2
100
AcDbSymbolTableRecord
100
AcDbLayerTableRecord
  2
FORMAT
 70
     0
 62
     2
  6
Continuous
370
    -3
390
F
  0
LAYER
  5
70
330
2
100
AcDbSymbolTableRecord
100
AcDbLayerTableRecord
  2
외형선
 70
     0
 62
     4
  6
Continuous
370
    30
390
F
  0
LAYER
  5
71
330
2
100
AcDbSymbolTableRecord
100
AcDbLayerTableRecord
  2
숨은선
 70
     0
 62
     2
  6
HIDDEN
370
    15
390
F
  0
LAYER
  5
72
330
2
100
AcDbSymbolTableRecord
100
AcDbLayerTableRecord
  2
중심선
 70
     0
 62
     1
  6
CENTERX2
370
    -3
390
F
  0
LAYER
  5
73
330
2
100
AcDbSymbolTableRecord
100
AcDbLayerTableRecord
  2
파단선
 70
     0
 62
     4
  6
Continuous
370
    -3
390
F
  0
LAYER
  5
74
330
2
100
AcDbSymbolTableRecord
100
AcDbLayerTableRecord
  2
해칭선
 70
     0
 62
   100
  6
Continuous
370
    -3
390
F
  0
LAYER
  5
75
330
2
100
AcDbSymbolTableRecord
100
AcDbLayerTableRecord
  2
가는실선
 70
     0
 62
     4
  6
Continuous
370
    -3
390
F
  0
LAYER
  5
76
330
2
100
AcDbSymbolTableRecord
100
AcDbLayerTableRecord
  2
치수_보조선
 70
     0
 62
     4
  6
Continuous
370
    -3
390
F
  0
LAYER
  5
77
330
2
100
AcDbSymbolTableRecord
100
AcDbLayerTableRecord
  2
치수문자_일반주서
 70
     0
 62
     7
  6
Continuous
370
    15
390
F
  0
LAYER
  5
78
330
2
100
AcDbSymbolTableRecord
100
AcDbLayerTableRecord
  2
개별주서
 70
     0
 62
   100
  6
Continuous
370
    30
390
F
  0
LAYER
  5
79
330
2
100
AcDbSymbolTableRecord
100
AcDbLayerTableRecord
  2
중간선
 70
     0
 62
     2
  6
Continuous
370
    15
390
F
  0
LAYER
  5
7A
330
2
100
AcDbSymbolTableRecord
100
AcDbLayerTableRecord
  2
윤곽선
 70
     0
 62
     3
  6
Continuous
370
    40
390
F
  0
LAYER
  5
7B
330
2
100
AcDbSymbolTableRecord
100
AcDbLayerTableRecord
  2
중심마크
 70
     0
 62
   100
  6
Continuous
370
    30
390
F
  0
LAYER
  5
7C
330
2
100
AcDbSymbolTableRecord
100
AcDbLayerTableRecord
  2
가상선
 70
     0
 62
     4
  6
PHANTOM
370
    -3
390
F
  0
LAYER
  5
7D
330
2
100
AcDbSymbolTableRecord
100
AcDbLayerTableRecord
  2
특수지정선
 70
     0
 62
     5
  6
CENTERX2
370
    60
390
F
  0
LAYER
  5
7E
330
2
100
AcDbSymbolTableRecord
100
AcDbLayerTableRecord
  2
참조1
 70
     0
 62
    -4
  6
Continuous
370
    -3
390
F
  0
LAYER
  5
191
330
2
100
AcDbSymbolTableRecord
100
AcDbLayerTableRecord
  2
Defpoints
 70
     0
 62
     7
  6
Continuous
290
     0
370
    -3
390
F
  0
ENDTAB
  0
TABLE
  2
STYLE
  5
3
330
0
100
AcDbSymbolTable
 70
     2
  0
STYLE
  5
11
330
3
100
AcDbSymbolTableRecord
100
AcDbTextStyleTableRecord
  2
Standard
 70
     0
 40
0.0
 41
1.0
 50
0.0
 71
     0
 42
3.5
  3
txt
  4

  0
STYLE
  5
94
330
3
100
AcDbSymbolTableRecord
100
AcDbTextStyleTableRecord
  2
SLDTEXTSTYLE0
 70
     0
 40
0.0
 41
0.75
 50
0.0
 71
     0
 42
3.5
  3
TXT
  4

  0
ENDTAB
  0
TABLE
  2
VIEW
  5
6
330
0
100
AcDbSymbolTable
 70
     0
  0
ENDTAB
  0
TABLE
  2
UCS
  5
7
330
0
100
AcDbSymbolTable
 70
     0
  0
ENDTAB
  0
TABLE
  2
APPID
  5
9
330
0
100
AcDbSymbolTable
 70
     1
  0
APPID
  5
12
330
9
100
AcDbSymbolTableRecord
100
AcDbRegAppTableRecord
  2
ACAD
 70
     0
  0
ENDTAB
  0
TABLE
  2
DIMSTYLE
  5
A
330
0
100
AcDbSymbolTable
 70
     4
100
AcDbDimStyleTable
  0
DIMSTYLE
105
27
330
A
100
AcDbSymbolTableRecord
100
AcDbDimStyleTableRecord
  2
ISO-25
 70
     0
 41
2.5
 42
0.625
 43
3.75
 44
1.25
 73
     0
 74
     0
 77
     1
 78
     8
140
2.5
141
2.5
143
0.03937007874016
147
0.625
171
     3
172
     1
178
     0
271
     2
272
     2
274
     3
278
    44
283
     0
284
     8
340
11
  0
DIMSTYLE
105
E2
102
{ACAD_REACTORS
330
E1
330
F6
330
10B
330
11F
102
}
330
A
100
AcDbSymbolTableRecord
100
AcDbDimStyleTableRecord
  2
SLDDIMSTYLE0
 70
     0
 41
3.302
 44
0.0
 45
0.000000001
 73
     0
 74
     0
 77
     1
 78
    12
 79
     3
140
3.5
143
0.0393700787401575
147
0.875
148
0.000000001
170
     1
172
     1
173
     1
178
     0
271
     2
272
     2
276
     2
284
    12
289
     0
340
94
  0
DIMSTYLE
105
F7
330
A
100
AcDbSymbolTableRecord
100
AcDbDimStyleTableRecord
  2
SLDDIMSTYLE1
 70
     0
 41
3.302
 44
0.0
 45
0.000000001
 73
     0
 74
     0
 77
     1
 78
     4
 79
     1
140
3.5
143
0.0393700787401575
147
0.875
148
0.000000001
170
     1
173
     1
178
     0
271
     2
272
     2
276
     2
284
    12
340
94
  0
DIMSTYLE
105
10C
330
A
100
AcDbSymbolTableRecord
100
AcDbDimStyleTableRecord
  2
SLDDIMSTYLE2
 70
     0
 41
3.302
 44
0.0
 45
0.000000001
 73
     0
 74
     0
 77
     1
 78
    12
 79
     3
140
3.5
143
0.0393700787401575
147
0.875
148
0.000000001
170
     1
173
     1
178
     0
271
     2
272
     2
276
     2
284
    12
340
94
  0
ENDTAB
  0
TABLE
  2
BLOCK_RECORD
  5
1
330
0
100
AcDbSymbolTable
 70
     8
  0
BLOCK_RECORD
  5
1F
330
1
100
AcDbSymbolTableRecord
100
AcDbBlockTableRecord
  2
*Model_Space
340
22
  0
BLOCK_RECORD
  5
1B
330
1
100
AcDbSymbolTableRecord
100
AcDbBlockTableRecord
  2
*Paper_Space
340
1E
  0
BLOCK_RECORD
  5
23
330
1
100
AcDbSymbolTableRecord
100
AcDbBlockTableRecord
  2
*Paper_Space0
340
26
  0
BLOCK_RECORD
  5
7F
330
1
100
AcDbSymbolTableRecord
100
AcDbBlockTableRecord
  2
블럭10
340
0
102
{BLKREFS
331
DA
102
}
  0
BLOCK_RECORD
  5
E3
330
1
100
AcDbSymbolTableRecord
100
AcDbBlockTableRecord
  2
_D
340
0
  0
BLOCK_RECORD
  5
F8
330
1
100
AcDbSymbolTableRecord
100
AcDbBlockTableRecord
  2
_D_1
340
0
  0
BLOCK_RECORD
  5
10D
330
1
100
AcDbSymbolTableRecord
100
AcDbBlockTableRecord
  2
_D_2
340
0
  0
BLOCK_RECORD
  5
120
330
1
100
AcDbSymbolTableRecord
100
AcDbBlockTableRecord
  2
_D_3
340
0
  0
BLOCK_RECORD
  5
139
330
1
100
AcDbSymbolTableRecord
100
AcDbBlockTableRecord
  2
SW_DOWELSYMBOL_0
340
0
102
{BLKREFS
331
13F
102
}
  0
ENDTAB
  0
ENDSEC
  0
SECTION
  2
BLOCKS
  0
BLOCK
  5
20
330
1F
100
AcDbEntity
  8
0
100
AcDbBlockBegin
  2
*Model_Space
 70
     0
 10
0.0
 20
0.0
 30
0.0
  3
*Model_Space
  1
*Model_Space
  0
ENDBLK
  5
21
330
1F
100
AcDbEntity
  8
0
100
AcDbBlockEnd
  0
BLOCK
  5
1C
330
1B
100
AcDbEntity
 67
     1
  8
0
100
AcDbBlockBegin
  2
*Paper_Space
 70
     0
 10
0.0
 20
0.0
 30
0.0
  3
*Paper_Space
  1
*Paper_Space
  0
ENDBLK
  5
1D
330
1B
100
AcDbEntity
 67
     1
  8
0
100
AcDbBlockEnd
  0
BLOCK
  5
24
330
23
100
AcDbEntity
  8
0
100
AcDbBlockBegin
  2
*Paper_Space0
 70
     0
 10
0.0
 20
0.0
 30
0.0
  3
*Paper_Space0
  1
*Paper_Space0
  0
ENDBLK
  5
25
330
23
100
AcDbEntity
  8
0
100
AcDbBlockEnd
  0
BLOCK
  5
80
330
7F
100
AcDbEntity
  8
0
100
AcDbBlockBegin
  2
블럭10
 70
     2
 10
0.0
 20
0.0
 30
0.0
  3
블럭10
  1
블럭10
  0
ELLIPSE
  5
82
330
7F
100
AcDbEntity
  8
중심선
100
AcDbEllipse
 10
20.54032771741204
 20
12.0471743016438
 30
0.0
 11
6.600054785286829
 21
-1.261213355974178E-13
 31
0.0
210
0.0
220
0.0
230
1.0
 40
0.636358354079598
 41
0.9219305317359503
 42
6.513795318482858
  0
ELLIPSE
  5
83
330
7F
100
AcDbEntity
  8
중심선
100
AcDbEllipse
 10
20.54032771746488
 20
12.04717430159265
 30
0.0
 11
3.960054785062283
 21
1.540847449632565E-10
 31
0.0
210
0.0
220
0.0
230
1.0
 40
0.3939339440162632
 41
1.131841032648279
 42
5.62031148352944
  0
LINE
  5
84
330
7F
100
AcDbEntity
  8
중심선
100
AcDbLine
 10
2.268634060543552
 20
16.24717430164393
 30
0.0
 11
5.714909304380834
 21
16.24717430164393
 31
0.0
  0
LINE
  5
85
330
7F
100
AcDbEntity
  8
중심선
100
AcDbLine
 10
5.245725140726316
 20
7.84717430164391
 30
0.0
 11
8.692000384563599
 21
7.84717430164391
 31
0.0
  0
LINE
  5
86
330
7F
100
AcDbEntity
  8
중심선
100
AcDbLine
 10
15.74043728645272
 20
16.24717430164393
 30
0.0
 11
8.692000384563599
 21
7.84717430164391
 31
0.0
  0
LINE
  5
87
330
7F
100
AcDbEntity
  8
중심선
100
AcDbLine
 10
0.1404042013395286
 20
13.71084872107135
 30
0.0
 11
3.58671253028996
 21
13.71088815037384
 31
0.0
  0
LINE
  5
88
330
7F
100
AcDbEntity
  8
중심선
100
AcDbLine
 10
2.750260043222114
 20
10.84717430164391
 30
0.0
 11
6.196535287059397
 21
10.84717430164391
 31
0.0
  0
LINE
  5
89
330
7F
100
AcDbEntity
  8
중심선
100
AcDbLine
 10
12.29416204261559
 20
16.24717430164393
 30
0.0
 11
5.245725140726316
 21
7.84717430164391
 31
0.0
  0
LINE
  5
8A
330
7F
100
AcDbEntity
  8
중심선
100
AcDbLine
 10
10.72767329541681
 20
16.24717430164393
 30
0.0
 11
6.196535287059397
 21
10.84717430164391
 31
0.0
  0
LINE
  5
8B
330
7F
100
AcDbEntity
  8
중심선
100
AcDbLine
 10
7.28139805157953
 20
16.24717430164393
 30
0.0
 11
2.750260043222114
 21
10.84717430164391
 31
0.0
  0
LINE
  5
8C
330
7F
100
AcDbEntity
  8
중심선
100
AcDbLine
 10
5.714909304380834
 20
16.24717430164393
 30
0.0
 11
3.58671253028996
 21
13.71088815037384
 31
0.0
  0
LINE
  5
8D
330
7F
100
AcDbEntity
  8
중심선
100
AcDbLine
 10
2.268634060543552
 20
16.24717430164393
 30
0.0
 11
0.1404042013395286
 21
13.71084872107135
 31
0.0
  0
LINE
  5
8E
330
7F
100
AcDbEntity
  8
중심선
100
AcDbLine
 10
7.28139805157953
 20
16.24717430164393
 30
0.0
 11
10.72767329541681
 21
16.24717430164393
 31
0.0
  0
LINE
  5
8F
330
7F
100
AcDbEntity
  8
중심선
100
AcDbLine
 10
12.29416204261559
 20
16.24717430164393
 30
0.0
 11
15.74043728645272
 21
16.24717430164393
 31
0.0
  0
LINE
  5
90
330
7F
100
AcDbEntity
  8
중심선
100
AcDbLine
 10
19.22036997980202
 20
11.08717430171403
 30
0.0
 11
23.66174974927406
 21
11.08717430171406
 31
0.0
  0
LINE
  5
91
330
7F
100
AcDbEntity
  8
중심선
100
AcDbLine
 10
19.22039502424796
 20
13.00717430171391
 30
0.0
 11
19.22036997980202
 21
11.08717430171403
 31
0.0
  0
LINE
  5
92
330
7F
100
AcDbEntity
  8
중심선
100
AcDbLine
 10
19.22039502424796
 20
13.00717430171391
 30
0.0
 11
26.96566020931264
 21
13.00717430171391
 31
0.0
  0
LINE
  5
93
330
7F
100
AcDbEntity
  8
중심선
100
AcDbLine
 10
22.22332737316547
 20
13.45928029700563
 30
0.0
 11
24.52862924686651
 21
15.39360700705356
 31
0.0
  0
ATTDEF
  5
95
330
7F
100
AcDbEntity
  8
FORMAT
 62
     2
100
AcDbText
 10
4.408487351596664
 20
2.075366912832191
 30
0.0
 40
4.233333333333333
  1
E1071040
 41
0.75
  7
SLDTEXTSTYLE0
 11
4.408487351596664
 21
-0.0412997538344756
 31
0.0
100
AcDbAttributeDefinition
  3

  2
AUTOATTR0
 70
     0
 74
     1
  0
ENDBLK
  5
81
330
7F
100
AcDbEntity
  8
0
100
AcDbBlockEnd
  0
BLOCK
  5
E4
330
E3
100
AcDbEntity
  8
0
100
AcDbBlockBegin
  2
_D
 70
     0
 10
0.0
 20
0.0
 30
0.0
  3
_D
  1
_D
  0
LINE
  5
E6
330
E3
100
AcDbEntity
  8
치수문자_일반주서
 62
     0
370
    -2
100
AcDbLine
 10
-41.03749999999999
 20
7.937499999999985
 30
0.0
 11
-54.47500000000003
 21
7.937499999999934
 31
0.0
  0
LINE
  5
E7
330
E3
100
AcDbEntity
  8
치수문자_일반주서
 62
     0
370
    -2
100
AcDbLine
 10
-41.03749999999999
 20
-7.937500000000015
 30
0.0
 11
-54.47499999999997
 21
-7.937500000000066
 31
0.0
  0
LINE
  5
E8
330
E3
100
AcDbEntity
  8
치수문자_일반주서
 62
     0
370
    -2
100
AcDbLine
 10
-54.47500000000002
 20
4.635499999999935
 30
0.0
 11
-54.47499999999999
 21
-4.635500000000066
 31
0.0
  0
SOLID
  5
E9
330
E3
100
AcDbEntity
  8
치수문자_일반주서
 62
     0
100
AcDbTrace
 10
-53.92466666666668
 20
4.635499999999936
 30
0.0
 11
-55.02533333333335
 21
4.635499999999933
 31
0.0
 12
-54.47500000000003
 22
7.937499999999934
 32
0.0
 13
-54.47500000000003
 23
7.937499999999934
 33
0.0
  0
SOLID
  5
EA
330
E3
100
AcDbEntity
  8
치수문자_일반주서
 62
     0
100
AcDbTrace
 10
-55.02533333333332
 20
-4.635500000000068
 30
0.0
 11
-53.92466666666665
 21
-4.635500000000064
 31
0.0
 12
-54.47499999999997
 22
-7.937500000000066
 32
0.0
 13
-54.47499999999997
 23
-7.937500000000066
 33
0.0
  0
MTEXT
  5
EB
330
E3
100
AcDbEntity
  8
치수문자_일반주서
 62
     0
100
AcDbMText
 10
-58.85
 20
-0.0000000000000236
 30
0.0
 40
3.5
 41
0.0
 71
     2
 72
     1
  1
\A1;%%c15.88 [5/8]
  7
SLDTEXTSTYLE0
 11
-3.580687802255623E-15
 21
1.0
 31
0.0
 73
     1
 44
1.0
  0
POINT
  5
EC
330
E3
100
AcDbEntity
  8
Defpoints
 62
     0
100
AcDbPoint
 10
-40.97499999999999
 20
7.937499999999985
 30
0.0
  0
POINT
  5
ED
330
E3
100
AcDbEntity
  8
Defpoints
 62
     0
100
AcDbPoint
 10
-40.97499999999999
 20
-7.937500000000015
 30
0.0
  0
POINT
  5
EE
330
E3
100
AcDbEntity
  8
Defpoints
 62
     0
100
AcDbPoint
 10
-54.47499999999997
 20
-7.937500000000066
 30
0.0
  0
ENDBLK
  5
E5
330
E3
100
AcDbEntity
  8
0
100
AcDbBlockEnd
  0
BLOCK
  5
F9
330
F8
100
AcDbEntity
  8
0
100
AcDbBlockBegin
  2
_D_1
 70
     0
 10
0.0
 20
0.0
 30
0.0
  3
_D_1
  1
_D_1
  0
LINE
  5
FB
330
F8
100
AcDbEntity
  8
치수문자_일반주서
 62
     0
370
    -2
100
AcDbLine
 10
75.49999999999943
 20
8.000000000000012
 30
0.0
 11
75.49999999999943
 21
21.10713307670824
 31
0.0
  0
LINE
  5
FC
330
F8
100
AcDbEntity
  8
치수문자_일반주서
 62
     0
370
    -2
100
AcDbLine
 10
12.00000000000001
 20
6.384707709642123
 30
0.0
 11
12.00000000000001
 21
21.10713307670824
 31
0.0
  0
LINE
  5
FD
330
F8
100
AcDbEntity
  8
치수문자_일반주서
 62
     0
370
    -2
100
AcDbLine
 10
72.19799999999944
 20
21.10713307670824
 30
0.0
 11
15.30200000000001
 21
21.10713307670824
 31
0.0
  0
SOLID
  5
FE
330
F8
100
AcDbEntity
  8
치수문자_일반주서
 62
     0
100
AcDbTrace
 10
72.19799999999944
 20
20.5567997433749
 30
0.0
 11
72.19799999999944
 21
21.65746641004157
 31
0.0
 12
75.49999999999943
 22
21.10713307670824
 32
0.0
 13
75.49999999999943
 23
21.10713307670824
 33
0.0
  0
SOLID
  5
FF
330
F8
100
AcDbEntity
  8
치수문자_일반주서
 62
     0
100
AcDbTrace
 10
15.30200000000001
 20
21.65746641004157
 30
0.0
 11
15.30200000000001
 21
20.5567997433749
 31
0.0
 12
12.00000000000001
 22
21.10713307670824
 32
0.0
 13
12.00000000000001
 23
21.10713307670824
 33
0.0
  0
MTEXT
  5
100
330
F8
100
AcDbEntity
  8
치수문자_일반주서
 62
     0
100
AcDbMText
 10
43.75000000000001
 20
25.48213307670824
 30
0.0
 40
3.5
 41
0.0
 71
     2
 72
     1
  1
\A1;63.5 [2 1/2]
  7
SLDTEXTSTYLE0
 73
     1
 44
1.0
  0
POINT
  5
101
330
F8
100
AcDbEntity
  8
Defpoints
 62
     0
100
AcDbPoint
 10
75.49999999999943
 20
7.937500000000012
 30
0.0
  0
POINT
  5
102
330
F8
100
AcDbEntity
  8
Defpoints
 62
     0
100
AcDbPoint
 10
12.00000000000001
 20
6.322207709642123
 30
0.0
  0
POINT
  5
103
330
F8
100
AcDbEntity
  8
Defpoints
 62
     0
100
AcDbPoint
 10
12.00000000000001
 20
21.10713307670824
 30
0.0
  0
ENDBLK
  5
FA
330
F8
100
AcDbEntity
  8
0
100
AcDbBlockEnd
  0
BLOCK
  5
10E
330
10D
100
AcDbEntity
  8
0
100
AcDbBlockBegin
  2
_D_2
 70
     0
 10
0.0
 20
0.0
 30
0.0
  3
_D_2
  1
_D_2
  0
LINE
  5
110
330
10D
100
AcDbEntity
  8
치수문자_일반주서
 62
     0
370
    -2
100
AcDbLine
 10
75.49999999999943
 20
8.00000000000001
 30
0.0
 11
75.49999999999943
 21
38.05774771491232
 31
0.0
  0
LINE
  5
111
330
10D
100
AcDbEntity
  8
치수문자_일반주서
 62
     0
370
    -2
100
AcDbLine
 10
-41.97499999999998
 20
6.999999999999989
 30
0.0
 11
-41.97499999999998
 21
38.05774771491232
 31
0.0
  0
LINE
  5
112
330
10D
100
AcDbEntity
  8
치수문자_일반주서
 62
     0
370
    -2
100
AcDbLine
 10
72.19799999999944
 20
38.05774771491232
 30
0.0
 11
-38.67299999999998
 21
38.05774771491232
 31
0.0
  0
SOLID
  5
113
330
10D
100
AcDbEntity
  8
치수문자_일반주서
 62
     0
100
AcDbTrace
 10
72.19799999999944
 20
37.50741438157898
 30
0.0
 11
72.19799999999944
 21
38.60808104824565
 31
0.0
 12
75.49999999999943
 22
38.05774771491232
 32
0.0
 13
75.49999999999943
 23
38.05774771491232
 33
0.0
  0
SOLID
  5
114
330
10D
100
AcDbEntity
  8
치수문자_일반주서
 62
     0
100
AcDbTrace
 10
-38.67299999999998
 20
38.60808104824565
 30
0.0
 11
-38.67299999999998
 21
37.50741438157898
 31
0.0
 12
-41.97499999999998
 22
38.05774771491232
 32
0.0
 13
-41.97499999999998
 23
38.05774771491232
 33
0.0
  0
MTEXT
  5
115
330
10D
100
AcDbEntity
  8
치수문자_일반주서
 62
     0
100
AcDbMText
 10
16.76250000000001
 20
42.43274771491232
 30
0.0
 40
3.5
 41
0.0
 71
     2
 72
     1
  1
\A1;117.48 [4 5/8]
  7
SLDTEXTSTYLE0
 73
     1
 44
1.0
  0
POINT
  5
116
330
10D
100
AcDbEntity
  8
Defpoints
 62
     0
100
AcDbPoint
 10
75.49999999999943
 20
7.93750000000001
 30
0.0
  0
POINT
  5
117
330
10D
100
AcDbEntity
  8
Defpoints
 62
     0
100
AcDbPoint
 10
-41.97499999999998
 20
6.937499999999989
 30
0.0
  0
POINT
  5
118
330
10D
100
AcDbEntity
  8
Defpoints
 62
     0
100
AcDbPoint
 10
-41.97499999999998
 20
38.05774771491232
 30
0.0
  0
ENDBLK
  5
10F
330
10D
100
AcDbEntity
  8
0
100
AcDbBlockEnd
  0
BLOCK
  5
121
330
120
100
AcDbEntity
  8
0
100
AcDbBlockBegin
  2
_D_3
 70
     0
 10
0.0
 20
0.0
 30
0.0
  3
_D_3
  1
_D_3
  0
LINE
  5
123
330
120
100
AcDbEntity
  8
치수문자_일반주서
 62
     0
370
    -2
100
AcDbLine
 10
75.56249999999943
 20
-7.93749999999999
 30
0.0
 11
90.80683649046325
 21
-7.937499999999936
 31
0.0
  0
LINE
  5
124
330
120
100
AcDbEntity
  8
치수문자_일반주서
 62
     0
370
    -2
100
AcDbLine
 10
75.56249999999943
 20
7.937500000000012
 30
0.0
 11
90.8068364904632
 21
7.937500000000071
 31
0.0
  0
LINE
  5
125
330
120
100
AcDbEntity
  8
치수문자_일반주서
 62
     0
370
    -2
100
AcDbLine
 10
90.8068364904632
 20
7.937500000000071
 30
0.0
 11
90.80683649046307
 21
42.75354134588542
 31
0.0
  0
LINE
  5
126
330
120
100
AcDbEntity
  8
치수문자_일반주서
 62
     0
370
    -2
100
AcDbLine
 10
90.80683649046325
 20
-7.937499999999936
 30
0.0
 11
90.8068364904632
 21
7.937500000000071
 31
0.0
  0
LINE
  5
127
330
120
100
AcDbEntity
  8
치수문자_일반주서
 62
     0
370
    -2
100
AcDbLine
 10
90.80683649046327
 20
-11.23949999999994
 30
0.0
 11
90.80683649046328
 21
-14.54149999999994
 31
0.0
  0
LINE
  5
128
330
120
100
AcDbEntity
  8
치수문자_일반주서
 62
     0
370
    -2
100
AcDbLine
 10
90.80683649046318
 20
11.23950000000007
 30
0.0
 11
90.80683649046317
 21
14.54150000000007
 31
0.0
  0
SOLID
  5
129
330
120
100
AcDbEntity
  8
치수문자_일반주서
 62
     0
100
AcDbTrace
 10
91.3571698237966
 20
-11.23949999999993
 30
0.0
 11
90.25650315712994
 21
-11.23949999999994
 31
0.0
 12
90.80683649046325
 22
-7.937499999999936
 32
0.0
 13
90.80683649046325
 23
-7.937499999999936
 33
0.0
  0
SOLID
  5
12A
330
120
100
AcDbEntity
  8
치수문자_일반주서
 62
     0
100
AcDbTrace
 10
90.25650315712986
 20
11.23950000000007
 30
0.0
 11
91.35716982379651
 21
11.23950000000007
 31
0.0
 12
90.8068364904632
 22
7.937500000000071
 32
0.0
 13
90.8068364904632
 23
7.937500000000071
 33
0.0
  0
MTEXT
  5
12B
330
120
100
AcDbEntity
  8
치수문자_일반주서
 62
     0
100
AcDbMText
 10
86.43183649046313
 20
28.7535413458854
 30
0.0
 40
3.5
 41
0.0
 71
     2
 72
     1
  1
\A1;%%c15.88 [5/8]
  7
SLDTEXTSTYLE0
 11
-3.580687802255622E-15
 21
1.0
 31
0.0
 73
     1
 44
1.0
  0
POINT
  5
12C
330
120
100
AcDbEntity
  8
Defpoints
 62
     0
100
AcDbPoint
 10
75.49999999999943
 20
-7.93749999999999
 30
0.0
  0
POINT
  5
196
330
120
100
AcDbEntity
  8
Defpoints
 62
     0
100
AcDbPoint
 10
75.49999999999943
 20
7.937500000000012
 30
0.0
  0
POINT
  5
197
330
120
100
AcDbEntity
  8
Defpoints
 62
     0
100
AcDbPoint
 10
90.80683649046321
 20
7.937500000000069
 30
0.0
  0
ENDBLK
  5
122
330
120
100
AcDbEntity
  8
0
100
AcDbBlockEnd
  0
BLOCK
  5
13A
330
139
100
AcDbEntity
  8
0
100
AcDbBlockBegin
  2
SW_DOWELSYMBOL_0
 70
     0
 10
0.0
 20
0.0
 30
0.0
  3
SW_DOWELSYMBOL_0
  1
SW_DOWELSYMBOL_0
  0
CIRCLE
  5
13C
330
139
100
AcDbEntity
  8
해칭선
 62
     0
100
AcDbCircle
 10
0.0
 20
0.0
 30
0.0
 40
2.999999999999996
  0
HATCH
  5
13D
330
139
100
AcDbEntity
  8
0
  6
Continuous
 62
     0
370
     0
100
AcDbHatch
 10
0.0
 20
0.0
 30
0.0
210
0.0
220
0.0
230
1.0
  2
SOLID
 70
     1
 71
     0
 91
        1
 92
        0
 93
        3
 72
     2
 10
0.0
 20
0.0
 40
2.999999999999996
 50
0.0
 51
90.0
 73
     1
 72
     1
 10
0.0
 20
2.999999999999996
 11
0.0
 21
0.0
 72
     1
 10
0.0
 20
0.0
 11
2.999999999999996
 21
0.0
 97
        0
 75
     0
 76
     1
 98
        1
 10
0.0
 20
0.0
  0
HATCH
  5
13E
330
139
100
AcDbEntity
  8
0
  6
Continuous
 62
     0
370
     0
100
AcDbHatch
 10
0.0
 20
0.0
 30
0.0
210
0.0
220
0.0
230
1.0
  2
SOLID
 70
     1
 71
     0
 91
        1
 92
        0
 93
        3
 72
     2
 10
0.0
 20
0.0
 40
2.999999999999996
 50
180.0
 51
270.0000000000007
 73
     1
 72
     1
 10
0.0
 20
-2.999999999999996
 11
0.0
 21
0.0
 72
     1
 10
0.0
 20
0.0
 11
-2.999999999999996
 21
0.0
 97
        0
 75
     0
 76
     1
 98
        1
 10
0.0
 20
0.0
  0
ENDBLK
  5
13B
330
139
100
AcDbEntity
  8
0
100
AcDbBlockEnd
  0
ENDSEC
  0
SECTION
  2
ENTITIES
  0
LINE
  5
96
330
1F
100
AcDbEntity
  8
외형선
  6
Continuous
370
    15
100
AcDbLine
 10
8.949915548215039
 20
7.937499999999999
 30
0.0
 11
-11.02192500000005
 21
7.937499999999997
 31
0.0
  0
LINE
  5
97
330
1F
100
AcDbEntity
  8
외형선
  6
Continuous
370
    15
100
AcDbLine
 10
-40.97499999999999
 20
-7.937500000000004
 30
0.0
 11
8.949915548215039
 21
-7.937500000000001
 31
0.0
  0
LINE
  5
98
330
1F
100
AcDbEntity
  8
외형선
  6
Continuous
370
    15
100
AcDbLine
 10
-40.97499999999999
 20
7.937499999999988
 30
0.0
 11
-41.97499999999998
 21
6.937499999999988
 31
0.0
  0
LINE
  5
99
330
1F
100
AcDbEntity
  8
외형선
  6
Continuous
370
    15
100
AcDbLine
 10
-41.97499999999998
 20
-6.937499999999996
 30
0.0
 11
-40.97499999999999
 21
-7.937499999999997
 31
0.0
  0
SPLINE
  5
9A
330
1F
100
AcDbEntity
  8
외형선
  6
Continuous
370
    15
100
AcDbSpline
210
0.0
220
0.0
230
1.0
 70
     8
 71
     3
 72
     9
 73
     5
 74
     0
 42
0.000000001
 43
0.00000001
 40
0.0
 40
0.0
 40
0.0
 40
0.0
 40
0.4289538560728486
 40
1.0
 40
1.0
 40
1.0
 40
1.0
 10
11.50957201235327
 20
2.143305328349026
 30
0.0
 10
11.2441786657061
 20
2.271606088754456
 30
0.0
 10
10.62547960777735
 20
2.57070763216998
 30
0.0
 10
9.978816427270472
 20
2.907707801980133
 30
0.0
 10
9.609541911622351
 20
3.100150449453016
 30
0.0
  0
SPLINE
  5
9B
330
1F
100
AcDbEntity
  8
외형선
  6
Continuous
370
    15
100
AcDbSpline
210
0.0
220
0.0
230
1.0
 70
     8
 71
     3
 72
     9
 73
     5
 74
     0
 42
0.000000001
 43
0.00000001
 40
0.0
 40
0.0
 40
0.0
 40
0.0
 40
0.4991884137319117
 40
1.0
 40
1.0
 40
1.0
 40
1.0
 10
9.3946200147691
 20
6.320807648301801
 30
0.0
 10
9.317349589370782
 20
6.315654333030087
 30
0.0
 10
9.16255748428034
 20
6.305330945848103
 30
0.0
 10
9.008601657768754
 20
6.294352005075732
 30
0.0
 10
8.931498796078273
 20
6.288853624331978
 30
0.0
  0
SPLINE
  5
9C
330
1F
100
AcDbEntity
  8
0
  6
Continuous
 62
     1
370
    15
100
AcDbSpline
210
0.0
220
0.0
230
1.0
 70
     8
 71
     3
 72
     9
 73
     5
 74
     0
 42
0.000000001
 43
0.00000001
 40
0.0
 40
0.0
 40
0.0
 40
0.0
 40
0.4621648531652148
 40
0.9999999999999999
 40
0.9999999999999999
 40
0.9999999999999999
 40
0.9999999999999999
 10
54.93515255389907
 20
2.034007346069059
 30
0.0
 10
54.59649868188561
 20
2.195318194146718
 30
0.0
 10
53.86374310842707
 20
2.544351330208221
 30
0.0
 10
53.12933804236081
 20
2.928621026189985
 30
0.0
 10
52.73434918581685
 20
3.135294774552495
 30
0.0
  0
LINE
  5
9D
330
1F
100
AcDbEntity
  8
0
  6
Continuous
 62
     1
370
    15
100
AcDbLine
 10
50.54534235149882
 20
2.235710069924695
 30
0.0
 11
50.46142026058947
 21
2.281984462572061
 31
0.0
  0
LINE
  5
9E
330
1F
100
AcDbEntity
  8
0
  6
Continuous
 62
     1
370
    15
100
AcDbLine
 10
36.72194945130948
 20
7.937500000000006
 30
0.0
 11
32.87374380729002
 21
7.937500000000006
 31
0.0
  0
LINE
  5
9F
330
1F
100
AcDbEntity
  8
0
  6
Continuous
 62
     1
370
    15
100
AcDbLine
 10
32.87374380729004
 20
-7.937500000000008
 30
0.0
 11
36.72194945130945
 21
-7.937500000000008
 31
0.0
  0
SPLINE
  5
A0
330
1F
100
AcDbEntity
  8
0
  6
Continuous
 62
     1
370
    15
100
AcDbSpline
210
0.0
220
0.0
230
1.0
 70
     8
 71
     3
 72
    15
 73
    11
 74
     0
 42
0.000000001
 43
0.00000001
 40
0.0
 40
0.0
 40
0.0
 40
0.0
 40
0.1257996067786523
 40
0.2236149087773539
 40
0.299628637726794
 40
0.3864782609291916
 40
0.4886115171903637
 40
0.6862935787649826
 40
0.8574174014338048
 40
1.0
 40
1.0
 40
1.0
 40
1.0
 10
52.31140236544675
 20
6.307438067185022
 30
0.0
 10
52.04222901620662
 20
6.2938357348858
 30
0.0
 10
51.56376031922944
 20
6.26965692881368
 30
0.0
 10
50.91697443231512
 20
6.244670197858843
 30
0.0
 10
50.34557267842129
 20
6.226930625985217
 30
0.0
 10
49.76823253239735
 20
6.212972386850762
 30
0.0
 10
48.93152249046063
 20
6.199489454767329
 30
0.0
 10
47.90289481268253
 20
6.196644317914243
 30
0.0
 10
46.79585341572274
 20
6.209952635837147
 30
0.0
 10
46.12138969423737
 20
6.230688716071816
 30
0.0
 10
45.81483941812437
 20
6.240113464829896
 30
0.0
  0
SPLINE
  5
A1
330
1F
100
AcDbEntity
  8
0
  6
Continuous
 62
     1
370
    15
100
AcDbSpline
210
0.0
220
0.0
230
1.0
 70
     8
 71
     3
 72
    26
 73
    22
 74
     0
 42
0.000000001
 43
0.00000001
 40
0.0
 40
0.0
 40
0.0
 40
0.0
 40
0.0721660893061057
 40
0.1303185327821824
 40
0.1784755067858058
 40
0.2092128208372828
 40
0.2347516458177767
 40
0.2602238626482224
 40
0.2857214868687703
 40
0.3125078215160334
 40
0.3410931570235897
 40
0.4281176451244215
 40
0.5233719863362797
 40
0.6048376141930806
 40
0.6743526213387087
 40
0.7403519265945185
 40
0.7684713323122496
 40
0.8016328977804851
 40
0.851275573516833
 40
0.917297991078997
 40
1.0
 40
1.0
 40
1.0
 40
1.0
 10
40.37389266322388
 20
-6.605090088765021
 30
0.0
 10
40.66244599261899
 20
-6.576958079668191
 30
0.0
 10
41.18351962814165
 20
-6.526156904421419
 30
0.0
 10
41.89560017023862
 20
-6.465307802854651
 30
0.0
 10
42.44174732208013
 20
-6.422434598560011
 30
0.0
 10
42.85407628954711
 20
-6.392527715218403
 30
0.0
 10
43.1763726533415
 20
-6.370376910995438
 30
0.0
 10
43.47958105411124
 20
-6.350695758798813
 30
0.0
 10
43.7889730765905
 20
-6.33183184772924
 30
0.0
 10
44.11092416268851
 20
-6.313497181643598
 30
0.0
 10
44.67772728716425
 20
-6.283630659400471
 30
0.0
 10
45.51694100257877
 20
-6.24682190300449
 30
0.0
 10
46.56615835753264
 20
-6.215675047803721
 30
0.0
 10
47.54635538819963
 20
-6.200481233560536
 30
0.0
 10
48.40962730212674
 20
-6.197427225816841
 30
0.0
 10
49.06134950001958
 20
-6.202247588529123
 30
0.0
 10
49.56497555393152
 20
-6.209710082893915
 30
0.0
 10
50.00408348642699
 20
-6.218295600910878
 30
0.0
 10
50.59645052679943
 20
-6.233884728985693
 30
0.0
 10
51.38676294376878
 20
-6.261415644519043
 30
0.0
 10
51.98097538735855
 20
-6.290991602012447
 30
0.0
 10
52.31140236544675
 20
-6.307438067185023
 30
0.0
  0
SPLINE
  5
A2
330
1F
100
AcDbEntity
  8
0
  6
Continuous
 62
     1
370
    15
100
AcDbSpline
210
0.0
220
0.0
230
1.0
 70
     8
 71
     3
 72
    17
 73
    13
 74
     0
 42
0.000000001
 43
0.00000001
 40
0.0
 40
0.0
 40
0.0
 40
0.0
 40
0.1479293161876301
 40
0.2631381001151067
 40
0.3453265160604697
 40
0.4209807955301555
 40
0.5137047791822649
 40
0.6208953539308981
 40
0.7191445702125909
 40
0.829558250402692
 40
0.9248846103666308
 40
1.0
 40
1.0
 40
1.0
 40
1.0
 10
58.68517623111639
 20
-5.970062250174569
 30
0.0
 10
58.97492927689973
 20
-5.925412355409304
 30
0.0
 10
59.49034480057647
 20
-5.845988690231477
 30
0.0
 10
60.16805149095978
 20
-5.752043341936608
 30
0.0
 10
60.70916189053487
 20
-5.681841669282968
 30
0.0
 10
61.20778507969522
 20
-5.620984441706001
 30
0.0
 10
61.75264239591574
 20
-5.558806838036634
 30
0.0
 10
62.34016528035527
 20
-5.497396790195483
 30
0.0
 10
62.96245579926335
 20
-5.43906005705548
 30
0.0
 10
63.56160023118417
 20
-5.389527335646381
 30
0.0
 10
64.11447899421569
 20
-5.349169788336995
 30
0.0
 10
64.44863759486168
 20
-5.328836600821588
 30
0.0
 10
64.59590464384567
 20
-5.31987556101581
 30
0.0
  0
SPLINE
  5
A3
330
1F
100
AcDbEntity
  8
0
  6
Continuous
 62
     1
370
    15
100
AcDbSpline
210
0.0
220
0.0
230
1.0
 70
     8
 71
     3
 72
    29
 73
    25
 74
     0
 42
0.000000001
 43
0.00000001
 40
0.0
 40
0.0
 40
0.0
 40
0.0
 40
0.0708747445613572
 40
0.1255667871840776
 40
0.1673149920706232
 40
0.1922985178978358
 40
0.2173082571644394
 40
0.2443329828721168
 40
0.2733795004241429
 40
0.3045481826768538
 40
0.3378186981093105
 40
0.4018427840781461
 40
0.4557854460093616
 40
0.5005865884441324
 40
0.5437071885757725
 40
0.5950402629797423
 40
0.6571108092829648
 40
0.715783083164365
 40
0.7679292646326141
 40
0.8135744993375801
 40
0.8369404186208727
 40
0.8750676460264499
 40
0.9294859827855114
 40
1.0
 40
1.0
 40
1.0
 40
1.0
 10
29.36025812244852
 20
5.428894784111759
 30
0.0
 10
29.03037365002103
 20
5.402119102288752
 30
0.0
 10
28.44592662871606
 20
5.35468138153242
 30
0.0
 10
27.67027075646176
 20
5.30751231363272
 30
0.0
 10
27.10861394620053
 20
5.27951966310478
 30
0.0
 10
26.69007165060893
 20
5.262297534466795
 30
0.0
 10
26.33647740823245
 20
5.249949328693573
 30
0.0
 10
25.96277667249963
 20
5.239385503213358
 30
0.0
 10
25.55933340525473
 20
5.230871484366207
 30
0.0
 10
25.12595460751371
 20
5.225070707642102
 30
0.0
 10
24.52943305328253
 20
5.222014411488626
 30
0.0
 10
23.82480908497764
 20
5.227245769166223
 30
0.0
 10
23.07308945786842
 20
5.24443540521203
 30
0.0
 10
22.4269349970349
 20
5.267246350276227
 30
0.0
 10
21.78326043530064
 20
5.297001630964483
 30
0.0
 10
21.06030877600239
 20
5.339273004517032
 30
0.0
 10
20.26489575713562
 20
5.396761859079007
 30
0.0
 10
19.46560483185156
 20
5.4662244338663
 30
0.0
 10
18.74192289691316
 20
5.539044504734252
 30
0.0
 10
18.18491586136164
 20
5.601410149507338
 30
0.0
 10
17.69444485147115
 20
5.659930854338418
 30
0.0
 10
17.1581439950967
 20
5.727743943539441
 30
0.0
 10
16.40266257636867
 20
5.830466768741208
 30
0.0
 10
15.8220196382862
 20
5.91967667460072
 30
0.0
 10
15.49429455483754
 20
5.970028314007214
 30
0.0
  0
SPLINE
  5
A4
330
1F
100
AcDbEntity
  8
0
  6
Continuous
 62
     1
370
    15
100
AcDbSpline
210
0.0
220
0.0
230
1.0
 70
     8
 71
     3
 72
    18
 73
    14
 74
     0
 42
0.000000001
 43
0.00000001
 40
0.0
 40
0.0
 40
0.0
 40
0.0
 40
0.1657488791790493
 40
0.2936635645268757
 40
0.3914471306631582
 40
0.4502876263507097
 40
0.5095373023820138
 40
0.5734755978685255
 40
0.6423122765744294
 40
0.7159909234601589
 40
0.7944082732954003
 40
0.9446269275040176
 40
1.0
 40
1.0
 40
1.0
 40
1.0
 10
15.49429455483754
 20
-5.970028314007214
 30
0.0
 10
15.82201858461573
 20
-5.91967763433541
 30
0.0
 10
16.40265965587037
 20
-5.830469428874181
 30
0.0
 10
17.17424057529454
 20
-5.725549233437365
 30
0.0
 10
17.73426334244278
 20
-5.65495752043709
 30
0.0
 10
18.15424940862761
 20
-5.605241954041098
 30
0.0
 10
18.51020425696771
 20
-5.565033178550697
 30
0.0
 10
18.88672516701066
 20
-5.524663075071252
 30
0.0
 10
19.29287431789256
 20
-5.483898419695629
 30
0.0
 10
19.72742436748743
 20
-5.443460227630905
 30
0.0
 10
20.32206042069184
 20
-5.393137162029759
 30
0.0
 10
20.8805789327118
 20
-5.350761729838229
 30
0.0
 10
21.28464023847389
 20
-5.327652039017239
 30
0.0
 10
21.39346813897075
 20
-5.321427787654105
 30
0.0
  0
SPLINE
  5
A5
330
1F
100
AcDbEntity
  8
0
  6
Continuous
 62
     1
370
    15
100
AcDbSpline
210
0.0
220
0.0
230
1.0
 70
     8
 71
     3
 72
    29
 73
    25
 74
     0
 42
0.000000001
 43
0.00000001
 40
0.0
 40
0.0
 40
0.0
 40
0.0
 40
0.0586749963860299
 40
0.1051607494125793
 40
0.139240472758153
 40
0.1643747532181402
 40
0.1942280610917483
 40
0.2303506861391764
 40
0.2708407965158611
 40
0.3078287595302006
 40
0.3716734775064798
 40
0.425641396301279
 40
0.4793954430746539
 40
0.5329503330068225
 40
0.592778388940284
 40
0.6567190626780673
 40
0.7105693614691084
 40
0.7404198992356495
 40
0.7678829156353247
 40
0.7957089432798398
 40
0.8283599671462871
 40
0.8733994954615281
 40
0.9306731526764368
 40
1.0
 40
1.0
 40
1.0
 40
1.0
 10
72.55109694570447
 20
5.428872504759814
 30
0.0
 10
72.28097106876737
 20
5.406708441649869
 30
0.0
 10
71.79683572315022
 20
5.366984715527501
 30
0.0
 10
71.15509223366877
 20
5.325151261645094
 30
0.0
 10
70.66665427003335
 20
5.297736641302327
 30
0.0
 10
70.25112206420141
 20
5.277611781759419
 30
0.0
 10
69.828377388342
 20
5.260025173350339
 30
0.0
 10
69.33528274293243
 20
5.243752480226092
 30
0.0
 10
68.81031526249009
 20
5.231584615380629
 30
0.0
 10
68.15722011991875
 20
5.222917764974962
 30
0.0
 10
67.44216746246798
 20
5.222670390290431
 30
0.0
 10
66.64937612429642
 20
5.23446176986725
 30
0.0
 10
65.90340950675281
 20
5.255806856065309
 30
0.0
 10
65.13129320962307
 20
5.288403525433022
 30
0.0
 10
64.3085844090347
 20
5.335177212358186
 30
0.0
 10
63.47994595093613
 20
5.394800846098291
 30
0.0
 10
62.79772193452768
 20
5.453888517044025
 30
0.0
 10
62.29206706101289
 20
5.502826389926469
 30
0.0
 10
61.90360466314922
 20
5.543063339162347
 30
0.0
 10
61.50164423971095
 20
5.587164197245367
 30
0.0
 10
61.01480764391893
 20
5.643848933883247
 30
0.0
 10
60.39074340216455
 20
5.722075027446154
 30
0.0
 10
59.59523407124581
 20
5.830196849361903
 30
0.0
 10
59.00719069381731
 20
5.920572338756705
 30
0.0
 10
58.68517623111639
 20
5.970062250174569
 30
0.0
  0
SPLINE
  5
A6
330
1F
100
AcDbEntity
  8
외형선
  6
Continuous
370
    15
100
AcDbSpline
210
0.0
220
0.0
230
1.0
 70
     8
 71
     3
 72
    10
 73
     6
 74
     0
 42
0.000000001
 43
0.00000001
 40
0.0
 40
0.0
 40
0.0
 40
0.0
 40
0.5
 40
0.5
 40
1.0
 40
1.0
 40
1.0
 40
1.0
 10
8.94991554821505
 20
1.337725272203023
 30
0.0
 10
9.459019378318883
 20
1.048332940806587
 30
0.0
 10
9.969393521144461
 20
0.7559489565710653
 30
0.0
 10
10.98329859488846
 20
0.1705925733436092
 30
0.0
 10
11.49055926868918
 20
-0.1230941158236431
 30
0.0
 10
12.0
 20
-0.4163464386632081
 30
0.0
  0
SPLINE
  5
A7
330
1F
100
AcDbEntity
  8
외형선
  6
Continuous
370
    15
100
AcDbSpline
210
0.0
220
0.0
230
1.0
 70
    24
 71
     3
 72
     9
 73
     5
 74
     0
 42
0.000000001
 43
0.00000001
 40
0.0
 40
0.0
 40
0.0
 40
0.0
 40
0.2236629723350208
 40
1.0
 40
1.0
 40
1.0
 40
1.0
 10
12.0
 20
-0.4163464386632098
 30
0.0
 10
12.0
 20
-0.4228621226304293
 30
0.0
 10
12.0
 20
-0.4519938286933343
 30
0.0
 10
12.0
 20
-0.4898694760856928
 30
0.0
 10
12.0
 20
-0.519273743603163
 30
0.0
  0
SPLINE
  5
A8
330
1F
100
AcDbEntity
  8
외형선
  6
Continuous
370
    15
100
AcDbSpline
210
0.0
220
0.0
230
1.0
 70
     8
 71
     3
 72
     8
 73
     4
 74
     0
 42
0.000000001
 43
0.00000001
 40
0.0
 40
0.0
 40
0.0
 40
0.0
 40
1.0
 40
1.0
 40
1.0
 40
1.0
 10
12.0
 20
-0.5192737436034992
 30
0.0
 10
11.1077995336055
 20
-0.160846029219926
 30
0.0
 10
10.22208164947926
 20
0.1999793508524738
 30
0.0
 10
9.329871165259057
 20
0.5581629420150169
 30
0.0
  0
SPLINE
  5
A9
330
1F
100
AcDbEntity
  8
외형선
  6
Continuous
370
    15
100
AcDbSpline
210
0.0
220
0.0
230
1.0
 70
     8
 71
     3
 72
    12
 73
     8
 74
     0
 42
0.000000001
 43
0.00000001
 40
0.0
 40
0.0
 40
0.0
 40
0.0
 40
0.4999999999999993
 40
0.4999999999999993
 40
0.7499999999999997
 40
0.7499999999999997
 40
1.0
 40
1.0
 40
1.0
 40
1.0
 10
8.949915548215376
 20
0.979842785796276
 30
0.0
 10
8.949915548213953
 20
0.9201042452472991
 30
0.0
 10
8.990697679656966
 20
0.841806338331747
 30
0.0
 10
9.087767020462598
 20
0.7251752425154238
 30
0.0
 10
9.126476138284431
 20
0.6865060960560287
 30
0.0
 10
9.21827739578842
 20
0.6146367875051323
 30
0.0
 10
9.271451795608337
 20
0.5816157706748741
 30
0.0
 10
9.32987116525177
 20
0.5581629420179409
 30
0.0
  0
LINE
  5
AA
330
1F
100
AcDbEntity
  8
외형선
  6
Continuous
370
    15
100
AcDbLine
 10
8.94991554821505
 20
1.33772440260438
 30
0.0
 11
8.94991554821505
 21
1.336283669115764
 31
0.0
  0
LINE
  5
AB
330
1F
100
AcDbEntity
  8
외형선
  6
Continuous
370
    15
100
AcDbLine
 10
8.949915548215046
 20
3.446875964237848
 30
0.0
 11
8.949915548215039
 21
7.937499999999999
 31
0.0
  0
SPLINE
  5
AC
330
1F
100
AcDbEntity
  8
외형선
  6
Continuous
370
    15
100
AcDbSpline
210
0.0
220
0.0
230
1.0
 70
     8
 71
     3
 72
    10
 73
     6
 74
     0
 42
0.000000001
 43
0.00000001
 40
0.0
 40
0.0
 40
0.0
 40
0.0
 40
0.5
 40
0.5
 40
1.0
 40
1.0
 40
1.0
 40
1.0
 10
12.0
 20
1.789014177844753
 30
0.0
 10
11.49054451138184
 20
2.075123013122373
 30
0.0
 10
10.98326942219461
 20
2.357147531862145
 30
0.0
 10
9.969334582440135
 20
2.910300749856753
 30
0.0
 10
9.458945493018623
 20
3.182091438794345
 30
0.0
 10
8.949827062939269
 20
3.44656953083088
 30
0.0
  0
LINE
  5
AD
330
1F
100
AcDbEntity
  8
외형선
  6
Continuous
370
    15
100
AcDbLine
 10
12.0
 20
1.789014177844753
 30
0.0
 11
12.0
 21
-0.4163464386632081
 31
0.0
  0
LINE
  5
AE
330
1F
100
AcDbEntity
  8
외형선
  6
Continuous
370
    15
100
AcDbLine
 10
-40.97499999999999
 20
7.937499999999988
 30
0.0
 11
-40.97499999999999
 21
-7.937500000000004
 31
0.0
  0
LINE
  5
AF
330
1F
100
AcDbEntity
  8
외형선
  6
Continuous
370
    15
100
AcDbLine
 10
8.949915548215039
 20
-7.937500000000001
 30
0.0
 11
8.94991554821505
 21
1.337724370461743
 31
0.0
  0
LINE
  5
B0
330
1F
100
AcDbEntity
  8
외형선
  6
Continuous
370
    15
100
AcDbLine
 10
-41.97499999999998
 20
6.937499999999989
 30
0.0
 11
-41.97499999999998
 21
-6.937499999999996
 31
0.0
  0
LINE
  5
B1
330
1F
100
AcDbEntity
  8
외형선
  6
Continuous
370
    15
100
AcDbLine
 10
12.0
 20
1.914081363125585
 30
0.0
 11
11.46251231340468
 21
2.162462494581402
 31
0.0
  0
SPLINE
  5
B2
330
1F
100
AcDbEntity
  8
외형선
  6
Continuous
370
    15
100
AcDbSpline
210
0.0
220
0.0
230
1.0
 70
    24
 71
     3
 72
     8
 73
     4
 74
     0
 42
0.000000001
 43
0.00000001
 40
0.0
 40
0.0
 40
0.0
 40
0.0
 40
1.0
 40
1.0
 40
1.0
 40
1.0
 10
12.0
 20
1.914081363125585
 30
0.0
 10
12.0
 20
1.906232891422452
 30
0.0
 10
12.0
 20
1.86442605432125
 30
0.0
 10
12.0
 20
1.789014177847888
 30
0.0
  0
LINE
  5
B3
330
1F
100
AcDbEntity
  8
외형선
  6
Continuous
370
    15
100
AcDbLine
 10
12.00000000000001
 20
6.322207709642123
 30
0.0
 11
9.39303501304878
 21
6.301404795518899
 31
0.0
  0
SPLINE
  5
B4
330
1F
100
AcDbEntity
  8
외형선
  6
Continuous
370
    15
100
AcDbSpline
210
0.0
220
0.0
230
1.0
 70
    24
 71
     3
 72
    14
 73
    10
 74
     0
 42
0.000000001
 43
0.00000001
 40
0.0
 40
0.0
 40
0.0
 40
0.0
 40
0.25
 40
0.25
 40
0.4999999999999999
 40
0.4999999999999999
 40
0.75
 40
0.75
 40
1.0
 40
1.0
 40
1.0
 40
1.0
 10
12.0
 20
6.322207709642123
 30
0.0
 10
12.0
 20
6.194939949428182
 30
0.0
 10
12.0
 20
6.000977212291254
 30
0.0
 10
12.0
 20
5.479209529017086
 30
0.0
 10
12.0
 20
5.151400915945491
 30
0.0
 10
12.0
 20
4.380971619966893
 30
0.0
 10
12.0
 20
3.938573413653335
 30
0.0
 10
12.0
 20
2.9745825311672
 30
0.0
 10
12.0
 20
2.453334413084557
 30
0.0
 10
12.0
 20
1.914081363125584
 30
0.0
  0
SPLINE
  5
B5
330
1F
100
AcDbEntity
  8
외형선
  6
Continuous
370
    15
100
AcDbSpline
210
0.0
220
0.0
230
1.0
 70
     8
 71
     3
 72
     8
 73
     4
 74
     0
 42
0.000000001
 43
0.00000001
 40
0.0
 40
0.0
 40
0.0
 40
0.0
 40
1.0
 40
1.0
 40
1.0
 40
1.0
 10
12.00000000000001
 20
-6.322207709642122
 30
0.0
 10
11.15677442047268
 20
-6.358548503234971
 30
0.0
 10
10.31999231381503
 20
-6.359256479833145
 30
0.0
 10
9.476796176500137
 20
-6.324324573419617
 30
0.0
  0
SPLINE
  5
B6
330
1F
100
AcDbEntity
  8
외형선
  6
Continuous
370
    15
100
AcDbSpline
210
0.0
220
0.0
230
1.0
 70
     8
 71
     3
 72
    16
 73
    12
 74
     0
 42
0.000000001
 43
0.00000001
 40
0.0
 40
0.0
 40
0.0
 40
0.0
 40
0.2055879560632617
 40
0.3872694113954929
 40
0.5450865291649354
 40
0.679090355333639
 40
0.7893513042991488
 40
0.8759835239851137
 40
0.9392138560012975
 40
0.9796464972400646
 40
1.0
 40
1.0
 40
1.0
 40
1.0
 10
9.235164391042026
 20
-6.501790925939456
 30
0.0
 10
9.250339065753101
 20
-6.488978490351898
 30
0.0
 10
9.278923849881542
 20
-6.464843494880618
 30
0.0
 10
9.31987015632995
 20
-6.431446217506426
 30
0.0
 10
9.356077119354323
 20
-6.402801950485729
 30
0.0
 10
9.38754610937767
 20
-6.378785078047561
 30
0.0
 10
9.414341981480435
 20
-6.359388219249287
 30
0.0
 10
9.436228871096915
 20
-6.344218641523589
 30
0.0
 10
9.453736418168393
 20
-6.333900012982007
 30
0.0
 10
9.465767429892896
 20
-6.326616462127026
 30
0.0
 10
9.474018712462764
 20
-6.324912101101376
 30
0.0
 10
9.476781554313078
 20
-6.324341416492064
 30
0.0
  0
SPLINE
  5
B7
330
1F
100
AcDbEntity
  8
외형선
  6
Continuous
370
    15
100
AcDbSpline
210
0.0
220
0.0
230
1.0
 70
    24
 71
     3
 72
    14
 73
    10
 74
     0
 42
0.000000001
 43
0.00000001
 40
0.0
 40
0.0
 40
0.0
 40
0.0
 40
0.2499999999999999
 40
0.2499999999999999
 40
0.4999999999999998
 40
0.4999999999999998
 40
0.7499999999999999
 40
0.7499999999999999
 40
1.0
 40
1.0
 40
1.0
 40
1.0
 10
12.00000000000001
 20
-0.5192737436035042
 30
0.0
 10
12.00000000000001
 20
-1.189297090609497
 30
0.0
 10
12.00000000000001
 20
-1.85469727844808
 30
0.0
 10
12.00000000000001
 20
-3.107482502929042
 30
0.0
 10
12.00000000000001
 20
-3.694106807433728
 30
0.0
 10
12.00000000000001
 20
-4.725455478226786
 30
0.0
 10
12.00000000000001
 20
-5.169630298824509
 30
0.0
 10
12.00000000000001
 20
-5.879636963271182
 30
0.0
 10
12.00000000000001
 20
-6.145470436756985
 30
0.0
 10
12.00000000000001
 20
-6.322207709642122
 30
0.0
  0
SPLINE
  5
B8
330
1F
100
AcDbEntity
  8
외형선
  6
Continuous
370
    15
100
AcDbSpline
210
0.0
220
0.0
230
1.0
 70
     8
 71
     3
 72
    16
 73
    12
 74
     0
 42
0.000000001
 43
0.00000001
 40
0.0
 40
0.0
 40
0.0
 40
0.0
 40
0.2500000000000004
 40
0.2500000000000004
 40
0.5000000000000008
 40
0.5000000000000008
 40
0.6250000000000003
 40
0.6250000000000003
 40
0.7499999999999998
 40
0.7499999999999998
 40
1.0
 40
1.0
 40
1.0
 40
1.0
 10
9.235162481646416
 20
-6.501825460294492
 30
0.0
 10
9.206270057798283
 20
-6.526362424109473
 30
0.0
 10
9.175742535718692
 20
-6.553157987409818
 30
0.0
 10
9.107474451725075
 20
-6.61713067010531
 30
0.0
 10
9.067948165400047
 20
-6.656300291175198
 30
0.0
 10
9.016127847862068
 20
-6.714478325970592
 30
0.0
 10
9.000953771151899
 20
-6.73287480002849
 30
0.0
 10
8.978046198271288
 20
-6.762964875308019
 30
0.0
 10
8.970143560497943
 20
-6.774705104148977
 30
0.0
 10
8.953012366372418
 20
-6.80301233637263
 30
0.0
 10
8.949915548215031
 20
-6.812928009103928
 30
0.0
 10
8.949915548215039
 20
-6.819257336680494
 30
0.0
  0
SPLINE
  5
B9
330
1F
100
AcDbEntity
  8
0
  6
Continuous
 62
     1
370
    15
100
AcDbSpline
210
0.0
220
0.0
230
1.0
 70
     8
 71
     3
 72
    21
 73
    17
 74
     0
 42
0.000000001
 43
0.00000001
 40
0.0
 40
0.0
 40
0.0
 40
0.0
 40
0.0357948175278932
 40
0.1060735850613604
 40
0.1763619192692579
 40
0.2466663831139176
 40
0.3169915185719233
 40
0.3873056483660081
 40
0.4576006270949575
 40
0.5278830003942931
 40
0.5981593467849755
 40
0.6785274785281518
 40
0.758895610892521
 40
0.8392637427068013
 40
0.9196318727997154
 40
1.0
 40
1.0
 40
1.0
 40
1.0
 10
45.81267872364683
 20
-6.240877207856546
 30
0.0
 10
45.40927682222004
 20
-6.388289539537237
 30
0.0
 10
44.21384438646126
 20
-6.825128042525566
 30
0.0
 10
42.22626294739893
 20
-7.340248366238166
 30
0.0
 10
39.84969119924648
 20
-7.773219411891866
 30
0.0
 10
37.472505445792
 20
-7.964822305939292
 30
0.0
 10
35.09481045971361
 20
-7.921528319170348
 30
0.0
 10
32.71735042986086
 20
-7.641361472434179
 30
0.0
 10
30.34052433678546
 20
-7.133542579164582
 30
0.0
 10
27.96416437445585
 20
-6.413062087059339
 30
0.0
 10
25.47448585261093
 20
-5.457777550400301
 30
0.0
 10
22.87045720756851
 20
-4.266479697542326
 30
0.0
 10
20.1528778240408
 20
-2.856555621024547
 30
0.0
 10
17.4352432173012
 20
-1.336736344494007
 30
0.0
 10
14.71762341071964
 20
0.2401506812220297
 30
0.0
 10
12.90587445937173
 20
1.272726351831298
 30
0.0
 10
12.0
 20
1.789014177844753
 30
0.0
  0
SPLINE
  5
BA
330
1F
100
AcDbEntity
  8
외형선
  6
Continuous
370
    15
100
AcDbSpline
210
0.0
220
0.0
230
1.0
 70
    24
 71
     3
 72
     8
 73
     4
 74
     0
 42
0.000000001
 43
0.00000001
 40
0.0
 40
0.0
 40
0.0
 40
0.0
 40
1.0
 40
1.0
 40
1.0
 40
1.0
 10
12.0
 20
1.914081363125585
 30
0.0
 10
12.0
 20
1.906232891422428
 30
0.0
 10
12.0
 20
1.864426054320994
 30
0.0
 10
12.0
 20
1.789014177847198
 30
0.0
  0
SPLINE
  5
BB
330
1F
100
AcDbEntity
  8
0
  6
Continuous
 62
     1
370
    15
100
AcDbSpline
210
0.0
220
0.0
230
1.0
 70
     8
 71
     3
 72
    18
 73
    14
 74
     0
 42
0.000000001
 43
0.00000001
 40
0.0
 40
0.0
 40
0.0
 40
0.0
 40
0.0327666858410857
 40
0.1304648525535421
 40
0.2281634429437405
 40
0.3258623602939044
 40
0.4235615078408354
 40
0.5212607887893516
 40
0.6189601063257304
 40
0.7166593636311672
 40
0.8143584638952274
 40
0.9071792975475437
 40
1.0
 40
1.0
 40
1.0
 40
1.0
 10
40.3833860541063
 20
-6.574418193100416
 30
0.0
 10
40.07337414385556
 20
-6.613728154156636
 30
0.0
 10
38.83902110745568
 20
-6.770245914236434
 30
0.0
 10
36.68032060709576
 20
-6.767600022267033
 30
0.0
 10
33.90728193128567
 20
-6.558737061452557
 30
0.0
 10
31.13423251723931
 20
-6.065492990771796
 30
0.0
 10
28.36117532574378
 20
-5.331288431804189
 30
0.0
 10
25.58811495795103
 20
-4.379580597691463
 30
0.0
 10
22.81504898062795
 20
-3.250770393545842
 30
0.0
 10
20.04200146144065
 20
-1.989672910896178
 30
0.0
 10
17.31505023155556
 20
-0.6717136069226941
 30
0.0
 10
14.63447442987249
 20
0.6539480525456803
 30
0.0
 10
12.87815772953913
 20
1.494037124173138
 30
0.0
 10
12.0
 20
1.914081363125585
 30
0.0
  0
SPLINE
  5
BC
330
1F
100
AcDbEntity
  8
0
  6
Continuous
 62
     1
370
    15
100
AcDbSpline
210
0.0
220
0.0
230
1.0
 70
     8
 71
     3
 72
    24
 73
    20
 74
     0
 42
0.000000001
 43
0.00000001
 40
0.0
 40
0.0
 40
0.0
 40
0.0
 40
0.0613136383945699
 40
0.1226090512701573
 40
0.1838919356488237
 40
0.245168021219886
 40
0.3064430554291215
 40
0.3677227884699737
 40
0.4290129582595778
 40
0.4903192754825755
 40
0.5516377985843719
 40
0.6129392161553333
 40
0.6742260178492666
 40
0.7355039231338938
 40
0.796778674700442
 40
0.858056023481106
 40
0.9193417136209928
 40
0.9806414674875537
 40
1.0
 40
1.0
 40
1.0
 40
1.0
 10
75.50000000000003
 20
-7.53221814952821
 30
0.0
 10
74.70738883412477
 20
-7.36619504648586
 30
0.0
 10
73.12240210656003
 20
-7.03419819087677
 30
0.0
 10
70.74539250136493
 20
-6.26623295030926
 30
0.0
 10
68.36895225421546
 20
-5.327640878913903
 30
0.0
 10
65.99283174095189
 20
-4.225957886651425
 30
0.0
 10
63.61675919916939
 20
-2.999470243210385
 30
0.0
 10
61.24046828488424
 20
-1.683221522231653
 30
0.0
 10
58.86369230636073
 20
-0.316782744871655
 30
0.0
 10
56.48628838028883
 20
1.059194766191921
 30
0.0
 10
54.10857516756747
 20
2.403387651125118
 30
0.0
 10
51.73132940130107
 20
3.67616382177316
 30
0.0
 10
49.35470646128507
 20
4.839122453866913
 30
0.0
 10
46.97850160091665
 20
5.858090962444559
 30
0.0
 10
44.60244159000877
 20
6.701198098560424
 30
0.0
 10
42.22626373494008
 20
7.34910645818492
 30
0.0
 10
39.84968799075656
 20
7.761005081499493
 30
0.0
 10
38.01489124576035
 20
7.94920217137757
 30
0.0
 10
36.97220191926431
 20
7.919110766870257
 30
0.0
 10
36.72194945130948
 20
7.911888626918476
 30
0.0
  0
SPLINE
  5
BD
330
1F
100
AcDbEntity
  8
0
  6
Continuous
 62
     1
370
    15
100
AcDbSpline
210
0.0
220
0.0
230
1.0
 70
     8
 71
     3
 72
    15
 73
    11
 74
     0
 42
0.000000001
 43
0.00000001
 40
0.0
 40
0.0
 40
0.0
 40
0.0
 40
0.1345591819968095
 40
0.2691206655179403
 40
0.4036843198170288
 40
0.5382500138481789
 40
0.6728176162837978
 40
0.8073869955325358
 40
0.9419580197572844
 40
0.9999999999999999
 40
0.9999999999999999
 40
0.9999999999999999
 40
0.9999999999999999
 10
75.5
 20
-6.262467348422716
 30
0.0
 10
74.5758135493767
 20
-6.069106826277769
 30
0.0
 10
72.72742484067976
 20
-5.682382474714911
 30
0.0
 10
69.9548099352584
 20
-4.803938788810846
 30
0.0
 10
67.18214420476778
 20
-3.748872090486089
 30
0.0
 10
64.40943004832724
 20
-2.537295518039974
 30
0.0
 10
61.63667084306244
 20
-1.222815434711995
 30
0.0
 10
58.86386932044687
 20
0.1365851170121503
 30
0.0
 10
56.61666806756265
 20
1.248886059113403
 30
0.0
 10
55.29373281106175
 20
1.858985892494838
 30
0.0
 10
54.89507965556733
 20
2.042833304942998
 30
0.0
  0
LINE
  5
BE
330
1F
100
AcDbEntity
  8
0
  6
Continuous
 62
     1
370
    15
100
AcDbLine
 10
75.5
 20
-7.532218149528215
 30
0.0
 11
75.5
 21
-6.262467348422716
 31
0.0
  0
SPLINE
  5
BF
330
1F
100
AcDbEntity
  8
0
  6
Continuous
 62
     1
370
    15
100
AcDbSpline
210
0.0
220
0.0
230
1.0
 70
     8
 71
     3
 72
    32
 73
    28
 74
     0
 42
0.000000001
 43
0.00000001
 40
0.0
 40
0.0
 40
0.0
 40
0.0
 40
0.00379951157691
 40
0.0459841205747916
 40
0.0884617067366817
 40
0.1306462107432416
 40
0.1731232731288296
 40
0.215307753201728
 40
0.2577844608825412
 40
0.2999689891220422
 40
0.3424460831162793
 40
0.3846306107783597
 40
0.4271078668200446
 40
0.4692923505508053
 40
0.5117691220903111
 40
0.5539536161820978
 40
0.5964304045713084
 40
0.6386149774124315
 40
0.6810924803978863
 40
0.7232769698317878
 40
0.7657538408605851
 40
0.80793163912293
 40
0.850401498219458
 40
0.8873017131269023
 40
0.9243979026311255
 40
0.9620948768045278
 40
0.9999999999999999
 40
0.9999999999999999
 40
0.9999999999999999
 40
0.9999999999999999
 10
21.39324571020463
 20
5.321327035575227
 30
0.0
 10
21.461776850924
 20
5.352530186493322
 30
0.0
 10
22.29118457193705
 20
5.730170687143658
 30
0.0
 10
23.88691454463218
 20
6.320581448417927
 30
0.0
 10
26.17466642404402
 20
7.048357755920102
 30
0.0
 10
28.46757613932732
 20
7.567451577442672
 30
0.0
 10
30.75517949253922
 20
7.879996135861647
 30
0.0
 10
33.04806822337321
 20
7.973621154832635
 30
0.0
 10
35.33581606248406
 20
7.846712591266606
 30
0.0
 10
37.62916031208357
 20
7.502135365559181
 30
0.0
 10
39.91708617464589
 20
6.950902829698039
 30
0.0
 10
42.21004770308008
 20
6.205566339032356
 30
0.0
 10
44.49767676768518
 20
5.290100920865759
 30
0.0
 10
46.79052286671764
 20
4.225844272312963
 30
0.0
 10
49.0782086351669
 20
3.04716647884803
 30
0.0
 10
51.37130891462323
 20
1.781663003256108
 30
0.0
 10
53.6594270162375
 20
0.4701699870346656
 30
0.0
 10
55.95248470151371
 20
-0.8578323849484908
 30
0.0
 10
58.24016843245475
 20
-2.15937849743726
 30
0.0
 10
60.53301322136392
 20
-3.404082471176971
 30
0.0
 10
62.82052964339508
 20
-4.551662405801065
 30
0.0
 10
65.1132488214376
 20
-5.575476169259862
 30
0.0
 10
67.3057046603563
 20
-6.40617881935523
 30
0.0
 10
69.40642563130393
 20
-7.049582330260467
 30
0.0
 10
71.42042483029559
 20
-7.513860269571271
 30
0.0
 10
73.45263038993988
 20
-7.831374930058849
 30
0.0
 10
74.81629197763641
 20
-7.897591770820213
 30
0.0
 10
75.49999999999943
 20
-7.93749999999999
 30
0.0
  0
SPLINE
  5
C0
330
1F
100
AcDbEntity
  8
0
  6
Continuous
 62
     1
370
    15
100
AcDbSpline
210
0.0
220
0.0
230
1.0
 70
     8
 71
     3
 72
    17
 73
    13
 74
     0
 42
0.000000001
 43
0.00000001
 40
0.0
 40
0.0
 40
0.0
 40
0.0
 40
0.0931227130659119
 40
0.1980504888300119
 40
0.3029792777573099
 40
0.407908972193914
 40
0.5128394643592366
 40
0.6177706463610333
 40
0.7227024102104661
 40
0.8276346478372008
 40
0.9325672511045251
 40
1.0
 40
1.0
 40
1.0
 40
1.0
 10
55.77911818596738
 20
-0.7540119338121116
 30
0.0
 10
54.958807087225
 20
-0.4236037559608149
 30
0.0
 10
53.21419496468493
 20
0.279098076733497
 30
0.0
 10
50.54526907304507
 20
1.354025462749513
 30
0.0
 10
47.77233375196109
 20
2.413394183583708
 30
0.0
 10
44.99937195046117
 20
3.375561063093969
 30
0.0
 10
42.2263869157045
 20
4.200865288333807
 30
0.0
 10
39.45338176286199
 20
4.855262804544136
 30
0.0
 10
36.68035965487866
 20
5.31520198433825
 30
0.0
 10
33.90732371281536
 20
5.550692730657841
 30
0.0
 10
31.4646149107934
 20
5.589344506118282
 30
0.0
 10
29.9462515945286
 20
5.455258185037342
 30
0.0
 10
29.35223771092
 20
5.402800953312319
 30
0.0
  0
LINE
  5
C1
330
1F
100
AcDbEntity
  8
0
  6
Continuous
 62
     1
370
    15
100
AcDbLine
 10
75.49999999999943
 20
-7.93749999999999
 30
0.0
 11
75.5
 21
-7.532218149528215
 31
0.0
  0
SPLINE
  5
C2
330
1F
100
AcDbEntity
  8
0
  6
Continuous
 62
     1
370
    15
100
AcDbSpline
210
0.0
220
0.0
230
1.0
 70
     8
 71
     3
 72
    16
 73
    12
 74
     0
 42
0.000000001
 43
0.00000001
 40
0.0
 40
0.0
 40
0.0
 40
0.0
 40
0.1195920840770033
 40
0.2401765064609287
 40
0.3496299561268013
 40
0.4598430447890391
 40
0.5691911431694084
 40
0.6792986771950109
 40
0.7886465034239574
 40
0.8987526797519544
 40
1.0
 40
1.0
 40
1.0
 40
1.0
 10
12.0
 20
-0.4163464386632116
 30
0.0
 10
12.83211817511482
 20
-0.8948465142736535
 30
0.0
 10
14.50325918586127
 20
-1.855817111854411
 30
0.0
 10
16.93611263655304
 20
-3.19150698661197
 30
0.0
 10
19.30337671682567
 20
-4.395258561529816
 30
0.0
 10
21.59279922501366
 20
-5.43711149647603
 30
0.0
 10
23.88690132084018
 20
-6.329697265850374
 30
0.0
 10
26.17466952283588
 20
-7.046713374173571
 30
0.0
 10
28.4675768874348
 20
-7.564980100881431
 30
0.0
 10
30.69881553996372
 20
-7.883555905852221
 30
0.0
 10
32.16931295827395
 20
-7.914962819390256
 30
0.0
 10
32.87374380729003
 20
-7.930008067680455
 30
0.0
  0
SPLINE
  5
C3
330
1F
100
AcDbEntity
  8
0
  6
Continuous
 62
     1
370
    15
100
AcDbSpline
210
0.0
220
0.0
230
1.0
 70
     8
 71
     3
 72
    13
 73
     9
 74
     0
 42
0.000000001
 43
0.00000001
 40
0.0
 40
0.0
 40
0.0
 40
0.0
 40
0.0467852977311818
 40
0.2575586594094541
 40
0.440690473551229
 40
0.6247948886256504
 40
0.8118809336621543
 40
0.9999999999999999
 40
0.9999999999999999
 40
0.9999999999999999
 40
0.9999999999999999
 10
64.59797023038402
 20
5.320793641968406
 30
0.0
 10
64.76799038468087
 20
5.397253914970746
 30
0.0
 10
65.7039716680508
 20
5.818176862297388
 30
0.0
 10
67.30571462982016
 20
6.399695230411172
 30
0.0
 10
69.40642310747444
 20
7.051223689619766
 30
0.0
 10
71.42042551690386
 20
7.513413737460499
 30
0.0
 10
73.45263021602736
 20
7.831488033147391
 30
0.0
 10
74.81629191955926
 20
7.897629540985706
 30
0.0
 10
75.49999999999943
 20
7.93750000000001
 30
0.0
  0
SPLINE
  5
C4
330
1F
100
AcDbEntity
  8
0
  6
Continuous
 62
     1
370
    15
100
AcDbSpline
210
0.0
220
0.0
230
1.0
 70
    24
 71
     3
 72
    10
 73
     6
 74
     0
 42
0.000000001
 43
0.00000001
 40
0.0
 40
0.0
 40
0.0
 40
0.0
 40
0.5
 40
0.5
 40
1.0
 40
1.0
 40
1.0
 40
1.0
 10
75.5
 20
5.556249999999999
 30
0.0
 10
75.5
 20
5.893056038408052
 30
0.0
 10
75.50000000000003
 20
6.284455846632742
 30
0.0
 10
75.5
 20
7.105611590126792
 30
0.0
 10
75.5
 20
7.53327039667419
 30
0.0
 10
75.49999999999943
 20
7.93750000000001
 30
0.0
  0
SPLINE
  5
C5
330
1F
100
AcDbEntity
  8
0
  6
Continuous
 62
     1
370
    15
100
AcDbSpline
210
0.0
220
0.0
230
1.0
 70
     8
 71
     3
 72
     9
 73
     5
 74
     0
 42
0.000000001
 43
0.00000001
 40
0.0
 40
0.0
 40
0.0
 40
0.0
 40
0.9395166023051931
 40
1.0
 40
1.0
 40
1.0
 40
1.0
 10
75.5
 20
5.556249999999999
 30
0.0
 10
74.57581477204556
 20
5.553264061155285
 30
0.0
 10
73.59213313652484
 20
5.550085896088923
 30
0.0
 10
72.60844879308152
 20
5.429467755846662
 30
0.0
 10
72.5489522217309
 20
5.422172360901182
 30
0.0
  0
LINE
  5
C6
330
1F
100
AcDbEntity
  8
0
  6
Continuous
 62
     1
370
    15
100
AcDbLine
 10
12.59019774944512
 20
-0.7531842176607467
 30
0.0
 11
12.0
 21
-0.5192737436035012
 31
0.0
  0
SPLINE
  5
C7
330
1F
100
AcDbEntity
  8
외형선
  6
Continuous
370
    15
100
AcDbSpline
210
0.0
220
0.0
230
1.0
 70
    24
 71
     3
 72
    11
 73
     7
 74
     0
 42
0.000000001
 43
0.00000001
 40
0.0
 40
0.0
 40
0.0
 40
0.0
 40
0.2878075188790205
 40
0.6855646040999996
 40
0.8424232322549301
 40
1.0
 40
1.0
 40
1.0
 40
1.0
 10
12.0
 20
-0.2385724409529264
 30
0.0
 10
12.0
 20
-0.2398781935403526
 30
0.0
 10
12.0
 20
-0.2429885283889279
 30
0.0
 10
12.0
 20
-0.3307385486764254
 30
0.0
 10
12.0
 20
-0.4335077212152874
 30
0.0
 10
12.0
 20
-0.490641573436474
 30
0.0
 10
12.0
 20
-0.5192737436031628
 30
0.0
  0
SPLINE
  5
C8
330
1F
100
AcDbEntity
  8
0
  6
Continuous
 62
     1
370
    15
100
AcDbSpline
210
0.0
220
0.0
230
1.0
 70
     8
 71
     3
 72
     8
 73
     4
 74
     0
 42
0.000000001
 43
0.00000001
 40
0.0
 40
0.0
 40
0.0
 40
0.0
 40
1.0
 40
1.0
 40
1.0
 40
1.0
 10
70.58883024581502
 20
2.220079671996133
 30
0.0
 10
70.55890471791474
 20
2.255523819275165
 30
0.0
 10
70.52929209920998
 20
2.290863161820068
 30
0.0
 10
70.50000000000816
 20
2.326095150660535
 30
0.0
  0
LINE
  5
C9
330
1F
100
AcDbEntity
  8
0
  6
Continuous
 62
     1
370
    15
100
AcDbLine
 10
70.50000000000003
 20
2.937719435296594
 30
0.0
 11
75.5
 21
0.0000000000000076
 31
0.0
  0
LINE
  5
CA
330
1F
100
AcDbEntity
  8
0
  6
Continuous
 62
     1
370
    15
100
AcDbLine
 10
75.5
 20
0.0000000000000076
 30
0.0
 11
75.5
 21
-2.121240884110299
 31
0.0
  0
SPLINE
  5
CB
330
1F
100
AcDbEntity
  8
0
  6
Continuous
 62
     1
370
    15
100
AcDbSpline
210
0.0
220
0.0
230
1.0
 70
     8
 71
     3
 72
    12
 73
     8
 74
     0
 42
0.000000001
 43
0.00000001
 40
0.0
 40
0.0
 40
0.0
 40
0.0
 40
0.4999999999999988
 40
0.4999999999999988
 40
0.7499999999999993
 40
0.7499999999999993
 40
1.0
 40
1.0
 40
1.0
 40
1.0
 10
75.5
 20
-2.121240884110299
 30
0.0
 10
74.64985708373018
 20
-1.452887382416911
 30
0.0
 10
73.81391642663289
 20
-0.7571355301524676
 30
0.0
 10
72.58186851419032
 20
0.3286694918016428
 30
0.0
 10
72.17488238863038
 20
0.6977356413040354
 30
0.0
 10
71.36922911848984
 20
1.451916538950693
 30
0.0
 10
70.97274411284292
 20
1.835090379294045
 30
0.0
 10
70.58883024581499
 20
2.220079671996142
 30
0.0
  0
SPLINE
  5
CC
330
1F
100
AcDbEntity
  8
0
  6
Continuous
 62
     1
370
    15
100
AcDbSpline
210
0.0
220
0.0
230
1.0
 70
     8
 71
     3
 72
    15
 73
    11
 74
     0
 42
0.000000001
 43
0.00000001
 40
0.0
 40
0.0
 40
0.0
 40
0.0
 40
0.0931697449996217
 40
0.1863905534236137
 40
0.3380576347407883
 40
0.4897268969390843
 40
0.6413981896490556
 40
0.7930713622195678
 40
0.9447462637385207
 40
1.0
 40
1.0
 40
1.0
 40
1.0
 10
70.588830245726
 20
2.220079672034662
 30
0.0
 10
70.02123310675418
 20
2.462576107478426
 30
0.0
 10
68.88572774656407
 20
2.9477018830808
 30
0.0
 10
66.82616085870927
 20
3.761543054288004
 30
0.0
 10
64.4093882199439
 20
4.616576400784319
 30
0.0
 10
61.63669583970911
 20
5.407799118931194
 30
0.0
 10
58.86387963353993
 20
5.984691331169821
 30
0.0
 10
56.09104623540929
 20
6.302025058213276
 30
0.0
 10
53.90576249558104
 20
6.400285412560963
 30
0.0
 10
52.64475842404222
 20
6.30343888252526
 30
0.0
 10
52.30804724118804
 20
6.277579085225911
 30
0.0
  0
SPLINE
  5
CD
330
1F
100
AcDbEntity
  8
0
  6
Continuous
 62
     1
370
    15
100
AcDbSpline
210
0.0
220
0.0
230
1.0
 70
     8
 71
     3
 72
     9
 73
     5
 74
     0
 42
0.000000001
 43
0.00000001
 40
0.0
 40
0.0
 40
0.0
 40
0.0
 40
0.2486400871113609
 40
0.9999999999999999
 40
0.9999999999999999
 40
0.9999999999999999
 40
0.9999999999999999
 10
15.5062948098285
 20
-5.943921800372703
 30
0.0
 10
15.21569294580228
 20
-5.996822702519919
 30
0.0
 10
14.04692781463471
 20
-6.209583656563195
 30
0.0
 10
12.87816301673628
 20
-6.273890286085833
 30
0.0
 10
12.00000000000001
 20
-6.322207709642123
 30
0.0
  0
SPLINE
  5
CE
330
1F
100
AcDbEntity
  8
0
  6
Continuous
 62
     1
370
    15
100
AcDbSpline
210
0.0
220
0.0
230
1.0
 70
    24
 71
     3
 72
    10
 73
     6
 74
     0
 42
0.000000001
 43
0.00000001
 40
0.0
 40
0.0
 40
0.0
 40
0.0
 40
0.5000000000000001
 40
0.5000000000000001
 40
1.0
 40
1.0
 40
1.0
 40
1.0
 10
75.5
 20
-6.262467348422713
 30
0.0
 10
75.5
 20
-5.782400400217699
 30
0.0
 10
75.50000000000003
 20
-5.175817403507591
 30
0.0
 10
75.5
 20
-3.765570313258519
 30
0.0
 10
75.5
 20
-2.963127829219766
 30
0.0
 10
75.5
 20
-2.121240884110552
 30
0.0
  0
SPLINE
  5
CF
330
1F
100
AcDbEntity
  8
0
  6
Continuous
 62
     1
370
    15
100
AcDbSpline
210
0.0
220
0.0
230
1.0
 70
     8
 71
     3
 72
    24
 73
    20
 74
     0
 42
0.000000001
 43
0.00000001
 40
0.0
 40
0.0
 40
0.0
 40
0.0
 40
0.0556351522318586
 40
0.1150260403402846
 40
0.1744175462616455
 40
0.2338096107238317
 40
0.2932021743770615
 40
0.3525951778021029
 40
0.4119885615185151
 40
0.4713822659929077
 40
0.5307762316472153
 40
0.5901703988669874
 40
0.6495647080096861
 40
0.7089590994129957
 40
0.7683535134031345
 40
0.8277478903031728
 40
0.887142170441351
 40
0.9435711256204272
 40
1.0
 40
1.0
 40
1.0
 40
1.0
 10
58.68857595687566
 20
-5.962197963624893
 30
0.0
 10
57.82273598303986
 20
-6.080963694225837
 30
0.0
 10
56.03260618625939
 20
-6.326512617363767
 30
0.0
 10
53.3181716391098
 20
-6.383965014556034
 30
0.0
 10
50.54526537259704
 20
-6.204127005043541
 30
0.0
 10
47.7723294687162
 20
-5.767323189952824
 30
0.0
 10
44.99936719399906
 20
-5.09815381475913
 30
0.0
 10
42.22638165647564
 20
-4.221899721473705
 30
0.0
 10
39.45337600876329
 20
-3.174580538613942
 30
0.0
 10
36.6803534035427
 20
-1.9985237346403
 30
0.0
 10
33.90731696587666
 20
-0.7414478586620503
 30
0.0
 10
31.13426994576778
 20
0.5456990126397709
 30
0.0
 10
28.36121513291125
 20
1.810697217102338
 30
0.0
 10
25.58815704243207
 20
3.002377249847773
 30
0.0
 10
22.81509375446941
 20
4.071984676520948
 30
0.0
 10
20.0420473674
 20
4.977791966169865
 30
0.0
 10
17.31509789992622
 20
5.665325334169102
 30
0.0
 10
14.63449823287528
 20
6.141238422990406
 30
0.0
 10
12.87816565848183
 20
6.261884642883395
 30
0.0
 10
12.00000000000001
 20
6.322207709642123
 30
0.0
  0
SPLINE
  5
D0
330
1F
100
AcDbEntity
  8
외형선
  6
Continuous
370
    15
100
AcDbSpline
210
0.0
220
0.0
230
1.0
 70
    24
 71
     3
 72
    14
 73
    10
 74
     0
 42
0.000000001
 43
0.00000001
 40
0.0
 40
0.0
 40
0.0
 40
0.0
 40
0.2499999999999998
 40
0.2499999999999998
 40
0.4999999999999999
 40
0.4999999999999999
 40
0.75
 40
0.75
 40
1.0
 40
1.0
 40
1.0
 40
1.0
 10
12.00000000000001
 20
6.322207709642123
 30
0.0
 10
12.00000000000001
 20
6.19493994942818
 30
0.0
 10
12.00000000000001
 20
6.000977212291249
 30
0.0
 10
12.00000000000001
 20
5.479209529017084
 30
0.0
 10
12.00000000000001
 20
5.151400915945493
 30
0.0
 10
12.00000000000001
 20
4.380971619966893
 30
0.0
 10
12.00000000000001
 20
3.938573413653333
 30
0.0
 10
12.00000000000001
 20
2.974582531167196
 30
0.0
 10
12.00000000000001
 20
2.453334413084552
 30
0.0
 10
12.00000000000001
 20
1.914081363125579
 30
0.0
  0
SPLINE
  5
D1
330
1F
100
AcDbEntity
  8
0
  6
Continuous
 62
     1
370
    15
100
AcDbSpline
210
0.0
220
0.0
230
1.0
 70
     8
 71
     3
 72
    10
 73
     6
 74
     0
 42
0.000000001
 43
0.00000001
 40
0.0
 40
0.0
 40
0.0
 40
0.0
 40
0.5
 40
0.5
 40
1.0
 40
1.0
 40
1.0
 40
1.0
 10
75.5
 20
5.556250000000007
 30
0.0
 10
74.68340404815336
 20
5.334809564106329
 30
0.0
 10
73.87174692733265
 20
5.086103314051067
 30
0.0
 10
72.25913907929083
 20
4.52958400573025
 30
0.0
 10
71.45925656940432
 20
4.222666859573504
 30
0.0
 10
70.6684913161142
 20
3.876674191206887
 30
0.0
  0
SPLINE
  5
D2
330
1F
100
AcDbEntity
  8
0
  6
Continuous
 62
     1
370
    15
100
AcDbSpline
210
0.0
220
0.0
230
1.0
 70
    24
 71
     3
 72
     8
 73
     4
 74
     0
 42
0.000000001
 43
0.00000001
 40
0.0
 40
0.0
 40
0.0
 40
0.0
 40
1.0
 40
1.0
 40
1.0
 40
1.0
 10
70.6684913161142
 20
3.876674191206894
 30
0.0
 10
70.6130816833712
 20
3.83017998880857
 30
0.0
 10
70.55690809952009
 20
3.78304475531719
 30
0.0
 10
70.50000000000003
 20
3.7352931899989
 30
0.0
  0
SPLINE
  5
D3
330
1F
100
AcDbEntity
  8
0
  6
Continuous
 62
     1
370
    15
100
AcDbSpline
210
0.0
220
0.0
230
1.0
 70
    24
 71
     3
 72
     8
 73
     4
 74
     0
 42
0.000000001
 43
0.00000001
 40
0.0
 40
0.0
 40
0.0
 40
0.0
 40
1.0
 40
1.0
 40
1.0
 40
1.0
 10
70.5
 20
2.326095150670328
 30
0.0
 10
70.5
 20
2.844328698008606
 30
0.0
 10
70.50000000000003
 20
3.32369433687501
 30
0.0
 10
70.50000000000003
 20
3.735293189998748
 30
0.0
  0
SPLINE
  5
D4
330
1F
100
AcDbEntity
  8
외형선
  6
Continuous
370
    15
100
AcDbSpline
210
0.0
220
0.0
230
1.0
 70
    24
 71
     3
 72
    14
 73
    10
 74
     0
 42
0.000000001
 43
0.00000001
 40
0.0
 40
0.0
 40
0.0
 40
0.0
 40
0.2499999999999998
 40
0.2499999999999998
 40
0.4999999999999998
 40
0.4999999999999998
 40
0.7499999999999999
 40
0.7499999999999999
 40
1.0
 40
1.0
 40
1.0
 40
1.0
 10
12.0
 20
-0.5192737436035012
 30
0.0
 10
12.0
 20
-1.189297090609494
 30
0.0
 10
12.0
 20
-1.854697278448077
 30
0.0
 10
12.0
 20
-3.107482502929041
 30
0.0
 10
12.0
 20
-3.694106807433727
 30
0.0
 10
12.0
 20
-4.725455478226786
 30
0.0
 10
12.0
 20
-5.169630298824507
 30
0.0
 10
12.0
 20
-5.879636963271182
 30
0.0
 10
12.0
 20
-6.145470436756987
 30
0.0
 10
12.0
 20
-6.322207709642123
 30
0.0
  0
LINE
  5
D5
330
1F
100
AcDbEntity
  8
0
  6
Continuous
 62
     1
370
    15
100
AcDbLine
 10
75.5
 20
0.0000000000000076
 30
0.0
 11
75.5
 21
5.556250000000003
 31
0.0
  0
LINE
  5
D6
330
1F
100
AcDbEntity
  8
중심선
 48
0.8
100
AcDbLine
 10
-44.97499999999999
 20
-0.0000000000000055
 30
0.0
 11
78.5
 21
0.0000000000000096
 31
0.0
  0
LINE
  5
D7
330
1F
100
AcDbEntity
  8
참조1
100
AcDbLine
 10
19.61176131403117
 20
0.0010749287238892
 30
0.0
 11
19.61176131403117
 21
-39.99892507127611
 31
0.0
  0
LINE
  5
D8
330
1F
100
AcDbEntity
  8
참조1
100
AcDbLine
 10
19.61176131403117
 20
-39.99892507127611
 30
0.0
 11
-20.15080122126847
 21
-39.9989250712761
 31
0.0
  0
CIRCLE
  5
D9
330
1F
100
AcDbEntity
  8
해칭선
100
AcDbCircle
 10
0.0
 20
0.0
 30
0.0
 40
2.999999999999995
  0
INSERT
  5
DA
330
1F
100
AcDbEntity
  8
0
  6
Continuous
 62
     7
100
AcDbBlockReference
 66
     1
  2
블럭10
 10
2.822227067874803
 20
-52.04717430164393
 30
0.0
  0
ATTRIB
  5
DB
330
DA
100
AcDbEntity
  8
FORMAT
 62
     2
100
AcDbText
 10
-6.359068220866476
 20
-49.97180738881174
 30
0.0
 40
4.233333333333333
  1
E1071040 [ 2 FLUTE ]
 41
0.75
  7
SLDTEXTSTYLE0
 11
-6.359068220866476
 21
-52.08847405547841
 31
0.0
100
AcDbAttribute
  2
AUTOATTR0
 70
     0
 74
     1
  0
SEQEND
  5
DC
330
DA
100
AcDbEntity
  8
0
  6
Continuous
 62
     7
  0
HATCH
  5
DD
330
1F
100
AcDbEntity
  8
중심선
100
AcDbHatch
 10
0.0
 20
0.0
 30
0.0
210
0.0
220
0.0
230
1.0
  2
SOLID
 70
     1
 71
     0
 91
        1
 92
        0
 93
        4
 72
     1
 10
8.537136372255638
 20
-35.8
 11
5.090861128418355
 21
-35.8
 72
     1
 10
5.090861128418355
 20
-35.8
 11
2.962631269214333
 21
-38.3363255805726
 72
     1
 10
2.962631269214333
 20
-38.3363255805726
 11
6.408939598164791
 21
-38.33628615127011
 72
     1
 10
6.408939598164791
 20
-38.33628615127011
 11
8.537136372255638
 21
-35.8
 97
        0
 75
     0
 76
     1
 98
        1
 10
-2.84926131403116
 20
-0.0010749287238943
  0
HATCH
  5
DE
330
1F
100
AcDbEntity
  8
중심선
100
AcDbHatch
 10
0.0
 20
0.0
 30
0.0
210
0.0
220
0.0
230
1.0
  2
SOLID
 70
     1
 71
     0
 91
        1
 92
        0
 93
        4
 72
     1
 10
13.54990036329162
 20
-35.79999999999998
 11
10.10362511945436
 21
-35.79999999999998
 72
     1
 10
10.10362511945436
 20
-35.79999999999998
 11
5.572487111096917
 21
-41.20000000000002
 72
     1
 10
5.572487111096917
 20
-41.20000000000002
 11
9.0187623549342
 21
-41.20000000000002
 72
     1
 10
9.0187623549342
 20
-41.20000000000002
 11
13.54990036329162
 21
-35.79999999999998
 97
        0
 75
     0
 76
     1
 98
        1
 10
-2.84926131403116
 20
-0.0010749287238943
  0
HATCH
  5
DF
330
1F
100
AcDbEntity
  8
중심선
100
AcDbHatch
 10
0.0
 20
0.0
 30
0.0
210
0.0
220
0.0
230
1.0
  2
SOLID
 70
     1
 71
     0
 91
        1
 92
        0
 93
        4
 72
     1
 10
18.56266435432754
 20
-35.79999999999998
 11
15.11638911049037
 21
-35.8
 72
     1
 10
15.11638911049037
 20
-35.8
 11
8.067952208601119
 21
-44.20000000000002
 72
     1
 10
8.067952208601119
 20
-44.20000000000002
 11
11.5142274524384
 21
-44.20000000000002
 72
     1
 10
11.5142274524384
 20
-44.20000000000002
 11
18.56266435432754
 21
-35.79999999999998
 97
        0
 75
     0
 76
     1
 98
        1
 10
-2.84926131403116
 20
-0.0010749287238943
  0
HATCH
  5
E0
330
1F
100
AcDbEntity
  8
중심선
100
AcDbHatch
 10
0.0
 20
0.0
 30
0.0
210
0.0
220
0.0
230
1.0
  2
SOLID
 70
     1
 71
     0
 91
        1
 92
        0
 93
        6
 72
     3
 10
23.36255478533968
 20
-40.00000000005127
 11
3.960054785062283
 21
1.540882976769353E-10
 40
0.3939339440162628
 50
17.09539180608436
 51
320.0019657685075
 73
     0
 72
     1
 10
25.04555444104028
 20
-38.58789400463827
 11
27.35085631474137
 21
-36.65356729459035
 72
     3
 10
23.36255478528684
 20
-40.00000000000015
 11
6.600054785286833
 21
-1.278976924368180E-13
 40
0.6363583540795976
 50
39.99873849337396
 51
368.4976242363725
 73
     1
 72
     1
 10
29.78788727718744
 20
-39.03999999993002
 11
22.04262209212276
 21
-39.03999999993
 72
     1
 10
22.04262209212276
 20
-39.03999999993
 11
22.04259704767682
 21
-40.95999999992991
 72
     1
 10
22.04259704767682
 20
-40.95999999992991
 11
26.48397681714886
 21
-40.95999999992988
 97
        0
 75
     0
 76
     1
 98
        1
 10
-2.84926131403116
 20
-0.0010749287238943
  0
DIMENSION
  5
E1
330
1F
100
AcDbEntity
  8
치수문자_일반주서
100
AcDbDimension
  2
_D
 10
-54.47499999999997
 20
-7.937500000000066
 30
0.0
 11
-54.475
 21
-0.0000000000000081
 31
0.0
 70
   160
  1
%%c<>
 71
     2
 42
15.875
 52
-270.0
  3
SLDDIMSTYLE0
100
AcDbAlignedDimension
 13
-40.97499999999999
 23
7.937499999999985
 33
0.0
 14
-40.97499999999999
 24
-7.937500000000015
 34
0.0
 50
90.0000000000002
100
AcDbRotatedDimension
1001
ACAD
1000
DSTYLE
1002
{
1070
   171
1070
     6
1070
   273
1070
     7
1002
}
  0
DIMENSION
  5
F6
330
1F
100
AcDbEntity
  8
치수문자_일반주서
100
AcDbDimension
  2
_D_1
 10
12.00000000000001
 20
21.10713307670824
 30
0.0
 11
43.75000000000001
 21
21.10713307670824
 31
0.0
 70
   160
  1
<>
 71
     2
 42
63.49999999999942
  3
SLDDIMSTYLE0
100
AcDbAlignedDimension
 13
75.49999999999943
 23
7.937500000000012
 33
0.0
 14
12.00000000000001
 24
6.322207709642123
 34
0.0
 50
0.0000000000000032
100
AcDbRotatedDimension
1001
ACAD
1000
DSTYLE
1002
{
1070
   171
1070
     6
1070
   273
1070
     7
1002
}
  0
DIMENSION
  5
10B
330
1F
100
AcDbEntity
  8
치수문자_일반주서
100
AcDbDimension
  2
_D_2
 10
-41.97499999999998
 20
38.05774771491232
 30
0.0
 11
16.76250000000001
 21
38.05774771491232
 31
0.0
 70
   160
  1
<>
 71
     2
 42
117.4749999999994
  3
SLDDIMSTYLE0
100
AcDbAlignedDimension
 13
75.49999999999943
 23
7.93750000000001
 33
0.0
 14
-41.97499999999998
 24
6.937499999999989
 34
0.0
 50
0.0000000000000069
100
AcDbRotatedDimension
1001
ACAD
1000
DSTYLE
1002
{
1070
   171
1070
     6
1070
   273
1070
     7
1002
}
  0
DIMENSION
  5
11F
330
1F
100
AcDbEntity
  8
치수문자_일반주서
100
AcDbDimension
  2
_D_3
 10
90.8068364904632
 20
7.937500000000071
 30
0.0
 11
90.80683649046313
 21
28.75354134588542
 31
0.0
 70
   160
  1
%%c<>
 71
     2
 42
15.875
 52
-270.0
  3
SLDDIMSTYLE0
100
AcDbAlignedDimension
 13
75.49999999999943
 23
-7.93749999999999
 33
0.0
 14
75.49999999999943
 24
7.937500000000012
 34
0.0
 50
90.0000000000002
100
AcDbRotatedDimension
1001
ACAD
1000
DSTYLE
1002
{
1070
   171
1070
     6
1070
   273
1070
     7
1002
}
  0
LINE
  5
132
330
1F
100
AcDbEntity
  8
참조1
100
AcDbLine
 10
77.82153940838579
 20
7.441074928723896
 30
0.0
 11
77.82153940838579
 21
-7.438925071276109
 31
0.0
  0
LINE
  5
133
330
1F
100
AcDbEntity
  8
참조1
100
AcDbLine
 10
90.52153940838579
 20
5.441074928723896
 30
0.0
 11
77.82153940838579
 21
5.441074928723896
 31
0.0
  0
SOLID
  5
134
330
1F
100
AcDbEntity
  8
참조1
100
AcDbTrace
 10
77.82153940838579
 20
5.441074928723896
 30
0.0
 11
84.17153940838578
 21
4.425074928723896
 31
0.0
 12
84.17153940838578
 22
6.457074928723896
 32
0.0
 13
84.17153940838578
 23
6.457074928723896
 33
0.0
  0
LINE
  5
135
330
1F
100
AcDbEntity
  8
참조1
100
AcDbLine
 10
90.52153940838579
 20
-5.438925071276109
 30
0.0
 11
77.82153940838579
 21
-5.438925071276109
 31
0.0
  0
SOLID
  5
136
330
1F
100
AcDbEntity
  8
참조1
100
AcDbTrace
 10
77.82153940838579
 20
-5.438925071276109
 30
0.0
 11
84.17153940838578
 21
-6.454925071276109
 31
0.0
 12
84.17153940838578
 22
-4.422925071276109
 32
0.0
 13
84.17153940838578
 23
-4.422925071276109
 33
0.0
  0
MTEXT
  5
137
330
1F
100
AcDbEntity
  8
참조1
100
AcDbMText
 10
87.20588954101179
 20
11.01136670591222
 30
0.0
 40
3.5
 41
0.0
 71
     1
 72
     1
  1
A
  7
SLDTEXTSTYLE0
 73
     1
 44
1.0
  0
MTEXT
  5
138
330
1F
100
AcDbEntity
  8
참조1
100
AcDbMText
 10
87.20588954101179
 20
0.1313667059122192
 30
0.0
 40
3.5
 41
0.0
 71
     1
 72
     1
  1
A
  7
SLDTEXTSTYLE0
 73
     1
 44
1.0
  0
INSERT
  5
13F
330
1F
100
AcDbEntity
  8
해칭선
100
AcDbBlockReference
  2
SW_DOWELSYMBOL_0
 10
0.0
 20
0.0
 30
0.0
  0
LINE
  5
1F6
330
1F
100
AcDbEntity
  8
외형선
  6
Continuous
370
    15
100
AcDbLine
 10
-22.85832499999999
 20
6.286499999999961
 30
0.0
 11
-12.67292499999998
 21
6.286499999999961
 31
0.0
  0
LINE
  5
1F7
330
1F
100
AcDbEntity
  8
외형선
  6
Continuous
370
    15
100
AcDbLine
 10
-22.85832499999999
 20
6.286500000000061
 30
0.0
 11
-24.50932499999995
 21
7.937499999999972
 31
0.0
  0
LINE
  5
1F8
330
1F
100
AcDbEntity
  8
외형선
  6
Continuous
370
    15
100
AcDbLine
 10
-12.67292500000009
 20
6.286500000000061
 30
0.0
 11
-11.02192500000008
 21
7.937499999999972
 31
0.0
  0
LINE
  5
1F9
330
1F
100
AcDbEntity
  8
외형선
  6
Continuous
370
    15
100
AcDbLine
 10
-24.50932499999998
 20
7.937499999999996
 30
0.0
 11
-40.97499999999999
 21
7.937499999999996
 31
0.0
  0
ENDSEC
  0
SECTION
  2
OBJECTS
  0
DICTIONARY
  5
C
330
0
100
AcDbDictionary
281
     1
  3
ACAD_GROUP
350
D
  3
ACAD_IMAGE_VARS
350
163
  3
ACAD_LAYOUT
350
1A
  3
ACAD_MLINESTYLE
350
17
  3
ACAD_PLOTSETTINGS
350
19
  3
ACAD_PLOTSTYLENAME
350
E
  3
ACAD_SCALELIST
350
47
  3
APPDATA
350
161
  3
DWGPROPS
350
1FA
  0
DICTIONARY
  5
18A
330
2
100
AcDbDictionary
280
     1
281
     1
  3
ACAD_LAYERSTATES
360
18B
  0
DICTIONARY
  5
D
102
{ACAD_REACTORS
330
C
102
}
330
C
100
AcDbDictionary
281
     1
  0
RASTERVARIABLES
  5
163
102
{ACAD_REACTORS
330
C
102
}
330
C
100
AcDbRasterVariables
 90
        0
 70
     1
 71
     1
 72
     1
  0
DICTIONARY
  5
1A
102
{ACAD_REACTORS
330
C
102
}
330
C
100
AcDbDictionary
281
     1
  3
Layout1
350
1E
  3
Layout2
350
26
  3
Model
350
22
  0
DICTIONARY
  5
17
102
{ACAD_REACTORS
330
C
102
}
330
C
100
AcDbDictionary
281
     1
  3
Standard
350
18
  0
DICTIONARY
  5
19
102
{ACAD_REACTORS
330
C
102
}
330
C
100
AcDbDictionary
281
     1
  0
ACDBDICTIONARYWDFLT
  5
E
102
{ACAD_REACTORS
330
C
102
}
330
C
100
AcDbDictionary
281
     1
  3
Normal
350
F
100
AcDbDictionaryWithDefault
340
F
  0
DICTIONARY
  5
47
102
{ACAD_REACTORS
330
C
102
}
330
C
100
AcDbDictionary
281
     1
  3
A0
350
48
  3
A1
350
49
  3
A2
350
4A
  3
A3
350
4B
  3
A4
350
4C
  3
A5
350
4D
  3
A6
350
4E
  3
A7
350
4F
  3
A8
350
50
  3
A9
350
51
  3
B0
350
52
  3
B1
350
53
  3
B2
350
54
  3
B3
350
55
  3
B4
350
56
  3
B5
350
57
  3
B6
350
58
  3
B7
350
59
  3
B8
350
5A
  3
B9
350
5B
  3
C0
350
5C
  3
C1
350
5D
  3
C2
350
5E
  3
C3
350
5F
  3
C4
350
60
  3
C5
350
61
  3
C6
350
62
  3
C7
350
63
  3
C8
350
64
  3
C9
350
65
  3
D0
350
66
  3
D1
350
67
  3
D2
350
68
  0
DICTIONARY
  5
161
102
{ACAD_REACTORS
330
C
102
}
330
C
100
AcDbDictionary
281
     1
  0
XRECORD
  5
1FA
102
{ACAD_REACTORS
330
C
102
}
330
C
100
AcDbXrecord
280
     1
  1
DWGPROPS COOKIE
  2

  3

  4

  6

  7

  8
12016016
  9

300
=
301
=
302
=
303
=
304
=
305
=
306
=
307
=
308
=
309
=
 40
0.0
 41
2458311.09122669
 42
2458318.300795544
  1

 90
        0
  0
DICTIONARY
  5
18B
102
{ACAD_REACTORS
330
18A
102
}
330
18A
100
AcDbDictionary
281
     1
  0
LAYOUT
  5
1E
102
{ACAD_REACTORS
330
1A
102
}
330
1A
100
AcDbPlotSettings
  1

  2
none_device
  4

  6

 40
0.0
 41
0.0
 42
0.0
 43
0.0
 44
0.0
 45
0.0
 46
0.0
 47
0.0
 48
0.0
 49
0.0
140
0.0
141
0.0
142
1.0
143
1.0
 70
   688
 72
     1
 73
     0
 74
     5
  7

 75
    16
147
1.0
148
0.0
149
0.0
100
AcDbLayout
  1
Layout1
 70
     1
 71
     1
 10
0.0
 20
0.0
 11
420.0
 21
297.0
 12
0.0
 22
0.0
 32
0.0
 14
1.000000000000000E+20
 24
1.000000000000000E+20
 34
1.000000000000000E+20
 15
-1.000000000000000E+20
 25
-1.000000000000000E+20
 35
-1.000000000000000E+20
146
0.0
 13
0.0
 23
0.0
 33
0.0
 16
1.0
 26
0.0
 36
0.0
 17
0.0
 27
1.0
 37
0.0
 76
     0
330
1B
  0
LAYOUT
  5
26
102
{ACAD_REACTORS
330
1A
102
}
330
1A
100
AcDbPlotSettings
  1

  2
none_device
  4

  6

 40
0.0
 41
0.0
 42
0.0
 43
0.0
 44
0.0
 45
0.0
 46
0.0
 47
0.0
 48
0.0
 49
0.0
140
0.0
141
0.0
142
1.0
143
1.0
 70
   688
 72
     1
 73
     0
 74
     5
  7

 75
    16
147
1.0
148
0.0
149
0.0
100
AcDbLayout
  1
Layout2
 70
     1
 71
     2
 10
0.0
 20
0.0
 11
0.0
 21
0.0
 12
0.0
 22
0.0
 32
0.0
 14
0.0
 24
0.0
 34
0.0
 15
0.0
 25
0.0
 35
0.0
146
0.0
 13
0.0
 23
0.0
 33
0.0
 16
1.0
 26
0.0
 36
0.0
 17
0.0
 27
1.0
 37
0.0
 76
     0
330
23
  0
LAYOUT
  5
22
102
{ACAD_REACTORS
330
1A
102
}
330
1A
100
AcDbPlotSettings
  1

  2
none_device
  4
ANSI_A_(11.00_x_8.50_Inches)
  6

 40
6.35
 41
19.05
 42
6.35000508
 43
19.05000254
 44
279.4
 45
215.9
 46
75.19444040026141
 47
68.64001483650289
 48
0.0
 49
0.0
140
0.0
141
0.0
142
0.050552401175446
143
1.0
 70
  1696
 72
     0
 73
     0
 74
     0
  7

 75
     0
147
0.0235690232323232
148
0.0
149
0.0
100
AcDbLayout
  1
Model
 70
     1
 71
     0
 10
0.0
 20
0.0
 11
420.0
 21
297.0
 12
0.0
 22
0.0
 32
0.0
 14
1.000000000000000E+20
 24
1.000000000000000E+20
 34
1.000000000000000E+20
 15
-1.000000000000000E+20
 25
-1.000000000000000E+20
 35
-1.000000000000000E+20
146
0.0
 13
0.0
 23
0.0
 33
0.0
 16
1.0
 26
0.0
 36
0.0
 17
0.0
 27
1.0
 37
0.0
 76
     0
330
1F
331
29
  0
MLINESTYLE
  5
18
102
{ACAD_REACTORS
330
17
102
}
330
17
100
AcDbMlineStyle
  2
Standard
 70
     0
  3

 62
   256
 51
90.0
 52
90.0
 71
     2
 49
0.5
 62
   256
  6
BYLAYER
 49
-0.5
 62
   256
  6
BYLAYER
  0
ACDBPLACEHOLDER
  5
F
102
{ACAD_REACTORS
330
E
102
}
330
E
  0
SCALE
  5
48
102
{ACAD_REACTORS
330
47
102
}
330
47
100
AcDbScale
 70
     0
300
1:1
140
1.0
141
1.0
290
     1
  0
SCALE
  5
49
102
{ACAD_REACTORS
330
47
102
}
330
47
100
AcDbScale
 70
     0
300
1:2
140
1.0
141
2.0
290
     0
  0
SCALE
  5
4A
102
{ACAD_REACTORS
330
47
102
}
330
47
100
AcDbScale
 70
     0
300
1:4
140
1.0
141
4.0
290
     0
  0
SCALE
  5
4B
102
{ACAD_REACTORS
330
47
102
}
330
47
100
AcDbScale
 70
     0
300
1:5
140
1.0
141
5.0
290
     0
  0
SCALE
  5
4C
102
{ACAD_REACTORS
330
47
102
}
330
47
100
AcDbScale
 70
     0
300
1:8
140
1.0
141
8.0
290
     0
  0
SCALE
  5
4D
102
{ACAD_REACTORS
330
47
102
}
330
47
100
AcDbScale
 70
     0
300
1:10
140
1.0
141
10.0
290
     0
  0
SCALE
  5
4E
102
{ACAD_REACTORS
330
47
102
}
330
47
100
AcDbScale
 70
     0
300
1:16
140
1.0
141
16.0
290
     0
  0
SCALE
  5
4F
102
{ACAD_REACTORS
330
47
102
}
330
47
100
AcDbScale
 70
     0
300
1:20
140
1.0
141
20.0
290
     0
  0
SCALE
  5
50
102
{ACAD_REACTORS
330
47
102
}
330
47
100
AcDbScale
 70
     0
300
1:30
140
1.0
141
30.0
290
     0
  0
SCALE
  5
51
102
{ACAD_REACTORS
330
47
102
}
330
47
100
AcDbScale
 70
     0
300
1:40
140
1.0
141
40.0
290
     0
  0
SCALE
  5
52
102
{ACAD_REACTORS
330
47
102
}
330
47
100
AcDbScale
 70
     0
300
1:50
140
1.0
141
50.0
290
     0
  0
SCALE
  5
53
102
{ACAD_REACTORS
330
47
102
}
330
47
100
AcDbScale
 70
     0
300
1:100
140
1.0
141
100.0
290
     0
  0
SCALE
  5
54
102
{ACAD_REACTORS
330
47
102
}
330
47
100
AcDbScale
 70
     0
300
2:1
140
2.0
141
1.0
290
     0
  0
SCALE
  5
55
102
{ACAD_REACTORS
330
47
102
}
330
47
100
AcDbScale
 70
     0
300
4:1
140
4.0
141
1.0
290
     0
  0
SCALE
  5
56
102
{ACAD_REACTORS
330
47
102
}
330
47
100
AcDbScale
 70
     0
300
8:1
140
8.0
141
1.0
290
     0
  0
SCALE
  5
57
102
{ACAD_REACTORS
330
47
102
}
330
47
100
AcDbScale
 70
     0
300
10:1
140
10.0
141
1.0
290
     0
  0
SCALE
  5
58
102
{ACAD_REACTORS
330
47
102
}
330
47
100
AcDbScale
 70
     0
300
100:1
140
100.0
141
1.0
290
     0
  0
SCALE
  5
59
102
{ACAD_REACTORS
330
47
102
}
330
47
100
AcDbScale
 70
     0
300
1/128" = 1'-0"
140
0.0078125
141
12.0
290
     0
  0
SCALE
  5
5A
102
{ACAD_REACTORS
330
47
102
}
330
47
100
AcDbScale
 70
     0
300
1/64" = 1'-0"
140
0.015625
141
12.0
290
     0
  0
SCALE
  5
5B
102
{ACAD_REACTORS
330
47
102
}
330
47
100
AcDbScale
 70
     0
300
1/32" = 1'-0"
140
0.03125
141
12.0
290
     0
  0
SCALE
  5
5C
102
{ACAD_REACTORS
330
47
102
}
330
47
100
AcDbScale
 70
     0
300
1/16" = 1'-0"
140
0.0625
141
12.0
290
     0
  0
SCALE
  5
5D
102
{ACAD_REACTORS
330
47
102
}
330
47
100
AcDbScale
 70
     0
300
3/32" = 1'-0"
140
0.09375
141
12.0
290
     0
  0
SCALE
  5
5E
102
{ACAD_REACTORS
330
47
102
}
330
47
100
AcDbScale
 70
     0
300
1/8" = 1'-0"
140
0.125
141
12.0
290
     0
  0
SCALE
  5
5F
102
{ACAD_REACTORS
330
47
102
}
330
47
100
AcDbScale
 70
     0
300
3/16" = 1'-0"
140
0.1875
141
12.0
290
     0
  0
SCALE
  5
60
102
{ACAD_REACTORS
330
47
102
}
330
47
100
AcDbScale
 70
     0
300
1/4" = 1'-0"
140
0.25
141
12.0
290
     0
  0
SCALE
  5
61
102
{ACAD_REACTORS
330
47
102
}
330
47
100
AcDbScale
 70
     0
300
3/8" = 1'-0"
140
0.375
141
12.0
290
     0
  0
SCALE
  5
62
102
{ACAD_REACTORS
330
47
102
}
330
47
100
AcDbScale
 70
     0
300
1/2" = 1'-0"
140
0.5
141
12.0
290
     0
  0
SCALE
  5
63
102
{ACAD_REACTORS
330
47
102
}
330
47
100
AcDbScale
 70
     0
300
3/4" = 1'-0"
140
0.75
141
12.0
290
     0
  0
SCALE
  5
64
102
{ACAD_REACTORS
330
47
102
}
330
47
100
AcDbScale
 70
     0
300
1" = 1'-0"
140
1.0
141
12.0
290
     0
  0
SCALE
  5
65
102
{ACAD_REACTORS
330
47
102
}
330
47
100
AcDbScale
 70
     0
300
1-1/2" = 1'-0"
140
1.5
141
12.0
290
     0
  0
SCALE
  5
66
102
{ACAD_REACTORS
330
47
102
}
330
47
100
AcDbScale
 70
     0
300
3" = 1'-0"
140
3.0
141
12.0
290
     0
  0
SCALE
  5
67
102
{ACAD_REACTORS
330
47
102
}
330
47
100
AcDbScale
 70
     0
300
6" = 1'-0"
140
6.0
141
12.0
290
     0
  0
SCALE
  5
68
102
{ACAD_REACTORS
330
47
102
}
330
47
100
AcDbScale
 70
     0
300
1'-0" = 1'-0"
140
12.0
141
12.0
290
     0
  0
ENDSEC
  0
EOF
