  0
SECTION
  2
HEADER
  9
$ACADVER
  1
AC1015
  9
$ACADMAINTVER
 70
     6
  9
$DWGCODEPAGE
  3
ANSI_949
  9
$INSBASE
 10
0.0
 20
0.0
 30
0.0
  9
$EXTMIN
 10
1.000000000000000E+20
 20
1.000000000000000E+20
 30
1.000000000000000E+20
  9
$EXTMAX
 10
-1.000000000000000E+20
 20
-1.000000000000000E+20
 30
-1.000000000000000E+20
  9
$LIMMIN
 10
0.0
 20
0.0
  9
$LIMMAX
 10
420.0
 20
297.0
  9
$ORTHOMODE
 70
     1
  9
$REGENMODE
 70
     1
  9
$FILLMODE
 70
     1
  9
$QTEXTMODE
 70
     0
  9
$MIRRTEXT
 70
     1
  9
$LTSCALE
 40
1.0
  9
$ATTMODE
 70
     1
  9
$TEXTSIZE
 40
3.5
  9
$TRACEWID
 40
1.0
  9
$TEXTSTYLE
  7
Standard
  9
$CLAYER
  8
0
  9
$CELTYPE
  6
ByLayer
  9
$CECOLOR
 62
   256
  9
$CELTSCALE
 40
1.0
  9
$DISPSILH
 70
     0
  9
$DIMSCALE
 40
1.0
  9
$DIMASZ
 40
3.302
  9
$DIMEXO
 40
1.0
  9
$DIMDLI
 40
3.75
  9
$DIMRND
 40
0.0
  9
$DIMDLE
 40
0.0
  9
$DIMEXE
 40
1.0
  9
$DIMTP
 40
0.0
  9
$DIMTM
 40
0.0
  9
$DIMTXT
 40
3.5
  9
$DIMCEN
 40
2.5
  9
$DIMTSZ
 40
0.0
  9
$DIMTOL
 70
     0
  9
$DIMLIM
 70
     0
  9
$DIMTIH
 70
     1
  9
$DIMTOH
 70
     1
  9
$DIMSE1
 70
     0
  9
$DIMSE2
 70
     0
  9
$DIMTAD
 70
     1
  9
$DIMZIN
 70
     0
  9
$DIMBLK
  1

  9
$DIMASO
 70
     1
  9
$DIMSHO
 70
     1
  9
$DIMPOST
  1

  9
$DIMAPOST
  1

  9
$DIMALT
 70
     0
  9
$DIMALTD
 70
     3
  9
$DIMALTF
 40
0.0393700787401575
  9
$DIMLFAC
 40
1.0
  9
$DIMTOFL
 70
     1
  9
$DIMTVP
 40
0.0
  9
$DIMTIX
 70
     0
  9
$DIMSOXD
 70
     0
  9
$DIMSAH
 70
     0
  9
$DIMBLK1
  1

  9
$DIMBLK2
  1

  9
$DIMSTYLE
  2
ISO-25
  9
$DIMCLRD
 70
     0
  9
$DIMCLRE
 70
     0
  9
$DIMCLRT
 70
     0
  9
$DIMTFAC
 40
1.0
  9
$DIMGAP
 40
1.524
  9
$DIMJUST
 70
     0
  9
$DIMSD1
 70
     0
  9
$DIMSD2
 70
     0
  9
$DIMTOLJ
 70
     0
  9
$DIMTZIN
 70
     0
  9
$DIMALTZ
 70
     0
  9
$DIMALTTZ
 70
     0
  9
$DIMUPT
 70
     0
  9
$DIMDEC
 70
     2
  9
$DIMTDEC
 70
     2
  9
$DIMALTU
 70
     2
  9
$DIMALTTD
 70
     3
  9
$DIMTXSTY
  7
Standard
  9
$DIMAUNIT
 70
     0
  9
$DIMADEC
 70
     2
  9
$DIMALTRND
 40
0.0
  9
$DIMAZIN
 70
     0
  9
$DIMDSEP
 70
    44
  9
$DIMATFIT
 70
     3
  9
$DIMFRAC
 70
     0
  9
$DIMLDRBLK
  1

  9
$DIMLUNIT
 70
     2
  9
$DIMLWD
 70
    -2
  9
$DIMLWE
 70
    -2
  9
$DIMTMOVE
 70
     0
  9
$LUNITS
 70
     2
  9
$LUPREC
 70
     2
  9
$SKETCHINC
 40
1.0
  9
$FILLETRAD
 40
10.0
  9
$AUNITS
 70
     0
  9
$AUPREC
 70
     2
  9
$MENU
  1
.
  9
$ELEVATION
 40
0.0
  9
$PELEVATION
 40
0.0
  9
$THICKNESS
 40
0.0
  9
$LIMCHECK
 70
     0
  9
$CHAMFERA
 40
0.0
  9
$CHAMFERB
 40
0.0
  9
$CHAMFERC
 40
0.0
  9
$CHAMFERD
 40
0.0
  9
$SKPOLY
 70
     0
  9
$TDCREATE
 40
2458311.466438658
  9
$TDUCREATE
 40
2458311.091438658
  9
$TDUPDATE
 40
2458318.675618495
  9
$TDUUPDATE
 40
2458318.300618495
  9
$TDINDWG
 40
0.0014198264
  9
$TDUSRTIMER
 40
2458318.300488461
  9
$USRTIMER
 70
     1
  9
$ANGBASE
 50
0.0
  9
$ANGDIR
 70
     0
  9
$PDMODE
 70
     0
  9
$PDSIZE
 40
-1.0
  9
$PLINEWID
 40
0.0
  9
$SPLFRAME
 70
     0
  9
$SPLINETYPE
 70
     6
  9
$SPLINESEGS
 70
     8
  9
$HANDSEED
  5
1F7
  9
$SURFTAB1
 70
     6
  9
$SURFTAB2
 70
     6
  9
$SURFTYPE
 70
     6
  9
$SURFU
 70
     6
  9
$SURFV
 70
     6
  9
$UCSBASE
  2

  9
$UCSNAME
  2

  9
$UCSORG
 10
0.0
 20
0.0
 30
0.0
  9
$UCSXDIR
 10
1.0
 20
0.0
 30
0.0
  9
$UCSYDIR
 10
0.0
 20
1.0
 30
0.0
  9
$UCSORTHOREF
  2

  9
$UCSORTHOVIEW
 70
     0
  9
$UCSORGTOP
 10
0.0
 20
0.0
 30
0.0
  9
$UCSORGBOTTOM
 10
0.0
 20
0.0
 30
0.0
  9
$UCSORGLEFT
 10
0.0
 20
0.0
 30
0.0
  9
$UCSORGRIGHT
 10
0.0
 20
0.0
 30
0.0
  9
$UCSORGFRONT
 10
0.0
 20
0.0
 30
0.0
  9
$UCSORGBACK
 10
0.0
 20
0.0
 30
0.0
  9
$PUCSBASE
  2

  9
$PUCSNAME
  2

  9
$PUCSORG
 10
0.0
 20
0.0
 30
0.0
  9
$PUCSXDIR
 10
1.0
 20
0.0
 30
0.0
  9
$PUCSYDIR
 10
0.0
 20
1.0
 30
0.0
  9
$PUCSORTHOREF
  2

  9
$PUCSORTHOVIEW
 70
     0
  9
$PUCSORGTOP
 10
0.0
 20
0.0
 30
0.0
  9
$PUCSORGBOTTOM
 10
0.0
 20
0.0
 30
0.0
  9
$PUCSORGLEFT
 10
0.0
 20
0.0
 30
0.0
  9
$PUCSORGRIGHT
 10
0.0
 20
0.0
 30
0.0
  9
$PUCSORGFRONT
 10
0.0
 20
0.0
 30
0.0
  9
$PUCSORGBACK
 10
0.0
 20
0.0
 30
0.0
  9
$USERI1
 70
     0
  9
$USERI2
 70
     0
  9
$USERI3
 70
     0
  9
$USERI4
 70
     0
  9
$USERI5
 70
     0
  9
$USERR1
 40
0.0
  9
$USERR2
 40
0.0
  9
$USERR3
 40
0.0
  9
$USERR4
 40
0.0
  9
$USERR5
 40
0.0
  9
$WORLDVIEW
 70
     1
  9
$SHADEDGE
 70
     3
  9
$SHADEDIF
 70
    70
  9
$TILEMODE
 70
     1
  9
$MAXACTVP
 70
    64
  9
$PINSBASE
 10
0.0
 20
0.0
 30
0.0
  9
$PLIMCHECK
 70
     0
  9
$PEXTMIN
 10
1.000000000000000E+20
 20
1.000000000000000E+20
 30
1.000000000000000E+20
  9
$PEXTMAX
 10
-1.000000000000000E+20
 20
-1.000000000000000E+20
 30
-1.000000000000000E+20
  9
$PLIMMIN
 10
0.0
 20
0.0
  9
$PLIMMAX
 10
0.0
 20
0.0
  9
$UNITMODE
 70
     0
  9
$VISRETAIN
 70
     1
  9
$PLINEGEN
 70
     0
  9
$PSLTSCALE
 70
     1
  9
$TREEDEPTH
 70
  3020
  9
$CMLSTYLE
  2
Standard
  9
$CMLJUST
 70
     0
  9
$CMLSCALE
 40
20.0
  9
$PROXYGRAPHICS
 70
     1
  9
$MEASUREMENT
 70
     1
  9
$CELWEIGHT
370
    -1
  9
$ENDCAPS
280
     0
  9
$JOINSTYLE
280
     0
  9
$LWDISPLAY
290
     1
  9
$INSUNITS
 70
     4
  9
$HYPERLINKBASE
  1

  9
$STYLESHEET
  1

  9
$XEDIT
290
     1
  9
$CEPSNTYPE
380
     0
  9
$PSTYLEMODE
290
     1
  9
$FINGERPRINTGUID
  2
{0DD54564-7FDD-4234-8016-F58050707F42}
  9
$VERSIONGUID
  2
{FAEB1C32-E019-11D5-929B-00C0DF256EC4}
  9
$EXTNAMES
290
     1
  9
$PSVPSCALE
 40
0.0
  9
$OLESTARTUP
290
     0
  0
ENDSEC
  0
SECTION
  2
CLASSES
  0
CLASS
  1
ACDBDICTIONARYWDFLT
  2
AcDbDictionaryWithDefault
  3
ObjectDBX Classes
 90
        0
280
     0
281
     0
  0
CLASS
  1
VISUALSTYLE
  2
AcDbVisualStyle
  3
ObjectDBX Classes
 90
     4095
280
     0
281
     0
  0
CLASS
  1
MATERIAL
  2
AcDbMaterial
  3
ObjectDBX Classes
 90
     1153
280
     0
281
     0
  0
CLASS
  1
SCALE
  2
AcDbScale
  3
ObjectDBX Classes
 90
     1153
280
     0
281
     0
  0
CLASS
  1
SUN
  2
AcDbSun
  3
SCENEOE
 90
     1153
280
     0
281
     0
  0
CLASS
  1
ACDBPLACEHOLDER
  2
AcDbPlaceHolder
  3
ObjectDBX Classes
 90
        0
280
     0
281
     0
  0
CLASS
  1
LAYOUT
  2
AcDbLayout
  3
ObjectDBX Classes
 90
        0
280
     0
281
     0
  0
CLASS
  1
TABLESTYLE
  2
AcDbTableStyle
  3
ObjectDBX Classes
 90
     4095
280
     0
281
     0
  0
CLASS
  1
MLEADERSTYLE
  2
AcDbMLeaderStyle
  3
ACDB_MLEADERSTYLE_CLASS
 90
     4095
280
     0
281
     0
  0
CLASS
  1
RASTERVARIABLES
  2
AcDbRasterVariables
  3
ISM
 90
        0
280
     0
281
     0
  0
ENDSEC
  0
SECTION
  2
TABLES
  0
TABLE
  2
VPORT
  5
8
330
0
100
AcDbSymbolTable
 70
     1
  0
VPORT
  5
29
330
8
100
AcDbSymbolTableRecord
100
AcDbViewportTableRecord
  2
*Active
 70
     0
 10
0.0
 20
0.0
 11
1.0
 21
1.0
 12
7.078114504988875
 22
-10.00773971697517
 13
0.0
 23
0.0
 14
10.0
 24
10.0
 15
10.0
 25
10.0
 16
0.0
 26
0.0
 36
1.0
 17
0.0
 27
0.0
 37
0.0
 40
152.8881704700348
 41
1.740812379110252
 42
50.0
 43
0.0
 44
0.0
 50
0.0
 51
0.0
 71
    16
 72
  2000
 73
     1
 74
     3
 75
     0
 76
     0
 77
     0
 78
     0
281
     0
 65
     1
110
0.0
120
0.0
130
0.0
111
1.0
121
0.0
131
0.0
112
0.0
122
1.0
132
0.0
 79
     0
146
0.0
  0
ENDTAB
  0
TABLE
  2
LTYPE
  5
5
330
0
100
AcDbSymbolTable
 70
     6
  0
LTYPE
  5
14
330
5
100
AcDbSymbolTableRecord
100
AcDbLinetypeTableRecord
  2
ByBlock
 70
     0
  3

 72
    65
 73
     0
 40
0.0
  0
LTYPE
  5
15
330
5
100
AcDbSymbolTableRecord
100
AcDbLinetypeTableRecord
  2
ByLayer
 70
     0
  3

 72
    65
 73
     0
 40
0.0
  0
LTYPE
  5
16
330
5
100
AcDbSymbolTableRecord
100
AcDbLinetypeTableRecord
  2
Continuous
 70
     0
  3
Solid line
 72
    65
 73
     0
 40
0.0
  0
LTYPE
  5
6A
330
5
100
AcDbSymbolTableRecord
100
AcDbLinetypeTableRecord
  2
HIDDEN
 70
     0
  3
Hidden __ __ __ __ __ __ __ __ __ __ __ __ __ __
 72
    65
 73
     2
 40
1.905
 49
1.27
 74
     0
 49
-0.635
 74
     0
  0
LTYPE
  5
6B
330
5
100
AcDbSymbolTableRecord
100
AcDbLinetypeTableRecord
  2
PHANTOM
 70
     0
  3
Phantom ______  __  __  ______  __  __  ______
 72
    65
 73
     6
 40
12.7
 49
6.35
 74
     0
 49
-1.27
 74
     0
 49
1.27
 74
     0
 49
-1.27
 74
     0
 49
1.27
 74
     0
 49
-1.27
 74
     0
  0
LTYPE
  5
6C
330
5
100
AcDbSymbolTableRecord
100
AcDbLinetypeTableRecord
  2
CENTER
 70
     0
  3
Center ____ _ ____ _ ____ _ ____ _ ____ _ ____
 72
    65
 73
     4
 40
10.16
 49
6.35
 74
     0
 49
-1.27
 74
     0
 49
1.27
 74
     0
 49
-1.27
 74
     0
  0
LTYPE
  5
6D
330
5
100
AcDbSymbolTableRecord
100
AcDbLinetypeTableRecord
  2
CENTERX2
 70
     0
  3
Center (2x) ________  __  ________  __  _____
 72
    65
 73
     4
 40
20.32
 49
12.7
 74
     0
 49
-2.54
 74
     0
 49
2.54
 74
     0
 49
-2.54
 74
     0
  0
LTYPE
  5
6E
330
5
100
AcDbSymbolTableRecord
100
AcDbLinetypeTableRecord
  2
DOT2
 70
     0
  3
Dot (.5x) ........................................
 72
    65
 73
     2
 40
0.635
 49
0.0
 74
     0
 49
-0.635
 74
     0
  0
ENDTAB
  0
TABLE
  2
LAYER
  5
2
102
{ACAD_XDICTIONARY
360
187
102
}
330
0
100
AcDbSymbolTable
 70
    18
  0
LAYER
  5
10
330
2
100
AcDbSymbolTableRecord
100
AcDbLayerTableRecord
  2
0
 70
     0
 62
     7
  6
Continuous
370
    -3
390
F
  0
LAYER
  5
6F
330
2
100
AcDbSymbolTableRecord
100
AcDbLayerTableRecord
  2
FORMAT
 70
     0
 62
     2
  6
Continuous
370
    -3
390
F
  0
LAYER
  5
70
330
2
100
AcDbSymbolTableRecord
100
AcDbLayerTableRecord
  2
외형선
 70
     0
 62
     4
  6
Continuous
370
    30
390
F
  0
LAYER
  5
71
330
2
100
AcDbSymbolTableRecord
100
AcDbLayerTableRecord
  2
숨은선
 70
     0
 62
     2
  6
HIDDEN
370
    15
390
F
  0
LAYER
  5
72
330
2
100
AcDbSymbolTableRecord
100
AcDbLayerTableRecord
  2
중심선
 70
     0
 62
     1
  6
CENTERX2
370
    -3
390
F
  0
LAYER
  5
73
330
2
100
AcDbSymbolTableRecord
100
AcDbLayerTableRecord
  2
파단선
 70
     0
 62
     4
  6
Continuous
370
    -3
390
F
  0
LAYER
  5
74
330
2
100
AcDbSymbolTableRecord
100
AcDbLayerTableRecord
  2
해칭선
 70
     0
 62
   100
  6
Continuous
370
    -3
390
F
  0
LAYER
  5
75
330
2
100
AcDbSymbolTableRecord
100
AcDbLayerTableRecord
  2
가는실선
 70
     0
 62
     4
  6
Continuous
370
    -3
390
F
  0
LAYER
  5
76
330
2
100
AcDbSymbolTableRecord
100
AcDbLayerTableRecord
  2
치수_보조선
 70
     0
 62
     4
  6
Continuous
370
    -3
390
F
  0
LAYER
  5
77
330
2
100
AcDbSymbolTableRecord
100
AcDbLayerTableRecord
  2
치수문자_일반주서
 70
     0
 62
     7
  6
Continuous
370
    15
390
F
  0
LAYER
  5
78
330
2
100
AcDbSymbolTableRecord
100
AcDbLayerTableRecord
  2
개별주서
 70
     0
 62
   100
  6
Continuous
370
    30
390
F
  0
LAYER
  5
79
330
2
100
AcDbSymbolTableRecord
100
AcDbLayerTableRecord
  2
중간선
 70
     0
 62
     2
  6
Continuous
370
    15
390
F
  0
LAYER
  5
7A
330
2
100
AcDbSymbolTableRecord
100
AcDbLayerTableRecord
  2
윤곽선
 70
     0
 62
     3
  6
Continuous
370
    40
390
F
  0
LAYER
  5
7B
330
2
100
AcDbSymbolTableRecord
100
AcDbLayerTableRecord
  2
중심마크
 70
     0
 62
   100
  6
Continuous
370
    30
390
F
  0
LAYER
  5
7C
330
2
100
AcDbSymbolTableRecord
100
AcDbLayerTableRecord
  2
가상선
 70
     0
 62
     4
  6
PHANTOM
370
    -3
390
F
  0
LAYER
  5
7D
330
2
100
AcDbSymbolTableRecord
100
AcDbLayerTableRecord
  2
특수지정선
 70
     0
 62
     5
  6
CENTERX2
370
    60
390
F
  0
LAYER
  5
7E
330
2
100
AcDbSymbolTableRecord
100
AcDbLayerTableRecord
  2
참조1
 70
     0
 62
    -4
  6
Continuous
370
    -3
390
F
  0
LAYER
  5
18E
330
2
100
AcDbSymbolTableRecord
100
AcDbLayerTableRecord
  2
Defpoints
 70
     0
 62
     7
  6
Continuous
290
     0
370
    -3
390
F
  0
ENDTAB
  0
TABLE
  2
STYLE
  5
3
330
0
100
AcDbSymbolTable
 70
     2
  0
STYLE
  5
11
330
3
100
AcDbSymbolTableRecord
100
AcDbTextStyleTableRecord
  2
Standard
 70
     0
 40
0.0
 41
1.0
 50
0.0
 71
     0
 42
3.5
  3
txt
  4

  0
STYLE
  5
94
330
3
100
AcDbSymbolTableRecord
100
AcDbTextStyleTableRecord
  2
SLDTEXTSTYLE0
 70
     0
 40
0.0
 41
0.75
 50
0.0
 71
     0
 42
3.5
  3
TXT
  4

  0
ENDTAB
  0
TABLE
  2
VIEW
  5
6
330
0
100
AcDbSymbolTable
 70
     0
  0
ENDTAB
  0
TABLE
  2
UCS
  5
7
330
0
100
AcDbSymbolTable
 70
     0
  0
ENDTAB
  0
TABLE
  2
APPID
  5
9
330
0
100
AcDbSymbolTable
 70
     1
  0
APPID
  5
12
330
9
100
AcDbSymbolTableRecord
100
AcDbRegAppTableRecord
  2
ACAD
 70
     0
  0
ENDTAB
  0
TABLE
  2
DIMSTYLE
  5
A
330
0
100
AcDbSymbolTable
 70
     4
100
AcDbDimStyleTable
  0
DIMSTYLE
105
27
330
A
100
AcDbSymbolTableRecord
100
AcDbDimStyleTableRecord
  2
ISO-25
 70
     0
 41
2.5
 42
0.625
 43
3.75
 44
1.25
 73
     0
 74
     0
 77
     1
 78
     8
140
2.5
141
2.5
143
0.03937007874016
147
0.625
171
     3
172
     1
178
     0
271
     2
272
     2
274
     3
278
    44
283
     0
284
     8
340
11
  0
DIMSTYLE
105
DF
102
{ACAD_REACTORS
330
DE
330
F3
330
108
330
11C
102
}
330
A
100
AcDbSymbolTableRecord
100
AcDbDimStyleTableRecord
  2
SLDDIMSTYLE0
 70
     0
 41
3.302
 44
0.0
 45
0.000000001
 73
     0
 74
     0
 77
     1
 78
    12
 79
     3
140
3.5
143
0.0393700787401575
147
0.875
148
0.000000001
170
     1
172
     1
173
     1
178
     0
271
     2
272
     2
276
     2
284
    12
289
     0
340
94
  0
DIMSTYLE
105
F4
330
A
100
AcDbSymbolTableRecord
100
AcDbDimStyleTableRecord
  2
SLDDIMSTYLE1
 70
     0
 41
3.302
 44
0.0
 45
0.000000001
 73
     0
 74
     0
 77
     1
 78
     4
 79
     1
140
3.5
143
0.0393700787401575
147
0.875
148
0.000000001
170
     1
173
     1
178
     0
271
     2
272
     2
276
     2
284
    12
340
94
  0
DIMSTYLE
105
109
330
A
100
AcDbSymbolTableRecord
100
AcDbDimStyleTableRecord
  2
SLDDIMSTYLE2
 70
     0
 41
3.302
 44
0.0
 45
0.000000001
 73
     0
 74
     0
 77
     1
 78
    12
 79
     3
140
3.5
143
0.0393700787401575
147
0.875
148
0.000000001
170
     1
173
     1
178
     0
271
     2
272
     2
276
     2
284
    12
340
94
  0
ENDTAB
  0
TABLE
  2
BLOCK_RECORD
  5
1
330
0
100
AcDbSymbolTable
 70
     8
  0
BLOCK_RECORD
  5
1F
330
1
100
AcDbSymbolTableRecord
100
AcDbBlockTableRecord
  2
*Model_Space
340
22
  0
BLOCK_RECORD
  5
1B
330
1
100
AcDbSymbolTableRecord
100
AcDbBlockTableRecord
  2
*Paper_Space
340
1E
  0
BLOCK_RECORD
  5
23
330
1
100
AcDbSymbolTableRecord
100
AcDbBlockTableRecord
  2
*Paper_Space0
340
26
  0
BLOCK_RECORD
  5
7F
330
1
100
AcDbSymbolTableRecord
100
AcDbBlockTableRecord
  2
블럭10
340
0
102
{BLKREFS
331
D7
102
}
  0
BLOCK_RECORD
  5
E0
330
1
100
AcDbSymbolTableRecord
100
AcDbBlockTableRecord
  2
_D
340
0
  0
BLOCK_RECORD
  5
F5
330
1
100
AcDbSymbolTableRecord
100
AcDbBlockTableRecord
  2
_D_1
340
0
  0
BLOCK_RECORD
  5
10A
330
1
100
AcDbSymbolTableRecord
100
AcDbBlockTableRecord
  2
_D_2
340
0
  0
BLOCK_RECORD
  5
11D
330
1
100
AcDbSymbolTableRecord
100
AcDbBlockTableRecord
  2
_D_3
340
0
  0
BLOCK_RECORD
  5
136
330
1
100
AcDbSymbolTableRecord
100
AcDbBlockTableRecord
  2
SW_DOWELSYMBOL_0
340
0
102
{BLKREFS
331
13C
102
}
  0
ENDTAB
  0
ENDSEC
  0
SECTION
  2
BLOCKS
  0
BLOCK
  5
20
330
1F
100
AcDbEntity
  8
0
100
AcDbBlockBegin
  2
*Model_Space
 70
     0
 10
0.0
 20
0.0
 30
0.0
  3
*Model_Space
  1
*Model_Space
  0
ENDBLK
  5
21
330
1F
100
AcDbEntity
  8
0
100
AcDbBlockEnd
  0
BLOCK
  5
1C
330
1B
100
AcDbEntity
 67
     1
  8
0
100
AcDbBlockBegin
  2
*Paper_Space
 70
     0
 10
0.0
 20
0.0
 30
0.0
  3
*Paper_Space
  1
*Paper_Space
  0
ENDBLK
  5
1D
330
1B
100
AcDbEntity
 67
     1
  8
0
100
AcDbBlockEnd
  0
BLOCK
  5
24
330
23
100
AcDbEntity
  8
0
100
AcDbBlockBegin
  2
*Paper_Space0
 70
     0
 10
0.0
 20
0.0
 30
0.0
  3
*Paper_Space0
  1
*Paper_Space0
  0
ENDBLK
  5
25
330
23
100
AcDbEntity
  8
0
100
AcDbBlockEnd
  0
BLOCK
  5
80
330
7F
100
AcDbEntity
  8
0
100
AcDbBlockBegin
  2
블럭10
 70
     2
 10
0.0
 20
0.0
 30
0.0
  3
블럭10
  1
블럭10
  0
ELLIPSE
  5
82
330
7F
100
AcDbEntity
  8
중심선
100
AcDbEllipse
 10
20.54032771741204
 20
12.0471743016438
 30
0.0
 11
6.600054785286829
 21
-1.261213355974178E-13
 31
0.0
210
0.0
220
0.0
230
1.0
 40
0.636358354079598
 41
0.9219305317359503
 42
6.513795318482858
  0
ELLIPSE
  5
83
330
7F
100
AcDbEntity
  8
중심선
100
AcDbEllipse
 10
20.54032771746488
 20
12.04717430159265
 30
0.0
 11
3.960054785062283
 21
1.540847449632565E-10
 31
0.0
210
0.0
220
0.0
230
1.0
 40
0.3939339440162632
 41
1.131841032648279
 42
5.62031148352944
  0
LINE
  5
84
330
7F
100
AcDbEntity
  8
중심선
100
AcDbLine
 10
2.268634060543552
 20
16.24717430164393
 30
0.0
 11
5.714909304380834
 21
16.24717430164393
 31
0.0
  0
LINE
  5
85
330
7F
100
AcDbEntity
  8
중심선
100
AcDbLine
 10
5.245725140726316
 20
7.84717430164391
 30
0.0
 11
8.692000384563599
 21
7.84717430164391
 31
0.0
  0
LINE
  5
86
330
7F
100
AcDbEntity
  8
중심선
100
AcDbLine
 10
15.74043728645272
 20
16.24717430164393
 30
0.0
 11
8.692000384563599
 21
7.84717430164391
 31
0.0
  0
LINE
  5
87
330
7F
100
AcDbEntity
  8
중심선
100
AcDbLine
 10
0.1404042013395286
 20
13.71084872107135
 30
0.0
 11
3.58671253028996
 21
13.71088815037384
 31
0.0
  0
LINE
  5
88
330
7F
100
AcDbEntity
  8
중심선
100
AcDbLine
 10
2.750260043222114
 20
10.84717430164391
 30
0.0
 11
6.196535287059397
 21
10.84717430164391
 31
0.0
  0
LINE
  5
89
330
7F
100
AcDbEntity
  8
중심선
100
AcDbLine
 10
12.29416204261559
 20
16.24717430164393
 30
0.0
 11
5.245725140726316
 21
7.84717430164391
 31
0.0
  0
LINE
  5
8A
330
7F
100
AcDbEntity
  8
중심선
100
AcDbLine
 10
10.72767329541681
 20
16.24717430164393
 30
0.0
 11
6.196535287059397
 21
10.84717430164391
 31
0.0
  0
LINE
  5
8B
330
7F
100
AcDbEntity
  8
중심선
100
AcDbLine
 10
7.28139805157953
 20
16.24717430164393
 30
0.0
 11
2.750260043222114
 21
10.84717430164391
 31
0.0
  0
LINE
  5
8C
330
7F
100
AcDbEntity
  8
중심선
100
AcDbLine
 10
5.714909304380834
 20
16.24717430164393
 30
0.0
 11
3.58671253028996
 21
13.71088815037384
 31
0.0
  0
LINE
  5
8D
330
7F
100
AcDbEntity
  8
중심선
100
AcDbLine
 10
2.268634060543552
 20
16.24717430164393
 30
0.0
 11
0.1404042013395286
 21
13.71084872107135
 31
0.0
  0
LINE
  5
8E
330
7F
100
AcDbEntity
  8
중심선
100
AcDbLine
 10
7.28139805157953
 20
16.24717430164393
 30
0.0
 11
10.72767329541681
 21
16.24717430164393
 31
0.0
  0
LINE
  5
8F
330
7F
100
AcDbEntity
  8
중심선
100
AcDbLine
 10
12.29416204261559
 20
16.24717430164393
 30
0.0
 11
15.74043728645272
 21
16.24717430164393
 31
0.0
  0
LINE
  5
90
330
7F
100
AcDbEntity
  8
중심선
100
AcDbLine
 10
19.22036997980202
 20
11.08717430171403
 30
0.0
 11
23.66174974927406
 21
11.08717430171406
 31
0.0
  0
LINE
  5
91
330
7F
100
AcDbEntity
  8
중심선
100
AcDbLine
 10
19.22039502424796
 20
13.00717430171391
 30
0.0
 11
19.22036997980202
 21
11.08717430171403
 31
0.0
  0
LINE
  5
92
330
7F
100
AcDbEntity
  8
중심선
100
AcDbLine
 10
19.22039502424796
 20
13.00717430171391
 30
0.0
 11
26.96566020931264
 21
13.00717430171391
 31
0.0
  0
LINE
  5
93
330
7F
100
AcDbEntity
  8
중심선
100
AcDbLine
 10
22.22332737316547
 20
13.45928029700563
 30
0.0
 11
24.52862924686651
 21
15.39360700705356
 31
0.0
  0
ATTDEF
  5
95
330
7F
100
AcDbEntity
  8
FORMAT
 62
     2
100
AcDbText
 10
4.408487351596664
 20
2.075366912832191
 30
0.0
 40
4.233333333333333
  1
E1071048
 41
0.75
  7
SLDTEXTSTYLE0
 11
4.408487351596664
 21
-0.0412997538344756
 31
0.0
100
AcDbAttributeDefinition
  3

  2
AUTOATTR0
 70
     0
 74
     1
  0
ENDBLK
  5
81
330
7F
100
AcDbEntity
  8
0
100
AcDbBlockEnd
  0
BLOCK
  5
E1
330
E0
100
AcDbEntity
  8
0
100
AcDbBlockBegin
  2
_D
 70
     0
 10
0.0
 20
0.0
 30
0.0
  3
_D
  1
_D
  0
LINE
  5
E3
330
E0
100
AcDbEntity
  8
치수문자_일반주서
 62
     0
370
    -2
100
AcDbLine
 10
-44.21249999999998
 20
9.525000000000002
 30
0.0
 11
-57.65000000000002
 21
9.524999999999952
 31
0.0
  0
LINE
  5
E4
330
E0
100
AcDbEntity
  8
치수문자_일반주서
 62
     0
370
    -2
100
AcDbLine
 10
-44.21249999999998
 20
-9.52500000000001
 30
0.0
 11
-57.64999999999996
 21
-9.525000000000059
 31
0.0
  0
LINE
  5
E5
330
E0
100
AcDbEntity
  8
치수문자_일반주서
 62
     0
370
    -2
100
AcDbLine
 10
-57.65000000000001
 20
6.222999999999953
 30
0.0
 11
-57.64999999999997
 21
-6.223000000000059
 31
0.0
  0
SOLID
  5
E6
330
E0
100
AcDbEntity
  8
치수문자_일반주서
 62
     0
100
AcDbTrace
 10
-57.09966666666667
 20
6.222999999999955
 30
0.0
 11
-58.20033333333334
 21
6.222999999999951
 31
0.0
 12
-57.65000000000002
 22
9.524999999999952
 32
0.0
 13
-57.65000000000002
 23
9.524999999999952
 33
0.0
  0
SOLID
  5
E7
330
E0
100
AcDbEntity
  8
치수문자_일반주서
 62
     0
100
AcDbTrace
 10
-58.2003333333333
 20
-6.223000000000061
 30
0.0
 11
-57.09966666666664
 21
-6.223000000000058
 31
0.0
 12
-57.64999999999996
 22
-9.525000000000059
 32
0.0
 13
-57.64999999999996
 23
-9.525000000000059
 33
0.0
  0
MTEXT
  5
E8
330
E0
100
AcDbEntity
  8
치수문자_일반주서
 62
     0
100
AcDbMText
 10
-62.02499999999999
 20
-0.0000000000000104
 30
0.0
 40
3.5
 41
0.0
 71
     2
 72
     1
  1
\A1;%%c19.05 [3/4]
  7
SLDTEXTSTYLE0
 11
-3.356894814614645E-15
 21
1.0
 31
0.0
 73
     1
 44
1.0
  0
POINT
  5
E9
330
E0
100
AcDbEntity
  8
Defpoints
 62
     0
100
AcDbPoint
 10
-44.14999999999998
 20
9.525000000000002
 30
0.0
  0
POINT
  5
EA
330
E0
100
AcDbEntity
  8
Defpoints
 62
     0
100
AcDbPoint
 10
-44.14999999999998
 20
-9.52500000000001
 30
0.0
  0
POINT
  5
EB
330
E0
100
AcDbEntity
  8
Defpoints
 62
     0
100
AcDbPoint
 10
-57.64999999999995
 20
-9.525000000000059
 30
0.0
  0
ENDBLK
  5
E2
330
E0
100
AcDbEntity
  8
0
100
AcDbBlockEnd
  0
BLOCK
  5
F6
330
F5
100
AcDbEntity
  8
0
100
AcDbBlockBegin
  2
_D_1
 70
     0
 10
0.0
 20
0.0
 30
0.0
  3
_D_1
  1
_D_1
  0
LINE
  5
F8
330
F5
100
AcDbEntity
  8
치수문자_일반주서
 62
     0
370
    -2
100
AcDbLine
 10
88.19999999999995
 20
9.587500000000013
 30
0.0
 11
88.19999999999995
 21
22.6932913458853
 31
0.0
  0
LINE
  5
F9
330
F5
100
AcDbEntity
  8
치수문자_일반주서
 62
     0
370
    -2
100
AcDbLine
 10
12.0
 20
7.649152118609051
 30
0.0
 11
12.0
 21
22.6932913458853
 31
0.0
  0
LINE
  5
FA
330
F5
100
AcDbEntity
  8
치수문자_일반주서
 62
     0
370
    -2
100
AcDbLine
 10
84.89799999999994
 20
22.6932913458853
 30
0.0
 11
15.302
 21
22.6932913458853
 31
0.0
  0
SOLID
  5
FB
330
F5
100
AcDbEntity
  8
치수문자_일반주서
 62
     0
100
AcDbTrace
 10
84.89799999999994
 20
22.14295801255196
 30
0.0
 11
84.89799999999994
 21
23.24362467921863
 31
0.0
 12
88.19999999999995
 22
22.6932913458853
 32
0.0
 13
88.19999999999995
 23
22.6932913458853
 33
0.0
  0
SOLID
  5
FC
330
F5
100
AcDbEntity
  8
치수문자_일반주서
 62
     0
100
AcDbTrace
 10
15.302
 20
23.24362467921863
 30
0.0
 11
15.302
 21
22.14295801255196
 31
0.0
 12
12.0
 22
22.6932913458853
 32
0.0
 13
12.0
 23
22.6932913458853
 33
0.0
  0
MTEXT
  5
FD
330
F5
100
AcDbEntity
  8
치수문자_일반주서
 62
     0
100
AcDbMText
 10
50.09999999999997
 20
27.0682913458853
 30
0.0
 40
3.5
 41
0.0
 71
     2
 72
     1
  1
\A1;76.2 [3]
  7
SLDTEXTSTYLE0
 73
     1
 44
1.0
  0
POINT
  5
FE
330
F5
100
AcDbEntity
  8
Defpoints
 62
     0
100
AcDbPoint
 10
88.19999999999995
 20
9.525000000000013
 30
0.0
  0
POINT
  5
FF
330
F5
100
AcDbEntity
  8
Defpoints
 62
     0
100
AcDbPoint
 10
12.0
 20
7.586652118609051
 30
0.0
  0
POINT
  5
100
330
F5
100
AcDbEntity
  8
Defpoints
 62
     0
100
AcDbPoint
 10
12.0
 20
22.6932913458853
 30
0.0
  0
ENDBLK
  5
F7
330
F5
100
AcDbEntity
  8
0
100
AcDbBlockEnd
  0
BLOCK
  5
10B
330
10A
100
AcDbEntity
  8
0
100
AcDbBlockBegin
  2
_D_2
 70
     0
 10
0.0
 20
0.0
 30
0.0
  3
_D_2
  1
_D_2
  0
LINE
  5
10D
330
10A
100
AcDbEntity
  8
치수문자_일반주서
 62
     0
370
    -2
100
AcDbLine
 10
88.19999999999996
 20
9.587500000000002
 30
0.0
 11
88.19999999999996
 21
39.56419134481796
 31
0.0
  0
LINE
  5
10E
330
10A
100
AcDbEntity
  8
치수문자_일반주서
 62
     0
370
    -2
100
AcDbLine
 10
-45.14999999999998
 20
8.587499999999991
 30
0.0
 11
-45.14999999999998
 21
39.56419134481796
 31
0.0
  0
LINE
  5
10F
330
10A
100
AcDbEntity
  8
치수문자_일반주서
 62
     0
370
    -2
100
AcDbLine
 10
84.89799999999997
 20
39.56419134481796
 30
0.0
 11
-41.84799999999998
 21
39.56419134481796
 31
0.0
  0
SOLID
  5
110
330
10A
100
AcDbEntity
  8
치수문자_일반주서
 62
     0
100
AcDbTrace
 10
84.89799999999997
 20
39.01385801148462
 30
0.0
 11
84.89799999999997
 21
40.11452467815129
 31
0.0
 12
88.19999999999996
 22
39.56419134481796
 32
0.0
 13
88.19999999999996
 23
39.56419134481796
 33
0.0
  0
SOLID
  5
111
330
10A
100
AcDbEntity
  8
치수문자_일반주서
 62
     0
100
AcDbTrace
 10
-41.84799999999998
 20
40.11452467815129
 30
0.0
 11
-41.84799999999998
 21
39.01385801148462
 31
0.0
 12
-45.14999999999998
 22
39.56419134481796
 32
0.0
 13
-45.14999999999998
 23
39.56419134481796
 33
0.0
  0
MTEXT
  5
112
330
10A
100
AcDbEntity
  8
치수문자_일반주서
 62
     0
100
AcDbMText
 10
21.52500000000001
 20
43.93919134481796
 30
0.0
 40
3.5
 41
0.0
 71
     2
 72
     1
  1
\A1;133.35 [5 1/4]
  7
SLDTEXTSTYLE0
 73
     1
 44
1.0
  0
POINT
  5
113
330
10A
100
AcDbEntity
  8
Defpoints
 62
     0
100
AcDbPoint
 10
88.19999999999996
 20
9.525000000000002
 30
0.0
  0
POINT
  5
114
330
10A
100
AcDbEntity
  8
Defpoints
 62
     0
100
AcDbPoint
 10
-45.14999999999998
 20
8.524999999999991
 30
0.0
  0
POINT
  5
115
330
10A
100
AcDbEntity
  8
Defpoints
 62
     0
100
AcDbPoint
 10
-45.14999999999998
 20
39.56419134481796
 30
0.0
  0
ENDBLK
  5
10C
330
10A
100
AcDbEntity
  8
0
100
AcDbBlockEnd
  0
BLOCK
  5
11E
330
11D
100
AcDbEntity
  8
0
100
AcDbBlockBegin
  2
_D_3
 70
     0
 10
0.0
 20
0.0
 30
0.0
  3
_D_3
  1
_D_3
  0
LINE
  5
120
330
11D
100
AcDbEntity
  8
치수문자_일반주서
 62
     0
370
    -2
100
AcDbLine
 10
88.26249999999996
 20
-9.524999999999995
 30
0.0
 11
108.1503344396389
 21
-9.524999999999928
 31
0.0
  0
LINE
  5
121
330
11D
100
AcDbEntity
  8
치수문자_일반주서
 62
     0
370
    -2
100
AcDbLine
 10
88.26249999999995
 20
9.525000000000013
 30
0.0
 11
108.1503344396389
 21
9.525000000000087
 31
0.0
  0
LINE
  5
122
330
11D
100
AcDbEntity
  8
치수문자_일반주서
 62
     0
370
    -2
100
AcDbLine
 10
108.1503344396389
 20
9.525000000000087
 30
0.0
 11
108.1503344396387
 21
43.91025000000008
 31
0.0
  0
LINE
  5
123
330
11D
100
AcDbEntity
  8
치수문자_일반주서
 62
     0
370
    -2
100
AcDbLine
 10
108.1503344396389
 20
-9.524999999999928
 30
0.0
 11
108.1503344396389
 21
9.525000000000087
 31
0.0
  0
LINE
  5
124
330
11D
100
AcDbEntity
  8
치수문자_일반주서
 62
     0
370
    -2
100
AcDbLine
 10
108.1503344396389
 20
-12.82699999999993
 30
0.0
 11
108.150334439639
 21
-16.12899999999993
 31
0.0
  0
LINE
  5
125
330
11D
100
AcDbEntity
  8
치수문자_일반주서
 62
     0
370
    -2
100
AcDbLine
 10
108.1503344396388
 20
12.82700000000009
 30
0.0
 11
108.1503344396388
 21
16.12900000000009
 31
0.0
  0
SOLID
  5
126
330
11D
100
AcDbEntity
  8
치수문자_일반주서
 62
     0
100
AcDbTrace
 10
108.7006677729723
 20
-12.82699999999993
 30
0.0
 11
107.6000011063056
 21
-12.82699999999993
 31
0.0
 12
108.1503344396389
 22
-9.524999999999928
 32
0.0
 13
108.1503344396389
 23
-9.524999999999928
 33
0.0
  0
SOLID
  5
127
330
11D
100
AcDbEntity
  8
치수문자_일반주서
 62
     0
100
AcDbTrace
 10
107.6000011063055
 20
12.82700000000009
 30
0.0
 11
108.7006677729722
 21
12.82700000000009
 31
0.0
 12
108.1503344396389
 22
9.525000000000087
 32
0.0
 13
108.1503344396389
 23
9.525000000000087
 33
0.0
  0
MTEXT
  5
128
330
11D
100
AcDbEntity
  8
치수문자_일반주서
 62
     0
100
AcDbMText
 10
103.7753344396388
 20
30.12900000000007
 30
0.0
 40
3.5
 41
0.0
 71
     2
 72
     1
  1
\A1;%%c19.05 [3/4]
  7
SLDTEXTSTYLE0
 11
-3.729883127349606E-15
 21
1.0
 31
0.0
 73
     1
 44
1.0
  0
POINT
  5
129
330
11D
100
AcDbEntity
  8
Defpoints
 62
     0
100
AcDbPoint
 10
88.19999999999996
 20
-9.524999999999995
 30
0.0
  0
POINT
  5
191
330
11D
100
AcDbEntity
  8
Defpoints
 62
     0
100
AcDbPoint
 10
88.19999999999995
 20
9.525000000000013
 30
0.0
  0
POINT
  5
192
330
11D
100
AcDbEntity
  8
Defpoints
 62
     0
100
AcDbPoint
 10
108.1503344396389
 20
9.525000000000087
 30
0.0
  0
ENDBLK
  5
11F
330
11D
100
AcDbEntity
  8
0
100
AcDbBlockEnd
  0
BLOCK
  5
137
330
136
100
AcDbEntity
  8
0
100
AcDbBlockBegin
  2
SW_DOWELSYMBOL_0
 70
     0
 10
0.0
 20
0.0
 30
0.0
  3
SW_DOWELSYMBOL_0
  1
SW_DOWELSYMBOL_0
  0
CIRCLE
  5
139
330
136
100
AcDbEntity
  8
해칭선
 62
     0
100
AcDbCircle
 10
0.0
 20
0.0
 30
0.0
 40
2.999999999999996
  0
HATCH
  5
13A
330
136
100
AcDbEntity
  8
0
  6
Continuous
 62
     0
370
     0
100
AcDbHatch
 10
0.0
 20
0.0
 30
0.0
210
0.0
220
0.0
230
1.0
  2
SOLID
 70
     1
 71
     0
 91
        1
 92
        0
 93
        3
 72
     2
 10
0.0
 20
0.0
 40
2.999999999999996
 50
0.0
 51
90.0
 73
     1
 72
     1
 10
0.0
 20
2.999999999999996
 11
0.0
 21
0.0
 72
     1
 10
0.0
 20
0.0
 11
2.999999999999996
 21
0.0
 97
        0
 75
     0
 76
     1
 98
        1
 10
0.0
 20
0.0
  0
HATCH
  5
13B
330
136
100
AcDbEntity
  8
0
  6
Continuous
 62
     0
370
     0
100
AcDbHatch
 10
0.0
 20
0.0
 30
0.0
210
0.0
220
0.0
230
1.0
  2
SOLID
 70
     1
 71
     0
 91
        1
 92
        0
 93
        3
 72
     2
 10
0.0
 20
0.0
 40
2.999999999999996
 50
180.0
 51
270.0000000000007
 73
     1
 72
     1
 10
0.0
 20
-2.999999999999996
 11
0.0
 21
0.0
 72
     1
 10
0.0
 20
0.0
 11
-2.999999999999996
 21
0.0
 97
        0
 75
     0
 76
     1
 98
        1
 10
0.0
 20
0.0
  0
ENDBLK
  5
138
330
136
100
AcDbEntity
  8
0
100
AcDbBlockEnd
  0
ENDSEC
  0
SECTION
  2
ENTITIES
  0
LINE
  5
96
330
1F
100
AcDbEntity
  8
외형선
  6
Continuous
370
    15
100
AcDbLine
 10
8.949992754734508
 20
9.524999999999999
 30
0.0
 11
-11.65692499999999
 21
9.524999999999997
 31
0.0
  0
LINE
  5
97
330
1F
100
AcDbEntity
  8
외형선
  6
Continuous
370
    15
100
AcDbLine
 10
-44.14999999999999
 20
-9.525000000000006
 30
0.0
 11
8.949992754734508
 21
-9.525000000000002
 31
0.0
  0
LINE
  5
98
330
1F
100
AcDbEntity
  8
외형선
  6
Continuous
370
    15
100
AcDbLine
 10
-44.14999999999999
 20
9.524999999999991
 30
0.0
 11
-45.14999999999998
 21
8.524999999999991
 31
0.0
  0
LINE
  5
99
330
1F
100
AcDbEntity
  8
외형선
  6
Continuous
370
    15
100
AcDbLine
 10
-45.14999999999998
 20
-8.525000000000006
 30
0.0
 11
-44.14999999999999
 21
-9.525000000000006
 31
0.0
  0
SPLINE
  5
9A
330
1F
100
AcDbEntity
  8
외형선
  6
Continuous
370
    15
100
AcDbSpline
210
0.0
220
0.0
230
1.0
 70
     8
 71
     3
 72
     9
 73
     5
 74
     0
 42
0.000000001
 43
0.00000001
 40
0.0
 40
0.0
 40
0.0
 40
0.0
 40
0.4363268492866573
 40
1.0
 40
1.0
 40
1.0
 40
1.0
 10
11.48824486516975
 20
2.537005783778418
 30
0.0
 10
11.18181617936919
 20
2.684161404835015
 30
0.0
 10
10.47952456861561
 20
3.021421468700392
 30
0.0
 10
9.77103251498098
 20
3.385972370447331
 30
0.0
 10
9.37167456685338
 20
3.59145992583042
 30
0.0
  0
LINE
  5
9B
330
1F
100
AcDbEntity
  8
0
  6
Continuous
 62
     1
370
    15
100
AcDbLine
 10
58.2672745582306
 20
2.674956189738396
 30
0.0
 11
58.15173772317618
 21
2.738530875625267
 31
0.0
  0
SPLINE
  5
9C
330
1F
100
AcDbEntity
  8
0
  6
Continuous
 62
     1
370
    15
100
AcDbSpline
210
0.0
220
0.0
230
1.0
 70
     8
 71
     3
 72
     9
 73
     5
 74
     0
 42
0.000000001
 43
0.00000001
 40
0.0
 40
0.0
 40
0.0
 40
0.0
 40
0.4622792072953137
 40
1.0
 40
1.0
 40
1.0
 40
1.0
 10
63.52359168481215
 20
2.440702366881994
 30
0.0
 10
63.11673477550805
 20
2.634304699860034
 30
0.0
 10
62.2366240050399
 20
3.053104269303705
 30
0.0
 10
61.35469505590606
 20
3.514377644150158
 30
0.0
 10
60.8804635222686
 20
3.762413928926158
 30
0.0
  0
LINE
  5
9D
330
1F
100
AcDbEntity
  8
0
  6
Continuous
 62
     1
370
    15
100
AcDbLine
 10
41.66480497236886
 20
9.525000000000006
 30
0.0
 11
37.04868244535599
 21
9.525000000000006
 31
0.0
  0
LINE
  5
9E
330
1F
100
AcDbEntity
  8
0
  6
Continuous
 62
     1
370
    15
100
AcDbLine
 10
37.04868244535596
 20
-9.52500000000001
 30
0.0
 11
41.66480497236886
 21
-9.52500000000001
 31
0.0
  0
SPLINE
  5
9F
330
1F
100
AcDbEntity
  8
0
  6
Continuous
 62
     1
370
    15
100
AcDbSpline
210
0.0
220
0.0
230
1.0
 70
     8
 71
     3
 72
    26
 73
    22
 74
     0
 42
0.000000001
 43
0.00000001
 40
0.0
 40
0.0
 40
0.0
 40
0.0
 40
0.042397272094663
 40
0.0804396458315757
 40
0.1151963567052351
 40
0.1751197986001281
 40
0.2345341850148034
 40
0.2935426200816239
 40
0.34994810031137
 40
0.4039903075835784
 40
0.4553549145030309
 40
0.5077085752191459
 40
0.5792112562792199
 40
0.6425807302083641
 40
0.7090779646944583
 40
0.7647213008358315
 40
0.8273832962683306
 40
0.8619661914855725
 40
0.9012014818394666
 40
0.9469132437417658
 40
1.0
 40
1.0
 40
1.0
 40
1.0
 10
46.0475816963486
 20
-7.926123234528212
 30
0.0
 10
46.21447427484138
 20
-7.908651917962097
 30
0.0
 10
46.53111681438737
 20
-7.8755038768888
 30
0.0
 10
47.04352063395744
 20
-7.820386755557697
 30
0.0
 10
47.68375629896322
 20
-7.760304720528837
 30
0.0
 10
48.45411364075403
 20
-7.70886357131864
 30
0.0
 10
49.32962228122442
 20
-7.64916150275587
 30
0.0
 10
50.19751644381279
 20
-7.594053432149722
 30
0.0
 10
51.03834931873004
 20
-7.546799002183295
 30
0.0
 10
51.82900388019995
 20
-7.511814285401107
 30
0.0
 10
52.56043094151714
 20
-7.486577219004012
 30
0.0
 10
53.40787079484215
 20
-7.461866569623485
 30
0.0
 10
54.32454225197112
 20
-7.444937841122848
 30
0.0
 10
55.2835748095101
 20
-7.436662960854765
 30
0.0
 10
56.2001774697102
 20
-7.439252437949401
 30
0.0
 10
57.12328906343035
 20
-7.45215899372154
 30
0.0
 10
57.86643770179073
 20
-7.461331278992081
 30
0.0
 10
58.55026537052468
 20
-7.474474849300203
 30
0.0
 10
59.12814235422411
 20
-7.498650642004234
 30
0.0
 10
59.74958174811486
 20
-7.533562089609844
 30
0.0
 10
60.15645662121649
 20
-7.55657328663226
 30
0.0
 10
60.37508001373389
 20
-7.568937741386068
 30
0.0
  0
SPLINE
  5
A0
330
1F
100
AcDbEntity
  8
0
  6
Continuous
 62
     1
370
    15
100
AcDbSpline
210
0.0
220
0.0
230
1.0
 70
     8
 71
     3
 72
    18
 73
    14
 74
     0
 42
0.000000001
 43
0.00000001
 40
0.0
 40
0.0
 40
0.0
 40
0.0
 40
0.0977317323714984
 40
0.1818862370983189
 40
0.2541176779822239
 40
0.3450587953409184
 40
0.4281006143669166
 40
0.5042972354261012
 40
0.5743933805284432
 40
0.6407485580508172
 40
0.7656476581847985
 40
0.906135645289401
 40
1.0
 40
1.0
 40
1.0
 40
1.0
 10
60.37508001373391
 20
7.568937741386065
 30
0.0
 10
60.15642861207394
 20
7.556570096199168
 30
0.0
 10
59.74950161181336
 20
7.533552961536492
 30
0.0
 10
59.12839600592278
 20
7.498679534669185
 30
0.0
 10
58.47774740190266
 20
7.471376709100259
 30
0.0
 10
57.80798726970329
 20
7.461917619485765
 30
0.0
 10
57.1437793955244
 20
7.45217319372245
 30
0.0
 10
56.52319337988727
 20
7.443564054671556
 30
0.0
 10
55.95066615364756
 20
7.438704667273335
 30
0.0
 10
55.25128020957995
 20
7.437298446034206
 30
0.0
 10
54.39364244718099
 20
7.443987754734551
 30
0.0
 10
53.43438635244048
 20
7.460454072486879
 30
0.0
 10
52.82723085239023
 20
7.479810520287175
 30
0.0
 10
52.58404890345049
 20
7.487563293176881
 30
0.0
  0
SPLINE
  5
A1
330
1F
100
AcDbEntity
  8
0
  6
Continuous
 62
     1
370
    15
100
AcDbSpline
210
0.0
220
0.0
230
1.0
 70
     8
 71
     3
 72
    18
 73
    14
 74
     0
 42
0.000000001
 43
0.00000001
 40
0.0
 40
0.0
 40
0.0
 40
0.0
 40
0.1046061012720344
 40
0.185406085465429
 40
0.2830983927753523
 40
0.3749676931033787
 40
0.481611145114812
 40
0.5794879496846314
 40
0.6595408259145424
 40
0.7261851127173868
 40
0.8330816485707067
 40
0.9440972690090236
 40
0.9999999999999999
 40
0.9999999999999999
 40
0.9999999999999999
 40
0.9999999999999999
 10
68.02071484357103
 20
-7.164076862286986
 30
0.0
 10
68.23960757058208
 20
-7.129225216198313
 30
0.0
 10
68.62757770959364
 20
-7.06745341517761
 30
0.0
 10
69.31293668543053
 20
-6.967064417947299
 30
0.0
 10
69.97571725273572
 20
-6.879987348428213
 30
0.0
 10
70.69495861828612
 20
-6.787075076637843
 30
0.0
 10
71.39984796124357
 20
-6.704158440418889
 30
0.0
 10
72.0804853120972
 20
-6.630615051978781
 30
0.0
 10
72.66055584538046
 20
-6.573183059281345
 30
0.0
 10
73.25711167914571
 20
-6.518188175663603
 30
0.0
 10
73.94041531162328
 20
-6.461969103142642
 30
0.0
 10
74.60116536577748
 20
-6.41442377572176
 30
0.0
 10
74.99864805791648
 20
-6.390948426877178
 30
0.0
 10
75.13176923855326
 20
-6.383086282899952
 30
0.0
  0
SPLINE
  5
A2
330
1F
100
AcDbEntity
  8
0
  6
Continuous
 62
     1
370
    15
100
AcDbSpline
210
0.0
220
0.0
230
1.0
 70
     8
 71
     3
 72
    32
 73
    28
 74
     0
 42
0.000000001
 43
0.00000001
 40
0.0
 40
0.0
 40
0.0
 40
0.0
 40
0.0674238426822653
 40
0.1190856785751669
 40
0.1499705154575201
 40
0.1724526614838503
 40
0.1944264905647785
 40
0.2278667928937575
 40
0.2691446221244694
 40
0.304971352195865
 40
0.3356790648513561
 40
0.3748673233004181
 40
0.4183670506126673
 40
0.4548364885286459
 40
0.4973973273950665
 40
0.5528445547774868
 40
0.6007970816767348
 40
0.6455558431802509
 40
0.6929582957922342
 40
0.7371227175434495
 40
0.7775309004193077
 40
0.8105062382366859
 40
0.8271288880287164
 40
0.8447464822413923
 40
0.8695139064122348
 40
0.9241447240220164
 40
1.0
 40
1.0
 40
1.0
 40
1.0
 10
32.83209020495264
 20
6.514647765073265
 30
0.0
 10
32.47768953565237
 20
6.485082483647283
 30
0.0
 10
31.85173820282787
 20
6.432863543568911
 30
0.0
 10
30.99763282114714
 20
6.380055783852163
 30
0.0
 10
30.39637865844042
 20
6.348560417018123
 30
0.0
 10
29.96684638885049
 20
6.328443535936808
 30
0.0
 10
29.54960076565999
 20
6.311781726818703
 30
0.0
 10
29.00988549028383
 20
6.293564300448628
 30
0.0
 10
28.39395271895807
 20
6.278852392148493
 30
0.0
 10
27.79561978059055
 20
6.270454290960168
 30
0.0
 10
27.21221690071703
 20
6.267237828828795
 30
0.0
 10
26.57867490323827
 20
6.269424843902824
 30
0.0
 10
25.91134095182058
 20
6.27884882892265
 30
0.0
 10
25.23452139535723
 20
6.295501709940327
 30
0.0
 10
24.49626958549604
 20
6.320977994210798
 30
0.0
 10
23.68410659399884
 20
6.359186730638773
 30
0.0
 10
22.86134014838478
 20
6.408507835860538
 30
0.0
 10
22.08293325273882
 20
6.46408195972349
 30
0.0
 10
21.32633269320845
 20
6.526753375325475
 30
0.0
 10
20.59326371878294
 20
6.595789790210773
 30
0.0
 10
19.94001431535207
 20
6.663630057158954
 30
0.0
 10
19.44051867760179
 20
6.719741206155458
 30
0.0
 10
19.06749240215486
 20
6.763775320982059
 30
0.0
 10
18.73998230710178
 20
6.803718699246734
 30
0.0
 10
18.20166163777118
 20
6.872097927909819
 30
0.0
 10
17.3398762264368
 20
6.988641359806159
 30
0.0
 10
16.61359344777324
 20
7.099584541414233
 30
0.0
 10
16.19138462000627
 20
7.16407896704508
 30
0.0
  0
SPLINE
  5
A3
330
1F
100
AcDbEntity
  8
0
  6
Continuous
 62
     1
370
    15
100
AcDbSpline
210
0.0
220
0.0
230
1.0
 70
     8
 71
     3
 72
    19
 73
    15
 74
     0
 42
0.000000001
 43
0.00000001
 40
0.0
 40
0.0
 40
0.0
 40
0.0
 40
0.1396017194075241
 40
0.2518844043952958
 40
0.3393434971388516
 40
0.4014602784144423
 40
0.4529343755867458
 40
0.5312873129711191
 40
0.6284698948831016
 40
0.7126319702650415
 40
0.784390169653722
 40
0.8767647873714736
 40
0.9797769621247926
 40
0.9999999999999999
 40
0.9999999999999999
 40
0.9999999999999999
 40
0.9999999999999999
 10
16.19138462000627
 20
-7.164078967045085
 30
0.0
 10
16.50788065143214
 20
-7.11503378528251
 30
0.0
 10
17.0789367581013
 20
-7.026541204753021
 30
0.0
 10
17.88949789290039
 20
-6.913311802277902
 30
0.0
 10
18.52347693950902
 20
-6.83075089486683
 30
0.0
 10
19.01006882182007
 20
-6.77031338515892
 30
0.0
 10
19.44908456734375
 20
-6.718743162515478
 30
0.0
 10
19.98567031566188
 20
-6.658654710369868
 30
0.0
 10
20.59875455108079
 20
-6.595441749772657
 30
0.0
 10
21.19640629283391
 20
-6.539076899343834
 30
0.0
 10
21.78320266679954
 20
-6.488433140089342
 30
0.0
 10
22.41456168271435
 20
-6.439901164850788
 30
0.0
 10
22.92405480828863
 20
-6.40448992005062
 30
0.0
 10
23.21521127350295
 20
-6.38802846570658
 30
0.0
 10
23.26299037898792
 20
-6.385327122416948
 30
0.0
  0
SPLINE
  5
A4
330
1F
100
AcDbEntity
  8
0
  6
Continuous
 62
     1
370
    15
100
AcDbSpline
210
0.0
220
0.0
230
1.0
 70
     8
 71
     3
 72
    28
 73
    24
 74
     0
 42
0.000000001
 43
0.00000001
 40
0.0
 40
0.0
 40
0.0
 40
0.0
 40
0.068814412666531
 40
0.1216198489283292
 40
0.160244978738899
 40
0.1931850479868646
 40
0.2225891048687101
 40
0.2581657372041783
 40
0.299533298762376
 40
0.3526249353667636
 40
0.4031212823965274
 40
0.4498200805181329
 40
0.4956936484981045
 40
0.5530824353502597
 40
0.6051357330273468
 40
0.6537926443076324
 40
0.7065496998486942
 40
0.7660147188750044
 40
0.8010728135434076
 40
0.8356742677922712
 40
0.8759384772093264
 40
0.9293548172778464
 40
1.0
 40
1.0
 40
1.0
 40
1.0
 10
84.66141819861325
 20
6.514648725862064
 30
0.0
 10
84.28582844306308
 20
6.484017776803949
 30
0.0
 10
83.62202608598423
 20
6.429881858867222
 30
0.0
 10
82.73492373988127
 20
6.37468896470974
 30
0.0
 10
82.0301460867576
 20
6.338612793417551
 30
0.0
 10
81.46297609756625
 20
6.314698611347111
 30
0.0
 10
80.92329881172768
 20
6.296326316489787
 30
0.0
 10
80.33397506131567
 20
6.281085941736555
 30
0.0
 10
79.61163931311594
 20
6.269526852720525
 30
0.0
 10
78.80789223867495
 20
6.266417826670695
 30
0.0
 10
77.97393513771667
 20
6.274341945496553
 30
0.0
 10
77.17965717544556
 20
6.291766378202961
 30
0.0
 10
76.34739447475218
 20
6.319873882934728
 30
0.0
 10
75.48602653978062
 20
6.360449773288461
 30
0.0
 10
74.60823519328251
 20
6.413700238834604
 30
0.0
 10
73.75633679176524
 20
6.475979081294287
 30
0.0
 10
72.86495977302222
 20
6.552416036922801
 30
0.0
 10
72.04427773387263
 20
6.633946111816337
 30
0.0
 10
71.3383755715104
 20
6.711474179613606
 30
0.0
 10
70.72481006486383
 20
6.783897887220428
 30
0.0
 10
69.99586668492593
 20
6.876182634669296
 30
0.0
 10
69.0803541164673
 20
7.001391973430479
 30
0.0
 10
68.40518239365444
 20
7.105050113983014
 30
0.0
 10
68.02071484357103
 20
7.164076862286982
 30
0.0
  0
SPLINE
  5
A5
330
1F
100
AcDbEntity
  8
외형선
  6
Continuous
370
    15
100
AcDbSpline
210
0.0
220
0.0
230
1.0
 70
     8
 71
     3
 72
     8
 73
     4
 74
     0
 42
0.000000001
 43
0.00000001
 40
0.0
 40
0.0
 40
0.0
 40
0.0
 40
1.0
 40
1.0
 40
1.0
 40
1.0
 10
12.0
 20
-0.4995774315746389
 30
0.0
 10
10.98749986593985
 20
0.0857880690450525
 30
0.0
 10
9.962482558324698
 20
0.6763963076748043
 30
0.0
 10
8.949992754734497
 20
1.257436350972537
 30
0.0
  0
SPLINE
  5
A6
330
1F
100
AcDbEntity
  8
외형선
  6
Continuous
370
    15
100
AcDbSpline
210
0.0
220
0.0
230
1.0
 70
    24
 71
     3
 72
    11
 73
     7
 74
     0
 42
0.000000001
 43
0.00000001
 40
0.0
 40
0.0
 40
0.0
 40
0.0
 40
0.2802104008958321
 40
0.6822112691996371
 40
0.8407427388115604
 40
1.0
 40
1.0
 40
1.0
 40
1.0
 10
12.0
 20
-0.2869560427415669
 30
0.0
 10
12.0
 20
-0.2885578314085996
 30
0.0
 10
12.0
 20
-0.2924576091328825
 30
0.0
 10
12.0
 20
-0.3969035406208318
 30
0.0
 10
12.0
 20
-0.5201750043354237
 30
0.0
 10
12.0
 20
-0.5887406471804543
 30
0.0
 10
12.0
 20
-0.6231017664801316
 30
0.0
  0
SPLINE
  5
A7
330
1F
100
AcDbEntity
  8
외형선
  6
Continuous
370
    15
100
AcDbSpline
210
0.0
220
0.0
230
1.0
 70
     8
 71
     3
 72
     8
 73
     4
 74
     0
 42
0.000000001
 43
0.00000001
 40
0.0
 40
0.0
 40
0.0
 40
0.0
 40
1.0
 40
1.0
 40
1.0
 40
1.0
 10
12.0
 20
-0.6231017664805377
 30
0.0
 10
11.11399444949086
 20
-0.2656150657076084
 30
0.0
 10
10.21847259896768
 20
0.0958690059222747
 30
0.0
 10
9.330023055673841
 20
0.4544209027347416
 30
0.0
  0
SPLINE
  5
A8
330
1F
100
AcDbEntity
  8
외형선
  6
Continuous
370
    15
100
AcDbSpline
210
0.0
220
0.0
230
1.0
 70
     8
 71
     3
 72
    12
 73
     8
 74
     0
 42
0.000000001
 43
0.00000001
 40
0.0
 40
0.0
 40
0.0
 40
0.0
 40
0.4999999999999998
 40
0.4999999999999998
 40
0.7499999999999999
 40
0.7499999999999999
 40
1.0
 40
1.0
 40
1.0
 40
1.0
 10
8.949992754735012
 20
0.8685054180575706
 30
0.0
 10
8.949992754732188
 20
0.8098085597105366
 30
0.0
 10
8.990201258791744
 20
0.7334405218865674
 30
0.0
 10
9.08761958250938
 20
0.6190222356782286
 30
0.0
 10
9.12576584831167
 20
0.581782585688341
 30
0.0
 10
9.217643164136973
 20
0.5110776435336197
 30
0.0
 10
9.271238120266618
 20
0.4781447599344604
 30
0.0
 10
9.330023055673841
 20
0.4544209027347414
 30
0.0
  0
LINE
  5
A9
330
1F
100
AcDbEntity
  8
외형선
  6
Continuous
370
    15
100
AcDbLine
 10
8.9499927547345
 20
3.81650546663868
 30
0.0
 11
8.949992754734508
 21
9.524999999999999
 31
0.0
  0
SPLINE
  5
AA
330
1F
100
AcDbEntity
  8
외형선
  6
Continuous
370
    15
100
AcDbSpline
210
0.0
220
0.0
230
1.0
 70
     8
 71
     3
 72
     8
 73
     4
 74
     0
 42
0.000000001
 43
0.00000001
 40
0.0
 40
0.0
 40
0.0
 40
0.0
 40
1.0
 40
1.0
 40
1.0
 40
1.0
 10
12.0
 20
2.146854374287619
 30
0.0
 10
10.98749734126992
 20
2.717944877028388
 30
0.0
 10
9.962477445081667
 20
3.279060990588017
 30
0.0
 10
8.94998518080221
 20
3.816131449981692
 30
0.0
  0
LINE
  5
AB
330
1F
100
AcDbEntity
  8
외형선
  6
Continuous
370
    15
100
AcDbLine
 10
12.0
 20
2.146854374287617
 30
0.0
 11
12.0
 21
-0.4995774315746421
 31
0.0
  0
LINE
  5
AC
330
1F
100
AcDbEntity
  8
외형선
  6
Continuous
370
    15
100
AcDbLine
 10
8.949992754734508
 20
-9.525000000000002
 30
0.0
 11
8.949992754734497
 21
1.257436737832911
 31
0.0
  0
LINE
  5
AD
330
1F
100
AcDbEntity
  8
외형선
  6
Continuous
370
    15
100
AcDbLine
 10
-44.14999999999999
 20
9.524999999999991
 30
0.0
 11
-44.14999999999999
 21
-9.525000000000006
 31
0.0
  0
LINE
  5
AE
330
1F
100
AcDbEntity
  8
외형선
  6
Continuous
370
    15
100
AcDbLine
 10
-45.14999999999998
 20
8.524999999999991
 30
0.0
 11
-45.14999999999998
 21
-8.525000000000006
 31
0.0
  0
LINE
  5
AF
330
1F
100
AcDbEntity
  8
외형선
  6
Continuous
370
    15
100
AcDbLine
 10
12.00000000000001
 20
2.296928891961019
 30
0.0
 11
11.46140083888409
 21
2.542032094493469
 31
0.0
  0
SPLINE
  5
B0
330
1F
100
AcDbEntity
  8
외형선
  6
Continuous
370
    15
100
AcDbSpline
210
0.0
220
0.0
230
1.0
 70
    24
 71
     3
 72
     8
 73
     4
 74
     0
 42
0.000000001
 43
0.00000001
 40
0.0
 40
0.0
 40
0.0
 40
0.0
 40
1.0
 40
1.0
 40
1.0
 40
1.0
 10
12.0
 20
2.296928891961024
 30
0.0
 10
12.0
 20
2.287512765873782
 30
0.0
 10
12.0
 20
2.237346609340566
 30
0.0
 10
12.0
 20
2.146854374290142
 30
0.0
  0
SPLINE
  5
B1
330
1F
100
AcDbEntity
  8
외형선
  6
Continuous
370
    15
100
AcDbSpline
210
0.0
220
0.0
230
1.0
 70
     8
 71
     3
 72
     8
 73
     4
 74
     0
 42
0.000000001
 43
0.00000001
 40
0.0
 40
0.0
 40
0.0
 40
0.0
 40
1.0
 40
1.0
 40
1.0
 40
1.0
 10
12.0
 20
7.586652118609051
 30
0.0
 10
10.98749894337687
 20
7.630476080629906
 30
0.0
 10
9.962480689847304
 20
7.631021187816674
 30
0.0
 10
8.949989987073813
 20
7.588274208569663
 30
0.0
  0
SPLINE
  5
B2
330
1F
100
AcDbEntity
  8
외형선
  6
Continuous
370
    15
100
AcDbSpline
210
0.0
220
0.0
230
1.0
 70
    24
 71
     3
 72
    14
 73
    10
 74
     0
 42
0.000000001
 43
0.00000001
 40
0.0
 40
0.0
 40
0.0
 40
0.0
 40
0.25
 40
0.25
 40
0.5
 40
0.5
 40
0.75
 40
0.75
 40
1.0
 40
1.0
 40
1.0
 40
1.0
 10
12.0
 20
7.586652118609051
 30
0.0
 10
12.0
 20
7.433933699167287
 30
0.0
 10
12.0
 20
7.201181310720619
 30
0.0
 10
12.0
 20
6.57506567642387
 30
0.0
 10
12.0
 20
6.181698028523845
 30
0.0
 10
12.0
 20
5.257187835060677
 30
0.0
 10
12.0
 20
4.726312259976886
 30
0.0
 10
12.0
 20
3.569527183928936
 30
0.0
 10
12.0
 20
2.94403115220601
 30
0.0
 10
12.0
 20
2.296928891961024
 30
0.0
  0
SPLINE
  5
B3
330
1F
100
AcDbEntity
  8
외형선
  6
Continuous
370
    15
100
AcDbSpline
210
0.0
220
0.0
230
1.0
 70
     8
 71
     3
 72
     8
 73
     4
 74
     0
 42
0.000000001
 43
0.00000001
 40
0.0
 40
0.0
 40
0.0
 40
0.0
 40
1.0
 40
1.0
 40
1.0
 40
1.0
 10
12.0
 20
-7.586652118609055
 30
0.0
 10
11.16285918832461
 20
-7.62288598414133
 30
0.0
 10
10.3172528983795
 20
-7.629612849905529
 30
0.0
 10
9.4770858771665
 20
-7.606611550452484
 30
0.0
  0
SPLINE
  5
B4
330
1F
100
AcDbEntity
  8
외형선
  6
Continuous
370
    15
100
AcDbSpline
210
0.0
220
0.0
230
1.0
 70
     8
 71
     3
 72
    16
 73
    12
 74
     0
 42
0.000000001
 43
0.00000001
 40
0.0
 40
0.0
 40
0.0
 40
0.0
 40
0.2053516299655411
 40
0.3868421971359068
 40
0.5445092769197233
 40
0.6784017942126676
 40
0.7885916496716266
 40
0.8752008668633677
 40
0.9384784263529593
 40
0.9790933425886362
 40
1.0
 40
1.0
 40
1.0
 40
1.0
 10
9.236779206536202
 20
-7.77488016203569
 30
0.0
 10
9.251763383578812
 20
-7.762774637484584
 30
0.0
 10
9.279990634418795
 20
-7.739970203375058
 30
0.0
 10
9.320486609460822
 20
-7.708360230246142
 30
0.0
 10
9.356348769770324
 20
-7.681214495964181
 30
0.0
 10
9.387580797049711
 20
-7.658423476193913
 30
0.0
 10
9.414236229707763
 20
-7.639991042792941
 30
0.0
 10
9.436098098059055
 20
-7.625554935173962
 30
0.0
 10
9.453644151492739
 20
-7.615707956982022
 30
0.0
 10
9.465903867961545
 20
-7.608725386686896
 30
0.0
 10
9.474302085252674
 20
-7.607091171895759
 30
0.0
 10
9.477156021544666
 20
-7.606535822499612
 30
0.0
  0
SPLINE
  5
B5
330
1F
100
AcDbEntity
  8
외형선
  6
Continuous
370
    15
100
AcDbSpline
210
0.0
220
0.0
230
1.0
 70
    24
 71
     3
 72
    14
 73
    10
 74
     0
 42
0.000000001
 43
0.00000001
 40
0.0
 40
0.0
 40
0.0
 40
0.0
 40
0.25
 40
0.25
 40
0.5
 40
0.5
 40
0.75
 40
0.75
 40
1.0
 40
1.0
 40
1.0
 40
1.0
 10
11.99999999999999
 20
-0.623101766480533
 30
0.0
 10
11.99999999999999
 20
-1.427130813119918
 30
0.0
 10
11.99999999999999
 20
-2.225612498620645
 30
0.0
 10
11.99999999999999
 20
-3.728958530649033
 30
0.0
 10
11.99999999999999
 20
-4.432909998420505
 30
0.0
 10
11.99999999999999
 20
-5.670533662880536
 30
0.0
 10
11.99999999999999
 20
-6.203546401937825
 30
0.0
 10
11.99999999999999
 20
-7.055560646157345
 30
0.0
 10
11.99999999999999
 20
-7.374564103203586
 30
0.0
 10
11.99999999999999
 20
-7.586652118609058
 30
0.0
  0
SPLINE
  5
B6
330
1F
100
AcDbEntity
  8
외형선
  6
Continuous
370
    15
100
AcDbSpline
210
0.0
220
0.0
230
1.0
 70
     8
 71
     3
 72
    16
 73
    12
 74
     0
 42
0.000000001
 43
0.00000001
 40
0.0
 40
0.0
 40
0.0
 40
0.0
 40
0.2499999999999971
 40
0.2499999999999971
 40
0.4999999999999942
 40
0.4999999999999942
 40
0.6249999999999957
 40
0.6249999999999957
 40
0.7499999999999971
 40
0.7499999999999971
 40
1.0
 40
1.0
 40
1.0
 40
1.0
 10
9.236776169436405
 20
-7.774941469433235
 30
0.0
 10
9.207913339901012
 20
-7.798365239439068
 30
0.0
 10
9.177395981573707
 20
-7.824162228285815
 30
0.0
 10
9.108873476237783
 20
-7.886777791376975
 30
0.0
 10
9.068999386852894
 20
-7.925649724515239
 30
0.0
 10
9.016514560825872
 20
-7.984885535257668
 30
0.0
 10
9.00110272370533
 20
-8.003912811255251
 30
0.0
 10
8.978155970617681
 20
-8.035015803633648
 30
0.0
 10
8.970204971218067
 20
-8.047436110085492
 30
0.0
 10
8.953108064374767
 20
-8.07764777216898
 30
0.0
 10
8.9499927547345
 20
-8.089049242675248
 30
0.0
 10
8.949992754734504
 20
-8.096860960332933
 30
0.0
  0
SPLINE
  5
B7
330
1F
100
AcDbEntity
  8
0
  6
Continuous
 62
     1
370
    15
100
AcDbSpline
210
0.0
220
0.0
230
1.0
 70
     8
 71
     3
 72
    30
 73
    26
 74
     0
 42
0.000000001
 43
0.00000001
 40
0.0
 40
0.0
 40
0.0
 40
0.0
 40
0.0416557959406502
 40
0.0846726216714216
 40
0.128253767074687
 40
0.1718356051844218
 40
0.215418874949046
 40
0.2590043141201029
 40
0.3025926586368859
 40
0.3461846420142891
 40
0.389780994734966
 40
0.4333777404465379
 40
0.4769700644470314
 40
0.5205586878034454
 40
0.5641443437981513
 40
0.6077277681894078
 40
0.6513096985995321
 40
0.694890873899759
 40
0.7384720335928703
 40
0.7820539171947047
 40
0.8256372636156392
 40
0.869222810543152
 40
0.912811293826564
 40
0.9564034468650497
 40
0.9999999999999999
 40
0.9999999999999999
 40
0.9999999999999999
 40
0.9999999999999999
 10
23.26450675842252
 20
6.385927235771732
 30
0.0
 10
24.16612803538203
 20
6.756692658699038
 30
0.0
 10
25.99882947706537
 20
7.510337611951096
 30
0.0
 10
28.77478575267735
 20
8.39004740756046
 30
0.0
 10
31.59249412862637
 20
9.053759979899958
 30
0.0
 10
34.4224544227005
 20
9.450660791056873
 30
0.0
 10
37.25253104774268
 20
9.571150274377743
 30
0.0
 10
40.08277512397007
 20
9.410355094509288
 30
0.0
 10
42.91324696622897
 20
8.97333158688281
 30
0.0
 10
45.74399808264987
 20
8.272783552405382
 30
0.0
 10
48.57500302162747
 20
7.329329867563732
 30
0.0
 10
51.40602438724515
 20
6.170671726397024
 30
0.0
 10
54.23680082771146
 20
4.830791985867236
 30
0.0
 10
57.06729459579699
 20
3.349120665513431
 30
0.0
 10
59.89755575648006
 20
1.769156338689536
 30
0.0
 10
62.72764345125213
 20
0.1372832771570786
 30
0.0
 10
65.5576146500055
 20
-1.498595784507614
 30
0.0
 10
68.38752704468386
 20
-3.090475157486612
 30
0.0
 10
71.21743822254729
 20
-4.59159700855029
 30
0.0
 10
74.04740577711905
 20
-5.958031685212769
 30
0.0
 10
76.87748738795192
 20
-7.149178407019857
 30
0.0
 10
79.70774008742802
 20
-8.131890379669073
 30
0.0
 10
82.5382228113856
 20
-8.870491044148803
 30
0.0
 10
85.36898662731909
 20
-9.36871165625903
 30
0.0
 10
87.25629712721057
 20
-9.467535299704796
 30
0.0
 10
88.19999999999999
 20
-9.524999999999988
 30
0.0
  0
SPLINE
  5
B8
330
1F
100
AcDbEntity
  8
0
  6
Continuous
 62
     1
370
    15
100
AcDbSpline
210
0.0
220
0.0
230
1.0
 70
     8
 71
     3
 72
    17
 73
    13
 74
     0
 42
0.000000001
 43
0.00000001
 40
0.0
 40
0.0
 40
0.0
 40
0.0
 40
0.007657345163622
 40
0.1259736983032395
 40
0.2443345382224622
 40
0.3627430471635027
 40
0.4811436233884456
 40
0.5994807370306822
 40
0.717815012917705
 40
0.8362144472983302
 40
0.9546235496634997
 40
1.0
 40
1.0
 40
1.0
 40
1.0
 10
64.54541499207393
 20
-0.9090247181792418
 30
0.0
 10
64.46444692592333
 20
-0.8772214576484081
 30
0.0
 10
63.13241258249194
 20
-0.3540147506811208
 30
0.0
 10
60.54885979598477
 20
0.7110857745540379
 30
0.0
 10
56.79405946711813
 20
2.196664805655824
 30
0.0
 10
53.03817787625722
 20
3.575477926753679
 30
0.0
 10
49.28255747552399
 20
4.768438047734344
 30
0.0
 10
45.52802711335765
 20
5.714681771426855
 30
0.0
 10
41.77352380838033
 20
6.371631919517264
 30
0.0
 10
38.01794997360953
 20
6.678421232589534
 30
0.0
 10
35.03384750656841
 20
6.711881534519756
 30
0.0
 10
33.30192795183648
 20
6.525785498353599
 30
0.0
 10
32.82210320315883
 20
6.474227974483992
 30
0.0
  0
SPLINE
  5
B9
330
1F
100
AcDbEntity
  8
0
  6
Continuous
 62
     1
370
    15
100
AcDbSpline
210
0.0
220
0.0
230
1.0
 70
     8
 71
     3
 72
    22
 73
    18
 74
     0
 42
0.000000001
 43
0.00000001
 40
0.0
 40
0.0
 40
0.0
 40
0.0
 40
0.0290964572613129
 40
0.0988474247743847
 40
0.168597763790642
 40
0.2383411122373656
 40
0.308078638818129
 40
0.377811517087819
 40
0.4475409244801496
 40
0.5172680413282827
 40
0.5869940498802919
 40
0.6558171663775795
 40
0.7246422681087725
 40
0.7934712359665247
 40
0.8623059464447609
 40
0.931148269510814
 40
1.0
 40
1.0
 40
1.0
 40
1.0
 10
52.58707139647258
 20
-7.486472662119326
 30
0.0
 10
52.19341673009461
 20
-7.632568826806047
 30
0.0
 10
50.8560803776851
 20
-8.128891438146702
 30
0.0
 10
48.57499691584189
 20
-8.736260406218921
 30
0.0
 10
45.74399463920754
 20
-9.282963813731875
 30
0.0
 10
42.91324245845954
 20
-9.543846547728212
 30
0.0
 10
40.08277055260346
 20
-9.528037427068803
 30
0.0
 10
37.25252613526089
 20
-9.231530888511806
 30
0.0
 10
34.4224492824405
 20
-8.664254672829824
 30
0.0
 10
31.59248858992853
 20
-7.842546968289409
 30
0.0
 10
28.77478079729696
 20
-6.795171829125601
 30
0.0
 10
25.96933809511994
 20
-5.55593762791951
 30
0.0
 10
23.17599803169333
 20
-4.163247669465024
 30
0.0
 10
20.38247463928576
 20
-2.651111834330847
 30
0.0
 10
17.58866875079367
 20
-1.064266426002503
 30
0.0
 10
14.79449981290094
 20
0.5575184652619937
 30
0.0
 10
12.93154236413053
 20
1.61705160842007
 30
0.0
 10
12.0
 20
2.146854374287619
 30
0.0
  0
SPLINE
  5
BA
330
1F
100
AcDbEntity
  8
외형선
  6
Continuous
370
    15
100
AcDbSpline
210
0.0
220
0.0
230
1.0
 70
    24
 71
     3
 72
     8
 73
     4
 74
     0
 42
0.000000001
 43
0.00000001
 40
0.0
 40
0.0
 40
0.0
 40
0.0
 40
1.0
 40
1.0
 40
1.0
 40
1.0
 10
12.0
 20
2.296928891961024
 30
0.0
 10
12.0
 20
2.287512765873806
 30
0.0
 10
12.0
 20
2.237346609340821
 30
0.0
 10
12.0
 20
2.14685437429083
 30
0.0
  0
SPLINE
  5
BB
330
1F
100
AcDbEntity
  8
0
  6
Continuous
 62
     1
370
    15
100
AcDbSpline
210
0.0
220
0.0
230
1.0
 70
     8
 71
     3
 72
    18
 73
    14
 74
     0
 42
0.000000001
 43
0.00000001
 40
0.0
 40
0.0
 40
0.0
 40
0.0
 40
0.0228425824307569
 40
0.1198062825523211
 40
0.2167792707387884
 40
0.3137592657744563
 40
0.4107439783907089
 40
0.5077311138909633
 40
0.6047183747890035
 40
0.7017034634541998
 40
0.7986840847570834
 40
0.8993534464533135
 40
1.0
 40
1.0
 40
1.0
 40
1.0
 10
46.05154909070539
 20
-7.897514671516485
 30
0.0
 10
45.79228494516553
 20
-7.932088753960033
 30
0.0
 10
44.43247925899186
 20
-8.113425181344063
 30
0.0
 10
41.97196655596585
 20
-8.127236686603883
 30
0.0
 10
38.66994331147544
 20
-7.917455882457842
 30
0.0
 10
35.36764090345432
 20
-7.365762701848521
 30
0.0
 10
32.06515564104107
 20
-6.526859791479056
 30
0.0
 10
28.76257452298124
 20
-5.425439311690194
 30
0.0
 10
25.45999142284965
 20
-4.108000214780078
 30
0.0
 10
22.15748269625214
 20
-2.625918247809846
 30
0.0
 10
18.8132423689778
 20
-1.020727716755271
 30
0.0
 10
15.42732527899617
 20
0.654990136533535
 30
0.0
 10
13.1423554675424
 20
1.749657313705192
 30
0.0
 10
12.00000000000001
 20
2.296928891961019
 30
0.0
  0
SPLINE
  5
BC
330
1F
100
AcDbEntity
  8
0
  6
Continuous
 62
     1
370
    15
100
AcDbSpline
210
0.0
220
0.0
230
1.0
 70
     8
 71
     3
 72
    24
 73
    20
 74
     0
 42
0.000000001
 43
0.00000001
 40
0.0
 40
0.0
 40
0.0
 40
0.0
 40
0.0608353531667124
 40
0.1216645663804464
 40
0.1824886587677842
 40
0.2433086537221656
 40
0.3041255780559943
 40
0.3649404611466596
 40
0.4257543340780007
 40
0.486568228778729
 40
0.5473831771593466
 40
0.6082002102490944
 40
0.6690203573344742
 40
0.7298446451008705
 40
0.7906740967788052
 40
0.8515097185638126
 40
0.9123447921844596
 40
0.9731737687478274
 40
0.9999999999999999
 40
0.9999999999999999
 40
0.9999999999999999
 40
0.9999999999999999
 10
88.20000000000002
 20
-9.038661779433848
 30
0.0
 10
87.25629703691442
 20
-8.841156883061988
 30
0.0
 10
85.36898635621347
 20
-8.446167023970549
 30
0.0
 10
82.5382222686245
 20
-7.534534565366378
 30
0.0
 10
79.70773927245456
 20
-6.420756866549302
 30
0.0
 10
76.87748630040646
 20
-5.113387327324918
 30
0.0
 10
74.04740441686629
 20
-3.657286804950706
 30
0.0
 10
71.21743658964425
 20
-2.093467300557153
 30
0.0
 10
68.38752513948361
 20
-0.4682970465409915
 30
0.0
 10
65.55761247277547
 20
1.170649536545183
 30
0.0
 10
62.72764100359716
 20
2.775226449686147
 30
0.0
 10
59.89755303602772
 20
4.298372310406704
 30
0.0
 10
57.06729161603047
 20
5.695265896407555
 30
0.0
 10
54.2367975439404
 20
6.925287616306531
 30
0.0
 10
51.40602097274753
 20
7.950841835454623
 30
0.0
 10
48.5749988325101
 20
8.747253189707909
 30
0.0
 10
45.74399550979669
 20
9.270612991614456
 30
0.0
 10
43.44060988301686
 20
9.524193785462213
 30
0.0
 10
42.08092616703352
 20
9.49836864240353
 30
0.0
 10
41.66480497236886
 20
9.490465047430938
 30
0.0
  0
SPLINE
  5
BD
330
1F
100
AcDbEntity
  8
0
  6
Continuous
 62
     1
370
    15
100
AcDbSpline
210
0.0
220
0.0
230
1.0
 70
     8
 71
     3
 72
    15
 73
    11
 74
     0
 42
0.000000001
 43
0.00000001
 40
0.0
 40
0.0
 40
0.0
 40
0.0
 40
0.1335443897146892
 40
0.2671045870229652
 40
0.4006774638181925
 40
0.5342598774431059
 40
0.667848674279312
 40
0.8014406933637619
 40
0.9350327700233547
 40
0.9999999999999999
 40
0.9999999999999999
 40
0.9999999999999999
 40
0.9999999999999999
 10
88.2
 20
-7.514960818107257
 30
0.0
 10
87.09958623194825
 20
-7.284929886955392
 30
0.0
 10
84.898628440327
 20
-6.8248407959865
 30
0.0
 10
81.59694552397961
 20
-5.781896273237265
 30
0.0
 10
78.29490769934428
 20
-4.52950565474746
 30
0.0
 10
74.99259791657053
 20
-3.09083047888175
 30
0.0
 10
71.69010706283116
 20
-1.528843095698319
 30
0.0
 10
68.38752557327443
 20
0.0893386713351538
 30
0.0
 10
65.65041923412561
 20
1.443741843939998
 30
0.0
 10
64.01419222133174
 20
2.200987462397953
 30
0.0
 10
63.47883007470155
 20
2.448752984329859
 30
0.0
  0
LINE
  5
BE
330
1F
100
AcDbEntity
  8
0
  6
Continuous
 62
     1
370
    15
100
AcDbLine
 10
88.2
 20
-9.038661779433856
 30
0.0
 11
88.2
 21
-7.514960818107257
 31
0.0
  0
LINE
  5
BF
330
1F
100
AcDbEntity
  8
0
  6
Continuous
 62
     1
370
    15
100
AcDbLine
 10
88.19999999999996
 20
-9.524999999999995
 30
0.0
 11
88.2
 21
-9.038661779433856
 31
0.0
  0
SPLINE
  5
C0
330
1F
100
AcDbEntity
  8
0
  6
Continuous
 62
     1
370
    15
100
AcDbSpline
210
0.0
220
0.0
230
1.0
 70
     8
 71
     3
 72
    16
 73
    12
 74
     0
 42
0.000000001
 43
0.00000001
 40
0.0
 40
0.0
 40
0.0
 40
0.0
 40
0.111560966788973
 40
0.2231066907692426
 40
0.3346400800909121
 40
0.4461641646408226
 40
0.5576819848807778
 40
0.6691965883998174
 40
0.7821741051735452
 40
0.8951534176838478
 40
0.9999999999999999
 40
0.9999999999999999
 40
0.9999999999999999
 40
0.9999999999999999
 10
11.99999999999839
 20
-0.4995774315737084
 30
0.0
 10
12.93154268024067
 20
-1.035155029943389
 30
0.0
 10
14.79450076209651
 20
-2.106237049593016
 30
0.0
 10
17.58867065057341
 20
-3.648852512035585
 30
0.0
 10
20.3824774947024
 20
-5.087991456157398
 30
0.0
 10
23.17600183251203
 20
-6.381377906881424
 30
0.0
 10
25.96934288360262
 20
-7.491812773334782
 30
0.0
 10
28.77478600656539
 20
-8.393522245277794
 30
0.0
 10
31.59249440726937
 20
-9.049111794664633
 30
0.0
 10
34.35451830751232
 20
-9.455742424255718
 30
0.0
 10
36.173262562777
 20
-9.496185059224409
 30
0.0
 10
37.04868244535596
 20
-9.515651395215844
 30
0.0
  0
SPLINE
  5
C1
330
1F
100
AcDbEntity
  8
0
  6
Continuous
 62
     1
370
    15
100
AcDbSpline
210
0.0
220
0.0
230
1.0
 70
     8
 71
     3
 72
    12
 73
     8
 74
     0
 42
0.000000001
 43
0.00000001
 40
0.0
 40
0.0
 40
0.0
 40
0.0
 40
0.1334867143203697
 40
0.3500895060605111
 40
0.5667068903188187
 40
0.7833425117968001
 40
1.0
 40
1.0
 40
1.0
 40
1.0
 10
75.1332589985303
 20
6.383710396612399
 30
0.0
 10
75.71465326786233
 20
6.634063445799751
 30
0.0
 10
77.23944945161118
 20
7.290652948185672
 30
0.0
 10
79.7077407013478
 20
8.126840475530447
 30
0.0
 10
82.53822264765417
 20
8.87183784563123
 30
0.0
 10
85.36898666825817
 20
9.368374904426041
 30
0.0
 10
87.25629714085737
 20
9.467423045317268
 30
0.0
 10
88.19999999999996
 20
9.525000000000002
 30
0.0
  0
SPLINE
  5
C2
330
1F
100
AcDbEntity
  8
0
  6
Continuous
 62
     1
370
    15
100
AcDbSpline
210
0.0
220
0.0
230
1.0
 70
    24
 71
     3
 72
    10
 73
     6
 74
     0
 42
0.000000001
 43
0.00000001
 40
0.0
 40
0.0
 40
0.0
 40
0.0
 40
0.4999999999999996
 40
0.4999999999999996
 40
1.0
 40
1.0
 40
1.0
 40
1.0
 10
88.2
 20
6.667499999999998
 30
0.0
 10
88.20000000000002
 20
7.071667246089662
 30
0.0
 10
88.20000000000003
 20
7.54134701595929
 30
0.0
 10
88.19999999999999
 20
8.52673390815215
 30
0.0
 10
88.19999999999999
 20
9.03992447600903
 30
0.0
 10
88.19999999999996
 20
9.525000000000013
 30
0.0
  0
SPLINE
  5
C3
330
1F
100
AcDbEntity
  8
0
  6
Continuous
 62
     1
370
    15
100
AcDbSpline
210
0.0
220
0.0
230
1.0
 70
     8
 71
     3
 72
     9
 73
     5
 74
     0
 42
0.000000001
 43
0.00000001
 40
0.0
 40
0.0
 40
0.0
 40
0.0
 40
0.9640468211764893
 40
1.0
 40
1.0
 40
1.0
 40
1.0
 10
88.2
 20
6.667499999999999
 30
0.0
 10
87.06244178097107
 20
6.664813315664811
 30
0.0
 10
85.882459446046
 20
6.662026434077557
 30
0.0
 10
84.70243587627746
 20
6.514904657255533
 30
0.0
 10
84.66001027785762
 20
6.50961516170462
 30
0.0
  0
LINE
  5
C4
330
1F
100
AcDbEntity
  8
0
  6
Continuous
 62
     1
370
    15
100
AcDbLine
 10
12.7009937579534
 20
-0.8999340923671405
 30
0.0
 11
12.0
 21
-0.6231017664805377
 31
0.0
  0
SPLINE
  5
C5
330
1F
100
AcDbEntity
  8
외형선
  6
Continuous
370
    15
100
AcDbSpline
210
0.0
220
0.0
230
1.0
 70
    24
 71
     3
 72
    11
 73
     7
 74
     0
 42
0.000000001
 43
0.00000001
 40
0.0
 40
0.0
 40
0.0
 40
0.0
 40
0.2878156297498506
 40
0.6855689948849956
 40
0.8424254359768298
 40
1.0
 40
1.0
 40
1.0
 40
1.0
 10
12.0
 20
-0.286253088657109
 30
0.0
 10
12.0
 20
-0.2878206862850979
 30
0.0
 10
12.0
 20
-0.2915546611603975
 30
0.0
 10
12.0
 20
-0.3968575761723197
 30
0.0
 10
12.0
 20
-0.5201820501985843
 30
0.0
 10
12.0
 20
-0.5887429993747677
 30
0.0
 10
12.0
 20
-0.6231017664801316
 30
0.0
  0
SPLINE
  5
C6
330
1F
100
AcDbEntity
  8
0
  6
Continuous
 62
     1
370
    15
100
AcDbSpline
210
0.0
220
0.0
230
1.0
 70
     8
 71
     3
 72
    12
 73
     8
 74
     0
 42
0.000000001
 43
0.00000001
 40
0.0
 40
0.0
 40
0.0
 40
0.0
 40
0.4999999999999977
 40
0.4999999999999977
 40
0.7499999999999988
 40
0.7499999999999988
 40
1.0
 40
1.0
 40
1.0
 40
1.0
 10
88.2
 20
-2.54548906093236
 30
0.0
 10
87.34179496967373
 20
-1.870798261156443
 30
0.0
 10
86.49573740577397
 20
-1.172677160324447
 30
0.0
 10
85.24492402574462
 20
-0.0902502097417863
 30
0.0
 10
84.83107042667415
 20
0.276507635695425
 30
0.0
 10
84.00998841918657
 20
1.022802140366358
 30
0.0
 10
83.60138535338719
 20
1.403657852354449
 30
0.0
 10
83.20000000000003
 20
1.788486169330874
 30
0.0
  0
LINE
  5
C7
330
1F
100
AcDbEntity
  8
0
  6
Continuous
 62
     1
370
    15
100
AcDbLine
 10
83.2
 20
2.937719435296597
 30
0.0
 11
88.2
 21
0.0000000000000074
 31
0.0
  0
LINE
  5
C8
330
1F
100
AcDbEntity
  8
0
  6
Continuous
 62
     1
370
    15
100
AcDbLine
 10
88.2
 20
0.0000000000000074
 30
0.0
 11
88.2
 21
-2.54548906093236
 31
0.0
  0
SPLINE
  5
C9
330
1F
100
AcDbEntity
  8
0
  6
Continuous
 62
     1
370
    15
100
AcDbSpline
210
0.0
220
0.0
230
1.0
 70
     8
 71
     3
 72
    24
 73
    20
 74
     0
 42
0.000000001
 43
0.00000001
 40
0.0
 40
0.0
 40
0.0
 40
0.0
 40
0.0138708028130724
 40
0.0708014970314475
 40
0.1277299975991451
 40
0.190331981191181
 40
0.2529539135259847
 40
0.3155890197995868
 40
0.3782288397986543
 40
0.4408648953093804
 40
0.5034887224947178
 40
0.5660923761563144
 40
0.6287017331099795
 40
0.6913295528175373
 40
0.7539674028624616
 40
0.8154874478895422
 40
0.8770031924683473
 40
0.938509184597751
 40
1.0
 40
1.0
 40
1.0
 40
1.0
 10
68.0278973380538
 20
-7.138563503433978
 30
0.0
 10
67.76885960116657
 20
-7.186716690947732
 30
0.0
 10
66.44663912075056
 20
-7.432507638216968
 30
0.0
 10
64.06128566482994
 20
-7.609879328098266
 30
0.0
 10
60.76592032542223
 20
-7.644057983235585
 30
0.0
 10
57.36418192110136
 20
-7.337392198166133
 30
0.0
 10
53.8556969304871
 20
-6.697144237295647
 30
0.0
 10
50.34641142626208
 20
-5.753304707875729
 30
0.0
 10
46.83682469168342
 20
-4.550632187344844
 30
0.0
 10
43.32748214698759
 20
-3.142773604569828
 30
0.0
 10
39.81888622308253
 20
-1.593482174724858
 30
0.0
 10
36.31101587606554
 20
0.0278821864304696
 30
0.0
 10
32.80299140699182
 20
1.647823078771042
 30
0.0
 10
29.29416529200911
 20
3.193571971935566
 30
0.0
 10
25.80559250601959
 20
4.586693274359454
 30
0.0
 10
22.33787040697045
 20
5.770445281916865
 30
0.0
 10
18.89129850315125
 20
6.689811512947649
 30
0.0
 10
15.44534036979002
 20
7.341988882080253
 30
0.0
 10
13.14835231387083
 20
7.505104415441456
 30
0.0
 10
12.0
 20
7.586652118609051
 30
0.0
  0
SPLINE
  5
CA
330
1F
100
AcDbEntity
  8
외형선
  6
Continuous
370
    15
100
AcDbSpline
210
0.0
220
0.0
230
1.0
 70
    24
 71
     3
 72
    14
 73
    10
 74
     0
 42
0.000000001
 43
0.00000001
 40
0.0
 40
0.0
 40
0.0
 40
0.0
 40
0.25
 40
0.25
 40
0.5
 40
0.5
 40
0.75
 40
0.75
 40
1.0
 40
1.0
 40
1.0
 40
1.0
 10
12.0
 20
7.586652118609051
 30
0.0
 10
12.0
 20
7.433933699167287
 30
0.0
 10
12.0
 20
7.201181310720619
 30
0.0
 10
12.0
 20
6.57506567642387
 30
0.0
 10
12.0
 20
6.181698028523845
 30
0.0
 10
12.0
 20
5.257187835060677
 30
0.0
 10
12.0
 20
4.726312259976886
 30
0.0
 10
12.0
 20
3.569527183928936
 30
0.0
 10
12.0
 20
2.94403115220601
 30
0.0
 10
12.0
 20
2.296928891961024
 30
0.0
  0
SPLINE
  5
CB
330
1F
100
AcDbEntity
  8
0
  6
Continuous
 62
     1
370
    15
100
AcDbSpline
210
0.0
220
0.0
230
1.0
 70
     8
 71
     3
 72
    15
 73
    11
 74
     0
 42
0.000000001
 43
0.00000001
 40
0.0
 40
0.0
 40
0.0
 40
0.0
 40
0.139745252300934
 40
0.2794880954563659
 40
0.4192279319361319
 40
0.5589641652821651
 40
0.6986962003202183
 40
0.8384234433706074
 40
0.9781453024578192
 40
1.0
 40
1.0
 40
1.0
 40
1.0
 10
83.19999999999997
 20
2.273962504588745
 30
0.0
 10
82.13666665505131
 20
2.73449376216406
 30
0.0
 10
80.01001829654419
 20
3.655548337962265
 30
0.0
 10
76.820086483167
 20
4.878052579727771
 30
0.0
 10
73.63023235604075
 20
5.925398859829462
 30
0.0
 10
70.4404701833663
 20
6.748185693510377
 30
0.0
 10
67.25082138234158
 20
7.327764220050656
 30
0.0
 10
64.06127832144833
 20
7.604891109366503
 30
0.0
 10
61.76872257467387
 20
7.678900562175952
 30
0.0
 10
60.53926903078764
 20
7.563740796622877
 30
0.0
 10
60.37297426684222
 20
7.548164391866562
 30
0.0
  0
SPLINE
  5
CC
330
1F
100
AcDbEntity
  8
0
  6
Continuous
 62
     1
370
    15
100
AcDbSpline
210
0.0
220
0.0
230
1.0
 70
     8
 71
     3
 72
     9
 73
     5
 74
     0
 42
0.000000001
 43
0.00000001
 40
0.0
 40
0.0
 40
0.0
 40
0.0
 40
0.180133256829439
 40
1.0
 40
1.0
 40
1.0
 40
1.0
 10
16.20202751323505
 20
-7.136003733484482
 30
0.0
 10
15.94971169863649
 20
-7.184127018391758
 30
0.0
 10
14.54899414631098
 20
-7.451280823048954
 30
0.0
 10
13.14834535931785
 20
-7.525666102118485
 30
0.0
 10
12.0
 20
-7.586652118609056
 30
0.0
  0
SPLINE
  5
CD
330
1F
100
AcDbEntity
  8
0
  6
Continuous
 62
     1
370
    15
100
AcDbSpline
210
0.0
220
0.0
230
1.0
 70
    24
 71
     3
 72
     8
 73
     4
 74
     0
 42
0.000000001
 43
0.00000001
 40
0.0
 40
0.0
 40
0.0
 40
0.0
 40
1.0
 40
1.0
 40
1.0
 40
1.0
 10
83.19999999999999
 20
1.788486169330782
 30
0.0
 10
83.19999999999999
 20
1.951691093477698
 30
0.0
 10
83.2
 20
2.113595766767048
 30
0.0
 10
83.2
 20
2.273962504588741
 30
0.0
  0
SPLINE
  5
CE
330
1F
100
AcDbEntity
  8
0
  6
Continuous
 62
     1
370
    15
100
AcDbSpline
210
0.0
220
0.0
230
1.0
 70
    24
 71
     3
 72
    10
 73
     6
 74
     0
 42
0.000000001
 43
0.00000001
 40
0.0
 40
0.0
 40
0.0
 40
0.0
 40
0.5
 40
0.5
 40
1.0
 40
1.0
 40
1.0
 40
1.0
 10
88.2
 20
-7.514960818107257
 30
0.0
 10
88.20000000000002
 20
-6.938880480261242
 30
0.0
 10
88.20000000000002
 20
-6.210980884209115
 30
0.0
 10
88.19999999999999
 20
-4.518684375910224
 30
0.0
 10
88.20000000000002
 20
-3.555753395063722
 30
0.0
 10
88.20000000000002
 20
-2.545489060932665
 30
0.0
  0
SPLINE
  5
CF
330
1F
100
AcDbEntity
  8
0
  6
Continuous
 62
     1
370
    15
100
AcDbSpline
210
0.0
220
0.0
230
1.0
 70
    24
 71
     3
 72
    10
 73
     6
 74
     0
 42
0.000000001
 43
0.00000001
 40
0.0
 40
0.0
 40
0.0
 40
0.0
 40
0.4999999999999999
 40
0.4999999999999999
 40
1.0
 40
1.0
 40
1.0
 40
1.0
 10
83.2
 20
2.273962504588743
 30
0.0
 10
83.20000000000002
 20
2.801767246870182
 30
0.0
 10
83.20000000000002
 20
3.304266617507637
 30
0.0
 10
83.19999999999997
 20
4.221095501631605
 30
0.0
 10
83.19999999999997
 20
4.635160569708965
 30
0.0
 10
83.19999999999999
 20
4.989159483222104
 30
0.0
  0
SPLINE
  5
D0
330
1F
100
AcDbEntity
  8
0
  6
Continuous
 62
     1
370
    15
100
AcDbSpline
210
0.0
220
0.0
230
1.0
 70
     8
 71
     3
 72
    10
 73
     6
 74
     0
 42
0.000000001
 43
0.00000001
 40
0.0
 40
0.0
 40
0.0
 40
0.0
 40
0.5
 40
0.5
 40
1.0
 40
1.0
 40
1.0
 40
1.0
 10
88.2
 20
6.667500000000008
 30
0.0
 10
87.35705417514778
 20
6.438941566832869
 30
0.0
 10
86.51842461786646
 20
6.18602840699487
 30
0.0
 10
84.85034462458523
 20
5.628489846077765
 30
0.0
 10
84.02174154135761
 20
5.324646660889367
 30
0.0
 10
83.20000000000002
 20
4.989159483222097
 30
0.0
  0
SPLINE
  5
D1
330
1F
100
AcDbEntity
  8
외형선
  6
Continuous
370
    15
100
AcDbSpline
210
0.0
220
0.0
230
1.0
 70
    24
 71
     3
 72
    14
 73
    10
 74
     0
 42
0.000000001
 43
0.00000001
 40
0.0
 40
0.0
 40
0.0
 40
0.0
 40
0.2499999999999999
 40
0.2499999999999999
 40
0.4999999999999998
 40
0.4999999999999998
 40
0.7499999999999999
 40
0.7499999999999999
 40
1.0
 40
1.0
 40
1.0
 40
1.0
 10
11.99999999999999
 20
-0.6231017664805318
 30
0.0
 10
11.99999999999999
 20
-1.427130813119917
 30
0.0
 10
11.99999999999999
 20
-2.225612498620644
 30
0.0
 10
11.99999999999999
 20
-3.72895853064903
 30
0.0
 10
11.99999999999999
 20
-4.432909998420502
 30
0.0
 10
11.99999999999999
 20
-5.670533662880533
 30
0.0
 10
11.99999999999999
 20
-6.203546401937822
 30
0.0
 10
11.99999999999999
 20
-7.055560646157342
 30
0.0
 10
11.99999999999999
 20
-7.374564103203588
 30
0.0
 10
11.99999999999999
 20
-7.586652118609058
 30
0.0
  0
LINE
  5
D2
330
1F
100
AcDbEntity
  8
0
  6
Continuous
 62
     1
370
    15
100
AcDbLine
 10
88.2
 20
0.0000000000000074
 30
0.0
 11
88.2
 21
6.667500000000008
 31
0.0
  0
LINE
  5
D3
330
1F
100
AcDbEntity
  8
중심선
100
AcDbLine
 10
-48.14999999999999
 20
-0.0000000000000064
 30
0.0
 11
91.20000000000002
 21
0.0000000000000107
 31
0.0
  0
LINE
  5
D4
330
1F
100
AcDbEntity
  8
참조1
100
AcDbLine
 10
24.37426131403118
 20
0.0010749287238892
 30
0.0
 11
24.37426131403118
 21
-39.99892507127611
 31
0.0
  0
LINE
  5
D5
330
1F
100
AcDbEntity
  8
참조1
100
AcDbLine
 10
24.37426131403118
 20
-39.99892507127611
 30
0.0
 11
-20.15080122126847
 21
-39.9989250712761
 31
0.0
  0
CIRCLE
  5
D6
330
1F
100
AcDbEntity
  8
해칭선
100
AcDbCircle
 10
0.0
 20
0.0
 30
0.0
 40
2.999999999999995
  0
INSERT
  5
D7
330
1F
100
AcDbEntity
  8
0
  6
Continuous
 62
     7
100
AcDbBlockReference
 66
     1
  2
블럭10
 10
7.584727067874811
 20
-52.04717430164393
 30
0.0
  0
ATTRIB
  5
D8
330
D7
100
AcDbEntity
  8
FORMAT
 62
     2
100
AcDbText
 10
-1.59656822086647
 20
-49.97180738881174
 30
0.0
 40
4.233333333333333
  1
E1071048 [ 2 FLUTE ]
 41
0.75
  7
SLDTEXTSTYLE0
 11
-1.59656822086647
 21
-52.08847405547841
 31
0.0
100
AcDbAttribute
  2
AUTOATTR0
 70
     0
 74
     1
  0
SEQEND
  5
D9
330
D7
100
AcDbEntity
  8
0
  6
Continuous
 62
     7
  0
HATCH
  5
DA
330
1F
100
AcDbEntity
  8
중심선
100
AcDbHatch
 10
0.0
 20
0.0
 30
0.0
210
0.0
220
0.0
230
1.0
  2
SOLID
 70
     1
 71
     0
 91
        1
 92
        0
 93
        4
 72
     1
 10
13.29963637225567
 20
-35.8
 11
9.853361128418381
 21
-35.8
 72
     1
 10
9.853361128418381
 20
-35.8
 11
7.725131269214359
 21
-38.3363255805726
 72
     1
 10
7.725131269214359
 20
-38.3363255805726
 11
11.17143959816479
 21
-38.33628615127011
 72
     1
 10
11.17143959816479
 20
-38.33628615127011
 11
13.29963637225567
 21
-35.8
 97
        0
 75
     0
 76
     1
 98
        1
 10
-2.849261314031164
 20
-0.001074928723896
  0
HATCH
  5
DB
330
1F
100
AcDbEntity
  8
중심선
100
AcDbHatch
 10
0.0
 20
0.0
 30
0.0
210
0.0
220
0.0
230
1.0
  2
SOLID
 70
     1
 71
     0
 91
        1
 92
        0
 93
        4
 72
     1
 10
18.31240036329164
 20
-35.79999999999998
 11
14.86612511945433
 21
-35.8
 72
     1
 10
14.86612511945433
 20
-35.8
 11
10.33498711109694
 21
-41.20000000000002
 72
     1
 10
10.33498711109694
 20
-41.20000000000002
 11
13.78126235493423
 21
-41.20000000000002
 72
     1
 10
13.78126235493423
 20
-41.20000000000002
 11
18.31240036329164
 21
-35.79999999999998
 97
        0
 75
     0
 76
     1
 98
        1
 10
-2.849261314031164
 20
-0.001074928723896
  0
HATCH
  5
DC
330
1F
100
AcDbEntity
  8
중심선
100
AcDbHatch
 10
0.0
 20
0.0
 30
0.0
210
0.0
220
0.0
230
1.0
  2
SOLID
 70
     1
 71
     0
 91
        1
 92
        0
 93
        4
 72
     1
 10
23.32516435432751
 20
-35.8
 11
19.87888911049039
 21
-35.8
 72
     1
 10
19.87888911049039
 20
-35.8
 11
12.83045220860115
 21
-44.20000000000002
 72
     1
 10
12.83045220860115
 20
-44.20000000000002
 11
16.27672745243843
 21
-44.20000000000002
 72
     1
 10
16.27672745243843
 20
-44.20000000000002
 11
23.32516435432751
 21
-35.8
 97
        0
 75
     0
 76
     1
 98
        1
 10
-2.849261314031164
 20
-0.001074928723896
  0
HATCH
  5
DD
330
1F
100
AcDbEntity
  8
중심선
100
AcDbHatch
 10
0.0
 20
0.0
 30
0.0
210
0.0
220
0.0
230
1.0
  2
SOLID
 70
     1
 71
     0
 91
        1
 92
        0
 93
        6
 72
     3
 10
28.12505478533971
 20
-40.00000000005127
 11
3.960054785062287
 21
1.540882976769353E-10
 40
0.3939339440162625
 50
17.09539180608436
 51
320.0019657685081
 73
     0
 72
     1
 10
29.80805444104031
 20
-38.5878940046383
 11
32.11335631474134
 21
-36.65356729459038
 72
     3
 10
28.12505478528686
 20
-40.00000000000015
 11
6.600054785286829
 21
-1.278976924368180E-13
 40
0.636358354079598
 50
39.99873849337408
 51
368.4976242363724
 73
     1
 72
     1
 10
34.55038727718744
 20
-39.03999999993002
 11
26.80512209212278
 21
-39.03999999993002
 72
     1
 10
26.80512209212279
 20
-39.03999999993002
 11
26.80509704767685
 21
-40.95999999992991
 72
     1
 10
26.80509704767685
 20
-40.95999999992991
 11
31.24647681714889
 21
-40.95999999992988
 97
        0
 75
     0
 76
     1
 98
        1
 10
-2.849261314031164
 20
-0.001074928723896
  0
DIMENSION
  5
DE
330
1F
100
AcDbEntity
  8
치수문자_일반주서
100
AcDbDimension
  2
_D
 10
-57.64999999999996
 20
-9.525000000000059
 30
0.0
 11
-57.64999999999999
 21
0.0000000000000041
 31
0.0
 70
   160
  1
%%c<>
 71
     2
 42
19.05000000000001
 52
-270.0
  3
SLDDIMSTYLE0
100
AcDbAlignedDimension
 13
-44.14999999999998
 23
9.525000000000002
 33
0.0
 14
-44.14999999999998
 24
-9.52500000000001
 34
0.0
 50
90.0000000000002
100
AcDbRotatedDimension
1001
ACAD
1000
DSTYLE
1002
{
1070
   171
1070
     6
1070
   273
1070
     7
1002
}
  0
DIMENSION
  5
F3
330
1F
100
AcDbEntity
  8
치수문자_일반주서
100
AcDbDimension
  2
_D_1
 10
12.0
 20
22.6932913458853
 30
0.0
 11
50.09999999999997
 21
22.6932913458853
 31
0.0
 70
   160
  1
<>
 71
     2
 42
76.19999999999995
  3
SLDDIMSTYLE0
100
AcDbAlignedDimension
 13
88.19999999999995
 23
9.525000000000013
 33
0.0
 14
12.0
 24
7.586652118609051
 34
0.0
100
AcDbRotatedDimension
1001
ACAD
1000
DSTYLE
1002
{
1070
   171
1070
     6
1070
   273
1070
     7
1002
}
  0
DIMENSION
  5
108
330
1F
100
AcDbEntity
  8
치수문자_일반주서
100
AcDbDimension
  2
_D_2
 10
-45.14999999999998
 20
39.56419134481796
 30
0.0
 11
21.52500000000001
 21
39.56419134481796
 31
0.0
 70
   160
  1
<>
 71
     2
 42
133.3499999999999
  3
SLDDIMSTYLE0
100
AcDbAlignedDimension
 13
88.19999999999996
 23
9.525000000000002
 33
0.0
 14
-45.14999999999998
 24
8.524999999999991
 34
0.0
100
AcDbRotatedDimension
1001
ACAD
1000
DSTYLE
1002
{
1070
   171
1070
     6
1070
   273
1070
     7
1002
}
  0
DIMENSION
  5
11C
330
1F
100
AcDbEntity
  8
치수문자_일반주서
100
AcDbDimension
  2
_D_3
 10
108.1503344396389
 20
9.525000000000087
 30
0.0
 11
108.1503344396388
 21
30.12900000000008
 31
0.0
 70
   160
  1
%%c<>
 71
     2
 42
19.05000000000001
 52
-270.0
  3
SLDDIMSTYLE0
100
AcDbAlignedDimension
 13
88.19999999999996
 23
-9.524999999999995
 33
0.0
 14
88.19999999999995
 24
9.525000000000013
 34
0.0
 50
90.0000000000002
100
AcDbRotatedDimension
1001
ACAD
1000
DSTYLE
1002
{
1070
   171
1070
     6
1070
   273
1070
     7
1002
}
  0
LINE
  5
12F
330
1F
100
AcDbEntity
  8
참조1
100
AcDbLine
 10
77.82153940838579
 20
7.441074928723896
 30
0.0
 11
77.82153940838579
 21
-7.438925071276109
 31
0.0
  0
LINE
  5
130
330
1F
100
AcDbEntity
  8
참조1
100
AcDbLine
 10
90.52153940838579
 20
5.441074928723896
 30
0.0
 11
77.82153940838579
 21
5.441074928723896
 31
0.0
  0
SOLID
  5
131
330
1F
100
AcDbEntity
  8
참조1
100
AcDbTrace
 10
77.82153940838579
 20
5.441074928723896
 30
0.0
 11
84.17153940838578
 21
4.425074928723896
 31
0.0
 12
84.17153940838578
 22
6.457074928723896
 32
0.0
 13
84.17153940838578
 23
6.457074928723896
 33
0.0
  0
LINE
  5
132
330
1F
100
AcDbEntity
  8
참조1
100
AcDbLine
 10
90.52153940838579
 20
-5.438925071276109
 30
0.0
 11
77.82153940838579
 21
-5.438925071276109
 31
0.0
  0
SOLID
  5
133
330
1F
100
AcDbEntity
  8
참조1
100
AcDbTrace
 10
77.82153940838579
 20
-5.438925071276109
 30
0.0
 11
84.17153940838578
 21
-6.454925071276109
 31
0.0
 12
84.17153940838578
 22
-4.422925071276109
 32
0.0
 13
84.17153940838578
 23
-4.422925071276109
 33
0.0
  0
MTEXT
  5
134
330
1F
100
AcDbEntity
  8
참조1
100
AcDbMText
 10
87.20588954101179
 20
11.01136670591222
 30
0.0
 40
3.5
 41
0.0
 71
     1
 72
     1
  1
A
  7
SLDTEXTSTYLE0
 73
     1
 44
1.0
  0
MTEXT
  5
135
330
1F
100
AcDbEntity
  8
참조1
100
AcDbMText
 10
87.20588954101179
 20
0.1313667059122192
 30
0.0
 40
3.5
 41
0.0
 71
     1
 72
     1
  1
A
  7
SLDTEXTSTYLE0
 73
     1
 44
1.0
  0
INSERT
  5
13C
330
1F
100
AcDbEntity
  8
해칭선
100
AcDbBlockReference
  2
SW_DOWELSYMBOL_0
 10
0.0
 20
0.0
 30
0.0
  0
LINE
  5
1F1
330
1F
100
AcDbEntity
  8
외형선
  6
Continuous
370
    15
100
AcDbLine
 10
-25.14432499999995
 20
7.619999999999997
 30
0.0
 11
-13.56192499999995
 21
7.619999999999997
 31
0.0
  0
LINE
  5
1F2
330
1F
100
AcDbEntity
  8
외형선
  6
Continuous
370
    15
100
AcDbLine
 10
-25.14432499999995
 20
7.619999999999983
 30
0.0
 11
-27.0493250000001
 21
9.525000000000013
 31
0.0
  0
LINE
  5
1F3
330
1F
100
AcDbEntity
  8
외형선
  6
Continuous
370
    15
100
AcDbLine
 10
-13.56192499999995
 20
7.619999999999983
 30
0.0
 11
-11.65692499999997
 21
9.525000000000013
 31
0.0
  0
LINE
  5
1F4
330
1F
100
AcDbEntity
  8
외형선
  6
Continuous
370
    15
100
AcDbLine
 10
-27.04932500000009
 20
9.524999999999997
 30
0.0
 11
-44.14999999999999
 21
9.524999999999995
 31
0.0
  0
ENDSEC
  0
SECTION
  2
OBJECTS
  0
DICTIONARY
  5
C
330
0
100
AcDbDictionary
281
     1
  3
ACAD_GROUP
350
D
  3
ACAD_IMAGE_VARS
350
160
  3
ACAD_LAYOUT
350
1A
  3
ACAD_MLINESTYLE
350
17
  3
ACAD_PLOTSETTINGS
350
19
  3
ACAD_PLOTSTYLENAME
350
E
  3
ACAD_SCALELIST
350
47
  3
APPDATA
350
15E
  3
DWGPROPS
350
1F6
  0
DICTIONARY
  5
187
330
2
100
AcDbDictionary
280
     1
281
     1
  3
ACAD_LAYERSTATES
360
188
  0
DICTIONARY
  5
D
102
{ACAD_REACTORS
330
C
102
}
330
C
100
AcDbDictionary
281
     1
  0
RASTERVARIABLES
  5
160
102
{ACAD_REACTORS
330
C
102
}
330
C
100
AcDbRasterVariables
 90
        0
 70
     1
 71
     1
 72
     1
  0
DICTIONARY
  5
1A
102
{ACAD_REACTORS
330
C
102
}
330
C
100
AcDbDictionary
281
     1
  3
Layout1
350
1E
  3
Layout2
350
26
  3
Model
350
22
  0
DICTIONARY
  5
17
102
{ACAD_REACTORS
330
C
102
}
330
C
100
AcDbDictionary
281
     1
  3
Standard
350
18
  0
DICTIONARY
  5
19
102
{ACAD_REACTORS
330
C
102
}
330
C
100
AcDbDictionary
281
     1
  0
ACDBDICTIONARYWDFLT
  5
E
102
{ACAD_REACTORS
330
C
102
}
330
C
100
AcDbDictionary
281
     1
  3
Normal
350
F
100
AcDbDictionaryWithDefault
340
F
  0
DICTIONARY
  5
47
102
{ACAD_REACTORS
330
C
102
}
330
C
100
AcDbDictionary
281
     1
  3
A0
350
48
  3
A1
350
49
  3
A2
350
4A
  3
A3
350
4B
  3
A4
350
4C
  3
A5
350
4D
  3
A6
350
4E
  3
A7
350
4F
  3
A8
350
50
  3
A9
350
51
  3
B0
350
52
  3
B1
350
53
  3
B2
350
54
  3
B3
350
55
  3
B4
350
56
  3
B5
350
57
  3
B6
350
58
  3
B7
350
59
  3
B8
350
5A
  3
B9
350
5B
  3
C0
350
5C
  3
C1
350
5D
  3
C2
350
5E
  3
C3
350
5F
  3
C4
350
60
  3
C5
350
61
  3
C6
350
62
  3
C7
350
63
  3
C8
350
64
  3
C9
350
65
  3
D0
350
66
  3
D1
350
67
  3
D2
350
68
  0
DICTIONARY
  5
15E
102
{ACAD_REACTORS
330
C
102
}
330
C
100
AcDbDictionary
281
     1
  0
XRECORD
  5
1F6
102
{ACAD_REACTORS
330
C
102
}
330
C
100
AcDbXrecord
280
     1
  1
DWGPROPS COOKIE
  2

  3

  4

  6

  7

  8
12016016
  9

300
=
301
=
302
=
303
=
304
=
305
=
306
=
307
=
308
=
309
=
 40
0.0
 41
2458311.091438658
 42
2458318.300618495
  1

 90
        0
  0
DICTIONARY
  5
188
102
{ACAD_REACTORS
330
187
102
}
330
187
100
AcDbDictionary
281
     1
  0
LAYOUT
  5
1E
102
{ACAD_REACTORS
330
1A
102
}
330
1A
100
AcDbPlotSettings
  1

  2
none_device
  4

  6

 40
0.0
 41
0.0
 42
0.0
 43
0.0
 44
0.0
 45
0.0
 46
0.0
 47
0.0
 48
0.0
 49
0.0
140
0.0
141
0.0
142
1.0
143
1.0
 70
   688
 72
     1
 73
     0
 74
     5
  7

 75
    16
147
1.0
148
0.0
149
0.0
100
AcDbLayout
  1
Layout1
 70
     1
 71
     1
 10
0.0
 20
0.0
 11
420.0
 21
297.0
 12
0.0
 22
0.0
 32
0.0
 14
1.000000000000000E+20
 24
1.000000000000000E+20
 34
1.000000000000000E+20
 15
-1.000000000000000E+20
 25
-1.000000000000000E+20
 35
-1.000000000000000E+20
146
0.0
 13
0.0
 23
0.0
 33
0.0
 16
1.0
 26
0.0
 36
0.0
 17
0.0
 27
1.0
 37
0.0
 76
     0
330
1B
  0
LAYOUT
  5
26
102
{ACAD_REACTORS
330
1A
102
}
330
1A
100
AcDbPlotSettings
  1

  2
none_device
  4

  6

 40
0.0
 41
0.0
 42
0.0
 43
0.0
 44
0.0
 45
0.0
 46
0.0
 47
0.0
 48
0.0
 49
0.0
140
0.0
141
0.0
142
1.0
143
1.0
 70
   688
 72
     1
 73
     0
 74
     5
  7

 75
    16
147
1.0
148
0.0
149
0.0
100
AcDbLayout
  1
Layout2
 70
     1
 71
     2
 10
0.0
 20
0.0
 11
0.0
 21
0.0
 12
0.0
 22
0.0
 32
0.0
 14
0.0
 24
0.0
 34
0.0
 15
0.0
 25
0.0
 35
0.0
146
0.0
 13
0.0
 23
0.0
 33
0.0
 16
1.0
 26
0.0
 36
0.0
 17
0.0
 27
1.0
 37
0.0
 76
     0
330
23
  0
LAYOUT
  5
22
102
{ACAD_REACTORS
330
1A
102
}
330
1A
100
AcDbPlotSettings
  1

  2
none_device
  4
ANSI_A_(11.00_x_8.50_Inches)
  6

 40
6.35
 41
19.05
 42
6.35000508
 43
19.05000254
 44
279.4
 45
215.9
 46
69.21290853819941
 47
62.71363753074846
 48
0.0
 49
0.0
140
0.0
141
0.0
142
0.0445152705566269
143
1.0
 70
  1696
 72
     0
 73
     0
 74
     0
  7

 75
     0
147
0.0235690232323232
148
0.0
149
0.0
100
AcDbLayout
  1
Model
 70
     1
 71
     0
 10
0.0
 20
0.0
 11
420.0
 21
297.0
 12
0.0
 22
0.0
 32
0.0
 14
1.000000000000000E+20
 24
1.000000000000000E+20
 34
1.000000000000000E+20
 15
-1.000000000000000E+20
 25
-1.000000000000000E+20
 35
-1.000000000000000E+20
146
0.0
 13
0.0
 23
0.0
 33
0.0
 16
1.0
 26
0.0
 36
0.0
 17
0.0
 27
1.0
 37
0.0
 76
     0
330
1F
331
29
  0
MLINESTYLE
  5
18
102
{ACAD_REACTORS
330
17
102
}
330
17
100
AcDbMlineStyle
  2
Standard
 70
     0
  3

 62
   256
 51
90.0
 52
90.0
 71
     2
 49
0.5
 62
   256
  6
BYLAYER
 49
-0.5
 62
   256
  6
BYLAYER
  0
ACDBPLACEHOLDER
  5
F
102
{ACAD_REACTORS
330
E
102
}
330
E
  0
SCALE
  5
48
102
{ACAD_REACTORS
330
47
102
}
330
47
100
AcDbScale
 70
     0
300
1:1
140
1.0
141
1.0
290
     1
  0
SCALE
  5
49
102
{ACAD_REACTORS
330
47
102
}
330
47
100
AcDbScale
 70
     0
300
1:2
140
1.0
141
2.0
290
     0
  0
SCALE
  5
4A
102
{ACAD_REACTORS
330
47
102
}
330
47
100
AcDbScale
 70
     0
300
1:4
140
1.0
141
4.0
290
     0
  0
SCALE
  5
4B
102
{ACAD_REACTORS
330
47
102
}
330
47
100
AcDbScale
 70
     0
300
1:5
140
1.0
141
5.0
290
     0
  0
SCALE
  5
4C
102
{ACAD_REACTORS
330
47
102
}
330
47
100
AcDbScale
 70
     0
300
1:8
140
1.0
141
8.0
290
     0
  0
SCALE
  5
4D
102
{ACAD_REACTORS
330
47
102
}
330
47
100
AcDbScale
 70
     0
300
1:10
140
1.0
141
10.0
290
     0
  0
SCALE
  5
4E
102
{ACAD_REACTORS
330
47
102
}
330
47
100
AcDbScale
 70
     0
300
1:16
140
1.0
141
16.0
290
     0
  0
SCALE
  5
4F
102
{ACAD_REACTORS
330
47
102
}
330
47
100
AcDbScale
 70
     0
300
1:20
140
1.0
141
20.0
290
     0
  0
SCALE
  5
50
102
{ACAD_REACTORS
330
47
102
}
330
47
100
AcDbScale
 70
     0
300
1:30
140
1.0
141
30.0
290
     0
  0
SCALE
  5
51
102
{ACAD_REACTORS
330
47
102
}
330
47
100
AcDbScale
 70
     0
300
1:40
140
1.0
141
40.0
290
     0
  0
SCALE
  5
52
102
{ACAD_REACTORS
330
47
102
}
330
47
100
AcDbScale
 70
     0
300
1:50
140
1.0
141
50.0
290
     0
  0
SCALE
  5
53
102
{ACAD_REACTORS
330
47
102
}
330
47
100
AcDbScale
 70
     0
300
1:100
140
1.0
141
100.0
290
     0
  0
SCALE
  5
54
102
{ACAD_REACTORS
330
47
102
}
330
47
100
AcDbScale
 70
     0
300
2:1
140
2.0
141
1.0
290
     0
  0
SCALE
  5
55
102
{ACAD_REACTORS
330
47
102
}
330
47
100
AcDbScale
 70
     0
300
4:1
140
4.0
141
1.0
290
     0
  0
SCALE
  5
56
102
{ACAD_REACTORS
330
47
102
}
330
47
100
AcDbScale
 70
     0
300
8:1
140
8.0
141
1.0
290
     0
  0
SCALE
  5
57
102
{ACAD_REACTORS
330
47
102
}
330
47
100
AcDbScale
 70
     0
300
10:1
140
10.0
141
1.0
290
     0
  0
SCALE
  5
58
102
{ACAD_REACTORS
330
47
102
}
330
47
100
AcDbScale
 70
     0
300
100:1
140
100.0
141
1.0
290
     0
  0
SCALE
  5
59
102
{ACAD_REACTORS
330
47
102
}
330
47
100
AcDbScale
 70
     0
300
1/128" = 1'-0"
140
0.0078125
141
12.0
290
     0
  0
SCALE
  5
5A
102
{ACAD_REACTORS
330
47
102
}
330
47
100
AcDbScale
 70
     0
300
1/64" = 1'-0"
140
0.015625
141
12.0
290
     0
  0
SCALE
  5
5B
102
{ACAD_REACTORS
330
47
102
}
330
47
100
AcDbScale
 70
     0
300
1/32" = 1'-0"
140
0.03125
141
12.0
290
     0
  0
SCALE
  5
5C
102
{ACAD_REACTORS
330
47
102
}
330
47
100
AcDbScale
 70
     0
300
1/16" = 1'-0"
140
0.0625
141
12.0
290
     0
  0
SCALE
  5
5D
102
{ACAD_REACTORS
330
47
102
}
330
47
100
AcDbScale
 70
     0
300
3/32" = 1'-0"
140
0.09375
141
12.0
290
     0
  0
SCALE
  5
5E
102
{ACAD_REACTORS
330
47
102
}
330
47
100
AcDbScale
 70
     0
300
1/8" = 1'-0"
140
0.125
141
12.0
290
     0
  0
SCALE
  5
5F
102
{ACAD_REACTORS
330
47
102
}
330
47
100
AcDbScale
 70
     0
300
3/16" = 1'-0"
140
0.1875
141
12.0
290
     0
  0
SCALE
  5
60
102
{ACAD_REACTORS
330
47
102
}
330
47
100
AcDbScale
 70
     0
300
1/4" = 1'-0"
140
0.25
141
12.0
290
     0
  0
SCALE
  5
61
102
{ACAD_REACTORS
330
47
102
}
330
47
100
AcDbScale
 70
     0
300
3/8" = 1'-0"
140
0.375
141
12.0
290
     0
  0
SCALE
  5
62
102
{ACAD_REACTORS
330
47
102
}
330
47
100
AcDbScale
 70
     0
300
1/2" = 1'-0"
140
0.5
141
12.0
290
     0
  0
SCALE
  5
63
102
{ACAD_REACTORS
330
47
102
}
330
47
100
AcDbScale
 70
     0
300
3/4" = 1'-0"
140
0.75
141
12.0
290
     0
  0
SCALE
  5
64
102
{ACAD_REACTORS
330
47
102
}
330
47
100
AcDbScale
 70
     0
300
1" = 1'-0"
140
1.0
141
12.0
290
     0
  0
SCALE
  5
65
102
{ACAD_REACTORS
330
47
102
}
330
47
100
AcDbScale
 70
     0
300
1-1/2" = 1'-0"
140
1.5
141
12.0
290
     0
  0
SCALE
  5
66
102
{ACAD_REACTORS
330
47
102
}
330
47
100
AcDbScale
 70
     0
300
3" = 1'-0"
140
3.0
141
12.0
290
     0
  0
SCALE
  5
67
102
{ACAD_REACTORS
330
47
102
}
330
47
100
AcDbScale
 70
     0
300
6" = 1'-0"
140
6.0
141
12.0
290
     0
  0
SCALE
  5
68
102
{ACAD_REACTORS
330
47
102
}
330
47
100
AcDbScale
 70
     0
300
1'-0" = 1'-0"
140
12.0
141
12.0
290
     0
  0
ENDSEC
  0
EOF
