  0
SECTION
  2
HEADER
  9
$ACADVER
  1
AC1015
  9
$ACADMAINTVER
 70
     6
  9
$DWGCODEPAGE
  3
ANSI_949
  9
$INSBASE
 10
0.0
 20
0.0
 30
0.0
  9
$EXTMIN
 10
1.000000000000000E+20
 20
1.000000000000000E+20
 30
1.000000000000000E+20
  9
$EXTMAX
 10
-1.000000000000000E+20
 20
-1.000000000000000E+20
 30
-1.000000000000000E+20
  9
$LIMMIN
 10
0.0
 20
0.0
  9
$LIMMAX
 10
420.0
 20
297.0
  9
$ORTHOMODE
 70
     1
  9
$REGENMODE
 70
     1
  9
$FILLMODE
 70
     1
  9
$QTEXTMODE
 70
     0
  9
$MIRRTEXT
 70
     1
  9
$LTSCALE
 40
1.0
  9
$ATTMODE
 70
     1
  9
$TEXTSIZE
 40
3.5
  9
$TRACEWID
 40
1.0
  9
$TEXTSTYLE
  7
Standard
  9
$CLAYER
  8
0
  9
$CELTYPE
  6
ByLayer
  9
$CECOLOR
 62
   256
  9
$CELTSCALE
 40
1.0
  9
$DISPSILH
 70
     0
  9
$DIMSCALE
 40
1.0
  9
$DIMASZ
 40
3.302
  9
$DIMEXO
 40
1.0
  9
$DIMDLI
 40
3.75
  9
$DIMRND
 40
0.0
  9
$DIMDLE
 40
0.0
  9
$DIMEXE
 40
1.0
  9
$DIMTP
 40
0.0
  9
$DIMTM
 40
0.0
  9
$DIMTXT
 40
3.5
  9
$DIMCEN
 40
2.5
  9
$DIMTSZ
 40
0.0
  9
$DIMTOL
 70
     0
  9
$DIMLIM
 70
     0
  9
$DIMTIH
 70
     1
  9
$DIMTOH
 70
     1
  9
$DIMSE1
 70
     0
  9
$DIMSE2
 70
     0
  9
$DIMTAD
 70
     1
  9
$DIMZIN
 70
     0
  9
$DIMBLK
  1

  9
$DIMASO
 70
     1
  9
$DIMSHO
 70
     1
  9
$DIMPOST
  1

  9
$DIMAPOST
  1

  9
$DIMALT
 70
     0
  9
$DIMALTD
 70
     3
  9
$DIMALTF
 40
0.0393700787401575
  9
$DIMLFAC
 40
1.0
  9
$DIMTOFL
 70
     1
  9
$DIMTVP
 40
0.0
  9
$DIMTIX
 70
     0
  9
$DIMSOXD
 70
     0
  9
$DIMSAH
 70
     0
  9
$DIMBLK1
  1

  9
$DIMBLK2
  1

  9
$DIMSTYLE
  2
ISO-25
  9
$DIMCLRD
 70
     0
  9
$DIMCLRE
 70
     0
  9
$DIMCLRT
 70
     0
  9
$DIMTFAC
 40
1.0
  9
$DIMGAP
 40
1.524
  9
$DIMJUST
 70
     0
  9
$DIMSD1
 70
     0
  9
$DIMSD2
 70
     0
  9
$DIMTOLJ
 70
     0
  9
$DIMTZIN
 70
     0
  9
$DIMALTZ
 70
     0
  9
$DIMALTTZ
 70
     0
  9
$DIMUPT
 70
     0
  9
$DIMDEC
 70
     2
  9
$DIMTDEC
 70
     2
  9
$DIMALTU
 70
     2
  9
$DIMALTTD
 70
     3
  9
$DIMTXSTY
  7
Standard
  9
$DIMAUNIT
 70
     0
  9
$DIMADEC
 70
     2
  9
$DIMALTRND
 40
0.0
  9
$DIMAZIN
 70
     0
  9
$DIMDSEP
 70
    44
  9
$DIMATFIT
 70
     3
  9
$DIMFRAC
 70
     0
  9
$DIMLDRBLK
  1

  9
$DIMLUNIT
 70
     2
  9
$DIMLWD
 70
    -2
  9
$DIMLWE
 70
    -2
  9
$DIMTMOVE
 70
     0
  9
$LUNITS
 70
     2
  9
$LUPREC
 70
     2
  9
$SKETCHINC
 40
1.0
  9
$FILLETRAD
 40
10.0
  9
$AUNITS
 70
     0
  9
$AUPREC
 70
     2
  9
$MENU
  1
.
  9
$ELEVATION
 40
0.0
  9
$PELEVATION
 40
0.0
  9
$THICKNESS
 40
0.0
  9
$LIMCHECK
 70
     0
  9
$CHAMFERA
 40
0.0
  9
$CHAMFERB
 40
0.0
  9
$CHAMFERC
 40
0.0
  9
$CHAMFERD
 40
0.0
  9
$SKPOLY
 70
     0
  9
$TDCREATE
 40
2458311.466862234
  9
$TDUCREATE
 40
2458311.091862234
  9
$TDUPDATE
 40
2458318.675422234
  9
$TDUUPDATE
 40
2458318.300422234
  9
$TDINDWG
 40
0.0016069676
  9
$TDUSRTIMER
 40
2458318.300249387
  9
$USRTIMER
 70
     1
  9
$ANGBASE
 50
0.0
  9
$ANGDIR
 70
     0
  9
$PDMODE
 70
     0
  9
$PDSIZE
 40
-1.0
  9
$PLINEWID
 40
0.0
  9
$SPLFRAME
 70
     0
  9
$SPLINETYPE
 70
     6
  9
$SPLINESEGS
 70
     8
  9
$HANDSEED
  5
225
  9
$SURFTAB1
 70
     6
  9
$SURFTAB2
 70
     6
  9
$SURFTYPE
 70
     6
  9
$SURFU
 70
     6
  9
$SURFV
 70
     6
  9
$UCSBASE
  2

  9
$UCSNAME
  2

  9
$UCSORG
 10
0.0
 20
0.0
 30
0.0
  9
$UCSXDIR
 10
1.0
 20
0.0
 30
0.0
  9
$UCSYDIR
 10
0.0
 20
1.0
 30
0.0
  9
$UCSORTHOREF
  2

  9
$UCSORTHOVIEW
 70
     0
  9
$UCSORGTOP
 10
0.0
 20
0.0
 30
0.0
  9
$UCSORGBOTTOM
 10
0.0
 20
0.0
 30
0.0
  9
$UCSORGLEFT
 10
0.0
 20
0.0
 30
0.0
  9
$UCSORGRIGHT
 10
0.0
 20
0.0
 30
0.0
  9
$UCSORGFRONT
 10
0.0
 20
0.0
 30
0.0
  9
$UCSORGBACK
 10
0.0
 20
0.0
 30
0.0
  9
$PUCSBASE
  2

  9
$PUCSNAME
  2

  9
$PUCSORG
 10
0.0
 20
0.0
 30
0.0
  9
$PUCSXDIR
 10
1.0
 20
0.0
 30
0.0
  9
$PUCSYDIR
 10
0.0
 20
1.0
 30
0.0
  9
$PUCSORTHOREF
  2

  9
$PUCSORTHOVIEW
 70
     0
  9
$PUCSORGTOP
 10
0.0
 20
0.0
 30
0.0
  9
$PUCSORGBOTTOM
 10
0.0
 20
0.0
 30
0.0
  9
$PUCSORGLEFT
 10
0.0
 20
0.0
 30
0.0
  9
$PUCSORGRIGHT
 10
0.0
 20
0.0
 30
0.0
  9
$PUCSORGFRONT
 10
0.0
 20
0.0
 30
0.0
  9
$PUCSORGBACK
 10
0.0
 20
0.0
 30
0.0
  9
$USERI1
 70
     0
  9
$USERI2
 70
     0
  9
$USERI3
 70
     0
  9
$USERI4
 70
     0
  9
$USERI5
 70
     0
  9
$USERR1
 40
0.0
  9
$USERR2
 40
0.0
  9
$USERR3
 40
0.0
  9
$USERR4
 40
0.0
  9
$USERR5
 40
0.0
  9
$WORLDVIEW
 70
     1
  9
$SHADEDGE
 70
     3
  9
$SHADEDIF
 70
    70
  9
$TILEMODE
 70
     1
  9
$MAXACTVP
 70
    64
  9
$PINSBASE
 10
0.0
 20
0.0
 30
0.0
  9
$PLIMCHECK
 70
     0
  9
$PEXTMIN
 10
1.000000000000000E+20
 20
1.000000000000000E+20
 30
1.000000000000000E+20
  9
$PEXTMAX
 10
-1.000000000000000E+20
 20
-1.000000000000000E+20
 30
-1.000000000000000E+20
  9
$PLIMMIN
 10
0.0
 20
0.0
  9
$PLIMMAX
 10
0.0
 20
0.0
  9
$UNITMODE
 70
     0
  9
$VISRETAIN
 70
     1
  9
$PLINEGEN
 70
     0
  9
$PSLTSCALE
 70
     1
  9
$TREEDEPTH
 70
  3020
  9
$CMLSTYLE
  2
Standard
  9
$CMLJUST
 70
     0
  9
$CMLSCALE
 40
20.0
  9
$PROXYGRAPHICS
 70
     1
  9
$MEASUREMENT
 70
     1
  9
$CELWEIGHT
370
    -1
  9
$ENDCAPS
280
     0
  9
$JOINSTYLE
280
     0
  9
$LWDISPLAY
290
     1
  9
$INSUNITS
 70
     4
  9
$HYPERLINKBASE
  1

  9
$STYLESHEET
  1

  9
$XEDIT
290
     1
  9
$CEPSNTYPE
380
     0
  9
$PSTYLEMODE
290
     1
  9
$FINGERPRINTGUID
  2
{60890B35-A01A-40EC-AC6C-C6907BAB998B}
  9
$VERSIONGUID
  2
{FAEB1C32-E019-11D5-929B-00C0DF256EC4}
  9
$EXTNAMES
290
     1
  9
$PSVPSCALE
 40
0.0
  9
$OLESTARTUP
290
     0
  0
ENDSEC
  0
SECTION
  2
CLASSES
  0
CLASS
  1
ACDBDICTIONARYWDFLT
  2
AcDbDictionaryWithDefault
  3
ObjectDBX Classes
 90
        0
280
     0
281
     0
  0
CLASS
  1
VISUALSTYLE
  2
AcDbVisualStyle
  3
ObjectDBX Classes
 90
     4095
280
     0
281
     0
  0
CLASS
  1
MATERIAL
  2
AcDbMaterial
  3
ObjectDBX Classes
 90
     1153
280
     0
281
     0
  0
CLASS
  1
SCALE
  2
AcDbScale
  3
ObjectDBX Classes
 90
     1153
280
     0
281
     0
  0
CLASS
  1
SUN
  2
AcDbSun
  3
SCENEOE
 90
     1153
280
     0
281
     0
  0
CLASS
  1
ACDBPLACEHOLDER
  2
AcDbPlaceHolder
  3
ObjectDBX Classes
 90
        0
280
     0
281
     0
  0
CLASS
  1
LAYOUT
  2
AcDbLayout
  3
ObjectDBX Classes
 90
        0
280
     0
281
     0
  0
CLASS
  1
TABLESTYLE
  2
AcDbTableStyle
  3
ObjectDBX Classes
 90
     4095
280
     0
281
     0
  0
CLASS
  1
MLEADERSTYLE
  2
AcDbMLeaderStyle
  3
ACDB_MLEADERSTYLE_CLASS
 90
     4095
280
     0
281
     0
  0
CLASS
  1
RASTERVARIABLES
  2
AcDbRasterVariables
  3
ISM
 90
        0
280
     0
281
     0
  0
ENDSEC
  0
SECTION
  2
TABLES
  0
TABLE
  2
VPORT
  5
8
330
0
100
AcDbSymbolTable
 70
     1
  0
VPORT
  5
29
330
8
100
AcDbSymbolTableRecord
100
AcDbViewportTableRecord
  2
*Active
 70
     0
 10
0.0
 20
0.0
 11
1.0
 21
1.0
 12
-13.27840842802664
 22
-72.61410125900926
 13
0.0
 23
0.0
 14
10.0
 24
10.0
 15
10.0
 25
10.0
 16
0.0
 26
0.0
 36
1.0
 17
0.0
 27
0.0
 37
0.0
 40
189.6882617736166
 41
1.740812379110251
 42
50.0
 43
0.0
 44
0.0
 50
0.0
 51
0.0
 71
    16
 72
  2000
 73
     1
 74
     3
 75
     0
 76
     0
 77
     0
 78
     0
281
     0
 65
     1
110
0.0
120
0.0
130
0.0
111
1.0
121
0.0
131
0.0
112
0.0
122
1.0
132
0.0
 79
     0
146
0.0
  0
ENDTAB
  0
TABLE
  2
LTYPE
  5
5
330
0
100
AcDbSymbolTable
 70
     6
  0
LTYPE
  5
14
330
5
100
AcDbSymbolTableRecord
100
AcDbLinetypeTableRecord
  2
ByBlock
 70
     0
  3

 72
    65
 73
     0
 40
0.0
  0
LTYPE
  5
15
330
5
100
AcDbSymbolTableRecord
100
AcDbLinetypeTableRecord
  2
ByLayer
 70
     0
  3

 72
    65
 73
     0
 40
0.0
  0
LTYPE
  5
16
330
5
100
AcDbSymbolTableRecord
100
AcDbLinetypeTableRecord
  2
Continuous
 70
     0
  3
Solid line
 72
    65
 73
     0
 40
0.0
  0
LTYPE
  5
6A
330
5
100
AcDbSymbolTableRecord
100
AcDbLinetypeTableRecord
  2
HIDDEN
 70
     0
  3
Hidden __ __ __ __ __ __ __ __ __ __ __ __ __ __
 72
    65
 73
     2
 40
1.905
 49
1.27
 74
     0
 49
-0.635
 74
     0
  0
LTYPE
  5
6B
330
5
100
AcDbSymbolTableRecord
100
AcDbLinetypeTableRecord
  2
PHANTOM
 70
     0
  3
Phantom ______  __  __  ______  __  __  ______
 72
    65
 73
     6
 40
12.7
 49
6.35
 74
     0
 49
-1.27
 74
     0
 49
1.27
 74
     0
 49
-1.27
 74
     0
 49
1.27
 74
     0
 49
-1.27
 74
     0
  0
LTYPE
  5
6C
330
5
100
AcDbSymbolTableRecord
100
AcDbLinetypeTableRecord
  2
CENTER
 70
     0
  3
Center ____ _ ____ _ ____ _ ____ _ ____ _ ____
 72
    65
 73
     4
 40
10.16
 49
6.35
 74
     0
 49
-1.27
 74
     0
 49
1.27
 74
     0
 49
-1.27
 74
     0
  0
LTYPE
  5
6D
330
5
100
AcDbSymbolTableRecord
100
AcDbLinetypeTableRecord
  2
CENTERX2
 70
     0
  3
Center (2x) ________  __  ________  __  _____
 72
    65
 73
     4
 40
20.32
 49
12.7
 74
     0
 49
-2.54
 74
     0
 49
2.54
 74
     0
 49
-2.54
 74
     0
  0
LTYPE
  5
6E
330
5
100
AcDbSymbolTableRecord
100
AcDbLinetypeTableRecord
  2
DOT2
 70
     0
  3
Dot (.5x) ........................................
 72
    65
 73
     2
 40
0.635
 49
0.0
 74
     0
 49
-0.635
 74
     0
  0
ENDTAB
  0
TABLE
  2
LAYER
  5
2
102
{ACAD_XDICTIONARY
360
187
102
}
330
0
100
AcDbSymbolTable
 70
    18
  0
LAYER
  5
10
330
2
100
AcDbSymbolTableRecord
100
AcDbLayerTableRecord
  2
0
 70
     0
 62
     7
  6
Continuous
370
    -3
390
F
  0
LAYER
  5
6F
330
2
100
AcDbSymbolTableRecord
100
AcDbLayerTableRecord
  2
FORMAT
 70
     0
 62
     2
  6
Continuous
370
    -3
390
F
  0
LAYER
  5
70
330
2
100
AcDbSymbolTableRecord
100
AcDbLayerTableRecord
  2
외형선
 70
     0
 62
     4
  6
Continuous
370
    30
390
F
  0
LAYER
  5
71
330
2
100
AcDbSymbolTableRecord
100
AcDbLayerTableRecord
  2
숨은선
 70
     0
 62
     2
  6
HIDDEN
370
    15
390
F
  0
LAYER
  5
72
330
2
100
AcDbSymbolTableRecord
100
AcDbLayerTableRecord
  2
중심선
 70
     0
 62
     1
  6
CENTERX2
370
    -3
390
F
  0
LAYER
  5
73
330
2
100
AcDbSymbolTableRecord
100
AcDbLayerTableRecord
  2
파단선
 70
     0
 62
     4
  6
Continuous
370
    -3
390
F
  0
LAYER
  5
74
330
2
100
AcDbSymbolTableRecord
100
AcDbLayerTableRecord
  2
해칭선
 70
     0
 62
   100
  6
Continuous
370
    -3
390
F
  0
LAYER
  5
75
330
2
100
AcDbSymbolTableRecord
100
AcDbLayerTableRecord
  2
가는실선
 70
     0
 62
     4
  6
Continuous
370
    -3
390
F
  0
LAYER
  5
76
330
2
100
AcDbSymbolTableRecord
100
AcDbLayerTableRecord
  2
치수_보조선
 70
     0
 62
     4
  6
Continuous
370
    -3
390
F
  0
LAYER
  5
77
330
2
100
AcDbSymbolTableRecord
100
AcDbLayerTableRecord
  2
치수문자_일반주서
 70
     0
 62
     7
  6
Continuous
370
    15
390
F
  0
LAYER
  5
78
330
2
100
AcDbSymbolTableRecord
100
AcDbLayerTableRecord
  2
개별주서
 70
     0
 62
   100
  6
Continuous
370
    30
390
F
  0
LAYER
  5
79
330
2
100
AcDbSymbolTableRecord
100
AcDbLayerTableRecord
  2
중간선
 70
     0
 62
     2
  6
Continuous
370
    15
390
F
  0
LAYER
  5
7A
330
2
100
AcDbSymbolTableRecord
100
AcDbLayerTableRecord
  2
윤곽선
 70
     0
 62
     3
  6
Continuous
370
    40
390
F
  0
LAYER
  5
7B
330
2
100
AcDbSymbolTableRecord
100
AcDbLayerTableRecord
  2
중심마크
 70
     0
 62
   100
  6
Continuous
370
    30
390
F
  0
LAYER
  5
7C
330
2
100
AcDbSymbolTableRecord
100
AcDbLayerTableRecord
  2
가상선
 70
     0
 62
     4
  6
PHANTOM
370
    -3
390
F
  0
LAYER
  5
7D
330
2
100
AcDbSymbolTableRecord
100
AcDbLayerTableRecord
  2
특수지정선
 70
     0
 62
     5
  6
CENTERX2
370
    60
390
F
  0
LAYER
  5
7E
330
2
100
AcDbSymbolTableRecord
100
AcDbLayerTableRecord
  2
참조1
 70
     0
 62
    -4
  6
Continuous
370
    -3
390
F
  0
LAYER
  5
1B6
330
2
100
AcDbSymbolTableRecord
100
AcDbLayerTableRecord
  2
Defpoints
 70
     0
 62
     7
  6
Continuous
290
     0
370
    -3
390
F
  0
ENDTAB
  0
TABLE
  2
STYLE
  5
3
330
0
100
AcDbSymbolTable
 70
     2
  0
STYLE
  5
11
330
3
100
AcDbSymbolTableRecord
100
AcDbTextStyleTableRecord
  2
Standard
 70
     0
 40
0.0
 41
1.0
 50
0.0
 71
     0
 42
3.5
  3
txt
  4

  0
STYLE
  5
94
330
3
100
AcDbSymbolTableRecord
100
AcDbTextStyleTableRecord
  2
SLDTEXTSTYLE0
 70
     0
 40
0.0
 41
0.75
 50
0.0
 71
     0
 42
3.5
  3
TXT
  4

  0
ENDTAB
  0
TABLE
  2
VIEW
  5
6
330
0
100
AcDbSymbolTable
 70
     0
  0
ENDTAB
  0
TABLE
  2
UCS
  5
7
330
0
100
AcDbSymbolTable
 70
     0
  0
ENDTAB
  0
TABLE
  2
APPID
  5
9
330
0
100
AcDbSymbolTable
 70
     1
  0
APPID
  5
12
330
9
100
AcDbSymbolTableRecord
100
AcDbRegAppTableRecord
  2
ACAD
 70
     0
  0
ENDTAB
  0
TABLE
  2
DIMSTYLE
  5
A
330
0
100
AcDbSymbolTable
 70
     4
100
AcDbDimStyleTable
  0
DIMSTYLE
105
27
330
A
100
AcDbSymbolTableRecord
100
AcDbDimStyleTableRecord
  2
ISO-25
 70
     0
 41
2.5
 42
0.625
 43
3.75
 44
1.25
 73
     0
 74
     0
 77
     1
 78
     8
140
2.5
141
2.5
143
0.03937007874016
147
0.625
171
     3
172
     1
178
     0
271
     2
272
     2
274
     3
278
    44
283
     0
284
     8
340
11
  0
DIMSTYLE
105
DF
102
{ACAD_REACTORS
330
DE
330
F3
330
108
330
11B
102
}
330
A
100
AcDbSymbolTableRecord
100
AcDbDimStyleTableRecord
  2
SLDDIMSTYLE0
 70
     0
 41
3.302
 44
0.0
 45
0.000000001
 73
     0
 74
     0
 77
     1
 78
     4
 79
     1
140
3.5
143
0.0393700787401575
147
0.875
148
0.000000001
170
     1
172
     1
173
     1
178
     0
271
     2
272
     2
276
     2
284
    12
289
     0
340
94
  0
DIMSTYLE
105
F4
330
A
100
AcDbSymbolTableRecord
100
AcDbDimStyleTableRecord
  2
SLDDIMSTYLE1
 70
     0
 41
3.302
 44
0.0
 45
0.000000001
 73
     0
 74
     0
 77
     1
 78
     4
 79
     1
140
3.5
143
0.0393700787401575
147
0.875
148
0.000000001
170
     1
173
     1
178
     0
271
     2
272
     2
276
     2
284
    12
340
94
  0
DIMSTYLE
105
11C
330
A
100
AcDbSymbolTableRecord
100
AcDbDimStyleTableRecord
  2
SLDDIMSTYLE2
 70
     0
 41
3.302
 44
0.0
 45
0.000000001
 73
     0
 74
     0
 77
     1
 78
    12
 79
     3
140
3.5
143
0.0393700787401575
147
0.875
148
0.000000001
170
     1
173
     1
178
     0
271
     2
272
     2
276
     2
284
    12
340
94
  0
ENDTAB
  0
TABLE
  2
BLOCK_RECORD
  5
1
330
0
100
AcDbSymbolTable
 70
     8
  0
BLOCK_RECORD
  5
1F
330
1
100
AcDbSymbolTableRecord
100
AcDbBlockTableRecord
  2
*Model_Space
340
22
  0
BLOCK_RECORD
  5
1B
330
1
100
AcDbSymbolTableRecord
100
AcDbBlockTableRecord
  2
*Paper_Space
340
1E
  0
BLOCK_RECORD
  5
23
330
1
100
AcDbSymbolTableRecord
100
AcDbBlockTableRecord
  2
*Paper_Space0
340
26
  0
BLOCK_RECORD
  5
7F
330
1
100
AcDbSymbolTableRecord
100
AcDbBlockTableRecord
  2
블럭10
340
0
102
{BLKREFS
331
D7
102
}
  0
BLOCK_RECORD
  5
E0
330
1
100
AcDbSymbolTableRecord
100
AcDbBlockTableRecord
  2
_D
340
0
  0
BLOCK_RECORD
  5
F5
330
1
100
AcDbSymbolTableRecord
100
AcDbBlockTableRecord
  2
_D_1
340
0
  0
BLOCK_RECORD
  5
109
330
1
100
AcDbSymbolTableRecord
100
AcDbBlockTableRecord
  2
_D_2
340
0
  0
BLOCK_RECORD
  5
11D
330
1
100
AcDbSymbolTableRecord
100
AcDbBlockTableRecord
  2
_D_3
340
0
  0
BLOCK_RECORD
  5
136
330
1
100
AcDbSymbolTableRecord
100
AcDbBlockTableRecord
  2
SW_DOWELSYMBOL_0
340
0
102
{BLKREFS
331
13C
102
}
  0
ENDTAB
  0
ENDSEC
  0
SECTION
  2
BLOCKS
  0
BLOCK
  5
20
330
1F
100
AcDbEntity
  8
0
100
AcDbBlockBegin
  2
*Model_Space
 70
     0
 10
0.0
 20
0.0
 30
0.0
  3
*Model_Space
  1
*Model_Space
  0
ENDBLK
  5
21
330
1F
100
AcDbEntity
  8
0
100
AcDbBlockEnd
  0
BLOCK
  5
1C
330
1B
100
AcDbEntity
 67
     1
  8
0
100
AcDbBlockBegin
  2
*Paper_Space
 70
     0
 10
0.0
 20
0.0
 30
0.0
  3
*Paper_Space
  1
*Paper_Space
  0
ENDBLK
  5
1D
330
1B
100
AcDbEntity
 67
     1
  8
0
100
AcDbBlockEnd
  0
BLOCK
  5
24
330
23
100
AcDbEntity
  8
0
100
AcDbBlockBegin
  2
*Paper_Space0
 70
     0
 10
0.0
 20
0.0
 30
0.0
  3
*Paper_Space0
  1
*Paper_Space0
  0
ENDBLK
  5
25
330
23
100
AcDbEntity
  8
0
100
AcDbBlockEnd
  0
BLOCK
  5
80
330
7F
100
AcDbEntity
  8
0
100
AcDbBlockBegin
  2
블럭10
 70
     2
 10
0.0
 20
0.0
 30
0.0
  3
블럭10
  1
블럭10
  0
ELLIPSE
  5
82
330
7F
100
AcDbEntity
  8
중심선
100
AcDbEllipse
 10
20.54032771741204
 20
12.0471743016438
 30
0.0
 11
6.600054785286829
 21
-1.261213355974178E-13
 31
0.0
210
0.0
220
0.0
230
1.0
 40
0.636358354079598
 41
0.9219305317359503
 42
6.513795318482858
  0
ELLIPSE
  5
83
330
7F
100
AcDbEntity
  8
중심선
100
AcDbEllipse
 10
20.54032771746488
 20
12.04717430159265
 30
0.0
 11
3.960054785062283
 21
1.540847449632565E-10
 31
0.0
210
0.0
220
0.0
230
1.0
 40
0.3939339440162632
 41
1.131841032648279
 42
5.62031148352944
  0
LINE
  5
84
330
7F
100
AcDbEntity
  8
중심선
100
AcDbLine
 10
2.268634060543552
 20
16.24717430164393
 30
0.0
 11
5.714909304380834
 21
16.24717430164393
 31
0.0
  0
LINE
  5
85
330
7F
100
AcDbEntity
  8
중심선
100
AcDbLine
 10
5.245725140726316
 20
7.84717430164391
 30
0.0
 11
8.692000384563599
 21
7.84717430164391
 31
0.0
  0
LINE
  5
86
330
7F
100
AcDbEntity
  8
중심선
100
AcDbLine
 10
15.74043728645272
 20
16.24717430164393
 30
0.0
 11
8.692000384563599
 21
7.84717430164391
 31
0.0
  0
LINE
  5
87
330
7F
100
AcDbEntity
  8
중심선
100
AcDbLine
 10
0.1404042013395286
 20
13.71084872107135
 30
0.0
 11
3.58671253028996
 21
13.71088815037384
 31
0.0
  0
LINE
  5
88
330
7F
100
AcDbEntity
  8
중심선
100
AcDbLine
 10
2.750260043222114
 20
10.84717430164391
 30
0.0
 11
6.196535287059397
 21
10.84717430164391
 31
0.0
  0
LINE
  5
89
330
7F
100
AcDbEntity
  8
중심선
100
AcDbLine
 10
12.29416204261559
 20
16.24717430164393
 30
0.0
 11
5.245725140726316
 21
7.84717430164391
 31
0.0
  0
LINE
  5
8A
330
7F
100
AcDbEntity
  8
중심선
100
AcDbLine
 10
10.72767329541681
 20
16.24717430164393
 30
0.0
 11
6.196535287059397
 21
10.84717430164391
 31
0.0
  0
LINE
  5
8B
330
7F
100
AcDbEntity
  8
중심선
100
AcDbLine
 10
7.28139805157953
 20
16.24717430164393
 30
0.0
 11
2.750260043222114
 21
10.84717430164391
 31
0.0
  0
LINE
  5
8C
330
7F
100
AcDbEntity
  8
중심선
100
AcDbLine
 10
5.714909304380834
 20
16.24717430164393
 30
0.0
 11
3.58671253028996
 21
13.71088815037384
 31
0.0
  0
LINE
  5
8D
330
7F
100
AcDbEntity
  8
중심선
100
AcDbLine
 10
2.268634060543552
 20
16.24717430164393
 30
0.0
 11
0.1404042013395286
 21
13.71084872107135
 31
0.0
  0
LINE
  5
8E
330
7F
100
AcDbEntity
  8
중심선
100
AcDbLine
 10
7.28139805157953
 20
16.24717430164393
 30
0.0
 11
10.72767329541681
 21
16.24717430164393
 31
0.0
  0
LINE
  5
8F
330
7F
100
AcDbEntity
  8
중심선
100
AcDbLine
 10
12.29416204261559
 20
16.24717430164393
 30
0.0
 11
15.74043728645272
 21
16.24717430164393
 31
0.0
  0
LINE
  5
90
330
7F
100
AcDbEntity
  8
중심선
100
AcDbLine
 10
19.22036997980202
 20
11.08717430171403
 30
0.0
 11
23.66174974927406
 21
11.08717430171406
 31
0.0
  0
LINE
  5
91
330
7F
100
AcDbEntity
  8
중심선
100
AcDbLine
 10
19.22039502424796
 20
13.00717430171391
 30
0.0
 11
19.22036997980202
 21
11.08717430171403
 31
0.0
  0
LINE
  5
92
330
7F
100
AcDbEntity
  8
중심선
100
AcDbLine
 10
19.22039502424796
 20
13.00717430171391
 30
0.0
 11
26.96566020931264
 21
13.00717430171391
 31
0.0
  0
LINE
  5
93
330
7F
100
AcDbEntity
  8
중심선
100
AcDbLine
 10
22.22332737316547
 20
13.45928029700563
 30
0.0
 11
24.52862924686651
 21
15.39360700705356
 31
0.0
  0
ATTDEF
  5
95
330
7F
100
AcDbEntity
  8
FORMAT
 62
     2
100
AcDbText
 10
4.408487351596664
 20
2.075366912832191
 30
0.0
 40
4.233333333333333
  1
E1071064
 41
0.75
  7
SLDTEXTSTYLE0
 11
4.408487351596664
 21
-0.0412997538344756
 31
0.0
100
AcDbAttributeDefinition
  3

  2
AUTOATTR0
 70
     0
 74
     1
  0
ENDBLK
  5
81
330
7F
100
AcDbEntity
  8
0
100
AcDbBlockEnd
  0
BLOCK
  5
E1
330
E0
100
AcDbEntity
  8
0
100
AcDbBlockBegin
  2
_D
 70
     0
 10
0.0
 20
0.0
 30
0.0
  3
_D
  1
_D
  0
LINE
  5
E3
330
E0
100
AcDbEntity
  8
치수문자_일반주서
 62
     0
370
    -2
100
AcDbLine
 10
-50.56249999999999
 20
12.69999999999999
 30
0.0
 11
-64.00000000000004
 21
12.69999999999994
 31
0.0
  0
LINE
  5
E4
330
E0
100
AcDbEntity
  8
치수문자_일반주서
 62
     0
370
    -2
100
AcDbLine
 10
-50.56249999999999
 20
-12.70000000000002
 30
0.0
 11
-63.99999999999996
 21
-12.70000000000007
 31
0.0
  0
LINE
  5
E5
330
E0
100
AcDbEntity
  8
치수문자_일반주서
 62
     0
370
    -2
100
AcDbLine
 10
-64.00000000000003
 20
9.397999999999936
 30
0.0
 11
-63.99999999999997
 21
-9.39800000000007
 31
0.0
  0
SOLID
  5
E6
330
E0
100
AcDbEntity
  8
치수문자_일반주서
 62
     0
100
AcDbTrace
 10
-63.44966666666669
 20
9.397999999999938
 30
0.0
 11
-64.55033333333336
 21
9.397999999999934
 31
0.0
 12
-64.00000000000004
 22
12.69999999999994
 32
0.0
 13
-64.00000000000004
 23
12.69999999999994
 33
0.0
  0
SOLID
  5
E7
330
E0
100
AcDbEntity
  8
치수문자_일반주서
 62
     0
100
AcDbTrace
 10
-64.5503333333333
 20
-9.398000000000073
 30
0.0
 11
-63.44966666666664
 21
-9.398000000000069
 31
0.0
 12
-63.99999999999996
 22
-12.70000000000007
 32
0.0
 13
-63.99999999999996
 23
-12.70000000000007
 33
0.0
  0
MTEXT
  5
E8
330
E0
100
AcDbEntity
  8
치수문자_일반주서
 62
     0
100
AcDbMText
 10
-68.375
 20
-0.0000000000000212
 30
0.0
 40
3.5
 41
0.0
 71
     2
 72
     1
  1
\A1;%%c25.40 [1]
  7
SLDTEXTSTYLE0
 11
-3.356894814614646E-15
 21
1.0
 31
0.0
 73
     1
 44
1.0
  0
POINT
  5
E9
330
E0
100
AcDbEntity
  8
Defpoints
 62
     0
100
AcDbPoint
 10
-50.49999999999999
 20
12.69999999999999
 30
0.0
  0
POINT
  5
EA
330
E0
100
AcDbEntity
  8
Defpoints
 62
     0
100
AcDbPoint
 10
-50.49999999999999
 20
-12.70000000000002
 30
0.0
  0
POINT
  5
EB
330
E0
100
AcDbEntity
  8
Defpoints
 62
     0
100
AcDbPoint
 10
-63.99999999999996
 20
-12.70000000000007
 30
0.0
  0
ENDBLK
  5
E2
330
E0
100
AcDbEntity
  8
0
100
AcDbBlockEnd
  0
BLOCK
  5
F6
330
F5
100
AcDbEntity
  8
0
100
AcDbBlockBegin
  2
_D_1
 70
     0
 10
0.0
 20
0.0
 30
0.0
  3
_D_1
  1
_D_1
  0
LINE
  5
F8
330
F5
100
AcDbEntity
  8
치수문자_일반주서
 62
     0
370
    -2
100
AcDbLine
 10
113.6
 20
12.76250000000001
 30
0.0
 11
113.6
 21
25.86560788423942
 31
0.0
  0
LINE
  5
F9
330
F5
100
AcDbEntity
  8
치수문자_일반주서
 62
     0
370
    -2
100
AcDbLine
 10
12.00000000000002
 20
10.17802013624154
 30
0.0
 11
12.00000000000003
 21
25.86560788423942
 31
0.0
  0
LINE
  5
FA
330
F5
100
AcDbEntity
  8
치수문자_일반주서
 62
     0
370
    -2
100
AcDbLine
 10
110.298
 20
25.86560788423942
 30
0.0
 11
15.30200000000003
 21
25.86560788423942
 31
0.0
  0
SOLID
  5
FB
330
F5
100
AcDbEntity
  8
치수문자_일반주서
 62
     0
100
AcDbTrace
 10
110.298
 20
25.31527455090609
 30
0.0
 11
110.298
 21
26.41594121757275
 31
0.0
 12
113.6
 22
25.86560788423942
 32
0.0
 13
113.6
 23
25.86560788423942
 33
0.0
  0
SOLID
  5
FC
330
F5
100
AcDbEntity
  8
치수문자_일반주서
 62
     0
100
AcDbTrace
 10
15.30200000000003
 20
26.41594121757275
 30
0.0
 11
15.30200000000003
 21
25.31527455090609
 31
0.0
 12
12.00000000000003
 22
25.86560788423942
 32
0.0
 13
12.00000000000003
 23
25.86560788423942
 33
0.0
  0
MTEXT
  5
FD
330
F5
100
AcDbEntity
  8
치수문자_일반주서
 62
     0
100
AcDbMText
 10
66.49166549285805
 20
30.24060788423942
 30
0.0
 40
3.5
 41
0.0
 71
     2
 72
     1
  1
\A1;101.60 [4]
  7
SLDTEXTSTYLE0
 73
     1
 44
1.0
  0
POINT
  5
FE
330
F5
100
AcDbEntity
  8
Defpoints
 62
     0
100
AcDbPoint
 10
113.6
 20
12.70000000000001
 30
0.0
  0
POINT
  5
FF
330
F5
100
AcDbEntity
  8
Defpoints
 62
     0
100
AcDbPoint
 10
12.00000000000002
 20
10.11552013624154
 30
0.0
  0
POINT
  5
100
330
F5
100
AcDbEntity
  8
Defpoints
 62
     0
100
AcDbPoint
 10
12.00000000000002
 20
25.86560788423942
 30
0.0
  0
ENDBLK
  5
F7
330
F5
100
AcDbEntity
  8
0
100
AcDbBlockEnd
  0
BLOCK
  5
10A
330
109
100
AcDbEntity
  8
0
100
AcDbBlockBegin
  2
_D_2
 70
     0
 10
0.0
 20
0.0
 30
0.0
  3
_D_2
  1
_D_2
  0
LINE
  5
10C
330
109
100
AcDbEntity
  8
치수문자_일반주서
 62
     0
370
    -2
100
AcDbLine
 10
113.6
 20
12.76250000000001
 30
0.0
 11
113.6
 21
42.57707860462924
 31
0.0
  0
LINE
  5
10D
330
109
100
AcDbEntity
  8
치수문자_일반주서
 62
     0
370
    -2
100
AcDbLine
 10
-51.49999999999999
 20
11.76249999999999
 30
0.0
 11
-51.5
 21
42.57707860462924
 31
0.0
  0
LINE
  5
10E
330
109
100
AcDbEntity
  8
치수문자_일반주서
 62
     0
370
    -2
100
AcDbLine
 10
110.298
 20
42.57707860462924
 30
0.0
 11
-48.198
 21
42.57707860462924
 31
0.0
  0
SOLID
  5
10F
330
109
100
AcDbEntity
  8
치수문자_일반주서
 62
     0
100
AcDbTrace
 10
110.298
 20
42.0267452712959
 30
0.0
 11
110.298
 21
43.12741193796257
 31
0.0
 12
113.6
 22
42.57707860462924
 32
0.0
 13
113.6
 23
42.57707860462924
 33
0.0
  0
SOLID
  5
110
330
109
100
AcDbEntity
  8
치수문자_일반주서
 62
     0
100
AcDbTrace
 10
-48.198
 20
43.12741193796257
 30
0.0
 11
-48.198
 21
42.0267452712959
 31
0.0
 12
-51.5
 22
42.57707860462924
 32
0.0
 13
-51.5
 23
42.57707860462924
 33
0.0
  0
MTEXT
  5
111
330
109
100
AcDbEntity
  8
치수문자_일반주서
 62
     0
100
AcDbMText
 10
31.05000000000001
 20
46.95207860462924
 30
0.0
 40
3.5
 41
0.0
 71
     2
 72
     1
  1
\A1;165.10 [6 1/2]
  7
SLDTEXTSTYLE0
 73
     1
 44
1.0
  0
POINT
  5
112
330
109
100
AcDbEntity
  8
Defpoints
 62
     0
100
AcDbPoint
 10
113.6
 20
12.70000000000001
 30
0.0
  0
POINT
  5
113
330
109
100
AcDbEntity
  8
Defpoints
 62
     0
100
AcDbPoint
 10
-51.49999999999999
 20
11.69999999999999
 30
0.0
  0
POINT
  5
114
330
109
100
AcDbEntity
  8
Defpoints
 62
     0
100
AcDbPoint
 10
-51.49999999999999
 20
42.57707860462924
 30
0.0
  0
ENDBLK
  5
10B
330
109
100
AcDbEntity
  8
0
100
AcDbBlockEnd
  0
BLOCK
  5
11E
330
11D
100
AcDbEntity
  8
0
100
AcDbBlockBegin
  2
_D_3
 70
     0
 10
0.0
 20
0.0
 30
0.0
  3
_D_3
  1
_D_3
  0
LINE
  5
120
330
11D
100
AcDbEntity
  8
치수문자_일반주서
 62
     0
370
    -2
100
AcDbLine
 10
113.6625
 20
-12.69999999999999
 30
0.0
 11
134.9334918421941
 21
-12.6999999999999
 31
0.0
  0
LINE
  5
121
330
11D
100
AcDbEntity
  8
치수문자_일반주서
 62
     0
370
    -2
100
AcDbLine
 10
113.6625
 20
12.70000000000001
 30
0.0
 11
134.933491842194
 21
12.70000000000009
 31
0.0
  0
LINE
  5
122
330
11D
100
AcDbEntity
  8
치수문자_일반주서
 62
     0
370
    -2
100
AcDbLine
 10
134.933491842194
 20
12.70000000000009
 30
0.0
 11
134.9334918421939
 21
44.44951615341656
 31
0.0
  0
LINE
  5
123
330
11D
100
AcDbEntity
  8
치수문자_일반주서
 62
     0
370
    -2
100
AcDbLine
 10
134.9334918421941
 20
-12.6999999999999
 30
0.0
 11
134.933491842194
 21
12.70000000000009
 31
0.0
  0
LINE
  5
124
330
11D
100
AcDbEntity
  8
치수문자_일반주서
 62
     0
370
    -2
100
AcDbLine
 10
134.9334918421941
 20
-16.0019999999999
 30
0.0
 11
134.9334918421941
 21
-19.3039999999999
 31
0.0
  0
LINE
  5
125
330
11D
100
AcDbEntity
  8
치수문자_일반주서
 62
     0
370
    -2
100
AcDbLine
 10
134.933491842194
 20
16.00200000000009
 30
0.0
 11
134.933491842194
 21
19.30400000000009
 31
0.0
  0
SOLID
  5
126
330
11D
100
AcDbEntity
  8
치수문자_일반주서
 62
     0
100
AcDbTrace
 10
135.4838251755274
 20
-16.0019999999999
 30
0.0
 11
134.3831585088608
 21
-16.00199999999991
 31
0.0
 12
134.9334918421941
 22
-12.6999999999999
 32
0.0
 13
134.9334918421941
 23
-12.6999999999999
 33
0.0
  0
SOLID
  5
127
330
11D
100
AcDbEntity
  8
치수문자_일반주서
 62
     0
100
AcDbTrace
 10
134.3831585088607
 20
16.00200000000009
 30
0.0
 11
135.4838251755274
 21
16.00200000000009
 31
0.0
 12
134.933491842194
 22
12.70000000000009
 32
0.0
 13
134.933491842194
 23
12.70000000000009
 33
0.0
  0
MTEXT
  5
128
330
11D
100
AcDbEntity
  8
치수문자_일반주서
 62
     0
100
AcDbMText
 10
130.558491842194
 20
33.29326615341655
 30
0.0
 40
3.5
 41
0.0
 71
     2
 72
     1
  1
\A1;%%c25.40 [1]
  7
SLDTEXTSTYLE0
 11
-3.356894814614647E-15
 21
1.0
 31
0.0
 73
     1
 44
1.0
  0
POINT
  5
129
330
11D
100
AcDbEntity
  8
Defpoints
 62
     0
100
AcDbPoint
 10
113.6
 20
-12.69999999999999
 30
0.0
  0
POINT
  5
1B9
330
11D
100
AcDbEntity
  8
Defpoints
 62
     0
100
AcDbPoint
 10
113.6
 20
12.70000000000001
 30
0.0
  0
POINT
  5
1BA
330
11D
100
AcDbEntity
  8
Defpoints
 62
     0
100
AcDbPoint
 10
134.933491842194
 20
12.70000000000009
 30
0.0
  0
ENDBLK
  5
11F
330
11D
100
AcDbEntity
  8
0
100
AcDbBlockEnd
  0
BLOCK
  5
137
330
136
100
AcDbEntity
  8
0
100
AcDbBlockBegin
  2
SW_DOWELSYMBOL_0
 70
     0
 10
0.0
 20
0.0
 30
0.0
  3
SW_DOWELSYMBOL_0
  1
SW_DOWELSYMBOL_0
  0
CIRCLE
  5
139
330
136
100
AcDbEntity
  8
해칭선
 62
     0
100
AcDbCircle
 10
0.0
 20
0.0
 30
0.0
 40
2.999999999999996
  0
HATCH
  5
13A
330
136
100
AcDbEntity
  8
0
  6
Continuous
 62
     0
370
     0
100
AcDbHatch
 10
0.0
 20
0.0
 30
0.0
210
0.0
220
0.0
230
1.0
  2
SOLID
 70
     1
 71
     0
 91
        1
 92
        0
 93
        3
 72
     2
 10
0.0
 20
0.0
 40
2.999999999999996
 50
0.0
 51
90.0
 73
     1
 72
     1
 10
0.0
 20
2.999999999999996
 11
0.0
 21
0.0
 72
     1
 10
0.0
 20
0.0
 11
2.999999999999996
 21
0.0
 97
        0
 75
     0
 76
     1
 98
        1
 10
0.0
 20
0.0
  0
HATCH
  5
13B
330
136
100
AcDbEntity
  8
0
  6
Continuous
 62
     0
370
     0
100
AcDbHatch
 10
0.0
 20
0.0
 30
0.0
210
0.0
220
0.0
230
1.0
  2
SOLID
 70
     1
 71
     0
 91
        1
 92
        0
 93
        3
 72
     2
 10
0.0
 20
0.0
 40
2.999999999999996
 50
180.0
 51
270.0000000000007
 73
     1
 72
     1
 10
0.0
 20
-2.999999999999996
 11
0.0
 21
0.0
 72
     1
 10
0.0
 20
0.0
 11
-2.999999999999996
 21
0.0
 97
        0
 75
     0
 76
     1
 98
        1
 10
0.0
 20
0.0
  0
ENDBLK
  5
138
330
136
100
AcDbEntity
  8
0
100
AcDbBlockEnd
  0
ENDSEC
  0
SECTION
  2
ENTITIES
  0
LINE
  5
96
330
1F
100
AcDbEntity
  8
외형선
  6
Continuous
370
    15
100
AcDbLine
 10
8.949888507645051
 20
12.7
 30
0.0
 11
-14.06992499999999
 21
12.7
 31
0.0
  0
LINE
  5
97
330
1F
100
AcDbEntity
  8
외형선
  6
Continuous
370
    15
100
AcDbLine
 10
-50.49999999999999
 20
-12.70000000000001
 30
0.0
 11
8.949888507645051
 21
-12.7
 31
0.0
  0
LINE
  5
99
330
1F
100
AcDbEntity
  8
외형선
  6
Continuous
370
    15
100
AcDbLine
 10
-51.49999999999999
 20
-11.7
 30
0.0
 11
-50.49999999999999
 21
-12.7
 31
0.0
  0
SPLINE
  5
9A
330
1F
100
AcDbEntity
  8
외형선
  6
Continuous
370
    15
100
AcDbSpline
210
0.0
220
0.0
230
1.0
 70
     8
 71
     3
 72
     9
 73
     5
 74
     0
 42
0.000000001
 43
0.00000001
 40
0.0
 40
0.0
 40
0.0
 40
0.0
 40
0.4870245548952448
 40
1.0
 40
1.0
 40
1.0
 40
1.0
 10
11.43932510676533
 20
3.325683888449632
 30
0.0
 10
11.03895714326073
 20
3.516667674883502
 30
0.0
 10
10.21688778457977
 20
3.908811735207009
 30
0.0
 10
9.379388385915767
 20
4.335945492745335
 30
0.0
 10
8.949771759111135
 20
4.555054622137823
 30
0.0
  0
SPLINE
  5
9B
330
1F
100
AcDbEntity
  8
0
  6
Continuous
 62
     1
370
    15
100
AcDbSpline
210
0.0
220
0.0
230
1.0
 70
     8
 71
     3
 72
     9
 73
     5
 74
     0
 42
0.000000001
 43
0.00000001
 40
0.0
 40
0.0
 40
0.0
 40
0.0
 40
0.4622157406165444
 40
1.0
 40
1.0
 40
1.0
 40
1.0
 10
80.69757488562567
 20
3.254306676300642
 30
0.0
 10
80.15534712684733
 20
3.512398740457432
 30
0.0
 10
78.98224177553439
 20
4.070778824641766
 30
0.0
 10
77.80669723525904
 20
4.685789721939567
 30
0.0
 10
77.17450788529479
 20
5.016532901855622
 30
0.0
  0
LINE
  5
9C
330
1F
100
AcDbEntity
  8
0
  6
Continuous
 62
     1
370
    15
100
AcDbLine
 10
73.67361577347643
 20
3.576000648990071
 30
0.0
 11
73.53707705895788
 21
3.651213710303858
 31
0.0
  0
LINE
  5
9D
330
1F
100
AcDbEntity
  8
0
  6
Continuous
 62
     1
370
    15
100
AcDbLine
 10
51.55360346757497
 20
12.70000000000001
 30
0.0
 11
45.39857344623935
 21
12.70000000000001
 31
0.0
  0
LINE
  5
9E
330
1F
100
AcDbEntity
  8
0
  6
Continuous
 62
     1
370
    15
100
AcDbLine
 10
45.39857344623947
 20
-12.70000000000001
 30
0.0
 11
51.55360346757505
 21
-12.70000000000001
 31
0.0
  0
SPLINE
  5
9F
330
1F
100
AcDbEntity
  8
0
  6
Continuous
 62
     1
370
    15
100
AcDbSpline
210
0.0
220
0.0
230
1.0
 70
     8
 71
     3
 72
    29
 73
    25
 74
     0
 42
0.000000001
 43
0.00000001
 40
0.0
 40
0.0
 40
0.0
 40
0.0
 40
0.0662484191282496
 40
0.1218378334412917
 40
0.1670160039830398
 40
0.1996576901423739
 40
0.232405230512182
 40
0.2840400562485099
 40
0.3585780379270394
 40
0.4167253896845101
 40
0.4857175684635472
 40
0.5321451079055135
 40
0.5733693182179189
 40
0.6230482370301458
 40
0.6711219159354573
 40
0.7038469980232719
 40
0.7270014401174457
 40
0.7612559837873
 40
0.7984600142559852
 40
0.829246993406749
 40
0.8547417286832545
 40
0.889480602879113
 40
0.9379389188611258
 40
1.0
 40
1.0
 40
1.0
 40
1.0
 10
57.39808464699141
 20
-10.56816156286622
 30
0.0
 10
57.80711875563324
 20
-10.5279055496479
 30
0.0
 10
58.5593756435151
 20
-10.45387049344513
 30
0.0
 10
59.63281343169387
 20
-10.36054047448272
 30
0.0
 10
60.496073410095
 20
-10.29217450424586
 30
0.0
 10
61.20717256417817
 20
-10.23920284232866
 30
0.0
 10
61.94492773532636
 20
-10.18802825984878
 30
0.0
 10
62.96063175060779
 20
-10.1235581820183
 30
0.0
 10
64.13402744826867
 20
-10.06059899901039
 30
0.0
 10
65.4191142780913
 20
-10.00481986879809
 30
0.0
 10
66.5272960278124
 20
-9.967613736931972
 30
0.0
 10
67.51885564191645
 20
-9.943491901559566
 30
0.0
 10
68.3819551655516
 20
-9.928133894873067
 30
0.0
 10
69.27376522397043
 20
-9.919109138352242
 30
0.0
 10
70.11170308083369
 20
-9.917211889541786
 30
0.0
 10
70.77676108555335
 20
-9.919962308959242
 30
0.0
 10
71.35070700996407
 20
-9.924900740243155
 30
0.0
 10
71.95354207908932
 20
-9.932839524791664
 30
0.0
 10
72.6053051837267
 20
-9.945130869451278
 30
0.0
 10
73.20204678622491
 20
-9.959625900733315
 30
0.0
 10
73.78473307021957
 20
-9.97640065827174
 30
0.0
 10
74.47732729451755
 20
-9.9997286613276
 30
0.0
 10
75.40178871796316
 20
-10.03628116570782
 30
0.0
 10
76.1050369849622
 20
-10.07190974058928
 30
0.0
 10
76.49993913694608
 20
-10.09191661661451
 30
0.0
  0
SPLINE
  5
A0
330
1F
100
AcDbEntity
  8
0
  6
Continuous
 62
     1
370
    15
100
AcDbSpline
210
0.0
220
0.0
230
1.0
 70
     8
 71
     3
 72
    19
 73
    15
 74
     0
 42
0.000000001
 43
0.00000001
 40
0.0
 40
0.0
 40
0.0
 40
0.0
 40
0.1235618458051431
 40
0.2252574492849508
 40
0.3098134752468609
 40
0.3816632780059622
 40
0.4514739168786035
 40
0.5360861650156229
 40
0.6213671108171603
 40
0.7004394077843276
 40
0.790984527197047
 40
0.903910377296842
 40
0.9707046589225826
 40
1.0
 40
1.0
 40
1.0
 40
1.0
 10
76.49993913694604
 20
10.09191661661449
 30
0.0
 10
76.08668338445494
 20
10.07065369514041
 30
0.0
 10
75.33330408600003
 20
10.0318906657895
 30
0.0
 10
74.24867390683646
 20
9.990618002592884
 30
0.0
 10
73.3397586511767
 20
9.962897275816895
 30
0.0
 10
72.55159622502052
 20
9.943761805773574
 30
0.0
 10
71.77749650348251
 20
9.929931078651009
 30
0.0
 10
70.9462921813729
 20
9.920449312868225
 30
0.0
 10
70.08526712984772
 20
9.917028974249137
 30
0.0
 10
69.20328479645225
 20
9.919836926675439
 30
0.0
 10
68.22538290485139
 20
9.930104056391892
 30
0.0
 10
67.29005500238964
 20
9.94833305734722
 30
0.0
 10
66.56684740283072
 20
9.967617613104041
 30
0.0
 10
66.23435650716434
 20
9.978404517943888
 30
0.0
 10
66.13298828529325
 20
9.981693177505278
 30
0.0
  0
SPLINE
  5
A1
330
1F
100
AcDbEntity
  8
0
  6
Continuous
 62
     1
370
    15
100
AcDbSpline
210
0.0
220
0.0
230
1.0
 70
     8
 71
     3
 72
    19
 73
    15
 74
     0
 42
0.000000001
 43
0.00000001
 40
0.0
 40
0.0
 40
0.0
 40
0.0
 40
0.1047916867908091
 40
0.1855514385510773
 40
0.2836363965498262
 40
0.3759507306823651
 40
0.4827792902879919
 40
0.5805833956152735
 40
0.6608560129751639
 40
0.7279602106651059
 40
0.8120923306577152
 40
0.9050175208049651
 40
0.9829382439198797
 40
0.9999999999999999
 40
0.9999999999999999
 40
0.9999999999999999
 40
0.9999999999999999
 10
86.69534669452514
 20
-9.552101835428259
 30
0.0
 10
86.98700238275336
 20
-9.5056485243625
 30
0.0
 10
87.50342820019806
 20
-9.423395065546455
 30
0.0
 10
88.41660117334993
 20
-9.289158051696976
 30
0.0
 10
89.30101179766581
 20
-9.173262016624873
 30
0.0
 10
90.26129399750876
 20
-9.04950146556638
 30
0.0
 10
91.20079264122108
 20
-8.938913401456809
 30
0.0
 10
92.10694116363672
 20
-8.840640749715602
 30
0.0
 10
92.88056645385512
 20
-8.764056811063941
 30
0.0
 10
93.60542801969123
 20
-8.69759119007606
 30
0.0
 10
94.38392574332647
 20
-8.63231943880535
 30
0.0
 10
95.2011319823053
 20
-8.571927545530386
 30
0.0
 10
95.80119750102773
 20
-8.531711609730891
 30
0.0
 10
96.10159346140996
 20
-8.514556268674127
 30
0.0
 10
96.15555375647631
 20
-8.511474645125634
 30
0.0
  0
SPLINE
  5
A2
330
1F
100
AcDbEntity
  8
0
  6
Continuous
 62
     1
370
    15
100
AcDbSpline
210
0.0
220
0.0
230
1.0
 70
     8
 71
     3
 72
    35
 73
    31
 74
     0
 42
0.000000001
 43
0.00000001
 40
0.0
 40
0.0
 40
0.0
 40
0.0
 40
0.0468112534340741
 40
0.0863358950678757
 40
0.1190897308841516
 40
0.1499805170903556
 40
0.1725442604791018
 40
0.1945696598860053
 40
0.2280354732290654
 40
0.2692303184123317
 40
0.3049531948261606
 40
0.3357359183907287
 40
0.3750676185335132
 40
0.4185341337055292
 40
0.4548449733190561
 40
0.4891159157533481
 40
0.5346673714141172
 40
0.578259489963232
 40
0.6155934641592367
 40
0.6531196308975702
 40
0.6930245754615488
 40
0.7373088385322388
 40
0.7776011938912925
 40
0.8105037287642116
 40
0.8271121463395239
 40
0.8447298405260879
 40
0.8695479474545907
 40
0.9037319255979832
 40
0.9471646704508104
 40
0.9999999999999999
 40
0.9999999999999999
 40
0.9999999999999999
 40
0.9999999999999999
 10
39.77576174260467
 20
8.686196996517625
 30
0.0
 10
39.44815789220018
 20
8.658722752335882
 30
0.0
 10
38.84394481142488
 20
8.60805088844134
 30
0.0
 10
37.97283571800472
 20
8.545917280980156
 30
0.0
 10
37.18764403022666
 20
8.499247741504709
 30
0.0
 10
36.52980150593923
 20
8.464727803623346
 30
0.0
 10
35.95586287134408
 20
8.437947500193633
 30
0.0
 10
35.39822142045365
 20
8.415704931963804
 30
0.0
 10
34.6785803514638
 20
8.391426159393838
 30
0.0
 10
33.85858820096445
 20
8.371801925946706
 30
0.0
 10
33.0619730032956
 20
8.360593396978699
 30
0.0
 10
32.28293021134192
 20
8.356316654705171
 30
0.0
 10
31.43643995209533
 20
8.359231467050469
 30
0.0
 10
30.54711423969153
 20
8.371787304356081
 30
0.0
 10
29.70714982955354
 20
8.39254119129953
 30
0.0
 10
28.85821870343266
 20
8.421006340918863
 30
0.0
 10
27.94302936524043
 20
8.460792776570823
 30
0.0
 10
27.00666884726426
 20
8.51208937173354
 30
0.0
 10
26.12918496526465
 20
8.569222259545827
 30
0.0
 10
25.27963988909434
 20
8.632355770708244
 30
0.0
 10
24.37858418736601
 20
8.707731001509403
 30
0.0
 10
23.45619348115719
 20
8.794237461377547
 30
0.0
 10
22.5860344608873
 20
8.884874948375968
 30
0.0
 10
21.9216127637187
 20
8.95969616771856
 30
0.0
 10
21.42489375460386
 20
9.018360585491305
 30
0.0
 10
20.98793772939833
 20
9.07164552532519
 30
0.0
 10
20.42094122973753
 20
9.143459792965468
 30
0.0
 10
19.6624820043487
 20
9.24461398930514
 30
0.0
 10
18.69618984730802
 20
9.381434254177128
 30
0.0
 10
17.98170427135229
 20
9.491627358395183
 30
0.0
 10
17.58956927646168
 20
9.55210523760461
 30
0.0
  0
SPLINE
  5
A3
330
1F
100
AcDbEntity
  8
0
  6
Continuous
 62
     1
370
    15
100
AcDbSpline
210
0.0
220
0.0
230
1.0
 70
     8
 71
     3
 72
    19
 73
    15
 74
     0
 42
0.000000001
 43
0.00000001
 40
0.0
 40
0.0
 40
0.0
 40
0.0
 40
0.1392677021718748
 40
0.2513614792718427
 40
0.3390550086921282
 40
0.4012004231683096
 40
0.4525618745016343
 40
0.5305738373658752
 40
0.6274744161518951
 40
0.7118809010002086
 40
0.7837991899749875
 40
0.8760322686200954
 40
0.9785871263373459
 40
1.0
 40
1.0
 40
1.0
 40
1.0
 10
17.58956927646168
 20
-9.552105237604614
 30
0.0
 10
18.0108521325363
 20
-9.486739372467524
 30
0.0
 10
18.77121710046041
 20
-9.368761834973105
 30
0.0
 10
19.85199784885643
 20
-9.217528495725162
 30
0.0
 10
20.69842195281642
 20
-9.107772342329467
 30
0.0
 10
21.34838523914717
 20
-9.027074556547786
 30
0.0
 10
21.93297583358099
 20
-8.958375647482319
 30
0.0
 10
22.64649778237418
 20
-8.878257309798782
 30
0.0
 10
23.46328844606145
 20
-8.793815268017726
 30
0.0
 10
24.26168339448392
 20
-8.718801671107238
 30
0.0
 10
25.04582687159997
 20
-8.651286948278603
 30
0.0
 10
25.88706705551496
 20
-8.586581972014413
 30
0.0
 10
26.56849630695101
 20
-8.53902788847422
 30
0.0
 10
26.95940063677629
 20
-8.516946917068829
 30
0.0
 10
27.02692131280675
 20
-8.513132883805577
 30
0.0
  0
SPLINE
  5
A4
330
1F
100
AcDbEntity
  8
0
  6
Continuous
 62
     1
370
    15
100
AcDbSpline
210
0.0
220
0.0
230
1.0
 70
     8
 71
     3
 72
    29
 73
    25
 74
     0
 42
0.000000001
 43
0.00000001
 40
0.0
 40
0.0
 40
0.0
 40
0.0
 40
0.0611146919582211
 40
0.1098820980479937
 40
0.1466262620877779
 40
0.1773182751676608
 40
0.2044408325825674
 40
0.2307724378405447
 40
0.2632637389380626
 40
0.2994871290919229
 40
0.352698781368699
 40
0.403241137771528
 40
0.4497960438336764
 40
0.4956335950583677
 40
0.5531970048994792
 40
0.6051633511984748
 40
0.6536977141666017
 40
0.7065986293247355
 40
0.7660970975776042
 40
0.8010353217249417
 40
0.8356099098117884
 40
0.8759665909010073
 40
0.9294714194775591
 40
1.0
 40
1.0
 40
1.0
 40
1.0
 10
108.8815330508609
 20
8.686198332032983
 30
0.0
 10
108.4367320005104
 20
8.649739099741684
 30
0.0
 10
107.6369951277487
 20
8.584186663674005
 30
0.0
 10
106.5587750335922
 20
8.514166072052257
 30
0.0
 10
105.6848051246334
 20
8.466646291016229
 30
0.0
 10
104.9733077700766
 20
8.434090352011276
 30
0.0
 10
104.3474826939887
 20
8.41002883528482
 30
0.0
 10
103.7170124721084
 20
8.390109274126745
 30
0.0
 10
103.0136947450661
 20
8.373073085697484
 30
0.0
 10
102.1114378484036
 20
8.359193074797172
 30
0.0
 10
101.0760761104685
 20
8.3552349629674
 30
0.0
 10
99.9639154865116
 20
8.365769381866551
 30
0.0
 10
98.90630766799029
 20
8.389049606470907
 30
0.0
 10
97.79683830889813
 20
8.42660055475402
 30
0.0
 10
96.647469386289
 20
8.480467681656917
 30
0.0
 10
95.4776116377417
 20
8.551556980491034
 30
0.0
 10
94.34273103863882
 20
8.634807789754468
 30
0.0
 10
93.15339680561964
 20
8.736427852723324
 30
0.0
 10
92.05863639504987
 20
8.845076523999909
 30
0.0
 10
91.11881119673886
 20
8.948674663322029
 30
0.0
 10
90.30111842419264
 20
9.045249573335694
 30
0.0
 10
89.32803265148128
 20
9.16817428848302
 30
0.0
 10
88.10663903454522
 20
9.334948535475194
 30
0.0
 10
87.20693914707708
 20
9.473383921249575
 30
0.0
 10
86.69534669452514
 20
9.552101835428255
 30
0.0
  0
SPLINE
  5
A5
330
1F
100
AcDbEntity
  8
외형선
  6
Continuous
370
    15
100
AcDbSpline
210
0.0
220
0.0
230
1.0
 70
     8
 71
     3
 72
    10
 73
     6
 74
     0
 42
0.000000001
 43
0.00000001
 40
0.0
 40
0.0
 40
0.0
 40
0.0
 40
0.5
 40
0.5
 40
1.0
 40
1.0
 40
1.0
 40
1.0
 10
8.949888507645037
 20
1.092804303092265
 30
0.0
 10
9.458248319409591
 20
0.8004277373250722
 30
0.0
 10
9.967800008692734
 20
0.5069466324417189
 30
0.0
 10
10.98561656945261
 20
-0.0801114553040241
 30
0.0
 10
11.49282877017088
 20
-0.3734848371975574
 30
0.0
 10
12.00000000000001
 20
-0.6663172307684911
 30
0.0
  0
SPLINE
  5
A6
330
1F
100
AcDbEntity
  8
외형선
  6
Continuous
370
    15
100
AcDbSpline
210
0.0
220
0.0
230
1.0
 70
    24
 71
     3
 72
     9
 73
     5
 74
     0
 42
0.000000001
 43
0.00000001
 40
0.0
 40
0.0
 40
0.0
 40
0.0
 40
0.2234126741921825
 40
1.0
 40
1.0
 40
1.0
 40
1.0
 10
12.0
 20
-0.6663172307684913
 30
0.0
 10
12.0
 20
-0.6767272644792729
 30
0.0
 10
12.0
 20
-0.7233228023037154
 30
0.0
 10
12.0
 20
-0.7839046231162516
 30
0.0
 10
12.0
 20
-0.8309516973336277
 30
0.0
  0
SPLINE
  5
A7
330
1F
100
AcDbEntity
  8
외형선
  6
Continuous
370
    15
100
AcDbSpline
210
0.0
220
0.0
230
1.0
 70
     8
 71
     3
 72
     8
 73
     4
 74
     0
 42
0.000000001
 43
0.00000001
 40
0.0
 40
0.0
 40
0.0
 40
0.0
 40
1.0
 40
1.0
 40
1.0
 40
1.0
 10
12.00000000000001
 20
-0.8309516973336235
 30
0.0
 10
11.11195741175754
 20
-0.4731112629000454
 30
0.0
 10
10.22083310872518
 20
-0.1128165347034851
 30
0.0
 10
9.329869415230522
 20
0.2468521112410363
 30
0.0
  0
SPLINE
  5
A8
330
1F
100
AcDbEntity
  8
외형선
  6
Continuous
370
    15
100
AcDbSpline
210
0.0
220
0.0
230
1.0
 70
     8
 71
     3
 72
    12
 73
     8
 74
     0
 42
0.000000001
 43
0.00000001
 40
0.0
 40
0.0
 40
0.0
 40
0.0
 40
0.5000000000000021
 40
0.5000000000000021
 40
0.750000000000001
 40
0.750000000000001
 40
1.0
 40
1.0
 40
1.0
 40
1.0
 10
8.94988850764504
 20
0.6497635277794238
 30
0.0
 10
8.94988850764504
 20
0.5924380444362386
 30
0.0
 10
8.988948019973215
 20
0.5193371353885957
 30
0.0
 10
9.086204888820834
 20
0.4085021788898239
 30
0.0
 10
9.124561816744947
 20
0.3722010237767608
 30
0.0
 10
9.21755807526319
 20
0.3026696919830552
 30
0.0
 10
9.270931683768563
 20
0.270644387205523
 30
0.0
 10
9.329869415230522
 20
0.2468521112410323
 30
0.0
  0
LINE
  5
A9
330
1F
100
AcDbEntity
  8
외형선
  6
Continuous
370
    15
100
AcDbLine
 10
8.94988850764504
 20
4.545358262744159
 30
0.0
 11
8.949888507645051
 21
12.7
 31
0.0
  0
SPLINE
  5
AA
330
1F
100
AcDbEntity
  8
외형선
  6
Continuous
370
    15
100
AcDbSpline
210
0.0
220
0.0
230
1.0
 70
     8
 71
     3
 72
    10
 73
     6
 74
     0
 42
0.000000001
 43
0.00000001
 40
0.0
 40
0.0
 40
0.0
 40
0.0
 40
0.5
 40
0.5
 40
1.0
 40
1.0
 40
1.0
 40
1.0
 10
12.00000000000016
 20
2.86226372882984
 30
0.0
 10
11.49280935757295
 20
3.147966565369466
 30
0.0
 10
10.98557766054595
 20
3.431389184157501
 30
0.0
 10
9.967722043079185
 20
3.99291014328999
 30
0.0
 10
9.45815084660864
 20
4.270809446354112
 30
0.0
 10
8.949771759111135
 20
4.544850026327134
 30
0.0
  0
LINE
  5
AB
330
1F
100
AcDbEntity
  8
외형선
  6
Continuous
370
    15
100
AcDbLine
 10
12.00000000000001
 20
2.862263728829924
 30
0.0
 11
12.00000000000001
 21
-0.6663172307684913
 31
0.0
  0
LINE
  5
AC
330
1F
100
AcDbEntity
  8
외형선
  6
Continuous
370
    15
100
AcDbLine
 10
-50.49999999999999
 20
10.795
 30
0.0
 11
-50.49999999999999
 21
-12.70000000000001
 31
0.0
  0
LINE
  5
AD
330
1F
100
AcDbEntity
  8
외형선
  6
Continuous
370
    15
100
AcDbLine
 10
8.949888507645051
 20
-12.7
 30
0.0
 11
8.949888507645037
 21
1.09280729208188
 31
0.0
  0
LINE
  5
AE
330
1F
100
AcDbEntity
  8
외형선
  6
Continuous
370
    15
100
AcDbLine
 10
-51.49999999999999
 20
10.795
 30
0.0
 11
-51.49999999999999
 21
-11.7
 31
0.0
  0
LINE
  5
AF
330
1F
100
AcDbEntity
  8
외형선
  6
Continuous
370
    15
100
AcDbLine
 10
12.00000000000005
 20
3.062397198132684
 30
0.0
 11
11.39224729731584
 21
3.341593642697278
 31
0.0
  0
SPLINE
  5
B0
330
1F
100
AcDbEntity
  8
외형선
  6
Continuous
370
    15
100
AcDbSpline
210
0.0
220
0.0
230
1.0
 70
    24
 71
     3
 72
     8
 73
     4
 74
     0
 42
0.000000001
 43
0.00000001
 40
0.0
 40
0.0
 40
0.0
 40
0.0
 40
1.0
 40
1.0
 40
1.0
 40
1.0
 10
12.00000000000002
 20
3.062397198132699
 30
0.0
 10
12.00000000000002
 20
3.049830964218664
 30
0.0
 10
12.00000000000002
 20
2.982931311499643
 30
0.0
 10
12.00000000000002
 20
2.862263728832593
 30
0.0
  0
SPLINE
  5
B1
330
1F
100
AcDbEntity
  8
외형선
  6
Continuous
370
    15
100
AcDbSpline
210
0.0
220
0.0
230
1.0
 70
     8
 71
     3
 72
     8
 73
     4
 74
     0
 42
0.000000001
 43
0.00000001
 40
0.0
 40
0.0
 40
0.0
 40
0.0
 40
1.0
 40
1.0
 40
1.0
 40
1.0
 10
12.00000000000002
 20
10.11552013624153
 30
0.0
 10
10.98564336164795
 20
10.15937499821999
 30
0.0
 10
9.966579574147643
 20
10.17083784317777
 30
0.0
 10
8.949845871880937
 20
10.14969687519428
 30
0.0
  0
SPLINE
  5
B2
330
1F
100
AcDbEntity
  8
외형선
  6
Continuous
370
    15
100
AcDbSpline
210
0.0
220
0.0
230
1.0
 70
    24
 71
     3
 72
    14
 73
    10
 74
     0
 42
0.000000001
 43
0.00000001
 40
0.0
 40
0.0
 40
0.0
 40
0.0
 40
0.25
 40
0.25
 40
0.4999999999999999
 40
0.4999999999999999
 40
0.75
 40
0.75
 40
1.0
 40
1.0
 40
1.0
 40
1.0
 10
12.00000000000002
 20
10.11552013624153
 30
0.0
 10
12.00000000000002
 20
9.911879412163337
 30
0.0
 10
12.00000000000002
 20
9.601526710968349
 30
0.0
 10
12.00000000000001
 20
8.766674653213519
 30
0.0
 10
12.00000000000001
 20
8.2421694369137
 30
0.0
 10
12.00000000000001
 20
7.00946145340688
 30
0.0
 10
12.00000000000001
 20
6.301614654845306
 30
0.0
 10
12.00000000000002
 20
4.759212297255001
 30
0.0
 10
12.00000000000002
 20
3.925208033155665
 30
0.0
 10
12.00000000000002
 20
3.062397198132704
 30
0.0
  0
SPLINE
  5
B3
330
1F
100
AcDbEntity
  8
외형선
  6
Continuous
370
    15
100
AcDbSpline
210
0.0
220
0.0
230
1.0
 70
     8
 71
     3
 72
     8
 73
     4
 74
     0
 42
0.000000001
 43
0.00000001
 40
0.0
 40
0.0
 40
0.0
 40
0.0
 40
1.0
 40
1.0
 40
1.0
 40
1.0
 10
12.00000000000002
 20
-10.11552013624154
 30
0.0
 10
11.16068229548834
 20
-10.15180733612346
 30
0.0
 10
10.31882787696147
 20
-10.16594042083365
 30
0.0
 10
9.476543617243474
 20
-10.1577365630356
 30
0.0
  0
SPLINE
  5
B4
330
1F
100
AcDbEntity
  8
외형선
  6
Continuous
370
    15
100
AcDbSpline
210
0.0
220
0.0
230
1.0
 70
     8
 71
     3
 72
    16
 73
    12
 74
     0
 42
0.000000001
 43
0.00000001
 40
0.0
 40
0.0
 40
0.0
 40
0.0
 40
0.1908697046028428
 40
0.3741548123792093
 40
0.535158935123331
 40
0.6718666144671762
 40
0.7843506997481967
 40
0.8727363519810505
 40
0.9372807418181301
 40
0.9786777413177595
 40
0.9999999999999999
 40
0.9999999999999999
 40
0.9999999999999999
 40
0.9999999999999999
 10
9.238960014356756
 20
-10.31396297622181
 30
0.0
 10
9.252685786617214
 20
-10.30359030808882
 30
0.0
 10
9.279591909595487
 20
-10.28325715093721
 30
0.0
 10
9.31884063374594
 20
-10.25452495854719
 30
0.0
 10
9.354729331113797
 20
-10.22894036305426
 30
0.0
 10
9.386147505338617
 20
-10.20732552858068
 30
0.0
 10
9.412976307836646
 20
-10.1898054461187
 30
0.0
 10
9.434995914913983
 20
-10.17605567490773
 30
0.0
 10
9.452703964112716
 20
-10.16663211047234
 30
0.0
 10
9.46508960986553
 20
-10.15994239589076
 30
0.0
 10
9.47364087078476
 20
-10.15829294868088
 30
0.0
 10
9.476547987397181
 20
-10.15773219683031
 30
0.0
  0
SPLINE
  5
B5
330
1F
100
AcDbEntity
  8
외형선
  6
Continuous
370
    15
100
AcDbSpline
210
0.0
220
0.0
230
1.0
 70
    24
 71
     3
 72
    14
 73
    10
 74
     0
 42
0.000000001
 43
0.00000001
 40
0.0
 40
0.0
 40
0.0
 40
0.0
 40
0.2500000000000002
 40
0.2500000000000002
 40
0.5000000000000001
 40
0.5000000000000001
 40
0.75
 40
0.75
 40
1.0
 40
1.0
 40
1.0
 40
1.0
 10
12.00000000000001
 20
-0.830951697333628
 30
0.0
 10
12.00000000000001
 20
-1.902984669205635
 30
0.0
 10
12.00000000000001
 20
-2.967618757520593
 30
0.0
 10
12.00000000000001
 20
-4.972059107913356
 30
0.0
 10
12.00000000000001
 20
-5.910648199383429
 30
0.0
 10
12.00000000000001
 20
-7.560783695392129
 30
0.0
 10
12.00000000000001
 20
-8.271450838749255
 30
0.0
 10
12.00000000000001
 20
-9.407434923777464
 30
0.0
 10
12.00000000000001
 20
-9.832754488525234
 30
0.0
 10
12.00000000000001
 20
-10.11552013624155
 30
0.0
  0
SPLINE
  5
B6
330
1F
100
AcDbEntity
  8
외형선
  6
Continuous
370
    15
100
AcDbSpline
210
0.0
220
0.0
230
1.0
 70
     8
 71
     3
 72
    16
 73
    12
 74
     0
 42
0.000000001
 43
0.00000001
 40
0.0
 40
0.0
 40
0.0
 40
0.0
 40
0.2499999999999938
 40
0.2499999999999938
 40
0.374999999999993
 40
0.374999999999993
 40
0.4999999999999921
 40
0.4999999999999921
 40
0.749999999999996
 40
0.749999999999996
 40
1.0
 40
1.0
 40
1.0
 40
1.0
 10
9.238962818766499
 20
-10.31396320127866
 30
0.0
 10
9.210232639297462
 20
-10.3358321978667
 30
0.0
 10
9.179835589832292
 20
-10.36019562817803
 30
0.0
 10
9.128424981070472
 20
-10.4054930010992
 30
0.0
 10
9.110472835594884
 20
-10.42195526716866
 30
0.0
 10
9.073401593064103
 20
-10.45811484395451
 30
0.0
 10
9.053664486306953
 20
-10.47850590818118
 30
0.0
 10
8.999451409770383
 20
-10.53979015635128
 30
0.0
 10
8.976113017305613
 20
-10.57427998300762
 30
0.0
 10
8.953072910628615
 20
-10.61812775432804
 30
0.0
 10
8.949888507645051
 20
-10.63169988882188
 30
0.0
 10
8.949888507645051
 20
-10.64151768336618
 30
0.0
  0
SPLINE
  5
B7
330
1F
100
AcDbEntity
  8
0
  6
Continuous
 62
     1
370
    15
100
AcDbSpline
210
0.0
220
0.0
230
1.0
 70
     8
 71
     3
 72
    22
 73
    18
 74
     0
 42
0.000000001
 43
0.00000001
 40
0.0
 40
0.0
 40
0.0
 40
0.0
 40
0.0205926857944562
 40
0.0896438296316071
 40
0.1586951728781979
 40
0.2277466672414681
 40
0.2967982644135141
 40
0.3658499160761298
 40
0.4349015739056479
 40
0.5039531895777826
 40
0.5730047147724736
 40
0.6441749551502142
 40
0.7153440834707034
 40
0.7865116253113418
 40
0.857677106980655
 40
0.9288400557359451
 40
1.0
 40
1.0
 40
1.0
 40
1.0
 10
66.12839756978333
 20
-9.983392118719417
 30
0.0
 10
65.75685058270037
 20
-10.12383092056435
 30
0.0
 10
64.13943675224364
 20
-10.73518740664463
 30
0.0
 10
61.27614965665258
 20
-11.52198433745528
 30
0.0
 10
57.53853417818622
 20
-12.29542835817413
 30
0.0
 10
53.80090860848683
 20
-12.69380362869155
 30
0.0
 10
50.06327664729272
 20
-12.73221349070791
 30
0.0
 10
46.32564027899991
 20
-12.4024295471098
 30
0.0
 10
42.58800669572029
 20
-11.7158586814141
 30
0.0
 10
38.85036397626364
 20
-10.69175945861587
 30
0.0
 10
35.07454195098288
 20
-9.34615358131875
 30
0.0
 10
31.26034484568545
 20
-7.707585030772941
 30
0.0
 10
27.40802831514561
 20
-5.816941755485066
 30
0.0
 10
23.55580163039903
 20
-3.747932144177409
 30
0.0
 10
19.703712940304
 20
-1.565986531888333
 30
0.0
 10
15.85178511173654
 20
0.6701086747143721
 30
0.0
 10
13.28391030096931
 20
2.131555661361445
 30
0.0
 10
12.00000000000016
 20
2.86226372882984
 30
0.0
  0
SPLINE
  5
B8
330
1F
100
AcDbEntity
  8
외형선
  6
Continuous
370
    15
100
AcDbSpline
210
0.0
220
0.0
230
1.0
 70
    24
 71
     3
 72
     8
 73
     4
 74
     0
 42
0.000000001
 43
0.00000001
 40
0.0
 40
0.0
 40
0.0
 40
0.0
 40
1.0
 40
1.0
 40
1.0
 40
1.0
 10
12.00000000000002
 20
3.062397198132699
 30
0.0
 10
12.00000000000002
 20
3.049830964218688
 30
0.0
 10
12.00000000000002
 20
2.982931311499899
 30
0.0
 10
12.00000000000002
 20
2.862263728833282
 30
0.0
  0
SPLINE
  5
B9
330
1F
100
AcDbEntity
  8
0
  6
Continuous
 62
     1
370
    15
100
AcDbSpline
210
0.0
220
0.0
230
1.0
 70
     8
 71
     3
 72
    19
 73
    15
 74
     0
 42
0.000000001
 43
0.00000001
 40
0.0
 40
0.0
 40
0.0
 40
0.0
 40
0.0107479748707128
 40
0.1067963908693629
 40
0.2028126861381994
 40
0.2988215284794392
 40
0.3948659652782787
 40
0.4909239587133273
 40
0.5869729716235823
 40
0.6829905145114518
 40
0.778998310171545
 40
0.852659601036536
 40
0.9263284187051664
 40
1.0
 40
1.0
 40
1.0
 40
1.0
 10
57.40260829868232
 20
-10.54729620987096
 30
0.0
 10
57.23993595626241
 20
-10.57020753069655
 30
0.0
 10
55.62355526374223
 20
-10.79786403377325
 30
0.0
 10
52.55396997389568
 20
-10.83875298932055
 30
0.0
 10
48.19424457658082
 20
-10.62726753420805
 30
0.0
 10
43.83467539757655
 20
-9.95795785076856
 30
0.0
 10
39.47410306708596
 20
-8.909931389156952
 30
0.0
 10
35.11287521331906
 20
-7.509912578444147
 30
0.0
 10
30.75206842874604
 20
-5.816616556608145
 30
0.0
 10
26.39237593121205
 20
-3.89534688022737
 30
0.0
 10
22.37135035140111
 20
-1.981832524792472
 30
0.0
 10
18.68906624977722
 20
-0.1786167772705844
 30
0.0
 10
15.34460245012623
 20
1.468278622505004
 30
0.0
 10
13.11488142414457
 20
2.53101769508174
 30
0.0
 10
12.00000000000005
 20
3.062397198132684
 30
0.0
  0
SPLINE
  5
BA
330
1F
100
AcDbEntity
  8
0
  6
Continuous
 62
     1
370
    15
100
AcDbSpline
210
0.0
220
0.0
230
1.0
 70
     8
 71
     3
 72
    24
 73
    20
 74
     0
 42
0.000000001
 43
0.00000001
 40
0.0
 40
0.0
 40
0.0
 40
0.0
 40
0.0602323549382184
 40
0.1204654284038165
 40
0.1806991788208284
 40
0.2409335645457814
 40
0.3011685438718091
 40
0.3614040750327836
 40
0.4216401162074521
 40
0.4818766255235915
 40
0.5421135610621729
 40
0.6023508808615341
 40
0.6625885429215636
 40
0.7228265052078904
 40
0.7830647256560839
 40
0.8433031621758588
 40
0.9035417726552849
 40
0.9637805149650036
 40
1.0
 40
1.0
 40
1.0
 40
1.0
 10
113.6
 20
-12.05154903924513
 30
0.0
 10
112.3542837221269
 20
-11.79110097817689
 30
0.0
 10
109.862836305908
 20
-11.27020174908795
 30
0.0
 10
106.1256323203121
 20
-10.07130387500639
 30
0.0
 10
102.3883786184682
 20
-8.607284450898025
 30
0.0
 10
98.65107744183386
 20
-6.888706757601755
 30
0.0
 10
94.91373212409306
 20
-4.973526680419954
 30
0.0
 10
91.17634571216061
 20
-2.914628672005366
 30
0.0
 10
87.43892133528178
 20
-0.7719142693418896
 30
0.0
 10
83.70146210573047
 20
1.393073322764868
 30
0.0
 10
79.96397114498421
 20
3.51793241271933
 30
0.0
 10
76.22645157639603
 20
5.541507074479346
 30
0.0
 10
72.48890652639534
 20
7.405410019069441
 30
0.0
 10
68.75133912507125
 20
9.056351630299236
 30
0.0
 10
65.0137525006947
 20
10.44532423920303
 30
0.0
 10
61.27614979909788
 20
11.5377691230428
 30
0.0
 10
57.5385341096826
 20
12.2819009491206
 30
0.0
 10
54.29768394961845
 20
12.67228789202463
 30
0.0
 10
52.30270578605447
 20
12.66050403730507
 30
0.0
 10
51.55360346757497
 20
12.65607927063229
 30
0.0
  0
SPLINE
  5
BB
330
1F
100
AcDbEntity
  8
0
  6
Continuous
 62
     1
370
    15
100
AcDbSpline
210
0.0
220
0.0
230
1.0
 70
     8
 71
     3
 72
    15
 73
    11
 74
     0
 42
0.000000001
 43
0.00000001
 40
0.0
 40
0.0
 40
0.0
 40
0.0
 40
0.1322749560913006
 40
0.2645968526590123
 40
0.3969347245259338
 40
0.5292575217363883
 40
0.6615342743359638
 40
0.7938074734667006
 40
0.9261284433041608
 40
1.0
 40
1.0
 40
1.0
 40
1.0
 10
113.6
 20
-10.01994775747635
 30
0.0
 10
112.1469574288273
 20
-9.716550877368952
 30
0.0
 10
109.2403566445753
 20
-9.109649450559408
 30
0.0
 10
104.8796886578555
 20
-7.73761864408713
 30
0.0
 10
100.5184507628872
 20
-6.090530079613141
 30
0.0
 10
96.15775070350107
 20
-4.197921768137981
 30
0.0
 10
91.79808035382914
 20
-2.141061561784454
 30
0.0
 10
87.43846310223279
 20
-0.005694789879476
 30
0.0
 10
83.72012956218744
 20
1.833871237905943
 30
0.0
 10
81.45491022586197
 20
2.886784269854477
 30
0.0
 10
80.64336151725804
 20
3.264006112193234
 30
0.0
  0
LINE
  5
BC
330
1F
100
AcDbEntity
  8
0
  6
Continuous
 62
     1
370
    15
100
AcDbLine
 10
113.6
 20
-12.05154903924514
 30
0.0
 11
113.6
 21
-10.01994775747635
 31
0.0
  0
SPLINE
  5
BD
330
1F
100
AcDbEntity
  8
0
  6
Continuous
 62
     1
370
    15
100
AcDbSpline
210
0.0
220
0.0
230
1.0
 70
     8
 71
     3
 72
    32
 73
    28
 74
     0
 42
0.000000001
 43
0.00000001
 40
0.0
 40
0.0
 40
0.0
 40
0.0
 40
0.0038579423735636
 40
0.0460677826903611
 40
0.0885705761130533
 40
0.1307804135024686
 40
0.1732831831908043
 40
0.2154930179475265
 40
0.2579957658876443
 40
0.3002055982917302
 40
0.3427083264538249
 40
0.3849181567720023
 40
0.4274208671117448
 40
0.4696306955987121
 40
0.5121333900586653
 40
0.5543432169583865
 40
0.5968458974694161
 40
0.6390557230164147
 40
0.6815583914990966
 40
0.7237682159197426
 40
0.7662708742857663
 40
0.8084806977995658
 40
0.8509833479531363
 40
0.887745437695711
 40
0.9247006936982733
 40
0.9622473860959329
 40
1.0
 40
1.0
 40
1.0
 40
1.0
 10
27.02621788871947
 20
8.512814199587218
 30
0.0
 10
27.13755143170481
 20
8.56351838283487
 30
0.0
 10
28.46698794676072
 20
9.16897825474772
 30
0.0
 10
31.02295059815292
 20
10.11521199353381
 30
0.0
 10
34.68573169352975
 20
11.27966854410606
 30
0.0
 10
38.35690895649713
 20
12.10980351765051
 30
0.0
 10
42.01968916944943
 20
12.60906480608062
 30
0.0
 10
45.69086527906121
 20
12.75775101006161
 30
0.0
 10
49.35364593492852
 20
12.55324456323348
 30
0.0
 10
53.02482066042706
 20
11.99972324390037
 30
0.0
 10
56.68760180689517
 20
11.11515223944707
 30
0.0
 10
60.35877525722869
 20
9.920070052911713
 30
0.0
 10
64.02155684952608
 20
8.452940755428045
 30
0.0
 10
67.69272915608406
 20
6.747892891099214
 30
0.0
 10
71.3555111452089
 20
4.859790837943377
 30
0.0
 10
75.0266824278535
 20
2.832556722424828
 30
0.0
 10
78.68946480930931
 20
0.7314237918378772
 30
0.0
 10
82.36063501661955
 20
-1.394733435023952
 30
0.0
 10
86.02341842324313
 20
-3.477493319639132
 30
0.0
 10
89.69458512842685
 20
-5.468422360694366
 30
0.0
 10
93.35737908007712
 20
-7.303406239621045
 30
0.0
 10
97.02850678173525
 20
-8.939935057330269
 30
0.0
 10
100.5342247141066
 20
-10.26526953824792
 30
0.0
 10
103.887617052109
 20
-11.28983856110674
 30
0.0
 10
107.0982557400041
 20
-12.02682860996238
 30
0.0
 10
110.3375505926402
 20
-12.53106340676986
 30
0.0
 10
112.510536038367
 20
-12.63643585029698
 30
0.0
 10
113.6
 20
-12.69999999999999
 30
0.0
  0
SPLINE
  5
BE
330
1F
100
AcDbEntity
  8
0
  6
Continuous
 62
     1
370
    15
100
AcDbSpline
210
0.0
220
0.0
230
1.0
 70
     8
 71
     3
 72
    17
 73
    13
 74
     0
 42
0.000000001
 43
0.00000001
 40
0.0
 40
0.0
 40
0.0
 40
0.0
 40
0.0785111391153845
 40
0.1817018023645063
 40
0.2848558121930482
 40
0.3880041536042184
 40
0.4911918470269206
 40
0.5943939741616169
 40
0.6975853268170638
 40
0.8007407543296065
 40
0.9038878388762122
 40
1.0
 40
1.0
 40
1.0
 40
1.0
 10
82.03453157502993
 20
-1.200329988794343
 30
0.0
 10
80.9285107025396
 20
-0.7561659635371687
 30
0.0
 10
78.3687976701136
 20
0.2717824886702735
 30
0.0
 10
74.3559268541978
 20
1.89436471942914
 30
0.0
 10
69.99620500600463
 20
3.578631732824781
 30
0.0
 10
65.63657140877257
 20
5.12410285904609
 30
0.0
 10
61.27600008723788
 20
6.46838028006718
 30
0.0
 10
56.91478670367201
 20
7.558998085302885
 30
0.0
 10
52.55405494428721
 20
8.355567218001406
 30
0.0
 10
48.19430811670795
 20
8.817274106922623
 30
0.0
 10
43.93435641027592
 20
8.959098255908213
 30
0.0
 10
41.12731975981687
 20
8.767445793497627
 30
0.0
 10
39.7733531826495
 20
8.675002743816277
 30
0.0
  0
LINE
  5
BF
330
1F
100
AcDbEntity
  8
0
  6
Continuous
 62
     1
370
    15
100
AcDbLine
 10
113.6
 20
-12.69999999999999
 30
0.0
 11
113.6
 21
-12.05154903924514
 31
0.0
  0
SPLINE
  5
C0
330
1F
100
AcDbEntity
  8
0
  6
Continuous
 62
     1
370
    15
100
AcDbSpline
210
0.0
220
0.0
230
1.0
 70
     8
 71
     3
 72
    16
 73
    12
 74
     0
 42
0.000000001
 43
0.00000001
 40
0.0
 40
0.0
 40
0.0
 40
0.0
 40
0.1195881212187725
 40
0.2401706340837353
 40
0.3496550339818397
 40
0.4599003187231661
 40
0.5693163027703373
 40
0.6794916773321507
 40
0.7889076537909867
 40
0.8990829668288057
 40
1.0
 40
1.0
 40
1.0
 40
1.0
 10
12.00000000000001
 20
-0.6663172307684948
 30
0.0
 10
13.33137077747286
 20
-1.431879851509055
 30
0.0
 10
16.00518286321716
 20
-2.969370851285746
 30
0.0
 10
19.89816010203706
 20
-5.106496819107019
 30
0.0
 10
23.68665858168521
 20
-7.032638469911531
 30
0.0
 10
27.35099982095927
 20
-8.700566545606762
 30
0.0
 10
31.02295058483487
 20
-10.12975258415612
 30
0.0
 10
34.68573154362222
 20
-11.27706095142533
 30
0.0
 10
38.35690956585147
 20
-12.10580009709
 30
0.0
 10
41.92506977307814
 20
-12.6143244408061
 30
0.0
 10
44.27509540817211
 20
-12.66381005516618
 30
0.0
 10
45.39857344623946
 20
-12.68746766983368
 30
0.0
  0
SPLINE
  5
C1
330
1F
100
AcDbEntity
  8
0
  6
Continuous
 62
     1
370
    15
100
AcDbSpline
210
0.0
220
0.0
230
1.0
 70
     8
 71
     3
 72
    13
 73
     9
 74
     0
 42
0.000000001
 43
0.00000001
 40
0.0
 40
0.0
 40
0.0
 40
0.0
 40
0.0494056742458109
 40
0.2603649749601384
 40
0.4428313556886215
 40
0.6262565053169578
 40
0.812617213266384
 40
1.0
 40
1.0
 40
1.0
 40
1.0
 10
96.15834517902633
 20
8.512713201114474
 30
0.0
 10
96.44559548767006
 20
8.641741024863938
 30
0.0
 10
97.9593875886586
 20
9.321710008437512
 30
0.0
 10
100.5342296251268
 20
10.2551419576954
 30
0.0
 10
103.8876158114947
 20
11.29239697486146
 30
0.0
 10
107.098256077435
 20
12.02613275481508
 30
0.0
 10
110.3375505071819
 20
12.53123964014282
 30
0.0
 10
112.510536009829
 20
12.63649470175633
 30
0.0
 10
113.6
 20
12.70000000000001
 30
0.0
  0
SPLINE
  5
C2
330
1F
100
AcDbEntity
  8
0
  6
Continuous
 62
     1
370
    15
100
AcDbSpline
210
0.0
220
0.0
230
1.0
 70
    24
 71
     3
 72
    10
 73
     6
 74
     0
 42
0.000000001
 43
0.00000001
 40
0.0
 40
0.0
 40
0.0
 40
0.0
 40
0.5
 40
0.5
 40
1.0
 40
1.0
 40
1.0
 40
1.0
 10
113.6
 20
8.889999999999995
 30
0.0
 10
113.6
 20
9.428889661452885
 30
0.0
 10
113.6
 20
10.05512935461239
 30
0.0
 10
113.6
 20
11.36897854420287
 30
0.0
 10
113.6
 20
12.05323263467871
 30
0.0
 10
113.6
 20
12.70000000000001
 30
0.0
  0
SPLINE
  5
C3
330
1F
100
AcDbEntity
  8
0
  6
Continuous
 62
     1
370
    15
100
AcDbSpline
210
0.0
220
0.0
230
1.0
 70
     8
 71
     3
 72
     9
 73
     5
 74
     0
 42
0.000000001
 43
0.00000001
 40
0.0
 40
0.0
 40
0.0
 40
0.0
 40
0.9231769411472425
 40
1.0
 40
1.0
 40
1.0
 40
1.0
 10
113.6
 20
8.889999999999995
 30
0.0
 10
112.1469656963414
 20
8.884479086590947
 30
0.0
 10
110.5730157427681
 20
8.878498745051887
 30
0.0
 10
108.9989758284745
 20
8.687722694656161
 30
0.0
 10
108.8780532675022
 20
8.673066694908915
 30
0.0
  0
LINE
  5
C4
330
1F
100
AcDbEntity
  8
0
  6
Continuous
 62
     1
370
    15
100
AcDbLine
 10
12.95274973880331
 20
-1.210046358187493
 30
0.0
 11
12.00000000000001
 21
-0.8309516973336292
 31
0.0
  0
SPLINE
  5
C5
330
1F
100
AcDbEntity
  8
외형선
  6
Continuous
370
    15
100
AcDbSpline
210
0.0
220
0.0
230
1.0
 70
    24
 71
     3
 72
    11
 73
     7
 74
     0
 42
0.000000001
 43
0.00000001
 40
0.0
 40
0.0
 40
0.0
 40
0.0
 40
0.2877814481513594
 40
0.6855505092287276
 40
0.8424161581422013
 40
1.0
 40
1.0
 40
1.0
 40
1.0
 10
12.0
 20
-0.3818599052100282
 30
0.0
 10
12.0
 20
-0.3839461560313886
 30
0.0
 10
12.0
 20
-0.3889160049293976
 30
0.0
 10
12.0
 20
-0.5293037104809636
 30
0.0
 10
12.0
 20
-0.6937281433422374
 30
0.0
 10
12.0
 20
-0.7851409180166152
 30
0.0
 10
12.0
 20
-0.8309516973336276
 30
0.0
  0
SPLINE
  5
C6
330
1F
100
AcDbEntity
  8
0
  6
Continuous
 62
     1
370
    15
100
AcDbSpline
210
0.0
220
0.0
230
1.0
 70
     8
 71
     3
 72
    10
 73
     6
 74
     0
 42
0.000000001
 43
0.00000001
 40
0.0
 40
0.0
 40
0.0
 40
0.0
 40
0.5
 40
0.5
 40
1.0
 40
1.0
 40
1.0
 40
1.0
 10
113.6
 20
-3.39398541457647
 30
0.0
 10
112.7494022330054
 20
-2.72527650021989
 30
0.0
 10
111.9074392641504
 20
-2.038875865003487
 30
0.0
 10
110.2405403709192
 20
-0.6311881139455102
 30
0.0
 10
109.4156032680789
 20
0.0900965873561538
 30
0.0
 10
108.6000000000017
 20
0.8305052561804444
 30
0.0
  0
LINE
  5
C7
330
1F
100
AcDbEntity
  8
0
  6
Continuous
 62
     1
370
    15
100
AcDbLine
 10
108.6
 20
2.937719435296601
 30
0.0
 11
113.6
 21
0.0000000000000102
 31
0.0
  0
LINE
  5
C8
330
1F
100
AcDbEntity
  8
0
  6
Continuous
 62
     1
370
    15
100
AcDbLine
 10
113.6
 20
0.0000000000000102
 30
0.0
 11
113.6
 21
-3.39398541457648
 31
0.0
  0
SPLINE
  5
C9
330
1F
100
AcDbEntity
  8
0
  6
Continuous
 62
     1
370
    15
100
AcDbSpline
210
0.0
220
0.0
230
1.0
 70
     8
 71
     3
 72
    25
 73
    21
 74
     0
 42
0.000000001
 43
0.00000001
 40
0.0
 40
0.0
 40
0.0
 40
0.0
 40
0.048522388743642
 40
0.1069051930873436
 40
0.165281657483087
 40
0.2236379262165387
 40
0.2819910721442682
 40
0.3403659004505168
 40
0.3987486813563613
 40
0.4571255255528415
 40
0.5154825753065135
 40
0.5738350287980903
 40
0.6322094188695049
 40
0.6905921646186954
 40
0.7489693769237702
 40
0.8073271960942259
 40
0.86567900418585
 40
0.9104490099817976
 40
0.955223653795344
 40
1.0
 40
1.0
 40
1.0
 40
1.0
 10
86.70289048705023
 20
-9.524269367862743
 30
0.0
 10
85.49460794589659
 20
-9.700314918422142
 30
0.0
 10
82.83250326163329
 20
-10.08818089250171
 30
0.0
 10
78.71661386541136
 20
-10.21895990938621
 30
0.0
 10
74.35590011983287
 20
-9.996945851423227
 30
0.0
 10
69.99619453562796
 20
-9.37276003829943
 30
0.0
 10
65.63659024798649
 20
-8.384214668650372
 30
0.0
 10
61.27599959391105
 20
-7.066767777930358
 30
0.0
 10
56.91477383477481
 20
-5.472660618733306
 30
0.0
 10
52.55402419413709
 20
-3.664281217670363
 30
0.0
 10
48.19429398664609
 20
-1.712208653249154
 30
0.0
 10
43.83471137800888
 20
0.3070906425547844
 30
0.0
 10
39.47415199744053
 20
2.313947267526142
 30
0.0
 10
35.11293296737161
 20
4.230325286853024
 30
0.0
 10
30.7521392965881
 20
5.9810482696931
 30
0.0
 10
26.39243714551099
 20
7.497218304338938
 30
0.0
 10
22.3714245106796
 20
8.626486229070963
 30
0.0
 10
18.68910499638398
 20
9.400604778070882
 30
0.0
 10
15.34462369610615
 20
9.90353309379475
 30
0.0
 10
13.11488869467854
 20
10.04485689322337
 30
0.0
 10
12.00000000000002
 20
10.11552013624153
 30
0.0
  0
SPLINE
  5
CA
330
1F
100
AcDbEntity
  8
외형선
  6
Continuous
370
    15
100
AcDbSpline
210
0.0
220
0.0
230
1.0
 70
    24
 71
     3
 72
    14
 73
    10
 74
     0
 42
0.000000001
 43
0.00000001
 40
0.0
 40
0.0
 40
0.0
 40
0.0
 40
0.25
 40
0.25
 40
0.4999999999999999
 40
0.4999999999999999
 40
0.75
 40
0.75
 40
1.0
 40
1.0
 40
1.0
 40
1.0
 10
12.00000000000002
 20
10.11552013624153
 30
0.0
 10
12.00000000000002
 20
9.911879412163337
 30
0.0
 10
12.00000000000002
 20
9.601526710968349
 30
0.0
 10
12.00000000000001
 20
8.766674653213519
 30
0.0
 10
12.00000000000001
 20
8.2421694369137
 30
0.0
 10
12.00000000000001
 20
7.00946145340688
 30
0.0
 10
12.00000000000001
 20
6.301614654845306
 30
0.0
 10
12.00000000000002
 20
4.759212297255001
 30
0.0
 10
12.00000000000002
 20
3.925208033155665
 30
0.0
 10
12.00000000000002
 20
3.062397198132704
 30
0.0
  0
SPLINE
  5
CB
330
1F
100
AcDbEntity
  8
0
  6
Continuous
 62
     1
370
    15
100
AcDbSpline
210
0.0
220
0.0
230
1.0
 70
     8
 71
     3
 72
    15
 73
    11
 74
     0
 42
0.000000001
 43
0.00000001
 40
0.0
 40
0.0
 40
0.0
 40
0.0
 40
0.1258566942241927
 40
0.2517141096092279
 40
0.3875371592950889
 40
0.5233122866239618
 40
0.6590837128488429
 40
0.7949048591935552
 40
0.9307435708543708
 40
1.0
 40
1.0
 40
1.0
 40
1.0
 10
108.6
 20
2.289784744250646
 30
0.0
 10
107.2530502878154
 20
2.888385916724513
 30
0.0
 10
104.5591431454032
 20
4.085591691666406
 30
0.0
 10
100.411703657891
 20
5.766495435795053
 30
0.0
 10
96.15775621969166
 20
7.285873579834327
 30
0.0
 10
91.79810222414581
 20
8.555159254016738
 30
0.0
 10
87.43846615949033
 20
9.495230337236332
 30
0.0
 10
83.07785132227082
 20
10.04285139864384
 30
0.0
 10
79.42906377516064
 20
10.23549311357576
 30
0.0
 10
77.23401110151842
 20
10.09091143881072
 30
0.0
 10
76.49278676355864
 20
10.04208916796243
 30
0.0
  0
SPLINE
  5
CC
330
1F
100
AcDbEntity
  8
0
  6
Continuous
 62
     1
370
    15
100
AcDbSpline
210
0.0
220
0.0
230
1.0
 70
     8
 71
     3
 72
     9
 73
     5
 74
     0
 42
0.000000001
 43
0.00000001
 40
0.0
 40
0.0
 40
0.0
 40
0.0
 40
0.4026500039217306
 40
1.0
 40
1.0
 40
1.0
 40
1.0
 10
17.59916614505541
 20
-9.526211905767738
 30
0.0
 10
16.84766774711377
 20
-9.646103176719844
 30
0.0
 10
14.98128654601555
 20
-9.943858720701925
 30
0.0
 10
13.11489123294388
 20
-10.05132509686311
 30
0.0
 10
12.00000000000002
 20
-10.11552013624154
 30
0.0
  0
SPLINE
  5
CD
330
1F
100
AcDbEntity
  8
0
  6
Continuous
 62
     1
370
    15
100
AcDbSpline
210
0.0
220
0.0
230
1.0
 70
    24
 71
     3
 72
     8
 73
     4
 74
     0
 42
0.000000001
 43
0.00000001
 40
0.0
 40
0.0
 40
0.0
 40
0.0
 40
1.0
 40
1.0
 40
1.0
 40
1.0
 10
108.6
 20
0.8305052561693979
 30
0.0
 10
108.6
 20
1.322728240362262
 30
0.0
 10
108.6
 20
1.810406971894864
 30
0.0
 10
108.6
 20
2.28978474425065
 30
0.0
  0
SPLINE
  5
CE
330
1F
100
AcDbEntity
  8
0
  6
Continuous
 62
     1
370
    15
100
AcDbSpline
210
0.0
220
0.0
230
1.0
 70
    24
 71
     3
 72
    12
 73
     8
 74
     0
 42
0.000000001
 43
0.00000001
 40
0.0
 40
0.0
 40
0.0
 40
0.0
 40
0.4999999999999999
 40
0.4999999999999999
 40
0.7499999999999999
 40
0.7499999999999999
 40
1.0
 40
1.0
 40
1.0
 40
1.0
 10
113.6
 20
-10.01994775747635
 30
0.0
 10
113.6
 20
-9.251840640348327
 30
0.0
 10
113.6
 20
-8.281307845612151
 30
0.0
 10
113.6
 20
-6.58901133731326
 30
0.0
 10
113.6
 20
-5.986484557405997
 30
0.0
 10
113.6
 20
-4.725678605577795
 30
0.0
 10
113.6
 20
-4.067494970664252
 30
0.0
 10
113.6
 20
-3.39398541457688
 30
0.0
  0
SPLINE
  5
CF
330
1F
100
AcDbEntity
  8
0
  6
Continuous
 62
     1
370
    15
100
AcDbSpline
210
0.0
220
0.0
230
1.0
 70
    24
 71
     3
 72
    10
 73
     6
 74
     0
 42
0.000000001
 43
0.00000001
 40
0.0
 40
0.0
 40
0.0
 40
0.0
 40
0.5
 40
0.5
 40
1.0
 40
1.0
 40
1.0
 40
1.0
 10
108.6
 20
2.289784744250654
 30
0.0
 10
108.6
 20
3.318117051978211
 30
0.0
 10
108.6
 20
4.293337801787554
 30
0.0
 10
108.6
 20
6.003026800807389
 30
0.0
 10
108.6
 20
6.735761112039316
 30
0.0
 10
108.6
 20
7.298596457508382
 30
0.0
  0
SPLINE
  5
D0
330
1F
100
AcDbEntity
  8
0
  6
Continuous
 62
     1
370
    15
100
AcDbSpline
210
0.0
220
0.0
230
1.0
 70
     8
 71
     3
 72
     8
 73
     4
 74
     0
 42
0.000000001
 43
0.00000001
 40
0.0
 40
0.0
 40
0.0
 40
0.0
 40
1.0
 40
1.0
 40
1.0
 40
1.0
 10
113.6
 20
8.89000000000001
 30
0.0
 10
111.9193518865621
 20
8.4343894017813
 30
0.0
 10
110.2520423396972
 20
7.907363561684516
 30
0.0
 10
108.6
 20
7.298596457508387
 30
0.0
  0
SPLINE
  5
D1
330
1F
100
AcDbEntity
  8
외형선
  6
Continuous
370
    15
100
AcDbSpline
210
0.0
220
0.0
230
1.0
 70
    24
 71
     3
 72
    14
 73
    10
 74
     0
 42
0.000000001
 43
0.00000001
 40
0.0
 40
0.0
 40
0.0
 40
0.0
 40
0.25
 40
0.25
 40
0.5
 40
0.5
 40
0.75
 40
0.75
 40
1.0
 40
1.0
 40
1.0
 40
1.0
 10
12.00000000000002
 20
-0.8309516973336354
 30
0.0
 10
12.00000000000002
 20
-1.902984669205642
 30
0.0
 10
12.00000000000002
 20
-2.9676187575206
 30
0.0
 10
12.00000000000002
 20
-4.972059107913365
 30
0.0
 10
12.00000000000002
 20
-5.910648199383432
 30
0.0
 10
12.00000000000002
 20
-7.56078369539213
 30
0.0
 10
12.00000000000002
 20
-8.271450838749258
 30
0.0
 10
12.00000000000002
 20
-9.407434923777464
 30
0.0
 10
12.00000000000002
 20
-9.83275448852523
 30
0.0
 10
12.00000000000002
 20
-10.11552013624155
 30
0.0
  0
LINE
  5
D2
330
1F
100
AcDbEntity
  8
0
  6
Continuous
 62
     1
370
    15
100
AcDbLine
 10
113.6
 20
0.0000000000000102
 30
0.0
 11
113.6
 21
8.890000000000006
 31
0.0
  0
LINE
  5
D3
330
1F
100
AcDbEntity
  8
중심선
100
AcDbLine
 10
-54.49999999999999
 20
-0.0000000000000067
 30
0.0
 11
116.6
 21
0.0000000000000143
 31
0.0
  0
LINE
  5
D4
330
1F
100
AcDbEntity
  8
참조1
100
AcDbLine
 10
33.89926131403117
 20
0.0010749287238892
 30
0.0
 11
33.89926131403117
 21
-39.99892507127611
 31
0.0
  0
LINE
  5
D5
330
1F
100
AcDbEntity
  8
참조1
100
AcDbLine
 10
33.89926131403117
 20
-39.99892507127611
 30
0.0
 11
-20.15080122126847
 21
-39.9989250712761
 31
0.0
  0
CIRCLE
  5
D6
330
1F
100
AcDbEntity
  8
해칭선
100
AcDbCircle
 10
0.0
 20
0.0
 30
0.0
 40
2.999999999999995
  0
INSERT
  5
D7
330
1F
100
AcDbEntity
  8
0
  6
Continuous
 62
     1
370
    15
100
AcDbBlockReference
 66
     1
  2
블럭10
 10
17.1097270678748
 20
-52.04717430164393
 30
0.0
  0
ATTRIB
  5
D8
330
D7
100
AcDbEntity
  8
FORMAT
 62
     2
100
AcDbText
 10
7.928431779133525
 20
-49.97180738881174
 30
0.0
 40
4.233333333333333
  1
E1071064 [ 2 FLUTE ]
 41
0.75
  7
SLDTEXTSTYLE0
 11
7.928431779133525
 21
-52.08847405547841
 31
0.0
100
AcDbAttribute
  2
AUTOATTR0
 70
     0
 74
     1
  0
SEQEND
  5
D9
330
D7
100
AcDbEntity
  8
0
  6
Continuous
 62
     7
  0
HATCH
  5
DA
330
1F
100
AcDbEntity
  8
0
  6
Continuous
 62
     1
370
    15
100
AcDbHatch
 10
0.0
 20
0.0
 30
0.0
210
0.0
220
0.0
230
1.0
  2
SOLID
 70
     1
 71
     0
 91
        1
 92
        0
 93
        4
 72
     1
 10
22.82463637225565
 20
-35.8
 11
19.37836112841837
 21
-35.8
 72
     1
 10
19.37836112841837
 20
-35.8
 11
17.25013126921435
 21
-38.3363255805726
 72
     1
 10
17.25013126921435
 20
-38.3363255805726
 11
20.69643959816478
 21
-38.33628615127011
 72
     1
 10
20.69643959816478
 20
-38.33628615127011
 11
22.82463637225565
 21
-35.8
 97
        0
 75
     0
 76
     1
 98
        1
 10
-2.849261314031153
 20
-0.0010749287238963
  0
HATCH
  5
DB
330
1F
100
AcDbEntity
  8
0
  6
Continuous
 62
     1
370
    15
100
AcDbHatch
 10
0.0
 20
0.0
 30
0.0
210
0.0
220
0.0
230
1.0
  2
SOLID
 70
     1
 71
     0
 91
        1
 92
        0
 93
        4
 72
     1
 10
27.83740036329163
 20
-35.79999999999998
 11
24.39112511945435
 21
-35.79999999999998
 72
     1
 10
24.39112511945435
 20
-35.79999999999998
 11
19.85998711109693
 21
-41.20000000000002
 72
     1
 10
19.85998711109693
 20
-41.20000000000002
 11
23.30626235493422
 21
-41.20000000000002
 72
     1
 10
23.30626235493422
 20
-41.20000000000002
 11
27.83740036329163
 21
-35.79999999999998
 97
        0
 75
     0
 76
     1
 98
        1
 10
-2.849261314031153
 20
-0.0010749287238963
  0
HATCH
  5
DC
330
1F
100
AcDbEntity
  8
0
  6
Continuous
 62
     1
370
    15
100
AcDbHatch
 10
0.0
 20
0.0
 30
0.0
210
0.0
220
0.0
230
1.0
  2
SOLID
 70
     1
 71
     0
 91
        1
 92
        0
 93
        4
 72
     1
 10
32.85016435432748
 20
-35.79999999999998
 11
29.40388911049041
 21
-35.79999999999998
 72
     1
 10
29.40388911049041
 20
-35.79999999999998
 11
22.35545220860114
 21
-44.20000000000002
 72
     1
 10
22.35545220860114
 20
-44.20000000000002
 11
25.80172745243842
 21
-44.20000000000002
 72
     1
 10
25.80172745243842
 20
-44.20000000000002
 11
32.85016435432748
 21
-35.79999999999998
 97
        0
 75
     0
 76
     1
 98
        1
 10
-2.849261314031153
 20
-0.0010749287238963
  0
HATCH
  5
DD
330
1F
100
AcDbEntity
  8
0
  6
Continuous
 62
     1
370
    15
100
AcDbHatch
 10
0.0
 20
0.0
 30
0.0
210
0.0
220
0.0
230
1.0
  2
SOLID
 70
     1
 71
     0
 91
        1
 92
        0
 93
        6
 72
     3
 10
37.65005478533967
 20
-40.00000000005127
 11
3.960054785062283
 21
1.540882976769353E-10
 40
0.3939339440162628
 50
17.0953918060842
 51
320.0019657685086
 73
     0
 72
     1
 10
39.3330544410403
 20
-38.5878940046383
 11
41.63835631474133
 21
-36.65356729459041
 72
     3
 10
37.65005478528683
 20
-40.00000000000015
 11
6.600054785286829
 21
-1.278976924368180E-13
 40
0.636358354079598
 50
39.99873849337365
 51
368.4976242363724
 73
     1
 72
     1
 10
44.07538727718746
 20
-39.03999999993002
 11
36.33012209212278
 21
-39.03999999993002
 72
     1
 10
36.33012209212278
 20
-39.03999999993002
 11
36.33009704767682
 21
-40.95999999992991
 72
     1
 10
36.33009704767682
 20
-40.95999999992991
 11
40.77147681714888
 21
-40.95999999992988
 97
        0
 75
     0
 76
     1
 98
        1
 10
-2.849261314031153
 20
-0.0010749287238963
  0
DIMENSION
  5
DE
330
1F
100
AcDbEntity
  8
치수문자_일반주서
100
AcDbDimension
  2
_D
 10
-63.99999999999996
 20
-12.70000000000007
 30
0.0
 11
-64.0
 21
-0.0000000000000066
 31
0.0
 70
   160
  1
%%c<>
 71
     2
 42
25.40000000000001
 52
-270.0
  3
SLDDIMSTYLE0
100
AcDbAlignedDimension
 13
-50.49999999999999
 23
12.69999999999999
 33
0.0
 14
-50.49999999999999
 24
-12.70000000000002
 34
0.0
 50
90.0000000000002
100
AcDbRotatedDimension
1001
ACAD
1000
DSTYLE
1002
{
1070
   171
1070
     6
1070
   273
1070
     7
1002
}
  0
DIMENSION
  5
F3
330
1F
100
AcDbEntity
  8
치수문자_일반주서
100
AcDbDimension
  2
_D_1
 10
12.00000000000003
 20
25.86560788423942
 30
0.0
 11
66.49166549285805
 21
25.86560788423942
 31
0.0
 70
   160
  1
<>
 71
     2
 42
101.6
  3
SLDDIMSTYLE0
100
AcDbAlignedDimension
 13
113.6
 23
12.70000000000001
 33
0.0
 14
12.00000000000002
 24
10.11552013624154
 34
0.0
 50
0.000000000000002
100
AcDbRotatedDimension
1001
ACAD
1000
DSTYLE
1002
{
1070
   171
1070
     6
1070
   273
1070
     7
1002
}
  0
DIMENSION
  5
108
330
1F
100
AcDbEntity
  8
치수문자_일반주서
100
AcDbDimension
  2
_D_2
 10
-51.5
 20
42.57707860462924
 30
0.0
 11
31.05000000000001
 21
42.57707860462924
 31
0.0
 70
   160
  1
<>
 71
     2
 42
165.1
  3
SLDDIMSTYLE0
100
AcDbAlignedDimension
 13
113.6
 23
12.70000000000001
 33
0.0
 14
-51.49999999999999
 24
11.69999999999999
 34
0.0
 50
0.0000000000000025
100
AcDbRotatedDimension
1001
ACAD
1000
DSTYLE
1002
{
1070
   171
1070
     6
1070
   273
1070
     7
1002
}
  0
DIMENSION
  5
11B
330
1F
100
AcDbEntity
  8
치수문자_일반주서
100
AcDbDimension
  2
_D_3
 10
134.933491842194
 20
12.70000000000009
 30
0.0
 11
134.933491842194
 21
33.29326615341656
 31
0.0
 70
   160
  1
%%c<>
 71
     2
 42
25.4
 52
-270.0
  3
SLDDIMSTYLE0
100
AcDbAlignedDimension
 13
113.6
 23
-12.69999999999999
 33
0.0
 14
113.6
 24
12.70000000000001
 34
0.0
 50
90.0000000000002
100
AcDbRotatedDimension
1001
ACAD
1000
DSTYLE
1002
{
1070
   171
1070
     6
1070
   273
1070
     7
1002
}
  0
LINE
  5
12F
330
1F
100
AcDbEntity
  8
참조1
100
AcDbLine
 10
77.82153940838579
 20
7.441074928723896
 30
0.0
 11
77.82153940838579
 21
-7.438925071276109
 31
0.0
  0
LINE
  5
130
330
1F
100
AcDbEntity
  8
참조1
100
AcDbLine
 10
90.52153940838579
 20
5.441074928723896
 30
0.0
 11
77.82153940838579
 21
5.441074928723896
 31
0.0
  0
SOLID
  5
131
330
1F
100
AcDbEntity
  8
참조1
100
AcDbTrace
 10
77.82153940838579
 20
5.441074928723896
 30
0.0
 11
84.17153940838578
 21
4.425074928723896
 31
0.0
 12
84.17153940838578
 22
6.457074928723896
 32
0.0
 13
84.17153940838578
 23
6.457074928723896
 33
0.0
  0
LINE
  5
132
330
1F
100
AcDbEntity
  8
참조1
100
AcDbLine
 10
90.52153940838579
 20
-5.438925071276109
 30
0.0
 11
77.82153940838579
 21
-5.438925071276109
 31
0.0
  0
SOLID
  5
133
330
1F
100
AcDbEntity
  8
참조1
100
AcDbTrace
 10
77.82153940838579
 20
-5.438925071276109
 30
0.0
 11
84.17153940838578
 21
-6.454925071276109
 31
0.0
 12
84.17153940838578
 22
-4.422925071276109
 32
0.0
 13
84.17153940838578
 23
-4.422925071276109
 33
0.0
  0
MTEXT
  5
134
330
1F
100
AcDbEntity
  8
참조1
100
AcDbMText
 10
87.20588954101179
 20
11.01136670591222
 30
0.0
 40
3.5
 41
0.0
 71
     1
 72
     1
  1
A
  7
SLDTEXTSTYLE0
 73
     1
 44
1.0
  0
MTEXT
  5
135
330
1F
100
AcDbEntity
  8
참조1
100
AcDbMText
 10
87.20588954101179
 20
0.1313667059122192
 30
0.0
 40
3.5
 41
0.0
 71
     1
 72
     1
  1
A
  7
SLDTEXTSTYLE0
 73
     1
 44
1.0
  0
INSERT
  5
13C
330
1F
100
AcDbEntity
  8
해칭선
100
AcDbBlockReference
  2
SW_DOWELSYMBOL_0
 10
0.0
 20
0.0
 30
0.0
  0
LINE
  5
21D
330
1F
100
AcDbEntity
  8
외형선
  6
Continuous
370
    15
100
AcDbLine
 10
-36.89500000000001
 20
12.7
 30
0.0
 11
-30.98632499999988
 21
12.7
 31
0.0
  0
LINE
  5
21E
330
1F
100
AcDbEntity
  8
외형선
  6
Continuous
370
    15
100
AcDbLine
 10
-29.08132499999991
 20
10.795
 30
0.0
 11
-15.97492500000001
 21
10.795
 31
0.0
  0
LINE
  5
21F
330
1F
100
AcDbEntity
  8
외형선
  6
Continuous
370
    15
100
AcDbLine
 10
-29.08132499999991
 20
10.795
 30
0.0
 11
-30.98632499999988
 21
12.7
 31
0.0
  0
LINE
  5
220
330
1F
100
AcDbEntity
  8
외형선
  6
Continuous
370
    15
100
AcDbLine
 10
-15.97492500000001
 20
10.795
 30
0.0
 11
-14.06992499999998
 21
12.7
 31
0.0
  0
LINE
  5
221
330
1F
100
AcDbEntity
  8
외형선
  6
Continuous
370
    15
100
AcDbLine
 10
-51.5
 20
10.795
 30
0.0
 11
-38.79999999999998
 21
10.795
 31
0.0
  0
LINE
  5
222
330
1F
100
AcDbEntity
  8
외형선
  6
Continuous
370
    15
100
AcDbLine
 10
-38.79999999999998
 20
10.795
 30
0.0
 11
-36.89500000000001
 21
12.69999999999999
 31
0.0
  0
LINE
  5
223
330
1F
100
AcDbEntity
  8
외형선
  6
Continuous
370
    15
100
AcDbLine
 10
-30.98632499999987
 20
12.69999999999999
 30
0.0
 11
-36.895
 21
12.69999999999999
 31
0.0
  0
ENDSEC
  0
SECTION
  2
OBJECTS
  0
DICTIONARY
  5
C
330
0
100
AcDbDictionary
281
     1
  3
ACAD_GROUP
350
D
  3
ACAD_IMAGE_VARS
350
160
  3
ACAD_LAYOUT
350
1A
  3
ACAD_MLINESTYLE
350
17
  3
ACAD_PLOTSETTINGS
350
19
  3
ACAD_PLOTSTYLENAME
350
E
  3
ACAD_SCALELIST
350
47
  3
APPDATA
350
15E
  3
DWGPROPS
350
224
  0
DICTIONARY
  5
187
330
2
100
AcDbDictionary
280
     1
281
     1
  3
ACAD_LAYERSTATES
360
188
  0
DICTIONARY
  5
D
102
{ACAD_REACTORS
330
C
102
}
330
C
100
AcDbDictionary
281
     1
  0
RASTERVARIABLES
  5
160
102
{ACAD_REACTORS
330
C
102
}
330
C
100
AcDbRasterVariables
 90
        0
 70
     1
 71
     1
 72
     1
  0
DICTIONARY
  5
1A
102
{ACAD_REACTORS
330
C
102
}
330
C
100
AcDbDictionary
281
     1
  3
Layout1
350
1E
  3
Layout2
350
26
  3
Model
350
22
  0
DICTIONARY
  5
17
102
{ACAD_REACTORS
330
C
102
}
330
C
100
AcDbDictionary
281
     1
  3
Standard
350
18
  0
DICTIONARY
  5
19
102
{ACAD_REACTORS
330
C
102
}
330
C
100
AcDbDictionary
281
     1
  0
ACDBDICTIONARYWDFLT
  5
E
102
{ACAD_REACTORS
330
C
102
}
330
C
100
AcDbDictionary
281
     1
  3
Normal
350
F
100
AcDbDictionaryWithDefault
340
F
  0
DICTIONARY
  5
47
102
{ACAD_REACTORS
330
C
102
}
330
C
100
AcDbDictionary
281
     1
  3
A0
350
48
  3
A1
350
49
  3
A2
350
4A
  3
A3
350
4B
  3
A4
350
4C
  3
A5
350
4D
  3
A6
350
4E
  3
A7
350
4F
  3
A8
350
50
  3
A9
350
51
  3
B0
350
52
  3
B1
350
53
  3
B2
350
54
  3
B3
350
55
  3
B4
350
56
  3
B5
350
57
  3
B6
350
58
  3
B7
350
59
  3
B8
350
5A
  3
B9
350
5B
  3
C0
350
5C
  3
C1
350
5D
  3
C2
350
5E
  3
C3
350
5F
  3
C4
350
60
  3
C5
350
61
  3
C6
350
62
  3
C7
350
63
  3
C8
350
64
  3
C9
350
65
  3
D0
350
66
  3
D1
350
67
  3
D2
350
68
  0
DICTIONARY
  5
15E
102
{ACAD_REACTORS
330
C
102
}
330
C
100
AcDbDictionary
281
     1
  0
XRECORD
  5
224
102
{ACAD_REACTORS
330
C
102
}
330
C
100
AcDbXrecord
280
     1
  1
DWGPROPS COOKIE
  2

  3

  4

  6

  7

  8
12016016
  9

300
=
301
=
302
=
303
=
304
=
305
=
306
=
307
=
308
=
309
=
 40
0.0
 41
2458311.091862234
 42
2458318.300422234
  1

 90
        0
  0
DICTIONARY
  5
188
102
{ACAD_REACTORS
330
187
102
}
330
187
100
AcDbDictionary
281
     1
  0
LAYOUT
  5
1E
102
{ACAD_REACTORS
330
1A
102
}
330
1A
100
AcDbPlotSettings
  1

  2
none_device
  4

  6

 40
0.0
 41
0.0
 42
0.0
 43
0.0
 44
0.0
 45
0.0
 46
0.0
 47
0.0
 48
0.0
 49
0.0
140
0.0
141
0.0
142
1.0
143
1.0
 70
   688
 72
     1
 73
     0
 74
     5
  7

 75
    16
147
1.0
148
0.0
149
0.0
100
AcDbLayout
  1
Layout1
 70
     1
 71
     1
 10
0.0
 20
0.0
 11
420.0
 21
297.0
 12
0.0
 22
0.0
 32
0.0
 14
1.000000000000000E+20
 24
1.000000000000000E+20
 34
1.000000000000000E+20
 15
-1.000000000000000E+20
 25
-1.000000000000000E+20
 35
-1.000000000000000E+20
146
0.0
 13
0.0
 23
0.0
 33
0.0
 16
1.0
 26
0.0
 36
0.0
 17
0.0
 27
1.0
 37
0.0
 76
     0
330
1B
  0
LAYOUT
  5
26
102
{ACAD_REACTORS
330
1A
102
}
330
1A
100
AcDbPlotSettings
  1

  2
none_device
  4

  6

 40
0.0
 41
0.0
 42
0.0
 43
0.0
 44
0.0
 45
0.0
 46
0.0
 47
0.0
 48
0.0
 49
0.0
140
0.0
141
0.0
142
1.0
143
1.0
 70
   688
 72
     1
 73
     0
 74
     5
  7

 75
    16
147
1.0
148
0.0
149
0.0
100
AcDbLayout
  1
Layout2
 70
     1
 71
     2
 10
0.0
 20
0.0
 11
0.0
 21
0.0
 12
0.0
 22
0.0
 32
0.0
 14
0.0
 24
0.0
 34
0.0
 15
0.0
 25
0.0
 35
0.0
146
0.0
 13
0.0
 23
0.0
 33
0.0
 16
1.0
 26
0.0
 36
0.0
 17
0.0
 27
1.0
 37
0.0
 76
     0
330
23
  0
LAYOUT
  5
22
102
{ACAD_REACTORS
330
1A
102
}
330
1A
100
AcDbPlotSettings
  1

  2
none_device
  4
ANSI_A_(11.00_x_8.50_Inches)
  6

 40
6.35
 41
19.05
 42
6.35000508
 43
19.05000254
 44
279.4
 45
215.9
 46
60.61145158392221
 47
54.34034566633868
 48
0.0
 49
0.0
140
0.0
141
0.0
142
0.0358791746507948
143
1.0
 70
  1696
 72
     0
 73
     0
 74
     0
  7

 75
     0
147
0.0235690232323232
148
0.0
149
0.0
100
AcDbLayout
  1
Model
 70
     1
 71
     0
 10
0.0
 20
0.0
 11
420.0
 21
297.0
 12
0.0
 22
0.0
 32
0.0
 14
1.000000000000000E+20
 24
1.000000000000000E+20
 34
1.000000000000000E+20
 15
-1.000000000000000E+20
 25
-1.000000000000000E+20
 35
-1.000000000000000E+20
146
0.0
 13
0.0
 23
0.0
 33
0.0
 16
1.0
 26
0.0
 36
0.0
 17
0.0
 27
1.0
 37
0.0
 76
     0
330
1F
331
29
  0
MLINESTYLE
  5
18
102
{ACAD_REACTORS
330
17
102
}
330
17
100
AcDbMlineStyle
  2
Standard
 70
     0
  3

 62
   256
 51
90.0
 52
90.0
 71
     2
 49
0.5
 62
   256
  6
BYLAYER
 49
-0.5
 62
   256
  6
BYLAYER
  0
ACDBPLACEHOLDER
  5
F
102
{ACAD_REACTORS
330
E
102
}
330
E
  0
SCALE
  5
48
102
{ACAD_REACTORS
330
47
102
}
330
47
100
AcDbScale
 70
     0
300
1:1
140
1.0
141
1.0
290
     1
  0
SCALE
  5
49
102
{ACAD_REACTORS
330
47
102
}
330
47
100
AcDbScale
 70
     0
300
1:2
140
1.0
141
2.0
290
     0
  0
SCALE
  5
4A
102
{ACAD_REACTORS
330
47
102
}
330
47
100
AcDbScale
 70
     0
300
1:4
140
1.0
141
4.0
290
     0
  0
SCALE
  5
4B
102
{ACAD_REACTORS
330
47
102
}
330
47
100
AcDbScale
 70
     0
300
1:5
140
1.0
141
5.0
290
     0
  0
SCALE
  5
4C
102
{ACAD_REACTORS
330
47
102
}
330
47
100
AcDbScale
 70
     0
300
1:8
140
1.0
141
8.0
290
     0
  0
SCALE
  5
4D
102
{ACAD_REACTORS
330
47
102
}
330
47
100
AcDbScale
 70
     0
300
1:10
140
1.0
141
10.0
290
     0
  0
SCALE
  5
4E
102
{ACAD_REACTORS
330
47
102
}
330
47
100
AcDbScale
 70
     0
300
1:16
140
1.0
141
16.0
290
     0
  0
SCALE
  5
4F
102
{ACAD_REACTORS
330
47
102
}
330
47
100
AcDbScale
 70
     0
300
1:20
140
1.0
141
20.0
290
     0
  0
SCALE
  5
50
102
{ACAD_REACTORS
330
47
102
}
330
47
100
AcDbScale
 70
     0
300
1:30
140
1.0
141
30.0
290
     0
  0
SCALE
  5
51
102
{ACAD_REACTORS
330
47
102
}
330
47
100
AcDbScale
 70
     0
300
1:40
140
1.0
141
40.0
290
     0
  0
SCALE
  5
52
102
{ACAD_REACTORS
330
47
102
}
330
47
100
AcDbScale
 70
     0
300
1:50
140
1.0
141
50.0
290
     0
  0
SCALE
  5
53
102
{ACAD_REACTORS
330
47
102
}
330
47
100
AcDbScale
 70
     0
300
1:100
140
1.0
141
100.0
290
     0
  0
SCALE
  5
54
102
{ACAD_REACTORS
330
47
102
}
330
47
100
AcDbScale
 70
     0
300
2:1
140
2.0
141
1.0
290
     0
  0
SCALE
  5
55
102
{ACAD_REACTORS
330
47
102
}
330
47
100
AcDbScale
 70
     0
300
4:1
140
4.0
141
1.0
290
     0
  0
SCALE
  5
56
102
{ACAD_REACTORS
330
47
102
}
330
47
100
AcDbScale
 70
     0
300
8:1
140
8.0
141
1.0
290
     0
  0
SCALE
  5
57
102
{ACAD_REACTORS
330
47
102
}
330
47
100
AcDbScale
 70
     0
300
10:1
140
10.0
141
1.0
290
     0
  0
SCALE
  5
58
102
{ACAD_REACTORS
330
47
102
}
330
47
100
AcDbScale
 70
     0
300
100:1
140
100.0
141
1.0
290
     0
  0
SCALE
  5
59
102
{ACAD_REACTORS
330
47
102
}
330
47
100
AcDbScale
 70
     0
300
1/128" = 1'-0"
140
0.0078125
141
12.0
290
     0
  0
SCALE
  5
5A
102
{ACAD_REACTORS
330
47
102
}
330
47
100
AcDbScale
 70
     0
300
1/64" = 1'-0"
140
0.015625
141
12.0
290
     0
  0
SCALE
  5
5B
102
{ACAD_REACTORS
330
47
102
}
330
47
100
AcDbScale
 70
     0
300
1/32" = 1'-0"
140
0.03125
141
12.0
290
     0
  0
SCALE
  5
5C
102
{ACAD_REACTORS
330
47
102
}
330
47
100
AcDbScale
 70
     0
300
1/16" = 1'-0"
140
0.0625
141
12.0
290
     0
  0
SCALE
  5
5D
102
{ACAD_REACTORS
330
47
102
}
330
47
100
AcDbScale
 70
     0
300
3/32" = 1'-0"
140
0.09375
141
12.0
290
     0
  0
SCALE
  5
5E
102
{ACAD_REACTORS
330
47
102
}
330
47
100
AcDbScale
 70
     0
300
1/8" = 1'-0"
140
0.125
141
12.0
290
     0
  0
SCALE
  5
5F
102
{ACAD_REACTORS
330
47
102
}
330
47
100
AcDbScale
 70
     0
300
3/16" = 1'-0"
140
0.1875
141
12.0
290
     0
  0
SCALE
  5
60
102
{ACAD_REACTORS
330
47
102
}
330
47
100
AcDbScale
 70
     0
300
1/4" = 1'-0"
140
0.25
141
12.0
290
     0
  0
SCALE
  5
61
102
{ACAD_REACTORS
330
47
102
}
330
47
100
AcDbScale
 70
     0
300
3/8" = 1'-0"
140
0.375
141
12.0
290
     0
  0
SCALE
  5
62
102
{ACAD_REACTORS
330
47
102
}
330
47
100
AcDbScale
 70
     0
300
1/2" = 1'-0"
140
0.5
141
12.0
290
     0
  0
SCALE
  5
63
102
{ACAD_REACTORS
330
47
102
}
330
47
100
AcDbScale
 70
     0
300
3/4" = 1'-0"
140
0.75
141
12.0
290
     0
  0
SCALE
  5
64
102
{ACAD_REACTORS
330
47
102
}
330
47
100
AcDbScale
 70
     0
300
1" = 1'-0"
140
1.0
141
12.0
290
     0
  0
SCALE
  5
65
102
{ACAD_REACTORS
330
47
102
}
330
47
100
AcDbScale
 70
     0
300
1-1/2" = 1'-0"
140
1.5
141
12.0
290
     0
  0
SCALE
  5
66
102
{ACAD_REACTORS
330
47
102
}
330
47
100
AcDbScale
 70
     0
300
3" = 1'-0"
140
3.0
141
12.0
290
     0
  0
SCALE
  5
67
102
{ACAD_REACTORS
330
47
102
}
330
47
100
AcDbScale
 70
     0
300
6" = 1'-0"
140
6.0
141
12.0
290
     0
  0
SCALE
  5
68
102
{ACAD_REACTORS
330
47
102
}
330
47
100
AcDbScale
 70
     0
300
1'-0" = 1'-0"
140
12.0
141
12.0
290
     0
  0
ENDSEC
  0
EOF
