  0
SECTION
  2
HEADER
  9
$ACADVER
  1
AC1015
  9
$ACADMAINTVER
 70
     6
  9
$DWGCODEPAGE
  3
ANSI_949
  9
$INSBASE
 10
0.0
 20
0.0
 30
0.0
  9
$EXTMIN
 10
1.000000000000000E+20
 20
1.000000000000000E+20
 30
1.000000000000000E+20
  9
$EXTMAX
 10
-1.000000000000000E+20
 20
-1.000000000000000E+20
 30
-1.000000000000000E+20
  9
$LIMMIN
 10
0.0
 20
0.0
  9
$LIMMAX
 10
420.0
 20
297.0
  9
$ORTHOMODE
 70
     1
  9
$REGENMODE
 70
     1
  9
$FILLMODE
 70
     1
  9
$QTEXTMODE
 70
     0
  9
$MIRRTEXT
 70
     1
  9
$LTSCALE
 40
1.0
  9
$ATTMODE
 70
     1
  9
$TEXTSIZE
 40
3.5
  9
$TRACEWID
 40
1.0
  9
$TEXTSTYLE
  7
Standard
  9
$CLAYER
  8
0
  9
$CELTYPE
  6
ByLayer
  9
$CECOLOR
 62
   256
  9
$CELTSCALE
 40
1.0
  9
$DISPSILH
 70
     0
  9
$DIMSCALE
 40
1.0
  9
$DIMASZ
 40
3.302
  9
$DIMEXO
 40
1.0
  9
$DIMDLI
 40
3.75
  9
$DIMRND
 40
0.0
  9
$DIMDLE
 40
0.0
  9
$DIMEXE
 40
1.0
  9
$DIMTP
 40
0.0
  9
$DIMTM
 40
0.0
  9
$DIMTXT
 40
3.5
  9
$DIMCEN
 40
2.5
  9
$DIMTSZ
 40
0.0
  9
$DIMTOL
 70
     0
  9
$DIMLIM
 70
     0
  9
$DIMTIH
 70
     1
  9
$DIMTOH
 70
     1
  9
$DIMSE1
 70
     0
  9
$DIMSE2
 70
     0
  9
$DIMTAD
 70
     1
  9
$DIMZIN
 70
     0
  9
$DIMBLK
  1

  9
$DIMASO
 70
     1
  9
$DIMSHO
 70
     1
  9
$DIMPOST
  1

  9
$DIMAPOST
  1

  9
$DIMALT
 70
     0
  9
$DIMALTD
 70
     3
  9
$DIMALTF
 40
0.0393700787401575
  9
$DIMLFAC
 40
1.0
  9
$DIMTOFL
 70
     1
  9
$DIMTVP
 40
0.0
  9
$DIMTIX
 70
     0
  9
$DIMSOXD
 70
     0
  9
$DIMSAH
 70
     0
  9
$DIMBLK1
  1

  9
$DIMBLK2
  1

  9
$DIMSTYLE
  2
ISO-25
  9
$DIMCLRD
 70
     0
  9
$DIMCLRE
 70
     0
  9
$DIMCLRT
 70
     0
  9
$DIMTFAC
 40
1.0
  9
$DIMGAP
 40
1.524
  9
$DIMJUST
 70
     0
  9
$DIMSD1
 70
     0
  9
$DIMSD2
 70
     0
  9
$DIMTOLJ
 70
     0
  9
$DIMTZIN
 70
     0
  9
$DIMALTZ
 70
     0
  9
$DIMALTTZ
 70
     0
  9
$DIMUPT
 70
     0
  9
$DIMDEC
 70
     2
  9
$DIMTDEC
 70
     2
  9
$DIMALTU
 70
     2
  9
$DIMALTTD
 70
     3
  9
$DIMTXSTY
  7
Standard
  9
$DIMAUNIT
 70
     0
  9
$DIMADEC
 70
     2
  9
$DIMALTRND
 40
0.0
  9
$DIMAZIN
 70
     0
  9
$DIMDSEP
 70
    44
  9
$DIMATFIT
 70
     3
  9
$DIMFRAC
 70
     0
  9
$DIMLDRBLK
  1

  9
$DIMLUNIT
 70
     2
  9
$DIMLWD
 70
    -2
  9
$DIMLWE
 70
    -2
  9
$DIMTMOVE
 70
     0
  9
$LUNITS
 70
     2
  9
$LUPREC
 70
     2
  9
$SKETCHINC
 40
1.0
  9
$FILLETRAD
 40
10.0
  9
$AUNITS
 70
     0
  9
$AUPREC
 70
     2
  9
$MENU
  1
.
  9
$ELEVATION
 40
0.0
  9
$PELEVATION
 40
0.0
  9
$THICKNESS
 40
0.0
  9
$LIMCHECK
 70
     0
  9
$CHAMFERA
 40
0.0
  9
$CHAMFERB
 40
0.0
  9
$CHAMFERC
 40
0.0
  9
$CHAMFERD
 40
0.0
  9
$SKPOLY
 70
     0
  9
$TDCREATE
 40
2458311.467074028
  9
$TDUCREATE
 40
2458311.092074028
  9
$TDUPDATE
 40
2458318.674861817
  9
$TDUUPDATE
 40
2458318.299861817
  9
$TDINDWG
 40
0.0023209954
  9
$TDUSRTIMER
 40
2458318.299665555
  9
$USRTIMER
 70
     1
  9
$ANGBASE
 50
0.0
  9
$ANGDIR
 70
     0
  9
$PDMODE
 70
     0
  9
$PDSIZE
 40
-1.0
  9
$PLINEWID
 40
0.0
  9
$SPLFRAME
 70
     0
  9
$SPLINETYPE
 70
     6
  9
$SPLINESEGS
 70
     8
  9
$HANDSEED
  5
1EE
  9
$SURFTAB1
 70
     6
  9
$SURFTAB2
 70
     6
  9
$SURFTYPE
 70
     6
  9
$SURFU
 70
     6
  9
$SURFV
 70
     6
  9
$UCSBASE
  2

  9
$UCSNAME
  2

  9
$UCSORG
 10
0.0
 20
0.0
 30
0.0
  9
$UCSXDIR
 10
1.0
 20
0.0
 30
0.0
  9
$UCSYDIR
 10
0.0
 20
1.0
 30
0.0
  9
$UCSORTHOREF
  2

  9
$UCSORTHOVIEW
 70
     0
  9
$UCSORGTOP
 10
0.0
 20
0.0
 30
0.0
  9
$UCSORGBOTTOM
 10
0.0
 20
0.0
 30
0.0
  9
$UCSORGLEFT
 10
0.0
 20
0.0
 30
0.0
  9
$UCSORGRIGHT
 10
0.0
 20
0.0
 30
0.0
  9
$UCSORGFRONT
 10
0.0
 20
0.0
 30
0.0
  9
$UCSORGBACK
 10
0.0
 20
0.0
 30
0.0
  9
$PUCSBASE
  2

  9
$PUCSNAME
  2

  9
$PUCSORG
 10
0.0
 20
0.0
 30
0.0
  9
$PUCSXDIR
 10
1.0
 20
0.0
 30
0.0
  9
$PUCSYDIR
 10
0.0
 20
1.0
 30
0.0
  9
$PUCSORTHOREF
  2

  9
$PUCSORTHOVIEW
 70
     0
  9
$PUCSORGTOP
 10
0.0
 20
0.0
 30
0.0
  9
$PUCSORGBOTTOM
 10
0.0
 20
0.0
 30
0.0
  9
$PUCSORGLEFT
 10
0.0
 20
0.0
 30
0.0
  9
$PUCSORGRIGHT
 10
0.0
 20
0.0
 30
0.0
  9
$PUCSORGFRONT
 10
0.0
 20
0.0
 30
0.0
  9
$PUCSORGBACK
 10
0.0
 20
0.0
 30
0.0
  9
$USERI1
 70
     0
  9
$USERI2
 70
     0
  9
$USERI3
 70
     0
  9
$USERI4
 70
     0
  9
$USERI5
 70
     0
  9
$USERR1
 40
0.0
  9
$USERR2
 40
0.0
  9
$USERR3
 40
0.0
  9
$USERR4
 40
0.0
  9
$USERR5
 40
0.0
  9
$WORLDVIEW
 70
     1
  9
$SHADEDGE
 70
     3
  9
$SHADEDIF
 70
    70
  9
$TILEMODE
 70
     1
  9
$MAXACTVP
 70
    64
  9
$PINSBASE
 10
0.0
 20
0.0
 30
0.0
  9
$PLIMCHECK
 70
     0
  9
$PEXTMIN
 10
1.000000000000000E+20
 20
1.000000000000000E+20
 30
1.000000000000000E+20
  9
$PEXTMAX
 10
-1.000000000000000E+20
 20
-1.000000000000000E+20
 30
-1.000000000000000E+20
  9
$PLIMMIN
 10
0.0
 20
0.0
  9
$PLIMMAX
 10
0.0
 20
0.0
  9
$UNITMODE
 70
     0
  9
$VISRETAIN
 70
     1
  9
$PLINEGEN
 70
     0
  9
$PSLTSCALE
 70
     1
  9
$TREEDEPTH
 70
  3020
  9
$CMLSTYLE
  2
Standard
  9
$CMLJUST
 70
     0
  9
$CMLSCALE
 40
20.0
  9
$PROXYGRAPHICS
 70
     1
  9
$MEASUREMENT
 70
     1
  9
$CELWEIGHT
370
    -1
  9
$ENDCAPS
280
     0
  9
$JOINSTYLE
280
     0
  9
$LWDISPLAY
290
     1
  9
$INSUNITS
 70
     4
  9
$HYPERLINKBASE
  1

  9
$STYLESHEET
  1

  9
$XEDIT
290
     1
  9
$CEPSNTYPE
380
     0
  9
$PSTYLEMODE
290
     1
  9
$FINGERPRINTGUID
  2
{9A7D6BC8-C2BC-45EA-8F15-B62B75796B79}
  9
$VERSIONGUID
  2
{FAEB1C32-E019-11D5-929B-00C0DF256EC4}
  9
$EXTNAMES
290
     1
  9
$PSVPSCALE
 40
0.0
  9
$OLESTARTUP
290
     0
  0
ENDSEC
  0
SECTION
  2
CLASSES
  0
CLASS
  1
ACDBDICTIONARYWDFLT
  2
AcDbDictionaryWithDefault
  3
ObjectDBX Classes
 90
        0
280
     0
281
     0
  0
CLASS
  1
VISUALSTYLE
  2
AcDbVisualStyle
  3
ObjectDBX Classes
 90
     4095
280
     0
281
     0
  0
CLASS
  1
MATERIAL
  2
AcDbMaterial
  3
ObjectDBX Classes
 90
     1153
280
     0
281
     0
  0
CLASS
  1
SCALE
  2
AcDbScale
  3
ObjectDBX Classes
 90
     1153
280
     0
281
     0
  0
CLASS
  1
SUN
  2
AcDbSun
  3
SCENEOE
 90
     1153
280
     0
281
     0
  0
CLASS
  1
ACDBPLACEHOLDER
  2
AcDbPlaceHolder
  3
ObjectDBX Classes
 90
        0
280
     0
281
     0
  0
CLASS
  1
LAYOUT
  2
AcDbLayout
  3
ObjectDBX Classes
 90
        0
280
     0
281
     0
  0
CLASS
  1
TABLESTYLE
  2
AcDbTableStyle
  3
ObjectDBX Classes
 90
     4095
280
     0
281
     0
  0
CLASS
  1
MLEADERSTYLE
  2
AcDbMLeaderStyle
  3
ACDB_MLEADERSTYLE_CLASS
 90
     4095
280
     0
281
     0
  0
CLASS
  1
RASTERVARIABLES
  2
AcDbRasterVariables
  3
ISM
 90
        0
280
     0
281
     0
  0
ENDSEC
  0
SECTION
  2
TABLES
  0
TABLE
  2
VPORT
  5
8
330
0
100
AcDbSymbolTable
 70
     1
  0
VPORT
  5
29
330
8
100
AcDbSymbolTableRecord
100
AcDbViewportTableRecord
  2
*Active
 70
     0
 10
0.0
 20
0.0
 11
1.0
 21
1.0
 12
-52.9049718186499
 22
-36.12602815786927
 13
0.0
 23
0.0
 14
10.0
 24
10.0
 15
10.0
 25
10.0
 16
0.0
 26
0.0
 36
1.0
 17
0.0
 27
0.0
 37
0.0
 40
169.8678974866122
 41
1.740812379110251
 42
50.0
 43
0.0
 44
0.0
 50
0.0
 51
0.0
 71
    16
 72
  2000
 73
     1
 74
     3
 75
     0
 76
     0
 77
     0
 78
     0
281
     0
 65
     1
110
0.0
120
0.0
130
0.0
111
1.0
121
0.0
131
0.0
112
0.0
122
1.0
132
0.0
 79
     0
146
0.0
  0
ENDTAB
  0
TABLE
  2
LTYPE
  5
5
330
0
100
AcDbSymbolTable
 70
     6
  0
LTYPE
  5
14
330
5
100
AcDbSymbolTableRecord
100
AcDbLinetypeTableRecord
  2
ByBlock
 70
     0
  3

 72
    65
 73
     0
 40
0.0
  0
LTYPE
  5
15
330
5
100
AcDbSymbolTableRecord
100
AcDbLinetypeTableRecord
  2
ByLayer
 70
     0
  3

 72
    65
 73
     0
 40
0.0
  0
LTYPE
  5
16
330
5
100
AcDbSymbolTableRecord
100
AcDbLinetypeTableRecord
  2
Continuous
 70
     0
  3
Solid line
 72
    65
 73
     0
 40
0.0
  0
LTYPE
  5
6A
330
5
100
AcDbSymbolTableRecord
100
AcDbLinetypeTableRecord
  2
HIDDEN
 70
     0
  3
Hidden __ __ __ __ __ __ __ __ __ __ __ __ __ __
 72
    65
 73
     2
 40
1.905
 49
1.27
 74
     0
 49
-0.635
 74
     0
  0
LTYPE
  5
6B
330
5
100
AcDbSymbolTableRecord
100
AcDbLinetypeTableRecord
  2
PHANTOM
 70
     0
  3
Phantom ______  __  __  ______  __  __  ______
 72
    65
 73
     6
 40
12.7
 49
6.35
 74
     0
 49
-1.27
 74
     0
 49
1.27
 74
     0
 49
-1.27
 74
     0
 49
1.27
 74
     0
 49
-1.27
 74
     0
  0
LTYPE
  5
6C
330
5
100
AcDbSymbolTableRecord
100
AcDbLinetypeTableRecord
  2
CENTER
 70
     0
  3
Center ____ _ ____ _ ____ _ ____ _ ____ _ ____
 72
    65
 73
     4
 40
10.16
 49
6.35
 74
     0
 49
-1.27
 74
     0
 49
1.27
 74
     0
 49
-1.27
 74
     0
  0
LTYPE
  5
6D
330
5
100
AcDbSymbolTableRecord
100
AcDbLinetypeTableRecord
  2
CENTERX2
 70
     0
  3
Center (2x) ________  __  ________  __  _____
 72
    65
 73
     4
 40
20.32
 49
12.7
 74
     0
 49
-2.54
 74
     0
 49
2.54
 74
     0
 49
-2.54
 74
     0
  0
LTYPE
  5
6E
330
5
100
AcDbSymbolTableRecord
100
AcDbLinetypeTableRecord
  2
DOT2
 70
     0
  3
Dot (.5x) ........................................
 72
    65
 73
     2
 40
0.635
 49
0.0
 74
     0
 49
-0.635
 74
     0
  0
ENDTAB
  0
TABLE
  2
LAYER
  5
2
102
{ACAD_XDICTIONARY
360
17E
102
}
330
0
100
AcDbSymbolTable
 70
    18
  0
LAYER
  5
10
330
2
100
AcDbSymbolTableRecord
100
AcDbLayerTableRecord
  2
0
 70
     0
 62
     7
  6
Continuous
370
    -3
390
F
  0
LAYER
  5
6F
330
2
100
AcDbSymbolTableRecord
100
AcDbLayerTableRecord
  2
FORMAT
 70
     0
 62
     2
  6
Continuous
370
    -3
390
F
  0
LAYER
  5
70
330
2
100
AcDbSymbolTableRecord
100
AcDbLayerTableRecord
  2
외형선
 70
     0
 62
     4
  6
Continuous
370
    30
390
F
  0
LAYER
  5
71
330
2
100
AcDbSymbolTableRecord
100
AcDbLayerTableRecord
  2
숨은선
 70
     0
 62
     2
  6
HIDDEN
370
    15
390
F
  0
LAYER
  5
72
330
2
100
AcDbSymbolTableRecord
100
AcDbLayerTableRecord
  2
중심선
 70
     0
 62
     1
  6
CENTERX2
370
    -3
390
F
  0
LAYER
  5
73
330
2
100
AcDbSymbolTableRecord
100
AcDbLayerTableRecord
  2
파단선
 70
     0
 62
     4
  6
Continuous
370
    -3
390
F
  0
LAYER
  5
74
330
2
100
AcDbSymbolTableRecord
100
AcDbLayerTableRecord
  2
해칭선
 70
     0
 62
   100
  6
Continuous
370
    -3
390
F
  0
LAYER
  5
75
330
2
100
AcDbSymbolTableRecord
100
AcDbLayerTableRecord
  2
가는실선
 70
     0
 62
     4
  6
Continuous
370
    -3
390
F
  0
LAYER
  5
76
330
2
100
AcDbSymbolTableRecord
100
AcDbLayerTableRecord
  2
치수_보조선
 70
     0
 62
     4
  6
Continuous
370
    -3
390
F
  0
LAYER
  5
77
330
2
100
AcDbSymbolTableRecord
100
AcDbLayerTableRecord
  2
치수문자_일반주서
 70
     0
 62
     7
  6
Continuous
370
    15
390
F
  0
LAYER
  5
78
330
2
100
AcDbSymbolTableRecord
100
AcDbLayerTableRecord
  2
개별주서
 70
     0
 62
   100
  6
Continuous
370
    30
390
F
  0
LAYER
  5
79
330
2
100
AcDbSymbolTableRecord
100
AcDbLayerTableRecord
  2
중간선
 70
     0
 62
     2
  6
Continuous
370
    15
390
F
  0
LAYER
  5
7A
330
2
100
AcDbSymbolTableRecord
100
AcDbLayerTableRecord
  2
윤곽선
 70
     0
 62
     3
  6
Continuous
370
    40
390
F
  0
LAYER
  5
7B
330
2
100
AcDbSymbolTableRecord
100
AcDbLayerTableRecord
  2
중심마크
 70
     0
 62
   100
  6
Continuous
370
    30
390
F
  0
LAYER
  5
7C
330
2
100
AcDbSymbolTableRecord
100
AcDbLayerTableRecord
  2
가상선
 70
     0
 62
     4
  6
PHANTOM
370
    -3
390
F
  0
LAYER
  5
7D
330
2
100
AcDbSymbolTableRecord
100
AcDbLayerTableRecord
  2
특수지정선
 70
     0
 62
     5
  6
CENTERX2
370
    60
390
F
  0
LAYER
  5
7E
330
2
100
AcDbSymbolTableRecord
100
AcDbLayerTableRecord
  2
참조1
 70
     0
 62
    -4
  6
Continuous
370
    -3
390
F
  0
LAYER
  5
185
330
2
100
AcDbSymbolTableRecord
100
AcDbLayerTableRecord
  2
Defpoints
 70
     0
 62
     7
  6
Continuous
290
     0
370
    -3
390
F
  0
ENDTAB
  0
TABLE
  2
STYLE
  5
3
330
0
100
AcDbSymbolTable
 70
     2
  0
STYLE
  5
11
330
3
100
AcDbSymbolTableRecord
100
AcDbTextStyleTableRecord
  2
Standard
 70
     0
 40
0.0
 41
1.0
 50
0.0
 71
     0
 42
3.5
  3
txt
  4

  0
STYLE
  5
94
330
3
100
AcDbSymbolTableRecord
100
AcDbTextStyleTableRecord
  2
SLDTEXTSTYLE0
 70
     0
 40
0.0
 41
0.75
 50
0.0
 71
     0
 42
3.5
  3
TXT
  4

  0
ENDTAB
  0
TABLE
  2
VIEW
  5
6
330
0
100
AcDbSymbolTable
 70
     0
  0
ENDTAB
  0
TABLE
  2
UCS
  5
7
330
0
100
AcDbSymbolTable
 70
     0
  0
ENDTAB
  0
TABLE
  2
APPID
  5
9
330
0
100
AcDbSymbolTable
 70
     1
  0
APPID
  5
12
330
9
100
AcDbSymbolTableRecord
100
AcDbRegAppTableRecord
  2
ACAD
 70
     0
  0
ENDTAB
  0
TABLE
  2
DIMSTYLE
  5
A
330
0
100
AcDbSymbolTable
 70
     3
100
AcDbDimStyleTable
  0
DIMSTYLE
105
27
330
A
100
AcDbSymbolTableRecord
100
AcDbDimStyleTableRecord
  2
ISO-25
 70
     0
 41
2.5
 42
0.625
 43
3.75
 44
1.25
 73
     0
 74
     0
 77
     1
 78
     8
140
2.5
141
2.5
143
0.03937007874016
147
0.625
171
     3
172
     1
178
     0
271
     2
272
     2
274
     3
278
    44
283
     0
284
     8
340
11
  0
DIMSTYLE
105
D9
102
{ACAD_REACTORS
330
D8
330
113
330
EB
330
100
102
}
330
A
100
AcDbSymbolTableRecord
100
AcDbDimStyleTableRecord
  2
SLDDIMSTYLE0
 70
     0
 41
3.302
 44
0.0
 45
0.000000001
 73
     0
 74
     0
 77
     1
 78
    12
 79
     3
140
3.5
143
0.0393700787401575
147
0.875
148
0.000000001
170
     1
173
     1
178
     0
271
     2
272
     2
276
     2
284
    12
340
94
  0
DIMSTYLE
105
EC
330
A
100
AcDbSymbolTableRecord
100
AcDbDimStyleTableRecord
  2
SLDDIMSTYLE1
 70
     0
 41
3.302
 44
0.0
 45
0.000000001
 73
     0
 74
     0
 77
     1
 78
     4
 79
     1
140
3.5
143
0.0393700787401575
147
0.875
148
0.000000001
170
     1
173
     1
178
     0
271
     2
272
     2
276
     2
284
    12
340
94
  0
ENDTAB
  0
TABLE
  2
BLOCK_RECORD
  5
1
330
0
100
AcDbSymbolTable
 70
     8
  0
BLOCK_RECORD
  5
1F
330
1
100
AcDbSymbolTableRecord
100
AcDbBlockTableRecord
  2
*Model_Space
340
22
  0
BLOCK_RECORD
  5
1B
330
1
100
AcDbSymbolTableRecord
100
AcDbBlockTableRecord
  2
*Paper_Space
340
1E
  0
BLOCK_RECORD
  5
23
330
1
100
AcDbSymbolTableRecord
100
AcDbBlockTableRecord
  2
*Paper_Space0
340
26
  0
BLOCK_RECORD
  5
7F
330
1
100
AcDbSymbolTableRecord
100
AcDbBlockTableRecord
  2
블럭10
340
0
102
{BLKREFS
331
D1
102
}
  0
BLOCK_RECORD
  5
DA
330
1
100
AcDbSymbolTableRecord
100
AcDbBlockTableRecord
  2
_D
340
0
  0
BLOCK_RECORD
  5
ED
330
1
100
AcDbSymbolTableRecord
100
AcDbBlockTableRecord
  2
_D_1
340
0
  0
BLOCK_RECORD
  5
101
330
1
100
AcDbSymbolTableRecord
100
AcDbBlockTableRecord
  2
_D_2
340
0
  0
BLOCK_RECORD
  5
114
330
1
100
AcDbSymbolTableRecord
100
AcDbBlockTableRecord
  2
_D_3
340
0
  0
BLOCK_RECORD
  5
12D
330
1
100
AcDbSymbolTableRecord
100
AcDbBlockTableRecord
  2
SW_DOWELSYMBOL_0
340
0
102
{BLKREFS
331
133
102
}
  0
ENDTAB
  0
ENDSEC
  0
SECTION
  2
BLOCKS
  0
BLOCK
  5
20
330
1F
100
AcDbEntity
  8
0
100
AcDbBlockBegin
  2
*Model_Space
 70
     0
 10
0.0
 20
0.0
 30
0.0
  3
*Model_Space
  1
*Model_Space
  0
ENDBLK
  5
21
330
1F
100
AcDbEntity
  8
0
100
AcDbBlockEnd
  0
BLOCK
  5
1C
330
1B
100
AcDbEntity
 67
     1
  8
0
100
AcDbBlockBegin
  2
*Paper_Space
 70
     0
 10
0.0
 20
0.0
 30
0.0
  3
*Paper_Space
  1
*Paper_Space
  0
ENDBLK
  5
1D
330
1B
100
AcDbEntity
 67
     1
  8
0
100
AcDbBlockEnd
  0
BLOCK
  5
24
330
23
100
AcDbEntity
  8
0
100
AcDbBlockBegin
  2
*Paper_Space0
 70
     0
 10
0.0
 20
0.0
 30
0.0
  3
*Paper_Space0
  1
*Paper_Space0
  0
ENDBLK
  5
25
330
23
100
AcDbEntity
  8
0
100
AcDbBlockEnd
  0
BLOCK
  5
80
330
7F
100
AcDbEntity
  8
0
100
AcDbBlockBegin
  2
블럭10
 70
     2
 10
0.0
 20
0.0
 30
0.0
  3
블럭10
  1
블럭10
  0
ELLIPSE
  5
82
330
7F
100
AcDbEntity
  8
중심선
100
AcDbEllipse
 10
20.54032771741204
 20
12.0471743016438
 30
0.0
 11
6.600054785286829
 21
-1.261213355974178E-13
 31
0.0
210
0.0
220
0.0
230
1.0
 40
0.636358354079598
 41
0.9219305317359503
 42
6.513795318482858
  0
ELLIPSE
  5
83
330
7F
100
AcDbEntity
  8
중심선
100
AcDbEllipse
 10
20.54032771746488
 20
12.04717430159265
 30
0.0
 11
3.960054785062283
 21
1.540847449632565E-10
 31
0.0
210
0.0
220
0.0
230
1.0
 40
0.3939339440162632
 41
1.131841032648279
 42
5.62031148352944
  0
LINE
  5
84
330
7F
100
AcDbEntity
  8
중심선
100
AcDbLine
 10
2.268634060543552
 20
16.24717430164393
 30
0.0
 11
5.714909304380834
 21
16.24717430164393
 31
0.0
  0
LINE
  5
85
330
7F
100
AcDbEntity
  8
중심선
100
AcDbLine
 10
5.245725140726316
 20
7.84717430164391
 30
0.0
 11
8.692000384563599
 21
7.84717430164391
 31
0.0
  0
LINE
  5
86
330
7F
100
AcDbEntity
  8
중심선
100
AcDbLine
 10
15.74043728645272
 20
16.24717430164393
 30
0.0
 11
8.692000384563599
 21
7.84717430164391
 31
0.0
  0
LINE
  5
87
330
7F
100
AcDbEntity
  8
중심선
100
AcDbLine
 10
0.1404042013395286
 20
13.71084872107135
 30
0.0
 11
3.58671253028996
 21
13.71088815037384
 31
0.0
  0
LINE
  5
88
330
7F
100
AcDbEntity
  8
중심선
100
AcDbLine
 10
2.750260043222114
 20
10.84717430164391
 30
0.0
 11
6.196535287059397
 21
10.84717430164391
 31
0.0
  0
LINE
  5
89
330
7F
100
AcDbEntity
  8
중심선
100
AcDbLine
 10
12.29416204261559
 20
16.24717430164393
 30
0.0
 11
5.245725140726316
 21
7.84717430164391
 31
0.0
  0
LINE
  5
8A
330
7F
100
AcDbEntity
  8
중심선
100
AcDbLine
 10
10.72767329541681
 20
16.24717430164393
 30
0.0
 11
6.196535287059397
 21
10.84717430164391
 31
0.0
  0
LINE
  5
8B
330
7F
100
AcDbEntity
  8
중심선
100
AcDbLine
 10
7.28139805157953
 20
16.24717430164393
 30
0.0
 11
2.750260043222114
 21
10.84717430164391
 31
0.0
  0
LINE
  5
8C
330
7F
100
AcDbEntity
  8
중심선
100
AcDbLine
 10
5.714909304380834
 20
16.24717430164393
 30
0.0
 11
3.58671253028996
 21
13.71088815037384
 31
0.0
  0
LINE
  5
8D
330
7F
100
AcDbEntity
  8
중심선
100
AcDbLine
 10
2.268634060543552
 20
16.24717430164393
 30
0.0
 11
0.1404042013395286
 21
13.71084872107135
 31
0.0
  0
LINE
  5
8E
330
7F
100
AcDbEntity
  8
중심선
100
AcDbLine
 10
7.28139805157953
 20
16.24717430164393
 30
0.0
 11
10.72767329541681
 21
16.24717430164393
 31
0.0
  0
LINE
  5
8F
330
7F
100
AcDbEntity
  8
중심선
100
AcDbLine
 10
12.29416204261559
 20
16.24717430164393
 30
0.0
 11
15.74043728645272
 21
16.24717430164393
 31
0.0
  0
LINE
  5
90
330
7F
100
AcDbEntity
  8
중심선
100
AcDbLine
 10
19.22036997980202
 20
11.08717430171403
 30
0.0
 11
23.66174974927406
 21
11.08717430171406
 31
0.0
  0
LINE
  5
91
330
7F
100
AcDbEntity
  8
중심선
100
AcDbLine
 10
19.22039502424796
 20
13.00717430171391
 30
0.0
 11
19.22036997980202
 21
11.08717430171403
 31
0.0
  0
LINE
  5
92
330
7F
100
AcDbEntity
  8
중심선
100
AcDbLine
 10
19.22039502424796
 20
13.00717430171391
 30
0.0
 11
26.96566020931264
 21
13.00717430171391
 31
0.0
  0
LINE
  5
93
330
7F
100
AcDbEntity
  8
중심선
100
AcDbLine
 10
22.22332737316547
 20
13.45928029700563
 30
0.0
 11
24.52862924686651
 21
15.39360700705356
 31
0.0
  0
ATTDEF
  5
95
330
7F
100
AcDbEntity
  8
FORMAT
 62
     2
100
AcDbText
 10
4.408487351596664
 20
2.075366912832191
 30
0.0
 40
4.233333333333333
  1
E1071116
 41
0.75
  7
SLDTEXTSTYLE0
 11
4.408487351596664
 21
-0.0412997538344756
 31
0.0
100
AcDbAttributeDefinition
  3

  2
AUTOATTR0
 70
     0
 74
     1
  0
ENDBLK
  5
81
330
7F
100
AcDbEntity
  8
0
100
AcDbBlockEnd
  0
BLOCK
  5
DB
330
DA
100
AcDbEntity
  8
0
100
AcDbBlockBegin
  2
_D
 70
     0
 10
0.0
 20
0.0
 30
0.0
  3
_D
  1
_D
  0
LINE
  5
DD
330
DA
100
AcDbEntity
  8
치수문자_일반주서
 62
     0
370
    -2
100
AcDbLine
 10
-50.5625
 20
15.875
 30
0.0
 11
-64.00000000000007
 21
15.87499999999995
 31
0.0
  0
LINE
  5
DE
330
DA
100
AcDbEntity
  8
치수문자_일반주서
 62
     0
370
    -2
100
AcDbLine
 10
-50.5625
 20
-15.875
 30
0.0
 11
-63.99999999999996
 21
-15.87500000000005
 31
0.0
  0
LINE
  5
DF
330
DA
100
AcDbEntity
  8
치수문자_일반주서
 62
     0
370
    -2
100
AcDbLine
 10
-64.00000000000006
 20
12.57299999999995
 30
0.0
 11
-63.99999999999997
 21
-12.57300000000005
 31
0.0
  0
SOLID
  5
E0
330
DA
100
AcDbEntity
  8
치수문자_일반주서
 62
     0
100
AcDbTrace
 10
-63.44966666666672
 20
12.57299999999995
 30
0.0
 11
-64.55033333333338
 21
12.57299999999995
 31
0.0
 12
-64.00000000000007
 22
15.87499999999995
 32
0.0
 13
-64.00000000000007
 23
15.87499999999995
 33
0.0
  0
SOLID
  5
E1
330
DA
100
AcDbEntity
  8
치수문자_일반주서
 62
     0
100
AcDbTrace
 10
-64.5503333333333
 20
-12.57300000000006
 30
0.0
 11
-63.44966666666664
 21
-12.57300000000005
 31
0.0
 12
-63.99999999999996
 22
-15.87500000000005
 32
0.0
 13
-63.99999999999996
 23
-15.87500000000005
 33
0.0
  0
MTEXT
  5
E2
330
DA
100
AcDbEntity
  8
치수문자_일반주서
 62
     0
100
AcDbMText
 10
-68.37500000000001
 20
-0.0000000000000082
 30
0.0
 40
3.5
 41
0.0
 71
     2
 72
     1
  1
\A1;%%c31.75 [1 1/4]
  7
SLDTEXTSTYLE0
 11
-3.580687802255623E-15
 21
1.0
 31
0.0
 73
     1
 44
1.0
  0
POINT
  5
E3
330
DA
100
AcDbEntity
  8
Defpoints
 62
     0
100
AcDbPoint
 10
-50.5
 20
15.875
 30
0.0
  0
POINT
  5
E4
330
DA
100
AcDbEntity
  8
Defpoints
 62
     0
100
AcDbPoint
 10
-50.5
 20
-15.875
 30
0.0
  0
POINT
  5
E5
330
DA
100
AcDbEntity
  8
Defpoints
 62
     0
100
AcDbPoint
 10
-63.99999999999996
 20
-15.87500000000005
 30
0.0
  0
ENDBLK
  5
DC
330
DA
100
AcDbEntity
  8
0
100
AcDbBlockEnd
  0
BLOCK
  5
EE
330
ED
100
AcDbEntity
  8
0
100
AcDbBlockBegin
  2
_D_1
 70
     0
 10
0.0
 20
0.0
 30
0.0
  3
_D_1
  1
_D_1
  0
LINE
  5
F0
330
ED
100
AcDbEntity
  8
치수문자_일반주서
 62
     0
370
    -2
100
AcDbLine
 10
113.6
 20
15.93750000000001
 30
0.0
 11
113.6
 21
29.03792442259352
 31
0.0
  0
LINE
  5
F1
330
ED
100
AcDbEntity
  8
치수문자_일반주서
 62
     0
370
    -2
100
AcDbLine
 10
12.0
 20
10.50940911772883
 30
0.0
 11
12.0
 21
29.03792442259352
 31
0.0
  0
LINE
  5
F2
330
ED
100
AcDbEntity
  8
치수문자_일반주서
 62
     0
370
    -2
100
AcDbLine
 10
110.298
 20
29.03792442259352
 30
0.0
 11
15.302
 21
29.03792442259352
 31
0.0
  0
SOLID
  5
F3
330
ED
100
AcDbEntity
  8
치수문자_일반주서
 62
     0
100
AcDbTrace
 10
110.298
 20
28.48759108926019
 30
0.0
 11
110.298
 21
29.58825775592686
 31
0.0
 12
113.6
 22
29.03792442259352
 32
0.0
 13
113.6
 23
29.03792442259352
 33
0.0
  0
SOLID
  5
F4
330
ED
100
AcDbEntity
  8
치수문자_일반주서
 62
     0
100
AcDbTrace
 10
15.302
 20
29.58825775592686
 30
0.0
 11
15.302
 21
28.48759108926019
 31
0.0
 12
12.0
 22
29.03792442259352
 32
0.0
 13
12.0
 23
29.03792442259352
 33
0.0
  0
MTEXT
  5
F5
330
ED
100
AcDbEntity
  8
치수문자_일반주서
 62
     0
100
AcDbMText
 10
62.80000000000001
 20
33.41292442259352
 30
0.0
 40
3.5
 41
0.0
 71
     2
 72
     1
  1
\A1;101.6 [4]
  7
SLDTEXTSTYLE0
 73
     1
 44
1.0
  0
POINT
  5
F6
330
ED
100
AcDbEntity
  8
Defpoints
 62
     0
100
AcDbPoint
 10
113.6
 20
15.87500000000001
 30
0.0
  0
POINT
  5
F7
330
ED
100
AcDbEntity
  8
Defpoints
 62
     0
100
AcDbPoint
 10
12.0
 20
10.44690911772883
 30
0.0
  0
POINT
  5
F8
330
ED
100
AcDbEntity
  8
Defpoints
 62
     0
100
AcDbPoint
 10
12.0
 20
29.03792442259352
 30
0.0
  0
ENDBLK
  5
EF
330
ED
100
AcDbEntity
  8
0
100
AcDbBlockEnd
  0
BLOCK
  5
102
330
101
100
AcDbEntity
  8
0
100
AcDbBlockBegin
  2
_D_2
 70
     0
 10
0.0
 20
0.0
 30
0.0
  3
_D_2
  1
_D_2
  0
LINE
  5
104
330
101
100
AcDbEntity
  8
치수문자_일반주서
 62
     0
370
    -2
100
AcDbLine
 10
113.6
 20
15.93750000000002
 30
0.0
 11
113.6
 21
45.58996586444053
 31
0.0
  0
LINE
  5
105
330
101
100
AcDbEntity
  8
치수문자_일반주서
 62
     0
370
    -2
100
AcDbLine
 10
-51.50000000000001
 20
14.93749999999998
 30
0.0
 11
-51.50000000000003
 21
45.58996586444053
 31
0.0
  0
LINE
  5
106
330
101
100
AcDbEntity
  8
치수문자_일반주서
 62
     0
370
    -2
100
AcDbLine
 10
110.298
 20
45.58996586444053
 30
0.0
 11
-48.19800000000003
 21
45.58996586444053
 31
0.0
  0
SOLID
  5
107
330
101
100
AcDbEntity
  8
치수문자_일반주서
 62
     0
100
AcDbTrace
 10
110.298
 20
45.03963253110719
 30
0.0
 11
110.298
 21
46.14029919777386
 31
0.0
 12
113.6
 22
45.58996586444053
 32
0.0
 13
113.6
 23
45.58996586444053
 33
0.0
  0
SOLID
  5
108
330
101
100
AcDbEntity
  8
치수문자_일반주서
 62
     0
100
AcDbTrace
 10
-48.19800000000003
 20
46.14029919777386
 30
0.0
 11
-48.19800000000003
 21
45.03963253110719
 31
0.0
 12
-51.50000000000003
 22
45.58996586444053
 32
0.0
 13
-51.50000000000003
 23
45.58996586444053
 33
0.0
  0
MTEXT
  5
109
330
101
100
AcDbEntity
  8
치수문자_일반주서
 62
     0
100
AcDbMText
 10
31.04999999999999
 20
49.96496586444053
 30
0.0
 40
3.5
 41
0.0
 71
     2
 72
     1
  1
\A1;165.1 [6 1/2]
  7
SLDTEXTSTYLE0
 73
     1
 44
1.0
  0
POINT
  5
10A
330
101
100
AcDbEntity
  8
Defpoints
 62
     0
100
AcDbPoint
 10
113.6
 20
15.87500000000002
 30
0.0
  0
POINT
  5
10B
330
101
100
AcDbEntity
  8
Defpoints
 62
     0
100
AcDbPoint
 10
-51.50000000000001
 20
14.87499999999998
 30
0.0
  0
POINT
  5
10C
330
101
100
AcDbEntity
  8
Defpoints
 62
     0
100
AcDbPoint
 10
-51.50000000000001
 20
45.58996586444053
 30
0.0
  0
ENDBLK
  5
103
330
101
100
AcDbEntity
  8
0
100
AcDbBlockEnd
  0
BLOCK
  5
115
330
114
100
AcDbEntity
  8
0
100
AcDbBlockBegin
  2
_D_3
 70
     0
 10
0.0
 20
0.0
 30
0.0
  3
_D_3
  1
_D_3
  0
LINE
  5
117
330
114
100
AcDbEntity
  8
치수문자_일반주서
 62
     0
370
    -2
100
AcDbLine
 10
113.6625
 20
-15.87499999999999
 30
0.0
 11
135.1946649250567
 21
-15.8749999999999
 31
0.0
  0
LINE
  5
118
330
114
100
AcDbEntity
  8
치수문자_일반주서
 62
     0
370
    -2
100
AcDbLine
 10
113.6625
 20
15.87500000000001
 30
0.0
 11
135.1946649250565
 21
15.8750000000001
 31
0.0
  0
LINE
  5
119
330
114
100
AcDbEntity
  8
치수문자_일반주서
 62
     0
370
    -2
100
AcDbLine
 10
135.1946649250565
 20
15.8750000000001
 30
0.0
 11
135.1946649250564
 21
55.56110606377223
 31
0.0
  0
LINE
  5
11A
330
114
100
AcDbEntity
  8
치수문자_일반주서
 62
     0
370
    -2
100
AcDbLine
 10
135.1946649250567
 20
-12.5729999999999
 30
0.0
 11
135.1946649250565
 21
12.5730000000001
 31
0.0
  0
SOLID
  5
11B
330
114
100
AcDbEntity
  8
치수문자_일반주서
 62
     0
100
AcDbTrace
 10
134.6443315917233
 20
-12.5729999999999
 30
0.0
 11
135.74499825839
 21
-12.5729999999999
 31
0.0
 12
135.1946649250567
 22
-15.8749999999999
 32
0.0
 13
135.1946649250567
 23
-15.8749999999999
 33
0.0
  0
SOLID
  5
11C
330
114
100
AcDbEntity
  8
치수문자_일반주서
 62
     0
100
AcDbTrace
 10
135.7449982583899
 20
12.5730000000001
 30
0.0
 11
134.6443315917232
 21
12.57300000000009
 31
0.0
 12
135.1946649250565
 22
15.8750000000001
 32
0.0
 13
135.1946649250565
 23
15.8750000000001
 33
0.0
  0
MTEXT
  5
11D
330
114
100
AcDbEntity
  8
치수문자_일반주서
 62
     0
100
AcDbMText
 10
130.8196649250565
 20
39.81110606377221
 30
0.0
 40
3.5
 41
0.0
 71
     2
 72
     1
  1
\A1;%%c31.75 [1 1/4]
  7
SLDTEXTSTYLE0
 11
-3.580687802255624E-15
 21
1.0
 31
0.0
 73
     1
 44
1.0
  0
POINT
  5
11E
330
114
100
AcDbEntity
  8
Defpoints
 62
     0
100
AcDbPoint
 10
113.6
 20
-15.87499999999999
 30
0.0
  0
POINT
  5
11F
330
114
100
AcDbEntity
  8
Defpoints
 62
     0
100
AcDbPoint
 10
113.6
 20
15.87500000000001
 30
0.0
  0
POINT
  5
120
330
114
100
AcDbEntity
  8
Defpoints
 62
     0
100
AcDbPoint
 10
135.1946649250565
 20
15.87500000000009
 30
0.0
  0
ENDBLK
  5
116
330
114
100
AcDbEntity
  8
0
100
AcDbBlockEnd
  0
BLOCK
  5
12E
330
12D
100
AcDbEntity
  8
0
100
AcDbBlockBegin
  2
SW_DOWELSYMBOL_0
 70
     0
 10
0.0
 20
0.0
 30
0.0
  3
SW_DOWELSYMBOL_0
  1
SW_DOWELSYMBOL_0
  0
CIRCLE
  5
130
330
12D
100
AcDbEntity
  8
해칭선
 62
     0
100
AcDbCircle
 10
0.0
 20
0.0
 30
0.0
 40
2.999999999999996
  0
HATCH
  5
131
330
12D
100
AcDbEntity
  8
0
  6
Continuous
 62
     0
370
     0
100
AcDbHatch
 10
0.0
 20
0.0
 30
0.0
210
0.0
220
0.0
230
1.0
  2
SOLID
 70
     1
 71
     0
 91
        1
 92
        0
 93
        3
 72
     2
 10
0.0
 20
0.0
 40
2.999999999999996
 50
0.0
 51
90.0
 73
     1
 72
     1
 10
0.0
 20
2.999999999999996
 11
0.0
 21
0.0
 72
     1
 10
0.0
 20
0.0
 11
2.999999999999996
 21
0.0
 97
        0
 75
     0
 76
     1
 98
        1
 10
0.0
 20
0.0
  0
HATCH
  5
132
330
12D
100
AcDbEntity
  8
0
  6
Continuous
 62
     0
370
     0
100
AcDbHatch
 10
0.0
 20
0.0
 30
0.0
210
0.0
220
0.0
230
1.0
  2
SOLID
 70
     1
 71
     0
 91
        1
 92
        0
 93
        3
 72
     2
 10
0.0
 20
0.0
 40
2.999999999999996
 50
180.0
 51
270.0000000000007
 73
     1
 72
     1
 10
0.0
 20
-2.999999999999996
 11
0.0
 21
0.0
 72
     1
 10
0.0
 20
0.0
 11
-2.999999999999996
 21
0.0
 97
        0
 75
     0
 76
     1
 98
        1
 10
0.0
 20
0.0
  0
ENDBLK
  5
12F
330
12D
100
AcDbEntity
  8
0
100
AcDbBlockEnd
  0
ENDSEC
  0
SECTION
  2
ENTITIES
  0
LINE
  5
96
330
1F
100
AcDbEntity
  8
외형선
  6
Continuous
370
    15
100
AcDbLine
 10
8.95011932913463
 20
15.875
 30
0.0
 11
-13.58732499999999
 21
15.875
 31
0.0
  0
LINE
  5
97
330
1F
100
AcDbEntity
  8
외형선
  6
Continuous
370
    15
100
AcDbLine
 10
-50.5
 20
-15.87500000000001
 30
0.0
 11
8.95011932913463
 21
-15.875
 31
0.0
  0
LINE
  5
99
330
1F
100
AcDbEntity
  8
외형선
  6
Continuous
370
    15
100
AcDbLine
 10
-51.50000000000001
 20
-14.875
 30
0.0
 11
-50.5
 21
-15.875
 31
0.0
  0
SPLINE
  5
9A
330
1F
100
AcDbEntity
  8
외형선
  6
Continuous
370
    15
100
AcDbSpline
210
0.0
220
0.0
230
1.0
 70
     8
 71
     3
 72
     9
 73
     5
 74
     0
 42
0.000000001
 43
0.00000001
 40
0.0
 40
0.0
 40
0.0
 40
0.0
 40
0.5594521943692836
 40
1.0
 40
1.0
 40
1.0
 40
1.0
 10
11.99999999999998
 20
10.44690899929817
 30
0.0
 10
11.42538594929854
 20
10.44847674168608
 30
0.0
 10
10.39828469474138
 20
10.4512790229242
 30
0.0
 10
9.393017634784965
 20
10.47546860574187
 30
0.0
 10
8.950149437448326
 20
10.48612527337132
 30
0.0
  0
LINE
  5
9B
330
1F
100
AcDbEntity
  8
0
  6
Continuous
 62
     1
370
    15
100
AcDbLine
 10
63.63586946018734
 20
4.50064171489431
 30
0.0
 11
63.52069299729372
 21
4.564072034349633
 31
0.0
  0
SPLINE
  5
9C
330
1F
100
AcDbEntity
  8
0
  6
Continuous
 62
     1
370
    15
100
AcDbSpline
210
0.0
220
0.0
230
1.0
 70
     8
 71
     3
 72
    11
 73
     7
 74
     0
 42
0.000000001
 43
0.00000001
 40
0.0
 40
0.0
 40
0.0
 40
0.0
 40
0.3262442457107757
 40
0.4838624831123856
 40
0.6443296508774224
 40
1.0
 40
1.0
 40
1.0
 40
1.0
 10
72.47129491955606
 20
4.067957594679558
 30
0.0
 10
71.98763309173788
 20
4.297020593972371
 30
0.0
 10
71.270299940053
 20
4.636750698285841
 30
0.0
 10
70.33638721284238
 20
5.100738673369769
 30
0.0
 10
69.35962223214123
 20
5.593334770996107
 30
0.0
 10
68.59484707252994
 20
5.994324056503817
 30
0.0
 10
68.06784053043731
 20
6.270645762453349
 30
0.0
  0
LINE
  5
9D
330
1F
100
AcDbEntity
  8
0
  6
Continuous
 62
     1
370
    15
100
AcDbLine
 10
36.04204383208894
 20
15.875
 30
0.0
 11
28.3494937174267
 21
15.875
 31
0.0
  0
SPLINE
  5
9E
330
1F
100
AcDbEntity
  8
0
  6
Continuous
 62
     1
370
    15
100
AcDbSpline
210
0.0
220
0.0
230
1.0
 70
     8
 71
     3
 72
    22
 73
    18
 74
     0
 42
0.000000001
 43
0.00000001
 40
0.0
 40
0.0
 40
0.0
 40
0.0
 40
0.0628033001789517
 40
0.1260062813053238
 40
0.2018186706276137
 40
0.2686261369453825
 40
0.3234281325247743
 40
0.3772527990811307
 40
0.444890862316888
 40
0.5368388442834916
 40
0.6318165612211648
 40
0.7166038691475559
 40
0.7838682403377218
 40
0.8428689765392366
 40
0.8994327421540168
 40
0.9537007333710882
 40
1.0
 40
1.0
 40
1.0
 40
1.0
 10
67.22299641579943
 20
12.61488962474531
 30
0.0
 10
66.9989778387807
 20
12.60205708003748
 30
0.0
 10
66.54951502786142
 20
12.57631032415507
 30
0.0
 10
65.65028545645926
 20
12.53256056095598
 30
0.0
 10
64.74411508457362
 20
12.50160277305616
 30
0.0
 10
63.86557696162805
 20
12.47142320426957
 30
0.0
 10
63.10096298359713
 20
12.44948749980868
 30
0.0
 10
62.33811883125814
 20
12.4311006381034
 30
0.0
 10
61.40734079706289
 20
12.41351893828305
 30
0.0
 10
60.29872345534054
 20
12.40037637963793
 30
0.0
 10
59.11488347196384
 20
12.39600669965278
 30
0.0
 10
58.03915195214903
 20
12.40047658872733
 30
0.0
 10
57.12045014552176
 20
12.41045322216363
 30
0.0
 10
56.32422961673123
 20
12.42341840618441
 30
0.0
 10
55.58588647089883
 20
12.43934382386037
 30
0.0
 10
54.89884638724035
 20
12.45672642838332
 30
0.0
 10
54.46922832697285
 20
12.47110370726742
 30
0.0
 10
54.27144028395608
 20
12.47772273499782
 30
0.0
  0
SPLINE
  5
9F
330
1F
100
AcDbEntity
  8
0
  6
Continuous
 62
     1
370
    15
100
AcDbSpline
210
0.0
220
0.0
230
1.0
 70
     8
 71
     3
 72
    30
 73
    26
 74
     0
 42
0.000000001
 43
0.00000001
 40
0.0
 40
0.0
 40
0.0
 40
0.0
 40
0.0416710488227508
 40
0.0799073052813222
 40
0.1155061658749952
 40
0.1494321462182231
 40
0.2270234009617713
 40
0.2963695998107856
 40
0.3609921681075105
 40
0.4253361333428985
 40
0.4852844280605597
 40
0.5170328091256103
 40
0.5502484163859015
 40
0.5850664523713572
 40
0.6272471760292684
 40
0.6805789811305485
 40
0.7416338386837966
 40
0.7786256464445233
 40
0.8068977793918212
 40
0.83292778689242
 40
0.8609136977907389
 40
0.8946394702988796
 40
0.9319952412504412
 40
0.966105473210522
 40
0.9999999999999999
 40
0.9999999999999999
 40
0.9999999999999999
 40
0.9999999999999999
 10
43.3481971287946
 20
-13.21019957266712
 30
0.0
 10
43.63383877116203
 20
-13.18085110287263
 30
0.0
 10
44.18157765853198
 20
-13.12457325046284
 30
0.0
 10
45.04556338106502
 20
-13.03514867174344
 30
0.0
 10
45.89807187713029
 20
-12.95596116784278
 30
0.0
 10
47.10634579889803
 20
-12.86138697645634
 30
0.0
 10
48.57424220525083
 20
-12.76599592165005
 30
0.0
 10
50.30521161203454
 20
-12.65261491959831
 30
0.0
 10
51.94049779814553
 20
-12.56375374570113
 30
0.0
 10
53.40165696266003
 20
-12.50535544778251
 30
0.0
 10
54.63715042600703
 20
-12.46383796010349
 30
0.0
 10
55.64694076851565
 20
-12.43767848284726
 30
0.0
 10
56.45122831254911
 20
-12.42099680571271
 30
0.0
 10
57.34045408556644
 20
-12.40741144755988
 30
0.0
 10
58.39174214185576
 20
-12.39790823032122
 30
0.0
 10
59.65517975350782
 20
-12.3962940880676
 30
0.0
 10
60.87763600704703
 20
-12.40604186371785
 30
0.0
 10
61.89653781019081
 20
-12.42228348716889
 30
0.0
 10
62.63442955146841
 20
-12.43796301997579
 30
0.0
 10
63.29069815681483
 20
-12.45466989792204
 30
0.0
 10
64.00642151721472
 20
-12.47606934584495
 30
0.0
 10
64.82058593041373
 20
-12.5042804728122
 30
0.0
 10
65.67979230748762
 20
-12.53393499296524
 30
0.0
 10
66.54948669996321
 20
-12.57632354166429
 30
0.0
 10
66.99896841613658
 20
-12.60206147654741
 30
0.0
 10
67.22299641579943
 20
-12.61488962474532
 30
0.0
  0
SPLINE
  5
A0
330
1F
100
AcDbEntity
  8
0
  6
Continuous
 62
     1
370
    15
100
AcDbSpline
210
0.0
220
0.0
230
1.0
 70
     8
 71
     3
 72
    36
 73
    32
 74
     0
 42
0.000000001
 43
0.00000001
 40
0.0
 40
0.0
 40
0.0
 40
0.0
 40
0.0409083440664494
 40
0.0738013865831608
 40
0.1023077125136412
 40
0.1300789020647927
 40
0.162405243497187
 40
0.1958496678072619
 40
0.2310787941716799
 40
0.2670852851462018
 40
0.2961029249527945
 40
0.3177449286204048
 40
0.3399560692320361
 40
0.3688138650720146
 40
0.398484537348611
 40
0.4223493971257692
 40
0.4439176625118088
 40
0.4792109183674844
 40
0.5179676813592041
 40
0.5506330726651105
 40
0.5900918274670608
 40
0.63742992313811
 40
0.6808087861968148
 40
0.7266154209999749
 40
0.7751675273603702
 40
0.824719184465463
 40
0.8462382453865612
 40
0.8704176073166501
 40
0.9040134262430723
 40
0.9472450243351735
 40
1.0
 40
1.0
 40
1.0
 40
1.0
 10
107.7015882379219
 20
10.85774756331723
 30
0.0
 10
107.3755931289161
 20
10.82915920863409
 30
0.0
 10
106.7874761661549
 20
10.77758390623808
 30
0.0
 10
105.8309073662582
 20
10.70549047842238
 30
0.0
 10
104.9723799214148
 20
10.65434991030135
 30
0.0
 10
104.1301429482933
 20
10.60537766848371
 30
0.0
 10
103.3557144024451
 20
10.56226566117233
 30
0.0
 10
102.4503502492612
 20
10.51859477589939
 30
0.0
 10
101.4507169400002
 20
10.4875807072961
 30
0.0
 10
100.4898213578773
 20
10.46835426906411
 30
0.0
 10
99.65843215566835
 20
10.45528123375427
 30
0.0
 10
98.97433235121495
 20
10.44871602980634
 30
0.0
 10
98.30254778146156
 20
10.44604469178776
 30
0.0
 10
97.54980489664801
 20
10.44800716058772
 30
0.0
 10
96.78334225477354
 20
10.45583400487724
 30
0.0
 10
96.09036102857036
 20
10.46771605731268
 30
0.0
 10
95.34946682050582
 20
10.48460732999905
 30
0.0
 10
94.45602036314786
 20
10.5115893984008
 30
0.0
 10
93.45750007659565
 20
10.55127501797423
 30
0.0
 10
92.42656312248283
 20
10.60163333415387
 30
0.0
 10
91.31766644760832
 20
10.66608563593356
 30
0.0
 10
90.10786252135257
 20
10.7493524261621
 30
0.0
 10
88.84085535624361
 20
10.85066016317251
 30
0.0
 10
87.56054531742659
 20
10.96725054987742
 30
0.0
 10
86.22480619021363
 20
11.10392330952766
 30
0.0
 10
85.11339280511413
 20
11.23013021857576
 30
0.0
 10
84.22316893080416
 20
11.33856522771642
 30
0.0
 10
83.48307831467804
 20
11.43263133210186
 30
0.0
 10
82.54643173502944
 20
11.55809133671725
 30
0.0
 10
81.34564589608073
 20
11.72762625713593
 30
0.0
 10
80.4564369916186
 20
11.86476831749821
 30
0.0
 10
79.96772078601008
 20
11.94014267220075
 30
0.0
  0
SPLINE
  5
A1
330
1F
100
AcDbEntity
  8
0
  6
Continuous
 62
     1
370
    15
100
AcDbSpline
210
0.0
220
0.0
230
1.0
 70
     8
 71
     3
 72
    21
 73
    17
 74
     0
 42
0.000000001
 43
0.00000001
 40
0.0
 40
0.0
 40
0.0
 40
0.0
 40
0.1203455345989421
 40
0.21413741326966
 40
0.2817719921197231
 40
0.3361258921342921
 40
0.3874438683040714
 40
0.4363083121579556
 40
0.5181310623947442
 40
0.6084655663440214
 40
0.6850264121214538
 40
0.7400383372370162
 40
0.8080240107990062
 40
0.8884987415470063
 40
0.9556350085694271
 40
1.0
 40
1.0
 40
1.0
 40
1.0
 10
79.96772078601008
 20
-11.94014267220076
 30
0.0
 10
80.4319299970114
 20
-11.86833181078571
 30
0.0
 10
81.25792291807022
 20
-11.74055480468965
 30
0.0
 10
82.36306888182953
 20
-11.58279077667015
 30
0.0
 10
83.23282596714006
 20
-11.46580244767974
 30
0.0
 10
83.93379208455524
 20
-11.37496246586695
 30
0.0
 10
84.55411993854081
 20
-11.29763591439368
 30
0.0
 10
85.26353100386524
 20
-11.21321591963767
 30
0.0
 10
86.12570520063879
 20
-11.11579910859083
 30
0.0
 10
87.10911741710639
 20
-11.01292389892481
 30
0.0
 10
87.9853044538703
 20
-10.92845942515482
 30
0.0
 10
88.77430320048154
 20
-10.85788897169354
 30
0.0
 10
89.57840120708124
 20
-10.79111883146804
 30
0.0
 10
90.43004679536409
 20
-10.72719456505634
 30
0.0
 10
91.18850284265626
 20
-10.67558648912254
 30
0.0
 10
91.6292462317329
 20
-10.64913810078488
 30
0.0
 10
91.80461265315952
 20
-10.63861460949669
 30
0.0
  0
SPLINE
  5
A2
330
1F
100
AcDbEntity
  8
0
  6
Continuous
 62
     1
370
    15
100
AcDbSpline
210
0.0
220
0.0
230
1.0
 70
     8
 71
     3
 72
    16
 73
    12
 74
     0
 42
0.000000001
 43
0.00000001
 40
0.0
 40
0.0
 40
0.0
 40
0.0
 40
0.1200918545680614
 40
0.2355003737074431
 40
0.3535349923952396
 40
0.4635840534306492
 40
0.543557597564422
 40
0.6116895351752677
 40
0.6952111795736773
 40
0.8244145960109475
 40
1.0
 40
1.0
 40
1.0
 40
1.0
 10
21.31937024313835
 20
10.85774556249804
 30
0.0
 10
21.01170367382987
 20
10.82981981093469
 30
0.0
 10
20.4083688988775
 20
10.77505735470578
 30
0.0
 10
19.24361477826748
 20
10.69150042752331
 30
0.0
 10
18.13557523284118
 20
10.6275335731089
 30
0.0
 10
17.14494592015122
 20
10.57453004908044
 30
0.0
 10
16.33752682303891
 20
10.53887983333419
 30
0.0
 10
15.60959392287549
 20
10.5111196700002
 30
0.0
 10
14.7278586887044
 20
10.48349224222706
 30
0.0
 10
13.5082266987336
 20
10.45534010404787
 30
0.0
 10
12.55128393811407
 20
10.44999071946197
 30
0.0
 10
11.99999999999994
 20
10.44690899929817
 30
0.0
  0
LINE
  5
A3
330
1F
100
AcDbEntity
  8
0
  6
Continuous
 62
     1
370
    15
100
AcDbLine
 10
28.34949371742662
 20
-15.87500000000001
 30
0.0
 11
36.04204383208902
 21
-15.87500000000001
 31
0.0
  0
SPLINE
  5
A4
330
1F
100
AcDbEntity
  8
외형선
  6
Continuous
370
    15
100
AcDbSpline
210
0.0
220
0.0
230
1.0
 70
     8
 71
     3
 72
    10
 73
     6
 74
     0
 42
0.000000001
 43
0.00000001
 40
0.0
 40
0.0
 40
0.0
 40
0.0
 40
0.5
 40
0.5
 40
1.0
 40
1.0
 40
1.0
 40
1.0
 10
12.0
 20
13.15075079977552
 30
0.0
 10
11.49066828598485
 20
12.98620081706929
 30
0.0
 10
10.98141503048388
 20
12.81489951454546
 30
0.0
 10
9.965413272892306
 20
12.45961941050483
 30
0.0
 10
9.458767836637024
 20
12.27566533739979
 30
0.0
 10
8.950119329134633
 20
12.08526690112517
 30
0.0
  0
SPLINE
  5
A5
330
1F
100
AcDbEntity
  8
외형선
  6
Continuous
370
    15
100
AcDbSpline
210
0.0
220
0.0
230
1.0
 70
     8
 71
     3
 72
    10
 73
     6
 74
     0
 42
0.000000001
 43
0.00000001
 40
0.0
 40
0.0
 40
0.0
 40
0.0
 40
0.5
 40
0.5
 40
1.0
 40
1.0
 40
1.0
 40
1.0
 10
12.0
 20
-10.18337344786352
 30
0.0
 10
11.49068913974848
 20
-9.958023863083795
 30
0.0
 10
10.98145673150435
 20
-9.727451887145495
 30
0.0
 10
9.965496367532783
 20
-9.256953529521807
 30
0.0
 10
9.458871818307808
 20
-9.01705258811326
 30
0.0
 10
8.95024428386157
 20
-8.772334400572117
 30
0.0
  0
LINE
  5
A6
330
1F
100
AcDbEntity
  8
외형선
  6
Continuous
370
    15
100
AcDbLine
 10
11.99999999999999
 20
-10.18337344786352
 30
0.0
 11
12.0
 21
-13.15075079977554
 31
0.0
  0
SPLINE
  5
A7
330
1F
100
AcDbEntity
  8
외형선
  6
Continuous
370
    15
100
AcDbSpline
210
0.0
220
0.0
230
1.0
 70
     8
 71
     3
 72
    10
 73
     6
 74
     0
 42
0.000000001
 43
0.00000001
 40
0.0
 40
0.0
 40
0.0
 40
0.0
 40
0.5
 40
0.5
 40
1.0
 40
1.0
 40
1.0
 40
1.0
 10
12.0
 20
-13.15075079977552
 30
0.0
 10
11.49066828598485
 20
-12.98620081706929
 30
0.0
 10
10.98141503048388
 20
-12.81489951454547
 30
0.0
 10
9.965413272892306
 20
-12.45961941050483
 30
0.0
 10
9.458767836637024
 20
-12.2756653373998
 30
0.0
 10
8.950119329134633
 20
-12.08526690112518
 30
0.0
  0
LINE
  5
A8
330
1F
100
AcDbEntity
  8
외형선
  6
Continuous
370
    15
100
AcDbLine
 10
8.95011932913463
 20
-15.875
 30
0.0
 11
8.950119329134633
 21
-12.085263263633
 31
0.0
  0
LINE
  5
A9
330
1F
100
AcDbEntity
  8
외형선
  6
Continuous
370
    15
100
AcDbLine
 10
-50.5
 20
13.4874
 30
0.0
 11
-50.5
 21
-15.87500000000001
 31
0.0
  0
LINE
  5
AA
330
1F
100
AcDbEntity
  8
외형선
  6
Continuous
370
    15
100
AcDbLine
 10
8.95011932913463
 20
-8.771767345168685
 30
0.0
 11
8.95011932913463
 21
15.875
 31
0.0
  0
LINE
  5
AB
330
1F
100
AcDbEntity
  8
외형선
  6
Continuous
370
    15
100
AcDbLine
 10
-51.50000000000001
 20
13.4874
 30
0.0
 11
-51.50000000000001
 21
-14.87499999999997
 31
0.0
  0
SPLINE
  5
AC
330
1F
100
AcDbEntity
  8
외형선
  6
Continuous
370
    15
100
AcDbSpline
210
0.0
220
0.0
230
1.0
 70
    24
 71
     3
 72
    14
 73
    10
 74
     0
 42
0.000000001
 43
0.00000001
 40
0.0
 40
0.0
 40
0.0
 40
0.0
 40
0.2499999999999998
 40
0.2499999999999998
 40
0.4999999999999999
 40
0.4999999999999999
 40
0.75
 40
0.75
 40
1.0
 40
1.0
 40
1.0
 40
1.0
 10
12.0
 20
6.675390866676769
 30
0.0
 10
12.0
 20
5.566453397552125
 30
0.0
 10
12.0
 20
4.376014209468289
 30
0.0
 10
12.0
 20
1.902009888153133
 30
0.0
 10
12.0
 20
0.619011329291949
 30
0.0
 10
12.0
 20
-1.948710842963483
 30
0.0
 10
12.0
 20
-3.232692976140415
 30
0.0
 10
12.0
 20
-5.710493099223131
 30
0.0
 10
12.0
 20
-6.903741525785873
 30
0.0
 10
12.0
 20
-8.016215251022388
 30
0.0
  0
SPLINE
  5
AD
330
1F
100
AcDbEntity
  8
외형선
  6
Continuous
370
    15
100
AcDbSpline
210
0.0
220
0.0
230
1.0
 70
     8
 71
     3
 72
    10
 73
     6
 74
     0
 42
0.000000001
 43
0.00000001
 40
0.0
 40
0.0
 40
0.0
 40
0.0
 40
0.5
 40
0.5
 40
1.0
 40
1.0
 40
1.0
 40
1.0
 10
11.99999999999998
 20
-8.016215251022384
 30
0.0
 10
11.49068913974846
 20
-7.815362706954962
 30
0.0
 10
10.98145673150435
 20
-7.610400390812531
 30
0.0
 10
9.965496367532786
 20
-7.193222702747558
 30
0.0
 10
9.458871818307804
 20
-6.981028857000018
 30
0.0
 10
8.95024428386157
 20
-6.765084287500199
 30
0.0
  0
SPLINE
  5
AE
330
1F
100
AcDbEntity
  8
외형선
  6
Continuous
370
    15
100
AcDbSpline
210
0.0
220
0.0
230
1.0
 70
     8
 71
     3
 72
    10
 73
     6
 74
     0
 42
0.000000001
 43
0.00000001
 40
0.0
 40
0.0
 40
0.0
 40
0.0
 40
0.5
 40
0.5
 40
1.0
 40
1.0
 40
1.0
 40
1.0
 10
11.99999999999998
 20
6.675390866676777
 30
0.0
 10
11.49067590175095
 20
6.875315300192866
 30
0.0
 10
10.98143025963979
 20
7.071798037649118
 30
0.0
 10
9.965443618939103
 20
7.456992101082887
 30
0.0
 10
9.4588058106064
 20
7.645697905006673
 30
0.0
 10
8.95016496243517
 20
7.830632995206484
 30
0.0
  0
SPLINE
  5
AF
330
1F
100
AcDbEntity
  8
외형선
  6
Continuous
370
    15
100
AcDbSpline
210
0.0
220
0.0
230
1.0
 70
    24
 71
     3
 72
     8
 73
     4
 74
     0
 42
0.000000001
 43
0.00000001
 40
0.0
 40
0.0
 40
0.0
 40
0.0
 40
1.0
 40
1.0
 40
1.0
 40
1.0
 10
12.0
 20
-8.016215251022391
 30
0.0
 10
12.0
 20
-8.69947557776403
 30
0.0
 10
12.0
 20
-9.42633082738062
 30
0.0
 10
12.0
 20
-10.18337344784908
 30
0.0
  0
SPLINE
  5
B0
330
1F
100
AcDbEntity
  8
외형선
  6
Continuous
370
    15
100
AcDbSpline
210
0.0
220
0.0
230
1.0
 70
    24
 71
     3
 72
    14
 73
    10
 74
     0
 42
0.000000001
 43
0.00000001
 40
0.0
 40
0.0
 40
0.0
 40
0.0
 40
0.1222138122922231
 40
0.2463214962775962
 40
0.3740347770017416
 40
0.501748057725887
 40
0.6676593767627812
 40
0.8340886809631057
 40
0.9999999999999999
 40
0.9999999999999999
 40
0.9999999999999999
 40
0.9999999999999999
 10
12.00000000000001
 20
10.44600059779495
 30
0.0
 10
12.00000000000001
 20
10.43516743052934
 30
0.0
 10
12.00000000000001
 20
10.41333322112009
 30
0.0
 10
12.00000000000001
 20
10.22724078467869
 30
0.0
 10
12.00000000000001
 20
9.92351029553646
 30
0.0
 10
12.00000000000001
 20
9.449159204168247
 30
0.0
 10
12.00000000000001
 20
8.759292600189198
 30
0.0
 10
12.00000000000001
 20
7.831367599412061
 30
0.0
 10
12.00000000000001
 20
7.06031585789448
 30
0.0
 10
12.00000000000001
 20
6.675390866676768
 30
0.0
  0
SPLINE
  5
B1
330
1F
100
AcDbEntity
  8
외형선
  6
Continuous
370
    15
100
AcDbSpline
210
0.0
220
0.0
230
1.0
 70
    24
 71
     3
 72
    11
 73
     7
 74
     0
 42
0.000000001
 43
0.00000001
 40
0.0
 40
0.0
 40
0.0
 40
0.0
 40
0.1326574913739822
 40
0.4804692355159488
 40
0.8282809796579148
 40
1.0
 40
1.0
 40
1.0
 40
1.0
 10
12.00000000000001
 20
13.15075079977552
 30
0.0
 10
12.00000000000001
 20
13.02163559851643
 30
0.0
 10
12.00000000000001
 20
12.55399610526268
 30
0.0
 10
12.00000000000001
 20
11.79310637669648
 30
0.0
 10
12.00000000000001
 20
11.04613641861123
 30
0.0
 10
12.00000000000001
 20
10.68278699775046
 30
0.0
 10
12.00000000000001
 20
10.5626901510237
 30
0.0
  0
SPLINE
  5
B2
330
1F
100
AcDbEntity
  8
0
  6
Continuous
 62
     1
370
    15
100
AcDbSpline
210
0.0
220
0.0
230
1.0
 70
     8
 71
     3
 72
    96
 73
    92
 74
     0
 42
0.000000001
 43
0.00000001
 40
0.0
 40
0.0
 40
0.0
 40
0.0
 40
0.0312500000000001
 40
0.0312500000000001
 40
0.0468750000000001
 40
0.0468750000000001
 40
0.0625000000000002
 40
0.0625000000000002
 40
0.0781250000000002
 40
0.0781250000000002
 40
0.0937500000000003
 40
0.0937500000000003
 40
0.1250000000000004
 40
0.1250000000000004
 40
0.1562500000000005
 40
0.1562500000000005
 40
0.1875000000000006
 40
0.1875000000000006
 40
0.2031250000000007
 40
0.2031250000000007
 40
0.2187500000000007
 40
0.2187500000000007
 40
0.2500000000000008
 40
0.2500000000000008
 40
0.2656250000000008
 40
0.2656250000000008
 40
0.2812500000000007
 40
0.2812500000000007
 40
0.3125000000000006
 40
0.3125000000000006
 40
0.3281250000000004
 40
0.3281250000000004
 40
0.3437500000000004
 40
0.3437500000000004
 40
0.3750000000000005
 40
0.3750000000000005
 40
0.3906250000000004
 40
0.3906250000000004
 40
0.4062500000000004
 40
0.4062500000000004
 40
0.4375000000000002
 40
0.4375000000000002
 40
0.46875
 40
0.46875
 40
0.4999999999999998
 40
0.4999999999999998
 40
0.5156249999999997
 40
0.5156249999999997
 40
0.5312499999999997
 40
0.5312499999999997
 40
0.5468749999999996
 40
0.5468749999999996
 40
0.5624999999999994
 40
0.5624999999999994
 40
0.5937499999999994
 40
0.5937499999999994
 40
0.6249999999999994
 40
0.6249999999999994
 40
0.6562499999999993
 40
0.6562499999999993
 40
0.6718749999999994
 40
0.6718749999999994
 40
0.6874999999999994
 40
0.6874999999999994
 40
0.7187499999999994
 40
0.7187499999999994
 40
0.7343749999999994
 40
0.7343749999999994
 40
0.7499999999999994
 40
0.7499999999999994
 40
0.7812499999999996
 40
0.7812499999999996
 40
0.7968749999999997
 40
0.7968749999999997
 40
0.8124999999999997
 40
0.8124999999999997
 40
0.8437499999999998
 40
0.8437499999999998
 40
0.8593749999999998
 40
0.8593749999999998
 40
0.8749999999999998
 40
0.8749999999999998
 40
0.9062499999999999
 40
0.9062499999999999
 40
0.9375
 40
0.9375
 40
0.96875
 40
0.96875
 40
0.9843750000000001
 40
0.9843750000000001
 40
1.0
 40
1.0
 40
1.0
 40
1.0
 10
113.6
 20
-15.87499999999999
 30
0.0
 10
112.5449307669663
 20
-15.83649194160042
 30
0.0
 10
111.4826650660722
 20
-15.7760514626941
 30
0.0
 10
109.8943439128557
 20
-15.633080648675
 30
0.0
 10
109.3669177220019
 20
-15.57677831458213
 30
0.0
 10
108.3100472923068
 20
-15.44688876601975
 30
0.0
 10
107.7801816553074
 20
-15.37326851329787
 30
0.0
 10
106.720233606203
 20
-15.20899511014803
 30
0.0
 10
106.1901526666671
 20
-15.11834218029761
 30
0.0
 10
105.1324246054768
 20
-14.92049221591378
 30
0.0
 10
104.6054270998062
 20
-14.81335429864986
 30
0.0
 10
103.0180343323371
 20
-14.46701412505444
 30
0.0
 10
101.9555264884739
 20
-14.20304478297625
 30
0.0
 10
99.84319756904185
 20
-13.61434239482922
 30
0.0
 10
98.78335913754312
 20
-13.2887235324834
 30
0.0
 10
96.66463763124524
 20
-12.57995009002687
 30
0.0
 10
95.61041458422756
 20
-12.1974072760834
 30
0.0
 10
94.02070162122153
 20
-11.58322877275909
 30
0.0
 10
93.49047512928803
 20
-11.37190086247324
 30
0.0
 10
92.43202787170792
 20
-10.93711438621243
 30
0.0
 10
91.904961412188
 20
-10.71382742821903
 30
0.0
 10
90.3187050333495
 20
-10.02579447387463
 30
0.0
 10
89.25609557295701
 20
-9.54300735085521
 30
0.0
 10
87.67041267135473
 20
-8.789909772025206
 30
0.0
 10
87.14315511096106
 20
-8.53407015949521
 30
0.0
 10
86.08443194720765
 20
-8.0125155184572
 30
0.0
 10
85.5541630660354
 20
-7.746988097146852
 30
0.0
 10
83.96461068438154
 20
-6.93813465935348
 30
0.0
 10
82.91048329991037
 20
-6.383233831354919
 30
0.0
 10
81.32118846653904
 20
-5.530059749182779
 30
0.0
 10
80.79088623628019
 20
-5.242337037095413
 30
0.0
 10
79.73185853203447
 20
-4.661670303081929
 30
0.0
 10
79.20422550975526
 20
-4.368930820140012
 30
0.0
 10
77.61931302542519
 20
-3.483561678765698
 30
0.0
 10
76.55674251989143
 20
-2.883136766447687
 30
0.0
 10
74.96983066149062
 20
-1.976195673504252
 30
0.0
 10
74.44286389432324
 20
-1.672999818744416
 30
0.0
 10
73.38479811076297
 20
-1.064297686854405
 30
0.0
 10
72.85464366653939
 20
-0.7589708094446518
 30
0.0
 10
71.26478898155607
 20
0.157650665644455
 30
0.0
 10
70.21032807870515
 20
0.7686924822647555
 30
0.0
 10
68.09210425470341
 20
1.986438113405733
 30
0.0
 10
67.03097321963777
 20
2.592621306321347
 30
0.0
 10
64.9198243247826
 20
3.788700546039344
 30
0.0
 10
63.85743332826397
 20
4.380921483065268
 30
0.0
 10
62.26950030556671
 20
5.251632150749058
 30
0.0
 10
61.74232667916461
 20
5.538724863068908
 30
0.0
 10
60.68505685861001
 20
6.10697569530062
 30
0.0
 10
60.15508663375792
 20
6.388104767541645
 30
0.0
 10
59.09512136228824
 20
6.942947855320122
 30
0.0
 10
58.56512778840705
 20
7.216661099585505
 30
0.0
 10
57.50776495983949
 20
7.755322587825915
 30
0.0
 10
56.98063782328401
 20
8.020238680394062
 30
0.0
 10
55.39280548172592
 20
8.802260383001002
 30
0.0
 10
54.33038822539598
 20
9.305771353938976
 30
0.0
 10
52.21900178130328
 20
10.26719114178242
 30
0.0
 10
51.15813397759383
 20
10.72691719746512
 30
0.0
 10
49.03980604736127
 20
11.59615169364935
 30
0.0
 10
47.98540205794409
 20
12.00532769432662
 30
0.0
 10
46.39557005049448
 20
12.57879196014428
 30
0.0
 10
45.86539982147222
 20
12.76307928521144
 30
0.0
 10
44.80725604284224
 20
13.11702107400866
 30
0.0
 10
44.28028179780063
 20
13.28658034368241
 30
0.0
 10
42.69349317793568
 20
13.77348163200235
 30
0.0
 10
41.63091165233841
 20
14.0685856589228
 30
0.0
 10
40.04584341437075
 20
14.46263396470477
 30
0.0
 10
39.5182958832977
 20
14.58596985414552
 30
0.0
 10
38.45932441014777
 20
14.81659624557683
 30
0.0
 10
37.92902701711024
 20
14.92379084630123
 30
0.0
 10
36.33967673972985
 20
15.22020102019406
 30
0.0
 10
35.28555972962549
 20
15.38409963103516
 30
0.0
 10
33.69605269309781
 20
15.57859335888561
 30
0.0
 10
33.16577559829086
 20
15.63480937105801
 30
0.0
 10
32.1069894865313
 20
15.72974436304974
 30
0.0
 10
31.57967048380931
 20
15.76844453791681
 30
0.0
 10
29.99413332423949
 20
15.85833247023805
 30
0.0
 10
28.9315280884059
 20
15.88316716948309
 30
0.0
 10
27.34513843224376
 20
15.86738369161202
 30
0.0
 10
26.81810350852922
 20
15.85332640322852
 30
0.0
 10
25.75972754220561
 20
15.80758398878555
 30
0.0
 10
25.22951346067713
 20
15.77589575299865
 30
0.0
 10
23.63976771362155
 20
15.65458145095252
 30
0.0
 10
22.58550849735968
 20
15.53888561176672
 30
0.0
 10
20.46687764818907
 20
15.2386562937094
 30
0.0
 10
19.40679659960314
 20
15.05421606127782
 30
0.0
 10
17.2946919226347
 20
14.6198992522137
 30
0.0
 10
16.2322035460841
 20
14.36926763975243
 30
0.0
 10
14.64470003587222
 20
13.94675386278653
 30
0.0
 10
14.11768009682984
 20
13.79829084280763
 30
0.0
 10
13.06003835585807
 20
13.48588012409047
 30
0.0
 10
12.52997739445877
 20
13.32197078999646
 30
0.0
 10
11.99999999999999
 20
13.15075079977552
 30
0.0
  0
SPLINE
  5
B3
330
1F
100
AcDbEntity
  8
0
  6
Continuous
 62
     1
370
    15
100
AcDbSpline
210
0.0
220
0.0
230
1.0
 70
     8
 71
     3
 72
    18
 73
    14
 74
     0
 42
0.000000001
 43
0.00000001
 40
0.0
 40
0.0
 40
0.0
 40
0.0
 40
0.0456350548946831
 40
0.1446753194979619
 40
0.2436842099513973
 40
0.3427275393468362
 40
0.4417921994527015
 40
0.5408522035008296
 40
0.6398815901150148
 40
0.7388951831286288
 40
0.8263908212583699
 40
0.9138899432099208
 40
1.0
 40
1.0
 40
1.0
 40
1.0
 10
74.14946706738559
 20
-1.500190201446311
 30
0.0
 10
73.34579580914041
 20
-1.180018990828761
 30
0.0
 10
70.79794314792899
 20
-0.1649906908290589
 30
0.0
 10
66.50655820885358
 20
1.582908572600951
 30
0.0
 10
61.27492994821561
 20
3.645764108560209
 30
0.0
 10
56.04253834198933
 20
5.579507682112586
 30
0.0
 10
50.80915561236515
 20
7.31106783329127
 30
0.0
 10
45.5760187201158
 20
8.778983049392087
 30
0.0
 10
40.34402313385209
 20
9.929478733945007
 30
0.0
 10
35.31570812384497
 20
10.69261570986717
 30
0.0
 10
30.49056447968028
 20
11.08218122265043
 30
0.0
 10
25.89259102609079
 20
11.16535309277886
 30
0.0
 10
22.83538347422269
 20
10.95809518800454
 30
0.0
 10
21.31901021666465
 20
10.85529538168285
 30
0.0
  0
SPLINE
  5
B4
330
1F
100
AcDbEntity
  8
외형선
  6
Continuous
370
    15
100
AcDbSpline
210
0.0
220
0.0
230
1.0
 70
    24
 71
     3
 72
    11
 73
     7
 74
     0
 42
0.000000001
 43
0.00000001
 40
0.0
 40
0.0
 40
0.0
 40
0.0
 40
0.1326574913739809
 40
0.4804692355159473
 40
0.8282809796579137
 40
1.0
 40
1.0
 40
1.0
 40
1.0
 10
12.0
 20
13.15075079977552
 30
0.0
 10
12.0
 20
13.02163559851643
 30
0.0
 10
12.00000000000001
 20
12.55399610526269
 30
0.0
 10
12.00000000000001
 20
11.79310637669648
 30
0.0
 10
12.00000000000001
 20
11.04613641861123
 30
0.0
 10
12.00000000000001
 20
10.68278699775046
 30
0.0
 10
12.00000000000001
 20
10.5626901510237
 30
0.0
  0
SPLINE
  5
B5
330
1F
100
AcDbEntity
  8
0
  6
Continuous
 62
     1
370
    15
100
AcDbSpline
210
0.0
220
0.0
230
1.0
 70
     8
 71
     3
 72
    25
 73
    21
 74
     0
 42
0.000000001
 43
0.00000001
 40
0.0
 40
0.0
 40
0.0
 40
0.0
 40
0.058679289075776
 40
0.1173607967692316
 40
0.1760442570694809
 40
0.2347294032935455
 40
0.2934159681776226
 40
0.3521036839687839
 40
0.4107922825170391
 40
0.4645881870008
 40
0.5183844035233974
 40
0.5721809994972061
 40
0.6259780422828779
 40
0.6797755991801805
 40
0.7335737374188515
 40
0.7873725241494755
 40
0.8411720264343807
 40
0.8949723112385666
 40
0.9487734454206534
 40
1.0
 40
1.0
 40
1.0
 40
1.0
 10
113.6
 20
-15.06443629905642
 30
0.0
 10
112.0829799427861
 20
-14.74830957017154
 30
0.0
 10
109.0488824710255
 20
-14.11604415989929
 30
0.0
 10
104.4976125838926
 20
-12.67139439061
 30
0.0
 10
99.9461630438303
 20
-10.90987070189818
 30
0.0
 10
95.39455859231438
 20
-8.842130361968934
 30
0.0
 10
90.84281219877991
 20
-6.534747887381092
 30
0.0
 10
86.29099643801788
 20
-4.048110279796371
 30
0.0
 10
81.86547024087825
 20
-1.523124926324658
 30
0.0
 10
77.56687773204517
 20
0.9656738331397251
 30
0.0
 10
73.39462822297075
 20
3.359030878069691
 30
0.0
 10
69.22237484954354
 20
5.675202442479527
 30
0.0
 10
65.05007146880844
 20
7.860966638985831
 30
0.0
 10
60.87772250096145
 20
9.86604109549754
 30
0.0
 10
56.70531883548024
 20
11.64453615828459
 30
0.0
 10
52.53285496188197
 20
13.15485844251595
 30
0.0
 10
48.36032454659112
 20
14.36497302152299
 30
0.0
 10
44.18772099978698
 20
15.23706524482457
 30
0.0
 10
40.08162261061288
 20
15.77960525005074
 30
0.0
 10
37.36638356425429
 20
15.83813533808174
 30
0.0
 10
36.04204383208895
 20
15.86668299807894
 30
0.0
  0
SPLINE
  5
B6
330
1F
100
AcDbEntity
  8
0
  6
Continuous
 62
     1
370
    15
100
AcDbSpline
210
0.0
220
0.0
230
1.0
 70
     8
 71
     3
 72
    17
 73
    13
 74
     0
 42
0.000000001
 43
0.00000001
 40
0.0
 40
0.0
 40
0.0
 40
0.0
 40
0.1059150097936634
 40
0.2118301712069618
 40
0.3177454813076977
 40
0.4236609371620459
 40
0.529576535834588
 40
0.6354922743883431
 40
0.7414081498847989
 40
0.8473241593839466
 40
0.9532402999443087
 40
1.0
 40
1.0
 40
1.0
 40
1.0
 10
113.6
 20
-12.52493469684544
 30
0.0
 10
112.1465548084955
 20
-12.22916608253642
 30
0.0
 10
109.2396623448481
 20
-11.6376284305192
 30
0.0
 10
104.8793193890276
 20
-10.37404902793586
 30
0.0
 10
100.5189694712205
 20
-8.872684602022913
 30
0.0
 10
96.15861264382924
 20
-7.142637757861479
 30
0.0
 10
91.79824906973901
 20
-5.234844838552744
 30
0.0
 10
87.43787887750364
 20
-3.195677892218797
 30
0.0
 10
83.07750222297577
 20
-1.074811570121781
 30
0.0
 10
78.71711918759128
 20
1.067026121686635
 30
0.0
 10
75.16852221971556
 20
2.806637223876161
 30
0.0
 10
73.0733859996911
 20
3.77676943827621
 30
0.0
 10
72.43171315329408
 20
4.073889736921157
 30
0.0
  0
LINE
  5
B7
330
1F
100
AcDbEntity
  8
0
  6
Continuous
 62
     1
370
    15
100
AcDbLine
 10
113.6
 20
-15.06443629905643
 30
0.0
 11
113.6
 21
-12.52493469684544
 31
0.0
  0
LINE
  5
B8
330
1F
100
AcDbEntity
  8
0
  6
Continuous
 62
     1
370
    15
100
AcDbLine
 10
113.6
 20
-15.87499999999999
 30
0.0
 11
113.5999999999989
 21
-15.06443629905643
 31
0.0
  0
SPLINE
  5
B9
330
1F
100
AcDbEntity
  8
0
  6
Continuous
 62
     1
370
    15
100
AcDbSpline
210
0.0
220
0.0
230
1.0
 70
     8
 71
     3
 72
    17
 73
    13
 74
     0
 42
0.000000001
 43
0.00000001
 40
0.0
 40
0.0
 40
0.0
 40
0.0
 40
0.1071846082201762
 40
0.2143642501184727
 40
0.3215372123485753
 40
0.4287017868370503
 40
0.5358616046954074
 40
0.6359666567258397
 40
0.7360718371964178
 40
0.8361771432875721
 40
0.9362825721783544
 40
1.0
 40
1.0
 40
1.0
 40
1.0
 10
110.7794402669372
 20
1.300194242658502
 30
0.0
 10
109.2231309760557
 20
2.011592274727781
 30
0.0
 10
106.1105845047667
 20
3.4343553767492
 30
0.0
 10
101.4419323383829
 20
5.459715066115464
 30
0.0
 10
96.77360529795008
 20
7.33071448836684
 30
0.0
 10
92.10562625770686
 20
8.990081007022393
 30
0.0
 10
87.54028527865188
 20
10.36066819530019
 30
0.0
 10
83.07748072210761
 20
11.42298571828921
 30
0.0
 10
78.71709235592684
 20
12.17783663583905
 30
0.0
 10
74.35670039147655
 20
12.61401499292862
 30
0.0
 10
70.52463379676277
 20
12.76190113104749
 30
0.0
 10
68.14603125446914
 20
12.62946957225703
 30
0.0
 10
67.22089517244476
 20
12.57796150764458
 30
0.0
  0
SPLINE
  5
BA
330
1F
100
AcDbEntity
  8
0
  6
Continuous
 62
     1
370
    15
100
AcDbSpline
210
0.0
220
0.0
230
1.0
 70
     8
 71
     3
 72
     8
 73
     4
 74
     0
 42
0.000000001
 43
0.00000001
 40
0.0
 40
0.0
 40
0.0
 40
0.0
 40
1.0
 40
1.0
 40
1.0
 40
1.0
 10
110.7794402669372
 20
1.300194242658498
 30
0.0
 10
110.762404421881
 20
0.2921095860622946
 30
0.0
 10
110.6366008236008
 20
-0.6903983468759706
 30
0.0
 10
110.4228879835563
 20
-1.652234432534694
 30
0.0
  0
SPLINE
  5
BB
330
1F
100
AcDbEntity
  8
0
  6
Continuous
 62
     1
370
    15
100
AcDbSpline
210
0.0
220
0.0
230
1.0
 70
     8
 71
     3
 72
     8
 73
     4
 74
     0
 42
0.000000001
 43
0.00000001
 40
0.0
 40
0.0
 40
0.0
 40
0.0
 40
1.0
 40
1.0
 40
1.0
 40
1.0
 10
113.6
 20
-4.242481768220602
 30
0.0
 10
112.5317805040063
 20
-3.402687243110357
 30
0.0
 10
111.4727562284876
 20
-2.539237859000426
 30
0.0
 10
110.4228879835563
 20
-1.652234432534677
 30
0.0
  0
SPLINE
  5
BC
330
1F
100
AcDbEntity
  8
0
  6
Continuous
 62
     1
370
    15
100
AcDbSpline
210
0.0
220
0.0
230
1.0
 70
    24
 71
     3
 72
    14
 73
    10
 74
     0
 42
0.000000001
 43
0.00000001
 40
0.0
 40
0.0
 40
0.0
 40
0.0
 40
0.2499999999999998
 40
0.2499999999999998
 40
0.4999999999999996
 40
0.4999999999999996
 40
0.7499999999999998
 40
0.7499999999999998
 40
1.0
 40
1.0
 40
1.0
 40
1.0
 10
113.6
 20
-12.52493469684543
 30
0.0
 10
113.6
 20
-12.04486774864042
 30
0.0
 10
113.6
 20
-11.50271046987282
 30
0.0
 10
113.6
 20
-10.30352123776153
 30
0.0
 10
113.6
 20
-9.646511261890652
 30
0.0
 10
113.6
 20
-8.236264171641576
 30
0.0
 10
113.6
 20
-7.4831056967575
 30
0.0
 10
113.6
 20
-5.907098256972251
 30
0.0
 10
113.6
 20
-5.084368713330321
 30
0.0
 10
113.6
 20
-4.24248176822111
 30
0.0
  0
SPLINE
  5
BD
330
1F
100
AcDbEntity
  8
0
  6
Continuous
 62
     1
370
    15
100
AcDbSpline
210
0.0
220
0.0
230
1.0
 70
     8
 71
     3
 72
    14
 73
    10
 74
     0
 42
0.000000001
 43
0.00000001
 40
0.0
 40
0.0
 40
0.0
 40
0.0
 40
0.1236684609006587
 40
0.2627596199331326
 40
0.4018509123517114
 40
0.5409423342752179
 40
0.6800338818210554
 40
0.8400089825944568
 40
0.9999999999999999
 40
0.9999999999999999
 40
0.9999999999999999
 40
0.9999999999999999
 10
43.35035564493077
 20
-13.19349043868745
 30
0.0
 10
42.05804104922868
 20
-13.30423121677736
 30
0.0
 10
39.31224725889851
 20
-13.53952325930855
 30
0.0
 10
35.11296972951524
 20
-13.48530192339376
 30
0.0
 10
30.7525339842615
 20
-13.12120762826362
 30
0.0
 10
26.39205691149936
 20
-12.42063568766482
 30
0.0
 10
21.81348900932071
 20
-11.3557141451535
 30
0.0
 10
17.01592468090626
 20
-9.918852595764818
 30
0.0
 10
13.67203034068966
 20
-8.650448731411045
 30
0.0
 10
11.99999999999998
 20
-8.01621525102238
 30
0.0
  0
SPLINE
  5
BE
330
1F
100
AcDbEntity
  8
0
  6
Continuous
 62
     1
370
    15
100
AcDbSpline
210
0.0
220
0.0
230
1.0
 70
     8
 71
     3
 72
    23
 73
    19
 74
     0
 42
0.000000001
 43
0.00000001
 40
0.0
 40
0.0
 40
0.0
 40
0.0
 40
0.0186038318383
 40
0.0827451370065594
 40
0.1468865208572457
 40
0.211027981582004
 40
0.2751695173716352
 40
0.3393111264161155
 40
0.4034528069046156
 40
0.4675945570255205
 40
0.5317363749664502
 40
0.5958782589142788
 40
0.6600202070551536
 40
0.7280123285665637
 40
0.7960070868722773
 40
0.8640037642445456
 40
0.9320016418146599
 40
1.0
 40
1.0
 40
1.0
 40
1.0
 10
79.98180209026978
 20
-11.90750387825953
 30
0.0
 10
79.56023289785955
 20
-11.98279520650565
 30
0.0
 10
77.68519979247985
 20
-12.31767198486406
 30
0.0
 10
74.3567002560576
 20
-12.60824119098852
 30
0.0
 10
69.9963017432738
 20
-12.75563164472575
 30
0.0
 10
65.63589725198375
 20
-12.56062750732704
 30
0.0
 10
61.27548701126418
 20
-12.05637340309621
 30
0.0
 10
56.91507106717449
 20
-11.24795378433099
 30
0.0
 10
52.55464984248827
 20
-10.15768443205739
 30
0.0
 10
48.19422243651995
 20
-8.812383742891472
 30
0.0
 10
43.83379286608614
 20
-7.245955354448883
 30
0.0
 10
39.47334680179023
 20
-5.497683467993633
 30
0.0
 10
35.02569409011014
 20
-3.573665562942995
 30
0.0
 10
30.49056360305371
 20
-1.514936965307361
 30
0.0
 10
25.86809700143096
 20
0.6270399717109418
 30
0.0
 10
21.24547199477627
 20
2.747750202670271
 30
0.0
 10
16.62275727762616
 20
4.804512775646841
 30
0.0
 10
13.54092272297738
 20
6.051763367058414
 30
0.0
 10
12.00000000000002
 20
6.675390866676761
 30
0.0
  0
SPLINE
  5
BF
330
1F
100
AcDbEntity
  8
외형선
  6
Continuous
370
    15
100
AcDbSpline
210
0.0
220
0.0
230
1.0
 70
    24
 71
     3
 72
    14
 73
    10
 74
     0
 42
0.000000001
 43
0.00000001
 40
0.0
 40
0.0
 40
0.0
 40
0.0
 40
0.2499999999999998
 40
0.2499999999999998
 40
0.4999999999999999
 40
0.4999999999999999
 40
0.75
 40
0.75
 40
1.0
 40
1.0
 40
1.0
 40
1.0
 10
12.0
 20
6.675390866676769
 30
0.0
 10
12.0
 20
5.566453397552125
 30
0.0
 10
12.0
 20
4.376014209468289
 30
0.0
 10
12.0
 20
1.902009888153133
 30
0.0
 10
12.0
 20
0.619011329291949
 30
0.0
 10
12.0
 20
-1.948710842963483
 30
0.0
 10
12.0
 20
-3.232692976140415
 30
0.0
 10
12.0
 20
-5.710493099223131
 30
0.0
 10
12.0
 20
-6.903741525785873
 30
0.0
 10
12.0
 20
-8.016215251022388
 30
0.0
  0
SPLINE
  5
C0
330
1F
100
AcDbEntity
  8
0
  6
Continuous
 62
     1
370
    15
100
AcDbSpline
210
0.0
220
0.0
230
1.0
 70
    24
 71
     3
 72
    10
 73
     6
 74
     0
 42
0.000000001
 43
0.00000001
 40
0.0
 40
0.0
 40
0.0
 40
0.0
 40
0.5
 40
0.5
 40
1.0
 40
1.0
 40
1.0
 40
1.0
 10
108.6
 20
4.6915385935979
 30
0.0
 10
108.6
 20
5.728628384846495
 30
0.0
 10
108.6
 20
6.684238768094223
 30
0.0
 10
108.6
 20
8.336748412245083
 30
0.0
 10
108.6
 20
9.032833253919854
 30
0.0
 10
108.6
 20
9.570389447124665
 30
0.0
  0
SPLINE
  5
C1
330
1F
100
AcDbEntity
  8
0
  6
Continuous
 62
     1
370
    15
100
AcDbSpline
210
0.0
220
0.0
230
1.0
 70
     8
 71
     3
 72
     9
 73
     5
 74
     0
 42
0.000000001
 43
0.00000001
 40
0.0
 40
0.0
 40
0.0
 40
0.0
 40
0.886322306371059
 40
1.0
 40
1.0
 40
1.0
 40
1.0
 10
113.6
 20
11.11249999999999
 30
0.0
 10
111.8562705760244
 20
11.10381392526849
 30
0.0
 10
109.8888943614788
 20
11.09401379424497
 30
0.0
 10
107.9214093012731
 20
10.86205847220133
 30
0.0
 10
107.6977501373795
 20
10.83569032616646
 30
0.0
  0
SPLINE
  5
C2
330
1F
100
AcDbEntity
  8
0
  6
Continuous
 62
     1
370
    15
100
AcDbSpline
210
0.0
220
0.0
230
1.0
 70
     8
 71
     3
 72
     8
 73
     4
 74
     0
 42
0.000000001
 43
0.00000001
 40
0.0
 40
0.0
 40
0.0
 40
0.0
 40
1.0
 40
1.0
 40
1.0
 40
1.0
 10
113.6
 20
11.11250000000001
 30
0.0
 10
111.9225937619391
 20
10.65780123202017
 30
0.0
 10
110.2556583168522
 20
10.14524943066148
 30
0.0
 10
108.6
 20
9.570389447124661
 30
0.0
  0
SPLINE
  5
C3
330
1F
100
AcDbEntity
  8
0
  6
Continuous
 62
     1
370
    15
100
AcDbSpline
210
0.0
220
0.0
230
1.0
 70
     8
 71
     3
 72
     8
 73
     4
 74
     0
 42
0.000000001
 43
0.00000001
 40
0.0
 40
0.0
 40
0.0
 40
0.0
 40
1.0
 40
1.0
 40
1.0
 40
1.0
 10
108.6
 20
4.691538593597902
 30
0.0
 10
109.4425656748897
 20
3.688219129697093
 30
0.0
 10
110.1761449548424
 20
2.565545540272596
 30
0.0
 10
110.7794402669372
 20
1.300194242658503
 30
0.0
  0
SPLINE
  5
C4
330
1F
100
AcDbEntity
  8
외형선
  6
Continuous
370
    15
100
AcDbSpline
210
0.0
220
0.0
230
1.0
 70
    24
 71
     3
 72
    14
 73
    10
 74
     0
 42
0.000000001
 43
0.00000001
 40
0.0
 40
0.0
 40
0.0
 40
0.0
 40
0.1220129517796745
 40
0.2461490348596854
 40
0.3738915397336119
 40
0.5016340446075386
 40
0.6675833285076831
 40
0.8340507160998554
 40
1.0
 40
1.0
 40
1.0
 40
1.0
 10
12.00000000000001
 20
10.44589334987076
 30
0.0
 10
12.00000000000001
 20
10.43507322034411
 30
0.0
 10
12.00000000000001
 20
10.41324468164231
 30
0.0
 10
12.00000000000001
 20
10.22723374456282
 30
0.0
 10
12.00000000000001
 20
9.923512188046328
 30
0.0
 10
12.00000000000001
 20
9.449158526055191
 30
0.0
 10
12.00000000000001
 20
8.759292801203532
 30
0.0
 10
12.00000000000001
 20
7.831367549275877
 30
0.0
 10
12.00000000000001
 20
7.060315841199794
 30
0.0
 10
12.00000000000001
 20
6.675390866676767
 30
0.0
  0
LINE
  5
C5
330
1F
100
AcDbEntity
  8
0
  6
Continuous
 62
     1
370
    15
100
AcDbLine
 10
110.5141041370709
 20
1.813099250365649
 30
0.0
 11
113.6
 21
0.0000000000000103
 31
0.0
  0
LINE
  5
C6
330
1F
100
AcDbEntity
  8
0
  6
Continuous
 62
     1
370
    15
100
AcDbLine
 10
113.6
 20
0.0000000000000103
 30
0.0
 11
113.6
 21
-4.242481768220604
 31
0.0
  0
SPLINE
  5
C7
330
1F
100
AcDbEntity
  8
0
  6
Continuous
 62
     1
370
    15
100
AcDbSpline
210
0.0
220
0.0
230
1.0
 70
     8
 71
     3
 72
    18
 73
    14
 74
     0
 42
0.000000001
 43
0.00000001
 40
0.0
 40
0.0
 40
0.0
 40
0.0
 40
0.0410992393862809
 40
0.1398088781074987
 40
0.2385199525705391
 40
0.3372325854455013
 40
0.4359468991907638
 40
0.5346615261022676
 40
0.6277438054830621
 40
0.7208165637516278
 40
0.8138820265263597
 40
0.9069424262274263
 40
0.9999999999999999
 40
0.9999999999999999
 40
0.9999999999999999
 40
0.9999999999999999
 10
54.27016203125766
 20
-12.4781837936495
 30
0.0
 10
53.69106542062633
 20
-12.69230300311404
 30
0.0
 10
51.721129999504
 20
-13.42068063013394
 30
0.0
 10
48.36032408578382
 20
-14.3528486494406
 30
0.0
 10
44.18772133818413
 20
-15.24488390831952
 30
0.0
 10
40.01503874376566
 20
-15.76925241059222
 30
0.0
 10
35.84229269706451
 20
-15.93582126942876
 30
0.0
 10
31.74886317998543
 20
-15.73876247349451
 30
0.0
 10
27.73498912183721
 20
-15.20772532498813
 30
0.0
 10
23.80080377210905
 20
-14.37738699335299
 30
0.0
 10
19.86698568916331
 20
-13.24929540366401
 30
0.0
 10
15.93342474665975
 20
-11.86542955435571
 30
0.0
 10
13.31112831030813
 20
-10.7440531412074
 30
0.0
 10
11.99999999999527
 20
-10.18337344786143
 30
0.0
  0
SPLINE
  5
C8
330
1F
100
AcDbEntity
  8
외형선
  6
Continuous
370
    15
100
AcDbSpline
210
0.0
220
0.0
230
1.0
 70
    24
 71
     3
 72
     8
 73
     4
 74
     0
 42
0.000000001
 43
0.00000001
 40
0.0
 40
0.0
 40
0.0
 40
0.0
 40
1.0
 40
1.0
 40
1.0
 40
1.0
 10
12.0
 20
-8.016215251022391
 30
0.0
 10
12.0
 20
-8.699475577764034
 30
0.0
 10
12.0
 20
-9.426330827380626
 30
0.0
 10
12.0
 20
-10.18337344784909
 30
0.0
  0
SPLINE
  5
C9
330
1F
100
AcDbEntity
  8
0
  6
Continuous
 62
     1
370
    15
100
AcDbSpline
210
0.0
220
0.0
230
1.0
 70
     8
 71
     3
 72
    11
 73
     7
 74
     0
 42
0.000000001
 43
0.00000001
 40
0.0
 40
0.0
 40
0.0
 40
0.0
 40
0.2784199117476404
 40
0.5568391007991529
 40
0.83525629216458
 40
1.0
 40
1.0
 40
1.0
 40
1.0
 10
12.0
 20
-13.15075079977553
 30
0.0
 10
13.51734378734897
 20
-13.60768263133052
 30
0.0
 10
16.55202742346912
 20
-14.52154510837997
 30
0.0
 10
21.10403760371779
 20
-15.38090489264083
 30
0.0
 10
25.03652717279903
 20
-15.84467281381928
 30
0.0
 10
27.45167128578301
 20
-15.82849709295717
 30
0.0
 10
28.34949371742662
 20
-15.8224838182379
 30
0.0
  0
SPLINE
  5
CA
330
1F
100
AcDbEntity
  8
0
  6
Continuous
 62
     1
370
    15
100
AcDbSpline
210
0.0
220
0.0
230
1.0
 70
     8
 71
     3
 72
    13
 73
     9
 74
     0
 42
0.000000001
 43
0.00000001
 40
0.0
 40
0.0
 40
0.0
 40
0.0
 40
0.0974263006235265
 40
0.2779184194797552
 40
0.4584175181569614
 40
0.6389279330244305
 40
0.8194539898939649
 40
0.9999999999999999
 40
0.9999999999999999
 40
0.9999999999999999
 40
0.9999999999999999
 10
91.80663873242044
 20
10.63947886433181
 30
0.0
 10
92.51440256694853
 20
10.94786646608025
 30
0.0
 10
94.53337080240547
 20
11.82757342730691
 30
0.0
 10
97.86336899133175
 20
13.0175885473734
 30
0.0
 10
101.7970254256089
 20
14.20253364612848
 30
0.0
 10
105.7309541270825
 20
15.07936915765553
 30
0.0
 10
109.6652910370045
 20
15.67445956544089
 30
0.0
 10
112.2883820273778
 20
15.7992060184523
 30
0.0
 10
113.6
 20
15.87500000000002
 30
0.0
  0
SPLINE
  5
CB
330
1F
100
AcDbEntity
  8
0
  6
Continuous
 62
     1
370
    15
100
AcDbSpline
210
0.0
220
0.0
230
1.0
 70
    24
 71
     3
 72
    14
 73
    10
 74
     0
 42
0.000000001
 43
0.00000001
 40
0.0
 40
0.0
 40
0.0
 40
0.0
 40
0.25
 40
0.25
 40
0.5
 40
0.5
 40
0.75
 40
0.75
 40
1.0
 40
1.0
 40
1.0
 40
1.0
 10
113.6
 20
11.1125
 30
0.0
 10
113.6
 20
11.44930603840805
 30
0.0
 10
113.6
 20
11.81258118427562
 30
0.0
 10
113.6
 20
12.57771108481402
 30
0.0
 10
113.6
 20
12.9794895650125
 30
0.0
 10
113.6
 20
13.80064530850655
 30
0.0
 10
113.6
 20
14.21988443375763
 30
0.0
 10
113.6
 20
15.05166832183917
 30
0.0
 10
113.6
 20
15.46406174255948
 30
0.0
 10
113.6
 20
15.87500000000002
 30
0.0
  0
LINE
  5
CC
330
1F
100
AcDbEntity
  8
0
  6
Continuous
 62
     1
370
    15
100
AcDbLine
 10
113.6
 20
0.0000000000000103
 30
0.0
 11
113.6
 21
11.11250000000001
 31
0.0
  0
LINE
  5
CD
330
1F
100
AcDbEntity
  8
중심선
100
AcDbLine
 10
-54.50000000000001
 20
-0.0000000000000066
 30
0.0
 11
116.6
 21
0.0000000000000144
 31
0.0
  0
LINE
  5
CE
330
1F
100
AcDbEntity
  8
참조1
100
AcDbLine
 10
33.89926131403117
 20
0.0010749287238892
 30
0.0
 11
33.89926131403117
 21
-39.99892507127611
 31
0.0
  0
LINE
  5
CF
330
1F
100
AcDbEntity
  8
참조1
100
AcDbLine
 10
33.89926131403117
 20
-39.99892507127611
 30
0.0
 11
-20.15080122126847
 21
-39.9989250712761
 31
0.0
  0
CIRCLE
  5
D0
330
1F
100
AcDbEntity
  8
해칭선
100
AcDbCircle
 10
0.0
 20
0.0
 30
0.0
 40
2.999999999999995
  0
INSERT
  5
D1
330
1F
100
AcDbEntity
  8
0
  6
Continuous
 62
     7
100
AcDbBlockReference
 66
     1
  2
블럭10
 10
17.10972706787479
 20
-52.04717430164393
 30
0.0
  0
ATTRIB
  5
D2
330
D1
100
AcDbEntity
  8
FORMAT
 62
     2
100
AcDbText
 10
7.928431779133508
 20
-49.97180738881174
 30
0.0
 40
4.233333333333333
  1
E1071116 [ 2 FLUTE ]
 41
0.75
  7
SLDTEXTSTYLE0
 11
7.928431779133508
 21
-52.08847405547841
 31
0.0
100
AcDbAttribute
  2
AUTOATTR0
 70
     0
 74
     1
  0
SEQEND
  5
D3
330
D1
100
AcDbEntity
  8
0
  6
Continuous
 62
     7
  0
HATCH
  5
D4
330
1F
100
AcDbEntity
  8
중심선
100
AcDbHatch
 10
0.0
 20
0.0
 30
0.0
210
0.0
220
0.0
230
1.0
  2
SOLID
 70
     1
 71
     0
 91
        1
 92
        0
 93
        4
 72
     1
 10
22.82463637225564
 20
-35.8
 11
19.37836112841835
 21
-35.8
 72
     1
 10
19.37836112841835
 20
-35.8
 11
17.25013126921433
 21
-38.3363255805726
 72
     1
 10
17.25013126921433
 20
-38.3363255805726
 11
20.69643959816476
 21
-38.33628615127011
 72
     1
 10
20.69643959816476
 20
-38.33628615127011
 11
22.82463637225564
 21
-35.8
 97
        0
 75
     0
 76
     1
 98
        1
 10
-2.849261314031171
 20
-0.0010749287238963
  0
HATCH
  5
D5
330
1F
100
AcDbEntity
  8
중심선
100
AcDbHatch
 10
0.0
 20
0.0
 30
0.0
210
0.0
220
0.0
230
1.0
  2
SOLID
 70
     1
 71
     0
 91
        1
 92
        0
 93
        4
 72
     1
 10
27.83740036329161
 20
-35.79999999999998
 11
24.39112511945433
 21
-35.79999999999998
 72
     1
 10
24.39112511945433
 20
-35.79999999999998
 11
19.85998711109692
 21
-41.20000000000002
 72
     1
 10
19.85998711109692
 20
-41.20000000000002
 11
23.3062623549342
 21
-41.20000000000002
 72
     1
 10
23.3062623549342
 20
-41.20000000000002
 11
27.83740036329161
 21
-35.79999999999998
 97
        0
 75
     0
 76
     1
 98
        1
 10
-2.849261314031171
 20
-0.0010749287238963
  0
HATCH
  5
D6
330
1F
100
AcDbEntity
  8
중심선
100
AcDbHatch
 10
0.0
 20
0.0
 30
0.0
210
0.0
220
0.0
230
1.0
  2
SOLID
 70
     1
 71
     0
 91
        1
 92
        0
 93
        4
 72
     1
 10
32.85016435432746
 20
-35.79999999999998
 11
29.4038891104904
 21
-35.79999999999998
 72
     1
 10
29.40388911049039
 20
-35.79999999999998
 11
22.35545220860112
 21
-44.20000000000002
 72
     1
 10
22.35545220860112
 20
-44.20000000000002
 11
25.8017274524384
 21
-44.20000000000002
 72
     1
 10
25.8017274524384
 20
-44.20000000000002
 11
32.85016435432746
 21
-35.79999999999998
 97
        0
 75
     0
 76
     1
 98
        1
 10
-2.849261314031171
 20
-0.0010749287238963
  0
HATCH
  5
D7
330
1F
100
AcDbEntity
  8
중심선
100
AcDbHatch
 10
0.0
 20
0.0
 30
0.0
210
0.0
220
0.0
230
1.0
  2
SOLID
 70
     1
 71
     0
 91
        1
 92
        0
 93
        6
 72
     3
 10
37.65005478533965
 20
-40.00000000005127
 11
3.960054785062283
 21
1.540882976769353E-10
 40
0.3939339440162628
 50
17.0953918060842
 51
320.0019657685087
 73
     0
 72
     1
 10
39.33305444104028
 20
-38.5878940046383
 11
41.63835631474131
 21
-36.65356729459041
 72
     3
 10
37.65005478528681
 20
-40.00000000000015
 11
6.600054785286829
 21
-1.278976924368180E-13
 40
0.636358354079598
 50
39.99873849337369
 51
368.4976242363724
 73
     1
 72
     1
 10
44.07538727718745
 20
-39.03999999993002
 11
36.33012209212276
 21
-39.03999999993002
 72
     1
 10
36.33012209212276
 20
-39.03999999993002
 11
36.3300970476768
 21
-40.95999999992991
 72
     1
 10
36.3300970476768
 20
-40.95999999992991
 11
40.77147681714887
 21
-40.95999999992988
 97
        0
 75
     0
 76
     1
 98
        1
 10
-2.849261314031171
 20
-0.0010749287238963
  0
DIMENSION
  5
D8
330
1F
100
AcDbEntity
  8
치수문자_일반주서
100
AcDbDimension
  2
_D
 10
-63.99999999999996
 20
-15.87500000000005
 30
0.0
 11
-64.00000000000001
 21
0.0000000000000073
 31
0.0
 70
   160
  1
%%c<>
 71
     2
 42
31.75
 52
-270.0
  3
SLDDIMSTYLE0
100
AcDbAlignedDimension
 13
-50.5
 23
15.875
 33
0.0
 14
-50.5
 24
-15.875
 34
0.0
 50
90.0000000000002
100
AcDbRotatedDimension
1001
ACAD
1000
DSTYLE
1002
{
1070
   171
1070
     6
1070
   273
1070
     7
1002
}
  0
DIMENSION
  5
EB
330
1F
100
AcDbEntity
  8
치수문자_일반주서
100
AcDbDimension
  2
_D_1
 10
12.0
 20
29.03792442259352
 30
0.0
 11
62.80000000000001
 21
29.03792442259352
 31
0.0
 70
   160
  1
<>
 71
     2
 42
101.6
  3
SLDDIMSTYLE0
100
AcDbAlignedDimension
 13
113.6
 23
15.87500000000001
 33
0.0
 14
12.0
 24
10.44690911772883
 34
0.0
 50
0.000000000000004
100
AcDbRotatedDimension
1001
ACAD
1000
DSTYLE
1002
{
1070
   171
1070
     6
1070
   273
1070
     7
1002
}
  0
DIMENSION
  5
100
330
1F
100
AcDbEntity
  8
치수문자_일반주서
100
AcDbDimension
  2
_D_2
 10
-51.50000000000003
 20
45.58996586444053
 30
0.0
 11
31.04999999999999
 21
45.58996586444053
 31
0.0
 70
   160
  1
<>
 71
     2
 42
165.1
  3
SLDDIMSTYLE0
100
AcDbAlignedDimension
 13
113.6
 23
15.87500000000002
 33
0.0
 14
-51.50000000000001
 24
14.87499999999998
 34
0.0
 50
0.0000000000000025
100
AcDbRotatedDimension
1001
ACAD
1000
DSTYLE
1002
{
1070
   171
1070
     6
1070
   273
1070
     7
1002
}
  0
DIMENSION
  5
113
330
1F
100
AcDbEntity
  8
치수문자_일반주서
100
AcDbDimension
  2
_D_3
 10
135.1946649250565
 20
15.8750000000001
 30
0.0
 11
135.1946649250565
 21
39.81110606377223
 31
0.0
 70
   160
  1
%%c<>
 71
     2
 42
31.75
 52
-270.0
  3
SLDDIMSTYLE0
100
AcDbAlignedDimension
 13
113.6
 23
-15.87499999999999
 33
0.0
 14
113.6
 24
15.87500000000001
 34
0.0
 50
90.0000000000002
100
AcDbRotatedDimension
1001
ACAD
1000
DSTYLE
1002
{
1070
   171
1070
     6
1070
   273
1070
     7
1002
}
  0
LINE
  5
126
330
1F
100
AcDbEntity
  8
참조1
100
AcDbLine
 10
77.82153940838579
 20
7.441074928723896
 30
0.0
 11
77.82153940838579
 21
-7.438925071276109
 31
0.0
  0
LINE
  5
127
330
1F
100
AcDbEntity
  8
참조1
100
AcDbLine
 10
90.52153940838579
 20
5.441074928723896
 30
0.0
 11
77.82153940838579
 21
5.441074928723896
 31
0.0
  0
SOLID
  5
128
330
1F
100
AcDbEntity
  8
참조1
100
AcDbTrace
 10
77.82153940838579
 20
5.441074928723896
 30
0.0
 11
84.17153940838578
 21
4.425074928723896
 31
0.0
 12
84.17153940838578
 22
6.457074928723896
 32
0.0
 13
84.17153940838578
 23
6.457074928723896
 33
0.0
  0
LINE
  5
129
330
1F
100
AcDbEntity
  8
참조1
100
AcDbLine
 10
90.52153940838579
 20
-5.438925071276109
 30
0.0
 11
77.82153940838579
 21
-5.438925071276109
 31
0.0
  0
SOLID
  5
12A
330
1F
100
AcDbEntity
  8
참조1
100
AcDbTrace
 10
77.82153940838579
 20
-5.438925071276109
 30
0.0
 11
84.17153940838578
 21
-6.454925071276109
 31
0.0
 12
84.17153940838578
 22
-4.422925071276109
 32
0.0
 13
84.17153940838578
 23
-4.422925071276109
 33
0.0
  0
MTEXT
  5
12B
330
1F
100
AcDbEntity
  8
참조1
100
AcDbMText
 10
87.20588954101179
 20
11.01136670591222
 30
0.0
 40
3.5
 41
0.0
 71
     1
 72
     1
  1
A
  7
SLDTEXTSTYLE0
 73
     1
 44
1.0
  0
MTEXT
  5
12C
330
1F
100
AcDbEntity
  8
참조1
100
AcDbMText
 10
87.20588954101179
 20
0.1313667059122192
 30
0.0
 40
3.5
 41
0.0
 71
     1
 72
     1
  1
A
  7
SLDTEXTSTYLE0
 73
     1
 44
1.0
  0
INSERT
  5
133
330
1F
100
AcDbEntity
  8
해칭선
100
AcDbBlockReference
  2
SW_DOWELSYMBOL_0
 10
0.0
 20
0.0
 30
0.0
  0
LINE
  5
1E6
330
1F
100
AcDbEntity
  8
외형선
  6
Continuous
370
    15
100
AcDbLine
 10
-36.41240000000011
 20
15.87500000000001
 30
0.0
 11
-31.46892500000002
 21
15.87500000000001
 31
0.0
  0
LINE
  5
1E7
330
1F
100
AcDbEntity
  8
외형선
  6
Continuous
370
    15
100
AcDbLine
 10
-29.081325
 20
13.4874
 30
0.0
 11
-15.97492499999999
 21
13.4874
 31
0.0
  0
LINE
  5
1E8
330
1F
100
AcDbEntity
  8
외형선
  6
Continuous
370
    15
100
AcDbLine
 10
-15.97492499999999
 20
13.4874
 30
0.0
 11
-13.58732499999997
 21
15.87500000000002
 31
0.0
  0
LINE
  5
1E9
330
1F
100
AcDbEntity
  8
외형선
  6
Continuous
370
    15
100
AcDbLine
 10
-29.081325
 20
13.4874
 30
0.0
 11
-31.46892500000002
 21
15.87500000000002
 31
0.0
  0
LINE
  5
1EA
330
1F
100
AcDbEntity
  8
외형선
  6
Continuous
370
    15
100
AcDbLine
 10
-51.50000000000001
 20
13.4874
 30
0.0
 11
-38.80000000000002
 21
13.4874
 31
0.0
  0
LINE
  5
1EB
330
1F
100
AcDbEntity
  8
외형선
  6
Continuous
370
    15
100
AcDbLine
 10
-38.80000000000002
 20
13.4874
 30
0.0
 11
-36.41240000000011
 21
15.87499999999999
 31
0.0
  0
LINE
  5
1EC
330
1F
100
AcDbEntity
  8
외형선
  6
Continuous
370
    15
100
AcDbLine
 10
-31.46892499999999
 20
15.87499999999999
 30
0.0
 11
-36.41240000000011
 21
15.87499999999999
 31
0.0
  0
ENDSEC
  0
SECTION
  2
OBJECTS
  0
DICTIONARY
  5
C
330
0
100
AcDbDictionary
281
     1
  3
ACAD_GROUP
350
D
  3
ACAD_IMAGE_VARS
350
157
  3
ACAD_LAYOUT
350
1A
  3
ACAD_MLINESTYLE
350
17
  3
ACAD_PLOTSETTINGS
350
19
  3
ACAD_PLOTSTYLENAME
350
E
  3
ACAD_SCALELIST
350
47
  3
APPDATA
350
155
  3
DWGPROPS
350
1ED
  0
DICTIONARY
  5
17E
330
2
100
AcDbDictionary
280
     1
281
     1
  3
ACAD_LAYERSTATES
360
17F
  0
DICTIONARY
  5
D
102
{ACAD_REACTORS
330
C
102
}
330
C
100
AcDbDictionary
281
     1
  0
RASTERVARIABLES
  5
157
102
{ACAD_REACTORS
330
C
102
}
330
C
100
AcDbRasterVariables
 90
        0
 70
     1
 71
     1
 72
     1
  0
DICTIONARY
  5
1A
102
{ACAD_REACTORS
330
C
102
}
330
C
100
AcDbDictionary
281
     1
  3
Layout1
350
1E
  3
Layout2
350
26
  3
Model
350
22
  0
DICTIONARY
  5
17
102
{ACAD_REACTORS
330
C
102
}
330
C
100
AcDbDictionary
281
     1
  3
Standard
350
18
  0
DICTIONARY
  5
19
102
{ACAD_REACTORS
330
C
102
}
330
C
100
AcDbDictionary
281
     1
  0
ACDBDICTIONARYWDFLT
  5
E
102
{ACAD_REACTORS
330
C
102
}
330
C
100
AcDbDictionary
281
     1
  3
Normal
350
F
100
AcDbDictionaryWithDefault
340
F
  0
DICTIONARY
  5
47
102
{ACAD_REACTORS
330
C
102
}
330
C
100
AcDbDictionary
281
     1
  3
A0
350
48
  3
A1
350
49
  3
A2
350
4A
  3
A3
350
4B
  3
A4
350
4C
  3
A5
350
4D
  3
A6
350
4E
  3
A7
350
4F
  3
A8
350
50
  3
A9
350
51
  3
B0
350
52
  3
B1
350
53
  3
B2
350
54
  3
B3
350
55
  3
B4
350
56
  3
B5
350
57
  3
B6
350
58
  3
B7
350
59
  3
B8
350
5A
  3
B9
350
5B
  3
C0
350
5C
  3
C1
350
5D
  3
C2
350
5E
  3
C3
350
5F
  3
C4
350
60
  3
C5
350
61
  3
C6
350
62
  3
C7
350
63
  3
C8
350
64
  3
C9
350
65
  3
D0
350
66
  3
D1
350
67
  3
D2
350
68
  0
DICTIONARY
  5
155
102
{ACAD_REACTORS
330
C
102
}
330
C
100
AcDbDictionary
281
     1
  0
XRECORD
  5
1ED
102
{ACAD_REACTORS
330
C
102
}
330
C
100
AcDbXrecord
280
     1
  1
DWGPROPS COOKIE
  2

  3

  4

  6

  7

  8
12016016
  9

300
=
301
=
302
=
303
=
304
=
305
=
306
=
307
=
308
=
309
=
 40
0.0
 41
2458311.092074028
 42
2458318.299861817
  1

 90
        0
  0
DICTIONARY
  5
17F
102
{ACAD_REACTORS
330
17E
102
}
330
17E
100
AcDbDictionary
281
     1
  0
LAYOUT
  5
1E
102
{ACAD_REACTORS
330
1A
102
}
330
1A
100
AcDbPlotSettings
  1

  2
none_device
  4

  6

 40
0.0
 41
0.0
 42
0.0
 43
0.0
 44
0.0
 45
0.0
 46
0.0
 47
0.0
 48
0.0
 49
0.0
140
0.0
141
0.0
142
1.0
143
1.0
 70
   688
 72
     1
 73
     0
 74
     5
  7

 75
    16
147
1.0
148
0.0
149
0.0
100
AcDbLayout
  1
Layout1
 70
     1
 71
     1
 10
0.0
 20
0.0
 11
420.0
 21
297.0
 12
0.0
 22
0.0
 32
0.0
 14
1.000000000000000E+20
 24
1.000000000000000E+20
 34
1.000000000000000E+20
 15
-1.000000000000000E+20
 25
-1.000000000000000E+20
 35
-1.000000000000000E+20
146
0.0
 13
0.0
 23
0.0
 33
0.0
 16
1.0
 26
0.0
 36
0.0
 17
0.0
 27
1.0
 37
0.0
 76
     0
330
1B
  0
LAYOUT
  5
26
102
{ACAD_REACTORS
330
1A
102
}
330
1A
100
AcDbPlotSettings
  1

  2
none_device
  4

  6

 40
0.0
 41
0.0
 42
0.0
 43
0.0
 44
0.0
 45
0.0
 46
0.0
 47
0.0
 48
0.0
 49
0.0
140
0.0
141
0.0
142
1.0
143
1.0
 70
   688
 72
     1
 73
     0
 74
     5
  7

 75
    16
147
1.0
148
0.0
149
0.0
100
AcDbLayout
  1
Layout2
 70
     1
 71
     2
 10
0.0
 20
0.0
 11
0.0
 21
0.0
 12
0.0
 22
0.0
 32
0.0
 14
0.0
 24
0.0
 34
0.0
 15
0.0
 25
0.0
 35
0.0
146
0.0
 13
0.0
 23
0.0
 33
0.0
 16
1.0
 26
0.0
 36
0.0
 17
0.0
 27
1.0
 37
0.0
 76
     0
330
23
  0
LAYOUT
  5
22
102
{ACAD_REACTORS
330
1A
102
}
330
1A
100
AcDbPlotSettings
  1

  2
none_device
  4
ANSI_A_(11.00_x_8.50_Inches)
  6

 40
6.35
 41
19.05
 42
6.35000508
 43
19.05000254
 44
279.4
 45
215.9
 46
60.61145158392222
 47
40.88682124546686
 48
0.0
 49
0.0
140
0.0
141
0.0
142
0.0358791746507948
143
1.0
 70
  1696
 72
     0
 73
     0
 74
     0
  7

 75
     0
147
0.0235690232323232
148
0.0
149
0.0
100
AcDbLayout
  1
Model
 70
     1
 71
     0
 10
0.0
 20
0.0
 11
420.0
 21
297.0
 12
0.0
 22
0.0
 32
0.0
 14
1.000000000000000E+20
 24
1.000000000000000E+20
 34
1.000000000000000E+20
 15
-1.000000000000000E+20
 25
-1.000000000000000E+20
 35
-1.000000000000000E+20
146
0.0
 13
0.0
 23
0.0
 33
0.0
 16
1.0
 26
0.0
 36
0.0
 17
0.0
 27
1.0
 37
0.0
 76
     0
330
1F
331
29
  0
MLINESTYLE
  5
18
102
{ACAD_REACTORS
330
17
102
}
330
17
100
AcDbMlineStyle
  2
Standard
 70
     0
  3

 62
   256
 51
90.0
 52
90.0
 71
     2
 49
0.5
 62
   256
  6
BYLAYER
 49
-0.5
 62
   256
  6
BYLAYER
  0
ACDBPLACEHOLDER
  5
F
102
{ACAD_REACTORS
330
E
102
}
330
E
  0
SCALE
  5
48
102
{ACAD_REACTORS
330
47
102
}
330
47
100
AcDbScale
 70
     0
300
1:1
140
1.0
141
1.0
290
     1
  0
SCALE
  5
49
102
{ACAD_REACTORS
330
47
102
}
330
47
100
AcDbScale
 70
     0
300
1:2
140
1.0
141
2.0
290
     0
  0
SCALE
  5
4A
102
{ACAD_REACTORS
330
47
102
}
330
47
100
AcDbScale
 70
     0
300
1:4
140
1.0
141
4.0
290
     0
  0
SCALE
  5
4B
102
{ACAD_REACTORS
330
47
102
}
330
47
100
AcDbScale
 70
     0
300
1:5
140
1.0
141
5.0
290
     0
  0
SCALE
  5
4C
102
{ACAD_REACTORS
330
47
102
}
330
47
100
AcDbScale
 70
     0
300
1:8
140
1.0
141
8.0
290
     0
  0
SCALE
  5
4D
102
{ACAD_REACTORS
330
47
102
}
330
47
100
AcDbScale
 70
     0
300
1:10
140
1.0
141
10.0
290
     0
  0
SCALE
  5
4E
102
{ACAD_REACTORS
330
47
102
}
330
47
100
AcDbScale
 70
     0
300
1:16
140
1.0
141
16.0
290
     0
  0
SCALE
  5
4F
102
{ACAD_REACTORS
330
47
102
}
330
47
100
AcDbScale
 70
     0
300
1:20
140
1.0
141
20.0
290
     0
  0
SCALE
  5
50
102
{ACAD_REACTORS
330
47
102
}
330
47
100
AcDbScale
 70
     0
300
1:30
140
1.0
141
30.0
290
     0
  0
SCALE
  5
51
102
{ACAD_REACTORS
330
47
102
}
330
47
100
AcDbScale
 70
     0
300
1:40
140
1.0
141
40.0
290
     0
  0
SCALE
  5
52
102
{ACAD_REACTORS
330
47
102
}
330
47
100
AcDbScale
 70
     0
300
1:50
140
1.0
141
50.0
290
     0
  0
SCALE
  5
53
102
{ACAD_REACTORS
330
47
102
}
330
47
100
AcDbScale
 70
     0
300
1:100
140
1.0
141
100.0
290
     0
  0
SCALE
  5
54
102
{ACAD_REACTORS
330
47
102
}
330
47
100
AcDbScale
 70
     0
300
2:1
140
2.0
141
1.0
290
     0
  0
SCALE
  5
55
102
{ACAD_REACTORS
330
47
102
}
330
47
100
AcDbScale
 70
     0
300
4:1
140
4.0
141
1.0
290
     0
  0
SCALE
  5
56
102
{ACAD_REACTORS
330
47
102
}
330
47
100
AcDbScale
 70
     0
300
8:1
140
8.0
141
1.0
290
     0
  0
SCALE
  5
57
102
{ACAD_REACTORS
330
47
102
}
330
47
100
AcDbScale
 70
     0
300
10:1
140
10.0
141
1.0
290
     0
  0
SCALE
  5
58
102
{ACAD_REACTORS
330
47
102
}
330
47
100
AcDbScale
 70
     0
300
100:1
140
100.0
141
1.0
290
     0
  0
SCALE
  5
59
102
{ACAD_REACTORS
330
47
102
}
330
47
100
AcDbScale
 70
     0
300
1/128" = 1'-0"
140
0.0078125
141
12.0
290
     0
  0
SCALE
  5
5A
102
{ACAD_REACTORS
330
47
102
}
330
47
100
AcDbScale
 70
     0
300
1/64" = 1'-0"
140
0.015625
141
12.0
290
     0
  0
SCALE
  5
5B
102
{ACAD_REACTORS
330
47
102
}
330
47
100
AcDbScale
 70
     0
300
1/32" = 1'-0"
140
0.03125
141
12.0
290
     0
  0
SCALE
  5
5C
102
{ACAD_REACTORS
330
47
102
}
330
47
100
AcDbScale
 70
     0
300
1/16" = 1'-0"
140
0.0625
141
12.0
290
     0
  0
SCALE
  5
5D
102
{ACAD_REACTORS
330
47
102
}
330
47
100
AcDbScale
 70
     0
300
3/32" = 1'-0"
140
0.09375
141
12.0
290
     0
  0
SCALE
  5
5E
102
{ACAD_REACTORS
330
47
102
}
330
47
100
AcDbScale
 70
     0
300
1/8" = 1'-0"
140
0.125
141
12.0
290
     0
  0
SCALE
  5
5F
102
{ACAD_REACTORS
330
47
102
}
330
47
100
AcDbScale
 70
     0
300
3/16" = 1'-0"
140
0.1875
141
12.0
290
     0
  0
SCALE
  5
60
102
{ACAD_REACTORS
330
47
102
}
330
47
100
AcDbScale
 70
     0
300
1/4" = 1'-0"
140
0.25
141
12.0
290
     0
  0
SCALE
  5
61
102
{ACAD_REACTORS
330
47
102
}
330
47
100
AcDbScale
 70
     0
300
3/8" = 1'-0"
140
0.375
141
12.0
290
     0
  0
SCALE
  5
62
102
{ACAD_REACTORS
330
47
102
}
330
47
100
AcDbScale
 70
     0
300
1/2" = 1'-0"
140
0.5
141
12.0
290
     0
  0
SCALE
  5
63
102
{ACAD_REACTORS
330
47
102
}
330
47
100
AcDbScale
 70
     0
300
3/4" = 1'-0"
140
0.75
141
12.0
290
     0
  0
SCALE
  5
64
102
{ACAD_REACTORS
330
47
102
}
330
47
100
AcDbScale
 70
     0
300
1" = 1'-0"
140
1.0
141
12.0
290
     0
  0
SCALE
  5
65
102
{ACAD_REACTORS
330
47
102
}
330
47
100
AcDbScale
 70
     0
300
1-1/2" = 1'-0"
140
1.5
141
12.0
290
     0
  0
SCALE
  5
66
102
{ACAD_REACTORS
330
47
102
}
330
47
100
AcDbScale
 70
     0
300
3" = 1'-0"
140
3.0
141
12.0
290
     0
  0
SCALE
  5
67
102
{ACAD_REACTORS
330
47
102
}
330
47
100
AcDbScale
 70
     0
300
6" = 1'-0"
140
6.0
141
12.0
290
     0
  0
SCALE
  5
68
102
{ACAD_REACTORS
330
47
102
}
330
47
100
AcDbScale
 70
     0
300
1'-0" = 1'-0"
140
12.0
141
12.0
290
     0
  0
ENDSEC
  0
EOF
