  0
SECTION
  2
HEADER
  9
$ACADVER
  1
AC1015
  9
$ACADMAINTVER
 70
     6
  9
$DWGCODEPAGE
  3
ANSI_949
  9
$INSBASE
 10
0.0
 20
0.0
 30
0.0
  9
$EXTMIN
 10
1.000000000000000E+20
 20
1.000000000000000E+20
 30
1.000000000000000E+20
  9
$EXTMAX
 10
-1.000000000000000E+20
 20
-1.000000000000000E+20
 30
-1.000000000000000E+20
  9
$LIMMIN
 10
0.0
 20
0.0
  9
$LIMMAX
 10
420.0
 20
297.0
  9
$ORTHOMODE
 70
     1
  9
$REGENMODE
 70
     1
  9
$FILLMODE
 70
     1
  9
$QTEXTMODE
 70
     0
  9
$MIRRTEXT
 70
     1
  9
$LTSCALE
 40
1.0
  9
$ATTMODE
 70
     1
  9
$TEXTSIZE
 40
3.5
  9
$TRACEWID
 40
1.0
  9
$TEXTSTYLE
  7
Standard
  9
$CLAYER
  8
0
  9
$CELTYPE
  6
ByLayer
  9
$CECOLOR
 62
   256
  9
$CELTSCALE
 40
1.0
  9
$DISPSILH
 70
     0
  9
$DIMSCALE
 40
1.0
  9
$DIMASZ
 40
3.302
  9
$DIMEXO
 40
1.0
  9
$DIMDLI
 40
3.75
  9
$DIMRND
 40
0.0
  9
$DIMDLE
 40
0.0
  9
$DIMEXE
 40
1.0
  9
$DIMTP
 40
0.0
  9
$DIMTM
 40
0.0
  9
$DIMTXT
 40
3.5
  9
$DIMCEN
 40
2.5
  9
$DIMTSZ
 40
0.0
  9
$DIMTOL
 70
     0
  9
$DIMLIM
 70
     0
  9
$DIMTIH
 70
     1
  9
$DIMTOH
 70
     1
  9
$DIMSE1
 70
     0
  9
$DIMSE2
 70
     0
  9
$DIMTAD
 70
     1
  9
$DIMZIN
 70
     0
  9
$DIMBLK
  1

  9
$DIMASO
 70
     1
  9
$DIMSHO
 70
     1
  9
$DIMPOST
  1

  9
$DIMAPOST
  1

  9
$DIMALT
 70
     0
  9
$DIMALTD
 70
     3
  9
$DIMALTF
 40
0.0393700787401575
  9
$DIMLFAC
 40
1.0
  9
$DIMTOFL
 70
     1
  9
$DIMTVP
 40
0.0
  9
$DIMTIX
 70
     0
  9
$DIMSOXD
 70
     0
  9
$DIMSAH
 70
     0
  9
$DIMBLK1
  1

  9
$DIMBLK2
  1

  9
$DIMSTYLE
  2
ISO-25
  9
$DIMCLRD
 70
     0
  9
$DIMCLRE
 70
     0
  9
$DIMCLRT
 70
     0
  9
$DIMTFAC
 40
1.0
  9
$DIMGAP
 40
1.524
  9
$DIMJUST
 70
     0
  9
$DIMSD1
 70
     0
  9
$DIMSD2
 70
     0
  9
$DIMTOLJ
 70
     0
  9
$DIMTZIN
 70
     0
  9
$DIMALTZ
 70
     0
  9
$DIMALTTZ
 70
     0
  9
$DIMUPT
 70
     0
  9
$DIMDEC
 70
     2
  9
$DIMTDEC
 70
     2
  9
$DIMALTU
 70
     2
  9
$DIMALTTD
 70
     3
  9
$DIMTXSTY
  7
Standard
  9
$DIMAUNIT
 70
     0
  9
$DIMADEC
 70
     2
  9
$DIMALTRND
 40
0.0
  9
$DIMAZIN
 70
     0
  9
$DIMDSEP
 70
    44
  9
$DIMATFIT
 70
     3
  9
$DIMFRAC
 70
     0
  9
$DIMLDRBLK
  1

  9
$DIMLUNIT
 70
     2
  9
$DIMLWD
 70
    -2
  9
$DIMLWE
 70
    -2
  9
$DIMTMOVE
 70
     0
  9
$LUNITS
 70
     2
  9
$LUPREC
 70
     2
  9
$SKETCHINC
 40
1.0
  9
$FILLETRAD
 40
10.0
  9
$AUNITS
 70
     0
  9
$AUPREC
 70
     2
  9
$MENU
  1
.
  9
$ELEVATION
 40
0.0
  9
$PELEVATION
 40
0.0
  9
$THICKNESS
 40
0.0
  9
$LIMCHECK
 70
     0
  9
$CHAMFERA
 40
0.0
  9
$CHAMFERB
 40
0.0
  9
$CHAMFERC
 40
0.0
  9
$CHAMFERD
 40
0.0
  9
$SKPOLY
 70
     0
  9
$TDCREATE
 40
2458311.573473565
  9
$TDUCREATE
 40
2458311.198473565
  9
$TDUPDATE
 40
2458318.674651065
  9
$TDUUPDATE
 40
2458318.299651065
  9
$TDINDWG
 40
0.001406794
  9
$TDUSRTIMER
 40
2458318.299425671
  9
$USRTIMER
 70
     1
  9
$ANGBASE
 50
0.0
  9
$ANGDIR
 70
     0
  9
$PDMODE
 70
     0
  9
$PDSIZE
 40
-1.0
  9
$PLINEWID
 40
0.0
  9
$SPLFRAME
 70
     0
  9
$SPLINETYPE
 70
     6
  9
$SPLINESEGS
 70
     8
  9
$HANDSEED
  5
40B
  9
$SURFTAB1
 70
     6
  9
$SURFTAB2
 70
     6
  9
$SURFTYPE
 70
     6
  9
$SURFU
 70
     6
  9
$SURFV
 70
     6
  9
$UCSBASE
  2

  9
$UCSNAME
  2

  9
$UCSORG
 10
0.0
 20
0.0
 30
0.0
  9
$UCSXDIR
 10
1.0
 20
0.0
 30
0.0
  9
$UCSYDIR
 10
0.0
 20
1.0
 30
0.0
  9
$UCSORTHOREF
  2

  9
$UCSORTHOVIEW
 70
     0
  9
$UCSORGTOP
 10
0.0
 20
0.0
 30
0.0
  9
$UCSORGBOTTOM
 10
0.0
 20
0.0
 30
0.0
  9
$UCSORGLEFT
 10
0.0
 20
0.0
 30
0.0
  9
$UCSORGRIGHT
 10
0.0
 20
0.0
 30
0.0
  9
$UCSORGFRONT
 10
0.0
 20
0.0
 30
0.0
  9
$UCSORGBACK
 10
0.0
 20
0.0
 30
0.0
  9
$PUCSBASE
  2

  9
$PUCSNAME
  2

  9
$PUCSORG
 10
0.0
 20
0.0
 30
0.0
  9
$PUCSXDIR
 10
1.0
 20
0.0
 30
0.0
  9
$PUCSYDIR
 10
0.0
 20
1.0
 30
0.0
  9
$PUCSORTHOREF
  2

  9
$PUCSORTHOVIEW
 70
     0
  9
$PUCSORGTOP
 10
0.0
 20
0.0
 30
0.0
  9
$PUCSORGBOTTOM
 10
0.0
 20
0.0
 30
0.0
  9
$PUCSORGLEFT
 10
0.0
 20
0.0
 30
0.0
  9
$PUCSORGRIGHT
 10
0.0
 20
0.0
 30
0.0
  9
$PUCSORGFRONT
 10
0.0
 20
0.0
 30
0.0
  9
$PUCSORGBACK
 10
0.0
 20
0.0
 30
0.0
  9
$USERI1
 70
     0
  9
$USERI2
 70
     0
  9
$USERI3
 70
     0
  9
$USERI4
 70
     0
  9
$USERI5
 70
     0
  9
$USERR1
 40
0.0
  9
$USERR2
 40
0.0
  9
$USERR3
 40
0.0
  9
$USERR4
 40
0.0
  9
$USERR5
 40
0.0
  9
$WORLDVIEW
 70
     1
  9
$SHADEDGE
 70
     3
  9
$SHADEDIF
 70
    70
  9
$TILEMODE
 70
     1
  9
$MAXACTVP
 70
    64
  9
$PINSBASE
 10
0.0
 20
0.0
 30
0.0
  9
$PLIMCHECK
 70
     0
  9
$PEXTMIN
 10
1.000000000000000E+20
 20
1.000000000000000E+20
 30
1.000000000000000E+20
  9
$PEXTMAX
 10
-1.000000000000000E+20
 20
-1.000000000000000E+20
 30
-1.000000000000000E+20
  9
$PLIMMIN
 10
0.0
 20
0.0
  9
$PLIMMAX
 10
0.0
 20
0.0
  9
$UNITMODE
 70
     0
  9
$VISRETAIN
 70
     1
  9
$PLINEGEN
 70
     0
  9
$PSLTSCALE
 70
     1
  9
$TREEDEPTH
 70
  3020
  9
$CMLSTYLE
  2
Standard
  9
$CMLJUST
 70
     0
  9
$CMLSCALE
 40
20.0
  9
$PROXYGRAPHICS
 70
     1
  9
$MEASUREMENT
 70
     1
  9
$CELWEIGHT
370
    -1
  9
$ENDCAPS
280
     0
  9
$JOINSTYLE
280
     0
  9
$LWDISPLAY
290
     1
  9
$INSUNITS
 70
     4
  9
$HYPERLINKBASE
  1

  9
$STYLESHEET
  1

  9
$XEDIT
290
     1
  9
$CEPSNTYPE
380
     0
  9
$PSTYLEMODE
290
     1
  9
$FINGERPRINTGUID
  2
{BAC01CE3-8B97-4FC2-90DB-D6B8BEBB4A31}
  9
$VERSIONGUID
  2
{FAEB1C32-E019-11D5-929B-00C0DF256EC4}
  9
$EXTNAMES
290
     1
  9
$PSVPSCALE
 40
0.0
  9
$OLESTARTUP
290
     0
  0
ENDSEC
  0
SECTION
  2
CLASSES
  0
CLASS
  1
ACDBDICTIONARYWDFLT
  2
AcDbDictionaryWithDefault
  3
ObjectDBX Classes
 90
        0
280
     0
281
     0
  0
CLASS
  1
VISUALSTYLE
  2
AcDbVisualStyle
  3
ObjectDBX Classes
 90
     4095
280
     0
281
     0
  0
CLASS
  1
MATERIAL
  2
AcDbMaterial
  3
ObjectDBX Classes
 90
     1153
280
     0
281
     0
  0
CLASS
  1
SCALE
  2
AcDbScale
  3
ObjectDBX Classes
 90
     1153
280
     0
281
     0
  0
CLASS
  1
SUN
  2
AcDbSun
  3
SCENEOE
 90
     1153
280
     0
281
     0
  0
CLASS
  1
ACDBPLACEHOLDER
  2
AcDbPlaceHolder
  3
ObjectDBX Classes
 90
        0
280
     0
281
     0
  0
CLASS
  1
LAYOUT
  2
AcDbLayout
  3
ObjectDBX Classes
 90
        0
280
     0
281
     0
  0
CLASS
  1
TABLESTYLE
  2
AcDbTableStyle
  3
ObjectDBX Classes
 90
     4095
280
     0
281
     0
  0
CLASS
  1
MLEADERSTYLE
  2
AcDbMLeaderStyle
  3
ACDB_MLEADERSTYLE_CLASS
 90
     4095
280
     0
281
     0
  0
CLASS
  1
RASTERVARIABLES
  2
AcDbRasterVariables
  3
ISM
 90
        0
280
     0
281
     0
  0
ENDSEC
  0
SECTION
  2
TABLES
  0
TABLE
  2
VPORT
  5
8
330
0
100
AcDbSymbolTable
 70
     1
  0
VPORT
  5
29
330
8
100
AcDbSymbolTableRecord
100
AcDbViewportTableRecord
  2
*Active
 70
     0
 10
0.0
 20
0.0
 11
1.0
 21
1.0
 12
-46.34268940033454
 22
-59.15840577343306
 13
0.0
 23
0.0
 14
10.0
 24
10.0
 15
10.0
 25
10.0
 16
0.0
 26
0.0
 36
1.0
 17
0.0
 27
0.0
 37
0.0
 40
150.424936341241
 41
1.740812379110251
 42
50.0
 43
0.0
 44
0.0
 50
0.0
 51
0.0
 71
    16
 72
  2000
 73
     1
 74
     3
 75
     0
 76
     0
 77
     0
 78
     0
281
     0
 65
     1
110
0.0
120
0.0
130
0.0
111
1.0
121
0.0
131
0.0
112
0.0
122
1.0
132
0.0
 79
     0
146
0.0
  0
ENDTAB
  0
TABLE
  2
LTYPE
  5
5
330
0
100
AcDbSymbolTable
 70
     6
  0
LTYPE
  5
14
330
5
100
AcDbSymbolTableRecord
100
AcDbLinetypeTableRecord
  2
ByBlock
 70
     0
  3

 72
    65
 73
     0
 40
0.0
  0
LTYPE
  5
15
330
5
100
AcDbSymbolTableRecord
100
AcDbLinetypeTableRecord
  2
ByLayer
 70
     0
  3

 72
    65
 73
     0
 40
0.0
  0
LTYPE
  5
16
330
5
100
AcDbSymbolTableRecord
100
AcDbLinetypeTableRecord
  2
Continuous
 70
     0
  3
Solid line
 72
    65
 73
     0
 40
0.0
  0
LTYPE
  5
6A
330
5
100
AcDbSymbolTableRecord
100
AcDbLinetypeTableRecord
  2
HIDDEN
 70
     0
  3
Hidden __ __ __ __ __ __ __ __ __ __ __ __ __ __
 72
    65
 73
     2
 40
1.905
 49
1.27
 74
     0
 49
-0.635
 74
     0
  0
LTYPE
  5
6B
330
5
100
AcDbSymbolTableRecord
100
AcDbLinetypeTableRecord
  2
PHANTOM
 70
     0
  3
Phantom ______  __  __  ______  __  __  ______
 72
    65
 73
     6
 40
12.7
 49
6.35
 74
     0
 49
-1.27
 74
     0
 49
1.27
 74
     0
 49
-1.27
 74
     0
 49
1.27
 74
     0
 49
-1.27
 74
     0
  0
LTYPE
  5
6C
330
5
100
AcDbSymbolTableRecord
100
AcDbLinetypeTableRecord
  2
CENTER
 70
     0
  3
Center ____ _ ____ _ ____ _ ____ _ ____ _ ____
 72
    65
 73
     4
 40
10.16
 49
6.35
 74
     0
 49
-1.27
 74
     0
 49
1.27
 74
     0
 49
-1.27
 74
     0
  0
LTYPE
  5
6D
330
5
100
AcDbSymbolTableRecord
100
AcDbLinetypeTableRecord
  2
CENTERX2
 70
     0
  3
Center (2x) ________  __  ________  __  _____
 72
    65
 73
     4
 40
20.32
 49
12.7
 74
     0
 49
-2.54
 74
     0
 49
2.54
 74
     0
 49
-2.54
 74
     0
  0
LTYPE
  5
6E
330
5
100
AcDbSymbolTableRecord
100
AcDbLinetypeTableRecord
  2
DOT2
 70
     0
  3
Dot (.5x) ........................................
 72
    65
 73
     2
 40
0.635
 49
0.0
 74
     0
 49
-0.635
 74
     0
  0
ENDTAB
  0
TABLE
  2
LAYER
  5
2
102
{ACAD_XDICTIONARY
360
201
102
}
330
0
100
AcDbSymbolTable
 70
    18
  0
LAYER
  5
10
330
2
100
AcDbSymbolTableRecord
100
AcDbLayerTableRecord
  2
0
 70
     0
 62
     7
  6
Continuous
370
    -3
390
F
  0
LAYER
  5
6F
330
2
100
AcDbSymbolTableRecord
100
AcDbLayerTableRecord
  2
FORMAT
 70
     0
 62
     2
  6
Continuous
370
    -3
390
F
  0
LAYER
  5
70
330
2
100
AcDbSymbolTableRecord
100
AcDbLayerTableRecord
  2
외형선
 70
     0
 62
     4
  6
Continuous
370
    30
390
F
  0
LAYER
  5
71
330
2
100
AcDbSymbolTableRecord
100
AcDbLayerTableRecord
  2
숨은선
 70
     0
 62
     2
  6
HIDDEN
370
    15
390
F
  0
LAYER
  5
72
330
2
100
AcDbSymbolTableRecord
100
AcDbLayerTableRecord
  2
중심선
 70
     0
 62
     1
  6
CENTERX2
370
    -3
390
F
  0
LAYER
  5
73
330
2
100
AcDbSymbolTableRecord
100
AcDbLayerTableRecord
  2
파단선
 70
     0
 62
     4
  6
Continuous
370
    -3
390
F
  0
LAYER
  5
74
330
2
100
AcDbSymbolTableRecord
100
AcDbLayerTableRecord
  2
해칭선
 70
     0
 62
   100
  6
Continuous
370
    -3
390
F
  0
LAYER
  5
75
330
2
100
AcDbSymbolTableRecord
100
AcDbLayerTableRecord
  2
가는실선
 70
     0
 62
     4
  6
Continuous
370
    -3
390
F
  0
LAYER
  5
76
330
2
100
AcDbSymbolTableRecord
100
AcDbLayerTableRecord
  2
치수_보조선
 70
     0
 62
     4
  6
Continuous
370
    -3
390
F
  0
LAYER
  5
77
330
2
100
AcDbSymbolTableRecord
100
AcDbLayerTableRecord
  2
치수문자_일반주서
 70
     0
 62
     7
  6
Continuous
370
    15
390
F
  0
LAYER
  5
78
330
2
100
AcDbSymbolTableRecord
100
AcDbLayerTableRecord
  2
개별주서
 70
     0
 62
   100
  6
Continuous
370
    30
390
F
  0
LAYER
  5
79
330
2
100
AcDbSymbolTableRecord
100
AcDbLayerTableRecord
  2
중간선
 70
     0
 62
     2
  6
Continuous
370
    15
390
F
  0
LAYER
  5
7A
330
2
100
AcDbSymbolTableRecord
100
AcDbLayerTableRecord
  2
윤곽선
 70
     0
 62
     3
  6
Continuous
370
    40
390
F
  0
LAYER
  5
7B
330
2
100
AcDbSymbolTableRecord
100
AcDbLayerTableRecord
  2
중심마크
 70
     0
 62
   100
  6
Continuous
370
    30
390
F
  0
LAYER
  5
7C
330
2
100
AcDbSymbolTableRecord
100
AcDbLayerTableRecord
  2
가상선
 70
     0
 62
     4
  6
PHANTOM
370
    -3
390
F
  0
LAYER
  5
7D
330
2
100
AcDbSymbolTableRecord
100
AcDbLayerTableRecord
  2
특수지정선
 70
     0
 62
     5
  6
CENTERX2
370
    60
390
F
  0
LAYER
  5
7E
330
2
100
AcDbSymbolTableRecord
100
AcDbLayerTableRecord
  2
참조1
 70
     0
 62
    -4
  6
Continuous
370
    -3
390
F
  0
LAYER
  5
145
330
2
100
AcDbSymbolTableRecord
100
AcDbLayerTableRecord
  2
Defpoints
 70
     0
 62
     7
  6
Continuous
290
     0
370
    -3
390
F
  0
ENDTAB
  0
TABLE
  2
STYLE
  5
3
330
0
100
AcDbSymbolTable
 70
     2
  0
STYLE
  5
11
330
3
100
AcDbSymbolTableRecord
100
AcDbTextStyleTableRecord
  2
Standard
 70
     0
 40
0.0
 41
1.0
 50
0.0
 71
     0
 42
3.5
  3
txt
  4

  0
STYLE
  5
94
330
3
100
AcDbSymbolTableRecord
100
AcDbTextStyleTableRecord
  2
SLDTEXTSTYLE0
 70
     0
 40
0.0
 41
0.75
 50
0.0
 71
     0
 42
3.5
  3
TXT
  4

  0
ENDTAB
  0
TABLE
  2
VIEW
  5
6
330
0
100
AcDbSymbolTable
 70
     0
  0
ENDTAB
  0
TABLE
  2
UCS
  5
7
330
0
100
AcDbSymbolTable
 70
     0
  0
ENDTAB
  0
TABLE
  2
APPID
  5
9
330
0
100
AcDbSymbolTable
 70
     1
  0
APPID
  5
12
330
9
100
AcDbSymbolTableRecord
100
AcDbRegAppTableRecord
  2
ACAD
 70
     0
  0
ENDTAB
  0
TABLE
  2
DIMSTYLE
  5
A
330
0
100
AcDbSymbolTable
 70
     5
100
AcDbDimStyleTable
  0
DIMSTYLE
105
27
330
A
100
AcDbSymbolTableRecord
100
AcDbDimStyleTableRecord
  2
ISO-25
 70
     0
 41
2.5
 42
0.625
 43
3.75
 44
1.25
 73
     0
 74
     0
 77
     1
 78
     8
140
2.5
141
2.5
143
0.03937007874016
147
0.625
171
     3
172
     1
178
     0
271
     2
272
     2
274
     3
278
    44
283
     0
284
     8
340
11
  0
DIMSTYLE
105
C7
102
{ACAD_REACTORS
102
}
330
A
100
AcDbSymbolTableRecord
100
AcDbDimStyleTableRecord
  2
SLDDIMSTYLE0
 70
     0
 41
3.302
 44
0.0
 45
0.000000001
 73
     0
 74
     0
 77
     1
 78
     4
 79
     1
140
3.5
147
0.875
172
     1
173
     1
178
     0
271
     2
272
     2
276
     2
284
    12
289
     0
340
94
  0
DIMSTYLE
105
D5
330
A
100
AcDbSymbolTableRecord
100
AcDbDimStyleTableRecord
  2
SLDDIMSTYLE1
 70
     0
 41
3.302
 44
0.0
 45
0.000000001
 73
     0
 74
     0
 77
     1
 78
     4
 79
     1
140
3.5
143
0.0393700787401575
147
0.875
148
0.000000001
170
     1
172
     1
173
     1
178
     0
271
     2
272
     2
276
     2
284
    12
289
     0
340
94
  0
DIMSTYLE
105
EB
330
A
100
AcDbSymbolTableRecord
100
AcDbDimStyleTableRecord
  2
SLDDIMSTYLE2
 70
     0
 41
3.302
 44
0.0
 45
0.000000001
 73
     0
 74
     0
 77
     1
 78
     4
 79
     1
140
3.5
143
0.0393700787401575
147
0.875
148
0.000000001
170
     1
173
     1
178
     0
271
     2
272
     2
276
     2
284
    12
340
94
  0
DIMSTYLE
105
FF
102
{ACAD_REACTORS
330
FE
330
D4
330
27B
330
279
102
}
330
A
100
AcDbSymbolTableRecord
100
AcDbDimStyleTableRecord
  2
SLDDIMSTYLE3
 70
     0
 41
3.302
 44
0.0
 45
0.000000001
 73
     0
 74
     0
 77
     1
 78
    12
 79
     3
140
3.5
143
0.0393700787401575
147
0.875
148
0.000000001
170
     1
173
     1
178
     0
271
     2
272
     2
276
     2
284
    12
340
94
  0
ENDTAB
  0
TABLE
  2
BLOCK_RECORD
  5
1
330
0
100
AcDbSymbolTable
 70
    20
  0
BLOCK_RECORD
  5
1F
330
1
100
AcDbSymbolTableRecord
100
AcDbBlockTableRecord
  2
*Model_Space
340
22
  0
BLOCK_RECORD
  5
1B
330
1
100
AcDbSymbolTableRecord
100
AcDbBlockTableRecord
  2
*Paper_Space
340
1E
  0
BLOCK_RECORD
  5
23
330
1
100
AcDbSymbolTableRecord
100
AcDbBlockTableRecord
  2
*Paper_Space0
340
26
  0
BLOCK_RECORD
  5
7F
330
1
100
AcDbSymbolTableRecord
100
AcDbBlockTableRecord
  2
블럭10
340
0
102
{BLKREFS
331
BF
102
}
  0
BLOCK_RECORD
  5
C8
330
1
100
AcDbSymbolTableRecord
100
AcDbBlockTableRecord
  2
_D
340
0
  0
BLOCK_RECORD
  5
D6
330
1
100
AcDbSymbolTableRecord
100
AcDbBlockTableRecord
  2
_D_1
340
0
  0
BLOCK_RECORD
  5
EC
330
1
100
AcDbSymbolTableRecord
100
AcDbBlockTableRecord
  2
_D_2
340
0
  0
BLOCK_RECORD
  5
100
330
1
100
AcDbSymbolTableRecord
100
AcDbBlockTableRecord
  2
_D_3
340
0
  0
BLOCK_RECORD
  5
119
330
1
100
AcDbSymbolTableRecord
100
AcDbBlockTableRecord
  2
SW_DOWELSYMBOL_0
340
0
102
{BLKREFS
331
27D
102
}
  0
BLOCK_RECORD
  5
205
330
1
100
AcDbSymbolTableRecord
100
AcDbBlockTableRecord
  2
*D7
340
0
  0
BLOCK_RECORD
  5
211
330
1
100
AcDbSymbolTableRecord
100
AcDbBlockTableRecord
  2
*D8
340
0
  0
BLOCK_RECORD
  5
21D
330
1
100
AcDbSymbolTableRecord
100
AcDbBlockTableRecord
  2
*D9
340
0
  0
BLOCK_RECORD
  5
229
330
1
100
AcDbSymbolTableRecord
100
AcDbBlockTableRecord
  2
*D10
340
0
  0
BLOCK_RECORD
  5
27E
330
1
100
AcDbSymbolTableRecord
100
AcDbBlockTableRecord
  2
*D11
340
0
  0
BLOCK_RECORD
  5
28A
330
1
100
AcDbSymbolTableRecord
100
AcDbBlockTableRecord
  2
*D12
340
0
  0
BLOCK_RECORD
  5
296
330
1
100
AcDbSymbolTableRecord
100
AcDbBlockTableRecord
  2
*D13
340
0
  0
BLOCK_RECORD
  5
2A2
330
1
100
AcDbSymbolTableRecord
100
AcDbBlockTableRecord
  2
*D14
340
0
  0
BLOCK_RECORD
  5
36F
330
1
100
AcDbSymbolTableRecord
100
AcDbBlockTableRecord
  2
*D15
340
0
  0
BLOCK_RECORD
  5
37B
330
1
100
AcDbSymbolTableRecord
100
AcDbBlockTableRecord
  2
*D16
340
0
  0
BLOCK_RECORD
  5
387
330
1
100
AcDbSymbolTableRecord
100
AcDbBlockTableRecord
  2
*D17
340
0
  0
BLOCK_RECORD
  5
393
330
1
100
AcDbSymbolTableRecord
100
AcDbBlockTableRecord
  2
*D18
340
0
  0
ENDTAB
  0
ENDSEC
  0
SECTION
  2
BLOCKS
  0
BLOCK
  5
20
330
1F
100
AcDbEntity
  8
0
100
AcDbBlockBegin
  2
*Model_Space
 70
     0
 10
0.0
 20
0.0
 30
0.0
  3
*Model_Space
  1
*Model_Space
  0
ENDBLK
  5
21
330
1F
100
AcDbEntity
  8
0
100
AcDbBlockEnd
  0
BLOCK
  5
1C
330
1B
100
AcDbEntity
 67
     1
  8
0
100
AcDbBlockBegin
  2
*Paper_Space
 70
     0
 10
0.0
 20
0.0
 30
0.0
  3
*Paper_Space
  1
*Paper_Space
  0
ENDBLK
  5
1D
330
1B
100
AcDbEntity
 67
     1
  8
0
100
AcDbBlockEnd
  0
BLOCK
  5
24
330
23
100
AcDbEntity
  8
0
100
AcDbBlockBegin
  2
*Paper_Space0
 70
     0
 10
0.0
 20
0.0
 30
0.0
  3
*Paper_Space0
  1
*Paper_Space0
  0
ENDBLK
  5
25
330
23
100
AcDbEntity
  8
0
100
AcDbBlockEnd
  0
BLOCK
  5
80
330
7F
100
AcDbEntity
  8
0
100
AcDbBlockBegin
  2
블럭10
 70
     2
 10
0.0
 20
0.0
 30
0.0
  3
블럭10
  1
블럭10
  0
ELLIPSE
  5
82
330
7F
100
AcDbEntity
  8
중심선
100
AcDbEllipse
 10
20.54032771741204
 20
12.0471743016438
 30
0.0
 11
6.600054785286829
 21
-1.261213355974178E-13
 31
0.0
210
0.0
220
0.0
230
1.0
 40
0.636358354079598
 41
0.9219305317359503
 42
6.513795318482858
  0
ELLIPSE
  5
83
330
7F
100
AcDbEntity
  8
중심선
100
AcDbEllipse
 10
20.54032771746488
 20
12.04717430159265
 30
0.0
 11
3.960054785062283
 21
1.540847449632565E-10
 31
0.0
210
0.0
220
0.0
230
1.0
 40
0.3939339440162632
 41
1.131841032648279
 42
5.62031148352944
  0
LINE
  5
84
330
7F
100
AcDbEntity
  8
중심선
100
AcDbLine
 10
2.268634060543552
 20
16.24717430164393
 30
0.0
 11
5.714909304380834
 21
16.24717430164393
 31
0.0
  0
LINE
  5
85
330
7F
100
AcDbEntity
  8
중심선
100
AcDbLine
 10
5.245725140726316
 20
7.84717430164391
 30
0.0
 11
8.692000384563599
 21
7.84717430164391
 31
0.0
  0
LINE
  5
86
330
7F
100
AcDbEntity
  8
중심선
100
AcDbLine
 10
15.74043728645272
 20
16.24717430164393
 30
0.0
 11
8.692000384563599
 21
7.84717430164391
 31
0.0
  0
LINE
  5
87
330
7F
100
AcDbEntity
  8
중심선
100
AcDbLine
 10
0.1404042013395286
 20
13.71084872107135
 30
0.0
 11
3.58671253028996
 21
13.71088815037384
 31
0.0
  0
LINE
  5
88
330
7F
100
AcDbEntity
  8
중심선
100
AcDbLine
 10
2.750260043222114
 20
10.84717430164391
 30
0.0
 11
6.196535287059397
 21
10.84717430164391
 31
0.0
  0
LINE
  5
89
330
7F
100
AcDbEntity
  8
중심선
100
AcDbLine
 10
12.29416204261559
 20
16.24717430164393
 30
0.0
 11
5.245725140726316
 21
7.84717430164391
 31
0.0
  0
LINE
  5
8A
330
7F
100
AcDbEntity
  8
중심선
100
AcDbLine
 10
10.72767329541681
 20
16.24717430164393
 30
0.0
 11
6.196535287059397
 21
10.84717430164391
 31
0.0
  0
LINE
  5
8B
330
7F
100
AcDbEntity
  8
중심선
100
AcDbLine
 10
7.28139805157953
 20
16.24717430164393
 30
0.0
 11
2.750260043222114
 21
10.84717430164391
 31
0.0
  0
LINE
  5
8C
330
7F
100
AcDbEntity
  8
중심선
100
AcDbLine
 10
5.714909304380834
 20
16.24717430164393
 30
0.0
 11
3.58671253028996
 21
13.71088815037384
 31
0.0
  0
LINE
  5
8D
330
7F
100
AcDbEntity
  8
중심선
100
AcDbLine
 10
2.268634060543552
 20
16.24717430164393
 30
0.0
 11
0.1404042013395286
 21
13.71084872107135
 31
0.0
  0
LINE
  5
8E
330
7F
100
AcDbEntity
  8
중심선
100
AcDbLine
 10
7.28139805157953
 20
16.24717430164393
 30
0.0
 11
10.72767329541681
 21
16.24717430164393
 31
0.0
  0
LINE
  5
8F
330
7F
100
AcDbEntity
  8
중심선
100
AcDbLine
 10
12.29416204261559
 20
16.24717430164393
 30
0.0
 11
15.74043728645272
 21
16.24717430164393
 31
0.0
  0
LINE
  5
90
330
7F
100
AcDbEntity
  8
중심선
100
AcDbLine
 10
19.22036997980202
 20
11.08717430171403
 30
0.0
 11
23.66174974927406
 21
11.08717430171406
 31
0.0
  0
LINE
  5
91
330
7F
100
AcDbEntity
  8
중심선
100
AcDbLine
 10
19.22039502424796
 20
13.00717430171391
 30
0.0
 11
19.22036997980202
 21
11.08717430171403
 31
0.0
  0
LINE
  5
92
330
7F
100
AcDbEntity
  8
중심선
100
AcDbLine
 10
19.22039502424796
 20
13.00717430171391
 30
0.0
 11
26.96566020931264
 21
13.00717430171391
 31
0.0
  0
LINE
  5
93
330
7F
100
AcDbEntity
  8
중심선
100
AcDbLine
 10
22.22332737316547
 20
13.45928029700563
 30
0.0
 11
24.52862924686651
 21
15.39360700705356
 31
0.0
  0
ATTDEF
  5
95
330
7F
100
AcDbEntity
  8
FORMAT
 62
     2
100
AcDbText
 10
4.408487351596664
 20
2.075366912832191
 30
0.0
 40
4.233333333333333
  1
E1071132
 41
0.75
  7
SLDTEXTSTYLE0
 11
4.408487351596664
 21
-0.0412997538344756
 31
0.0
100
AcDbAttributeDefinition
  3

  2
AUTOATTR0
 70
     0
 74
     1
  0
ENDBLK
  5
81
330
7F
100
AcDbEntity
  8
0
100
AcDbBlockEnd
  0
BLOCK
  5
C9
330
C8
100
AcDbEntity
  8
0
100
AcDbBlockBegin
  2
_D
 70
     0
 10
0.0
 20
0.0
 30
0.0
  3
_D
  1
_D
  0
SOLID
  5
CB
330
C8
100
AcDbEntity
  8
치수문자_일반주서
100
AcDbTrace
 10
-59.5594211678731
 20
6.351074928723887
 30
0.0
 11
-59.05142116787309
 21
9.653074928723886
 31
0.0
 12
-60.0674211678731
 22
9.653074928723886
 32
0.0
 13
-60.0674211678731
 23
9.653074928723886
 33
0.0
  0
SOLID
  5
CC
330
C8
100
AcDbEntity
  8
치수문자_일반주서
100
AcDbTrace
 10
-59.5594211678731
 20
-6.348925071276102
 30
0.0
 11
-60.0674211678731
 21
-9.650925071276102
 31
0.0
 12
-59.05142116787309
 22
-9.650925071276102
 32
0.0
 13
-59.05142116787309
 23
-9.650925071276102
 33
0.0
  0
LINE
  5
CD
330
C8
100
AcDbEntity
  8
치수문자_일반주서
100
AcDbLine
 10
-47.05942116787307
 20
6.351074928723888
 30
0.0
 11
-60.5594211678731
 21
6.351074928723887
 31
0.0
  0
LINE
  5
CE
330
C8
100
AcDbEntity
  8
치수문자_일반주서
100
AcDbLine
 10
-47.05942116787307
 20
-6.348925071276101
 30
0.0
 11
-60.5594211678731
 21
-6.348925071276102
 31
0.0
  0
LINE
  5
CF
330
C8
100
AcDbEntity
  8
치수문자_일반주서
100
AcDbLine
 10
-59.5594211678731
 20
6.351074928723887
 30
0.0
 11
-59.5594211678731
 21
12.70107492872389
 31
0.0
  0
LINE
  5
D0
330
C8
100
AcDbEntity
  8
치수문자_일반주서
100
AcDbLine
 10
-59.5594211678731
 20
6.351074928723887
 30
0.0
 11
-59.5594211678731
 21
-6.348925071276102
 31
0.0
  0
LINE
  5
D1
330
C8
100
AcDbEntity
  8
치수문자_일반주서
100
AcDbLine
 10
-59.5594211678731
 20
-6.348925071276102
 30
0.0
 11
-59.5594211678731
 21
-12.6989250712761
 31
0.0
  0
MTEXT
  5
D2
330
C8
100
AcDbEntity
  8
치수문자_일반주서
100
AcDbMText
 10
-64.07115825707491
 20
-8.456894014097152
 30
0.0
 40
3.5
 41
0.0
 71
     1
 72
     1
  1
%%c
  7
SLDTEXTSTYLE0
 11
-7.044195017643634E-15
 21
1.0
 31
0.0
 73
     1
 44
1.0
  0
MTEXT
  5
D3
330
C8
100
AcDbEntity
  8
치수문자_일반주서
100
AcDbMText
 10
-64.1246304337348
 20
-3.178456615723071
 30
0.0
 40
3.5
 41
0.0
 71
     1
 72
     1
  1
12.70
  7
SLDTEXTSTYLE0
 11
-7.044195017643634E-15
 21
1.0
 31
0.0
 73
     1
 44
1.0
  0
ENDBLK
  5
CA
330
C8
100
AcDbEntity
  8
0
100
AcDbBlockEnd
  0
BLOCK
  5
D7
330
D6
100
AcDbEntity
  8
0
100
AcDbBlockBegin
  2
_D_1
 70
     0
 10
0.0
 20
0.0
 30
0.0
  3
_D_1
  1
_D_1
  0
LINE
  5
D9
330
D6
100
AcDbEntity
  8
0
  6
Continuous
 62
     0
370
    -2
100
AcDbLine
 10
110.5501193291346
 20
19.1125
 30
0.0
 11
110.5501193291346
 21
31.92269978450445
 31
0.0
  0
LINE
  5
DA
330
D6
100
AcDbEntity
  8
0
  6
Continuous
 62
     0
370
    -2
100
AcDbLine
 10
8.950119329134615
 20
16.15820082442998
 30
0.0
 11
8.950119329134615
 21
31.92269978450445
 31
0.0
  0
LINE
  5
DB
330
D6
100
AcDbEntity
  8
0
  6
Continuous
 62
     0
370
    -2
100
AcDbLine
 10
107.2481193291346
 20
31.92269978450445
 30
0.0
 11
12.25211932913462
 21
31.92269978450445
 31
0.0
  0
SOLID
  5
DC
330
D6
100
AcDbEntity
  8
0
 62
     0
100
AcDbTrace
 10
107.2481193291346
 20
31.37236645117111
 30
0.0
 11
107.2481193291346
 21
32.47303311783778
 31
0.0
 12
110.5501193291346
 22
31.92269978450445
 32
0.0
 13
110.5501193291346
 23
31.92269978450445
 33
0.0
  0
SOLID
  5
DD
330
D6
100
AcDbEntity
  8
0
 62
     0
100
AcDbTrace
 10
12.25211932913462
 20
32.47303311783778
 30
0.0
 11
12.25211932913462
 21
31.37236645117111
 31
0.0
 12
8.950119329134615
 22
31.92269978450445
 32
0.0
 13
8.950119329134615
 23
31.92269978450445
 33
0.0
  0
MTEXT
  5
DE
330
D6
100
AcDbEntity
  8
0
 62
     0
370
    15
100
AcDbMText
 10
59.75011932913461
 20
36.29769978450445
 30
0.0
 40
3.5
 41
0.0
 71
     2
 72
     1
  1
\A1;101.6 [4]
  7
SLDTEXTSTYLE0
 73
     1
 44
1.0
  0
POINT
  5
DF
330
D6
100
AcDbEntity
  8
Defpoints
 62
     0
100
AcDbPoint
 10
110.5501193291346
 20
19.05
 30
0.0
  0
POINT
  5
E0
330
D6
100
AcDbEntity
  8
Defpoints
 62
     0
100
AcDbPoint
 10
8.950119329134615
 20
16.09570082442998
 30
0.0
  0
POINT
  5
E1
330
D6
100
AcDbEntity
  8
Defpoints
 62
     0
100
AcDbPoint
 10
8.950119329134615
 20
31.92269978450445
 30
0.0
  0
ENDBLK
  5
D8
330
D6
100
AcDbEntity
  8
0
100
AcDbBlockEnd
  0
BLOCK
  5
ED
330
EC
100
AcDbEntity
  8
0
100
AcDbBlockBegin
  2
_D_2
 70
     0
 10
0.0
 20
0.0
 30
0.0
  3
_D_2
  1
_D_2
  0
LINE
  5
EF
330
EC
100
AcDbEntity
  8
0
  6
Continuous
 62
     0
370
    -2
100
AcDbLine
 10
29.14057883212694
 20
6.606477789079263
 30
0.0
 11
29.14057883212694
 21
30.3105321911699
 31
0.0
  0
LINE
  5
F0
330
EC
100
AcDbEntity
  8
0
  6
Continuous
 62
     0
370
    -2
100
AcDbLine
 10
-47.05942116787307
 20
5.413574928723888
 30
0.0
 11
-47.05942116787308
 21
30.3105321911699
 31
0.0
  0
LINE
  5
F1
330
EC
100
AcDbEntity
  8
0
  6
Continuous
 62
     0
370
    -2
100
AcDbLine
 10
25.83857883212694
 20
30.3105321911699
 30
0.0
 11
-43.75742116787308
 21
30.3105321911699
 31
0.0
  0
SOLID
  5
F2
330
EC
100
AcDbEntity
  8
0
 62
     0
100
AcDbTrace
 10
25.83857883212694
 20
29.76019885783656
 30
0.0
 11
25.83857883212694
 21
30.86086552450323
 31
0.0
 12
29.14057883212694
 22
30.3105321911699
 32
0.0
 13
29.14057883212694
 23
30.3105321911699
 33
0.0
  0
SOLID
  5
F3
330
EC
100
AcDbEntity
  8
0
 62
     0
100
AcDbTrace
 10
-43.75742116787308
 20
30.86086552450323
 30
0.0
 11
-43.75742116787308
 21
29.76019885783656
 31
0.0
 12
-47.05942116787308
 22
30.3105321911699
 32
0.0
 13
-47.05942116787308
 23
30.3105321911699
 33
0.0
  0
MTEXT
  5
F4
330
EC
100
AcDbEntity
  8
0
 62
     0
370
    15
100
AcDbMText
 10
-8.959421167873067
 20
34.6855321911699
 30
0.0
 40
3.5
 41
0.0
 71
     2
 72
     1
  1
\A1;76.2 [3.00]
  7
SLDTEXTSTYLE0
 73
     1
 44
1.0
  0
POINT
  5
F5
330
EC
100
AcDbEntity
  8
Defpoints
 62
     0
100
AcDbPoint
 10
29.14057883212694
 20
6.543977789079263
 30
0.0
  0
POINT
  5
F6
330
EC
100
AcDbEntity
  8
Defpoints
 62
     0
100
AcDbPoint
 10
-47.05942116787307
 20
5.351074928723888
 30
0.0
  0
POINT
  5
F7
330
EC
100
AcDbEntity
  8
Defpoints
 62
     0
100
AcDbPoint
 10
-47.05942116787307
 20
30.3105321911699
 30
0.0
  0
ENDBLK
  5
EE
330
EC
100
AcDbEntity
  8
0
100
AcDbBlockEnd
  0
BLOCK
  5
101
330
100
100
AcDbEntity
  8
0
100
AcDbBlockBegin
  2
_D_3
 70
     0
 10
0.0
 20
0.0
 30
0.0
  3
_D_3
  1
_D_3
  0
LINE
  5
103
330
100
100
AcDbEntity
  8
0
  6
Continuous
 62
     0
370
    -2
100
AcDbLine
 10
110.6126193291346
 20
-19.05
 30
0.0
 11
129.5501193291349
 21
-19.04999999999993
 31
0.0
  0
LINE
  5
104
330
100
100
AcDbEntity
  8
0
  6
Continuous
 62
     0
370
    -2
100
AcDbLine
 10
110.6126193291346
 20
19.05
 30
0.0
 11
129.5501193291348
 21
19.05000000000007
 31
0.0
  0
LINE
  5
105
330
100
100
AcDbEntity
  8
0
  6
Continuous
 62
     0
370
    -2
100
AcDbLine
 10
129.5501193291348
 20
19.05000000000007
 30
0.0
 11
129.5501193291346
 21
71.87139923012488
 31
0.0
  0
LINE
  5
106
330
100
100
AcDbEntity
  8
0
  6
Continuous
 62
     0
370
    -2
100
AcDbLine
 10
129.5501193291349
 20
-15.74799999999993
 30
0.0
 11
129.5501193291348
 21
15.74800000000007
 31
0.0
  0
SOLID
  5
107
330
100
100
AcDbEntity
  8
0
 62
     0
100
AcDbTrace
 10
128.9997859958016
 20
-15.74799999999993
 30
0.0
 11
130.1004526624683
 21
-15.74799999999992
 31
0.0
 12
129.5501193291349
 22
-19.04999999999993
 32
0.0
 13
129.5501193291349
 23
-19.04999999999993
 33
0.0
  0
SOLID
  5
108
330
100
100
AcDbEntity
  8
0
 62
     0
100
AcDbTrace
 10
130.1004526624681
 20
15.74800000000007
 30
0.0
 11
128.9997859958015
 21
15.74800000000007
 31
0.0
 12
129.5501193291348
 22
19.05000000000007
 32
0.0
 13
129.5501193291348
 23
19.05000000000007
 33
0.0
  0
MTEXT
  5
109
330
100
100
AcDbEntity
  8
0
 62
     0
370
    15
100
AcDbMText
 10
125.1751193291346
 20
57.43389923012487
 30
0.0
 40
3.5
 41
0.0
 71
     2
 72
     1
  1
\A1;%%c38.1 [1 1/2]
  7
SLDTEXTSTYLE0
 11
-3.729883127349607E-15
 21
1.0
 31
0.0
 73
     1
 44
1.0
  0
POINT
  5
10A
330
100
100
AcDbEntity
  8
Defpoints
 62
     0
100
AcDbPoint
 10
110.5501193291346
 20
-19.05
 30
0.0
  0
POINT
  5
10B
330
100
100
AcDbEntity
  8
Defpoints
 62
     0
100
AcDbPoint
 10
110.5501193291346
 20
19.05
 30
0.0
  0
POINT
  5
10C
330
100
100
AcDbEntity
  8
Defpoints
 62
     0
100
AcDbPoint
 10
129.5501193291348
 20
19.05000000000007
 30
0.0
  0
ENDBLK
  5
102
330
100
100
AcDbEntity
  8
0
100
AcDbBlockEnd
  0
BLOCK
  5
11A
330
119
100
AcDbEntity
  8
0
100
AcDbBlockBegin
  2
SW_DOWELSYMBOL_0
 70
     0
 10
0.0
 20
0.0
 30
0.0
  3
SW_DOWELSYMBOL_0
  1
SW_DOWELSYMBOL_0
  0
CIRCLE
  5
11C
330
119
100
AcDbEntity
  8
해칭선
 62
     0
100
AcDbCircle
 10
0.0
 20
0.0
 30
0.0
 40
3.000000000000001
  0
HATCH
  5
11D
330
119
100
AcDbEntity
  8
0
  6
Continuous
 62
     0
370
     0
100
AcDbHatch
 10
0.0
 20
0.0
 30
0.0
210
0.0
220
0.0
230
1.0
  2
SOLID
 70
     1
 71
     0
 91
        1
 92
        0
 93
        3
 72
     2
 10
0.0
 20
0.0
 40
3.000000000000001
 50
0.0
 51
90.0
 73
     1
 72
     1
 10
0.0
 20
3.000000000000001
 11
0.0
 21
0.0
 72
     1
 10
0.0
 20
0.0
 11
3.000000000000001
 21
0.0
 97
        0
 75
     0
 76
     1
 98
        1
 10
0.0
 20
0.0
  0
HATCH
  5
11E
330
119
100
AcDbEntity
  8
0
  6
Continuous
 62
     0
370
     0
100
AcDbHatch
 10
0.0
 20
0.0
 30
0.0
210
0.0
220
0.0
230
1.0
  2
SOLID
 70
     1
 71
     0
 91
        1
 92
        0
 93
        3
 72
     2
 10
0.0
 20
0.0
 40
3.000000000000001
 50
180.0
 51
270.0000000000007
 73
     1
 72
     1
 10
0.0
 20
-3.000000000000001
 11
0.0
 21
0.0
 72
     1
 10
0.0
 20
0.0
 11
-3.000000000000001
 21
0.0
 97
        0
 75
     0
 76
     1
 98
        1
 10
0.0
 20
0.0
  0
ENDBLK
  5
11B
330
119
100
AcDbEntity
  8
0
100
AcDbBlockEnd
  0
BLOCK
  5
206
330
205
100
AcDbEntity
  8
0
100
AcDbBlockBegin
  2
*D7
 70
     1
 10
0.0
 20
0.0
 30
0.0
  3
*D7
  1
*D8
  0
LINE
  5
208
330
205
100
AcDbEntity
  8
치수문자_일반주서
 62
     0
370
    -2
100
AcDbLine
 10
17.81250000000006
 20
65.84680738881174
 30
0.0
 11
4.374999999999988
 21
65.8468073888117
 31
0.0
  0
LINE
  5
209
330
205
100
AcDbEntity
  8
치수문자_일반주서
 62
     0
370
    -2
100
AcDbLine
 10
17.81250000000006
 20
34.09680738881174
 30
0.0
 11
4.375000000000099
 21
34.0968073888117
 31
0.0
  0
LINE
  5
20A
330
205
100
AcDbEntity
  8
치수문자_일반주서
 62
     0
370
    -2
100
AcDbLine
 10
4.374999999999999
 20
62.5448073888117
 30
0.0
 11
4.375000000000087
 21
37.3988073888117
 31
0.0
  0
SOLID
  5
20B
330
205
100
AcDbEntity
  8
치수문자_일반주서
 62
     0
100
AcDbTrace
 10
4.925333333333333
 20
62.5448073888117
 30
0.0
 11
3.824666666666666
 21
62.5448073888117
 31
0.0
 12
4.374999999999988
 22
65.8468073888117
 32
0.0
 13
4.374999999999988
 23
65.8468073888117
 33
0.0
  0
SOLID
  5
20C
330
205
100
AcDbEntity
  8
치수문자_일반주서
 62
     0
100
AcDbTrace
 10
3.824666666666754
 20
37.3988073888117
 30
0.0
 11
4.925333333333421
 21
37.3988073888117
 31
0.0
 12
4.375000000000099
 22
34.0968073888117
 32
0.0
 13
4.375000000000099
 23
34.0968073888117
 33
0.0
  0
MTEXT
  5
20D
330
205
100
AcDbEntity
  8
치수문자_일반주서
 62
     0
100
AcDbMText
 10
0.0000000000000426
 20
49.97180738881174
 30
0.0
 40
3.5
 41
0.0
 71
     2
 72
     1
  1
\A1;%%c31.75
  7
SLDTEXTSTYLE0
 11
-3.496765431890256E-15
 21
1.0
 31
0.0
 73
     1
 44
1.0
  0
POINT
  5
20E
330
205
100
AcDbEntity
  8
Defpoints
 62
     0
100
AcDbPoint
 10
17.87500000000006
 20
65.84680738881174
 30
0.0
  0
POINT
  5
20F
330
205
100
AcDbEntity
  8
Defpoints
 62
     0
100
AcDbPoint
 10
17.87500000000006
 20
34.09680738881174
 30
0.0
  0
POINT
  5
210
330
205
100
AcDbEntity
  8
Defpoints
 62
     0
100
AcDbPoint
 10
4.375000000000099
 20
34.09680738881169
 30
0.0
  0
ENDBLK
  5
207
330
205
100
AcDbEntity
  8
0
100
AcDbBlockEnd
  0
BLOCK
  5
212
330
211
100
AcDbEntity
  8
0
100
AcDbBlockBegin
  2
*D8
 70
     1
 10
0.0
 20
0.0
 30
0.0
  3
*D8
  1
*D9
  0
LINE
  5
214
330
211
100
AcDbEntity
  8
치수문자_일반주서
 62
     0
370
    -2
100
AcDbLine
 10
181.9750000000001
 20
65.90930738881175
 30
0.0
 11
181.9750000000001
 21
79.00973181140527
 31
0.0
  0
LINE
  5
215
330
211
100
AcDbEntity
  8
치수문자_일반주서
 62
     0
370
    -2
100
AcDbLine
 10
80.37500000000006
 20
60.48121650654058
 30
0.0
 11
80.37500000000006
 21
79.00973181140527
 31
0.0
  0
LINE
  5
216
330
211
100
AcDbEntity
  8
치수문자_일반주서
 62
     0
370
    -2
100
AcDbLine
 10
178.6730000000001
 20
79.00973181140527
 30
0.0
 11
83.67700000000005
 21
79.00973181140527
 31
0.0
  0
SOLID
  5
217
330
211
100
AcDbEntity
  8
치수문자_일반주서
 62
     0
100
AcDbTrace
 10
178.6730000000001
 20
78.45939847807195
 30
0.0
 11
178.6730000000001
 21
79.5600651447386
 31
0.0
 12
181.9750000000001
 22
79.00973181140527
 32
0.0
 13
181.9750000000001
 23
79.00973181140527
 33
0.0
  0
SOLID
  5
218
330
211
100
AcDbEntity
  8
치수문자_일반주서
 62
     0
100
AcDbTrace
 10
83.67700000000005
 20
79.5600651447386
 30
0.0
 11
83.67700000000005
 21
78.45939847807195
 31
0.0
 12
80.37500000000006
 22
79.00973181140527
 32
0.0
 13
80.37500000000006
 23
79.00973181140527
 33
0.0
  0
MTEXT
  5
219
330
211
100
AcDbEntity
  8
치수문자_일반주서
 62
     0
100
AcDbMText
 10
131.1750000000001
 20
83.38473181140527
 30
0.0
 40
3.5
 41
0.0
 71
     2
 72
     1
  1
\A1;101.60
  7
SLDTEXTSTYLE0
 73
     1
 44
1.0
  0
POINT
  5
21A
330
211
100
AcDbEntity
  8
Defpoints
 62
     0
100
AcDbPoint
 10
181.9750000000001
 20
65.84680738881175
 30
0.0
  0
POINT
  5
21B
330
211
100
AcDbEntity
  8
Defpoints
 62
     0
100
AcDbPoint
 10
80.37500000000006
 20
60.41871650654058
 30
0.0
  0
POINT
  5
21C
330
211
100
AcDbEntity
  8
Defpoints
 62
     0
100
AcDbPoint
 10
80.37500000000006
 20
79.00973181140527
 30
0.0
  0
ENDBLK
  5
213
330
211
100
AcDbEntity
  8
0
100
AcDbBlockEnd
  0
BLOCK
  5
21E
330
21D
100
AcDbEntity
  8
0
100
AcDbBlockBegin
  2
*D9
 70
     1
 10
0.0
 20
0.0
 30
0.0
  3
*D9
  1
*D10
  0
LINE
  5
220
330
21D
100
AcDbEntity
  8
치수문자_일반주서
 62
     0
370
    -2
100
AcDbLine
 10
181.9750000000001
 20
65.90930738881177
 30
0.0
 11
181.9750000000001
 21
95.56177325325228
 31
0.0
  0
LINE
  5
221
330
21D
100
AcDbEntity
  8
치수문자_일반주서
 62
     0
370
    -2
100
AcDbLine
 10
16.87500000000004
 20
64.90930738881173
 30
0.0
 11
16.87500000000004
 21
95.56177325325228
 31
0.0
  0
LINE
  5
222
330
21D
100
AcDbEntity
  8
치수문자_일반주서
 62
     0
370
    -2
100
AcDbLine
 10
178.6730000000001
 20
95.56177325325228
 30
0.0
 11
20.17700000000004
 21
95.56177325325228
 31
0.0
  0
SOLID
  5
223
330
21D
100
AcDbEntity
  8
치수문자_일반주서
 62
     0
100
AcDbTrace
 10
178.6730000000001
 20
95.01143991991896
 30
0.0
 11
178.6730000000001
 21
96.11210658658561
 31
0.0
 12
181.9750000000001
 22
95.56177325325228
 32
0.0
 13
181.9750000000001
 23
95.56177325325228
 33
0.0
  0
SOLID
  5
224
330
21D
100
AcDbEntity
  8
치수문자_일반주서
 62
     0
100
AcDbTrace
 10
20.17700000000004
 20
96.11210658658561
 30
0.0
 11
20.17700000000004
 21
95.01143991991896
 31
0.0
 12
16.87500000000004
 22
95.56177325325228
 32
0.0
 13
16.87500000000004
 23
95.56177325325228
 33
0.0
  0
MTEXT
  5
225
330
21D
100
AcDbEntity
  8
치수문자_일반주서
 62
     0
100
AcDbMText
 10
99.42500000000005
 20
99.93677325325228
 30
0.0
 40
3.5
 41
0.0
 71
     2
 72
     1
  1
\A1;165.10
  7
SLDTEXTSTYLE0
 73
     1
 44
1.0
  0
POINT
  5
226
330
21D
100
AcDbEntity
  8
Defpoints
 62
     0
100
AcDbPoint
 10
181.9750000000001
 20
65.84680738881177
 30
0.0
  0
POINT
  5
227
330
21D
100
AcDbEntity
  8
Defpoints
 62
     0
100
AcDbPoint
 10
16.87500000000004
 20
64.84680738881173
 30
0.0
  0
POINT
  5
228
330
21D
100
AcDbEntity
  8
Defpoints
 62
     0
100
AcDbPoint
 10
16.87500000000004
 20
95.56177325325228
 30
0.0
  0
ENDBLK
  5
21F
330
21D
100
AcDbEntity
  8
0
100
AcDbBlockEnd
  0
BLOCK
  5
22A
330
229
100
AcDbEntity
  8
0
100
AcDbBlockBegin
  2
*D10
 70
     1
 10
0.0
 20
0.0
 30
0.0
  3
*D10
  1
*D11
  0
LINE
  5
22C
330
229
100
AcDbEntity
  8
치수문자_일반주서
 62
     0
370
    -2
100
AcDbLine
 10
182.0375000000001
 20
34.09680738881176
 30
0.0
 11
203.5696649250567
 21
34.09680738881184
 31
0.0
  0
LINE
  5
22D
330
229
100
AcDbEntity
  8
치수문자_일반주서
 62
     0
370
    -2
100
AcDbLine
 10
182.0375000000001
 20
65.84680738881175
 30
0.0
 11
203.5696649250566
 21
65.84680738881184
 31
0.0
  0
LINE
  5
22E
330
229
100
AcDbEntity
  8
치수문자_일반주서
 62
     0
370
    -2
100
AcDbLine
 10
203.5696649250566
 20
65.84680738881184
 30
0.0
 11
203.5696649250565
 21
96.78291345258398
 31
0.0
  0
LINE
  5
22F
330
229
100
AcDbEntity
  8
치수문자_일반주서
 62
     0
370
    -2
100
AcDbLine
 10
203.5696649250567
 20
34.09680738881184
 30
0.0
 11
203.5696649250566
 21
65.84680738881184
 31
0.0
  0
LINE
  5
230
330
229
100
AcDbEntity
  8
치수문자_일반주서
 62
     0
370
    -2
100
AcDbLine
 10
203.5696649250567
 20
30.79480738881184
 30
0.0
 11
203.5696649250567
 21
27.49280738881184
 31
0.0
  0
LINE
  5
231
330
229
100
AcDbEntity
  8
치수문자_일반주서
 62
     0
370
    -2
100
AcDbLine
 10
203.5696649250566
 20
69.14880738881183
 30
0.0
 11
203.5696649250566
 21
72.45080738881182
 31
0.0
  0
SOLID
  5
232
330
229
100
AcDbEntity
  8
치수문자_일반주서
 62
     0
100
AcDbTrace
 10
204.11999825839
 20
30.79480738881184
 30
0.0
 11
203.0193315917234
 21
30.79480738881184
 31
0.0
 12
203.5696649250567
 22
34.09680738881184
 32
0.0
 13
203.5696649250567
 23
34.09680738881184
 33
0.0
  0
SOLID
  5
233
330
229
100
AcDbEntity
  8
치수문자_일반주서
 62
     0
100
AcDbTrace
 10
203.0193315917233
 20
69.14880738881183
 30
0.0
 11
204.1199982583899
 21
69.14880738881183
 31
0.0
 12
203.5696649250566
 22
65.84680738881184
 32
0.0
 13
203.5696649250566
 23
65.84680738881184
 33
0.0
  0
MTEXT
  5
234
330
229
100
AcDbEntity
  8
치수문자_일반주서
 62
     0
100
AcDbMText
 10
199.1946649250565
 20
89.78291345258397
 30
0.0
 40
3.5
 41
0.0
 71
     2
 72
     1
  1
\A1;%%c31.75
  7
SLDTEXTSTYLE0
 11
-3.580687802255623E-15
 21
1.0
 31
0.0
 73
     1
 44
1.0
  0
POINT
  5
235
330
229
100
AcDbEntity
  8
Defpoints
 62
     0
100
AcDbPoint
 10
181.9750000000001
 20
34.09680738881176
 30
0.0
  0
POINT
  5
236
330
229
100
AcDbEntity
  8
Defpoints
 62
     0
100
AcDbPoint
 10
181.9750000000001
 20
65.84680738881175
 30
0.0
  0
POINT
  5
237
330
229
100
AcDbEntity
  8
Defpoints
 62
     0
100
AcDbPoint
 10
203.5696649250566
 20
65.84680738881184
 30
0.0
  0
ENDBLK
  5
22B
330
229
100
AcDbEntity
  8
0
100
AcDbBlockEnd
  0
BLOCK
  5
27F
330
27E
100
AcDbEntity
  8
0
100
AcDbBlockBegin
  2
*D11
 70
     1
 10
0.0
 20
0.0
 30
0.0
  3
*D11
  1
*D12
  0
LINE
  5
281
330
27E
100
AcDbEntity
  8
0
  6
Continuous
 62
     0
370
    -2
100
AcDbLine
 10
-53.5625
 20
15.87499999999997
 30
0.0
 11
-67.00000000000007
 21
15.87499999999992
 31
0.0
  0
LINE
  5
282
330
27E
100
AcDbEntity
  8
0
  6
Continuous
 62
     0
370
    -2
100
AcDbLine
 10
-53.5625
 20
-15.87500000000003
 30
0.0
 11
-66.99999999999996
 21
-15.87500000000008
 31
0.0
  0
LINE
  5
283
330
27E
100
AcDbEntity
  8
0
  6
Continuous
 62
     0
370
    -2
100
AcDbLine
 10
-67.00000000000006
 20
12.57299999999992
 30
0.0
 11
-66.99999999999997
 21
-12.57300000000008
 31
0.0
  0
SOLID
  5
284
330
27E
100
AcDbEntity
  8
0
 62
     0
100
AcDbTrace
 10
-66.44966666666673
 20
12.57299999999992
 30
0.0
 11
-67.55033333333338
 21
12.57299999999992
 31
0.0
 12
-67.00000000000007
 22
15.87499999999992
 32
0.0
 13
-67.00000000000007
 23
15.87499999999992
 33
0.0
  0
SOLID
  5
285
330
27E
100
AcDbEntity
  8
0
 62
     0
100
AcDbTrace
 10
-67.5503333333333
 20
-12.57300000000008
 30
0.0
 11
-66.44966666666664
 21
-12.57300000000008
 31
0.0
 12
-66.99999999999996
 22
-15.87500000000008
 32
0.0
 13
-66.99999999999996
 23
-15.87500000000008
 33
0.0
  0
MTEXT
  5
286
330
27E
100
AcDbEntity
  8
0
 62
     0
370
    15
100
AcDbMText
 10
-71.37500000000001
 20
-0.0000000000000297
 30
0.0
 40
3.5
 41
0.0
 71
     2
 72
     1
  1
\A1;%%c31.75 [1 1/4]
  7
SLDTEXTSTYLE0
 11
-3.580687802255623E-15
 21
1.0
 31
0.0
 73
     1
 44
1.0
  0
POINT
  5
287
330
27E
100
AcDbEntity
  8
Defpoints
 62
     0
100
AcDbPoint
 10
-53.5
 20
15.87499999999997
 30
0.0
  0
POINT
  5
288
330
27E
100
AcDbEntity
  8
Defpoints
 62
     0
100
AcDbPoint
 10
-53.5
 20
-15.87500000000003
 30
0.0
  0
POINT
  5
289
330
27E
100
AcDbEntity
  8
Defpoints
 62
     0
100
AcDbPoint
 10
-66.99999999999996
 20
-15.87500000000008
 30
0.0
  0
ENDBLK
  5
280
330
27E
100
AcDbEntity
  8
0
100
AcDbBlockEnd
  0
BLOCK
  5
28B
330
28A
100
AcDbEntity
  8
0
100
AcDbBlockBegin
  2
*D12
 70
     1
 10
0.0
 20
0.0
 30
0.0
  3
*D12
  1
*D13
  0
LINE
  5
28D
330
28A
100
AcDbEntity
  8
치수문자_일반주서
 62
     0
370
    -2
100
AcDbLine
 10
265.0980790275294
 20
-67.25780378539
 30
0.0
 11
265.0980790275294
 21
-54.15737936279648
 31
0.0
  0
LINE
  5
28E
330
28A
100
AcDbEntity
  8
치수문자_일반주서
 62
     0
370
    -2
100
AcDbLine
 10
163.4980790275294
 20
-72.68589466766117
 30
0.0
 11
163.4980790275294
 21
-54.15737936279648
 31
0.0
  0
LINE
  5
28F
330
28A
100
AcDbEntity
  8
치수문자_일반주서
 62
     0
370
    -2
100
AcDbLine
 10
261.7960790275293
 20
-54.15737936279648
 30
0.0
 11
166.8000790275294
 21
-54.15737936279648
 31
0.0
  0
SOLID
  5
290
330
28A
100
AcDbEntity
  8
치수문자_일반주서
 62
     0
100
AcDbTrace
 10
261.7960790275293
 20
-54.70771269612981
 30
0.0
 11
261.7960790275293
 21
-53.60704602946314
 31
0.0
 12
265.0980790275294
 22
-54.15737936279648
 32
0.0
 13
265.0980790275294
 23
-54.15737936279648
 33
0.0
  0
SOLID
  5
291
330
28A
100
AcDbEntity
  8
치수문자_일반주서
 62
     0
100
AcDbTrace
 10
166.8000790275294
 20
-53.60704602946314
 30
0.0
 11
166.8000790275294
 21
-54.70771269612981
 31
0.0
 12
163.4980790275294
 22
-54.15737936279648
 32
0.0
 13
163.4980790275294
 23
-54.15737936279648
 33
0.0
  0
MTEXT
  5
292
330
28A
100
AcDbEntity
  8
치수문자_일반주서
 62
     0
100
AcDbMText
 10
214.2980790275294
 20
-49.78237936279648
 30
0.0
 40
3.5
 41
0.0
 71
     2
 72
     1
  1
\A1;101.60
  7
SLDTEXTSTYLE0
 73
     1
 44
1.0
  0
POINT
  5
293
330
28A
100
AcDbEntity
  8
Defpoints
 62
     0
100
AcDbPoint
 10
265.0980790275294
 20
-67.32030378539
 30
0.0
  0
POINT
  5
294
330
28A
100
AcDbEntity
  8
Defpoints
 62
     0
100
AcDbPoint
 10
163.4980790275294
 20
-72.74839466766117
 30
0.0
  0
POINT
  5
295
330
28A
100
AcDbEntity
  8
Defpoints
 62
     0
100
AcDbPoint
 10
163.4980790275294
 20
-54.15737936279648
 30
0.0
  0
ENDBLK
  5
28C
330
28A
100
AcDbEntity
  8
0
100
AcDbBlockEnd
  0
BLOCK
  5
297
330
296
100
AcDbEntity
  8
0
100
AcDbBlockBegin
  2
*D13
 70
     1
 10
0.0
 20
0.0
 30
0.0
  3
*D13
  1
*D14
  0
LINE
  5
299
330
296
100
AcDbEntity
  8
0
  6
Continuous
 62
     0
370
    -2
100
AcDbLine
 10
110.5501193291346
 20
19.1125
 30
0.0
 11
110.5501193291346
 21
45.58996586444053
 31
0.0
  0
LINE
  5
29A
330
296
100
AcDbEntity
  8
0
  6
Continuous
 62
     0
370
    -2
100
AcDbLine
 10
-54.50000000000001
 20
14.93749999999996
 30
0.0
 11
-54.50000000000003
 21
45.58996586444053
 31
0.0
  0
LINE
  5
29B
330
296
100
AcDbEntity
  8
0
  6
Continuous
 62
     0
370
    -2
100
AcDbLine
 10
107.2481193291346
 20
45.58996586444053
 30
0.0
 11
-51.19800000000003
 21
45.58996586444053
 31
0.0
  0
SOLID
  5
29C
330
296
100
AcDbEntity
  8
0
 62
     0
100
AcDbTrace
 10
107.2481193291346
 20
45.03963253110719
 30
0.0
 11
107.2481193291346
 21
46.14029919777386
 31
0.0
 12
110.5501193291346
 22
45.58996586444053
 32
0.0
 13
110.5501193291346
 23
45.58996586444053
 33
0.0
  0
SOLID
  5
29D
330
296
100
AcDbEntity
  8
0
 62
     0
100
AcDbTrace
 10
-51.19800000000003
 20
46.14029919777386
 30
0.0
 11
-51.19800000000003
 21
45.03963253110719
 31
0.0
 12
-54.50000000000003
 22
45.58996586444053
 32
0.0
 13
-54.50000000000003
 23
45.58996586444053
 33
0.0
  0
MTEXT
  5
29E
330
296
100
AcDbEntity
  8
0
 62
     0
370
    15
100
AcDbMText
 10
31.04999999999998
 20
49.96496586444053
 30
0.0
 40
3.5
 41
0.0
 71
     2
 72
     1
  1
\A1;165.05 [6 1/2]
  7
SLDTEXTSTYLE0
 73
     1
 44
1.0
  0
POINT
  5
29F
330
296
100
AcDbEntity
  8
Defpoints
 62
     0
100
AcDbPoint
 10
110.5501193291346
 20
19.05
 30
0.0
  0
POINT
  5
2A0
330
296
100
AcDbEntity
  8
Defpoints
 62
     0
100
AcDbPoint
 10
-54.50000000000001
 20
14.87499999999996
 30
0.0
  0
POINT
  5
2A1
330
296
100
AcDbEntity
  8
Defpoints
 62
     0
100
AcDbPoint
 10
-54.50000000000001
 20
45.58996586444053
 30
0.0
  0
ENDBLK
  5
298
330
296
100
AcDbEntity
  8
0
100
AcDbBlockEnd
  0
BLOCK
  5
2A3
330
2A2
100
AcDbEntity
  8
0
100
AcDbBlockBegin
  2
*D14
 70
     1
 10
0.0
 20
0.0
 30
0.0
  3
*D14
  1
*D15
  0
LINE
  5
2A5
330
2A2
100
AcDbEntity
  8
치수문자_일반주서
 62
     0
370
    -2
100
AcDbLine
 10
265.1605790275294
 20
-99.07030378539
 30
0.0
 11
286.6927439525861
 21
-99.07030378538991
 31
0.0
  0
LINE
  5
2A6
330
2A2
100
AcDbEntity
  8
치수문자_일반주서
 62
     0
370
    -2
100
AcDbLine
 10
265.1605790275294
 20
-67.32030378539
 30
0.0
 11
286.6927439525859
 21
-67.32030378538991
 31
0.0
  0
LINE
  5
2A7
330
2A2
100
AcDbEntity
  8
치수문자_일반주서
 62
     0
370
    -2
100
AcDbLine
 10
286.6927439525859
 20
-67.32030378538991
 30
0.0
 11
286.6927439525858
 21
-36.38419772161777
 31
0.0
  0
LINE
  5
2A8
330
2A2
100
AcDbEntity
  8
치수문자_일반주서
 62
     0
370
    -2
100
AcDbLine
 10
286.6927439525861
 20
-99.07030378538991
 30
0.0
 11
286.6927439525859
 21
-67.32030378538991
 31
0.0
  0
LINE
  5
2A9
330
2A2
100
AcDbEntity
  8
치수문자_일반주서
 62
     0
370
    -2
100
AcDbLine
 10
286.6927439525861
 20
-102.3723037853899
 30
0.0
 11
286.6927439525861
 21
-105.6743037853899
 31
0.0
  0
LINE
  5
2AA
330
2A2
100
AcDbEntity
  8
치수문자_일반주서
 62
     0
370
    -2
100
AcDbLine
 10
286.6927439525859
 20
-64.01830378538992
 30
0.0
 11
286.6927439525859
 21
-60.71630378538992
 31
0.0
  0
SOLID
  5
2AB
330
2A2
100
AcDbEntity
  8
치수문자_일반주서
 62
     0
100
AcDbTrace
 10
287.2430772859194
 20
-102.3723037853899
 30
0.0
 11
286.1424106192527
 21
-102.3723037853899
 31
0.0
 12
286.6927439525861
 22
-99.07030378538991
 32
0.0
 13
286.6927439525861
 23
-99.07030378538991
 33
0.0
  0
SOLID
  5
2AC
330
2A2
100
AcDbEntity
  8
치수문자_일반주서
 62
     0
100
AcDbTrace
 10
286.1424106192526
 20
-64.01830378538992
 30
0.0
 11
287.2430772859193
 21
-64.01830378538992
 31
0.0
 12
286.6927439525859
 22
-67.32030378538991
 32
0.0
 13
286.6927439525859
 23
-67.32030378538991
 33
0.0
  0
MTEXT
  5
2AD
330
2A2
100
AcDbEntity
  8
치수문자_일반주서
 62
     0
100
AcDbMText
 10
282.3177439525858
 20
-43.38419772161778
 30
0.0
 40
3.5
 41
0.0
 71
     2
 72
     1
  1
\A1;%%c31.75
  7
SLDTEXTSTYLE0
 11
-3.580687802255623E-15
 21
1.0
 31
0.0
 73
     1
 44
1.0
  0
POINT
  5
2AE
330
2A2
100
AcDbEntity
  8
Defpoints
 62
     0
100
AcDbPoint
 10
265.0980790275294
 20
-99.07030378539
 30
0.0
  0
POINT
  5
2AF
330
2A2
100
AcDbEntity
  8
Defpoints
 62
     0
100
AcDbPoint
 10
265.0980790275294
 20
-67.32030378539
 30
0.0
  0
POINT
  5
2B0
330
2A2
100
AcDbEntity
  8
Defpoints
 62
     0
100
AcDbPoint
 10
286.6927439525859
 20
-67.32030378538991
 30
0.0
  0
ENDBLK
  5
2A4
330
2A2
100
AcDbEntity
  8
0
100
AcDbBlockEnd
  0
BLOCK
  5
370
330
36F
100
AcDbEntity
  8
0
100
AcDbBlockBegin
  2
*D15
 70
     1
 10
0.0
 20
0.0
 30
0.0
  3
*D15
  1
*D17
  0
LINE
  5
372
330
36F
100
AcDbEntity
  8
치수문자_일반주서
 62
     0
370
    -2
100
AcDbLine
 10
17.81250000000006
 20
65.84680738881174
 30
0.0
 11
4.374999999999988
 21
65.8468073888117
 31
0.0
  0
LINE
  5
373
330
36F
100
AcDbEntity
  8
치수문자_일반주서
 62
     0
370
    -2
100
AcDbLine
 10
17.81250000000006
 20
34.09680738881174
 30
0.0
 11
4.375000000000099
 21
34.0968073888117
 31
0.0
  0
LINE
  5
374
330
36F
100
AcDbEntity
  8
치수문자_일반주서
 62
     0
370
    -2
100
AcDbLine
 10
4.374999999999999
 20
62.5448073888117
 30
0.0
 11
4.375000000000087
 21
37.3988073888117
 31
0.0
  0
SOLID
  5
375
330
36F
100
AcDbEntity
  8
치수문자_일반주서
 62
     0
100
AcDbTrace
 10
4.925333333333333
 20
62.5448073888117
 30
0.0
 11
3.824666666666666
 21
62.5448073888117
 31
0.0
 12
4.374999999999988
 22
65.8468073888117
 32
0.0
 13
4.374999999999988
 23
65.8468073888117
 33
0.0
  0
SOLID
  5
376
330
36F
100
AcDbEntity
  8
치수문자_일반주서
 62
     0
100
AcDbTrace
 10
3.824666666666754
 20
37.3988073888117
 30
0.0
 11
4.925333333333421
 21
37.3988073888117
 31
0.0
 12
4.375000000000099
 22
34.0968073888117
 32
0.0
 13
4.375000000000099
 23
34.0968073888117
 33
0.0
  0
MTEXT
  5
377
330
36F
100
AcDbEntity
  8
치수문자_일반주서
 62
     0
100
AcDbMText
 10
0.0000000000000426
 20
49.97180738881174
 30
0.0
 40
3.5
 41
0.0
 71
     2
 72
     1
  1
\A1;%%c31.75
  7
SLDTEXTSTYLE0
 11
-3.496765431890256E-15
 21
1.0
 31
0.0
 73
     1
 44
1.0
  0
POINT
  5
378
330
36F
100
AcDbEntity
  8
Defpoints
 62
     0
100
AcDbPoint
 10
17.87500000000006
 20
65.84680738881174
 30
0.0
  0
POINT
  5
379
330
36F
100
AcDbEntity
  8
Defpoints
 62
     0
100
AcDbPoint
 10
17.87500000000006
 20
34.09680738881174
 30
0.0
  0
POINT
  5
37A
330
36F
100
AcDbEntity
  8
Defpoints
 62
     0
100
AcDbPoint
 10
4.375000000000099
 20
34.09680738881169
 30
0.0
  0
ENDBLK
  5
371
330
36F
100
AcDbEntity
  8
0
100
AcDbBlockEnd
  0
BLOCK
  5
37C
330
37B
100
AcDbEntity
  8
0
100
AcDbBlockBegin
  2
*D16
 70
     1
 10
0.0
 20
0.0
 30
0.0
  3
*D16
  1
*D18
  0
LINE
  5
37E
330
37B
100
AcDbEntity
  8
치수문자_일반주서
 62
     0
370
    -2
100
AcDbLine
 10
181.9750000000001
 20
65.90930738881175
 30
0.0
 11
181.9750000000001
 21
79.00973181140527
 31
0.0
  0
LINE
  5
37F
330
37B
100
AcDbEntity
  8
치수문자_일반주서
 62
     0
370
    -2
100
AcDbLine
 10
80.37500000000006
 20
60.48121650654058
 30
0.0
 11
80.37500000000006
 21
79.00973181140527
 31
0.0
  0
LINE
  5
380
330
37B
100
AcDbEntity
  8
치수문자_일반주서
 62
     0
370
    -2
100
AcDbLine
 10
178.6730000000001
 20
79.00973181140527
 30
0.0
 11
83.67700000000005
 21
79.00973181140527
 31
0.0
  0
SOLID
  5
381
330
37B
100
AcDbEntity
  8
치수문자_일반주서
 62
     0
100
AcDbTrace
 10
178.6730000000001
 20
78.45939847807195
 30
0.0
 11
178.6730000000001
 21
79.5600651447386
 31
0.0
 12
181.9750000000001
 22
79.00973181140527
 32
0.0
 13
181.9750000000001
 23
79.00973181140527
 33
0.0
  0
SOLID
  5
382
330
37B
100
AcDbEntity
  8
치수문자_일반주서
 62
     0
100
AcDbTrace
 10
83.67700000000005
 20
79.5600651447386
 30
0.0
 11
83.67700000000005
 21
78.45939847807195
 31
0.0
 12
80.37500000000006
 22
79.00973181140527
 32
0.0
 13
80.37500000000006
 23
79.00973181140527
 33
0.0
  0
MTEXT
  5
383
330
37B
100
AcDbEntity
  8
치수문자_일반주서
 62
     0
100
AcDbMText
 10
131.1750000000001
 20
83.38473181140527
 30
0.0
 40
3.5
 41
0.0
 71
     2
 72
     1
  1
\A1;101.60
  7
SLDTEXTSTYLE0
 73
     1
 44
1.0
  0
POINT
  5
384
330
37B
100
AcDbEntity
  8
Defpoints
 62
     0
100
AcDbPoint
 10
181.9750000000001
 20
65.84680738881175
 30
0.0
  0
POINT
  5
385
330
37B
100
AcDbEntity
  8
Defpoints
 62
     0
100
AcDbPoint
 10
80.37500000000006
 20
60.41871650654058
 30
0.0
  0
POINT
  5
386
330
37B
100
AcDbEntity
  8
Defpoints
 62
     0
100
AcDbPoint
 10
80.37500000000006
 20
79.00973181140527
 30
0.0
  0
ENDBLK
  5
37D
330
37B
100
AcDbEntity
  8
0
100
AcDbBlockEnd
  0
BLOCK
  5
388
330
387
100
AcDbEntity
  8
0
100
AcDbBlockBegin
  2
*D17
 70
     1
 10
0.0
 20
0.0
 30
0.0
  3
*D17
  1
*D19
  0
LINE
  5
38A
330
387
100
AcDbEntity
  8
치수문자_일반주서
 62
     0
370
    -2
100
AcDbLine
 10
181.9750000000001
 20
65.90930738881177
 30
0.0
 11
181.9750000000001
 21
95.56177325325228
 31
0.0
  0
LINE
  5
38B
330
387
100
AcDbEntity
  8
치수문자_일반주서
 62
     0
370
    -2
100
AcDbLine
 10
16.87500000000004
 20
64.90930738881173
 30
0.0
 11
16.87500000000004
 21
95.56177325325228
 31
0.0
  0
LINE
  5
38C
330
387
100
AcDbEntity
  8
치수문자_일반주서
 62
     0
370
    -2
100
AcDbLine
 10
178.6730000000001
 20
95.56177325325228
 30
0.0
 11
20.17700000000004
 21
95.56177325325228
 31
0.0
  0
SOLID
  5
38D
330
387
100
AcDbEntity
  8
치수문자_일반주서
 62
     0
100
AcDbTrace
 10
178.6730000000001
 20
95.01143991991896
 30
0.0
 11
178.6730000000001
 21
96.11210658658561
 31
0.0
 12
181.9750000000001
 22
95.56177325325228
 32
0.0
 13
181.9750000000001
 23
95.56177325325228
 33
0.0
  0
SOLID
  5
38E
330
387
100
AcDbEntity
  8
치수문자_일반주서
 62
     0
100
AcDbTrace
 10
20.17700000000004
 20
96.11210658658561
 30
0.0
 11
20.17700000000004
 21
95.01143991991896
 31
0.0
 12
16.87500000000004
 22
95.56177325325228
 32
0.0
 13
16.87500000000004
 23
95.56177325325228
 33
0.0
  0
MTEXT
  5
38F
330
387
100
AcDbEntity
  8
치수문자_일반주서
 62
     0
100
AcDbMText
 10
99.42500000000005
 20
99.93677325325228
 30
0.0
 40
3.5
 41
0.0
 71
     2
 72
     1
  1
\A1;165.10
  7
SLDTEXTSTYLE0
 73
     1
 44
1.0
  0
POINT
  5
390
330
387
100
AcDbEntity
  8
Defpoints
 62
     0
100
AcDbPoint
 10
181.9750000000001
 20
65.84680738881177
 30
0.0
  0
POINT
  5
391
330
387
100
AcDbEntity
  8
Defpoints
 62
     0
100
AcDbPoint
 10
16.87500000000004
 20
64.84680738881173
 30
0.0
  0
POINT
  5
392
330
387
100
AcDbEntity
  8
Defpoints
 62
     0
100
AcDbPoint
 10
16.87500000000004
 20
95.56177325325228
 30
0.0
  0
ENDBLK
  5
389
330
387
100
AcDbEntity
  8
0
100
AcDbBlockEnd
  0
BLOCK
  5
394
330
393
100
AcDbEntity
  8
0
100
AcDbBlockBegin
  2
*D18
 70
     1
 10
0.0
 20
0.0
 30
0.0
  3
*D18
  1
*D20
  0
LINE
  5
396
330
393
100
AcDbEntity
  8
치수문자_일반주서
 62
     0
370
    -2
100
AcDbLine
 10
182.0375000000001
 20
34.09680738881176
 30
0.0
 11
203.5696649250567
 21
34.09680738881184
 31
0.0
  0
LINE
  5
397
330
393
100
AcDbEntity
  8
치수문자_일반주서
 62
     0
370
    -2
100
AcDbLine
 10
182.0375000000001
 20
65.84680738881175
 30
0.0
 11
203.5696649250566
 21
65.84680738881184
 31
0.0
  0
LINE
  5
398
330
393
100
AcDbEntity
  8
치수문자_일반주서
 62
     0
370
    -2
100
AcDbLine
 10
203.5696649250566
 20
65.84680738881184
 30
0.0
 11
203.5696649250565
 21
96.78291345258398
 31
0.0
  0
LINE
  5
399
330
393
100
AcDbEntity
  8
치수문자_일반주서
 62
     0
370
    -2
100
AcDbLine
 10
203.5696649250567
 20
34.09680738881184
 30
0.0
 11
203.5696649250566
 21
65.84680738881184
 31
0.0
  0
LINE
  5
39A
330
393
100
AcDbEntity
  8
치수문자_일반주서
 62
     0
370
    -2
100
AcDbLine
 10
203.5696649250567
 20
30.79480738881184
 30
0.0
 11
203.5696649250567
 21
27.49280738881184
 31
0.0
  0
LINE
  5
39B
330
393
100
AcDbEntity
  8
치수문자_일반주서
 62
     0
370
    -2
100
AcDbLine
 10
203.5696649250566
 20
69.14880738881183
 30
0.0
 11
203.5696649250566
 21
72.45080738881182
 31
0.0
  0
SOLID
  5
39C
330
393
100
AcDbEntity
  8
치수문자_일반주서
 62
     0
100
AcDbTrace
 10
204.11999825839
 20
30.79480738881184
 30
0.0
 11
203.0193315917234
 21
30.79480738881184
 31
0.0
 12
203.5696649250567
 22
34.09680738881184
 32
0.0
 13
203.5696649250567
 23
34.09680738881184
 33
0.0
  0
SOLID
  5
39D
330
393
100
AcDbEntity
  8
치수문자_일반주서
 62
     0
100
AcDbTrace
 10
203.0193315917233
 20
69.14880738881183
 30
0.0
 11
204.1199982583899
 21
69.14880738881183
 31
0.0
 12
203.5696649250566
 22
65.84680738881184
 32
0.0
 13
203.5696649250566
 23
65.84680738881184
 33
0.0
  0
MTEXT
  5
39E
330
393
100
AcDbEntity
  8
치수문자_일반주서
 62
     0
100
AcDbMText
 10
199.1946649250565
 20
89.78291345258397
 30
0.0
 40
3.5
 41
0.0
 71
     2
 72
     1
  1
\A1;%%c31.75
  7
SLDTEXTSTYLE0
 11
-3.580687802255623E-15
 21
1.0
 31
0.0
 73
     1
 44
1.0
  0
POINT
  5
39F
330
393
100
AcDbEntity
  8
Defpoints
 62
     0
100
AcDbPoint
 10
181.9750000000001
 20
34.09680738881176
 30
0.0
  0
POINT
  5
3A0
330
393
100
AcDbEntity
  8
Defpoints
 62
     0
100
AcDbPoint
 10
181.9750000000001
 20
65.84680738881175
 30
0.0
  0
POINT
  5
3A1
330
393
100
AcDbEntity
  8
Defpoints
 62
     0
100
AcDbPoint
 10
203.5696649250566
 20
65.84680738881184
 30
0.0
  0
ENDBLK
  5
395
330
393
100
AcDbEntity
  8
0
100
AcDbBlockEnd
  0
ENDSEC
  0
SECTION
  2
ENTITIES
  0
LINE
  5
96
330
1F
100
AcDbEntity
  8
0
  6
Continuous
 62
     1
370
    15
100
AcDbLine
 10
55.96951659588217
 20
7.494628592043757
 30
0.0
 11
55.91230469184273
 21
7.524751551991679
 31
0.0
  0
SPLINE
  5
97
330
1F
100
AcDbEntity
  8
0
  6
Continuous
 62
     1
370
    15
100
AcDbSpline
210
0.0
220
0.0
230
1.0
 70
     8
 71
     3
 72
    16
 73
    12
 74
     0
 42
0.000000001
 43
0.00000001
 40
0.0
 40
0.0
 40
0.0
 40
0.0
 40
0.1373339970731117
 40
0.2435359007380872
 40
0.3213150789064782
 40
0.4051365457257026
 40
0.5055839911155455
 40
0.6280715403225664
 40
0.7251842660131748
 40
0.8435729328999617
 40
1.0
 40
1.0
 40
1.0
 40
1.0
 10
61.19581658640056
 20
4.881531940370181
 30
0.0
 10
60.96042064069297
 20
4.992439597265924
 30
0.0
 10
60.54299039843855
 20
5.189113375765769
 30
0.0
 10
59.98667733638721
 20
5.456628125398717
 30
0.0
 10
59.51250858101677
 20
5.687220705364133
 30
0.0
 10
59.05131224765565
 20
5.913878356254862
 30
0.0
 10
58.5159465405069
 20
6.180051538184487
 30
0.0
 10
57.95801777883293
 20
6.461276573520837
 30
0.0
 10
57.35941276966275
 20
6.767188624820809
 30
0.0
 10
56.71056200487172
 20
7.102830883052714
 30
0.0
 10
56.23832006256968
 20
7.352509659601244
 30
0.0
 10
55.96951659588217
 20
7.494628592043757
 30
0.0
  0
LINE
  5
98
330
1F
100
AcDbEntity
  8
0
  6
Continuous
 62
     1
370
    15
100
AcDbLine
 10
17.48055257886085
 20
19.04999999999999
 30
0.0
 11
8.950119329134619
 21
19.04999999999999
 31
0.0
  0
SPLINE
  5
99
330
1F
100
AcDbEntity
  8
0
  6
Continuous
 62
     1
370
    15
100
AcDbSpline
210
0.0
220
0.0
230
1.0
 70
     8
 71
     3
 72
    26
 73
    22
 74
     0
 42
0.000000001
 43
0.00000001
 40
0.0
 40
0.0
 40
0.0
 40
0.0
 40
0.0369442527736858
 40
0.0716200562236768
 40
0.1050000958844675
 40
0.1382215427162589
 40
0.1980087681501536
 40
0.255360359737388
 40
0.3104522150925788
 40
0.3594028060991952
 40
0.4015886166667903
 40
0.4606608392120872
 40
0.525386904959173
 40
0.5814514320475258
 40
0.6272225249051673
 40
0.6933799306326209
 40
0.7718589219550143
 40
0.8393955351619167
 40
0.8960572652630693
 40
0.9485440267691523
 40
1.0
 40
1.0
 40
1.0
 40
1.0
 10
54.8995810093692
 20
15.13787063366551
 30
0.0
 10
54.74516202020661
 20
15.12931523949509
 30
0.0
 10
54.4458056696106
 20
15.11272976907687
 30
0.0
 10
53.94565409159148
 20
15.08464150730724
 30
0.0
 10
53.42929042598898
 20
15.05895317836042
 30
0.0
 10
52.75709878848672
 20
15.03084532315864
 30
0.0
 10
51.9666344278229
 20
15.00372649506474
 30
0.0
 10
51.04912247406629
 20
14.97159367863838
 30
0.0
 10
50.20350486704586
 20
14.94623807419164
 30
0.0
 10
49.44086883682156
 20
14.92676311656381
 30
0.0
 10
48.65818492300942
 20
14.90985933582844
 30
0.0
 10
47.78432264637929
 20
14.8948853263666
 30
0.0
 10
46.83216145691841
 20
14.88303085465769
 30
0.0
 10
45.9579721731452
 20
14.87750844347249
 30
0.0
 10
45.12044775633217
 20
14.8765295878446
 30
0.0
 10
44.12682149447588
 20
14.87898984022122
 30
0.0
 10
43.02041337572322
 20
14.88908712803151
 30
0.0
 10
41.96324171482668
 20
14.90528342055205
 30
0.0
 10
41.0418610136317
 20
14.92466870590685
 30
0.0
 10
40.20422044520091
 20
14.94549321181947
 30
0.0
 10
39.66204727902393
 20
14.96314146407838
 30
0.0
 10
39.39364903073948
 20
14.97187808235289
 30
0.0
  0
SPLINE
  5
9A
330
1F
100
AcDbEntity
  8
0
  6
Continuous
 62
     1
370
    15
100
AcDbSpline
210
0.0
220
0.0
230
1.0
 70
     8
 71
     3
 72
    50
 73
    46
 74
     0
 42
0.000000001
 43
0.00000001
 40
0.0
 40
0.0
 40
0.0
 40
0.0
 40
0.0316343701511595
 40
0.0605797564920648
 40
0.0875779580398923
 40
0.1129489497788055
 40
0.1294049205439474
 40
0.1428599396297682
 40
0.1541882240264087
 40
0.1649079185407234
 40
0.173976427876494
 40
0.1843522287031444
 40
0.1952653053013668
 40
0.2090391117623331
 40
0.2240484652307551
 40
0.2503201689935947
 40
0.2743041449246782
 40
0.3001766094185603
 40
0.3292891515084057
 40
0.3619793934844083
 40
0.3927948021605367
 40
0.4129106325698924
 40
0.4304328649703949
 40
0.4518503469895583
 40
0.4781139025056588
 40
0.5101925571169045
 40
0.5444412433927427
 40
0.5739346126702358
 40
0.5982853228202405
 40
0.6264800787123112
 40
0.6600896913021111
 40
0.6952970279836687
 40
0.7236760366418394
 40
0.7492869833145478
 40
0.7748726840228147
 40
0.7998898590919511
 40
0.8214925454277364
 40
0.8400234121602989
 40
0.860911481510165
 40
0.8733769381649618
 40
0.8882348545854429
 40
0.9082353727678257
 40
0.9335384682278188
 40
0.9641322050577642
 40
1.0
 40
1.0
 40
1.0
 40
1.0
 10
103.4716479101831
 20
13.02929608045072
 30
0.0
 10
103.16139310798
 20
13.00253303002107
 30
0.0
 10
102.5672557732346
 20
12.95128184119494
 30
0.0
 10
101.6226702565895
 20
12.87646916771454
 30
0.0
 10
100.6989195790498
 20
12.81410531735694
 30
0.0
 10
99.9036007589635
 20
12.76802811486291
 30
0.0
 10
99.27507876055256
 20
12.73248879967334
 30
0.0
 10
98.80731596424084
 20
12.70807648129848
 30
0.0
 10
98.50372324758138
 20
12.69069007613914
 30
0.0
 10
98.16020475379901
 20
12.67319029202443
 30
0.0
 10
97.8083720706032
 20
12.65925352776292
 30
0.0
 10
97.46832982333201
 20
12.64623481537297
 30
0.0
 10
97.06243601895653
 20
12.63020385099265
 30
0.0
 10
96.60748913696636
 20
12.61347311090561
 30
0.0
 10
95.99713544743899
 20
12.59352117212583
 30
0.0
 10
95.27886391576958
 20
12.57377030200008
 30
0.0
 10
94.43460609431402
 20
12.55594133184034
 30
0.0
 10
93.55470462424006
 20
12.54302294818974
 30
0.0
 10
92.57701563534617
 20
12.53560673855262
 30
0.0
 10
91.54313217637957
 20
12.53601412670377
 30
0.0
 10
90.61004955064729
 20
12.54407820313593
 30
0.0
 10
89.84637499250854
 20
12.55570894275649
 30
0.0
 10
89.18761776509942
 20
12.56893081806559
 30
0.0
 10
88.46039155118861
 20
12.58716350995523
 30
0.0
 10
87.57092736628839
 20
12.6149056366359
 30
0.0
 10
86.53857146606089
 20
12.65482137230226
 30
0.0
 10
85.47062089835373
 20
12.7052797649791
 30
0.0
 10
84.48833303758438
 20
12.75953891209328
 30
0.0
 10
83.57292073255937
 20
12.81625611881641
 30
0.0
 10
82.61238024606529
 20
12.88206566173867
 30
0.0
 10
81.53125495936318
 20
12.96444552433153
 30
0.0
 10
80.44792737898902
 20
13.05638123380515
 30
0.0
 10
79.45271297974273
 20
13.14833363299322
 30
0.0
 10
78.5649237707633
 20
13.2360409630382
 30
0.0
 10
77.7152931805455
 20
13.32512393461357
 30
0.0
 10
76.91049879858998
 20
13.41429884110538
 30
0.0
 10
76.18996157003612
 20
13.49818920568471
 30
0.0
 10
75.5315843622913
 20
13.57747551194759
 30
0.0
 10
74.94167367608395
 20
13.65154451945417
 30
0.0
 10
74.39237934444607
 20
13.72253680587077
 30
0.0
 10
73.8524064103281
 20
13.79353362748795
 30
0.0
 10
73.17611339084743
 20
13.88525887949814
 30
0.0
 10
72.33117549384775
 20
14.00438982266391
 30
0.0
 10
71.3174408707735
 20
14.15324738473395
 30
0.0
 10
70.58736972323122
 20
14.26684878384759
 30
0.0
 10
70.19336673360633
 20
14.3281569057026
 30
0.0
  0
SPLINE
  5
9B
330
1F
100
AcDbEntity
  8
0
  6
Continuous
 62
     1
370
    15
100
AcDbSpline
210
0.0
220
0.0
230
1.0
 70
     8
 71
     3
 72
    47
 73
    43
 74
     0
 42
0.000000001
 43
0.00000001
 40
0.0
 40
0.0
 40
0.0
 40
0.0
 40
0.0425141740292841
 40
0.077895462600618
 40
0.1061226280703949
 40
0.1273467392798141
 40
0.1446805874531943
 40
0.1601169433910236
 40
0.1737605356565157
 40
0.1865600122284913
 40
0.2107817959068122
 40
0.2402751076615325
 40
0.2674980435964914
 40
0.2890213207702939
 40
0.3112839899924029
 40
0.3396358309355333
 40
0.3713964508276208
 40
0.4021094748324358
 40
0.4313392094617158
 40
0.4582182071133817
 40
0.4848094004505074
 40
0.509611864613506
 40
0.5357549660368929
 40
0.5660217479032411
 40
0.601068325099311
 40
0.6379812768301864
 40
0.6607579592173175
 40
0.6778082503167494
 40
0.6949410771206391
 40
0.7142434617648878
 40
0.735791900537844
 40
0.7653964213594988
 40
0.7918341982657084
 40
0.8197967405144352
 40
0.8528698097969162
 40
0.8761285179914928
 40
0.9002038727253193
 40
0.9249314142960329
 40
0.9429740940382316
 40
0.9611029060803732
 40
0.979935451803605
 40
1.0
 40
1.0
 40
1.0
 40
1.0
 10
26.24751951365632
 20
-15.85224192663038
 30
0.0
 10
26.64954123377107
 20
-15.81253955518143
 30
0.0
 10
27.38613481882496
 20
-15.73979594293984
 30
0.0
 10
28.3986258605113
 20
-15.64678064893152
 30
0.0
 10
29.21569039482163
 20
-15.57539093383689
 30
0.0
 10
29.86639289083574
 20
-15.52126300479162
 30
0.0
 10
30.39208438152361
 20
-15.4785698540296
 30
0.0
 10
30.84305390352969
 20
-15.44291035865044
 30
0.0
 10
31.24578832022016
 20
-15.41208475474283
 30
0.0
 10
31.71987143100052
 20
-15.37682775142102
 30
0.0
 10
32.35467915848885
 20
-15.3310761593831
 30
0.0
 10
33.13112898798109
 20
-15.27832821769908
 30
0.0
 10
33.88259470160554
 20
-15.23049104270682
 30
0.0
 10
34.56473386097198
 20
-15.18958967219452
 30
0.0
 10
35.2578783487216
 20
-15.15032671363601
 30
0.0
 10
36.04893537210301
 20
-15.10856041558455
 30
0.0
 10
36.92087352986772
 20
-15.06649562086926
 30
0.0
 10
37.80160111291211
 20
-15.02838455809266
 30
0.0
 10
38.63566211780991
 20
-14.99623887582254
 30
0.0
 10
39.42994788039497
 20
-14.96914223220731
 30
0.0
 10
40.18165738840272
 20
-14.94666696968954
 30
0.0
 10
40.92626864522911
 20
-14.92742917344146
 30
0.0
 10
41.70609490009112
 20
-14.91042209172508
 30
0.0
 10
42.58429565467911
 20
-14.89526476067111
 30
0.0
 10
43.56625893686498
 20
-14.88348440286076
 30
0.0
 10
44.47565841503782
 20
-14.87779001705813
 30
0.0
 10
45.208144554212
 20
-14.8767869420299
 30
0.0
 10
45.73158294423045
 20
-14.87729689082116
 30
0.0
 10
46.23738021204934
 20
-14.87914185924442
 30
0.0
 10
46.79705254753441
 20
-14.88330668105527
 30
0.0
 10
47.48317143299086
 20
-14.8910101660469
 30
0.0
 10
48.23778480720473
 20
-14.90223797096146
 30
0.0
 10
49.04765127964575
 20
-14.91780985112936
 30
0.0
 10
49.88721192692588
 20
-14.93760120026113
 30
0.0
 10
50.69618123415964
 20
-14.96062768989443
 30
0.0
 10
51.48145748858209
 20
-14.98642504007218
 30
0.0
 10
52.18500919710639
 20
-15.01146187872131
 30
0.0
 10
52.83286862505781
 20
-15.03393250210312
 30
0.0
 10
53.42930345088168
 20
-15.0589725931588
 30
0.0
 10
53.94565046759811
 20
-15.08463610541247
 30
0.0
 10
54.44580666039816
 20
-15.11273124593674
 30
0.0
 10
54.74516235736996
 20
-15.12931574206806
 30
0.0
 10
54.8995810093692
 20
-15.13787063366555
 30
0.0
  0
SPLINE
  5
9C
330
1F
100
AcDbEntity
  8
0
  6
Continuous
 62
     1
370
    15
100
AcDbSpline
210
0.0
220
0.0
230
1.0
 70
     8
 71
     3
 72
    25
 73
    21
 74
     0
 42
0.000000001
 43
0.00000001
 40
0.0
 40
0.0
 40
0.0
 40
0.0
 40
0.0504755414613119
 40
0.0975622926779508
 40
0.1422495430835904
 40
0.1856971671733028
 40
0.249083079078065
 40
0.3093181192813318
 40
0.3662351841117082
 40
0.4185854926798133
 40
0.4617817004560217
 40
0.4997410945942075
 40
0.5539671952035575
 40
0.6195802638872004
 40
0.6871707727853279
 40
0.7480607137293858
 40
0.8248596177514629
 40
0.9027114373386114
 40
0.9820049185457876
 40
1.0
 40
1.0
 40
1.0
 40
1.0
 10
70.1933667336063
 20
-14.32815690570263
 30
0.0
 10
70.39363037505244
 20
-14.2963167230757
 30
0.0
 10
70.7807125030272
 20
-14.23477402087906
 30
0.0
 10
71.40481150510696
 20
-14.13582914780427
 30
0.0
 10
72.03483489310153
 20
-14.04079413355339
 30
0.0
 10
72.77234478191619
 20
-13.93631498652614
 30
0.0
 10
73.5855781943006
 20
-13.82875946080462
 30
0.0
 10
74.4682399162434
 20
-13.71206974478699
 30
0.0
 10
75.29138370548682
 20
-13.60732268209755
 30
0.0
 10
76.01266462328579
 20
-13.51928270875946
 30
0.0
 10
76.64816146996463
 20
-13.44465271027342
 30
0.0
 10
77.29327105313742
 20
-13.37158088468058
 30
0.0
 10
78.04653204250552
 20
-13.28976372499425
 30
0.0
 10
78.94201799261032
 20
-13.19793563238458
 30
0.0
 10
79.86886301886034
 20
-13.10914033464744
 30
0.0
 10
80.84756836447355
 20
-13.02177432192181
 30
0.0
 10
81.87238811785596
 20
-12.93742200186193
 30
0.0
 10
82.98686357518952
 20
-12.85563963848979
 30
0.0
 10
83.82248588103855
 20
-12.79936958460945
 30
0.0
 10
84.28647432619412
 20
-12.77299394395869
 30
0.0
 10
84.37229643761178
 20
-12.76811534580765
 30
0.0
  0
LINE
  5
9D
330
1F
100
AcDbEntity
  8
0
  6
Continuous
 62
     1
370
    15
100
AcDbLine
 10
8.950119329134619
 20
-19.05000000000003
 30
0.0
 11
17.4805525788608
 21
-19.05000000000003
 31
0.0
  0
SPLINE
  5
9E
330
1F
100
AcDbEntity
  8
0
  6
Continuous
 62
     1
370
    15
100
AcDbSpline
210
0.0
220
0.0
230
1.0
 70
     8
 71
     3
 72
    31
 73
    27
 74
     0
 42
0.000000001
 43
0.00000001
 40
0.0
 40
0.0
 40
0.0
 40
0.0
 40
0.0383543210516316
 40
0.0766832318605686
 40
0.1150183174305963
 40
0.1533824379959346
 40
0.1917230779979787
 40
0.2293655749735388
 40
0.2670299638655504
 40
0.3047040648246225
 40
0.3423485086626932
 40
0.3871705188529384
 40
0.431999641595383
 40
0.476841296088289
 40
0.5216811903215016
 40
0.5665091534513961
 40
0.6113306732742935
 40
0.6561512538691342
 40
0.7009764016898193
 40
0.7458116116449492
 40
0.7906560142678996
 40
0.835488818450244
 40
0.8803126367036216
 40
0.9225693084614826
 40
0.9648324154312707
 40
1.0
 40
1.0
 40
1.0
 40
1.0
 10
110.5501193291346
 20
-18.07732355886771
 30
0.0
 10
109.3601678169165
 20
-17.84032126465651
 30
0.0
 10
106.9810531510248
 20
-17.36647369337453
 30
0.0
 10
103.4133207835322
 20
-16.39573605866404
 30
0.0
 10
99.84517384408086
 20
-15.24844395198856
 30
0.0
 10
96.27567796258526
 20
-13.91987140048381
 30
0.0
 10
92.72847721942387
 20
-12.43781351683605
 30
0.0
 10
89.2033403566387
 20
-10.82181947354692
 30
0.0
 10
85.69827829351956
 20
-9.094210875190727
 30
0.0
 10
82.19275808415189
 20
-7.26467021153037
 30
0.0
 10
78.46633582546212
 20
-5.230436718340435
 30
0.0
 10
74.51709696238325
 20
-3.001286634604785
 30
0.0
 10
70.34472925007609
 20
-0.5981448951603434
 30
0.0
 10
66.17139750040602
 20
1.814230335254758
 30
0.0
 10
61.99818126510582
 20
4.197734581787118
 30
0.0
 10
57.82587712913516
 20
6.514339207287193
 30
0.0
 10
53.65427462847896
 20
8.72675639584072
 30
0.0
 10
49.4827819886182
 20
10.79981384937403
 30
0.0
 10
45.31077703749625
 20
12.70050823122361
 30
0.0
 10
41.13785063318399
 20
14.39840620793772
 30
0.0
 10
36.9643803596085
 20
15.86630126618572
 30
0.0
 10
32.79164562234914
 20
17.08048061887703
 30
0.0
 10
28.69926282375408
 20
18.00602068818718
 30
0.0
 10
24.68691186146899
 20
18.63693769531261
 30
0.0
 10
20.97399320295823
 20
18.99773270468461
 30
0.0
 10
18.57165159770161
 20
19.02065089607623
 30
0.0
 10
17.48055257886083
 20
19.03105991371397
 30
0.0
  0
SPLINE
  5
9F
330
1F
100
AcDbEntity
  8
0
  6
Continuous
 62
     1
370
    15
100
AcDbSpline
210
0.0
220
0.0
230
1.0
 70
     8
 71
     3
 72
    19
 73
    15
 74
     0
 42
0.000000001
 43
0.00000001
 40
0.0
 40
0.0
 40
0.0
 40
0.0
 40
0.088336545768527
 40
0.17665786245252
 40
0.2649685682991474
 40
0.3532732970590626
 40
0.4415766912245014
 40
0.5298833952403951
 40
0.6181980487094619
 40
0.7065252796122425
 40
0.7948661106282529
 40
0.8831956157707519
 40
0.97151185381241
 40
1.0
 40
1.0
 40
1.0
 40
1.0
 10
110.5501193291346
 20
-15.02992163621453
 30
0.0
 10
109.0962602032733
 20
-14.73921108182101
 30
0.0
 10
106.1887925946263
 20
-14.15784009108612
 30
0.0
 10
101.8280417490207
 20
-12.96856713412195
 30
0.0
 10
97.46788196237847
 20
-11.57201017012149
 30
0.0
 10
93.10806386051105
 20
-9.968656529247722
 30
0.0
 10
88.74832046524664
 20
-8.19282516571488
 30
0.0
 10
84.3883903944903
 20
-6.27377108293536
 30
0.0
 10
80.02800679252748
 20
-4.245223921682284
 30
0.0
 10
75.66697985069698
 20
-2.142959909467467
 30
0.0
 10
71.30554297954781
 20
-0.0018534241324657
 30
0.0
 10
66.94443260411856
 20
2.133182571742061
 30
0.0
 10
63.56843190693593
 20
3.775531098469039
 30
0.0
 10
61.64615119648321
 20
4.663510064379429
 30
0.0
 10
61.17731422384458
 20
4.880084765400163
 30
0.0
  0
LINE
  5
A0
330
1F
100
AcDbEntity
  8
0
  6
Continuous
 62
     1
370
    15
100
AcDbLine
 10
110.5501193291346
 20
-18.07732355886772
 30
0.0
 11
110.5501193291346
 21
-15.02992163621453
 31
0.0
  0
SPLINE
  5
A1
330
1F
100
AcDbEntity
  8
0
  6
Continuous
 62
     1
370
    15
100
AcDbSpline
210
0.0
220
0.0
230
1.0
 70
     8
 71
     3
 72
    78
 73
    74
 74
     0
 42
0.000000001
 43
0.00000001
 40
0.0
 40
0.0
 40
0.0
 40
0.0
 40
0.03125
 40
0.03125
 40
0.0624999999999999
 40
0.0624999999999999
 40
0.0937499999999999
 40
0.0937499999999999
 40
0.1249999999999999
 40
0.1249999999999999
 40
0.1562499999999998
 40
0.1562499999999998
 40
0.1874999999999998
 40
0.1874999999999998
 40
0.2031249999999996
 40
0.2031249999999996
 40
0.2187499999999995
 40
0.2343749999999993
 40
0.2343749999999993
 40
0.2499999999999992
 40
0.2499999999999992
 40
0.2812499999999991
 40
0.2812499999999991
 40
0.3124999999999991
 40
0.3124999999999991
 40
0.3437499999999991
 40
0.3437499999999991
 40
0.3749999999999991
 40
0.3749999999999991
 40
0.406249999999999
 40
0.406249999999999
 40
0.4374999999999989
 40
0.4374999999999989
 40
0.4687499999999989
 40
0.4687499999999989
 40
0.4999999999999989
 40
0.4999999999999989
 40
0.5312499999999989
 40
0.5312499999999989
 40
0.5624999999999988
 40
0.5624999999999988
 40
0.5937499999999988
 40
0.5937499999999988
 40
0.6249999999999988
 40
0.6249999999999988
 40
0.6406249999999989
 40
0.6406249999999989
 40
0.6562499999999989
 40
0.671874999999999
 40
0.671874999999999
 40
0.6874999999999991
 40
0.6874999999999991
 40
0.7187499999999992
 40
0.7187499999999992
 40
0.7343749999999993
 40
0.7343749999999993
 40
0.7499999999999993
 40
0.7499999999999993
 40
0.7812499999999994
 40
0.7812499999999994
 40
0.8124999999999996
 40
0.8124999999999996
 40
0.8437499999999997
 40
0.8437499999999997
 40
0.8749999999999997
 40
0.8749999999999997
 40
0.9062499999999998
 40
0.9062499999999998
 40
0.9374999999999999
 40
0.9374999999999999
 40
0.9687499999999999
 40
0.9687499999999999
 40
1.0
 40
1.0
 40
1.0
 40
1.0
 10
110.5501193291346
 20
-19.04999999999999
 30
0.0
 10
109.4947510933313
 20
-19.00880617984996
 30
0.0
 10
108.433672430416
 20
-18.95428175424709
 30
0.0
 10
106.3147841679186
 20
-18.78690057554741
 30
0.0
 10
105.2603579219604
 20
-18.67423683893076
 30
0.0
 10
103.142363063652
 20
-18.39135005875805
 30
0.0
 10
102.0809236431543
 20
-18.22112073955136
 30
0.0
 10
99.96786731045805
 20
-17.82558086152295
 30
0.0
 10
98.90941089050347
 20
-17.59988323383484
 30
0.0
 10
96.78998138461478
 20
-17.09465008648989
 30
0.0
 10
95.73491007100417
 20
-16.81563330227825
 30
0.0
 10
93.61816028269699
 20
-16.20605170044891
 30
0.0
 10
92.55653728897191
 20
-15.8754112569177
 30
0.0
 10
90.97026684432485
 20
-15.34414356601989
 30
0.0
 10
90.44303760226906
 20
-15.16124689903039
 30
0.0
 10
89.38503980902422
 20
-14.7834959487845
 30
0.0
 10
88.3252163657538
 20
-14.3939706962831
 30
0.0
 10
87.26542223088056
 20
-13.98221165098222
 30
0.0
 10
86.20748146852256
 20
-13.56006969140353
 30
0.0
 10
85.6802651989119
 20
-13.34392677390382
 30
0.0
 10
84.0938998924937
 20
-12.67967764163621
 30
0.0
 10
83.0322706122992
 20
-12.21599307841408
 30
0.0
 10
80.91562244940083
 20
-11.25332056394148
 30
0.0
 10
79.86048090721992
 20
-10.75437279315462
 30
0.0
 10
77.74102640159015
 20
-9.72338675817305
 30
0.0
 10
76.68273153482465
 20
-9.192300557162152
 30
0.0
 10
74.56952393275532
 20
-8.104024215942546
 30
0.0
 10
73.50806565635665
 20
-7.545692403959181
 30
0.0
 10
71.39014751025573
 20
-6.408325881146795
 30
0.0
 10
70.33569676898047
 20
-5.829691187202647
 30
0.0
 10
68.2167585208599
 20
-4.654395055896395
 30
0.0
 10
67.15588695204036
 20
-4.058377813691262
 30
0.0
 10
65.04497450760223
 20
-2.857716133636134
 30
0.0
 10
63.98386442987173
 20
-2.250976184634514
 30
0.0
 10
61.86502792389084
 20
-1.033054770620896
 30
0.0
 10
60.81062292943049
 20
-0.4225221782549067
 30
0.0
 10
58.69255312731845
 20
0.7997415668720079
 30
0.0
 10
57.6311334537202
 20
1.411037273903067
 30
0.0
 10
55.51823014506421
 20
2.625492962067848
 30
0.0
 10
54.45960893931524
 20
3.230022348491616
 30
0.0
 10
52.34020620556952
 20
4.427653786259029
 30
0.0
 10
51.2852018785058
 20
5.019675734009699
 30
0.0
 10
49.16835222972709
 20
6.187696038811107
 30
0.0
 10
48.10673641398473
 20
6.763622441574556
 30
0.0
 10
46.52056215121738
 20
7.609412951019402
 30
0.0
 10
45.99331625720448
 20
7.888258411952391
 30
0.0
 10
44.93526231449196
 20
8.440277721271395
 30
0.0
 10
43.87541115967056
 20
8.986307615687423
 30
0.0
 10
42.81564650927241
 20
9.518439395526588
 30
0.0
 10
41.75776365906171
 20
10.04271151492265
 30
0.0
 10
41.23055668234809
 20
10.30079343790762
 30
0.0
 10
39.64409783453119
 20
11.06361793653838
 30
0.0
 10
38.58246315939824
 20
11.55648686867399
 30
0.0
 10
36.99505457977168
 20
12.26712966948364
 30
0.0
 10
36.4677035835077
 20
12.49910809895597
 30
0.0
 10
35.41052283426704
 20
12.95361786231852
 30
0.0
 10
34.880833940759
 20
13.17612099971428
 30
0.0
 10
33.29122564108458
 20
13.82818053825953
 30
0.0
 10
32.23308909445352
 20
14.2419637475102
 30
0.0
 10
30.11973197809868
 20
15.02402060109534
 30
0.0
 10
29.05825573685019
 20
15.39302910524657
 30
0.0
 10
26.94041607114727
 20
16.08179294696194
 30
0.0
 10
25.8859375908039
 20
16.4014282614102
 30
0.0
 10
23.76695112809274
 20
16.99012300155652
 30
0.0
 10
22.70628342747683
 20
17.25873995924283
 30
0.0
 10
20.59519675892351
 20
17.74116447697522
 30
0.0
 10
19.53405615645247
 20
17.95578136114949
 30
0.0
 10
17.4152731777371
 20
18.32865114968134
 30
0.0
 10
16.36088619089618
 20
18.48681210376061
 30
0.0
 10
14.24274321359339
 20
18.74610412879781
 30
0.0
 10
13.1813441778375
 20
18.84703577149757
 30
0.0
 10
11.06859564746416
 20
18.99021899052076
 30
0.0
 10
10.00980642377363
 20
19.03267410762208
 30
0.0
 10
8.950119329135951
 20
19.04568466026986
 30
0.0
  0
SPLINE
  5
A2
330
1F
100
AcDbEntity
  8
0
  6
Continuous
 62
     1
370
    15
100
AcDbSpline
210
0.0
220
0.0
230
1.0
 70
     8
 71
     3
 72
    20
 73
    16
 74
     0
 42
0.000000001
 43
0.00000001
 40
0.0
 40
0.0
 40
0.0
 40
0.0
 40
0.0119956213236518
 40
0.0923124237611083
 40
0.1726254352399864
 40
0.252939053290117
 40
0.3332576745432072
 40
0.4135856882255228
 40
0.4939274696736506
 40
0.574273793447306
 40
0.6594251626420355
 40
0.7445727576402092
 40
0.829717288051401
 40
0.9148594648375767
 40
1.0
 40
1.0
 40
1.0
 40
1.0
 10
63.23495861093324
 20
-1.81654751699724
 30
0.0
 10
63.01789953573878
 20
-1.730451277398783
 30
0.0
 10
61.34751925364053
 20
-1.067896805261515
 30
0.0
 10
58.22393536526439
 20
0.2034874510618902
 30
0.0
 10
53.86416792782017
 20
1.960822716749218
 30
0.0
 10
49.50436980895646
 20
3.687646120414312
 30
0.0
 10
45.14426933811381
 20
5.349214300931183
 30
0.0
 10
40.78361229961331
 20
6.917843181843357
 30
0.0
 10
36.42235686121679
 20
8.365708390806237
 30
0.0
 10
31.97379364234993
 20
9.693752505744492
 30
0.0
 10
27.43832463429956
 20
10.86706148995297
 30
0.0
 10
22.81604300228361
 20
11.85122012348595
 30
0.0
 10
18.19394749400399
 20
12.5981823231847
 30
0.0
 10
13.57199188189127
 20
13.117035668623
 30
0.0
 10
10.49073361168336
 20
13.24504211800191
 30
0.0
 10
8.950119329134615
 20
13.30904472566329
 30
0.0
  0
SPLINE
  5
A3
330
1F
100
AcDbEntity
  8
외형선
  6
Continuous
370
    15
100
AcDbSpline
210
0.0
220
0.0
230
1.0
 70
    24
 71
     3
 72
    14
 73
    10
 74
     0
 42
0.000000001
 43
0.00000001
 40
0.0
 40
0.0
 40
0.0
 40
0.0
 40
0.25
 40
0.25
 40
0.5
 40
0.5
 40
0.75
 40
0.75
 40
1.0
 40
1.0
 40
1.0
 40
1.0
 10
8.950119329134615
 20
19.04568466026985
 30
0.0
 10
8.950119329134615
 20
18.577199776193
 30
0.0
 10
8.950119329134615
 20
18.08808571831226
 30
0.0
 10
8.950119329134615
 20
17.09530696978332
 30
0.0
 10
8.950119329134615
 20
16.59182166695159
 30
0.0
 10
8.950119329134615
 20
15.59957998190838
 30
0.0
 10
8.950119329134615
 20
15.11099369274392
 30
0.0
 10
8.950119329134615
 20
14.1746421806441
 30
0.0
 10
8.950119329134615
 20
13.72697722165116
 30
0.0
 10
8.950119329134615
 20
13.30904472566329
 30
0.0
  0
LINE
  5
A4
330
1F
100
AcDbEntity
  8
외형선
  6
Continuous
370
    15
100
AcDbLine
 10
8.950119329134612
 20
19.0456846602799
 30
0.0
 11
8.950119329134619
 21
19.04999999999999
 31
0.0
  0
LINE
  5
A5
330
1F
100
AcDbEntity
  8
0
  6
Continuous
 62
     1
370
    15
100
AcDbLine
 10
110.5501193291346
 20
-19.05
 30
0.0
 11
110.5501193291346
 21
-18.07732355886771
 31
0.0
  0
SPLINE
  5
A6
330
1F
100
AcDbEntity
  8
0
  6
Continuous
 62
     1
370
    15
100
AcDbSpline
210
0.0
220
0.0
230
1.0
 70
     8
 71
     3
 72
    20
 73
    16
 74
     0
 42
0.000000001
 43
0.00000001
 40
0.0
 40
0.0
 40
0.0
 40
0.0
 40
0.0783690929587373
 40
0.1567244865089755
 40
0.2350703349346709
 40
0.313410806523685
 40
0.391750077460042
 40
0.4700923256917417
 40
0.5484417247931057
 40
0.626802437840671
 40
0.7051753854800097
 40
0.7835381457372109
 40
0.8618889712412341
 40
0.9402320229757639
 40
1.0
 40
1.0
 40
1.0
 40
1.0
 10
110.5501193291346
 20
-0.000000000000008
 30
0.0
 10
109.0962598457449
 20
0.6713761057233244
 30
0.0
 10
106.1887950227129
 20
2.014010956419958
 30
0.0
 10
101.8280383666172
 20
3.992991944705445
 30
0.0
 10
97.46787374140219
 20
5.902226509538581
 30
0.0
 10
93.10805052808705
 20
7.708494542068724
 30
0.0
 10
88.74830211987516
 20
9.380329165688273
 30
0.0
 10
84.38836694171592
 20
10.88862628282969
 30
0.0
 10
80.02797858630348
 20
12.20704305433214
 30
0.0
 10
75.66694650147046
 20
13.3127865305125
 30
0.0
 10
71.30551749245792
 20
14.18564783466461
 30
0.0
 10
66.94440054093104
 20
14.81349321218468
 30
0.0
 10
62.58392386564309
 20
15.1743916089406
 30
0.0
 10
58.56844729377625
 20
15.29250857111072
 30
0.0
 10
56.00643306864352
 20
15.1678224604944
 30
0.0
 10
54.89771344849675
 20
15.11386415852871
 30
0.0
  0
SPLINE
  5
A7
330
1F
100
AcDbEntity
  8
0
  6
Continuous
 62
     1
370
    15
100
AcDbSpline
210
0.0
220
0.0
230
1.0
 70
    24
 71
     3
 72
     8
 73
     4
 74
     0
 42
0.000000001
 43
0.00000001
 40
0.0
 40
0.0
 40
0.0
 40
0.0
 40
1.0
 40
1.0
 40
1.0
 40
1.0
 10
110.5501193291346
 20
-1.552895695127804
 30
0.0
 10
110.5501193291346
 20
-1.034735970232331
 30
0.0
 10
110.5501193291346
 20
-0.5163603393624117
 30
0.0
 10
110.5501193291346
 20
-0.000000000000008
 30
0.0
  0
SPLINE
  5
A8
330
1F
100
AcDbEntity
  8
0
  6
Continuous
 62
     1
370
    15
100
AcDbSpline
210
0.0
220
0.0
230
1.0
 70
     8
 71
     3
 72
     8
 73
     4
 74
     0
 42
0.000000001
 43
0.00000001
 40
0.0
 40
0.0
 40
0.0
 40
0.0
 40
1.0
 40
1.0
 40
1.0
 40
1.0
 10
110.5501193291346
 20
-1.552895695114195
 30
0.0
 10
110.3131081660058
 20
-2.532228871142162
 30
0.0
 10
110.0046517281188
 20
-3.467935607028097
 30
0.0
 10
109.6407208221496
 20
-4.369768114430946
 30
0.0
  0
SPLINE
  5
A9
330
1F
100
AcDbEntity
  8
0
  6
Continuous
 62
     1
370
    15
100
AcDbSpline
210
0.0
220
0.0
230
1.0
 70
     8
 71
     3
 72
     8
 73
     4
 74
     0
 42
0.000000001
 43
0.00000001
 40
0.0
 40
0.0
 40
0.0
 40
0.0
 40
1.0
 40
1.0
 40
1.0
 40
1.0
 10
110.5501193291346
 20
-5.09097812186475
 30
0.0
 10
110.2464385497086
 20
-4.852235721554351
 30
0.0
 10
109.9433074896587
 20
-4.611827003481411
 30
0.0
 10
109.6407208221495
 20
-4.369768114430923
 30
0.0
  0
SPLINE
  5
AA
330
1F
100
AcDbEntity
  8
0
  6
Continuous
 62
     1
370
    15
100
AcDbSpline
210
0.0
220
0.0
230
1.0
 70
    24
 71
     3
 72
    14
 73
    10
 74
     0
 42
0.000000001
 43
0.00000001
 40
0.0
 40
0.0
 40
0.0
 40
0.0
 40
0.2500000000000001
 40
0.2500000000000001
 40
0.5000000000000001
 40
0.5000000000000001
 40
0.7500000000000002
 40
0.7500000000000002
 40
1.0
 40
1.0
 40
1.0
 40
1.0
 10
110.5501193291346
 20
-15.02992163621453
 30
0.0
 10
110.5501193291346
 20
-14.45384129836851
 30
0.0
 10
110.5501193291346
 20
-13.80325256384741
 30
0.0
 10
110.5501193291347
 20
-12.36422548531385
 30
0.0
 10
110.5501193291346
 20
-11.5758135142688
 30
0.0
 10
110.5501193291347
 20
-9.883517005969916
 30
0.0
 10
110.5501193291346
 20
-8.979726836109027
 30
0.0
 10
110.5501193291346
 20
-7.088517908366728
 30
0.0
 10
110.5501193291346
 20
-6.101242455996413
 30
0.0
 10
110.5501193291346
 20
-5.090978121865359
 30
0.0
  0
SPLINE
  5
AB
330
1F
100
AcDbEntity
  8
0
  6
Continuous
 62
     1
370
    15
100
AcDbSpline
210
0.0
220
0.0
230
1.0
 70
    24
 71
     3
 72
    10
 73
     6
 74
     0
 42
0.000000001
 43
0.00000001
 40
0.0
 40
0.0
 40
0.0
 40
0.0
 40
0.5
 40
0.5
 40
1.0
 40
1.0
 40
1.0
 40
1.0
 10
105.5501193291346
 20
7.736872478995679
 30
0.0
 10
105.5501193291345
 20
8.611736677061192
 30
0.0
 10
105.5501193291346
 20
9.404063859155857
 30
0.0
 10
105.5501193291346
 20
10.77840933395847
 30
0.0
 10
105.5501193291346
 20
11.36022994001369
 30
0.0
 10
105.5501193291346
 20
11.82493140031233
 30
0.0
  0
SPLINE
  5
AC
330
1F
100
AcDbEntity
  8
0
  6
Continuous
 62
     1
370
    15
100
AcDbSpline
210
0.0
220
0.0
230
1.0
 70
     8
 71
     3
 72
     9
 73
     5
 74
     0
 42
0.000000001
 43
0.00000001
 40
0.0
 40
0.0
 40
0.0
 40
0.0
 40
0.6157266561564291
 40
1.0
 40
1.0
 40
1.0
 40
1.0
 10
110.5501193291346
 20
13.33499999999998
 30
0.0
 10
109.0962589143677
 20
13.31989887233226
 30
0.0
 10
106.7350481396995
 20
13.29537317165529
 30
0.0
 10
104.373902952593
 20
13.08359581946175
 30
0.0
 10
103.4665777962435
 20
13.00221542818401
 30
0.0
  0
SPLINE
  5
AD
330
1F
100
AcDbEntity
  8
0
  6
Continuous
 62
     1
370
    15
100
AcDbSpline
210
0.0
220
0.0
230
1.0
 70
     8
 71
     3
 72
     8
 73
     4
 74
     0
 42
0.000000001
 43
0.00000001
 40
0.0
 40
0.0
 40
0.0
 40
0.0
 40
1.0
 40
1.0
 40
1.0
 40
1.0
 10
110.5501193291346
 20
13.33499999999999
 30
0.0
 10
108.8747273664656
 20
12.88087558296491
 30
0.0
 10
107.2079176983993
 20
12.37832625699699
 30
0.0
 10
105.5501193291346
 20
11.82493140031277
 30
0.0
  0
SPLINE
  5
AE
330
1F
100
AcDbEntity
  8
0
  6
Continuous
 62
     1
370
    15
100
AcDbSpline
210
0.0
220
0.0
230
1.0
 70
    24
 71
     3
 72
     8
 73
     4
 74
     0
 42
0.000000001
 43
0.00000001
 40
0.0
 40
0.0
 40
0.0
 40
0.0
 40
1.0
 40
1.0
 40
1.0
 40
1.0
 10
110.5501193291346
 20
-0.0000000000000058
 30
0.0
 10
110.5501193291346
 20
0.2105471666334286
 30
0.0
 10
110.5501193291346
 20
0.4207411103080668
 30
0.0
 10
110.5501193291346
 20
0.6303976771146562
 30
0.0
  0
SPLINE
  5
AF
330
1F
100
AcDbEntity
  8
0
  6
Continuous
 62
     1
370
    15
100
AcDbSpline
210
0.0
220
0.0
230
1.0
 70
     8
 71
     3
 72
    14
 73
    10
 74
     0
 42
0.000000001
 43
0.00000001
 40
0.0
 40
0.0
 40
0.0
 40
0.0
 40
0.5000000000000002
 40
0.5000000000000002
 40
0.6249999999999997
 40
0.6249999999999997
 40
0.7499999999999992
 40
0.7499999999999992
 40
1.0
 40
1.0
 40
1.0
 40
1.0
 10
105.5501193291346
 20
7.736872478995586
 30
0.0
 10
106.5875836290098
 20
6.823668196228969
 30
0.0
 10
107.5371167270671
 20
5.786264797495654
 30
0.0
 10
108.5948898919004
 20
4.307101211976505
 30
0.0
 10
108.7999054552691
 20
4.002032334709753
 30
0.0
 10
109.1959953111423
 20
3.37220312275274
 30
0.0
 10
109.3873088985495
 20
3.046879165154466
 30
0.0
 10
109.9327780476152
 20
2.050711573763096
 30
0.0
 10
110.2606767258847
 20
1.356659252005153
 30
0.0
 10
110.5501193291346
 20
0.6303976771146157
 30
0.0
  0
SPLINE
  5
B0
330
1F
100
AcDbEntity
  8
0
  6
Continuous
 62
     1
370
    15
100
AcDbSpline
210
0.0
220
0.0
230
1.0
 70
     8
 71
     3
 72
    12
 73
     8
 74
     0
 42
0.000000001
 43
0.00000001
 40
0.0
 40
0.0
 40
0.0
 40
0.0
 40
0.109547530802327
 40
0.3320978190158846
 40
0.5547520392354812
 40
0.7774358555833264
 40
1.0
 40
1.0
 40
1.0
 40
1.0
 10
26.25386045106625
 20
-15.82454480376368
 30
0.0
 10
25.62202856892425
 20
-15.89317222446983
 30
0.0
 10
23.7066043826622
 20
-16.10121905650957
 30
0.0
 10
20.50701675606606
 20
-16.2148745617982
 30
0.0
 10
16.6545281271771
 20
-16.16961022295165
 30
0.0
 10
12.80181520088992
 20
-15.90797844397004
 30
0.0
 10
10.23378787841596
 20
-15.55355261599114
 30
0.0
 10
8.950119329134639
 20
-15.37638733256604
 30
0.0
  0
SPLINE
  5
B1
330
1F
100
AcDbEntity
  8
0
  6
Continuous
 62
     1
370
    15
100
AcDbSpline
210
0.0
220
0.0
230
1.0
 70
     8
 71
     3
 72
    21
 73
    17
 74
     0
 42
0.000000001
 43
0.00000001
 40
0.0
 40
0.0
 40
0.0
 40
0.0
 40
0.0531284110296765
 40
0.1243213665736556
 40
0.195507258533781
 40
0.2666898781282945
 40
0.3378730213822706
 40
0.4090604835514194
 40
0.4802560535482758
 40
0.5514635083880288
 40
0.6226748838586883
 40
0.6981451966984928
 40
0.7736122516285926
 40
0.8490766612000965
 40
0.9245390391234436
 40
1.0
 40
1.0
 40
1.0
 40
1.0
 10
70.1982517192204
 20
-14.30330090652732
 30
0.0
 10
69.1135613241815
 20
-14.47016681203032
 30
0.0
 10
66.57536773609866
 20
-14.86063580977798
 30
0.0
 10
62.58392612838936
 20
-15.17449865824384
 30
0.0
 10
58.22393690548579
 20
-15.28409494995917
 30
0.0
 10
53.86417814309314
 20
-15.11876919076909
 30
0.0
 10
49.50438256666449
 20
-14.69205625759746
 30
0.0
 10
45.14428593358002
 20
-14.00852633904581
 30
0.0
 10
40.78363361086328
 20
-13.08082076522039
 30
0.0
 10
36.42237157991039
 20
-11.92493902063263
 30
0.0
 10
31.97379935773499
 20
-10.53393620928055
 30
0.0
 10
27.43833205238842
 20
-8.918042029269468
 30
0.0
 10
22.81604799767765
 20
-7.096611363612335
 30
0.0
 10
18.19395072406158
 20
-5.135790650176452
 30
0.0
 10
13.57199308115434
 20
-3.075715505072891
 30
0.0
 10
10.49073426964062
 20
-1.658831744815939
 30
0.0
 10
8.950119329134615
 20
-0.9503965163776553
 30
0.0
  0
SPLINE
  5
B2
330
1F
100
AcDbEntity
  8
외형선
  6
Continuous
370
    15
100
AcDbSpline
210
0.0
220
0.0
230
1.0
 70
    24
 71
     3
 72
    14
 73
    10
 74
     0
 42
0.000000001
 43
0.00000001
 40
0.0
 40
0.0
 40
0.0
 40
0.0
 40
0.25
 40
0.25
 40
0.5
 40
0.5
 40
0.75
 40
0.75
 40
1.0
 40
1.0
 40
1.0
 40
1.0
 10
8.950119329134615
 20
-0.9503965163776553
 30
0.0
 10
8.950119329134615
 20
-2.396290779007633
 30
0.0
 10
8.950119329134615
 20
-3.848816582826572
 30
0.0
 10
8.950119329134615
 20
-6.661300769193225
 30
0.0
 10
8.950119329134615
 20
-8.020401066418062
 30
0.0
 10
8.950119329134615
 20
-10.54170038377829
 30
0.0
 10
8.950119329134615
 20
-11.70317132920762
 30
0.0
 10
8.950119329134615
 20
-13.7529659751319
 30
0.0
 10
8.950119329134615
 20
-14.64103216391526
 30
0.0
 10
8.950119329134615
 20
-15.37638733256603
 30
0.0
  0
SPLINE
  5
B3
330
1F
100
AcDbEntity
  8
외형선
  6
Continuous
370
    15
100
AcDbSpline
210
0.0
220
0.0
230
1.0
 70
    24
 71
     3
 72
    14
 73
    10
 74
     0
 42
0.000000001
 43
0.00000001
 40
0.0
 40
0.0
 40
0.0
 40
0.0
 40
0.2500000000000001
 40
0.2500000000000001
 40
0.5000000000000001
 40
0.5000000000000001
 40
0.75
 40
0.75
 40
1.0
 40
1.0
 40
1.0
 40
1.0
 10
8.950119329134615
 20
13.30904472566329
 30
0.0
 10
8.950119329134615
 20
12.84765027977707
 30
0.0
 10
8.950119329134615
 20
12.1724703668229
 30
0.0
 10
8.950119329134615
 20
10.39796387779363
 30
0.0
 10
8.950119329134615
 20
9.298675181567598
 30
0.0
 10
8.950119329134615
 20
6.764361357336708
 30
0.0
 10
8.950119329134615
 20
5.33068661769256
 30
0.0
 10
8.950119329134615
 20
2.282061260948906
 30
0.0
 10
8.950119329134615
 20
0.6689380923964319
 30
0.0
 10
8.950119329134615
 20
-0.9503965163776525
 30
0.0
  0
LINE
  5
B4
330
1F
100
AcDbEntity
  8
0
  6
Continuous
 62
     1
370
    15
100
AcDbLine
 10
110.5501193291346
 20
-1.592171298702638
 30
0.0
 11
110.5501193291346
 21
-5.090978121864743
 31
0.0
  0
SPLINE
  5
B5
330
1F
100
AcDbEntity
  8
0
  6
Continuous
 62
     1
370
    15
100
AcDbSpline
210
0.0
220
0.0
230
1.0
 70
     8
 71
     3
 72
    15
 73
    11
 74
     0
 42
0.000000001
 43
0.00000001
 40
0.0
 40
0.0
 40
0.0
 40
0.0
 40
0.079890369279264
 40
0.2169374914635786
 40
0.3539571450180022
 40
0.4831294188277822
 40
0.6123213641100781
 40
0.7415706418533361
 40
0.8708120566272957
 40
1.0
 40
1.0
 40
1.0
 40
1.0
 10
39.39665043636082
 20
-14.97082521693268
 30
0.0
 10
38.5857877282392
 20
-15.26291794664521
 30
0.0
 10
36.38393882694833
 20
-16.05607818148005
 30
0.0
 10
32.79164590928632
 20
-17.0740206208143
 30
0.0
 10
28.69926243894776
 20
-18.00643706874239
 30
0.0
 10
24.68691304848903
 20
-18.64101211094862
 30
0.0
 10
20.75329103150774
 20
-19.00238574187773
 30
0.0
 10
16.81845472189293
 20
-19.08816374155196
 30
0.0
 10
12.88374204271087
 20
-18.92196640037645
 30
0.0
 10
10.26114602061207
 20
-18.58522943854895
 30
0.0
 10
8.950119329131839
 20
-18.41689579461606
 30
0.0
  0
SPLINE
  5
B6
330
1F
100
AcDbEntity
  8
외형선
  6
Continuous
370
    15
100
AcDbSpline
210
0.0
220
0.0
230
1.0
 70
    24
 71
     3
 72
     8
 73
     4
 74
     0
 42
0.000000001
 43
0.00000001
 40
0.0
 40
0.0
 40
0.0
 40
0.0
 40
1.0
 40
1.0
 40
1.0
 40
1.0
 10
8.950119329134615
 20
-15.37638733256603
 30
0.0
 10
8.950119329134615
 20
-16.38987417691796
 30
0.0
 10
8.950119329134615
 20
-17.40989074048101
 30
0.0
 10
8.950119329134615
 20
-18.41689579459957
 30
0.0
  0
SPLINE
  5
B7
330
1F
100
AcDbEntity
  8
0
  6
Continuous
 62
     1
370
    15
100
AcDbSpline
210
0.0
220
0.0
230
1.0
 70
     8
 71
     3
 72
    14
 73
    10
 74
     0
 42
0.000000001
 43
0.00000001
 40
0.0
 40
0.0
 40
0.0
 40
0.0
 40
0.0892202302098189
 40
0.2486316747581317
 40
0.3989523164112441
 40
0.549205679789431
 40
0.6994352805820672
 40
0.8496853422898057
 40
1.0
 40
1.0
 40
1.0
 40
1.0
 10
84.37114173438651
 20
12.76762508019857
 30
0.0
 10
85.14969764782023
 20
13.10439083231225
 30
0.0
 10
87.31931389062358
 20
14.04286221657452
 30
0.0
 10
90.80092383642706
 20
15.31686413523419
 30
0.0
 10
94.81521331953157
 20
16.59103784500049
 30
0.0
 10
98.7488503078963
 20
17.59725007086222
 30
0.0
 10
102.6818015953423
 20
18.35066991100632
 30
0.0
 10
106.6153426646405
 20
18.86234433068051
 30
0.0
 10
109.2383392001415
 20
18.97670607094161
 30
0.0
 10
110.5501193291346
 20
19.04999999999999
 30
0.0
  0
LINE
  5
B8
330
1F
100
AcDbEntity
  8
외형선
  6
Continuous
370
    15
100
AcDbLine
 10
8.950119329134619
 20
-19.05000000000003
 30
0.0
 11
8.950119329134612
 21
-18.41689579460044
 31
0.0
  0
LINE
  5
B9
330
1F
100
AcDbEntity
  8
0
  6
Continuous
 62
     1
370
    15
100
AcDbLine
 10
110.5501193291346
 20
0.641753157184325
 30
0.0
 11
110.5501193291346
 21
13.335
 31
0.0
  0
SPLINE
  5
BA
330
1F
100
AcDbEntity
  8
0
  6
Continuous
 62
     1
370
    15
100
AcDbSpline
210
0.0
220
0.0
230
1.0
 70
    24
 71
     3
 72
    14
 73
    10
 74
     0
 42
0.000000001
 43
0.00000001
 40
0.0
 40
0.0
 40
0.0
 40
0.0
 40
0.25
 40
0.25
 40
0.5
 40
0.5
 40
0.75
 40
0.75
 40
1.0
 40
1.0
 40
1.0
 40
1.0
 10
110.5501193291346
 20
13.33499999999998
 30
0.0
 10
110.5501193291346
 20
13.73916724608965
 30
0.0
 10
110.5501193291346
 20
14.17509742113073
 30
0.0
 10
110.5501193291346
 20
15.09325330177683
 30
0.0
 10
110.5501193291346
 20
15.57538747801499
 30
0.0
 10
110.5501193291346
 20
16.56077437020785
 30
0.0
 10
110.5501193291346
 20
17.06386132050915
 30
0.0
 10
110.5501193291346
 20
18.06200198620702
 30
0.0
 10
110.5501193291346
 20
18.55687409107137
 30
0.0
 10
110.5501193291346
 20
19.05
 30
0.0
  0
LINE
  5
BC
330
1F
100
AcDbEntity
  8
참조1
100
AcDbLine
 10
29.14057883212693
 20
0.0010749287238892
 30
0.0
 11
29.14057883212695
 21
-39.99892507127611
 31
0.0
  0
LINE
  5
BD
330
1F
100
AcDbEntity
  8
참조1
100
AcDbLine
 10
29.14057883212695
 20
-39.99892507127611
 30
0.0
 11
-22.53075298218174
 21
-39.9989250712761
 31
0.0
  0
INSERT
  5
BF
330
1F
100
AcDbEntity
  8
0
  6
Continuous
 62
     7
100
AcDbBlockReference
 66
     1
  2
블럭10
 10
20.40984639700942
 20
-52.04717430164395
 30
0.0
  0
ATTRIB
  5
C0
330
BF
100
AcDbEntity
  8
FORMAT
 62
     2
100
AcDbText
 10
11.22855110826814
 20
-49.97180738881176
 30
0.0
 40
4.233333333333333
  1
E1071132 [ 2 FLUTE ]
 41
0.75
  7
SLDTEXTSTYLE0
 11
11.22855110826814
 21
-52.08847405547843
 31
0.0
100
AcDbAttribute
  2
AUTOATTR0
 70
     0
 74
     1
  0
SEQEND
  5
C1
330
BF
100
AcDbEntity
  8
0
  6
Continuous
 62
     7
  0
HATCH
  5
C2
330
1F
100
AcDbEntity
  8
중심선
100
AcDbHatch
 10
0.0
 20
0.0
 30
0.0
210
0.0
220
0.0
230
1.0
  2
SOLID
 70
     1
 71
     0
 91
        1
 92
        0
 93
        4
 72
     1
 10
26.12475570139026
 20
-35.80000000000001
 11
22.67848045755298
 21
-35.80000000000001
 72
     1
 10
22.67848045755298
 20
-35.80000000000001
 11
20.55025059834896
 21
-38.33632558057258
 72
     1
 10
20.55025059834896
 20
-38.33632558057258
 11
23.99655892729939
 21
-38.33628615127009
 72
     1
 10
23.99655892729939
 20
-38.33628615127009
 11
26.12475570139026
 21
-35.80000000000001
 97
        0
 75
     0
 76
     1
 98
        1
 10
5.20954049700768
 20
-0.0010749287239094
  0
HATCH
  5
C3
330
1F
100
AcDbEntity
  8
중심선
100
AcDbHatch
 10
0.0
 20
0.0
 30
0.0
210
0.0
220
0.0
230
1.0
  2
SOLID
 70
     1
 71
     0
 91
        1
 92
        0
 93
        4
 72
     1
 10
31.13751969242621
 20
-35.80000000000001
 11
27.69124444858899
 21
-35.79999999999999
 72
     1
 10
27.69124444858899
 20
-35.79999999999999
 11
23.16010644023154
 21
-41.20000000000003
 72
     1
 10
23.16010644023154
 20
-41.20000000000003
 11
26.60638168406883
 21
-41.20000000000003
 72
     1
 10
26.60638168406883
 20
-41.20000000000003
 11
31.13751969242621
 21
-35.80000000000001
 97
        0
 75
     0
 76
     1
 98
        1
 10
5.20954049700768
 20
-0.0010749287239094
  0
HATCH
  5
C4
330
1F
100
AcDbEntity
  8
중심선
100
AcDbHatch
 10
0.0
 20
0.0
 30
0.0
210
0.0
220
0.0
230
1.0
  2
SOLID
 70
     1
 71
     0
 91
        1
 92
        0
 93
        4
 72
     1
 10
36.15028368346211
 20
-35.80000000000001
 11
32.70400843962499
 21
-35.79999999999999
 72
     1
 10
32.70400843962499
 20
-35.79999999999999
 11
25.65557153773574
 21
-44.20000000000003
 72
     1
 10
25.65557153773574
 20
-44.20000000000003
 11
29.10184678157303
 21
-44.20000000000003
 72
     1
 10
29.10184678157303
 20
-44.20000000000003
 11
36.15028368346211
 21
-35.80000000000001
 97
        0
 75
     0
 76
     1
 98
        1
 10
5.20954049700768
 20
-0.0010749287239094
  0
HATCH
  5
C5
330
1F
100
AcDbEntity
  8
중심선
100
AcDbHatch
 10
0.0
 20
0.0
 30
0.0
210
0.0
220
0.0
230
1.0
  2
SOLID
 70
     1
 71
     0
 91
        1
 92
        0
 93
        6
 72
     3
 10
40.95017411447431
 20
-40.00000000005129
 11
3.960054785062283
 21
1.540882976769353E-10
 40
0.3939339440162628
 50
17.09539180608455
 51
320.0019657685075
 73
     0
 72
     1
 10
42.63317377017488
 20
-38.58789400463831
 11
44.93847564387591
 21
-36.65356729459042
 72
     3
 10
40.95017411442146
 20
-40.00000000000016
 11
6.600054785286829
 21
-1.278976924368180E-13
 40
0.636358354079598
 50
39.99873849337402
 51
368.4976242363724
 73
     1
 72
     1
 10
47.37550660632204
 20
-39.03999999993004
 11
39.63024142125741
 21
-39.03999999993004
 72
     1
 10
39.63024142125741
 20
-39.03999999993004
 11
39.63021637681145
 21
-40.95999999992993
 72
     1
 10
39.63021637681145
 20
-40.95999999992993
 11
44.07159614628346
 21
-40.9599999999299
 97
        0
 75
     0
 76
     1
 98
        1
 10
5.20954049700768
 20
-0.0010749287239094
  0
DIMENSION
  5
D4
330
1F
100
AcDbEntity
  8
0
  6
Continuous
 62
     0
370
    15
100
AcDbDimension
  2
_D_1
 10
8.950119329134615
 20
31.92269978450445
 30
0.0
 11
59.75011932913461
 21
31.92269978450445
 31
0.0
 70
   160
  1
<>
 71
     2
 42
101.6
  3
SLDDIMSTYLE3
100
AcDbAlignedDimension
 13
110.5501193291346
 23
19.05
 33
0.0
 14
8.950119329134615
 24
16.09570082442998
 34
0.0
100
AcDbRotatedDimension
1001
ACAD
1000
DSTYLE
1002
{
1070
   171
1070
     6
1070
   273
1070
     7
1002
}
  0
DIMENSION
  5
FE
330
1F
100
AcDbEntity
  8
0
  6
Continuous
 62
     0
370
    15
100
AcDbDimension
  2
_D_3
 10
129.5501193291348
 20
19.05000000000007
 30
0.0
 11
129.5501193291346
 21
57.43389923012488
 31
0.0
 70
   160
  1
%%c<>
 71
     2
 42
38.1
 52
-270.0
  3
SLDDIMSTYLE3
100
AcDbAlignedDimension
 13
110.5501193291346
 23
-19.05
 33
0.0
 14
110.5501193291346
 24
19.05
 34
0.0
 50
90.0000000000002
100
AcDbRotatedDimension
1001
ACAD
1000
DSTYLE
1002
{
1070
   171
1070
     6
1070
   273
1070
     7
1002
}
  0
LINE
  5
112
330
1F
100
AcDbEntity
  8
참조1
100
AcDbLine
 10
75.44158764747253
 20
7.441074928723896
 30
0.0
 11
75.44158764747253
 21
-7.438925071276109
 31
0.0
  0
LINE
  5
113
330
1F
100
AcDbEntity
  8
참조1
100
AcDbLine
 10
88.14158764747253
 20
5.441074928723896
 30
0.0
 11
75.44158764747253
 21
5.441074928723896
 31
0.0
  0
SOLID
  5
114
330
1F
100
AcDbEntity
  8
참조1
100
AcDbTrace
 10
75.44158764747253
 20
5.441074928723896
 30
0.0
 11
81.79158764747253
 21
4.425074928723896
 31
0.0
 12
81.79158764747253
 22
6.457074928723896
 32
0.0
 13
81.79158764747253
 23
6.457074928723896
 33
0.0
  0
LINE
  5
115
330
1F
100
AcDbEntity
  8
참조1
100
AcDbLine
 10
88.14158764747253
 20
-5.438925071276109
 30
0.0
 11
75.44158764747253
 21
-5.438925071276109
 31
0.0
  0
SOLID
  5
116
330
1F
100
AcDbEntity
  8
참조1
100
AcDbTrace
 10
75.44158764747253
 20
-5.438925071276109
 30
0.0
 11
81.79158764747253
 21
-6.454925071276109
 31
0.0
 12
81.79158764747253
 22
-4.422925071276109
 32
0.0
 13
81.79158764747253
 23
-4.422925071276109
 33
0.0
  0
MTEXT
  5
117
330
1F
100
AcDbEntity
  8
참조1
100
AcDbMText
 10
84.82593778009851
 20
11.01136670591222
 30
0.0
 40
3.5
 41
0.0
 71
     1
 72
     1
  1
A
  7
SLDTEXTSTYLE0
 73
     1
 44
1.0
  0
MTEXT
  5
118
330
1F
100
AcDbEntity
  8
참조1
100
AcDbMText
 10
84.82593778009851
 20
0.1313667059122201
 30
0.0
 40
3.5
 41
0.0
 71
     1
 72
     1
  1
A
  7
SLDTEXTSTYLE0
 73
     1
 44
1.0
  0
LINE
  5
239
330
1F
100
AcDbEntity
  8
외형선
  6
Continuous
370
    15
100
AcDbLine
 10
8.950119329134623
 20
15.87499999999999
 30
0.0
 11
-16.58732499999998
 21
15.87499999999999
 31
0.0
  0
LINE
  5
23A
330
1F
100
AcDbEntity
  8
외형선
  6
Continuous
370
    15
100
AcDbLine
 10
-53.5
 20
-15.87500000000001
 30
0.0
 11
8.950119329134623
 21
-15.87500000000001
 31
0.0
  0
LINE
  5
23C
330
1F
100
AcDbEntity
  8
외형선
  6
Continuous
370
    15
100
AcDbLine
 10
-54.50000000000001
 20
-14.87500000000001
 30
0.0
 11
-53.5
 21
-15.87500000000001
 31
0.0
  0
LINE
  5
24C
330
1F
100
AcDbEntity
  8
외형선
  6
Continuous
370
    15
100
AcDbLine
 10
-53.5
 20
13.48739999999998
 30
0.0
 11
-53.5
 21
-15.87500000000003
 31
0.0
  0
LINE
  5
24E
330
1F
100
AcDbEntity
  8
외형선
  6
Continuous
370
    15
100
AcDbLine
 10
-54.50000000000001
 20
13.48739999999998
 30
0.0
 11
-54.50000000000001
 21
-14.87499999999999
 31
0.0
  0
LINE
  5
270
330
1F
100
AcDbEntity
  8
중심선
100
AcDbLine
 10
-57.50000000000001
 20
-0.0000000000000284
 30
0.0
 11
117.5501193291347
 21
-0.0000000000000139
 31
0.0
  0
CIRCLE
  5
271
330
1F
100
AcDbEntity
  8
해칭선
100
AcDbCircle
 10
0.0
 20
0.0
 30
0.0
 40
2.999999999999995
  0
DIMENSION
  5
279
330
1F
100
AcDbEntity
  8
0
  6
Continuous
 62
     0
370
    15
100
AcDbDimension
  2
*D11
 10
-66.99999999999996
 20
-15.87500000000008
 30
0.0
 11
-67.00000000000001
 21
-0.0000000000000142
 31
0.0
 70
   160
  1
%%c<>
 71
     2
 42
31.75
 52
-270.0
  3
SLDDIMSTYLE3
100
AcDbAlignedDimension
 13
-53.5
 23
15.87499999999997
 33
0.0
 14
-53.5
 24
-15.87500000000003
 34
0.0
 50
90.0000000000002
100
AcDbRotatedDimension
1001
ACAD
1000
DSTYLE
1002
{
1070
   171
1070
     6
1070
   273
1070
     7
1002
}
  0
DIMENSION
  5
27B
330
1F
100
AcDbEntity
  8
0
  6
Continuous
 62
     0
370
    15
100
AcDbDimension
  2
*D13
 10
-54.50000000000003
 20
45.58996586444053
 30
0.0
 11
31.04999999999998
 21
45.58996586444053
 31
0.0
 70
   160
  1
<>
 71
     2
 42
165.0501193291346
  3
SLDDIMSTYLE3
100
AcDbAlignedDimension
 13
110.5501193291346
 23
19.05
 33
0.0
 14
-54.50000000000001
 24
14.87499999999996
 34
0.0
 50
0.0000000000000025
100
AcDbRotatedDimension
1001
ACAD
1000
DSTYLE
1002
{
1070
   171
1070
     6
1070
   273
1070
     7
1002
}
  0
INSERT
  5
27D
330
1F
100
AcDbEntity
  8
해칭선
100
AcDbBlockReference
  2
SW_DOWELSYMBOL_0
 10
0.0
 20
0.0
 30
0.0
  0
LINE
  5
403
330
1F
100
AcDbEntity
  8
외형선
  6
Continuous
370
    15
100
AcDbLine
 10
-39.41240000000011
 20
15.87499999999999
 30
0.0
 11
-34.46892500000002
 21
15.87499999999999
 31
0.0
  0
LINE
  5
404
330
1F
100
AcDbEntity
  8
외형선
  6
Continuous
370
    15
100
AcDbLine
 10
-32.081325
 20
13.48739999999998
 30
0.0
 11
-18.97492499999999
 21
13.48739999999998
 31
0.0
  0
LINE
  5
405
330
1F
100
AcDbEntity
  8
외형선
  6
Continuous
370
    15
100
AcDbLine
 10
-18.97492499999999
 20
13.48739999999998
 30
0.0
 11
-16.58732499999997
 21
15.875
 31
0.0
  0
LINE
  5
406
330
1F
100
AcDbEntity
  8
외형선
  6
Continuous
370
    15
100
AcDbLine
 10
-32.081325
 20
13.48739999999998
 30
0.0
 11
-34.46892500000002
 21
15.875
 31
0.0
  0
LINE
  5
407
330
1F
100
AcDbEntity
  8
외형선
  6
Continuous
370
    15
100
AcDbLine
 10
-54.50000000000001
 20
13.48739999999998
 30
0.0
 11
-41.80000000000002
 21
13.48739999999998
 31
0.0
  0
LINE
  5
408
330
1F
100
AcDbEntity
  8
외형선
  6
Continuous
370
    15
100
AcDbLine
 10
-41.80000000000002
 20
13.48739999999998
 30
0.0
 11
-39.41240000000011
 21
15.87499999999997
 31
0.0
  0
LINE
  5
409
330
1F
100
AcDbEntity
  8
외형선
  6
Continuous
370
    15
100
AcDbLine
 10
-34.46892500000001
 20
15.87499999999999
 30
0.0
 11
-39.41240000000009
 21
15.87499999999999
 31
0.0
  0
ENDSEC
  0
SECTION
  2
OBJECTS
  0
DICTIONARY
  5
C
330
0
100
AcDbDictionary
281
     1
  3
ACAD_GROUP
350
D
  3
ACAD_IMAGE_VARS
350
143
  3
ACAD_LAYOUT
350
1A
  3
ACAD_MLINESTYLE
350
17
  3
ACAD_PLOTSETTINGS
350
19
  3
ACAD_PLOTSTYLENAME
350
E
  3
ACAD_SCALELIST
350
47
  3
APPDATA
350
141
  3
DWGPROPS
350
40A
  0
DICTIONARY
  5
201
330
2
100
AcDbDictionary
280
     1
281
     1
  3
ACAD_LAYERSTATES
360
202
  0
DICTIONARY
  5
D
102
{ACAD_REACTORS
330
C
102
}
330
C
100
AcDbDictionary
281
     1
  0
RASTERVARIABLES
  5
143
102
{ACAD_REACTORS
330
C
102
}
330
C
100
AcDbRasterVariables
 90
        0
 70
     1
 71
     1
 72
     1
  0
DICTIONARY
  5
1A
102
{ACAD_REACTORS
330
C
102
}
330
C
100
AcDbDictionary
281
     1
  3
Layout1
350
1E
  3
Layout2
350
26
  3
Model
350
22
  0
DICTIONARY
  5
17
102
{ACAD_REACTORS
330
C
102
}
330
C
100
AcDbDictionary
281
     1
  3
Standard
350
18
  0
DICTIONARY
  5
19
102
{ACAD_REACTORS
330
C
102
}
330
C
100
AcDbDictionary
281
     1
  0
ACDBDICTIONARYWDFLT
  5
E
102
{ACAD_REACTORS
330
C
102
}
330
C
100
AcDbDictionary
281
     1
  3
Normal
350
F
100
AcDbDictionaryWithDefault
340
F
  0
DICTIONARY
  5
47
102
{ACAD_REACTORS
330
C
102
}
330
C
100
AcDbDictionary
281
     1
  3
A0
350
48
  3
A1
350
49
  3
A2
350
4A
  3
A3
350
4B
  3
A4
350
4C
  3
A5
350
4D
  3
A6
350
4E
  3
A7
350
4F
  3
A8
350
50
  3
A9
350
51
  3
B0
350
52
  3
B1
350
53
  3
B2
350
54
  3
B3
350
55
  3
B4
350
56
  3
B5
350
57
  3
B6
350
58
  3
B7
350
59
  3
B8
350
5A
  3
B9
350
5B
  3
C0
350
5C
  3
C1
350
5D
  3
C2
350
5E
  3
C3
350
5F
  3
C4
350
60
  3
C5
350
61
  3
C6
350
62
  3
C7
350
63
  3
C8
350
64
  3
C9
350
65
  3
D0
350
66
  3
D1
350
67
  3
D2
350
68
  0
DICTIONARY
  5
141
102
{ACAD_REACTORS
330
C
102
}
330
C
100
AcDbDictionary
281
     1
  0
XRECORD
  5
40A
102
{ACAD_REACTORS
330
C
102
}
330
C
100
AcDbXrecord
280
     1
  1
DWGPROPS COOKIE
  2

  3

  4

  6

  7

  8
12016016
  9

300
=
301
=
302
=
303
=
304
=
305
=
306
=
307
=
308
=
309
=
 40
0.0
 41
2458311.198473565
 42
2458318.299651065
  1

 90
        0
  0
DICTIONARY
  5
202
102
{ACAD_REACTORS
330
201
102
}
330
201
100
AcDbDictionary
281
     1
  0
LAYOUT
  5
1E
102
{ACAD_REACTORS
330
1A
102
}
330
1A
100
AcDbPlotSettings
  1

  2
none_device
  4

  6

 40
0.0
 41
0.0
 42
0.0
 43
0.0
 44
0.0
 45
0.0
 46
0.0
 47
0.0
 48
0.0
 49
0.0
140
0.0
141
0.0
142
1.0
143
1.0
 70
   688
 72
     1
 73
     0
 74
     5
  7

 75
    16
147
1.0
148
0.0
149
0.0
100
AcDbLayout
  1
Layout1
 70
     1
 71
     1
 10
0.0
 20
0.0
 11
420.0
 21
297.0
 12
0.0
 22
0.0
 32
0.0
 14
1.000000000000000E+20
 24
1.000000000000000E+20
 34
1.000000000000000E+20
 15
-1.000000000000000E+20
 25
-1.000000000000000E+20
 35
-1.000000000000000E+20
146
0.0
 13
0.0
 23
0.0
 33
0.0
 16
1.0
 26
0.0
 36
0.0
 17
0.0
 27
1.0
 37
0.0
 76
     0
330
1B
  0
LAYOUT
  5
26
102
{ACAD_REACTORS
330
1A
102
}
330
1A
100
AcDbPlotSettings
  1

  2
none_device
  4

  6

 40
0.0
 41
0.0
 42
0.0
 43
0.0
 44
0.0
 45
0.0
 46
0.0
 47
0.0
 48
0.0
 49
0.0
140
0.0
141
0.0
142
1.0
143
1.0
 70
   688
 72
     1
 73
     0
 74
     5
  7

 75
    16
147
1.0
148
0.0
149
0.0
100
AcDbLayout
  1
Layout2
 70
     1
 71
     2
 10
0.0
 20
0.0
 11
0.0
 21
0.0
 12
0.0
 22
0.0
 32
0.0
 14
0.0
 24
0.0
 34
0.0
 15
0.0
 25
0.0
 35
0.0
146
0.0
 13
0.0
 23
0.0
 33
0.0
 16
1.0
 26
0.0
 36
0.0
 17
0.0
 27
1.0
 37
0.0
 76
     0
330
23
  0
LAYOUT
  5
22
102
{ACAD_REACTORS
330
1A
102
}
330
1A
100
AcDbPlotSettings
  1

  2
none_device
  4
ANSI_A_(11.00_x_8.50_Inches)
  6

 40
6.35
 41
19.05
 42
6.35000508
 43
19.05000254
 44
279.4
 45
215.9
 46
88.6644884731619
 47
77.8204089042401
 48
0.0
 49
0.0
140
0.0
141
0.0
142
0.0574775709070625
143
1.0
 70
  1696
 72
     0
 73
     0
 74
     0
  7

 75
     0
147
0.0235690232323232
148
0.0
149
0.0
100
AcDbLayout
  1
Model
 70
     1
 71
     0
 10
0.0
 20
0.0
 11
420.0
 21
297.0
 12
0.0
 22
0.0
 32
0.0
 14
1.000000000000000E+20
 24
1.000000000000000E+20
 34
1.000000000000000E+20
 15
-1.000000000000000E+20
 25
-1.000000000000000E+20
 35
-1.000000000000000E+20
146
0.0
 13
0.0
 23
0.0
 33
0.0
 16
1.0
 26
0.0
 36
0.0
 17
0.0
 27
1.0
 37
0.0
 76
     0
330
1F
331
29
  0
MLINESTYLE
  5
18
102
{ACAD_REACTORS
330
17
102
}
330
17
100
AcDbMlineStyle
  2
Standard
 70
     0
  3

 62
   256
 51
90.0
 52
90.0
 71
     2
 49
0.5
 62
   256
  6
BYLAYER
 49
-0.5
 62
   256
  6
BYLAYER
  0
ACDBPLACEHOLDER
  5
F
102
{ACAD_REACTORS
330
E
102
}
330
E
  0
SCALE
  5
48
102
{ACAD_REACTORS
330
47
102
}
330
47
100
AcDbScale
 70
     0
300
1:1
140
1.0
141
1.0
290
     1
  0
SCALE
  5
49
102
{ACAD_REACTORS
330
47
102
}
330
47
100
AcDbScale
 70
     0
300
1:2
140
1.0
141
2.0
290
     0
  0
SCALE
  5
4A
102
{ACAD_REACTORS
330
47
102
}
330
47
100
AcDbScale
 70
     0
300
1:4
140
1.0
141
4.0
290
     0
  0
SCALE
  5
4B
102
{ACAD_REACTORS
330
47
102
}
330
47
100
AcDbScale
 70
     0
300
1:5
140
1.0
141
5.0
290
     0
  0
SCALE
  5
4C
102
{ACAD_REACTORS
330
47
102
}
330
47
100
AcDbScale
 70
     0
300
1:8
140
1.0
141
8.0
290
     0
  0
SCALE
  5
4D
102
{ACAD_REACTORS
330
47
102
}
330
47
100
AcDbScale
 70
     0
300
1:10
140
1.0
141
10.0
290
     0
  0
SCALE
  5
4E
102
{ACAD_REACTORS
330
47
102
}
330
47
100
AcDbScale
 70
     0
300
1:16
140
1.0
141
16.0
290
     0
  0
SCALE
  5
4F
102
{ACAD_REACTORS
330
47
102
}
330
47
100
AcDbScale
 70
     0
300
1:20
140
1.0
141
20.0
290
     0
  0
SCALE
  5
50
102
{ACAD_REACTORS
330
47
102
}
330
47
100
AcDbScale
 70
     0
300
1:30
140
1.0
141
30.0
290
     0
  0
SCALE
  5
51
102
{ACAD_REACTORS
330
47
102
}
330
47
100
AcDbScale
 70
     0
300
1:40
140
1.0
141
40.0
290
     0
  0
SCALE
  5
52
102
{ACAD_REACTORS
330
47
102
}
330
47
100
AcDbScale
 70
     0
300
1:50
140
1.0
141
50.0
290
     0
  0
SCALE
  5
53
102
{ACAD_REACTORS
330
47
102
}
330
47
100
AcDbScale
 70
     0
300
1:100
140
1.0
141
100.0
290
     0
  0
SCALE
  5
54
102
{ACAD_REACTORS
330
47
102
}
330
47
100
AcDbScale
 70
     0
300
2:1
140
2.0
141
1.0
290
     0
  0
SCALE
  5
55
102
{ACAD_REACTORS
330
47
102
}
330
47
100
AcDbScale
 70
     0
300
4:1
140
4.0
141
1.0
290
     0
  0
SCALE
  5
56
102
{ACAD_REACTORS
330
47
102
}
330
47
100
AcDbScale
 70
     0
300
8:1
140
8.0
141
1.0
290
     0
  0
SCALE
  5
57
102
{ACAD_REACTORS
330
47
102
}
330
47
100
AcDbScale
 70
     0
300
10:1
140
10.0
141
1.0
290
     0
  0
SCALE
  5
58
102
{ACAD_REACTORS
330
47
102
}
330
47
100
AcDbScale
 70
     0
300
100:1
140
100.0
141
1.0
290
     0
  0
SCALE
  5
59
102
{ACAD_REACTORS
330
47
102
}
330
47
100
AcDbScale
 70
     0
300
1/128" = 1'-0"
140
0.0078125
141
12.0
290
     0
  0
SCALE
  5
5A
102
{ACAD_REACTORS
330
47
102
}
330
47
100
AcDbScale
 70
     0
300
1/64" = 1'-0"
140
0.015625
141
12.0
290
     0
  0
SCALE
  5
5B
102
{ACAD_REACTORS
330
47
102
}
330
47
100
AcDbScale
 70
     0
300
1/32" = 1'-0"
140
0.03125
141
12.0
290
     0
  0
SCALE
  5
5C
102
{ACAD_REACTORS
330
47
102
}
330
47
100
AcDbScale
 70
     0
300
1/16" = 1'-0"
140
0.0625
141
12.0
290
     0
  0
SCALE
  5
5D
102
{ACAD_REACTORS
330
47
102
}
330
47
100
AcDbScale
 70
     0
300
3/32" = 1'-0"
140
0.09375
141
12.0
290
     0
  0
SCALE
  5
5E
102
{ACAD_REACTORS
330
47
102
}
330
47
100
AcDbScale
 70
     0
300
1/8" = 1'-0"
140
0.125
141
12.0
290
     0
  0
SCALE
  5
5F
102
{ACAD_REACTORS
330
47
102
}
330
47
100
AcDbScale
 70
     0
300
3/16" = 1'-0"
140
0.1875
141
12.0
290
     0
  0
SCALE
  5
60
102
{ACAD_REACTORS
330
47
102
}
330
47
100
AcDbScale
 70
     0
300
1/4" = 1'-0"
140
0.25
141
12.0
290
     0
  0
SCALE
  5
61
102
{ACAD_REACTORS
330
47
102
}
330
47
100
AcDbScale
 70
     0
300
3/8" = 1'-0"
140
0.375
141
12.0
290
     0
  0
SCALE
  5
62
102
{ACAD_REACTORS
330
47
102
}
330
47
100
AcDbScale
 70
     0
300
1/2" = 1'-0"
140
0.5
141
12.0
290
     0
  0
SCALE
  5
63
102
{ACAD_REACTORS
330
47
102
}
330
47
100
AcDbScale
 70
     0
300
3/4" = 1'-0"
140
0.75
141
12.0
290
     0
  0
SCALE
  5
64
102
{ACAD_REACTORS
330
47
102
}
330
47
100
AcDbScale
 70
     0
300
1" = 1'-0"
140
1.0
141
12.0
290
     0
  0
SCALE
  5
65
102
{ACAD_REACTORS
330
47
102
}
330
47
100
AcDbScale
 70
     0
300
1-1/2" = 1'-0"
140
1.5
141
12.0
290
     0
  0
SCALE
  5
66
102
{ACAD_REACTORS
330
47
102
}
330
47
100
AcDbScale
 70
     0
300
3" = 1'-0"
140
3.0
141
12.0
290
     0
  0
SCALE
  5
67
102
{ACAD_REACTORS
330
47
102
}
330
47
100
AcDbScale
 70
     0
300
6" = 1'-0"
140
6.0
141
12.0
290
     0
  0
SCALE
  5
68
102
{ACAD_REACTORS
330
47
102
}
330
47
100
AcDbScale
 70
     0
300
1'-0" = 1'-0"
140
12.0
141
12.0
290
     0
  0
ENDSEC
  0
EOF
