  0
SECTION
  2
HEADER
  9
$ACADVER
  1
AC1015
  9
$ACADMAINTVER
 70
     6
  9
$DWGCODEPAGE
  3
ANSI_949
  9
$INSBASE
 10
0.0
 20
0.0
 30
0.0
  9
$EXTMIN
 10
1.000000000000000E+20
 20
1.000000000000000E+20
 30
1.000000000000000E+20
  9
$EXTMAX
 10
-1.000000000000000E+20
 20
-1.000000000000000E+20
 30
-1.000000000000000E+20
  9
$LIMMIN
 10
0.0
 20
0.0
  9
$LIMMAX
 10
420.0
 20
297.0
  9
$ORTHOMODE
 70
     1
  9
$REGENMODE
 70
     1
  9
$FILLMODE
 70
     1
  9
$QTEXTMODE
 70
     0
  9
$MIRRTEXT
 70
     1
  9
$LTSCALE
 40
1.0
  9
$ATTMODE
 70
     1
  9
$TEXTSIZE
 40
3.5
  9
$TRACEWID
 40
1.0
  9
$TEXTSTYLE
  7
Standard
  9
$CLAYER
  8
0
  9
$CELTYPE
  6
ByLayer
  9
$CECOLOR
 62
   256
  9
$CELTSCALE
 40
1.0
  9
$DISPSILH
 70
     0
  9
$DIMSCALE
 40
1.0
  9
$DIMASZ
 40
3.302
  9
$DIMEXO
 40
1.0
  9
$DIMDLI
 40
3.75
  9
$DIMRND
 40
0.0
  9
$DIMDLE
 40
0.0
  9
$DIMEXE
 40
1.0
  9
$DIMTP
 40
0.0
  9
$DIMTM
 40
0.0
  9
$DIMTXT
 40
3.5
  9
$DIMCEN
 40
2.5
  9
$DIMTSZ
 40
0.0
  9
$DIMTOL
 70
     0
  9
$DIMLIM
 70
     0
  9
$DIMTIH
 70
     1
  9
$DIMTOH
 70
     1
  9
$DIMSE1
 70
     0
  9
$DIMSE2
 70
     0
  9
$DIMTAD
 70
     1
  9
$DIMZIN
 70
     0
  9
$DIMBLK
  1

  9
$DIMASO
 70
     1
  9
$DIMSHO
 70
     1
  9
$DIMPOST
  1

  9
$DIMAPOST
  1

  9
$DIMALT
 70
     0
  9
$DIMALTD
 70
     3
  9
$DIMALTF
 40
0.0393700787401575
  9
$DIMLFAC
 40
1.0
  9
$DIMTOFL
 70
     1
  9
$DIMTVP
 40
0.0
  9
$DIMTIX
 70
     0
  9
$DIMSOXD
 70
     0
  9
$DIMSAH
 70
     0
  9
$DIMBLK1
  1

  9
$DIMBLK2
  1

  9
$DIMSTYLE
  2
ISO-25
  9
$DIMCLRD
 70
     0
  9
$DIMCLRE
 70
     0
  9
$DIMCLRT
 70
     0
  9
$DIMTFAC
 40
1.0
  9
$DIMGAP
 40
1.524
  9
$DIMJUST
 70
     0
  9
$DIMSD1
 70
     0
  9
$DIMSD2
 70
     0
  9
$DIMTOLJ
 70
     0
  9
$DIMTZIN
 70
     0
  9
$DIMALTZ
 70
     0
  9
$DIMALTTZ
 70
     0
  9
$DIMUPT
 70
     0
  9
$DIMDEC
 70
     2
  9
$DIMTDEC
 70
     2
  9
$DIMALTU
 70
     2
  9
$DIMALTTD
 70
     3
  9
$DIMTXSTY
  7
Standard
  9
$DIMAUNIT
 70
     0
  9
$DIMADEC
 70
     2
  9
$DIMALTRND
 40
0.0
  9
$DIMAZIN
 70
     0
  9
$DIMDSEP
 70
    44
  9
$DIMATFIT
 70
     3
  9
$DIMFRAC
 70
     0
  9
$DIMLDRBLK
  1

  9
$DIMLUNIT
 70
     2
  9
$DIMLWD
 70
    -2
  9
$DIMLWE
 70
    -2
  9
$DIMTMOVE
 70
     0
  9
$LUNITS
 70
     2
  9
$LUPREC
 70
     2
  9
$SKETCHINC
 40
1.0
  9
$FILLETRAD
 40
10.0
  9
$AUNITS
 70
     0
  9
$AUPREC
 70
     2
  9
$MENU
  1
.
  9
$ELEVATION
 40
0.0
  9
$PELEVATION
 40
0.0
  9
$THICKNESS
 40
0.0
  9
$LIMCHECK
 70
     0
  9
$CHAMFERA
 40
0.0
  9
$CHAMFERB
 40
0.0
  9
$CHAMFERC
 40
0.0
  9
$CHAMFERD
 40
0.0
  9
$SKPOLY
 70
     0
  9
$TDCREATE
 40
2458311.573685359
  9
$TDUCREATE
 40
2458311.198685359
  9
$TDUPDATE
 40
2458318.674412569
  9
$TDUUPDATE
 40
2458318.299412569
  9
$TDINDWG
 40
0.0005921644
  9
$TDUSRTIMER
 40
2458318.299243935
  9
$USRTIMER
 70
     1
  9
$ANGBASE
 50
0.0
  9
$ANGDIR
 70
     0
  9
$PDMODE
 70
     0
  9
$PDSIZE
 40
-1.0
  9
$PLINEWID
 40
0.0
  9
$SPLFRAME
 70
     0
  9
$SPLINETYPE
 70
     6
  9
$SPLINESEGS
 70
     8
  9
$HANDSEED
  5
2DC
  9
$SURFTAB1
 70
     6
  9
$SURFTAB2
 70
     6
  9
$SURFTYPE
 70
     6
  9
$SURFU
 70
     6
  9
$SURFV
 70
     6
  9
$UCSBASE
  2

  9
$UCSNAME
  2

  9
$UCSORG
 10
0.0
 20
0.0
 30
0.0
  9
$UCSXDIR
 10
1.0
 20
0.0
 30
0.0
  9
$UCSYDIR
 10
0.0
 20
1.0
 30
0.0
  9
$UCSORTHOREF
  2

  9
$UCSORTHOVIEW
 70
     0
  9
$UCSORGTOP
 10
0.0
 20
0.0
 30
0.0
  9
$UCSORGBOTTOM
 10
0.0
 20
0.0
 30
0.0
  9
$UCSORGLEFT
 10
0.0
 20
0.0
 30
0.0
  9
$UCSORGRIGHT
 10
0.0
 20
0.0
 30
0.0
  9
$UCSORGFRONT
 10
0.0
 20
0.0
 30
0.0
  9
$UCSORGBACK
 10
0.0
 20
0.0
 30
0.0
  9
$PUCSBASE
  2

  9
$PUCSNAME
  2

  9
$PUCSORG
 10
0.0
 20
0.0
 30
0.0
  9
$PUCSXDIR
 10
1.0
 20
0.0
 30
0.0
  9
$PUCSYDIR
 10
0.0
 20
1.0
 30
0.0
  9
$PUCSORTHOREF
  2

  9
$PUCSORTHOVIEW
 70
     0
  9
$PUCSORGTOP
 10
0.0
 20
0.0
 30
0.0
  9
$PUCSORGBOTTOM
 10
0.0
 20
0.0
 30
0.0
  9
$PUCSORGLEFT
 10
0.0
 20
0.0
 30
0.0
  9
$PUCSORGRIGHT
 10
0.0
 20
0.0
 30
0.0
  9
$PUCSORGFRONT
 10
0.0
 20
0.0
 30
0.0
  9
$PUCSORGBACK
 10
0.0
 20
0.0
 30
0.0
  9
$USERI1
 70
     0
  9
$USERI2
 70
     0
  9
$USERI3
 70
     0
  9
$USERI4
 70
     0
  9
$USERI5
 70
     0
  9
$USERR1
 40
0.0
  9
$USERR2
 40
0.0
  9
$USERR3
 40
0.0
  9
$USERR4
 40
0.0
  9
$USERR5
 40
0.0
  9
$WORLDVIEW
 70
     1
  9
$SHADEDGE
 70
     3
  9
$SHADEDIF
 70
    70
  9
$TILEMODE
 70
     1
  9
$MAXACTVP
 70
    64
  9
$PINSBASE
 10
0.0
 20
0.0
 30
0.0
  9
$PLIMCHECK
 70
     0
  9
$PEXTMIN
 10
1.000000000000000E+20
 20
1.000000000000000E+20
 30
1.000000000000000E+20
  9
$PEXTMAX
 10
-1.000000000000000E+20
 20
-1.000000000000000E+20
 30
-1.000000000000000E+20
  9
$PLIMMIN
 10
0.0
 20
0.0
  9
$PLIMMAX
 10
0.0
 20
0.0
  9
$UNITMODE
 70
     0
  9
$VISRETAIN
 70
     1
  9
$PLINEGEN
 70
     0
  9
$PSLTSCALE
 70
     1
  9
$TREEDEPTH
 70
  3020
  9
$CMLSTYLE
  2
Standard
  9
$CMLJUST
 70
     0
  9
$CMLSCALE
 40
20.0
  9
$PROXYGRAPHICS
 70
     1
  9
$MEASUREMENT
 70
     1
  9
$CELWEIGHT
370
    -1
  9
$ENDCAPS
280
     0
  9
$JOINSTYLE
280
     0
  9
$LWDISPLAY
290
     1
  9
$INSUNITS
 70
     4
  9
$HYPERLINKBASE
  1

  9
$STYLESHEET
  1

  9
$XEDIT
290
     1
  9
$CEPSNTYPE
380
     0
  9
$PSTYLEMODE
290
     1
  9
$FINGERPRINTGUID
  2
{3535BA76-0B89-4E23-9868-CBD0FD6C1E4D}
  9
$VERSIONGUID
  2
{FAEB1C32-E019-11D5-929B-00C0DF256EC4}
  9
$EXTNAMES
290
     1
  9
$PSVPSCALE
 40
0.0
  9
$OLESTARTUP
290
     0
  0
ENDSEC
  0
SECTION
  2
CLASSES
  0
CLASS
  1
ACDBDICTIONARYWDFLT
  2
AcDbDictionaryWithDefault
  3
ObjectDBX Classes
 90
        0
280
     0
281
     0
  0
CLASS
  1
VISUALSTYLE
  2
AcDbVisualStyle
  3
ObjectDBX Classes
 90
     4095
280
     0
281
     0
  0
CLASS
  1
MATERIAL
  2
AcDbMaterial
  3
ObjectDBX Classes
 90
     1153
280
     0
281
     0
  0
CLASS
  1
SCALE
  2
AcDbScale
  3
ObjectDBX Classes
 90
     1153
280
     0
281
     0
  0
CLASS
  1
SUN
  2
AcDbSun
  3
SCENEOE
 90
     1153
280
     0
281
     0
  0
CLASS
  1
ACDBPLACEHOLDER
  2
AcDbPlaceHolder
  3
ObjectDBX Classes
 90
        0
280
     0
281
     0
  0
CLASS
  1
LAYOUT
  2
AcDbLayout
  3
ObjectDBX Classes
 90
        0
280
     0
281
     0
  0
CLASS
  1
TABLESTYLE
  2
AcDbTableStyle
  3
ObjectDBX Classes
 90
     4095
280
     0
281
     0
  0
CLASS
  1
MLEADERSTYLE
  2
AcDbMLeaderStyle
  3
ACDB_MLEADERSTYLE_CLASS
 90
     4095
280
     0
281
     0
  0
CLASS
  1
RASTERVARIABLES
  2
AcDbRasterVariables
  3
ISM
 90
        0
280
     0
281
     0
  0
ENDSEC
  0
SECTION
  2
TABLES
  0
TABLE
  2
VPORT
  5
8
330
0
100
AcDbSymbolTable
 70
     1
  0
VPORT
  5
29
330
8
100
AcDbSymbolTableRecord
100
AcDbViewportTableRecord
  2
*Active
 70
     0
 10
0.0
 20
0.0
 11
1.0
 21
1.0
 12
-10.55526922086737
 22
-32.47201122640561
 13
0.0
 23
0.0
 14
10.0
 24
10.0
 15
10.0
 25
10.0
 16
0.0
 26
0.0
 36
1.0
 17
0.0
 27
0.0
 37
0.0
 40
174.8343435140439
 41
1.740812379110251
 42
50.0
 43
0.0
 44
0.0
 50
0.0
 51
0.0
 71
    16
 72
  2000
 73
     1
 74
     3
 75
     0
 76
     0
 77
     0
 78
     0
281
     0
 65
     1
110
0.0
120
0.0
130
0.0
111
1.0
121
0.0
131
0.0
112
0.0
122
1.0
132
0.0
 79
     0
146
0.0
  0
ENDTAB
  0
TABLE
  2
LTYPE
  5
5
330
0
100
AcDbSymbolTable
 70
     6
  0
LTYPE
  5
14
330
5
100
AcDbSymbolTableRecord
100
AcDbLinetypeTableRecord
  2
ByBlock
 70
     0
  3

 72
    65
 73
     0
 40
0.0
  0
LTYPE
  5
15
330
5
100
AcDbSymbolTableRecord
100
AcDbLinetypeTableRecord
  2
ByLayer
 70
     0
  3

 72
    65
 73
     0
 40
0.0
  0
LTYPE
  5
16
330
5
100
AcDbSymbolTableRecord
100
AcDbLinetypeTableRecord
  2
Continuous
 70
     0
  3
Solid line
 72
    65
 73
     0
 40
0.0
  0
LTYPE
  5
6A
330
5
100
AcDbSymbolTableRecord
100
AcDbLinetypeTableRecord
  2
HIDDEN
 70
     0
  3
Hidden __ __ __ __ __ __ __ __ __ __ __ __ __ __
 72
    65
 73
     2
 40
1.905
 49
1.27
 74
     0
 49
-0.635
 74
     0
  0
LTYPE
  5
6B
330
5
100
AcDbSymbolTableRecord
100
AcDbLinetypeTableRecord
  2
PHANTOM
 70
     0
  3
Phantom ______  __  __  ______  __  __  ______
 72
    65
 73
     6
 40
12.7
 49
6.35
 74
     0
 49
-1.27
 74
     0
 49
1.27
 74
     0
 49
-1.27
 74
     0
 49
1.27
 74
     0
 49
-1.27
 74
     0
  0
LTYPE
  5
6C
330
5
100
AcDbSymbolTableRecord
100
AcDbLinetypeTableRecord
  2
CENTER
 70
     0
  3
Center ____ _ ____ _ ____ _ ____ _ ____ _ ____
 72
    65
 73
     4
 40
10.16
 49
6.35
 74
     0
 49
-1.27
 74
     0
 49
1.27
 74
     0
 49
-1.27
 74
     0
  0
LTYPE
  5
6D
330
5
100
AcDbSymbolTableRecord
100
AcDbLinetypeTableRecord
  2
CENTERX2
 70
     0
  3
Center (2x) ________  __  ________  __  _____
 72
    65
 73
     4
 40
20.32
 49
12.7
 74
     0
 49
-2.54
 74
     0
 49
2.54
 74
     0
 49
-2.54
 74
     0
  0
LTYPE
  5
6E
330
5
100
AcDbSymbolTableRecord
100
AcDbLinetypeTableRecord
  2
DOT2
 70
     0
  3
Dot (.5x) ........................................
 72
    65
 73
     2
 40
0.635
 49
0.0
 74
     0
 49
-0.635
 74
     0
  0
ENDTAB
  0
TABLE
  2
LAYER
  5
2
102
{ACAD_XDICTIONARY
360
1EC
102
}
330
0
100
AcDbSymbolTable
 70
    18
  0
LAYER
  5
10
330
2
100
AcDbSymbolTableRecord
100
AcDbLayerTableRecord
  2
0
 70
     0
 62
     7
  6
Continuous
370
    -3
390
F
  0
LAYER
  5
6F
330
2
100
AcDbSymbolTableRecord
100
AcDbLayerTableRecord
  2
FORMAT
 70
     0
 62
     2
  6
Continuous
370
    -3
390
F
  0
LAYER
  5
70
330
2
100
AcDbSymbolTableRecord
100
AcDbLayerTableRecord
  2
외형선
 70
     0
 62
     4
  6
Continuous
370
    30
390
F
  0
LAYER
  5
71
330
2
100
AcDbSymbolTableRecord
100
AcDbLayerTableRecord
  2
숨은선
 70
     0
 62
     2
  6
HIDDEN
370
    15
390
F
  0
LAYER
  5
72
330
2
100
AcDbSymbolTableRecord
100
AcDbLayerTableRecord
  2
중심선
 70
     0
 62
     1
  6
CENTERX2
370
    -3
390
F
  0
LAYER
  5
73
330
2
100
AcDbSymbolTableRecord
100
AcDbLayerTableRecord
  2
파단선
 70
     0
 62
     4
  6
Continuous
370
    -3
390
F
  0
LAYER
  5
74
330
2
100
AcDbSymbolTableRecord
100
AcDbLayerTableRecord
  2
해칭선
 70
     0
 62
   100
  6
Continuous
370
    -3
390
F
  0
LAYER
  5
75
330
2
100
AcDbSymbolTableRecord
100
AcDbLayerTableRecord
  2
가는실선
 70
     0
 62
     4
  6
Continuous
370
    -3
390
F
  0
LAYER
  5
76
330
2
100
AcDbSymbolTableRecord
100
AcDbLayerTableRecord
  2
치수_보조선
 70
     0
 62
     4
  6
Continuous
370
    -3
390
F
  0
LAYER
  5
77
330
2
100
AcDbSymbolTableRecord
100
AcDbLayerTableRecord
  2
치수문자_일반주서
 70
     0
 62
     7
  6
Continuous
370
    15
390
F
  0
LAYER
  5
78
330
2
100
AcDbSymbolTableRecord
100
AcDbLayerTableRecord
  2
개별주서
 70
     0
 62
   100
  6
Continuous
370
    30
390
F
  0
LAYER
  5
79
330
2
100
AcDbSymbolTableRecord
100
AcDbLayerTableRecord
  2
중간선
 70
     0
 62
     2
  6
Continuous
370
    15
390
F
  0
LAYER
  5
7A
330
2
100
AcDbSymbolTableRecord
100
AcDbLayerTableRecord
  2
윤곽선
 70
     0
 62
     3
  6
Continuous
370
    40
390
F
  0
LAYER
  5
7B
330
2
100
AcDbSymbolTableRecord
100
AcDbLayerTableRecord
  2
중심마크
 70
     0
 62
   100
  6
Continuous
370
    30
390
F
  0
LAYER
  5
7C
330
2
100
AcDbSymbolTableRecord
100
AcDbLayerTableRecord
  2
가상선
 70
     0
 62
     4
  6
PHANTOM
370
    -3
390
F
  0
LAYER
  5
7D
330
2
100
AcDbSymbolTableRecord
100
AcDbLayerTableRecord
  2
특수지정선
 70
     0
 62
     5
  6
CENTERX2
370
    60
390
F
  0
LAYER
  5
7E
330
2
100
AcDbSymbolTableRecord
100
AcDbLayerTableRecord
  2
참조1
 70
     0
 62
    -4
  6
Continuous
370
    -3
390
F
  0
LAYER
  5
13D
330
2
100
AcDbSymbolTableRecord
100
AcDbLayerTableRecord
  2
Defpoints
 70
     0
 62
     7
  6
Continuous
290
     0
370
    -3
390
F
  0
ENDTAB
  0
TABLE
  2
STYLE
  5
3
330
0
100
AcDbSymbolTable
 70
     2
  0
STYLE
  5
11
330
3
100
AcDbSymbolTableRecord
100
AcDbTextStyleTableRecord
  2
Standard
 70
     0
 40
0.0
 41
1.0
 50
0.0
 71
     0
 42
3.5
  3
txt
  4

  0
STYLE
  5
94
330
3
100
AcDbSymbolTableRecord
100
AcDbTextStyleTableRecord
  2
SLDTEXTSTYLE0
 70
     0
 40
0.0
 41
0.75
 50
0.0
 71
     0
 42
3.5
  3
TXT
  4

  0
ENDTAB
  0
TABLE
  2
VIEW
  5
6
330
0
100
AcDbSymbolTable
 70
     0
  0
ENDTAB
  0
TABLE
  2
UCS
  5
7
330
0
100
AcDbSymbolTable
 70
     0
  0
ENDTAB
  0
TABLE
  2
APPID
  5
9
330
0
100
AcDbSymbolTable
 70
     1
  0
APPID
  5
12
330
9
100
AcDbSymbolTableRecord
100
AcDbRegAppTableRecord
  2
ACAD
 70
     0
  0
ENDTAB
  0
TABLE
  2
DIMSTYLE
  5
A
330
0
100
AcDbSymbolTable
 70
     5
100
AcDbDimStyleTable
  0
DIMSTYLE
105
27
330
A
100
AcDbSymbolTableRecord
100
AcDbDimStyleTableRecord
  2
ISO-25
 70
     0
 41
2.5
 42
0.625
 43
3.75
 44
1.25
 73
     0
 74
     0
 77
     1
 78
     8
140
2.5
141
2.5
143
0.03937007874016
147
0.625
171
     3
172
     1
178
     0
271
     2
272
     2
274
     3
278
    44
283
     0
284
     8
340
11
  0
DIMSTYLE
105
BF
330
A
100
AcDbSymbolTableRecord
100
AcDbDimStyleTableRecord
  2
SLDDIMSTYLE0
 70
     0
 41
3.302
 44
0.0
 45
0.000000001
 73
     0
 74
     0
 77
     1
 78
     4
 79
     1
140
3.5
147
0.875
172
     1
173
     1
178
     0
271
     2
272
     2
276
     2
284
    12
289
     0
340
94
  0
DIMSTYLE
105
CD
330
A
100
AcDbSymbolTableRecord
100
AcDbDimStyleTableRecord
  2
SLDDIMSTYLE1
 70
     0
 41
3.302
 44
0.0
 45
0.000000001
 73
     0
 74
     0
 77
     1
 78
     4
 79
     1
140
3.5
143
0.0393700787401575
147
0.875
148
0.000000001
170
     1
172
     1
173
     1
178
     0
271
     2
272
     2
276
     2
284
    12
289
     0
340
94
  0
DIMSTYLE
105
E3
330
A
100
AcDbSymbolTableRecord
100
AcDbDimStyleTableRecord
  2
SLDDIMSTYLE2
 70
     0
 41
3.302
 44
0.0
 45
0.000000001
 73
     0
 74
     0
 77
     1
 78
     4
 79
     1
140
3.5
143
0.0393700787401575
147
0.875
148
0.000000001
170
     1
173
     1
178
     0
271
     2
272
     2
276
     2
284
    12
340
94
  0
DIMSTYLE
105
F7
102
{ACAD_REACTORS
330
F6
330
240
330
241
330
CC
102
}
330
A
100
AcDbSymbolTableRecord
100
AcDbDimStyleTableRecord
  2
SLDDIMSTYLE3
 70
     0
 41
3.302
 44
0.0
 45
0.000000001
 73
     0
 74
     0
 77
     1
 78
    12
 79
     3
140
3.5
143
0.0393700787401575
147
0.875
148
0.000000001
170
     1
173
     1
178
     0
271
     2
272
     2
276
     2
284
    12
340
94
  0
ENDTAB
  0
TABLE
  2
BLOCK_RECORD
  5
1
330
0
100
AcDbSymbolTable
 70
    16
  0
BLOCK_RECORD
  5
1F
330
1
100
AcDbSymbolTableRecord
100
AcDbBlockTableRecord
  2
*Model_Space
340
22
  0
BLOCK_RECORD
  5
1B
330
1
100
AcDbSymbolTableRecord
100
AcDbBlockTableRecord
  2
*Paper_Space
340
1E
  0
BLOCK_RECORD
  5
23
330
1
100
AcDbSymbolTableRecord
100
AcDbBlockTableRecord
  2
*Paper_Space0
340
26
  0
BLOCK_RECORD
  5
7F
330
1
100
AcDbSymbolTableRecord
100
AcDbBlockTableRecord
  2
블럭10
340
0
102
{BLKREFS
331
B7
102
}
  0
BLOCK_RECORD
  5
C0
330
1
100
AcDbSymbolTableRecord
100
AcDbBlockTableRecord
  2
_D
340
0
  0
BLOCK_RECORD
  5
CE
330
1
100
AcDbSymbolTableRecord
100
AcDbBlockTableRecord
  2
_D_1
340
0
  0
BLOCK_RECORD
  5
E4
330
1
100
AcDbSymbolTableRecord
100
AcDbBlockTableRecord
  2
_D_2
340
0
  0
BLOCK_RECORD
  5
F8
330
1
100
AcDbSymbolTableRecord
100
AcDbBlockTableRecord
  2
_D_3
340
0
  0
BLOCK_RECORD
  5
111
330
1
100
AcDbSymbolTableRecord
100
AcDbBlockTableRecord
  2
SW_DOWELSYMBOL_0
340
0
102
{BLKREFS
331
242
102
}
  0
BLOCK_RECORD
  5
1CC
330
1
100
AcDbSymbolTableRecord
100
AcDbBlockTableRecord
  2
*D7
340
0
  0
BLOCK_RECORD
  5
1D9
330
1
100
AcDbSymbolTableRecord
100
AcDbBlockTableRecord
  2
*D8
340
0
  0
BLOCK_RECORD
  5
1F0
330
1
100
AcDbSymbolTableRecord
100
AcDbBlockTableRecord
  2
*D9
340
0
  0
BLOCK_RECORD
  5
1FC
330
1
100
AcDbSymbolTableRecord
100
AcDbBlockTableRecord
  2
*D10
340
0
  0
BLOCK_RECORD
  5
243
330
1
100
AcDbSymbolTableRecord
100
AcDbBlockTableRecord
  2
*D11
340
0
  0
BLOCK_RECORD
  5
24F
330
1
100
AcDbSymbolTableRecord
100
AcDbBlockTableRecord
  2
*D12
340
0
  0
BLOCK_RECORD
  5
25C
330
1
100
AcDbSymbolTableRecord
100
AcDbBlockTableRecord
  2
*D13
340
0
  0
BLOCK_RECORD
  5
268
330
1
100
AcDbSymbolTableRecord
100
AcDbBlockTableRecord
  2
*D14
340
0
  0
ENDTAB
  0
ENDSEC
  0
SECTION
  2
BLOCKS
  0
BLOCK
  5
20
330
1F
100
AcDbEntity
  8
0
100
AcDbBlockBegin
  2
*Model_Space
 70
     0
 10
0.0
 20
0.0
 30
0.0
  3
*Model_Space
  1
*Model_Space
  0
ENDBLK
  5
21
330
1F
100
AcDbEntity
  8
0
100
AcDbBlockEnd
  0
BLOCK
  5
1C
330
1B
100
AcDbEntity
 67
     1
  8
0
100
AcDbBlockBegin
  2
*Paper_Space
 70
     0
 10
0.0
 20
0.0
 30
0.0
  3
*Paper_Space
  1
*Paper_Space
  0
ENDBLK
  5
1D
330
1B
100
AcDbEntity
 67
     1
  8
0
100
AcDbBlockEnd
  0
BLOCK
  5
24
330
23
100
AcDbEntity
  8
0
100
AcDbBlockBegin
  2
*Paper_Space0
 70
     0
 10
0.0
 20
0.0
 30
0.0
  3
*Paper_Space0
  1
*Paper_Space0
  0
ENDBLK
  5
25
330
23
100
AcDbEntity
  8
0
100
AcDbBlockEnd
  0
BLOCK
  5
80
330
7F
100
AcDbEntity
  8
0
100
AcDbBlockBegin
  2
블럭10
 70
     2
 10
0.0
 20
0.0
 30
0.0
  3
블럭10
  1
블럭10
  0
ELLIPSE
  5
82
330
7F
100
AcDbEntity
  8
중심선
100
AcDbEllipse
 10
20.54032771741204
 20
12.0471743016438
 30
0.0
 11
6.600054785286829
 21
-1.261213355974178E-13
 31
0.0
210
0.0
220
0.0
230
1.0
 40
0.636358354079598
 41
0.9219305317359503
 42
6.513795318482858
  0
ELLIPSE
  5
83
330
7F
100
AcDbEntity
  8
중심선
100
AcDbEllipse
 10
20.54032771746488
 20
12.04717430159265
 30
0.0
 11
3.960054785062283
 21
1.540847449632565E-10
 31
0.0
210
0.0
220
0.0
230
1.0
 40
0.3939339440162632
 41
1.131841032648279
 42
5.62031148352944
  0
LINE
  5
84
330
7F
100
AcDbEntity
  8
중심선
100
AcDbLine
 10
2.268634060543552
 20
16.24717430164393
 30
0.0
 11
5.714909304380834
 21
16.24717430164393
 31
0.0
  0
LINE
  5
85
330
7F
100
AcDbEntity
  8
중심선
100
AcDbLine
 10
5.245725140726316
 20
7.84717430164391
 30
0.0
 11
8.692000384563599
 21
7.84717430164391
 31
0.0
  0
LINE
  5
86
330
7F
100
AcDbEntity
  8
중심선
100
AcDbLine
 10
15.74043728645272
 20
16.24717430164393
 30
0.0
 11
8.692000384563599
 21
7.84717430164391
 31
0.0
  0
LINE
  5
87
330
7F
100
AcDbEntity
  8
중심선
100
AcDbLine
 10
0.1404042013395286
 20
13.71084872107135
 30
0.0
 11
3.58671253028996
 21
13.71088815037384
 31
0.0
  0
LINE
  5
88
330
7F
100
AcDbEntity
  8
중심선
100
AcDbLine
 10
2.750260043222114
 20
10.84717430164391
 30
0.0
 11
6.196535287059397
 21
10.84717430164391
 31
0.0
  0
LINE
  5
89
330
7F
100
AcDbEntity
  8
중심선
100
AcDbLine
 10
12.29416204261559
 20
16.24717430164393
 30
0.0
 11
5.245725140726316
 21
7.84717430164391
 31
0.0
  0
LINE
  5
8A
330
7F
100
AcDbEntity
  8
중심선
100
AcDbLine
 10
10.72767329541681
 20
16.24717430164393
 30
0.0
 11
6.196535287059397
 21
10.84717430164391
 31
0.0
  0
LINE
  5
8B
330
7F
100
AcDbEntity
  8
중심선
100
AcDbLine
 10
7.28139805157953
 20
16.24717430164393
 30
0.0
 11
2.750260043222114
 21
10.84717430164391
 31
0.0
  0
LINE
  5
8C
330
7F
100
AcDbEntity
  8
중심선
100
AcDbLine
 10
5.714909304380834
 20
16.24717430164393
 30
0.0
 11
3.58671253028996
 21
13.71088815037384
 31
0.0
  0
LINE
  5
8D
330
7F
100
AcDbEntity
  8
중심선
100
AcDbLine
 10
2.268634060543552
 20
16.24717430164393
 30
0.0
 11
0.1404042013395286
 21
13.71084872107135
 31
0.0
  0
LINE
  5
8E
330
7F
100
AcDbEntity
  8
중심선
100
AcDbLine
 10
7.28139805157953
 20
16.24717430164393
 30
0.0
 11
10.72767329541681
 21
16.24717430164393
 31
0.0
  0
LINE
  5
8F
330
7F
100
AcDbEntity
  8
중심선
100
AcDbLine
 10
12.29416204261559
 20
16.24717430164393
 30
0.0
 11
15.74043728645272
 21
16.24717430164393
 31
0.0
  0
LINE
  5
90
330
7F
100
AcDbEntity
  8
중심선
100
AcDbLine
 10
19.22036997980202
 20
11.08717430171403
 30
0.0
 11
23.66174974927406
 21
11.08717430171406
 31
0.0
  0
LINE
  5
91
330
7F
100
AcDbEntity
  8
중심선
100
AcDbLine
 10
19.22039502424796
 20
13.00717430171391
 30
0.0
 11
19.22036997980202
 21
11.08717430171403
 31
0.0
  0
LINE
  5
92
330
7F
100
AcDbEntity
  8
중심선
100
AcDbLine
 10
19.22039502424796
 20
13.00717430171391
 30
0.0
 11
26.96566020931264
 21
13.00717430171391
 31
0.0
  0
LINE
  5
93
330
7F
100
AcDbEntity
  8
중심선
100
AcDbLine
 10
22.22332737316547
 20
13.45928029700563
 30
0.0
 11
24.52862924686651
 21
15.39360700705356
 31
0.0
  0
ATTDEF
  5
95
330
7F
100
AcDbEntity
  8
FORMAT
 62
     2
100
AcDbText
 10
4.408487351596664
 20
2.075366912832191
 30
0.0
 40
4.233333333333333
  1
E1071200
 41
0.75
  7
SLDTEXTSTYLE0
 11
4.408487351596664
 21
-0.0412997538344756
 31
0.0
100
AcDbAttributeDefinition
  3

  2
AUTOATTR0
 70
     0
 74
     1
  0
ENDBLK
  5
81
330
7F
100
AcDbEntity
  8
0
100
AcDbBlockEnd
  0
BLOCK
  5
C1
330
C0
100
AcDbEntity
  8
0
100
AcDbBlockBegin
  2
_D
 70
     0
 10
0.0
 20
0.0
 30
0.0
  3
_D
  1
_D
  0
SOLID
  5
C3
330
C0
100
AcDbEntity
  8
치수문자_일반주서
100
AcDbTrace
 10
-59.5594211678731
 20
6.351074928723887
 30
0.0
 11
-59.05142116787309
 21
9.653074928723886
 31
0.0
 12
-60.0674211678731
 22
9.653074928723886
 32
0.0
 13
-60.0674211678731
 23
9.653074928723886
 33
0.0
  0
SOLID
  5
C4
330
C0
100
AcDbEntity
  8
치수문자_일반주서
100
AcDbTrace
 10
-59.5594211678731
 20
-6.348925071276102
 30
0.0
 11
-60.0674211678731
 21
-9.650925071276102
 31
0.0
 12
-59.05142116787309
 22
-9.650925071276102
 32
0.0
 13
-59.05142116787309
 23
-9.650925071276102
 33
0.0
  0
LINE
  5
C5
330
C0
100
AcDbEntity
  8
치수문자_일반주서
100
AcDbLine
 10
-47.05942116787307
 20
6.351074928723888
 30
0.0
 11
-60.5594211678731
 21
6.351074928723887
 31
0.0
  0
LINE
  5
C6
330
C0
100
AcDbEntity
  8
치수문자_일반주서
100
AcDbLine
 10
-47.05942116787307
 20
-6.348925071276101
 30
0.0
 11
-60.5594211678731
 21
-6.348925071276102
 31
0.0
  0
LINE
  5
C7
330
C0
100
AcDbEntity
  8
치수문자_일반주서
100
AcDbLine
 10
-59.5594211678731
 20
6.351074928723887
 30
0.0
 11
-59.5594211678731
 21
12.70107492872389
 31
0.0
  0
LINE
  5
C8
330
C0
100
AcDbEntity
  8
치수문자_일반주서
100
AcDbLine
 10
-59.5594211678731
 20
6.351074928723887
 30
0.0
 11
-59.5594211678731
 21
-6.348925071276102
 31
0.0
  0
LINE
  5
C9
330
C0
100
AcDbEntity
  8
치수문자_일반주서
100
AcDbLine
 10
-59.5594211678731
 20
-6.348925071276102
 30
0.0
 11
-59.5594211678731
 21
-12.6989250712761
 31
0.0
  0
MTEXT
  5
CA
330
C0
100
AcDbEntity
  8
치수문자_일반주서
100
AcDbMText
 10
-64.07115825707491
 20
-8.456894014097152
 30
0.0
 40
3.5
 41
0.0
 71
     1
 72
     1
  1
%%c
  7
SLDTEXTSTYLE0
 11
-7.044195017643634E-15
 21
1.0
 31
0.0
 73
     1
 44
1.0
  0
MTEXT
  5
CB
330
C0
100
AcDbEntity
  8
치수문자_일반주서
100
AcDbMText
 10
-64.1246304337348
 20
-3.178456615723071
 30
0.0
 40
3.5
 41
0.0
 71
     1
 72
     1
  1
12.70
  7
SLDTEXTSTYLE0
 11
-7.044195017643634E-15
 21
1.0
 31
0.0
 73
     1
 44
1.0
  0
ENDBLK
  5
C2
330
C0
100
AcDbEntity
  8
0
100
AcDbBlockEnd
  0
BLOCK
  5
CF
330
CE
100
AcDbEntity
  8
0
100
AcDbBlockBegin
  2
_D_1
 70
     0
 10
0.0
 20
0.0
 30
0.0
  3
_D_1
  1
_D_1
  0
LINE
  5
D1
330
CE
100
AcDbEntity
  8
0
  6
Continuous
 62
     0
370
    -2
100
AcDbLine
 10
110.5501193291346
 20
25.4625
 30
0.0
 11
110.5501193291346
 21
31.78086064317299
 31
0.0
  0
LINE
  5
D2
330
CE
100
AcDbEntity
  8
0
  6
Continuous
 62
     0
370
    -2
100
AcDbLine
 10
8.950119329134612
 20
20.965601625243
 30
0.0
 11
8.950119329134615
 21
31.78086064317299
 31
0.0
  0
LINE
  5
D3
330
CE
100
AcDbEntity
  8
0
  6
Continuous
 62
     0
370
    -2
100
AcDbLine
 10
107.2481193291346
 20
31.78086064317299
 30
0.0
 11
12.25211932913462
 21
31.78086064317299
 31
0.0
  0
SOLID
  5
D4
330
CE
100
AcDbEntity
  8
0
 62
     0
100
AcDbTrace
 10
107.2481193291346
 20
31.23052730983965
 30
0.0
 11
107.2481193291346
 21
32.33119397650632
 31
0.0
 12
110.5501193291346
 22
31.78086064317299
 32
0.0
 13
110.5501193291346
 23
31.78086064317299
 33
0.0
  0
SOLID
  5
D5
330
CE
100
AcDbEntity
  8
0
 62
     0
100
AcDbTrace
 10
12.25211932913462
 20
32.33119397650632
 30
0.0
 11
12.25211932913462
 21
31.23052730983965
 31
0.0
 12
8.950119329134615
 22
31.78086064317299
 32
0.0
 13
8.950119329134615
 23
31.78086064317299
 33
0.0
  0
MTEXT
  5
D6
330
CE
100
AcDbEntity
  8
0
 62
     0
370
    15
100
AcDbMText
 10
55.17466488198399
 20
36.15586064317299
 30
0.0
 40
3.5
 41
0.0
 71
     2
 72
     1
  1
\A1;101.6 [4]
  7
SLDTEXTSTYLE0
 73
     1
 44
1.0
  0
POINT
  5
D7
330
CE
100
AcDbEntity
  8
Defpoints
 62
     0
100
AcDbPoint
 10
110.5501193291346
 20
25.4
 30
0.0
  0
POINT
  5
D8
330
CE
100
AcDbEntity
  8
Defpoints
 62
     0
100
AcDbPoint
 10
8.950119329134612
 20
20.903101625243
 30
0.0
  0
POINT
  5
D9
330
CE
100
AcDbEntity
  8
Defpoints
 62
     0
100
AcDbPoint
 10
8.950119329134612
 20
31.78086064317299
 30
0.0
  0
ENDBLK
  5
D0
330
CE
100
AcDbEntity
  8
0
100
AcDbBlockEnd
  0
BLOCK
  5
E5
330
E4
100
AcDbEntity
  8
0
100
AcDbBlockBegin
  2
_D_2
 70
     0
 10
0.0
 20
0.0
 30
0.0
  3
_D_2
  1
_D_2
  0
LINE
  5
E7
330
E4
100
AcDbEntity
  8
0
  6
Continuous
 62
     0
370
    -2
100
AcDbLine
 10
29.14057883212694
 20
6.606477789079263
 30
0.0
 11
29.14057883212694
 21
30.3105321911699
 31
0.0
  0
LINE
  5
E8
330
E4
100
AcDbEntity
  8
0
  6
Continuous
 62
     0
370
    -2
100
AcDbLine
 10
-47.05942116787307
 20
5.413574928723888
 30
0.0
 11
-47.05942116787308
 21
30.3105321911699
 31
0.0
  0
LINE
  5
E9
330
E4
100
AcDbEntity
  8
0
  6
Continuous
 62
     0
370
    -2
100
AcDbLine
 10
25.83857883212694
 20
30.3105321911699
 30
0.0
 11
-43.75742116787308
 21
30.3105321911699
 31
0.0
  0
SOLID
  5
EA
330
E4
100
AcDbEntity
  8
0
 62
     0
100
AcDbTrace
 10
25.83857883212694
 20
29.76019885783656
 30
0.0
 11
25.83857883212694
 21
30.86086552450323
 31
0.0
 12
29.14057883212694
 22
30.3105321911699
 32
0.0
 13
29.14057883212694
 23
30.3105321911699
 33
0.0
  0
SOLID
  5
EB
330
E4
100
AcDbEntity
  8
0
 62
     0
100
AcDbTrace
 10
-43.75742116787308
 20
30.86086552450323
 30
0.0
 11
-43.75742116787308
 21
29.76019885783656
 31
0.0
 12
-47.05942116787308
 22
30.3105321911699
 32
0.0
 13
-47.05942116787308
 23
30.3105321911699
 33
0.0
  0
MTEXT
  5
EC
330
E4
100
AcDbEntity
  8
0
 62
     0
370
    15
100
AcDbMText
 10
-8.959421167873067
 20
34.6855321911699
 30
0.0
 40
3.5
 41
0.0
 71
     2
 72
     1
  1
\A1;76.2 [3]
  7
SLDTEXTSTYLE0
 73
     1
 44
1.0
  0
POINT
  5
ED
330
E4
100
AcDbEntity
  8
Defpoints
 62
     0
100
AcDbPoint
 10
29.14057883212694
 20
6.543977789079263
 30
0.0
  0
POINT
  5
EE
330
E4
100
AcDbEntity
  8
Defpoints
 62
     0
100
AcDbPoint
 10
-47.05942116787307
 20
5.351074928723888
 30
0.0
  0
POINT
  5
EF
330
E4
100
AcDbEntity
  8
Defpoints
 62
     0
100
AcDbPoint
 10
-47.05942116787307
 20
30.3105321911699
 30
0.0
  0
ENDBLK
  5
E6
330
E4
100
AcDbEntity
  8
0
100
AcDbBlockEnd
  0
BLOCK
  5
F9
330
F8
100
AcDbEntity
  8
0
100
AcDbBlockBegin
  2
_D_3
 70
     0
 10
0.0
 20
0.0
 30
0.0
  3
_D_3
  1
_D_3
  0
LINE
  5
FB
330
F8
100
AcDbEntity
  8
0
  6
Continuous
 62
     0
370
    -2
100
AcDbLine
 10
110.6126193291346
 20
-25.4
 30
0.0
 11
129.550119329135
 21
-25.39999999999993
 31
0.0
  0
LINE
  5
FC
330
F8
100
AcDbEntity
  8
0
  6
Continuous
 62
     0
370
    -2
100
AcDbLine
 10
110.6126193291346
 20
25.40000000000001
 30
0.0
 11
129.5501193291348
 21
25.40000000000008
 31
0.0
  0
LINE
  5
FD
330
F8
100
AcDbEntity
  8
0
  6
Continuous
 62
     0
370
    -2
100
AcDbLine
 10
129.5501193291348
 20
25.40000000000008
 30
0.0
 11
129.5501193291347
 21
53.78162278040185
 31
0.0
  0
LINE
  5
FE
330
F8
100
AcDbEntity
  8
0
  6
Continuous
 62
     0
370
    -2
100
AcDbLine
 10
129.550119329135
 20
-22.09799999999994
 30
0.0
 11
129.5501193291348
 21
22.09800000000008
 31
0.0
  0
SOLID
  5
FF
330
F8
100
AcDbEntity
  8
0
 62
     0
100
AcDbTrace
 10
128.9997859958016
 20
-22.09799999999994
 30
0.0
 11
130.1004526624683
 21
-22.09799999999993
 31
0.0
 12
129.550119329135
 22
-25.39999999999993
 32
0.0
 13
129.550119329135
 23
-25.39999999999993
 33
0.0
  0
SOLID
  5
100
330
F8
100
AcDbEntity
  8
0
 62
     0
100
AcDbTrace
 10
130.1004526624681
 20
22.09800000000008
 30
0.0
 11
128.9997859958015
 21
22.09800000000007
 31
0.0
 12
129.5501193291348
 22
25.40000000000008
 32
0.0
 13
129.5501193291348
 23
25.40000000000008
 33
0.0
  0
MTEXT
  5
101
330
F8
100
AcDbEntity
  8
0
 62
     0
370
    15
100
AcDbMText
 10
125.1751193291347
 20
43.50037278040183
 30
0.0
 40
3.5
 41
0.0
 71
     2
 72
     1
  1
\A1;%%c50.8 [2]
  7
SLDTEXTSTYLE0
 11
-3.356894814614646E-15
 21
1.0
 31
0.0
 73
     1
 44
1.0
  0
POINT
  5
102
330
F8
100
AcDbEntity
  8
Defpoints
 62
     0
100
AcDbPoint
 10
110.5501193291346
 20
-25.4
 30
0.0
  0
POINT
  5
103
330
F8
100
AcDbEntity
  8
Defpoints
 62
     0
100
AcDbPoint
 10
110.5501193291346
 20
25.40000000000001
 30
0.0
  0
POINT
  5
104
330
F8
100
AcDbEntity
  8
Defpoints
 62
     0
100
AcDbPoint
 10
129.5501193291348
 20
25.40000000000008
 30
0.0
  0
ENDBLK
  5
FA
330
F8
100
AcDbEntity
  8
0
100
AcDbBlockEnd
  0
BLOCK
  5
112
330
111
100
AcDbEntity
  8
0
100
AcDbBlockBegin
  2
SW_DOWELSYMBOL_0
 70
     0
 10
0.0
 20
0.0
 30
0.0
  3
SW_DOWELSYMBOL_0
  1
SW_DOWELSYMBOL_0
  0
CIRCLE
  5
114
330
111
100
AcDbEntity
  8
해칭선
 62
     0
100
AcDbCircle
 10
0.0
 20
0.0
 30
0.0
 40
3.000000000000001
  0
HATCH
  5
115
330
111
100
AcDbEntity
  8
0
  6
Continuous
 62
     0
370
     0
100
AcDbHatch
 10
0.0
 20
0.0
 30
0.0
210
0.0
220
0.0
230
1.0
  2
SOLID
 70
     1
 71
     0
 91
        1
 92
        0
 93
        3
 72
     2
 10
0.0
 20
0.0
 40
3.000000000000001
 50
0.0
 51
90.0
 73
     1
 72
     1
 10
0.0
 20
3.000000000000001
 11
0.0
 21
0.0
 72
     1
 10
0.0
 20
0.0
 11
3.000000000000001
 21
0.0
 97
        0
 75
     0
 76
     1
 98
        1
 10
0.0
 20
0.0
  0
HATCH
  5
116
330
111
100
AcDbEntity
  8
0
  6
Continuous
 62
     0
370
     0
100
AcDbHatch
 10
0.0
 20
0.0
 30
0.0
210
0.0
220
0.0
230
1.0
  2
SOLID
 70
     1
 71
     0
 91
        1
 92
        0
 93
        3
 72
     2
 10
0.0
 20
0.0
 40
3.000000000000001
 50
180.0
 51
270.0000000000007
 73
     1
 72
     1
 10
0.0
 20
-3.000000000000001
 11
0.0
 21
0.0
 72
     1
 10
0.0
 20
0.0
 11
-3.000000000000001
 21
0.0
 97
        0
 75
     0
 76
     1
 98
        1
 10
0.0
 20
0.0
  0
ENDBLK
  5
113
330
111
100
AcDbEntity
  8
0
100
AcDbBlockEnd
  0
BLOCK
  5
1CD
330
1CC
100
AcDbEntity
  8
0
100
AcDbBlockBegin
  2
*D7
 70
     1
 10
0.0
 20
0.0
 30
0.0
  3
*D7
  1
*D8
  0
LINE
  5
1CE
330
1CC
100
AcDbEntity
  8
0
  6
Continuous
 62
     0
370
    -2
100
AcDbLine
 10
17.81250000000006
 20
65.84680738881173
 30
0.0
 11
4.374999999999988
 21
65.84680738881167
 31
0.0
  0
LINE
  5
1CF
330
1CC
100
AcDbEntity
  8
0
  6
Continuous
 62
     0
370
    -2
100
AcDbLine
 10
17.81250000000006
 20
34.09680738881173
 30
0.0
 11
4.375000000000099
 21
34.09680738881168
 31
0.0
  0
LINE
  5
1D0
330
1CC
100
AcDbEntity
  8
0
  6
Continuous
 62
     0
370
    -2
100
AcDbLine
 10
4.374999999999999
 20
62.54480738881167
 30
0.0
 11
4.375000000000087
 21
37.39880738881168
 31
0.0
  0
SOLID
  5
1D1
330
1CC
100
AcDbEntity
  8
0
 62
     0
100
AcDbTrace
 10
4.925333333333333
 20
62.54480738881167
 30
0.0
 11
3.824666666666666
 21
62.54480738881167
 31
0.0
 12
4.374999999999988
 22
65.84680738881167
 32
0.0
 13
4.374999999999988
 23
65.84680738881167
 33
0.0
  0
SOLID
  5
1D2
330
1CC
100
AcDbEntity
  8
0
 62
     0
100
AcDbTrace
 10
3.824666666666754
 20
37.39880738881168
 30
0.0
 11
4.925333333333421
 21
37.39880738881168
 31
0.0
 12
4.375000000000099
 22
34.09680738881168
 32
0.0
 13
4.375000000000099
 23
34.09680738881168
 33
0.0
  0
MTEXT
  5
1D3
330
1CC
100
AcDbEntity
  8
0
 62
     0
370
    15
100
AcDbMText
 10
0.0000000000000426
 20
49.97180738881173
 30
0.0
 40
3.5
 41
0.0
 71
     2
 72
     1
  1
\A1;%%c31.75 [1 1/4]
  7
SLDTEXTSTYLE0
 11
-3.496765431890258E-15
 21
1.0
 31
0.0
 73
     1
 44
1.0
  0
POINT
  5
1D4
330
1CC
100
AcDbEntity
  8
Defpoints
 62
     0
100
AcDbPoint
 10
17.87500000000006
 20
65.84680738881173
 30
0.0
  0
POINT
  5
1D5
330
1CC
100
AcDbEntity
  8
Defpoints
 62
     0
100
AcDbPoint
 10
17.87500000000006
 20
34.09680738881173
 30
0.0
  0
POINT
  5
1D6
330
1CC
100
AcDbEntity
  8
Defpoints
 62
     0
100
AcDbPoint
 10
4.375000000000099
 20
34.09680738881168
 30
0.0
  0
ENDBLK
  5
1D7
330
1CC
100
AcDbEntity
  8
0
100
AcDbBlockEnd
  0
BLOCK
  5
1DA
330
1D9
100
AcDbEntity
  8
0
100
AcDbBlockBegin
  2
*D8
 70
     1
 10
0.0
 20
0.0
 30
0.0
  3
*D8
  1
*D9
  0
LINE
  5
1DB
330
1D9
100
AcDbEntity
  8
0
  6
Continuous
 62
     0
370
    -2
100
AcDbLine
 10
181.9251193291346
 20
69.08430738881177
 30
0.0
 11
181.9251193291346
 21
95.56177325325228
 31
0.0
  0
LINE
  5
1DC
330
1D9
100
AcDbEntity
  8
0
  6
Continuous
 62
     0
370
    -2
100
AcDbLine
 10
16.87500000000004
 20
64.90930738881173
 30
0.0
 11
16.87500000000004
 21
95.56177325325228
 31
0.0
  0
LINE
  5
1DD
330
1D9
100
AcDbEntity
  8
0
  6
Continuous
 62
     0
370
    -2
100
AcDbLine
 10
178.6231193291347
 20
95.56177325325228
 30
0.0
 11
20.17700000000004
 21
95.56177325325228
 31
0.0
  0
SOLID
  5
1DE
330
1D9
100
AcDbEntity
  8
0
 62
     0
100
AcDbTrace
 10
178.6231193291347
 20
95.01143991991896
 30
0.0
 11
178.6231193291347
 21
96.11210658658561
 31
0.0
 12
181.9251193291346
 22
95.56177325325228
 32
0.0
 13
181.9251193291346
 23
95.56177325325228
 33
0.0
  0
SOLID
  5
1DF
330
1D9
100
AcDbEntity
  8
0
 62
     0
100
AcDbTrace
 10
20.17700000000004
 20
96.11210658658561
 30
0.0
 11
20.17700000000004
 21
95.01143991991896
 31
0.0
 12
16.87500000000004
 22
95.56177325325228
 32
0.0
 13
16.87500000000004
 23
95.56177325325228
 33
0.0
  0
MTEXT
  5
1E0
330
1D9
100
AcDbEntity
  8
0
 62
     0
370
    15
100
AcDbMText
 10
102.425
 20
99.93677325325228
 30
0.0
 40
3.5
 41
0.0
 71
     2
 72
     1
  1
\A1;165.05 [6 1/2]
  7
SLDTEXTSTYLE0
 73
     1
 44
1.0
  0
POINT
  5
1E1
330
1D9
100
AcDbEntity
  8
Defpoints
 62
     0
100
AcDbPoint
 10
181.9251193291346
 20
69.02180738881177
 30
0.0
  0
POINT
  5
1E2
330
1D9
100
AcDbEntity
  8
Defpoints
 62
     0
100
AcDbPoint
 10
16.87500000000004
 20
64.84680738881173
 30
0.0
  0
POINT
  5
1E3
330
1D9
100
AcDbEntity
  8
Defpoints
 62
     0
100
AcDbPoint
 10
16.87500000000004
 20
95.56177325325228
 30
0.0
  0
ENDBLK
  5
1E4
330
1D9
100
AcDbEntity
  8
0
100
AcDbBlockEnd
  0
BLOCK
  5
1F1
330
1F0
100
AcDbEntity
  8
0
100
AcDbBlockBegin
  2
*D9
 70
     1
 10
0.0
 20
0.0
 30
0.0
  3
*D9
  1
*D10
  0
LINE
  5
1F3
330
1F0
100
AcDbEntity
  8
0
  6
Continuous
 62
     0
370
    -2
100
AcDbLine
 10
181.9251193291346
 20
69.08430738881177
 30
0.0
 11
181.9251193291346
 21
81.89450717331621
 31
0.0
  0
LINE
  5
1F4
330
1F0
100
AcDbEntity
  8
0
  6
Continuous
 62
     0
370
    -2
100
AcDbLine
 10
80.32511932913468
 20
66.13000821324175
 30
0.0
 11
80.32511932913468
 21
81.89450717331621
 31
0.0
  0
LINE
  5
1F5
330
1F0
100
AcDbEntity
  8
0
  6
Continuous
 62
     0
370
    -2
100
AcDbLine
 10
178.6231193291347
 20
81.89450717331621
 30
0.0
 11
83.62711932913467
 21
81.89450717331621
 31
0.0
  0
SOLID
  5
1F6
330
1F0
100
AcDbEntity
  8
0
 62
     0
100
AcDbTrace
 10
178.6231193291347
 20
81.34417383998289
 30
0.0
 11
178.6231193291347
 21
82.44484050664954
 31
0.0
 12
181.9251193291346
 22
81.89450717331621
 32
0.0
 13
181.9251193291346
 23
81.89450717331621
 33
0.0
  0
SOLID
  5
1F7
330
1F0
100
AcDbEntity
  8
0
 62
     0
100
AcDbTrace
 10
83.62711932913467
 20
82.44484050664954
 30
0.0
 11
83.62711932913467
 21
81.34417383998289
 31
0.0
 12
80.32511932913468
 22
81.89450717331621
 32
0.0
 13
80.32511932913468
 23
81.89450717331621
 33
0.0
  0
MTEXT
  5
1F8
330
1F0
100
AcDbEntity
  8
0
 62
     0
370
    15
100
AcDbMText
 10
131.1251193291347
 20
86.26950717331621
 30
0.0
 40
3.5
 41
0.0
 71
     2
 72
     1
  1
\A1;101.6 [4]
  7
SLDTEXTSTYLE0
 73
     1
 44
1.0
  0
POINT
  5
1F9
330
1F0
100
AcDbEntity
  8
Defpoints
 62
     0
100
AcDbPoint
 10
181.9251193291346
 20
69.02180738881177
 30
0.0
  0
POINT
  5
1FA
330
1F0
100
AcDbEntity
  8
Defpoints
 62
     0
100
AcDbPoint
 10
80.32511932913468
 20
66.06750821324175
 30
0.0
  0
POINT
  5
1FB
330
1F0
100
AcDbEntity
  8
Defpoints
 62
     0
100
AcDbPoint
 10
80.32511932913468
 20
81.89450717331621
 30
0.0
  0
ENDBLK
  5
1F2
330
1F0
100
AcDbEntity
  8
0
100
AcDbBlockEnd
  0
BLOCK
  5
1FD
330
1FC
100
AcDbEntity
  8
0
100
AcDbBlockBegin
  2
*D10
 70
     1
 10
0.0
 20
0.0
 30
0.0
  3
*D10
  1
*D11
  0
LINE
  5
1FF
330
1FC
100
AcDbEntity
  8
0
  6
Continuous
 62
     0
370
    -2
100
AcDbLine
 10
181.9876193291347
 20
30.92180738881176
 30
0.0
 11
200.925119329135
 21
30.92180738881183
 31
0.0
  0
LINE
  5
200
330
1FC
100
AcDbEntity
  8
0
  6
Continuous
 62
     0
370
    -2
100
AcDbLine
 10
181.9876193291347
 20
69.02180738881177
 30
0.0
 11
200.9251193291348
 21
69.02180738881182
 31
0.0
  0
LINE
  5
201
330
1FC
100
AcDbEntity
  8
0
  6
Continuous
 62
     0
370
    -2
100
AcDbLine
 10
200.9251193291348
 20
69.02180738881182
 30
0.0
 11
200.9251193291346
 21
121.8432066189366
 31
0.0
  0
LINE
  5
202
330
1FC
100
AcDbEntity
  8
0
  6
Continuous
 62
     0
370
    -2
100
AcDbLine
 10
200.925119329135
 20
34.22380738881183
 30
0.0
 11
200.9251193291348
 21
65.71980738881183
 31
0.0
  0
SOLID
  5
203
330
1FC
100
AcDbEntity
  8
0
 62
     0
100
AcDbTrace
 10
200.3747859958017
 20
34.22380738881183
 30
0.0
 11
201.4754526624683
 21
34.22380738881183
 31
0.0
 12
200.925119329135
 22
30.92180738881183
 32
0.0
 13
200.925119329135
 23
30.92180738881183
 33
0.0
  0
SOLID
  5
204
330
1FC
100
AcDbEntity
  8
0
 62
     0
100
AcDbTrace
 10
201.4754526624682
 20
65.71980738881183
 30
0.0
 11
200.3747859958015
 21
65.71980738881183
 31
0.0
 12
200.9251193291348
 22
69.02180738881182
 32
0.0
 13
200.9251193291348
 23
69.02180738881182
 33
0.0
  0
MTEXT
  5
205
330
1FC
100
AcDbEntity
  8
0
 62
     0
370
    15
100
AcDbMText
 10
196.5501193291347
 20
107.4057066189366
 30
0.0
 40
3.5
 41
0.0
 71
     2
 72
     1
  1
\A1;%%c38.1 [1 1/2]
  7
SLDTEXTSTYLE0
 11
-3.729883127349606E-15
 21
1.0
 31
0.0
 73
     1
 44
1.0
  0
POINT
  5
206
330
1FC
100
AcDbEntity
  8
Defpoints
 62
     0
100
AcDbPoint
 10
181.9251193291347
 20
30.92180738881176
 30
0.0
  0
POINT
  5
207
330
1FC
100
AcDbEntity
  8
Defpoints
 62
     0
100
AcDbPoint
 10
181.9251193291347
 20
69.02180738881177
 30
0.0
  0
POINT
  5
208
330
1FC
100
AcDbEntity
  8
Defpoints
 62
     0
100
AcDbPoint
 10
200.9251193291348
 20
69.02180738881184
 30
0.0
  0
ENDBLK
  5
1FE
330
1FC
100
AcDbEntity
  8
0
100
AcDbBlockEnd
  0
BLOCK
  5
244
330
243
100
AcDbEntity
  8
0
100
AcDbBlockBegin
  2
*D11
 70
     1
 10
0.0
 20
0.0
 30
0.0
  3
*D11
  1
*D12
  0
LINE
  5
246
330
243
100
AcDbEntity
  8
0
  6
Continuous
 62
     0
370
    -2
100
AcDbLine
 10
300.9787488996363
 20
-110.22684214138
 30
0.0
 11
300.9787488996363
 21
-97.41664235687557
 31
0.0
  0
LINE
  5
247
330
243
100
AcDbEntity
  8
0
  6
Continuous
 62
     0
370
    -2
100
AcDbLine
 10
199.3787488996363
 20
-113.18114131695
 30
0.0
 11
199.3787488996363
 21
-97.41664235687557
 31
0.0
  0
LINE
  5
248
330
243
100
AcDbEntity
  8
0
  6
Continuous
 62
     0
370
    -2
100
AcDbLine
 10
297.6767488996363
 20
-97.41664235687557
 30
0.0
 11
202.6807488996363
 21
-97.41664235687557
 31
0.0
  0
SOLID
  5
249
330
243
100
AcDbEntity
  8
0
 62
     0
100
AcDbTrace
 10
297.6767488996363
 20
-97.9669756902089
 30
0.0
 11
297.6767488996363
 21
-96.86630902354224
 31
0.0
 12
300.9787488996363
 22
-97.41664235687557
 32
0.0
 13
300.9787488996363
 23
-97.41664235687557
 33
0.0
  0
SOLID
  5
24A
330
243
100
AcDbEntity
  8
0
 62
     0
100
AcDbTrace
 10
202.6807488996363
 20
-96.86630902354224
 30
0.0
 11
202.6807488996363
 21
-97.9669756902089
 31
0.0
 12
199.3787488996363
 22
-97.41664235687557
 32
0.0
 13
199.3787488996363
 23
-97.41664235687557
 33
0.0
  0
MTEXT
  5
24B
330
243
100
AcDbEntity
  8
0
 62
     0
370
    15
100
AcDbMText
 10
250.1787488996363
 20
-93.04164235687557
 30
0.0
 40
3.5
 41
0.0
 71
     2
 72
     1
  1
\A1;101.6 [4]
  7
SLDTEXTSTYLE0
 73
     1
 44
1.0
  0
POINT
  5
24C
330
243
100
AcDbEntity
  8
Defpoints
 62
     0
100
AcDbPoint
 10
300.9787488996363
 20
-110.28934214138
 30
0.0
  0
POINT
  5
24D
330
243
100
AcDbEntity
  8
Defpoints
 62
     0
100
AcDbPoint
 10
199.3787488996363
 20
-113.24364131695
 30
0.0
  0
POINT
  5
24E
330
243
100
AcDbEntity
  8
Defpoints
 62
     0
100
AcDbPoint
 10
199.3787488996363
 20
-97.41664235687557
 30
0.0
  0
ENDBLK
  5
245
330
243
100
AcDbEntity
  8
0
100
AcDbBlockEnd
  0
BLOCK
  5
250
330
24F
100
AcDbEntity
  8
0
100
AcDbBlockBegin
  2
*D12
 70
     1
 10
0.0
 20
0.0
 30
0.0
  3
*D12
  1
*D13
  0
LINE
  5
252
330
24F
100
AcDbEntity
  8
0
  6
Continuous
 62
     0
370
    -2
100
AcDbLine
 10
301.0412488996363
 20
-148.38934214138
 30
0.0
 11
319.9787488996366
 21
-148.3893421413799
 31
0.0
  0
LINE
  5
253
330
24F
100
AcDbEntity
  8
0
  6
Continuous
 62
     0
370
    -2
100
AcDbLine
 10
301.0412488996363
 20
-110.28934214138
 30
0.0
 11
319.9787488996365
 21
-110.2893421413799
 31
0.0
  0
LINE
  5
254
330
24F
100
AcDbEntity
  8
0
  6
Continuous
 62
     0
370
    -2
100
AcDbLine
 10
319.9787488996365
 20
-110.2893421413799
 30
0.0
 11
319.9787488996363
 21
-57.46794291125514
 31
0.0
  0
LINE
  5
255
330
24F
100
AcDbEntity
  8
0
  6
Continuous
 62
     0
370
    -2
100
AcDbLine
 10
319.9787488996366
 20
-145.0873421413799
 30
0.0
 11
319.9787488996365
 21
-113.5913421413799
 31
0.0
  0
SOLID
  5
256
330
24F
100
AcDbEntity
  8
0
 62
     0
100
AcDbTrace
 10
319.4284155663032
 20
-145.0873421413799
 30
0.0
 11
320.5290822329699
 21
-145.0873421413799
 31
0.0
 12
319.9787488996366
 22
-148.3893421413799
 32
0.0
 13
319.9787488996366
 23
-148.3893421413799
 33
0.0
  0
SOLID
  5
257
330
24F
100
AcDbEntity
  8
0
 62
     0
100
AcDbTrace
 10
320.5290822329698
 20
-113.5913421413799
 30
0.0
 11
319.4284155663031
 21
-113.5913421413799
 31
0.0
 12
319.9787488996365
 22
-110.2893421413799
 32
0.0
 13
319.9787488996365
 23
-110.2893421413799
 33
0.0
  0
MTEXT
  5
258
330
24F
100
AcDbEntity
  8
0
 62
     0
370
    15
100
AcDbMText
 10
315.6037488996363
 20
-71.90544291125515
 30
0.0
 40
3.5
 41
0.0
 71
     2
 72
     1
  1
\A1;%%c38.1 [1 1/2]
  7
SLDTEXTSTYLE0
 11
-2.983906501879687E-15
 21
1.0
 31
0.0
 73
     1
 44
1.0
  0
POINT
  5
259
330
24F
100
AcDbEntity
  8
Defpoints
 62
     0
100
AcDbPoint
 10
300.9787488996363
 20
-148.38934214138
 30
0.0
  0
POINT
  5
25A
330
24F
100
AcDbEntity
  8
Defpoints
 62
     0
100
AcDbPoint
 10
300.9787488996363
 20
-110.28934214138
 30
0.0
  0
POINT
  5
25B
330
24F
100
AcDbEntity
  8
Defpoints
 62
     0
100
AcDbPoint
 10
319.9787488996365
 20
-110.2893421413799
 30
0.0
  0
ENDBLK
  5
251
330
24F
100
AcDbEntity
  8
0
100
AcDbBlockEnd
  0
BLOCK
  5
25D
330
25C
100
AcDbEntity
  8
0
100
AcDbBlockBegin
  2
*D13
 70
     1
 10
0.0
 20
0.0
 30
0.0
  3
*D13
  1
*D14
  0
LINE
  5
25F
330
25C
100
AcDbEntity
  8
0
  6
Continuous
 62
     0
370
    -2
100
AcDbLine
 10
-53.5625
 20
15.87499999999997
 30
0.0
 11
-67.00000000000009
 21
15.87499999999992
 31
0.0
  0
LINE
  5
260
330
25C
100
AcDbEntity
  8
0
  6
Continuous
 62
     0
370
    -2
100
AcDbLine
 10
-53.5625
 20
-15.87500000000003
 30
0.0
 11
-66.99999999999997
 21
-15.87500000000008
 31
0.0
  0
LINE
  5
261
330
25C
100
AcDbEntity
  8
0
  6
Continuous
 62
     0
370
    -2
100
AcDbLine
 10
-67.00000000000007
 20
12.57299999999992
 30
0.0
 11
-66.99999999999999
 21
-12.57300000000008
 31
0.0
  0
SOLID
  5
262
330
25C
100
AcDbEntity
  8
0
 62
     0
100
AcDbTrace
 10
-66.44966666666674
 20
12.57299999999992
 30
0.0
 11
-67.5503333333334
 21
12.57299999999992
 31
0.0
 12
-67.00000000000009
 22
15.87499999999992
 32
0.0
 13
-67.00000000000009
 23
15.87499999999992
 33
0.0
  0
SOLID
  5
263
330
25C
100
AcDbEntity
  8
0
 62
     0
100
AcDbTrace
 10
-67.55033333333331
 20
-12.57300000000008
 30
0.0
 11
-66.44966666666666
 21
-12.57300000000008
 31
0.0
 12
-66.99999999999997
 22
-15.87500000000008
 32
0.0
 13
-66.99999999999997
 23
-15.87500000000008
 33
0.0
  0
MTEXT
  5
264
330
25C
100
AcDbEntity
  8
0
 62
     0
370
    15
100
AcDbMText
 10
-71.37500000000003
 20
-0.0000000000000155
 30
0.0
 40
3.5
 41
0.0
 71
     2
 72
     1
  1
\A1;%%c31.75 [1 1/4]
  7
SLDTEXTSTYLE0
 11
-3.580687802255623E-15
 21
1.0
 31
0.0
 73
     1
 44
1.0
  0
POINT
  5
265
330
25C
100
AcDbEntity
  8
Defpoints
 62
     0
100
AcDbPoint
 10
-53.5
 20
15.87499999999997
 30
0.0
  0
POINT
  5
266
330
25C
100
AcDbEntity
  8
Defpoints
 62
     0
100
AcDbPoint
 10
-53.5
 20
-15.87500000000003
 30
0.0
  0
POINT
  5
267
330
25C
100
AcDbEntity
  8
Defpoints
 62
     0
100
AcDbPoint
 10
-66.99999999999997
 20
-15.87500000000008
 30
0.0
  0
ENDBLK
  5
25E
330
25C
100
AcDbEntity
  8
0
100
AcDbBlockEnd
  0
BLOCK
  5
269
330
268
100
AcDbEntity
  8
0
100
AcDbBlockBegin
  2
*D14
 70
     1
 10
0.0
 20
0.0
 30
0.0
  3
*D14
  1
*D15
  0
LINE
  5
26B
330
268
100
AcDbEntity
  8
0
  6
Continuous
 62
     0
370
    -2
100
AcDbLine
 10
110.5501193291346
 20
25.4625
 30
0.0
 11
110.5501193291346
 21
45.58996586444053
 31
0.0
  0
LINE
  5
26C
330
268
100
AcDbEntity
  8
0
  6
Continuous
 62
     0
370
    -2
100
AcDbLine
 10
-54.50000000000003
 20
14.93749999999997
 30
0.0
 11
-54.50000000000003
 21
45.58996586444053
 31
0.0
  0
LINE
  5
26D
330
268
100
AcDbEntity
  8
0
  6
Continuous
 62
     0
370
    -2
100
AcDbLine
 10
107.2481193291346
 20
45.58996586444053
 30
0.0
 11
-51.19800000000003
 21
45.58996586444053
 31
0.0
  0
SOLID
  5
26E
330
268
100
AcDbEntity
  8
0
 62
     0
100
AcDbTrace
 10
107.2481193291346
 20
45.03963253110719
 30
0.0
 11
107.2481193291346
 21
46.14029919777386
 31
0.0
 12
110.5501193291346
 22
45.58996586444053
 32
0.0
 13
110.5501193291346
 23
45.58996586444053
 33
0.0
  0
SOLID
  5
26F
330
268
100
AcDbEntity
  8
0
 62
     0
100
AcDbTrace
 10
-51.19800000000003
 20
46.14029919777386
 30
0.0
 11
-51.19800000000003
 21
45.03963253110719
 31
0.0
 12
-54.50000000000003
 22
45.58996586444053
 32
0.0
 13
-54.50000000000003
 23
45.58996586444053
 33
0.0
  0
MTEXT
  5
270
330
268
100
AcDbEntity
  8
0
 62
     0
370
    15
100
AcDbMText
 10
31.04999999999995
 20
49.96496586444053
 30
0.0
 40
3.5
 41
0.0
 71
     2
 72
     1
  1
\A1;165.05 [6 1/2]
  7
SLDTEXTSTYLE0
 73
     1
 44
1.0
  0
POINT
  5
271
330
268
100
AcDbEntity
  8
Defpoints
 62
     0
100
AcDbPoint
 10
110.5501193291346
 20
25.4
 30
0.0
  0
POINT
  5
272
330
268
100
AcDbEntity
  8
Defpoints
 62
     0
100
AcDbPoint
 10
-54.50000000000003
 20
14.87499999999997
 30
0.0
  0
POINT
  5
273
330
268
100
AcDbEntity
  8
Defpoints
 62
     0
100
AcDbPoint
 10
-54.50000000000003
 20
45.58996586444053
 30
0.0
  0
ENDBLK
  5
26A
330
268
100
AcDbEntity
  8
0
100
AcDbBlockEnd
  0
ENDSEC
  0
SECTION
  2
ENTITIES
  0
SPLINE
  5
96
330
1F
100
AcDbEntity
  8
0
  6
Continuous
 62
     1
370
    15
100
AcDbSpline
210
0.0
220
0.0
230
1.0
 70
     8
 71
     3
 72
    18
 73
    14
 74
     0
 42
0.000000001
 43
0.00000001
 40
0.0
 40
0.0
 40
0.0
 40
0.0
 40
0.1394667342688487
 40
0.248434027156027
 40
0.3315726619673947
 40
0.4055588568553127
 40
0.4720656456266643
 40
0.5307737304402674
 40
0.5930334402439124
 40
0.6688403095401005
 40
0.7641808956381662
 40
0.8747215651033586
 40
1.0
 40
1.0
 40
1.0
 40
1.0
 10
44.74461259535813
 20
6.508747147933785
 30
0.0
 10
44.42477116552892
 20
6.659109143734665
 30
0.0
 10
43.85503319266839
 20
6.926951051296807
 30
0.0
 10
43.07839384928364
 20
7.300418340959448
 30
0.0
 10
42.43718502852084
 20
7.612863865794027
 30
0.0
 10
41.9043712963153
 20
7.875368671584435
 30
0.0
 10
41.43548200180584
 20
8.108669264943742
 30
0.0
 10
40.99534439754166
 20
8.329391901189144
 30
0.0
 10
40.53697666887323
 20
8.560797148872073
 30
0.0
 10
39.97747822191356
 20
8.845537835916474
 30
0.0
 10
39.29205750769229
 20
9.197573232034562
 30
0.0
 10
38.50975338208831
 20
9.604202403884328
 30
0.0
 10
37.97993180025937
 20
9.88423227750557
 30
0.0
 10
37.69846512805902
 20
10.03299759652631
 30
0.0
  0
LINE
  5
97
330
1F
100
AcDbEntity
  8
0
  6
Continuous
 62
     1
370
    15
100
AcDbLine
 10
30.51262903360206
 20
7.253250129758245
 30
0.0
 11
30.42336412623501
 21
7.302502259621509
 31
0.0
  0
SPLINE
  5
98
330
1F
100
AcDbEntity
  8
0
  6
Continuous
 62
     1
370
    15
100
AcDbSpline
210
0.0
220
0.0
230
1.0
 70
     8
 71
     3
 72
    26
 73
    22
 74
     0
 42
0.000000001
 43
0.00000001
 40
0.0
 40
0.0
 40
0.0
 40
0.0
 40
0.048187422626611
 40
0.089771952805536
 40
0.124182685166719
 40
0.1595160933123945
 40
0.1946660381235824
 40
0.229561147319558
 40
0.2643251533106408
 40
0.3294140953349027
 40
0.387363753295191
 40
0.4544186887815193
 40
0.5223860044794371
 40
0.5817800875119244
 40
0.6423090908238599
 40
0.709936031371125
 40
0.7854632376465979
 40
0.8729552936133724
 40
0.9218187010793519
 40
0.9744796621433492
 40
0.9999999999999999
 40
0.9999999999999999
 40
0.9999999999999999
 40
0.9999999999999999
 10
36.34761937245275
 20
20.18382571196696
 30
0.0
 10
36.10377336294854
 20
20.16953682414655
 30
0.0
 10
35.64949439835952
 20
20.14291698658027
 30
0.0
 10
34.84201369897075
 20
20.09537943288383
 30
0.0
 10
34.04396743486812
 20
20.06101238442007
 30
0.0
 10
33.31245489063706
 20
20.03627722003226
 30
0.0
 10
32.56812592200853
 20
20.00918848824556
 30
0.0
 10
31.82592070207236
 20
19.98324345739273
 30
0.0
 10
30.87200922970814
 20
19.95157794367078
 30
0.0
 10
29.75869383031523
 20
19.91890267748746
 30
0.0
 10
28.43873004814386
 20
19.88765403400584
 30
0.0
 10
27.10802697426627
 20
19.86327257843677
 30
0.0
 10
25.75065064090538
 20
19.84626847772046
 30
0.0
 10
24.44172581616181
 20
19.83718945026114
 30
0.0
 10
23.1349604103484
 20
19.83497870200418
 30
0.0
 10
21.71599539472081
 20
19.84053964395854
 30
0.0
 10
20.10859180604772
 20
19.85690276157379
 30
0.0
 10
18.63234262460727
 20
19.88235358257623
 30
0.0
 10
17.31549675496264
 20
19.91317448150639
 30
0.0
 10
16.4303709204712
 20
19.93703557549444
 30
0.0
 10
15.88563152944115
 20
19.95480516518622
 30
0.0
 10
15.70781492246685
 20
19.9606056051734
 30
0.0
  0
SPLINE
  5
99
330
1F
100
AcDbEntity
  8
0
  6
Continuous
 62
     1
370
    15
100
AcDbSpline
210
0.0
220
0.0
230
1.0
 70
     8
 71
     3
 72
    46
 73
    42
 74
     0
 42
0.000000001
 43
0.00000001
 40
0.0
 40
0.0
 40
0.0
 40
0.0
 40
0.0323276877223818
 40
0.0596884851882154
 40
0.0821346745977955
 40
0.0996549845914461
 40
0.1122766082598011
 40
0.1212604592673644
 40
0.1303325351618272
 40
0.1480273576258313
 40
0.1673947211655653
 40
0.1900838918609
 40
0.2186412824697588
 40
0.2493797201565987
 40
0.2801804776547078
 40
0.3091799190110446
 40
0.3359520535250394
 40
0.3629533508324647
 40
0.3865686302378855
 40
0.4072793326911578
 40
0.4260263403669873
 40
0.4439778435327645
 40
0.4637619188530912
 40
0.4863229540863058
 40
0.5139318540744057
 40
0.5608669534975089
 40
0.6028959943107525
 40
0.6447538616710285
 40
0.6852946040382729
 40
0.7218191760308884
 40
0.7555130894634463
 40
0.7874060034303152
 40
0.8196482802704255
 40
0.8572102277868126
 40
0.8771803046979619
 40
0.8970699674603826
 40
0.9170372626262264
 40
0.9333645766216021
 40
0.9523024659689291
 40
0.9744161675862608
 40
1.0
 40
1.0
 40
1.0
 40
1.0
 10
101.1112319271718
 20
17.37239474973818
 30
0.0
 10
100.6396791015574
 20
17.33283836010248
 30
0.0
 10
99.76902376459499
 20
17.25980310323085
 30
0.0
 10
98.5661910301861
 20
17.16963026221805
 30
0.0
 10
97.57361437987181
 20
17.1009984633921
 30
0.0
 10
96.79106989855225
 20
17.05109264922591
 30
0.0
 10
96.19974591309473
 20
17.01590552241266
 30
0.0
 10
95.7294833664333
 20
16.98932882692416
 30
0.0
 10
95.18520024711252
 20
16.95940245379033
 30
0.0
 10
94.48941126784939
 20
16.92350029978976
 30
0.0
 10
93.61423401374971
 20
16.88270167606845
 30
0.0
 10
92.57309915818102
 20
16.83945433973472
 30
0.0
 10
91.35764851792668
 20
16.79698555701806
 30
0.0
 10
90.02199915279486
 20
16.76048371412712
 30
0.0
 10
88.68588113724628
 20
16.73444601629262
 30
0.0
 10
87.40364683827801
 20
16.71924379211649
 30
0.0
 10
86.17077106985543
 20
16.71359691707479
 30
0.0
 10
85.01503972419803
 20
16.71637431432215
 30
0.0
 10
83.95375391401372
 20
16.72586276001096
 30
0.0
 10
83.01756490704454
 20
16.73958445408645
 30
0.0
 10
82.16490357568385
 20
16.75642424766788
 30
0.0
 10
81.32609196757308
 20
16.77698682409957
 30
0.0
 10
80.43078683925926
 20
16.80325260355964
 30
0.0
 10
79.39214531606629
 20
16.8393360803497
 30
0.0
 10
77.95058704221826
 20
16.89861233874419
 30
0.0
 10
76.21934484917615
 20
16.98629572692425
 30
0.0
 10
74.27933309744976
 20
17.10638353360128
 30
0.0
 10
72.41581936762768
 20
17.24091887174087
 30
0.0
 10
70.63444509547523
 20
17.38786868062316
 30
0.0
 10
69.01613354295662
 20
17.53710400593552
 30
0.0
 10
67.50422000322142
 20
17.6883844040875
 30
0.0
 10
66.05773384048474
 20
17.84446754738224
 30
0.0
 10
64.57332109549002
 20
18.01526438259193
 30
0.0
 10
63.22200780139167
 20
18.1823048527131
 30
0.0
 10
62.04938946701068
 20
18.33424810132152
 30
0.0
 10
61.13815564499175
 20
18.45567826109602
 30
0.0
 10
60.29078699927287
 20
18.56819469508223
 30
0.0
 10
59.44726425113974
 20
18.68553372953167
 30
0.0
 10
58.610960722676
 20
18.81041564458779
 30
0.0
 10
57.69022330501584
 20
18.95415464903675
 30
0.0
 10
57.07209386331492
 20
19.05182220912053
 30
0.0
 10
56.74054380799814
 20
19.10420878507673
 30
0.0
  0
SPLINE
  5
9A
330
1F
100
AcDbEntity
  8
0
  6
Continuous
 62
     1
370
    15
100
AcDbSpline
210
0.0
220
0.0
230
1.0
 70
     8
 71
     3
 72
    27
 73
    23
 74
     0
 42
0.000000001
 43
0.00000001
 40
0.0
 40
0.0
 40
0.0
 40
0.0
 40
0.0429221884933632
 40
0.0807565351750542
 40
0.1161207399053493
 40
0.1530641106962867
 40
0.1905117820935695
 40
0.2248756542751403
 40
0.2561644511479131
 40
0.2852574088422071
 40
0.3460346807341561
 40
0.4134877071534268
 40
0.4663157394599108
 40
0.5232223418197953
 40
0.5868718739048687
 40
0.657883646627858
 40
0.7230943485153881
 40
0.7918555912874754
 40
0.8496018044145683
 40
0.902708716783854
 40
0.9541396894546409
 40
1.0
 40
1.0
 40
1.0
 40
1.0
 10
56.74054380799816
 20
-19.10420878507682
 30
0.0
 10
56.90897883493073
 20
-19.07648525632187
 30
0.0
 10
57.2258832066474
 20
-19.02432444617535
 30
0.0
 10
57.84030533021186
 20
-18.91917220468596
 30
0.0
 10
58.52837134832353
 20
-18.81126893739532
 30
0.0
 10
59.25734827538886
 20
-18.70939183591713
 30
0.0
 10
59.96061646630686
 20
-18.61492892751112
 30
0.0
 10
60.63471221642935
 20
-18.52361117715076
 30
0.0
 10
61.25443675446198
 20
-18.4404088095768
 30
0.0
 10
62.04908399025012
 20
-18.33454264715408
 30
0.0
 10
63.07980407953452
 20
-18.20029106416892
 30
0.0
 10
64.23164647173525
 20
-18.05767259427726
 30
0.0
 10
65.36315600191249
 20
-17.92397533966174
 30
0.0
 10
66.47243418388445
 20
-17.79918360049534
 30
0.0
 10
67.69976009589968
 20
-17.66857984442015
 30
0.0
 10
68.9814773223204
 20
-17.54098022062169
 30
0.0
 10
70.29506993486984
 20
-17.41924118840094
 30
0.0
 10
71.5229796032799
 20
-17.31409189996566
 30
0.0
 10
72.6731521229841
 20
-17.22335920737491
 30
0.0
 10
73.71297161473915
 20
-17.14762248154894
 30
0.0
 10
74.676082126037
 20
-17.0822995526943
 30
0.0
 10
75.29587376677341
 20
-17.04472502804425
 30
0.0
 10
75.58802570657708
 20
-17.02701347864247
 30
0.0
  0
SPLINE
  5
9B
330
1F
100
AcDbEntity
  8
0
  6
Continuous
 62
     1
370
    15
100
AcDbSpline
210
0.0
220
0.0
230
1.0
 70
     8
 71
     3
 72
    38
 73
    34
 74
     0
 42
0.000000001
 43
0.00000001
 40
0.0
 40
0.0
 40
0.0
 40
0.0
 40
0.0473506462958504
 40
0.0877586057674407
 40
0.1211978706065149
 40
0.1498968296924082
 40
0.1703007630311082
 40
0.1868896639536543
 40
0.2029658110902841
 40
0.2185261467131952
 40
0.2335983000048501
 40
0.2716690992156346
 40
0.3142236409928423
 40
0.340030539978
 40
0.3662603438036775
 40
0.3930306683704425
 40
0.4209124044406538
 40
0.450949096361796
 40
0.4826351320642416
 40
0.5179671903247398
 40
0.5489313427211854
 40
0.5861266297559123
 40
0.6329298697015674
 40
0.6806068961975554
 40
0.7256629846141222
 40
0.7653318606671311
 40
0.8008600711707284
 40
0.8332576115345101
 40
0.8632083627536312
 40
0.8851647005422137
 40
0.9151490430394814
 40
0.9534086366089572
 40
1.0
 40
1.0
 40
1.0
 40
1.0
 10
8.950119329134615
 20
-20.27003900971384
 30
0.0
 10
9.385069847075918
 20
-20.2448306480948
 30
0.0
 10
10.19119719735244
 20
-20.19811004674239
 30
0.0
 10
11.30417880460184
 20
-20.14051328018617
 30
0.0
 10
12.245728657108
 20
-20.09528638837478
 30
0.0
 10
13.00348253252815
 20
-20.06154161309129
 30
0.0
 10
13.60669618927082
 20
-20.0363607655682
 30
0.0
 10
14.09408020543683
 20
-20.01704048424989
 30
0.0
 10
14.53697165737311
 20
-20.00030516772229
 30
0.0
 10
14.96590706090049
 20
-19.9848662566314
 30
0.0
 10
15.59698247088214
 20
-19.96325040356841
 30
0.0
 10
16.47450495800933
 20
-19.93581337847221
 30
0.0
 10
17.45680472038806
 20
-19.90966728378234
 30
0.0
 10
18.29631191703418
 20
-19.89043460384532
 30
0.0
 10
18.948592929324
 20
-19.87574805767924
 30
0.0
 10
19.62594475684802
 20
-19.86024906240965
 30
0.0
 10
20.40728195043401
 20
-19.84847676298716
 30
0.0
 10
21.24644190321228
 20
-19.84194917017646
 30
0.0
 10
22.14800686560181
 20
-19.83855394434348
 30
0.0
 10
23.06685149556888
 20
-19.83573268755482
 30
0.0
 10
24.02280985669891
 20
-19.83622481267227
 30
0.0
 10
25.07642399469203
 20
-19.84093109403379
 30
0.0
 10
26.28675284347494
 20
-19.8521750012886
 30
0.0
 10
27.56779278752415
 20
-19.87104032907331
 30
0.0
 10
28.78297503560352
 20
-19.89538262404374
 30
0.0
 10
29.88658198845625
 20
-19.92290824322938
 30
0.0
 10
30.87279271443235
 20
-19.95165169848229
 30
0.0
 10
31.78561119870584
 20
-19.98203345592896
 30
0.0
 10
32.57171008892396
 20
-20.00954241169833
 30
0.0
 10
33.33663866054198
 20
-20.03879330138505
 30
0.0
 10
34.15863627045782
 20
-20.07435881103151
 30
0.0
 10
35.18802933849021
 20
-20.12301020187003
 30
0.0
 10
35.93658827902351
 20
-20.16226889888613
 30
0.0
 10
36.34761937245275
 20
-20.18382571196705
 30
0.0
  0
SPLINE
  5
9C
330
1F
100
AcDbEntity
  8
0
  6
Continuous
 62
     1
370
    15
100
AcDbSpline
210
0.0
220
0.0
230
1.0
 70
     8
 71
     3
 72
    68
 73
    64
 74
     0
 42
0.000000001
 43
0.00000001
 40
0.0
 40
0.0
 40
0.0
 40
0.0
 40
0.03125
 40
0.03125
 40
0.0625
 40
0.0625
 40
0.09375
 40
0.09375
 40
0.125
 40
0.125
 40
0.15625
 40
0.15625
 40
0.1875
 40
0.1875
 40
0.21875
 40
0.21875
 40
0.2499999999999999
 40
0.2499999999999999
 40
0.2812499999999999
 40
0.2812499999999999
 40
0.3124999999999999
 40
0.3124999999999999
 40
0.3437499999999999
 40
0.3437499999999999
 40
0.3749999999999999
 40
0.3749999999999999
 40
0.40625
 40
0.40625
 40
0.4375
 40
0.4375
 40
0.46875
 40
0.46875
 40
0.5
 40
0.5
 40
0.53125
 40
0.53125
 40
0.5625
 40
0.5625
 40
0.59375
 40
0.59375
 40
0.625
 40
0.625
 40
0.65625
 40
0.65625
 40
0.6875
 40
0.6875
 40
0.71875
 40
0.71875
 40
0.75
 40
0.75
 40
0.7812500000000001
 40
0.7812500000000001
 40
0.8125000000000001
 40
0.8125000000000001
 40
0.8437500000000001
 40
0.8437500000000001
 40
0.8750000000000001
 40
0.8750000000000001
 40
0.9375000000000001
 40
0.9375000000000001
 40
0.9687500000000001
 40
0.9687500000000001
 40
1.0
 40
1.0
 40
1.0
 40
1.0
 10
110.5501193291346
 20
-24.10309807849029
 30
0.0
 10
109.4940603612685
 20
-23.91048564038922
 30
0.0
 10
108.4342543700332
 20
-23.69672573610718
 30
0.0
 10
106.3154079213685
 20
-23.22844722303745
 30
0.0
 10
105.2583830662973
 20
-22.97410702376709
 30
0.0
 10
103.1437623951038
 20
-22.4259988140404
 30
0.0
 10
102.0834711104873
 20
-22.13196977583737
 30
0.0
 10
99.96519880579595
 20
-21.50618975430581
 30
0.0
 10
98.90968330179135
 20
-21.17472401480033
 30
0.0
 10
96.7931302270692
 20
-20.47506470946173
 30
0.0
 10
95.73264150370608
 20
-20.10689185013426
 30
0.0
 10
93.61551696848471
 20
-19.33672388996727
 30
0.0
 10
92.56023766957904
 20
-18.93493345794385
 30
0.0
 10
90.4423242653125
 20
-18.09825794973773
 30
0.0
 10
89.381926136783
 20
-17.66363051700618
 30
0.0
 10
87.26652196055737
 20
-16.76522509911891
 30
0.0
 10
86.21020550776598
 20
-16.30128850416266
 30
0.0
 10
84.09150507543633
 20
-15.34502702869088
 30
0.0
 10
83.0314854932063
 20
-14.85303459619712
 30
0.0
 10
80.91837271400026
 20
-13.8452338347483
 30
0.0
 10
79.85974668357808
 20
-13.32855403816279
 30
0.0
 10
77.74083323528338
 20
-12.27266240601748
 30
0.0
 10
76.68292494822819
 20
-11.73385166725418
 30
0.0
 10
74.56916627410148
 20
-10.63717890206437
 30
0.0
 10
73.50902144947028
 20
-10.07856504797561
 30
0.0
 10
71.39046918969858
 20
-8.94510043324332
 30
0.0
 10
70.33454226358762
 20
-8.37070997378854
 30
0.0
 10
68.21863938116658
 20
-7.207678168484398
 30
0.0
 10
67.15819029850495
 20
-6.618936748410258
 30
0.0
 10
65.04057310554293
 20
-5.431588248057301
 30
0.0
 10
63.98535476541013
 20
-4.833358645756224
 30
0.0
 10
61.86787916231702
 20
-3.628225325772107
 30
0.0
 10
60.80741381927417
 20
-3.021653530891026
 30
0.0
 10
58.69130472723389
 20
-1.805237706485004
 30
0.0
 10
57.63552155911798
 20
-1.195371447958815
 30
0.0
 10
55.51704614167777
 20
0.0267046586194479
 30
0.0
 10
54.4568525506414
 20
0.6384336243858952
 30
0.0
 10
52.34282323308708
 20
1.858501242117273
 30
0.0
 10
51.2852023323921
 20
2.467568998722643
 30
0.0
 10
49.1663009095013
 20
3.681063001520194
 30
0.0
 10
48.10733427035402
 20
4.285043608421547
 30
0.0
 10
45.99451597846089
 20
5.483561332744869
 30
0.0
 10
44.934557211621
 20
6.079250577123133
 30
0.0
 10
42.81580397690613
 20
7.258814569077118
 30
0.0
 10
41.7592904627441
 20
7.84227403461044
 30
0.0
 10
39.64411642372225
 20
8.994978978383463
 30
0.0
 10
38.58374661751824
 20
9.564522492446029
 30
0.0
 10
36.46571563076479
 20
10.68552498853504
 30
0.0
 10
35.41038299551205
 20
11.23659244434285
 30
0.0
 10
33.29342403995355
 20
12.31937057582345
 30
0.0
 10
32.23293112018202
 20
12.85086412511848
 30
0.0
 10
30.11619578901727
 20
13.88991406112866
 30
0.0
 10
29.0607707217906
 20
14.39736261128262
 30
0.0
 10
26.94259928982654
 20
15.38755851737459
 30
0.0
 10
25.88227129387149
 20
15.86989894879587
 30
0.0
 10
23.76740385668347
 20
16.80534284788408
 30
0.0
 10
22.71061312995799
 20
17.25880016685759
 30
0.0
 10
19.53239756903632
 20
18.57415011875735
 30
0.0
 10
17.4195078027344
 20
19.38871010446129
 30
0.0
 10
14.24119499592414
 20
20.50662048515544
 30
0.0
 10
13.1839198005602
 20
20.86151386297927
 30
0.0
 10
11.0695531656052
 20
21.5345055894787
 30
0.0
 10
10.00930226172548
 20
21.85291507137195
 30
0.0
 10
8.950119329132034
 20
22.15196030535455
 30
0.0
  0
SPLINE
  5
9D
330
1F
100
AcDbEntity
  8
0
  6
Continuous
 62
     1
370
    15
100
AcDbSpline
210
0.0
220
0.0
230
1.0
 70
     8
 71
     3
 72
    20
 73
    16
 74
     0
 42
0.000000001
 43
0.00000001
 40
0.0
 40
0.0
 40
0.0
 40
0.0
 40
0.0794831587881906
 40
0.1589596428351727
 40
0.2384309401788611
 40
0.3178985424276031
 40
0.3973639437353236
 40
0.4768286397729609
 40
0.5562941266976867
 40
0.635761900121416
 40
0.7152334540801151
 40
0.7947102800054066
 40
0.8741938389802321
 40
0.9536765757206582
 40
1.0
 40
1.0
 40
1.0
 40
1.0
 10
110.5501193291346
 20
-20.03989551495274
 30
0.0
 10
108.805653317144
 20
-19.69409167572688
 30
0.0
 10
105.3168677878335
 20
-19.00251303677449
 30
0.0
 10
100.0839632209376
 20
-17.62072607314354
 30
0.0
 10
94.85144509530258
 20
-16.01032962911028
 30
0.0
 10
89.61920789900428
 20
-14.16830148696374
 30
0.0
 10
84.38713670386112
 20
-12.127572626717
 30
0.0
 10
79.15511897772889
 20
-9.915107373180673
 30
0.0
 10
73.92304130555608
 20
-7.562672047700041
 30
0.0
 10
68.69079117908461
 20
-5.103249527050474
 30
0.0
 10
63.45825360237296
 20
-2.571982750016496
 30
0.0
 10
58.22532395265174
 20
-0.0031901811848749
 30
0.0
 10
52.99206054269503
 20
2.561463491401814
 30
0.0
 10
48.48643937478679
 20
4.751623240753621
 30
0.0
 10
45.72534379436253
 20
6.039791724177865
 30
0.0
 10
44.70867337845413
 20
6.514111699584801
 30
0.0
  0
LINE
  5
9E
330
1F
100
AcDbEntity
  8
0
  6
Continuous
 62
     1
370
    15
100
AcDbLine
 10
110.5501193291346
 20
-24.10309807849031
 30
0.0
 11
110.5501193291346
 21
-20.03989551495274
 31
0.0
  0
SPLINE
  5
9F
330
1F
100
AcDbEntity
  8
0
  6
Continuous
 62
     1
370
    15
100
AcDbSpline
210
0.0
220
0.0
230
1.0
 70
     8
 71
     3
 72
    68
 73
    64
 74
     0
 42
0.000000001
 43
0.00000001
 40
0.0
 40
0.0
 40
0.0
 40
0.0
 40
0.0312499999999998
 40
0.0312499999999998
 40
0.0624999999999996
 40
0.0624999999999996
 40
0.0937499999999994
 40
0.0937499999999994
 40
0.1249999999999993
 40
0.1249999999999993
 40
0.1562499999999991
 40
0.1562499999999991
 40
0.1874999999999989
 40
0.1874999999999989
 40
0.2187499999999987
 40
0.2187499999999987
 40
0.2499999999999985
 40
0.2499999999999985
 40
0.2812499999999983
 40
0.2812499999999983
 40
0.3124999999999981
 40
0.3124999999999981
 40
0.3437499999999979
 40
0.3437499999999979
 40
0.3749999999999978
 40
0.3749999999999978
 40
0.4062499999999979
 40
0.4062499999999979
 40
0.4374999999999981
 40
0.4374999999999981
 40
0.4687499999999982
 40
0.4687499999999982
 40
0.4999999999999983
 40
0.4999999999999983
 40
0.5312499999999983
 40
0.5312499999999983
 40
0.5624999999999984
 40
0.5624999999999984
 40
0.5937499999999984
 40
0.5937499999999984
 40
0.6249999999999984
 40
0.6249999999999984
 40
0.6562499999999986
 40
0.6562499999999986
 40
0.6874999999999986
 40
0.6874999999999986
 40
0.7187499999999987
 40
0.7187499999999987
 40
0.7499999999999988
 40
0.7499999999999988
 40
0.781249999999999
 40
0.781249999999999
 40
0.8124999999999991
 40
0.8124999999999991
 40
0.8437499999999992
 40
0.8437499999999992
 40
0.8749999999999994
 40
0.8749999999999994
 40
0.9374999999999997
 40
0.9374999999999997
 40
0.9687499999999999
 40
0.9687499999999999
 40
1.0
 40
1.0
 40
1.0
 40
1.0
 10
110.5501193291346
 20
-25.39999999999999
 30
0.0
 10
109.4940603612685
 20
-25.35343383186623
 30
0.0
 10
108.4342543700333
 20
-25.30627884265637
 30
0.0
 10
106.3154079213687
 20
-25.16808410195995
 30
0.0
 10
105.2583830662974
 20
-25.07711973923834
 30
0.0
 10
103.143762395104
 20
-24.85186376153977
 30
0.0
 10
102.0834711104875
 20
-24.71744544364664
 30
0.0
 10
99.96519880579625
 20
-24.40600301568496
 30
0.0
 10
98.90968330179163
 20
-24.22914712798804
 30
0.0
 10
96.79313022706953
 20
-23.83341024842631
 30
0.0
 10
95.73264150370646
 20
-23.61451748372563
 30
0.0
 10
93.61551696848512
 20
-23.1363807078779
 30
0.0
 10
92.5602376695795
 20
-22.8772862700372
 30
0.0
 10
90.44232426531308
 20
-22.31924363065496
 30
0.0
 10
89.38192613678356
 20
-22.02044654878216
 30
0.0
 10
87.26652196055798
 20
-21.38567838291032
 30
0.0
 10
86.21020550776656
 20
-21.04961010657617
 30
0.0
 10
84.091505075437
 20
-20.34086217852688
 30
0.0
 10
83.031485493207
 20
-19.96841495101983
 30
0.0
 10
80.91837271400102
 20
-19.19037192784803
 30
0.0
 10
79.85974668357883
 20
-18.78410782356686
 30
0.0
 10
77.74083323528417
 20
-17.9394349439272
 30
0.0
 10
76.68292494822903
 20
-17.50134963305855
 30
0.0
 10
74.56916627410241
 20
-16.59589270525123
 30
0.0
 10
73.50902144947123
 20
-16.1278937241488
 30
0.0
 10
71.39046918969962
 20
-15.16494215899702
 30
0.0
 10
70.33454226358863
 20
-14.6703937378337
 30
0.0
 10
68.21863938116766
 20
-13.65608513672308
 30
0.0
 10
67.15819029850606
 20
-13.13622490720621
 30
0.0
 10
65.0405731055441
 20
-12.07513125350381
 30
0.0
 10
63.98535476541132
 20
-11.53424996735888
 30
0.0
 10
61.86787916231827
 20
-10.4322140434522
 30
0.0
 10
60.80741381927545
 20
-9.871348352938004
 30
0.0
 10
58.69130472723523
 20
-8.734310450261116
 30
0.0
 10
57.63552155911933
 20
-8.158130124350196
 30
0.0
 10
55.51704614167917
 20
-6.991352452610469
 30
0.0
 10
54.45685255064279
 20
-6.401201621679995
 30
0.0
 10
52.34282323308854
 20
-5.212005320969107
 30
0.0
 10
51.2852023323936
 20
-4.612256052161897
 30
0.0
 10
49.16630090950287
 20
-3.405095130998365
 30
0.0
 10
48.10733427035561
 20
-2.798122546487043
 30
0.0
 10
45.99451597846253
 20
-1.581358592574714
 30
0.0
 10
44.93455721162267
 20
-0.9703948751777617
 30
0.0
 10
42.81580397690787
 20
0.251935913270779
 30
0.0
 10
41.75929046274585
 20
0.8628619568446382
 30
0.0
 10
39.64411642372406
 20
2.082571014542264
 30
0.0
 10
38.58374661752008
 20
2.691680325899192
 30
0.0
 10
36.46571563076668
 20
3.90364923546756
 30
0.0
 10
35.41038299551397
 20
4.506070251890768
 30
0.0
 10
33.29342403995553
 20
5.703243794193734
 30
0.0
 10
32.23293112018401
 20
6.297772076883935
 30
0.0
 10
30.11619578901929
 20
7.474072328920164
 30
0.0
 10
29.06077072179267
 20
8.055706069940932
 30
0.0
 10
26.94259928982866
 20
9.205322194290552
 30
0.0
 10
25.88227129387365
 20
9.772849084573313
 30
0.0
 10
23.76740385668568
 20
10.88893719408105
 30
0.0
 10
22.71061312996022
 20
11.43790825470923
 30
0.0
 10
19.53239756903864
 20
13.05495083237107
 30
0.0
 10
17.41950780273677
 20
14.09033611356684
 30
0.0
 10
14.2411949959266
 20
15.56620669417534
 30
0.0
 10
13.18391980056266
 20
16.04473391923161
 30
0.0
 10
11.06955316560771
 20
16.97312054270541
 30
0.0
 10
10.00930226172804
 20
17.42342354536467
 30
0.0
 10
8.950119329134615
 20
17.85805111918846
 30
0.0
  0
SPLINE
  5
A0
330
1F
100
AcDbEntity
  8
0
  6
Continuous
 62
     1
370
    15
100
AcDbSpline
210
0.0
220
0.0
230
1.0
 70
     8
 71
     3
 72
    14
 73
    10
 74
     0
 42
0.000000001
 43
0.00000001
 40
0.0
 40
0.0
 40
0.0
 40
0.0
 40
0.1284522319093062
 40
0.2642770366625898
 40
0.4000954182988418
 40
0.5500715713312463
 40
0.7000477193746469
 40
0.8500238623054336
 40
1.0
 40
1.0
 40
1.0
 40
1.0
 10
47.47426970220459
 20
-2.428914729126937
 30
0.0
 10
45.82477223046928
 20
-1.765870346604698
 30
0.0
 10
42.43110364773551
 20
-0.4017258550362413
 30
0.0
 10
37.29337878406405
 20
1.679242299140631
 30
0.0
 10
31.87934762307938
 20
3.844659342334028
 30
0.0
 10
26.28335125188381
 20
6.02448191404254
 30
0.0
 10
20.50561824439374
 20
8.16719049427018
 30
0.0
 10
14.72786631481654
 20
10.18409532080024
 30
0.0
 10
10.87603496861498
 20
11.37492974010525
 30
0.0
 10
8.950119329134615
 20
11.97034693936365
 30
0.0
  0
SPLINE
  5
A1
330
1F
100
AcDbEntity
  8
외형선
  6
Continuous
370
    15
100
AcDbSpline
210
0.0
220
0.0
230
1.0
 70
    24
 71
     3
 72
    14
 73
    10
 74
     0
 42
0.000000001
 43
0.00000001
 40
0.0
 40
0.0
 40
0.0
 40
0.0
 40
0.2499999999999998
 40
0.2499999999999998
 40
0.4999999999999994
 40
0.4999999999999994
 40
0.7499999999999998
 40
0.7499999999999998
 40
1.0
 40
1.0
 40
1.0
 40
1.0
 10
8.950119329134615
 20
17.85805111918845
 30
0.0
 10
8.950119329134615
 20
17.55017848101693
 30
0.0
 10
8.950119329134615
 20
17.18175178561112
 30
0.0
 10
8.950119329134615
 20
16.33981059464174
 30
0.0
 10
8.950119329134615
 20
15.86642957338623
 30
0.0
 10
8.950119329134615
 20
14.84319375791581
 30
0.0
 10
8.950119329134615
 20
14.29356127866379
 30
0.0
 10
8.950119329134615
 20
13.15345617323808
 30
0.0
 10
8.950119329134615
 20
12.56320661223223
 30
0.0
 10
8.950119329134615
 20
11.97034693936365
 30
0.0
  0
LINE
  5
A2
330
1F
100
AcDbEntity
  8
외형선
  6
Continuous
370
    15
100
AcDbLine
 10
8.950119329134612
 20
17.85805111918845
 30
0.0
 11
8.950119329134612
 21
22.15196030534466
 31
0.0
  0
LINE
  5
A3
330
1F
100
AcDbEntity
  8
0
  6
Continuous
 62
     1
370
    15
100
AcDbLine
 10
110.5501193291346
 20
-25.4
 30
0.0
 11
110.5501193291346
 21
-24.10309807849031
 31
0.0
  0
SPLINE
  5
A4
330
1F
100
AcDbEntity
  8
0
  6
Continuous
 62
     1
370
    15
100
AcDbSpline
210
0.0
220
0.0
230
1.0
 70
     8
 71
     3
 72
    22
 73
    18
 74
     0
 42
0.000000001
 43
0.00000001
 40
0.0
 40
0.0
 40
0.0
 40
0.0
 40
0.070526105461617
 40
0.1410462056505563
 40
0.2115616393283806
 40
0.2820737484815649
 40
0.3525838773958413
 40
0.4230933717271789
 40
0.4936035775707618
 40
0.5641158405293171
 40
0.634631504782173
 40
0.7051519121563914
 40
0.775678377224347
 40
0.8462041034623886
 40
0.9167239008393573
 40
0.987239108325994
 40
0.9999999999999999
 40
0.9999999999999999
 40
0.9999999999999999
 40
0.9999999999999999
 10
110.5501193291346
 20
-0.0000000000000442
 30
0.0
 10
108.8056525753888
 20
0.8056365122593951
 30
0.0
 10
105.3168676086179
 20
2.416840937117148
 30
0.0
 10
100.083958342134
 20
4.799578662235989
 30
0.0
 10
94.8514360498421
 20
7.114428472356493
 30
0.0
 10
89.61919453941783
 20
9.328719009289335
 30
0.0
 10
84.38711906860637
 20
11.41118048146614
 30
0.0
 10
79.15509705964111
 20
13.33241251866599
 30
0.0
 10
73.92301511179406
 20
15.06527189564258
 30
0.0
 10
68.69076072287949
 20
16.58532869208629
 30
0.0
 10
63.45821887605327
 20
17.87093801061318
 30
0.0
 10
58.22528505039979
 20
18.90455833716508
 30
0.0
 10
52.99201996832507
 20
19.66918639560507
 30
0.0
 10
47.75878234230712
 20
20.16277968519097
 30
0.0
 10
42.52589970900466
 20
20.34579334779368
 30
0.0
 10
38.72183364001399
 20
20.33950444665165
 30
0.0
 10
36.66205594364804
 20
20.18617618353786
 30
0.0
 10
36.34642396375482
 20
20.16268078238579
 30
0.0
  0
SPLINE
  5
A5
330
1F
100
AcDbEntity
  8
0
  6
Continuous
 62
     1
370
    15
100
AcDbSpline
210
0.0
220
0.0
230
1.0
 70
    24
 71
     3
 72
    14
 73
    10
 74
     0
 42
0.000000001
 43
0.00000001
 40
0.0
 40
0.0
 40
0.0
 40
0.0
 40
0.25
 40
0.25
 40
0.5
 40
0.5
 40
0.75
 40
0.75
 40
1.0
 40
1.0
 40
1.0
 40
1.0
 10
110.5501193291346
 20
-20.03989551495273
 30
0.0
 10
110.5501193291346
 20
-18.9555733605225
 30
0.0
 10
110.5501193291347
 20
-17.67202380632721
 30
0.0
 10
110.5501193291346
 20
-14.75713589577278
 30
0.0
 10
110.5501193291346
 20
-13.12620834487344
 30
0.0
 10
110.5501193291346
 20
-9.623740089790322
 30
0.0
 10
110.5501193291347
 20
-7.753210792117348
 30
0.0
 10
110.5501193291346
 20
-3.91365382569785
 30
0.0
 10
110.5501193291346
 20
-1.945765085460757
 30
0.0
 10
110.5501193291346
 20
-0.0000000000000442
 30
0.0
  0
SPLINE
  5
A6
330
1F
100
AcDbEntity
  8
0
  6
Continuous
 62
     1
370
    15
100
AcDbSpline
210
0.0
220
0.0
230
1.0
 70
    24
 71
     3
 72
    10
 73
     6
 74
     0
 42
0.000000001
 43
0.00000001
 40
0.0
 40
0.0
 40
0.0
 40
0.0
 40
0.5
 40
0.5
 40
1.0
 40
1.0
 40
1.0
 40
1.0
 10
105.5501193291346
 20
13.02321813694328
 30
0.0
 10
105.5501193291346
 20
13.71820767828028
 30
0.0
 10
105.5501193291346
 20
14.34397502627869
 30
0.0
 10
105.5501193291346
 20
15.44274489391829
 30
0.0
 10
105.5501193291346
 20
15.91573089349447
 30
0.0
 10
105.5501193291346
 20
16.30935131046911
 30
0.0
  0
SPLINE
  5
A7
330
1F
100
AcDbEntity
  8
0
  6
Continuous
 62
     1
370
    15
100
AcDbSpline
210
0.0
220
0.0
230
1.0
 70
     8
 71
     3
 72
    10
 73
     6
 74
     0
 42
0.000000001
 43
0.00000001
 40
0.0
 40
0.0
 40
0.0
 40
0.0
 40
0.5
 40
0.5
 40
1.0
 40
1.0
 40
1.0
 40
1.0
 10
105.5501193291346
 20
13.02321813694329
 30
0.0
 10
106.444438642822
 20
12.47562514837288
 30
0.0
 10
107.3101883134171
 20
11.86799396800352
 30
0.0
 10
108.9792683075976
 20
10.52155934460764
 30
0.0
 10
109.7826585483792
 20
9.782881815653406
 30
0.0
 10
110.5501193291346
 20
8.968699674852715
 30
0.0
  0
SPLINE
  5
A8
330
1F
100
AcDbEntity
  8
0
  6
Continuous
 62
     1
370
    15
100
AcDbSpline
210
0.0
220
0.0
230
1.0
 70
     8
 71
     3
 72
     9
 73
     5
 74
     0
 42
0.000000001
 43
0.00000001
 40
0.0
 40
0.0
 40
0.0
 40
0.0
 40
0.5541429139826277
 40
0.9999999999999999
 40
0.9999999999999999
 40
0.9999999999999999
 40
0.9999999999999999
 10
110.5501193291346
 20
17.77999999999995
 30
0.0
 10
108.8056523420183
 20
17.76116741038279
 30
0.0
 10
105.6576070578535
 20
17.72718233335307
 30
0.0
 10
102.509604372979
 20
17.46808339673743
 30
0.0
 10
101.106045069126
 20
17.35256229986778
 30
0.0
  0
SPLINE
  5
A9
330
1F
100
AcDbEntity
  8
0
  6
Continuous
 62
     1
370
    15
100
AcDbSpline
210
0.0
220
0.0
230
1.0
 70
     8
 71
     3
 72
     8
 73
     4
 74
     0
 42
0.000000001
 43
0.00000001
 40
0.0
 40
0.0
 40
0.0
 40
0.0
 40
1.0
 40
1.0
 40
1.0
 40
1.0
 10
110.5501193291346
 20
17.77999999999997
 30
0.0
 10
108.8771009227376
 20
17.32658360122461
 30
0.0
 10
107.2103791737224
 20
16.83668649987297
 30
0.0
 10
105.5501193291346
 20
16.30935131046911
 30
0.0
  0
SPLINE
  5
AA
330
1F
100
AcDbEntity
  8
0
  6
Continuous
 62
     1
370
    15
100
AcDbSpline
210
0.0
220
0.0
230
1.0
 70
    24
 71
     3
 72
    10
 73
     6
 74
     0
 42
0.000000001
 43
0.00000001
 40
0.0
 40
0.0
 40
0.0
 40
0.0
 40
0.5
 40
0.5
 40
1.0
 40
1.0
 40
1.0
 40
1.0
 10
110.5501193291346
 20
-0.0000000000000498
 30
0.0
 10
110.5501193291346
 20
1.585610116459058
 30
0.0
 10
110.5501193291346
 20
3.156497691851245
 30
0.0
 10
110.5501193291346
 20
6.176915321786687
 30
0.0
 10
110.5501193291346
 20
7.625879162438502
 30
0.0
 10
110.5501193291346
 20
8.968699674852715
 30
0.0
  0
SPLINE
  5
AB
330
1F
100
AcDbEntity
  8
0
  6
Continuous
 62
     1
370
    15
100
AcDbSpline
210
0.0
220
0.0
230
1.0
 70
     8
 71
     3
 72
    17
 73
    13
 74
     0
 42
0.000000001
 43
0.00000001
 40
0.0
 40
0.0
 40
0.0
 40
0.0
 40
0.0784899685298587
 40
0.1879869737577143
 40
0.2974747739398863
 40
0.4069554479388554
 40
0.5164310795420841
 40
0.6131232598993399
 40
0.7098227066943262
 40
0.8065504452162081
 40
0.903292373052744
 40
1.0
 40
1.0
 40
1.0
 40
1.0
 10
56.74339826263036
 20
-19.07613710232778
 30
0.0
 10
55.49293366798412
 20
-19.27052627111556
 30
0.0
 10
52.49801521736344
 20
-19.73609699634512
 30
0.0
 10
47.75878298917521
 20
-20.15249874741098
 30
0.0
 10
42.52589365224787
 20
-20.36341148543292
 30
0.0
 10
37.2934128745866
 20
-20.27695552523885
 30
0.0
 10
32.26470983654017
 20
-19.92108487545858
 30
0.0
 10
27.43999215274793
 20
-19.3344714854396
 30
0.0
 10
22.81824926770881
 20
-18.56034406216266
 30
0.0
 10
18.19551427551571
 20
-17.57832026020759
 30
0.0
 10
13.57247122463047
 20
-16.41454855228199
 30
0.0
 10
10.49072115074627
 20
-15.48809540470778
 30
0.0
 10
8.95011932913463
 20
-15.0249509664595
 30
0.0
  0
SPLINE
  5
AC
330
1F
100
AcDbEntity
  8
외형선
  6
Continuous
370
    15
100
AcDbSpline
210
0.0
220
0.0
230
1.0
 70
    24
 71
     3
 72
    14
 73
    10
 74
     0
 42
0.000000001
 43
0.00000001
 40
0.0
 40
0.0
 40
0.0
 40
0.0
 40
0.2499999999999999
 40
0.2499999999999999
 40
0.4999999999999999
 40
0.4999999999999999
 40
0.7499999999999999
 40
0.7499999999999999
 40
1.0
 40
1.0
 40
1.0
 40
1.0
 10
8.950119329134615
 20
11.97034693936365
 30
0.0
 10
8.950119329134615
 20
10.02226250185003
 30
0.0
 10
8.950119329134615
 20
7.873611604329886
 30
0.0
 10
8.950119329134615
 20
3.331789286060493
 30
0.0
 10
8.950119329134615
 20
0.940350337398346
 30
0.0
 10
8.950119329134615
 20
-3.85749240487215
 30
0.0
 10
8.950119329134615
 20
-6.26133970727815
 30
0.0
 10
8.950119329134615
 20
-10.85044186253091
 30
0.0
 10
8.950119329134615
 20
-13.03389783620842
 30
0.0
 10
8.950119329134615
 20
-15.0249509664595
 30
0.0
  0
SPLINE
  5
AD
330
1F
100
AcDbEntity
  8
외형선
  6
Continuous
370
    15
100
AcDbSpline
210
0.0
220
0.0
230
1.0
 70
    24
 71
     3
 72
    15
 73
    11
 74
     0
 42
0.000000001
 43
0.00000001
 40
0.0
 40
0.0
 40
0.0
 40
0.0
 40
0.1212379875226323
 40
0.2426495989492452
 40
0.3638875864718776
 40
0.4973739305709218
 40
0.6308602746699661
 40
0.768224685875725
 40
0.9055890970814839
 40
1.0
 40
1.0
 40
1.0
 40
1.0
 10
8.950119329134615
 20
-15.0249509664595
 30
0.0
 10
8.950119329134615
 20
-15.42249417814461
 30
0.0
 10
8.950119329134615
 20
-16.2181499198104
 30
0.0
 10
8.950119329134612
 20
-17.24075422669304
 30
0.0
 10
8.950119329134608
 20
-18.16140179986096
 30
0.0
 10
8.950119329134612
 20
-18.94239773484744
 30
0.0
 10
8.950119329134612
 20
-19.5736444146901
 30
0.0
 10
8.950119329134612
 20
-20.00922625193476
 30
0.0
 10
8.950119329134608
 20
-20.24267322122143
 30
0.0
 10
8.950119329134608
 20
-20.25248041488361
 30
0.0
 10
8.950119329134612
 20
-20.25647525795928
 30
0.0
  0
LINE
  5
AE
330
1F
100
AcDbEntity
  8
0
  6
Continuous
 62
     1
370
    15
100
AcDbLine
 10
110.5501193291346
 20
9.011185354027942
 30
0.0
 11
110.5501193291346
 21
17.77999999999996
 31
0.0
  0
SPLINE
  5
AF
330
1F
100
AcDbEntity
  8
0
  6
Continuous
 62
     1
370
    15
100
AcDbSpline
210
0.0
220
0.0
230
1.0
 70
     8
 71
     3
 72
    15
 73
    11
 74
     0
 42
0.000000001
 43
0.00000001
 40
0.0
 40
0.0
 40
0.0
 40
0.0
 40
0.0076967297764102
 40
0.1509363417492595
 40
0.2941551605361242
 40
0.4373610299100497
 40
0.5780027865565337
 40
0.718649195771616
 40
0.8593112713425801
 40
1.0
 40
1.0
 40
1.0
 40
1.0
 10
75.59128361371624
 20
17.0284699885459
 30
0.0
 10
75.6809771032675
 20
17.06865839324389
 30
0.0
 10
77.43990688057187
 20
17.85677113229912
 30
0.0
 10
80.86780054181155
 20
19.19210604259019
 30
0.0
 10
85.8746481522854
 20
20.98387973757718
 30
0.0
 10
90.85116216261552
 20
22.47079883788777
 30
0.0
 10
95.79758672931176
 20
23.67199572699902
 30
0.0
 10
100.714424997984
 20
24.56278608480112
 30
0.0
 10
105.6318966506807
 20
25.17023299612206
 30
0.0
 10
108.9106082360518
 20
25.30909481834991
 30
0.0
 10
110.5501193291346
 20
25.4
 30
0.0
  0
SPLINE
  5
B0
330
1F
100
AcDbEntity
  8
0
  6
Continuous
 62
     1
370
    15
100
AcDbSpline
210
0.0
220
0.0
230
1.0
 70
    24
 71
     3
 72
    14
 73
    10
 74
     0
 42
0.000000001
 43
0.00000001
 40
0.0
 40
0.0
 40
0.0
 40
0.0
 40
0.25
 40
0.25
 40
0.5
 40
0.5
 40
0.75
 40
0.75
 40
1.0
 40
1.0
 40
1.0
 40
1.0
 10
110.5501193291346
 20
17.77999999999995
 30
0.0
 10
110.5501193291346
 20
18.31888966145284
 30
0.0
 10
110.5501193291346
 20
18.90012989484095
 30
0.0
 10
110.5501193291346
 20
20.12433773570242
 30
0.0
 10
110.5501193291346
 20
20.76718330401996
 30
0.0
 10
110.5501193291346
 20
22.08103249361044
 30
0.0
 10
110.5501193291346
 20
22.75181509401219
 30
0.0
 10
110.5501193291346
 20
24.08266931494265
 30
0.0
 10
110.5501193291346
 20
24.74249878809514
 30
0.0
 10
110.5501193291346
 20
25.40000000000001
 30
0.0
  0
SPLINE
  5
B1
330
1F
100
AcDbEntity
  8
0
  6
Continuous
 62
     1
370
    15
100
AcDbSpline
210
0.0
220
0.0
230
1.0
 70
     8
 71
     3
 72
     9
 73
     5
 74
     0
 42
0.000000001
 43
0.00000001
 40
0.0
 40
0.0
 40
0.0
 40
0.0
 40
0.2723971100425914
 40
0.9999999999999999
 40
0.9999999999999999
 40
0.9999999999999999
 40
0.9999999999999999
 10
15.70801225077842
 20
-19.96053410562928
 30
0.0
 10
15.09438570351773
 20
-20.18724607231528
 30
0.0
 10
12.84169459690233
 20
-21.01953084453832
 30
0.0
 10
10.58910791139023
 20
-21.6750226056364
 30
0.0
 10
8.950119329132034
 20
-22.15196030535463
 30
0.0
  0
SPLINE
  5
B2
330
1F
100
AcDbEntity
  8
외형선
  6
Continuous
370
    15
100
AcDbSpline
210
0.0
220
0.0
230
1.0
 70
    24
 71
     3
 72
    11
 73
     7
 74
     0
 42
0.000000001
 43
0.00000001
 40
0.0
 40
0.0
 40
0.0
 40
0.0
 40
0.1589594417104696
 40
0.4696467397901527
 40
0.7806941734564244
 40
1.0
 40
1.0
 40
1.0
 40
1.0
 10
8.950119329134612
 20
-20.34142661630974
 30
0.0
 10
8.950119329134612
 20
-20.44374524327767
 30
0.0
 10
8.950119329134612
 20
-20.74604631491088
 30
0.0
 10
8.950119329134612
 20
-21.22492004092798
 30
0.0
 10
8.950119329134612
 20
-21.72572971346597
 30
0.0
 10
8.950119329134612
 20
-22.02727049113206
 30
0.0
 10
8.950119329134612
 20
-22.15196030534474
 30
0.0
  0
LINE
  5
B4
330
1F
100
AcDbEntity
  8
참조1
100
AcDbLine
 10
29.14057883212693
 20
0.0010749287238892
 30
0.0
 11
29.14057883212695
 21
-39.99892507127611
 31
0.0
  0
LINE
  5
B5
330
1F
100
AcDbEntity
  8
참조1
100
AcDbLine
 10
29.14057883212695
 20
-39.99892507127611
 30
0.0
 11
-22.53075298218174
 21
-39.9989250712761
 31
0.0
  0
INSERT
  5
B7
330
1F
100
AcDbEntity
  8
0
  6
Continuous
 62
     7
100
AcDbBlockReference
 66
     1
  2
블럭10
 10
20.40984639700942
 20
-52.04717430164398
 30
0.0
  0
ATTRIB
  5
B8
330
B7
100
AcDbEntity
  8
FORMAT
 62
     2
100
AcDbText
 10
11.22855110826814
 20
-49.97180738881179
 30
0.0
 40
4.233333333333333
  1
E1071200 [ 2 FLUTE ]
 41
0.75
  7
SLDTEXTSTYLE0
 11
11.22855110826814
 21
-52.08847405547846
 31
0.0
100
AcDbAttribute
  2
AUTOATTR0
 70
     0
 74
     1
  0
SEQEND
  5
B9
330
B7
100
AcDbEntity
  8
0
  6
Continuous
 62
     7
  0
HATCH
  5
BA
330
1F
100
AcDbEntity
  8
중심선
100
AcDbHatch
 10
0.0
 20
0.0
 30
0.0
210
0.0
220
0.0
230
1.0
  2
SOLID
 70
     1
 71
     0
 91
        1
 92
        0
 93
        4
 72
     1
 10
26.12475570139026
 20
-35.80000000000004
 11
22.67848045755298
 21
-35.80000000000004
 72
     1
 10
22.67848045755298
 20
-35.80000000000004
 11
20.55025059834896
 21
-38.33632558057261
 72
     1
 10
20.55025059834896
 20
-38.33632558057261
 11
23.99655892729939
 21
-38.33628615127012
 72
     1
 10
23.99655892729939
 20
-38.33628615127012
 11
26.12475570139026
 21
-35.80000000000004
 97
        0
 75
     0
 76
     1
 98
        1
 10
5.20954049700768
 20
-0.0010749287239378
  0
HATCH
  5
BB
330
1F
100
AcDbEntity
  8
중심선
100
AcDbHatch
 10
0.0
 20
0.0
 30
0.0
210
0.0
220
0.0
230
1.0
  2
SOLID
 70
     1
 71
     0
 91
        1
 92
        0
 93
        4
 72
     1
 10
31.13751969242621
 20
-35.80000000000004
 11
27.69124444858899
 21
-35.80000000000002
 72
     1
 10
27.69124444858899
 20
-35.80000000000002
 11
23.16010644023154
 21
-41.20000000000006
 72
     1
 10
23.16010644023154
 20
-41.20000000000006
 11
26.60638168406883
 21
-41.20000000000006
 72
     1
 10
26.60638168406883
 20
-41.20000000000006
 11
31.13751969242621
 21
-35.80000000000004
 97
        0
 75
     0
 76
     1
 98
        1
 10
5.20954049700768
 20
-0.0010749287239378
  0
HATCH
  5
BC
330
1F
100
AcDbEntity
  8
중심선
100
AcDbHatch
 10
0.0
 20
0.0
 30
0.0
210
0.0
220
0.0
230
1.0
  2
SOLID
 70
     1
 71
     0
 91
        1
 92
        0
 93
        4
 72
     1
 10
36.15028368346211
 20
-35.80000000000004
 11
32.70400843962499
 21
-35.80000000000002
 72
     1
 10
32.70400843962499
 20
-35.80000000000002
 11
25.65557153773574
 21
-44.20000000000006
 72
     1
 10
25.65557153773574
 20
-44.20000000000006
 11
29.10184678157303
 21
-44.20000000000006
 72
     1
 10
29.10184678157303
 20
-44.20000000000006
 11
36.15028368346211
 21
-35.80000000000004
 97
        0
 75
     0
 76
     1
 98
        1
 10
5.20954049700768
 20
-0.0010749287239378
  0
HATCH
  5
BD
330
1F
100
AcDbEntity
  8
중심선
100
AcDbHatch
 10
0.0
 20
0.0
 30
0.0
210
0.0
220
0.0
230
1.0
  2
SOLID
 70
     1
 71
     0
 91
        1
 92
        0
 93
        6
 72
     3
 10
40.95017411447431
 20
-40.00000000005132
 11
3.960054785062283
 21
1.540882976769353E-10
 40
0.3939339440162628
 50
17.09539180608455
 51
320.0019657685075
 73
     0
 72
     1
 10
42.63317377017488
 20
-38.58789400463834
 11
44.93847564387591
 21
-36.65356729459045
 72
     3
 10
40.95017411442146
 20
-40.00000000000019
 11
6.600054785286829
 21
-1.278976924368180E-13
 40
0.636358354079598
 50
39.99873849337402
 51
368.4976242363724
 73
     1
 72
     1
 10
47.37550660632204
 20
-39.03999999993007
 11
39.63024142125741
 21
-39.03999999993007
 72
     1
 10
39.63024142125741
 20
-39.03999999993007
 11
39.63021637681145
 21
-40.95999999992996
 72
     1
 10
39.63021637681145
 20
-40.95999999992996
 11
44.07159614628346
 21
-40.95999999992993
 97
        0
 75
     0
 76
     1
 98
        1
 10
5.20954049700768
 20
-0.0010749287239378
  0
DIMENSION
  5
CC
330
1F
100
AcDbEntity
  8
0
  6
Continuous
 62
     0
370
    15
100
AcDbDimension
  2
_D_1
 10
8.950119329134615
 20
31.78086064317299
 30
0.0
 11
55.17466488198399
 21
31.78086064317299
 31
0.0
 70
   160
  1
<>
 71
     2
 42
101.6
  3
SLDDIMSTYLE3
100
AcDbAlignedDimension
 13
110.5501193291346
 23
25.4
 33
0.0
 14
8.950119329134612
 24
20.903101625243
 34
0.0
100
AcDbRotatedDimension
1001
ACAD
1000
DSTYLE
1002
{
1070
   171
1070
     6
1070
   273
1070
     7
1002
}
  0
DIMENSION
  5
F6
330
1F
100
AcDbEntity
  8
0
  6
Continuous
 62
     0
370
    15
100
AcDbDimension
  2
_D_3
 10
129.5501193291348
 20
25.40000000000008
 30
0.0
 11
129.5501193291347
 21
43.50037278040185
 31
0.0
 70
   160
  1
%%c<>
 71
     2
 42
50.80000000000001
 52
-270.0
  3
SLDDIMSTYLE3
100
AcDbAlignedDimension
 13
110.5501193291346
 23
-25.4
 33
0.0
 14
110.5501193291346
 24
25.40000000000001
 34
0.0
 50
90.0000000000002
100
AcDbRotatedDimension
1001
ACAD
1000
DSTYLE
1002
{
1070
   171
1070
     6
1070
   273
1070
     7
1002
}
  0
LINE
  5
10A
330
1F
100
AcDbEntity
  8
참조1
100
AcDbLine
 10
75.44158764747253
 20
7.441074928723896
 30
0.0
 11
75.44158764747253
 21
-7.438925071276109
 31
0.0
  0
LINE
  5
10B
330
1F
100
AcDbEntity
  8
참조1
100
AcDbLine
 10
88.14158764747253
 20
5.441074928723896
 30
0.0
 11
75.44158764747253
 21
5.441074928723896
 31
0.0
  0
SOLID
  5
10C
330
1F
100
AcDbEntity
  8
참조1
100
AcDbTrace
 10
75.44158764747253
 20
5.441074928723896
 30
0.0
 11
81.79158764747253
 21
4.425074928723896
 31
0.0
 12
81.79158764747253
 22
6.457074928723896
 32
0.0
 13
81.79158764747253
 23
6.457074928723896
 33
0.0
  0
LINE
  5
10D
330
1F
100
AcDbEntity
  8
참조1
100
AcDbLine
 10
88.14158764747253
 20
-5.438925071276109
 30
0.0
 11
75.44158764747253
 21
-5.438925071276109
 31
0.0
  0
SOLID
  5
10E
330
1F
100
AcDbEntity
  8
참조1
100
AcDbTrace
 10
75.44158764747253
 20
-5.438925071276109
 30
0.0
 11
81.79158764747253
 21
-6.454925071276109
 31
0.0
 12
81.79158764747253
 22
-4.422925071276109
 32
0.0
 13
81.79158764747253
 23
-4.422925071276109
 33
0.0
  0
MTEXT
  5
10F
330
1F
100
AcDbEntity
  8
참조1
100
AcDbMText
 10
84.82593778009851
 20
11.01136670591222
 30
0.0
 40
3.5
 41
0.0
 71
     1
 72
     1
  1
A
  7
SLDTEXTSTYLE0
 73
     1
 44
1.0
  0
MTEXT
  5
110
330
1F
100
AcDbEntity
  8
참조1
100
AcDbMText
 10
84.82593778009851
 20
0.1313667059122201
 30
0.0
 40
3.5
 41
0.0
 71
     1
 72
     1
  1
A
  7
SLDTEXTSTYLE0
 73
     1
 44
1.0
  0
LINE
  5
238
330
1F
100
AcDbEntity
  8
외형선
  6
Continuous
370
    15
100
AcDbLine
 10
8.950119329134623
 20
15.875
 30
0.0
 11
-16.58732500000001
 21
15.875
 31
0.0
  0
LINE
  5
239
330
1F
100
AcDbEntity
  8
외형선
  6
Continuous
370
    15
100
AcDbLine
 10
-53.5
 20
-15.875
 30
0.0
 11
8.950119329134623
 21
-15.875
 31
0.0
  0
LINE
  5
23B
330
1F
100
AcDbEntity
  8
외형선
  6
Continuous
370
    15
100
AcDbLine
 10
-54.50000000000003
 20
-14.875
 30
0.0
 11
-53.5
 21
-15.875
 31
0.0
  0
LINE
  5
23C
330
1F
100
AcDbEntity
  8
외형선
  6
Continuous
370
    15
100
AcDbLine
 10
-53.5
 20
13.4874
 30
0.0
 11
-53.5
 21
-15.87500000000003
 31
0.0
  0
LINE
  5
23D
330
1F
100
AcDbEntity
  8
외형선
  6
Continuous
370
    15
100
AcDbLine
 10
-54.50000000000003
 20
13.4874
 30
0.0
 11
-54.50000000000003
 21
-14.87499999999997
 31
0.0
  0
LINE
  5
23E
330
1F
100
AcDbEntity
  8
중심선
100
AcDbLine
 10
-61.50000000000003
 20
-0.0000000000000291
 30
0.0
 11
117.5501193291346
 21
0.0
 31
0.0
  0
CIRCLE
  5
23F
330
1F
100
AcDbEntity
  8
해칭선
100
AcDbCircle
 10
0.0
 20
0.0
 30
0.0
 40
2.999999999999995
  0
DIMENSION
  5
240
330
1F
100
AcDbEntity
  8
0
  6
Continuous
 62
     0
370
    15
100
AcDbDimension
  2
*D13
 10
-66.99999999999997
 20
-15.87500000000008
 30
0.0
 11
-67.00000000000003
 21
0.0
 31
0.0
 70
   160
  1
%%c<>
 71
     2
 42
31.75
 52
-270.0
  3
SLDDIMSTYLE3
100
AcDbAlignedDimension
 13
-53.5
 23
15.87499999999997
 33
0.0
 14
-53.5
 24
-15.87500000000003
 34
0.0
 50
90.0000000000002
100
AcDbRotatedDimension
1001
ACAD
1000
DSTYLE
1002
{
1070
   171
1070
     6
1070
   273
1070
     7
1002
}
  0
DIMENSION
  5
241
330
1F
100
AcDbEntity
  8
0
  6
Continuous
 62
     0
370
    15
100
AcDbDimension
  2
*D14
 10
-54.50000000000003
 20
45.58996586444053
 30
0.0
 11
31.04999999999995
 21
45.58996586444053
 31
0.0
 70
   160
  1
<>
 71
     2
 42
165.0501193291346
  3
SLDDIMSTYLE3
100
AcDbAlignedDimension
 13
110.5501193291346
 23
25.4
 33
0.0
 14
-54.50000000000003
 24
14.87499999999997
 34
0.0
 50
0.0000000000000025
100
AcDbRotatedDimension
1001
ACAD
1000
DSTYLE
1002
{
1070
   171
1070
     6
1070
   273
1070
     7
1002
}
  0
INSERT
  5
242
330
1F
100
AcDbEntity
  8
해칭선
100
AcDbBlockReference
  2
SW_DOWELSYMBOL_0
 10
0.0
 20
0.0
 30
0.0
  0
LINE
  5
2D4
330
1F
100
AcDbEntity
  8
외형선
  6
Continuous
370
    15
100
AcDbLine
 10
-39.41240000000013
 20
15.875
 30
0.0
 11
-34.46892500000004
 21
15.875
 31
0.0
  0
LINE
  5
2D5
330
1F
100
AcDbEntity
  8
외형선
  6
Continuous
370
    15
100
AcDbLine
 10
-32.08132500000002
 20
13.48739999999999
 30
0.0
 11
-18.97492500000001
 21
13.4874
 31
0.0
  0
LINE
  5
2D6
330
1F
100
AcDbEntity
  8
외형선
  6
Continuous
370
    15
100
AcDbLine
 10
-18.97492500000001
 20
13.48739999999999
 30
0.0
 11
-16.58732499999999
 21
15.87500000000001
 31
0.0
  0
LINE
  5
2D7
330
1F
100
AcDbEntity
  8
외형선
  6
Continuous
370
    15
100
AcDbLine
 10
-32.08132500000002
 20
13.48739999999999
 30
0.0
 11
-34.46892500000004
 21
15.87500000000001
 31
0.0
  0
LINE
  5
2D8
330
1F
100
AcDbEntity
  8
외형선
  6
Continuous
370
    15
100
AcDbLine
 10
-54.50000000000003
 20
13.4874
 30
0.0
 11
-41.80000000000004
 21
13.4874
 31
0.0
  0
LINE
  5
2D9
330
1F
100
AcDbEntity
  8
외형선
  6
Continuous
370
    15
100
AcDbLine
 10
-41.80000000000004
 20
13.48739999999999
 30
0.0
 11
-39.41240000000013
 21
15.87499999999999
 31
0.0
  0
LINE
  5
2DA
330
1F
100
AcDbEntity
  8
외형선
  6
Continuous
370
    15
100
AcDbLine
 10
-34.46892500000003
 20
15.875
 30
0.0
 11
-39.41240000000012
 21
15.875
 31
0.0
  0
ENDSEC
  0
SECTION
  2
OBJECTS
  0
DICTIONARY
  5
C
330
0
100
AcDbDictionary
281
     1
  3
ACAD_GROUP
350
D
  3
ACAD_IMAGE_VARS
350
13B
  3
ACAD_LAYOUT
350
1A
  3
ACAD_MLINESTYLE
350
17
  3
ACAD_PLOTSETTINGS
350
19
  3
ACAD_PLOTSTYLENAME
350
E
  3
ACAD_SCALELIST
350
47
  3
APPDATA
350
139
  3
DWGPROPS
350
2DB
  0
DICTIONARY
  5
1EC
330
2
100
AcDbDictionary
280
     1
281
     1
  3
ACAD_LAYERSTATES
360
1ED
  0
DICTIONARY
  5
D
102
{ACAD_REACTORS
330
C
102
}
330
C
100
AcDbDictionary
281
     1
  0
RASTERVARIABLES
  5
13B
102
{ACAD_REACTORS
330
C
102
}
330
C
100
AcDbRasterVariables
 90
        0
 70
     1
 71
     1
 72
     1
  0
DICTIONARY
  5
1A
102
{ACAD_REACTORS
330
C
102
}
330
C
100
AcDbDictionary
281
     1
  3
Layout1
350
1E
  3
Layout2
350
26
  3
Model
350
22
  0
DICTIONARY
  5
17
102
{ACAD_REACTORS
330
C
102
}
330
C
100
AcDbDictionary
281
     1
  3
Standard
350
18
  0
DICTIONARY
  5
19
102
{ACAD_REACTORS
330
C
102
}
330
C
100
AcDbDictionary
281
     1
  0
ACDBDICTIONARYWDFLT
  5
E
102
{ACAD_REACTORS
330
C
102
}
330
C
100
AcDbDictionary
281
     1
  3
Normal
350
F
100
AcDbDictionaryWithDefault
340
F
  0
DICTIONARY
  5
47
102
{ACAD_REACTORS
330
C
102
}
330
C
100
AcDbDictionary
281
     1
  3
A0
350
48
  3
A1
350
49
  3
A2
350
4A
  3
A3
350
4B
  3
A4
350
4C
  3
A5
350
4D
  3
A6
350
4E
  3
A7
350
4F
  3
A8
350
50
  3
A9
350
51
  3
B0
350
52
  3
B1
350
53
  3
B2
350
54
  3
B3
350
55
  3
B4
350
56
  3
B5
350
57
  3
B6
350
58
  3
B7
350
59
  3
B8
350
5A
  3
B9
350
5B
  3
C0
350
5C
  3
C1
350
5D
  3
C2
350
5E
  3
C3
350
5F
  3
C4
350
60
  3
C5
350
61
  3
C6
350
62
  3
C7
350
63
  3
C8
350
64
  3
C9
350
65
  3
D0
350
66
  3
D1
350
67
  3
D2
350
68
  0
DICTIONARY
  5
139
102
{ACAD_REACTORS
330
C
102
}
330
C
100
AcDbDictionary
281
     1
  0
XRECORD
  5
2DB
102
{ACAD_REACTORS
330
C
102
}
330
C
100
AcDbXrecord
280
     1
  1
DWGPROPS COOKIE
  2

  3

  4

  6

  7

  8
12016016
  9

300
=
301
=
302
=
303
=
304
=
305
=
306
=
307
=
308
=
309
=
 40
0.0
 41
2458311.198685359
 42
2458318.299412569
  1

 90
        0
  0
DICTIONARY
  5
1ED
102
{ACAD_REACTORS
330
1EC
102
}
330
1EC
100
AcDbDictionary
281
     1
  0
LAYOUT
  5
1E
102
{ACAD_REACTORS
330
1A
102
}
330
1A
100
AcDbPlotSettings
  1

  2
none_device
  4

  6

 40
0.0
 41
0.0
 42
0.0
 43
0.0
 44
0.0
 45
0.0
 46
0.0
 47
0.0
 48
0.0
 49
0.0
140
0.0
141
0.0
142
1.0
143
1.0
 70
   688
 72
     1
 73
     0
 74
     5
  7

 75
    16
147
1.0
148
0.0
149
0.0
100
AcDbLayout
  1
Layout1
 70
     1
 71
     1
 10
0.0
 20
0.0
 11
420.0
 21
297.0
 12
0.0
 22
0.0
 32
0.0
 14
1.000000000000000E+20
 24
1.000000000000000E+20
 34
1.000000000000000E+20
 15
-1.000000000000000E+20
 25
-1.000000000000000E+20
 35
-1.000000000000000E+20
146
0.0
 13
0.0
 23
0.0
 33
0.0
 16
1.0
 26
0.0
 36
0.0
 17
0.0
 27
1.0
 37
0.0
 76
     0
330
1B
  0
LAYOUT
  5
26
102
{ACAD_REACTORS
330
1A
102
}
330
1A
100
AcDbPlotSettings
  1

  2
none_device
  4

  6

 40
0.0
 41
0.0
 42
0.0
 43
0.0
 44
0.0
 45
0.0
 46
0.0
 47
0.0
 48
0.0
 49
0.0
140
0.0
141
0.0
142
1.0
143
1.0
 70
   688
 72
     1
 73
     0
 74
     5
  7

 75
    16
147
1.0
148
0.0
149
0.0
100
AcDbLayout
  1
Layout2
 70
     1
 71
     2
 10
0.0
 20
0.0
 11
0.0
 21
0.0
 12
0.0
 22
0.0
 32
0.0
 14
0.0
 24
0.0
 34
0.0
 15
0.0
 25
0.0
 35
0.0
146
0.0
 13
0.0
 23
0.0
 33
0.0
 16
1.0
 26
0.0
 36
0.0
 17
0.0
 27
1.0
 37
0.0
 76
     0
330
23
  0
LAYOUT
  5
22
102
{ACAD_REACTORS
330
1A
102
}
330
1A
100
AcDbPlotSettings
  1

  2
none_device
  4
ANSI_A_(11.00_x_8.50_Inches)
  6

 40
6.35
 41
19.05
 42
6.35000508
 43
19.05000254
 44
279.4
 45
215.9
 46
88.6644884731619
 47
63.84549393875642
 48
0.0
 49
0.0
140
0.0
141
0.0
142
0.0574775709070625
143
1.0
 70
  1696
 72
     0
 73
     0
 74
     0
  7

 75
     0
147
0.0235690232323232
148
0.0
149
0.0
100
AcDbLayout
  1
Model
 70
     1
 71
     0
 10
0.0
 20
0.0
 11
420.0
 21
297.0
 12
0.0
 22
0.0
 32
0.0
 14
1.000000000000000E+20
 24
1.000000000000000E+20
 34
1.000000000000000E+20
 15
-1.000000000000000E+20
 25
-1.000000000000000E+20
 35
-1.000000000000000E+20
146
0.0
 13
0.0
 23
0.0
 33
0.0
 16
1.0
 26
0.0
 36
0.0
 17
0.0
 27
1.0
 37
0.0
 76
     0
330
1F
331
29
  0
MLINESTYLE
  5
18
102
{ACAD_REACTORS
330
17
102
}
330
17
100
AcDbMlineStyle
  2
Standard
 70
     0
  3

 62
   256
 51
90.0
 52
90.0
 71
     2
 49
0.5
 62
   256
  6
BYLAYER
 49
-0.5
 62
   256
  6
BYLAYER
  0
ACDBPLACEHOLDER
  5
F
102
{ACAD_REACTORS
330
E
102
}
330
E
  0
SCALE
  5
48
102
{ACAD_REACTORS
330
47
102
}
330
47
100
AcDbScale
 70
     0
300
1:1
140
1.0
141
1.0
290
     1
  0
SCALE
  5
49
102
{ACAD_REACTORS
330
47
102
}
330
47
100
AcDbScale
 70
     0
300
1:2
140
1.0
141
2.0
290
     0
  0
SCALE
  5
4A
102
{ACAD_REACTORS
330
47
102
}
330
47
100
AcDbScale
 70
     0
300
1:4
140
1.0
141
4.0
290
     0
  0
SCALE
  5
4B
102
{ACAD_REACTORS
330
47
102
}
330
47
100
AcDbScale
 70
     0
300
1:5
140
1.0
141
5.0
290
     0
  0
SCALE
  5
4C
102
{ACAD_REACTORS
330
47
102
}
330
47
100
AcDbScale
 70
     0
300
1:8
140
1.0
141
8.0
290
     0
  0
SCALE
  5
4D
102
{ACAD_REACTORS
330
47
102
}
330
47
100
AcDbScale
 70
     0
300
1:10
140
1.0
141
10.0
290
     0
  0
SCALE
  5
4E
102
{ACAD_REACTORS
330
47
102
}
330
47
100
AcDbScale
 70
     0
300
1:16
140
1.0
141
16.0
290
     0
  0
SCALE
  5
4F
102
{ACAD_REACTORS
330
47
102
}
330
47
100
AcDbScale
 70
     0
300
1:20
140
1.0
141
20.0
290
     0
  0
SCALE
  5
50
102
{ACAD_REACTORS
330
47
102
}
330
47
100
AcDbScale
 70
     0
300
1:30
140
1.0
141
30.0
290
     0
  0
SCALE
  5
51
102
{ACAD_REACTORS
330
47
102
}
330
47
100
AcDbScale
 70
     0
300
1:40
140
1.0
141
40.0
290
     0
  0
SCALE
  5
52
102
{ACAD_REACTORS
330
47
102
}
330
47
100
AcDbScale
 70
     0
300
1:50
140
1.0
141
50.0
290
     0
  0
SCALE
  5
53
102
{ACAD_REACTORS
330
47
102
}
330
47
100
AcDbScale
 70
     0
300
1:100
140
1.0
141
100.0
290
     0
  0
SCALE
  5
54
102
{ACAD_REACTORS
330
47
102
}
330
47
100
AcDbScale
 70
     0
300
2:1
140
2.0
141
1.0
290
     0
  0
SCALE
  5
55
102
{ACAD_REACTORS
330
47
102
}
330
47
100
AcDbScale
 70
     0
300
4:1
140
4.0
141
1.0
290
     0
  0
SCALE
  5
56
102
{ACAD_REACTORS
330
47
102
}
330
47
100
AcDbScale
 70
     0
300
8:1
140
8.0
141
1.0
290
     0
  0
SCALE
  5
57
102
{ACAD_REACTORS
330
47
102
}
330
47
100
AcDbScale
 70
     0
300
10:1
140
10.0
141
1.0
290
     0
  0
SCALE
  5
58
102
{ACAD_REACTORS
330
47
102
}
330
47
100
AcDbScale
 70
     0
300
100:1
140
100.0
141
1.0
290
     0
  0
SCALE
  5
59
102
{ACAD_REACTORS
330
47
102
}
330
47
100
AcDbScale
 70
     0
300
1/128" = 1'-0"
140
0.0078125
141
12.0
290
     0
  0
SCALE
  5
5A
102
{ACAD_REACTORS
330
47
102
}
330
47
100
AcDbScale
 70
     0
300
1/64" = 1'-0"
140
0.015625
141
12.0
290
     0
  0
SCALE
  5
5B
102
{ACAD_REACTORS
330
47
102
}
330
47
100
AcDbScale
 70
     0
300
1/32" = 1'-0"
140
0.03125
141
12.0
290
     0
  0
SCALE
  5
5C
102
{ACAD_REACTORS
330
47
102
}
330
47
100
AcDbScale
 70
     0
300
1/16" = 1'-0"
140
0.0625
141
12.0
290
     0
  0
SCALE
  5
5D
102
{ACAD_REACTORS
330
47
102
}
330
47
100
AcDbScale
 70
     0
300
3/32" = 1'-0"
140
0.09375
141
12.0
290
     0
  0
SCALE
  5
5E
102
{ACAD_REACTORS
330
47
102
}
330
47
100
AcDbScale
 70
     0
300
1/8" = 1'-0"
140
0.125
141
12.0
290
     0
  0
SCALE
  5
5F
102
{ACAD_REACTORS
330
47
102
}
330
47
100
AcDbScale
 70
     0
300
3/16" = 1'-0"
140
0.1875
141
12.0
290
     0
  0
SCALE
  5
60
102
{ACAD_REACTORS
330
47
102
}
330
47
100
AcDbScale
 70
     0
300
1/4" = 1'-0"
140
0.25
141
12.0
290
     0
  0
SCALE
  5
61
102
{ACAD_REACTORS
330
47
102
}
330
47
100
AcDbScale
 70
     0
300
3/8" = 1'-0"
140
0.375
141
12.0
290
     0
  0
SCALE
  5
62
102
{ACAD_REACTORS
330
47
102
}
330
47
100
AcDbScale
 70
     0
300
1/2" = 1'-0"
140
0.5
141
12.0
290
     0
  0
SCALE
  5
63
102
{ACAD_REACTORS
330
47
102
}
330
47
100
AcDbScale
 70
     0
300
3/4" = 1'-0"
140
0.75
141
12.0
290
     0
  0
SCALE
  5
64
102
{ACAD_REACTORS
330
47
102
}
330
47
100
AcDbScale
 70
     0
300
1" = 1'-0"
140
1.0
141
12.0
290
     0
  0
SCALE
  5
65
102
{ACAD_REACTORS
330
47
102
}
330
47
100
AcDbScale
 70
     0
300
1-1/2" = 1'-0"
140
1.5
141
12.0
290
     0
  0
SCALE
  5
66
102
{ACAD_REACTORS
330
47
102
}
330
47
100
AcDbScale
 70
     0
300
3" = 1'-0"
140
3.0
141
12.0
290
     0
  0
SCALE
  5
67
102
{ACAD_REACTORS
330
47
102
}
330
47
100
AcDbScale
 70
     0
300
6" = 1'-0"
140
6.0
141
12.0
290
     0
  0
SCALE
  5
68
102
{ACAD_REACTORS
330
47
102
}
330
47
100
AcDbScale
 70
     0
300
1'-0" = 1'-0"
140
12.0
141
12.0
290
     0
  0
ENDSEC
  0
EOF
