  0
SECTION
  2
HEADER
  9
$ACADVER
  1
AC1015
  9
$ACADMAINTVER
 70
     6
  9
$DWGCODEPAGE
  3
ANSI_949
  9
$INSBASE
 10
0.0
 20
0.0
 30
0.0
  9
$EXTMIN
 10
1.000000000000000E+20
 20
1.000000000000000E+20
 30
1.000000000000000E+20
  9
$EXTMAX
 10
-1.000000000000000E+20
 20
-1.000000000000000E+20
 30
-1.000000000000000E+20
  9
$LIMMIN
 10
0.0
 20
0.0
  9
$LIMMAX
 10
420.0
 20
297.0
  9
$ORTHOMODE
 70
     1
  9
$REGENMODE
 70
     1
  9
$FILLMODE
 70
     1
  9
$QTEXTMODE
 70
     0
  9
$MIRRTEXT
 70
     1
  9
$LTSCALE
 40
1.0
  9
$ATTMODE
 70
     1
  9
$TEXTSIZE
 40
3.5
  9
$TRACEWID
 40
1.0
  9
$TEXTSTYLE
  7
Standard
  9
$CLAYER
  8
0
  9
$CELTYPE
  6
ByLayer
  9
$CECOLOR
 62
   256
  9
$CELTSCALE
 40
1.0
  9
$DISPSILH
 70
     0
  9
$DIMSCALE
 40
1.0
  9
$DIMASZ
 40
3.302
  9
$DIMEXO
 40
1.0
  9
$DIMDLI
 40
3.75
  9
$DIMRND
 40
0.0
  9
$DIMDLE
 40
0.0
  9
$DIMEXE
 40
1.0
  9
$DIMTP
 40
0.0
  9
$DIMTM
 40
0.0
  9
$DIMTXT
 40
3.5
  9
$DIMCEN
 40
2.5
  9
$DIMTSZ
 40
0.0
  9
$DIMTOL
 70
     0
  9
$DIMLIM
 70
     0
  9
$DIMTIH
 70
     1
  9
$DIMTOH
 70
     1
  9
$DIMSE1
 70
     0
  9
$DIMSE2
 70
     0
  9
$DIMTAD
 70
     1
  9
$DIMZIN
 70
     0
  9
$DIMBLK
  1

  9
$DIMASO
 70
     1
  9
$DIMSHO
 70
     1
  9
$DIMPOST
  1

  9
$DIMAPOST
  1

  9
$DIMALT
 70
     0
  9
$DIMALTD
 70
     3
  9
$DIMALTF
 40
0.0393700787401575
  9
$DIMLFAC
 40
1.0
  9
$DIMTOFL
 70
     1
  9
$DIMTVP
 40
0.0
  9
$DIMTIX
 70
     0
  9
$DIMSOXD
 70
     0
  9
$DIMSAH
 70
     0
  9
$DIMBLK1
  1

  9
$DIMBLK2
  1

  9
$DIMSTYLE
  2
ISO-25
  9
$DIMCLRD
 70
     0
  9
$DIMCLRE
 70
     0
  9
$DIMCLRT
 70
     0
  9
$DIMTFAC
 40
1.0
  9
$DIMGAP
 40
1.524
  9
$DIMJUST
 70
     0
  9
$DIMSD1
 70
     0
  9
$DIMSD2
 70
     0
  9
$DIMTOLJ
 70
     0
  9
$DIMTZIN
 70
     0
  9
$DIMALTZ
 70
     0
  9
$DIMALTTZ
 70
     0
  9
$DIMUPT
 70
     0
  9
$DIMDEC
 70
     2
  9
$DIMTDEC
 70
     2
  9
$DIMALTU
 70
     2
  9
$DIMALTTD
 70
     3
  9
$DIMTXSTY
  7
Standard
  9
$DIMAUNIT
 70
     0
  9
$DIMADEC
 70
     2
  9
$DIMALTRND
 40
0.0
  9
$DIMAZIN
 70
     0
  9
$DIMDSEP
 70
    44
  9
$DIMATFIT
 70
     3
  9
$DIMFRAC
 70
     0
  9
$DIMLDRBLK
  1

  9
$DIMLUNIT
 70
     2
  9
$DIMLWD
 70
    -2
  9
$DIMLWE
 70
    -2
  9
$DIMTMOVE
 70
     0
  9
$LUNITS
 70
     2
  9
$LUPREC
 70
     2
  9
$SKETCHINC
 40
1.0
  9
$FILLETRAD
 40
10.0
  9
$AUNITS
 70
     0
  9
$AUPREC
 70
     2
  9
$MENU
  1
.
  9
$ELEVATION
 40
0.0
  9
$PELEVATION
 40
0.0
  9
$THICKNESS
 40
0.0
  9
$LIMCHECK
 70
     0
  9
$CHAMFERA
 40
0.0
  9
$CHAMFERB
 40
0.0
  9
$CHAMFERC
 40
0.0
  9
$CHAMFERD
 40
0.0
  9
$SKPOLY
 70
     0
  9
$TDCREATE
 40
2458311.575167731
  9
$TDUCREATE
 40
2458311.200167731
  9
$TDUPDATE
 40
2458319.51222566
  9
$TDUUPDATE
 40
2458319.13722566
  9
$TDINDWG
 40
0.0025111343
  9
$TDUSRTIMER
 40
2458319.133915336
  9
$USRTIMER
 70
     1
  9
$ANGBASE
 50
0.0
  9
$ANGDIR
 70
     0
  9
$PDMODE
 70
     0
  9
$PDSIZE
 40
-1.0
  9
$PLINEWID
 40
0.0
  9
$SPLFRAME
 70
     0
  9
$SPLINETYPE
 70
     6
  9
$SPLINESEGS
 70
     8
  9
$HANDSEED
  5
28E
  9
$SURFTAB1
 70
     6
  9
$SURFTAB2
 70
     6
  9
$SURFTYPE
 70
     6
  9
$SURFU
 70
     6
  9
$SURFV
 70
     6
  9
$UCSBASE
  2

  9
$UCSNAME
  2

  9
$UCSORG
 10
0.0
 20
0.0
 30
0.0
  9
$UCSXDIR
 10
1.0
 20
0.0
 30
0.0
  9
$UCSYDIR
 10
0.0
 20
1.0
 30
0.0
  9
$UCSORTHOREF
  2

  9
$UCSORTHOVIEW
 70
     0
  9
$UCSORGTOP
 10
0.0
 20
0.0
 30
0.0
  9
$UCSORGBOTTOM
 10
0.0
 20
0.0
 30
0.0
  9
$UCSORGLEFT
 10
0.0
 20
0.0
 30
0.0
  9
$UCSORGRIGHT
 10
0.0
 20
0.0
 30
0.0
  9
$UCSORGFRONT
 10
0.0
 20
0.0
 30
0.0
  9
$UCSORGBACK
 10
0.0
 20
0.0
 30
0.0
  9
$PUCSBASE
  2

  9
$PUCSNAME
  2

  9
$PUCSORG
 10
0.0
 20
0.0
 30
0.0
  9
$PUCSXDIR
 10
1.0
 20
0.0
 30
0.0
  9
$PUCSYDIR
 10
0.0
 20
1.0
 30
0.0
  9
$PUCSORTHOREF
  2

  9
$PUCSORTHOVIEW
 70
     0
  9
$PUCSORGTOP
 10
0.0
 20
0.0
 30
0.0
  9
$PUCSORGBOTTOM
 10
0.0
 20
0.0
 30
0.0
  9
$PUCSORGLEFT
 10
0.0
 20
0.0
 30
0.0
  9
$PUCSORGRIGHT
 10
0.0
 20
0.0
 30
0.0
  9
$PUCSORGFRONT
 10
0.0
 20
0.0
 30
0.0
  9
$PUCSORGBACK
 10
0.0
 20
0.0
 30
0.0
  9
$USERI1
 70
     0
  9
$USERI2
 70
     0
  9
$USERI3
 70
     0
  9
$USERI4
 70
     0
  9
$USERI5
 70
     0
  9
$USERR1
 40
0.0
  9
$USERR2
 40
0.0
  9
$USERR3
 40
0.0
  9
$USERR4
 40
0.0
  9
$USERR5
 40
0.0
  9
$WORLDVIEW
 70
     1
  9
$SHADEDGE
 70
     3
  9
$SHADEDIF
 70
    70
  9
$TILEMODE
 70
     1
  9
$MAXACTVP
 70
    64
  9
$PINSBASE
 10
0.0
 20
0.0
 30
0.0
  9
$PLIMCHECK
 70
     0
  9
$PEXTMIN
 10
1.000000000000000E+20
 20
1.000000000000000E+20
 30
1.000000000000000E+20
  9
$PEXTMAX
 10
-1.000000000000000E+20
 20
-1.000000000000000E+20
 30
-1.000000000000000E+20
  9
$PLIMMIN
 10
0.0
 20
0.0
  9
$PLIMMAX
 10
0.0
 20
0.0
  9
$UNITMODE
 70
     0
  9
$VISRETAIN
 70
     1
  9
$PLINEGEN
 70
     0
  9
$PSLTSCALE
 70
     1
  9
$TREEDEPTH
 70
  3020
  9
$CMLSTYLE
  2
Standard
  9
$CMLJUST
 70
     0
  9
$CMLSCALE
 40
20.0
  9
$PROXYGRAPHICS
 70
     1
  9
$MEASUREMENT
 70
     1
  9
$CELWEIGHT
370
    -1
  9
$ENDCAPS
280
     0
  9
$JOINSTYLE
280
     0
  9
$LWDISPLAY
290
     1
  9
$INSUNITS
 70
     4
  9
$HYPERLINKBASE
  1

  9
$STYLESHEET
  1

  9
$XEDIT
290
     1
  9
$CEPSNTYPE
380
     0
  9
$PSTYLEMODE
290
     1
  9
$FINGERPRINTGUID
  2
{B758722F-55A8-49D7-85FC-6FBC09048C11}
  9
$VERSIONGUID
  2
{FAEB1C32-E019-11D5-929B-00C0DF256EC4}
  9
$EXTNAMES
290
     1
  9
$PSVPSCALE
 40
0.0
  9
$OLESTARTUP
290
     0
  0
ENDSEC
  0
SECTION
  2
CLASSES
  0
CLASS
  1
ACDBDICTIONARYWDFLT
  2
AcDbDictionaryWithDefault
  3
ObjectDBX Classes
 90
        0
280
     0
281
     0
  0
CLASS
  1
VISUALSTYLE
  2
AcDbVisualStyle
  3
ObjectDBX Classes
 90
     4095
280
     0
281
     0
  0
CLASS
  1
MATERIAL
  2
AcDbMaterial
  3
ObjectDBX Classes
 90
     1153
280
     0
281
     0
  0
CLASS
  1
SCALE
  2
AcDbScale
  3
ObjectDBX Classes
 90
     1153
280
     0
281
     0
  0
CLASS
  1
SUN
  2
AcDbSun
  3
SCENEOE
 90
     1153
280
     0
281
     0
  0
CLASS
  1
ACDBPLACEHOLDER
  2
AcDbPlaceHolder
  3
ObjectDBX Classes
 90
        0
280
     0
281
     0
  0
CLASS
  1
LAYOUT
  2
AcDbLayout
  3
ObjectDBX Classes
 90
        0
280
     0
281
     0
  0
CLASS
  1
TABLESTYLE
  2
AcDbTableStyle
  3
ObjectDBX Classes
 90
     4095
280
     0
281
     0
  0
CLASS
  1
MLEADERSTYLE
  2
AcDbMLeaderStyle
  3
ACDB_MLEADERSTYLE_CLASS
 90
     4095
280
     0
281
     0
  0
CLASS
  1
RASTERVARIABLES
  2
AcDbRasterVariables
  3
ISM
 90
        0
280
     0
281
     0
  0
ENDSEC
  0
SECTION
  2
TABLES
  0
TABLE
  2
VPORT
  5
8
330
0
100
AcDbSymbolTable
 70
     1
  0
VPORT
  5
29
330
8
100
AcDbSymbolTableRecord
100
AcDbViewportTableRecord
  2
*Active
 70
     0
 10
0.0
 20
0.0
 11
1.0
 21
1.0
 12
-16.80581026633579
 22
-22.90288217831981
 13
0.0
 23
0.0
 14
10.0
 24
10.0
 15
10.0
 25
10.0
 16
0.0
 26
0.0
 36
1.0
 17
0.0
 27
0.0
 37
0.0
 40
148.6880316343093
 41
1.632093933463796
 42
50.0
 43
0.0
 44
0.0
 50
0.0
 51
0.0
 71
    16
 72
  2000
 73
     1
 74
     3
 75
     0
 76
     0
 77
     0
 78
     0
281
     0
 65
     1
110
0.0
120
0.0
130
0.0
111
1.0
121
0.0
131
0.0
112
0.0
122
1.0
132
0.0
 79
     0
146
0.0
  0
ENDTAB
  0
TABLE
  2
LTYPE
  5
5
330
0
100
AcDbSymbolTable
 70
     6
  0
LTYPE
  5
14
330
5
100
AcDbSymbolTableRecord
100
AcDbLinetypeTableRecord
  2
ByBlock
 70
     0
  3

 72
    65
 73
     0
 40
0.0
  0
LTYPE
  5
15
330
5
100
AcDbSymbolTableRecord
100
AcDbLinetypeTableRecord
  2
ByLayer
 70
     0
  3

 72
    65
 73
     0
 40
0.0
  0
LTYPE
  5
16
330
5
100
AcDbSymbolTableRecord
100
AcDbLinetypeTableRecord
  2
Continuous
 70
     0
  3
Solid line
 72
    65
 73
     0
 40
0.0
  0
LTYPE
  5
6A
330
5
100
AcDbSymbolTableRecord
100
AcDbLinetypeTableRecord
  2
HIDDEN
 70
     0
  3
Hidden __ __ __ __ __ __ __ __ __ __ __ __ __ __
 72
    65
 73
     2
 40
1.905
 49
1.27
 74
     0
 49
-0.635
 74
     0
  0
LTYPE
  5
6B
330
5
100
AcDbSymbolTableRecord
100
AcDbLinetypeTableRecord
  2
PHANTOM
 70
     0
  3
Phantom ______  __  __  ______  __  __  ______
 72
    65
 73
     6
 40
12.7
 49
6.35
 74
     0
 49
-1.27
 74
     0
 49
1.27
 74
     0
 49
-1.27
 74
     0
 49
1.27
 74
     0
 49
-1.27
 74
     0
  0
LTYPE
  5
6C
330
5
100
AcDbSymbolTableRecord
100
AcDbLinetypeTableRecord
  2
CENTER
 70
     0
  3
Center ____ _ ____ _ ____ _ ____ _ ____ _ ____
 72
    65
 73
     4
 40
10.16
 49
6.35
 74
     0
 49
-1.27
 74
     0
 49
1.27
 74
     0
 49
-1.27
 74
     0
  0
LTYPE
  5
6D
330
5
100
AcDbSymbolTableRecord
100
AcDbLinetypeTableRecord
  2
CENTERX2
 70
     0
  3
Center (2x) ________  __  ________  __  _____
 72
    65
 73
     4
 40
20.32
 49
12.7
 74
     0
 49
-2.54
 74
     0
 49
2.54
 74
     0
 49
-2.54
 74
     0
  0
LTYPE
  5
6E
330
5
100
AcDbSymbolTableRecord
100
AcDbLinetypeTableRecord
  2
DOT2
 70
     0
  3
Dot (.5x) ........................................
 72
    65
 73
     2
 40
0.635
 49
0.0
 74
     0
 49
-0.635
 74
     0
  0
ENDTAB
  0
TABLE
  2
LAYER
  5
2
102
{ACAD_XDICTIONARY
360
1D7
102
}
330
0
100
AcDbSymbolTable
 70
    18
  0
LAYER
  5
10
330
2
100
AcDbSymbolTableRecord
100
AcDbLayerTableRecord
  2
0
 70
     0
 62
     7
  6
Continuous
370
    -3
390
F
  0
LAYER
  5
6F
330
2
100
AcDbSymbolTableRecord
100
AcDbLayerTableRecord
  2
FORMAT
 70
     0
 62
     2
  6
Continuous
370
    -3
390
F
  0
LAYER
  5
70
330
2
100
AcDbSymbolTableRecord
100
AcDbLayerTableRecord
  2
외형선
 70
     0
 62
     4
  6
Continuous
370
    30
390
F
  0
LAYER
  5
71
330
2
100
AcDbSymbolTableRecord
100
AcDbLayerTableRecord
  2
숨은선
 70
     0
 62
     2
  6
HIDDEN
370
    15
390
F
  0
LAYER
  5
72
330
2
100
AcDbSymbolTableRecord
100
AcDbLayerTableRecord
  2
중심선
 70
     0
 62
     1
  6
CENTERX2
370
    -3
390
F
  0
LAYER
  5
73
330
2
100
AcDbSymbolTableRecord
100
AcDbLayerTableRecord
  2
파단선
 70
     0
 62
     4
  6
Continuous
370
    -3
390
F
  0
LAYER
  5
74
330
2
100
AcDbSymbolTableRecord
100
AcDbLayerTableRecord
  2
해칭선
 70
     0
 62
   100
  6
Continuous
370
    -3
390
F
  0
LAYER
  5
75
330
2
100
AcDbSymbolTableRecord
100
AcDbLayerTableRecord
  2
가는실선
 70
     0
 62
     4
  6
Continuous
370
    -3
390
F
  0
LAYER
  5
76
330
2
100
AcDbSymbolTableRecord
100
AcDbLayerTableRecord
  2
치수_보조선
 70
     0
 62
     4
  6
Continuous
370
    -3
390
F
  0
LAYER
  5
77
330
2
100
AcDbSymbolTableRecord
100
AcDbLayerTableRecord
  2
치수문자_일반주서
 70
     0
 62
     7
  6
Continuous
370
    15
390
F
  0
LAYER
  5
78
330
2
100
AcDbSymbolTableRecord
100
AcDbLayerTableRecord
  2
개별주서
 70
     0
 62
   100
  6
Continuous
370
    30
390
F
  0
LAYER
  5
79
330
2
100
AcDbSymbolTableRecord
100
AcDbLayerTableRecord
  2
중간선
 70
     0
 62
     2
  6
Continuous
370
    15
390
F
  0
LAYER
  5
7A
330
2
100
AcDbSymbolTableRecord
100
AcDbLayerTableRecord
  2
윤곽선
 70
     0
 62
     3
  6
Continuous
370
    40
390
F
  0
LAYER
  5
7B
330
2
100
AcDbSymbolTableRecord
100
AcDbLayerTableRecord
  2
중심마크
 70
     0
 62
   100
  6
Continuous
370
    30
390
F
  0
LAYER
  5
7C
330
2
100
AcDbSymbolTableRecord
100
AcDbLayerTableRecord
  2
가상선
 70
     0
 62
     4
  6
PHANTOM
370
    -3
390
F
  0
LAYER
  5
7D
330
2
100
AcDbSymbolTableRecord
100
AcDbLayerTableRecord
  2
특수지정선
 70
     0
 62
     5
  6
CENTERX2
370
    60
390
F
  0
LAYER
  5
7E
330
2
100
AcDbSymbolTableRecord
100
AcDbLayerTableRecord
  2
참조1
 70
     0
 62
    -4
  6
Continuous
370
    -3
390
F
  0
LAYER
  5
13C
330
2
100
AcDbSymbolTableRecord
100
AcDbLayerTableRecord
  2
Defpoints
 70
     0
 62
     7
  6
Continuous
290
     0
370
    -3
390
F
  0
ENDTAB
  0
TABLE
  2
STYLE
  5
3
330
0
100
AcDbSymbolTable
 70
     2
  0
STYLE
  5
11
330
3
100
AcDbSymbolTableRecord
100
AcDbTextStyleTableRecord
  2
Standard
 70
     0
 40
0.0
 41
1.0
 50
0.0
 71
     0
 42
3.5
  3
txt
  4

  0
STYLE
  5
94
330
3
100
AcDbSymbolTableRecord
100
AcDbTextStyleTableRecord
  2
SLDTEXTSTYLE0
 70
     0
 40
0.0
 41
0.75
 50
0.0
 71
     0
 42
3.5
  3
TXT
  4

  0
ENDTAB
  0
TABLE
  2
VIEW
  5
6
330
0
100
AcDbSymbolTable
 70
     0
  0
ENDTAB
  0
TABLE
  2
UCS
  5
7
330
0
100
AcDbSymbolTable
 70
     0
  0
ENDTAB
  0
TABLE
  2
APPID
  5
9
330
0
100
AcDbSymbolTable
 70
     1
  0
APPID
  5
12
330
9
100
AcDbSymbolTableRecord
100
AcDbRegAppTableRecord
  2
ACAD
 70
     0
  0
ENDTAB
  0
TABLE
  2
DIMSTYLE
  5
A
330
0
100
AcDbSymbolTable
 70
     4
100
AcDbDimStyleTable
  0
DIMSTYLE
105
27
330
A
100
AcDbSymbolTableRecord
100
AcDbDimStyleTableRecord
  2
ISO-25
 70
     0
 41
2.5
 42
0.625
 43
3.75
 44
1.25
 73
     0
 74
     0
 77
     1
 78
     8
140
2.5
141
2.5
143
0.03937007874016
147
0.625
171
     3
172
     1
178
     0
271
     2
272
     2
274
     3
278
    44
283
     0
284
     8
340
11
  0
DIMSTYLE
105
BF
330
A
100
AcDbSymbolTableRecord
100
AcDbDimStyleTableRecord
  2
SLDDIMSTYLE0
 70
     0
 41
3.302
 44
0.0
 45
0.000000001
 73
     0
 74
     0
 77
     1
 78
     4
 79
     1
140
3.5
147
0.875
172
     1
173
     1
178
     0
271
     2
272
     2
276
     2
284
    12
289
     0
340
94
  0
DIMSTYLE
105
CD
102
{ACAD_REACTORS
330
CC
330
195
330
1A2
330
1B0
330
1BD
330
242
330
244
330
F6
102
}
330
A
100
AcDbSymbolTableRecord
100
AcDbDimStyleTableRecord
  2
SLDDIMSTYLE1
 70
     0
 41
3.302
 44
0.0
 45
0.000000001
 73
     0
 74
     0
 77
     1
 78
     4
 79
     1
140
3.5
143
0.0393700787401575
147
0.875
148
0.000000001
170
     1
172
     1
173
     1
178
     0
271
     2
272
     2
276
     2
284
    12
289
     0
340
94
  0
DIMSTYLE
105
E3
330
A
100
AcDbSymbolTableRecord
100
AcDbDimStyleTableRecord
  2
SLDDIMSTYLE2
 70
     0
 41
3.302
 44
0.0
 45
0.000000001
 73
     0
 74
     0
 77
     1
 78
     4
 79
     1
140
3.5
143
0.0393700787401575
147
0.875
148
0.000000001
170
     1
173
     1
178
     0
271
     2
272
     2
276
     2
284
    12
340
94
  0
ENDTAB
  0
TABLE
  2
BLOCK_RECORD
  5
1
330
0
100
AcDbSymbolTable
 70
    16
  0
BLOCK_RECORD
  5
1F
330
1
100
AcDbSymbolTableRecord
100
AcDbBlockTableRecord
  2
*Model_Space
340
22
  0
BLOCK_RECORD
  5
1B
330
1
100
AcDbSymbolTableRecord
100
AcDbBlockTableRecord
  2
*Paper_Space
340
1E
  0
BLOCK_RECORD
  5
23
330
1
100
AcDbSymbolTableRecord
100
AcDbBlockTableRecord
  2
*Paper_Space0
340
26
  0
BLOCK_RECORD
  5
7F
330
1
100
AcDbSymbolTableRecord
100
AcDbBlockTableRecord
  2
블럭10
340
0
102
{BLKREFS
331
B7
102
}
  0
BLOCK_RECORD
  5
C0
330
1
100
AcDbSymbolTableRecord
100
AcDbBlockTableRecord
  2
_D
340
0
  0
BLOCK_RECORD
  5
CE
330
1
100
AcDbSymbolTableRecord
100
AcDbBlockTableRecord
  2
_D_1
340
0
  0
BLOCK_RECORD
  5
E4
330
1
100
AcDbSymbolTableRecord
100
AcDbBlockTableRecord
  2
_D_2
340
0
  0
BLOCK_RECORD
  5
F7
330
1
100
AcDbSymbolTableRecord
100
AcDbBlockTableRecord
  2
_D_3
340
0
  0
BLOCK_RECORD
  5
110
330
1
100
AcDbSymbolTableRecord
100
AcDbBlockTableRecord
  2
SW_DOWELSYMBOL_0
340
0
102
{BLKREFS
331
0
331
1CB
331
246
102
}
  0
BLOCK_RECORD
  5
1DB
330
1
100
AcDbSymbolTableRecord
100
AcDbBlockTableRecord
  2
*D8
340
0
  0
BLOCK_RECORD
  5
1E7
330
1
100
AcDbSymbolTableRecord
100
AcDbBlockTableRecord
  2
*D9
340
0
  0
BLOCK_RECORD
  5
1F6
330
1
100
AcDbSymbolTableRecord
100
AcDbBlockTableRecord
  2
*D10
340
0
  0
BLOCK_RECORD
  5
202
330
1
100
AcDbSymbolTableRecord
100
AcDbBlockTableRecord
  2
*D11
340
0
  0
BLOCK_RECORD
  5
24C
330
1
100
AcDbSymbolTableRecord
100
AcDbBlockTableRecord
  2
*D12
340
0
  0
BLOCK_RECORD
  5
258
330
1
100
AcDbSymbolTableRecord
100
AcDbBlockTableRecord
  2
*D13
340
0
  0
BLOCK_RECORD
  5
267
330
1
100
AcDbSymbolTableRecord
100
AcDbBlockTableRecord
  2
*D14
340
0
  0
BLOCK_RECORD
  5
273
330
1
100
AcDbSymbolTableRecord
100
AcDbBlockTableRecord
  2
*D15
340
0
  0
ENDTAB
  0
ENDSEC
  0
SECTION
  2
BLOCKS
  0
BLOCK
  5
20
330
1F
100
AcDbEntity
  8
0
100
AcDbBlockBegin
  2
*Model_Space
 70
     0
 10
0.0
 20
0.0
 30
0.0
  3
*Model_Space
  1
*Model_Space
  0
ENDBLK
  5
21
330
1F
100
AcDbEntity
  8
0
100
AcDbBlockEnd
  0
BLOCK
  5
1C
330
1B
100
AcDbEntity
 67
     1
  8
0
100
AcDbBlockBegin
  2
*Paper_Space
 70
     0
 10
0.0
 20
0.0
 30
0.0
  3
*Paper_Space
  1
*Paper_Space
  0
ENDBLK
  5
1D
330
1B
100
AcDbEntity
 67
     1
  8
0
100
AcDbBlockEnd
  0
BLOCK
  5
24
330
23
100
AcDbEntity
  8
0
100
AcDbBlockBegin
  2
*Paper_Space0
 70
     0
 10
0.0
 20
0.0
 30
0.0
  3
*Paper_Space0
  1
*Paper_Space0
  0
ENDBLK
  5
25
330
23
100
AcDbEntity
  8
0
100
AcDbBlockEnd
  0
BLOCK
  5
80
330
7F
100
AcDbEntity
  8
0
100
AcDbBlockBegin
  2
블럭10
 70
     2
 10
0.0
 20
0.0
 30
0.0
  3
블럭10
  1
블럭10
  0
ELLIPSE
  5
82
330
7F
100
AcDbEntity
  8
중심선
100
AcDbEllipse
 10
20.54032771741204
 20
12.0471743016438
 30
0.0
 11
6.600054785286829
 21
-1.261213355974178E-13
 31
0.0
210
0.0
220
0.0
230
1.0
 40
0.636358354079598
 41
0.9219305317359503
 42
6.513795318482858
  0
ELLIPSE
  5
83
330
7F
100
AcDbEntity
  8
중심선
100
AcDbEllipse
 10
20.54032771746488
 20
12.04717430159265
 30
0.0
 11
3.960054785062283
 21
1.540847449632565E-10
 31
0.0
210
0.0
220
0.0
230
1.0
 40
0.3939339440162632
 41
1.131841032648279
 42
5.62031148352944
  0
LINE
  5
84
330
7F
100
AcDbEntity
  8
중심선
100
AcDbLine
 10
2.268634060543552
 20
16.24717430164393
 30
0.0
 11
5.714909304380834
 21
16.24717430164393
 31
0.0
  0
LINE
  5
85
330
7F
100
AcDbEntity
  8
중심선
100
AcDbLine
 10
5.245725140726316
 20
7.84717430164391
 30
0.0
 11
8.692000384563599
 21
7.84717430164391
 31
0.0
  0
LINE
  5
86
330
7F
100
AcDbEntity
  8
중심선
100
AcDbLine
 10
15.74043728645272
 20
16.24717430164393
 30
0.0
 11
8.692000384563599
 21
7.84717430164391
 31
0.0
  0
LINE
  5
87
330
7F
100
AcDbEntity
  8
중심선
100
AcDbLine
 10
0.1404042013395286
 20
13.71084872107135
 30
0.0
 11
3.58671253028996
 21
13.71088815037384
 31
0.0
  0
LINE
  5
88
330
7F
100
AcDbEntity
  8
중심선
100
AcDbLine
 10
2.750260043222114
 20
10.84717430164391
 30
0.0
 11
6.196535287059397
 21
10.84717430164391
 31
0.0
  0
LINE
  5
89
330
7F
100
AcDbEntity
  8
중심선
100
AcDbLine
 10
12.29416204261559
 20
16.24717430164393
 30
0.0
 11
5.245725140726316
 21
7.84717430164391
 31
0.0
  0
LINE
  5
8A
330
7F
100
AcDbEntity
  8
중심선
100
AcDbLine
 10
10.72767329541681
 20
16.24717430164393
 30
0.0
 11
6.196535287059397
 21
10.84717430164391
 31
0.0
  0
LINE
  5
8B
330
7F
100
AcDbEntity
  8
중심선
100
AcDbLine
 10
7.28139805157953
 20
16.24717430164393
 30
0.0
 11
2.750260043222114
 21
10.84717430164391
 31
0.0
  0
LINE
  5
8C
330
7F
100
AcDbEntity
  8
중심선
100
AcDbLine
 10
5.714909304380834
 20
16.24717430164393
 30
0.0
 11
3.58671253028996
 21
13.71088815037384
 31
0.0
  0
LINE
  5
8D
330
7F
100
AcDbEntity
  8
중심선
100
AcDbLine
 10
2.268634060543552
 20
16.24717430164393
 30
0.0
 11
0.1404042013395286
 21
13.71084872107135
 31
0.0
  0
LINE
  5
8E
330
7F
100
AcDbEntity
  8
중심선
100
AcDbLine
 10
7.28139805157953
 20
16.24717430164393
 30
0.0
 11
10.72767329541681
 21
16.24717430164393
 31
0.0
  0
LINE
  5
8F
330
7F
100
AcDbEntity
  8
중심선
100
AcDbLine
 10
12.29416204261559
 20
16.24717430164393
 30
0.0
 11
15.74043728645272
 21
16.24717430164393
 31
0.0
  0
LINE
  5
90
330
7F
100
AcDbEntity
  8
중심선
100
AcDbLine
 10
19.22036997980202
 20
11.08717430171403
 30
0.0
 11
23.66174974927406
 21
11.08717430171406
 31
0.0
  0
LINE
  5
91
330
7F
100
AcDbEntity
  8
중심선
100
AcDbLine
 10
19.22039502424796
 20
13.00717430171391
 30
0.0
 11
19.22036997980202
 21
11.08717430171403
 31
0.0
  0
LINE
  5
92
330
7F
100
AcDbEntity
  8
중심선
100
AcDbLine
 10
19.22039502424796
 20
13.00717430171391
 30
0.0
 11
26.96566020931264
 21
13.00717430171391
 31
0.0
  0
LINE
  5
93
330
7F
100
AcDbEntity
  8
중심선
100
AcDbLine
 10
22.22332737316547
 20
13.45928029700563
 30
0.0
 11
24.52862924686651
 21
15.39360700705356
 31
0.0
  0
ATTDEF
  5
95
330
7F
100
AcDbEntity
  8
FORMAT
 62
     2
100
AcDbText
 10
4.408487351596664
 20
2.075366912832191
 30
0.0
 40
4.233333333333333
  1
E1163028
 41
0.75
  7
SLDTEXTSTYLE0
 11
4.408487351596664
 21
-0.0412997538344756
 31
0.0
100
AcDbAttributeDefinition
  3

  2
AUTOATTR0
 70
     0
 74
     1
  0
ENDBLK
  5
81
330
7F
100
AcDbEntity
  8
0
100
AcDbBlockEnd
  0
BLOCK
  5
C1
330
C0
100
AcDbEntity
  8
0
100
AcDbBlockBegin
  2
_D
 70
     0
 10
0.0
 20
0.0
 30
0.0
  3
_D
  1
_D
  0
SOLID
  5
C3
330
C0
100
AcDbEntity
  8
치수문자_일반주서
100
AcDbTrace
 10
-59.5594211678731
 20
6.351074928723887
 30
0.0
 11
-59.05142116787309
 21
9.653074928723886
 31
0.0
 12
-60.0674211678731
 22
9.653074928723886
 32
0.0
 13
-60.0674211678731
 23
9.653074928723886
 33
0.0
  0
SOLID
  5
C4
330
C0
100
AcDbEntity
  8
치수문자_일반주서
100
AcDbTrace
 10
-59.5594211678731
 20
-6.348925071276102
 30
0.0
 11
-60.0674211678731
 21
-9.650925071276102
 31
0.0
 12
-59.05142116787309
 22
-9.650925071276102
 32
0.0
 13
-59.05142116787309
 23
-9.650925071276102
 33
0.0
  0
LINE
  5
C5
330
C0
100
AcDbEntity
  8
치수문자_일반주서
100
AcDbLine
 10
-47.05942116787307
 20
6.351074928723888
 30
0.0
 11
-60.5594211678731
 21
6.351074928723887
 31
0.0
  0
LINE
  5
C6
330
C0
100
AcDbEntity
  8
치수문자_일반주서
100
AcDbLine
 10
-47.05942116787307
 20
-6.348925071276101
 30
0.0
 11
-60.5594211678731
 21
-6.348925071276102
 31
0.0
  0
LINE
  5
C7
330
C0
100
AcDbEntity
  8
치수문자_일반주서
100
AcDbLine
 10
-59.5594211678731
 20
6.351074928723887
 30
0.0
 11
-59.5594211678731
 21
12.70107492872389
 31
0.0
  0
LINE
  5
C8
330
C0
100
AcDbEntity
  8
치수문자_일반주서
100
AcDbLine
 10
-59.5594211678731
 20
6.351074928723887
 30
0.0
 11
-59.5594211678731
 21
-6.348925071276102
 31
0.0
  0
LINE
  5
C9
330
C0
100
AcDbEntity
  8
치수문자_일반주서
100
AcDbLine
 10
-59.5594211678731
 20
-6.348925071276102
 30
0.0
 11
-59.5594211678731
 21
-12.6989250712761
 31
0.0
  0
MTEXT
  5
CA
330
C0
100
AcDbEntity
  8
치수문자_일반주서
100
AcDbMText
 10
-64.07115825707491
 20
-8.456894014097152
 30
0.0
 40
3.5
 41
0.0
 71
     1
 72
     1
  1
%%c
  7
SLDTEXTSTYLE0
 11
-7.044195017643634E-15
 21
1.0
 31
0.0
 73
     1
 44
1.0
  0
MTEXT
  5
CB
330
C0
100
AcDbEntity
  8
치수문자_일반주서
100
AcDbMText
 10
-64.1246304337348
 20
-3.178456615723071
 30
0.0
 40
3.5
 41
0.0
 71
     1
 72
     1
  1
12.70
  7
SLDTEXTSTYLE0
 11
-7.044195017643634E-15
 21
1.0
 31
0.0
 73
     1
 44
1.0
  0
ENDBLK
  5
C2
330
C0
100
AcDbEntity
  8
0
100
AcDbBlockEnd
  0
BLOCK
  5
CF
330
CE
100
AcDbEntity
  8
0
100
AcDbBlockBegin
  2
_D_1
 70
     0
 10
0.0
 20
0.0
 30
0.0
  3
_D_1
  1
_D_1
  0
LINE
  5
D1
330
CE
100
AcDbEntity
  8
치수문자_일반주서
 62
     0
370
    -2
100
AcDbLine
 10
22.63749999999999
 20
5.61875
 30
0.0
 11
22.63749999999999
 21
16.54290286035538
 31
0.0
  0
LINE
  5
D2
330
CE
100
AcDbEntity
  8
치수문자_일반주서
 62
     0
370
    -2
100
AcDbLine
 10
1.999999999999997
 20
5.535349324069391
 30
0.0
 11
1.999999999999998
 21
16.54290286035538
 31
0.0
  0
LINE
  5
D3
330
CE
100
AcDbEntity
  8
치수문자_일반주서
 62
     0
370
    -2
100
AcDbLine
 10
19.33549999999999
 20
16.54290286035538
 30
0.0
 11
5.301999999999998
 21
16.54290286035538
 31
0.0
  0
SOLID
  5
D4
330
CE
100
AcDbEntity
  8
치수문자_일반주서
 62
     0
100
AcDbTrace
 10
19.33549999999999
 20
15.99256952702205
 30
0.0
 11
19.33549999999999
 21
17.09323619368871
 31
0.0
 12
22.63749999999999
 22
16.54290286035538
 32
0.0
 13
22.63749999999999
 23
16.54290286035538
 33
0.0
  0
SOLID
  5
D5
330
CE
100
AcDbEntity
  8
치수문자_일반주서
 62
     0
100
AcDbTrace
 10
5.301999999999998
 20
17.09323619368871
 30
0.0
 11
5.301999999999998
 21
15.99256952702205
 31
0.0
 12
1.999999999999998
 22
16.54290286035538
 32
0.0
 13
1.999999999999998
 23
16.54290286035538
 33
0.0
  0
MTEXT
  5
D6
330
CE
100
AcDbEntity
  8
치수문자_일반주서
 62
     0
100
AcDbMText
 10
14.7
 20
20.91790286035538
 30
0.0
 40
3.5
 41
0.0
 71
     2
 72
     1
  1
\A1;20.64 [13/16]
  7
SLDTEXTSTYLE0
 73
     1
 44
1.0
  0
POINT
  5
D7
330
CE
100
AcDbEntity
  8
Defpoints
 62
     0
100
AcDbPoint
 10
22.63749999999999
 20
5.55625
 30
0.0
  0
POINT
  5
D8
330
CE
100
AcDbEntity
  8
Defpoints
 62
     0
100
AcDbPoint
 10
1.999999999999997
 20
5.472849324069391
 30
0.0
  0
POINT
  5
D9
330
CE
100
AcDbEntity
  8
Defpoints
 62
     0
100
AcDbPoint
 10
1.999999999999997
 20
16.54290286035538
 30
0.0
  0
ENDBLK
  5
D0
330
CE
100
AcDbEntity
  8
0
100
AcDbBlockEnd
  0
BLOCK
  5
E5
330
E4
100
AcDbEntity
  8
0
100
AcDbBlockBegin
  2
_D_2
 70
     0
 10
0.0
 20
0.0
 30
0.0
  3
_D_2
  1
_D_2
  0
LINE
  5
E7
330
E4
100
AcDbEntity
  8
0
  6
Continuous
 62
     0
370
    -2
100
AcDbLine
 10
24.44057883212693
 20
5.6151288708436
 30
0.0
 11
24.44057883212694
 21
30.3105321911699
 31
0.0
  0
LINE
  5
E8
330
E4
100
AcDbEntity
  8
0
  6
Continuous
 62
     0
370
    -2
100
AcDbLine
 10
-47.05942116787307
 20
5.413574928723888
 30
0.0
 11
-47.05942116787308
 21
30.3105321911699
 31
0.0
  0
LINE
  5
E9
330
E4
100
AcDbEntity
  8
0
  6
Continuous
 62
     0
370
    -2
100
AcDbLine
 10
21.13857883212694
 20
30.3105321911699
 30
0.0
 11
-43.75742116787308
 21
30.3105321911699
 31
0.0
  0
SOLID
  5
EA
330
E4
100
AcDbEntity
  8
0
 62
     0
100
AcDbTrace
 10
21.13857883212694
 20
29.76019885783656
 30
0.0
 11
21.13857883212694
 21
30.86086552450323
 31
0.0
 12
24.44057883212694
 22
30.3105321911699
 32
0.0
 13
24.44057883212694
 23
30.3105321911699
 33
0.0
  0
SOLID
  5
EB
330
E4
100
AcDbEntity
  8
0
 62
     0
100
AcDbTrace
 10
-43.75742116787308
 20
30.86086552450323
 30
0.0
 11
-43.75742116787308
 21
29.76019885783656
 31
0.0
 12
-47.05942116787308
 22
30.3105321911699
 32
0.0
 13
-47.05942116787308
 23
30.3105321911699
 33
0.0
  0
MTEXT
  5
EC
330
E4
100
AcDbEntity
  8
0
 62
     0
370
    15
100
AcDbMText
 10
-8.959421167873067
 20
34.6855321911699
 30
0.0
 40
3.5
 41
0.0
 71
     2
 72
     1
  1
\A1;71.50 [2.81]
  7
SLDTEXTSTYLE0
 73
     1
 44
1.0
  0
POINT
  5
ED
330
E4
100
AcDbEntity
  8
Defpoints
 62
     0
100
AcDbPoint
 10
24.44057883212693
 20
5.5526288708436
 30
0.0
  0
POINT
  5
EE
330
E4
100
AcDbEntity
  8
Defpoints
 62
     0
100
AcDbPoint
 10
-47.05942116787307
 20
5.351074928723888
 30
0.0
  0
POINT
  5
EF
330
E4
100
AcDbEntity
  8
Defpoints
 62
     0
100
AcDbPoint
 10
-47.05942116787307
 20
30.3105321911699
 30
0.0
  0
ENDBLK
  5
E6
330
E4
100
AcDbEntity
  8
0
100
AcDbBlockEnd
  0
BLOCK
  5
F8
330
F7
100
AcDbEntity
  8
0
100
AcDbBlockBegin
  2
_D_3
 70
     0
 10
0.0
 20
0.0
 30
0.0
  3
_D_3
  1
_D_3
  0
LINE
  5
FA
330
F7
100
AcDbEntity
  8
치수문자_일반주서
 62
     0
370
    -2
100
AcDbLine
 10
22.69999999999999
 20
-5.55625
 30
0.0
 11
41.63750000000007
 21
-5.556249999999928
 31
0.0
  0
LINE
  5
FB
330
F7
100
AcDbEntity
  8
치수문자_일반주서
 62
     0
370
    -2
100
AcDbLine
 10
22.69999999999999
 20
5.556250000000002
 30
0.0
 11
41.63750000000003
 21
5.556250000000073
 31
0.0
  0
LINE
  5
FC
330
F7
100
AcDbEntity
  8
치수문자_일반주서
 62
     0
370
    -2
100
AcDbLine
 10
41.63750000000003
 20
5.556250000000073
 30
0.0
 11
41.63749999999992
 21
39.49930394211977
 31
0.0
  0
LINE
  5
FD
330
F7
100
AcDbEntity
  8
치수문자_일반주서
 62
     0
370
    -2
100
AcDbLine
 10
41.63750000000007
 20
-5.556249999999928
 30
0.0
 11
41.63750000000003
 21
5.556250000000073
 31
0.0
  0
LINE
  5
FE
330
F7
100
AcDbEntity
  8
치수문자_일반주서
 62
     0
370
    -2
100
AcDbLine
 10
41.63750000000007
 20
-8.858249999999927
 30
0.0
 11
41.63750000000008
 21
-12.16024999999993
 31
0.0
  0
LINE
  5
FF
330
F7
100
AcDbEntity
  8
치수문자_일반주서
 62
     0
370
    -2
100
AcDbLine
 10
41.63750000000002
 20
8.858250000000073
 30
0.0
 11
41.63750000000002
 21
12.16025000000007
 31
0.0
  0
SOLID
  5
100
330
F7
100
AcDbEntity
  8
치수문자_일반주서
 62
     0
100
AcDbTrace
 10
42.18783333333341
 20
-8.858249999999925
 30
0.0
 11
41.08716666666674
 21
-8.858249999999929
 31
0.0
 12
41.63750000000007
 22
-5.556249999999928
 32
0.0
 13
41.63750000000007
 23
-5.556249999999928
 33
0.0
  0
SOLID
  5
101
330
F7
100
AcDbEntity
  8
치수문자_일반주서
 62
     0
100
AcDbTrace
 10
41.08716666666669
 20
8.858250000000071
 30
0.0
 11
42.18783333333336
 21
8.858250000000075
 31
0.0
 12
41.63750000000003
 22
5.556250000000073
 32
0.0
 13
41.63750000000003
 23
5.556250000000073
 33
0.0
  0
MTEXT
  5
102
330
F7
100
AcDbEntity
  8
치수문자_일반주서
 62
     0
100
AcDbMText
 10
37.26249999999997
 20
25.93680394211975
 30
0.0
 40
3.5
 41
0.0
 71
     2
 72
     1
  1
\A1;%%c11.11 [7/16]
  7
SLDTEXTSTYLE0
 11
-3.197042680585377E-15
 21
1.0
 31
0.0
 73
     1
 44
1.0
  0
POINT
  5
103
330
F7
100
AcDbEntity
  8
Defpoints
 62
     0
100
AcDbPoint
 10
22.63749999999999
 20
-5.55625
 30
0.0
  0
POINT
  5
285
330
F7
100
AcDbEntity
  8
Defpoints
 62
     0
100
AcDbPoint
 10
22.63749999999999
 20
5.556250000000002
 30
0.0
  0
POINT
  5
286
330
F7
100
AcDbEntity
  8
Defpoints
 62
     0
100
AcDbPoint
 10
41.63750000000003
 20
5.556250000000073
 30
0.0
  0
ENDBLK
  5
F9
330
F7
100
AcDbEntity
  8
0
100
AcDbBlockEnd
  0
BLOCK
  5
111
330
110
100
AcDbEntity
  8
0
100
AcDbBlockBegin
  2
SW_DOWELSYMBOL_0
 70
     0
 10
0.0
 20
0.0
 30
0.0
  3
SW_DOWELSYMBOL_0
  1
SW_DOWELSYMBOL_0
  0
CIRCLE
  5
113
330
110
100
AcDbEntity
  8
해칭선
 62
     0
100
AcDbCircle
 10
0.0
 20
0.0
 30
0.0
 40
3.000000000000001
  0
HATCH
  5
114
330
110
100
AcDbEntity
  8
0
  6
Continuous
 62
     0
370
     0
100
AcDbHatch
 10
0.0
 20
0.0
 30
0.0
210
0.0
220
0.0
230
1.0
  2
SOLID
 70
     1
 71
     0
 91
        1
 92
        0
 93
        3
 72
     2
 10
0.0
 20
0.0
 40
3.000000000000001
 50
0.0
 51
90.0
 73
     1
 72
     1
 10
0.0
 20
3.000000000000001
 11
0.0
 21
0.0
 72
     1
 10
0.0
 20
0.0
 11
3.000000000000001
 21
0.0
 97
        0
 75
     0
 76
     1
 98
        1
 10
0.0
 20
0.0
  0
HATCH
  5
115
330
110
100
AcDbEntity
  8
0
  6
Continuous
 62
     0
370
     0
100
AcDbHatch
 10
0.0
 20
0.0
 30
0.0
210
0.0
220
0.0
230
1.0
  2
SOLID
 70
     1
 71
     0
 91
        1
 92
        0
 93
        3
 72
     2
 10
0.0
 20
0.0
 40
3.000000000000001
 50
180.0
 51
270.0000000000008
 73
     1
 72
     1
 10
0.0
 20
-3.000000000000001
 11
0.0
 21
0.0
 72
     1
 10
0.0
 20
0.0
 11
-3.000000000000001
 21
0.0
 97
        0
 75
     0
 76
     1
 98
        1
 10
0.0
 20
0.0
  0
ENDBLK
  5
112
330
110
100
AcDbEntity
  8
0
100
AcDbBlockEnd
  0
BLOCK
  5
1DC
330
1DB
100
AcDbEntity
  8
0
100
AcDbBlockBegin
  2
*D8
 70
     1
 10
0.0
 20
0.0
 30
0.0
  3
*D8
  1
*D8
  0
LINE
  5
1DE
330
1DB
100
AcDbEntity
  8
치수문자_일반주서
 62
     0
370
    -2
100
AcDbLine
 10
17.81250000000006
 20
17.01250000000001
 30
0.0
 11
4.375000000000027
 21
17.01249999999996
 31
0.0
  0
LINE
  5
1DF
330
1DB
100
AcDbEntity
  8
치수문자_일반주서
 62
     0
370
    -2
100
AcDbLine
 10
17.81250000000006
 20
7.487500000000003
 30
0.0
 11
4.37500000000006
 21
7.487499999999954
 31
0.0
  0
LINE
  5
1E0
330
1DB
100
AcDbEntity
  8
치수문자_일반주서
 62
     0
370
    -2
100
AcDbLine
 10
4.375000000000038
 20
13.71049999999996
 30
0.0
 11
4.375000000000048
 21
10.78949999999995
 31
0.0
  0
SOLID
  5
1E1
330
1DB
100
AcDbEntity
  8
치수문자_일반주서
 62
     0
100
AcDbTrace
 10
4.925333333333372
 20
13.71049999999996
 30
0.0
 11
3.824666666666705
 21
13.71049999999996
 31
0.0
 12
4.375000000000027
 22
17.01249999999996
 32
0.0
 13
4.375000000000027
 23
17.01249999999996
 33
0.0
  0
SOLID
  5
1E2
330
1DB
100
AcDbEntity
  8
치수문자_일반주서
 62
     0
100
AcDbTrace
 10
3.824666666666715
 20
10.78949999999995
 30
0.0
 11
4.925333333333382
 21
10.78949999999996
 31
0.0
 12
4.37500000000006
 22
7.487499999999954
 32
0.0
 13
4.37500000000006
 23
7.487499999999954
 33
0.0
  0
MTEXT
  5
1E3
330
1DB
100
AcDbEntity
  8
치수문자_일반주서
 62
     0
100
AcDbMText
 10
0.0000000000000426
 20
12.25
 30
0.0
 40
3.5
 41
0.0
 71
     2
 72
     1
  1
\A1;%%c9.53 [3/8]
  7
SLDTEXTSTYLE0
 11
-3.450141892798384E-15
 21
1.0
 31
0.0
 73
     1
 44
1.0
  0
POINT
  5
1E4
330
1DB
100
AcDbEntity
  8
Defpoints
 62
     0
100
AcDbPoint
 10
17.87500000000006
 20
17.01250000000001
 30
0.0
  0
POINT
  5
1E5
330
1DB
100
AcDbEntity
  8
Defpoints
 62
     0
100
AcDbPoint
 10
17.87500000000006
 20
7.487500000000003
 30
0.0
  0
POINT
  5
1E6
330
1DB
100
AcDbEntity
  8
Defpoints
 62
     0
100
AcDbPoint
 10
4.375000000000064
 20
7.487499999999953
 30
0.0
  0
ENDBLK
  5
1DD
330
1DB
100
AcDbEntity
  8
0
100
AcDbBlockEnd
  0
BLOCK
  5
1E8
330
1E7
100
AcDbEntity
  8
0
100
AcDbBlockBegin
  2
*D9
 70
     1
 10
0.0
 20
0.0
 30
0.0
  3
*D9
  1
*D9
  0
LINE
  5
1EA
330
1E7
100
AcDbEntity
  8
치수문자_일반주서
 62
     0
370
    -2
100
AcDbLine
 10
75.61250000000004
 20
17.07500000000001
 30
0.0
 11
75.61250000000004
 21
32.08580267350813
 31
0.0
  0
LINE
  5
1EB
330
1E7
100
AcDbEntity
  8
치수문자_일반주서
 62
     0
370
    -2
100
AcDbLine
 10
61.32500000000005
 20
16.078505315526
 30
0.0
 11
61.32500000000005
 21
32.08580267350813
 31
0.0
  0
LINE
  5
1EC
330
1E7
100
AcDbEntity
  8
치수문자_일반주서
 62
     0
370
    -2
100
AcDbLine
 10
61.32500000000005
 20
32.08580267350813
 30
0.0
 11
27.59600000000005
 21
32.08580267350813
 31
0.0
  0
LINE
  5
1ED
330
1E7
100
AcDbEntity
  8
치수문자_일반주서
 62
     0
370
    -2
100
AcDbLine
 10
75.61250000000004
 20
32.08580267350813
 30
0.0
 11
61.32500000000005
 21
32.08580267350813
 31
0.0
  0
LINE
  5
1EE
330
1E7
100
AcDbEntity
  8
치수문자_일반주서
 62
     0
370
    -2
100
AcDbLine
 10
78.91450000000003
 20
32.08580267350813
 30
0.0
 11
82.21650000000002
 21
32.08580267350813
 31
0.0
  0
LINE
  5
1EF
330
1E7
100
AcDbEntity
  8
치수문자_일반주서
 62
     0
370
    -2
100
AcDbLine
 10
58.02300000000005
 20
32.08580267350813
 30
0.0
 11
54.72100000000005
 21
32.08580267350813
 31
0.0
  0
SOLID
  5
1F0
330
1E7
100
AcDbEntity
  8
치수문자_일반주서
 62
     0
100
AcDbTrace
 10
78.91450000000003
 20
32.63613600684147
 30
0.0
 11
78.91450000000003
 21
31.5354693401748
 31
0.0
 12
75.61250000000004
 22
32.08580267350813
 32
0.0
 13
75.61250000000004
 23
32.08580267350813
 33
0.0
  0
SOLID
  5
1F1
330
1E7
100
AcDbEntity
  8
치수문자_일반주서
 62
     0
100
AcDbTrace
 10
58.02300000000005
 20
31.5354693401748
 30
0.0
 11
58.02300000000005
 21
32.63613600684147
 31
0.0
 12
61.32500000000005
 22
32.08580267350813
 32
0.0
 13
61.32500000000005
 23
32.08580267350813
 33
0.0
  0
MTEXT
  5
1F2
330
1E7
100
AcDbEntity
  8
치수문자_일반주서
 62
     0
100
AcDbMText
 10
41.15850000000005
 20
36.46080267350813
 30
0.0
 40
3.5
 41
0.0
 71
     2
 72
     1
  1
\A1;14.29 [9/16]
  7
SLDTEXTSTYLE0
 73
     1
 44
1.0
  0
POINT
  5
1F3
330
1E7
100
AcDbEntity
  8
Defpoints
 62
     0
100
AcDbPoint
 10
75.61250000000004
 20
17.01250000000001
 30
0.0
  0
POINT
  5
1F4
330
1E7
100
AcDbEntity
  8
Defpoints
 62
     0
100
AcDbPoint
 10
61.32500000000005
 20
16.016005315526
 30
0.0
  0
POINT
  5
1F5
330
1E7
100
AcDbEntity
  8
Defpoints
 62
     0
100
AcDbPoint
 10
61.32500000000005
 20
32.08580267350813
 30
0.0
  0
ENDBLK
  5
1E9
330
1E7
100
AcDbEntity
  8
0
100
AcDbBlockEnd
  0
BLOCK
  5
1F7
330
1F6
100
AcDbEntity
  8
0
100
AcDbBlockBegin
  2
*D10
 70
     1
 10
0.0
 20
0.0
 30
0.0
  3
*D10
  1
*D10
  0
LINE
  5
1F9
330
1F6
100
AcDbEntity
  8
치수문자_일반주서
 62
     0
370
    -2
100
AcDbLine
 10
75.61250000000004
 20
17.07500000000001
 30
0.0
 11
75.61250000000004
 21
47.29486045510103
 31
0.0
  0
LINE
  5
1FA
330
1F6
100
AcDbEntity
  8
치수문자_일반주서
 62
     0
370
    -2
100
AcDbLine
 10
16.87500000000005
 20
16.075
 30
0.0
 11
16.87500000000005
 21
47.29486045510103
 31
0.0
  0
LINE
  5
1FB
330
1F6
100
AcDbEntity
  8
치수문자_일반주서
 62
     0
370
    -2
100
AcDbLine
 10
72.31050000000005
 20
47.29486045510103
 30
0.0
 11
20.17700000000005
 21
47.29486045510103
 31
0.0
  0
SOLID
  5
1FC
330
1F6
100
AcDbEntity
  8
치수문자_일반주서
 62
     0
100
AcDbTrace
 10
72.31050000000005
 20
46.7445271217677
 30
0.0
 11
72.31050000000005
 21
47.84519378843436
 31
0.0
 12
75.61250000000004
 22
47.29486045510103
 32
0.0
 13
75.61250000000004
 23
47.29486045510103
 33
0.0
  0
SOLID
  5
1FD
330
1F6
100
AcDbEntity
  8
치수문자_일반주서
 62
     0
100
AcDbTrace
 10
20.17700000000005
 20
47.84519378843436
 30
0.0
 11
20.17700000000005
 21
46.7445271217677
 31
0.0
 12
16.87500000000005
 22
47.29486045510103
 32
0.0
 13
16.87500000000005
 23
47.29486045510103
 33
0.0
  0
MTEXT
  5
1FE
330
1F6
100
AcDbEntity
  8
치수문자_일반주서
 62
     0
100
AcDbMText
 10
46.24375000000001
 20
51.66986045510103
 30
0.0
 40
3.5
 41
0.0
 71
     2
 72
     1
  1
\A1;58.74 [2 5/16]
  7
SLDTEXTSTYLE0
 73
     1
 44
1.0
  0
POINT
  5
1FF
330
1F6
100
AcDbEntity
  8
Defpoints
 62
     0
100
AcDbPoint
 10
75.61250000000004
 20
17.01250000000001
 30
0.0
  0
POINT
  5
200
330
1F6
100
AcDbEntity
  8
Defpoints
 62
     0
100
AcDbPoint
 10
16.87500000000005
 20
16.0125
 30
0.0
  0
POINT
  5
201
330
1F6
100
AcDbEntity
  8
Defpoints
 62
     0
100
AcDbPoint
 10
16.87500000000005
 20
47.29486045510103
 30
0.0
  0
ENDBLK
  5
1F8
330
1F6
100
AcDbEntity
  8
0
100
AcDbBlockEnd
  0
BLOCK
  5
203
330
202
100
AcDbEntity
  8
0
100
AcDbBlockBegin
  2
*D11
 70
     1
 10
0.0
 20
0.0
 30
0.0
  3
*D11
  1
*D11
  0
LINE
  5
205
330
202
100
AcDbEntity
  8
치수문자_일반주서
 62
     0
370
    -2
100
AcDbLine
 10
75.67500000000004
 20
7.487500000000009
 30
0.0
 11
91.63098300729308
 21
7.487500000000068
 31
0.0
  0
LINE
  5
206
330
202
100
AcDbEntity
  8
치수문자_일반주서
 62
     0
370
    -2
100
AcDbLine
 10
75.67500000000004
 20
17.01250000000001
 30
0.0
 11
91.63098300729305
 21
17.01250000000007
 31
0.0
  0
LINE
  5
207
330
202
100
AcDbEntity
  8
치수문자_일반주서
 62
     0
370
    -2
100
AcDbLine
 10
91.63098300729305
 20
17.01250000000007
 30
0.0
 11
91.63098300729294
 21
49.86650000000007
 31
0.0
  0
LINE
  5
208
330
202
100
AcDbEntity
  8
치수문자_일반주서
 62
     0
370
    -2
100
AcDbLine
 10
91.63098300729308
 20
7.487500000000068
 30
0.0
 11
91.63098300729305
 21
17.01250000000007
 31
0.0
  0
LINE
  5
209
330
202
100
AcDbEntity
  8
치수문자_일반주서
 62
     0
370
    -2
100
AcDbLine
 10
91.6309830072931
 20
4.185500000000069
 30
0.0
 11
91.63098300729311
 21
0.883500000000069
 31
0.0
  0
LINE
  5
20A
330
202
100
AcDbEntity
  8
치수문자_일반주서
 62
     0
370
    -2
100
AcDbLine
 10
91.63098300729304
 20
20.31450000000007
 30
0.0
 11
91.63098300729303
 21
23.61650000000007
 31
0.0
  0
SOLID
  5
20B
330
202
100
AcDbEntity
  8
치수문자_일반주서
 62
     0
100
AcDbTrace
 10
92.18131634062642
 20
4.18550000000007
 30
0.0
 11
91.08064967395977
 21
4.185500000000067
 31
0.0
 12
91.63098300729308
 22
7.487500000000068
 32
0.0
 13
91.63098300729308
 23
7.487500000000068
 33
0.0
  0
SOLID
  5
20C
330
202
100
AcDbEntity
  8
치수문자_일반주서
 62
     0
100
AcDbTrace
 10
91.08064967395971
 20
20.31450000000007
 30
0.0
 11
92.18131634062637
 21
20.31450000000007
 31
0.0
 12
91.63098300729305
 22
17.01250000000007
 32
0.0
 13
91.63098300729305
 23
17.01250000000007
 33
0.0
  0
MTEXT
  5
20D
330
202
100
AcDbEntity
  8
치수문자_일반주서
 62
     0
100
AcDbMText
 10
87.25598300729298
 20
36.74150000000005
 30
0.0
 40
3.5
 41
0.0
 71
     2
 72
     1
  1
\A1;%%c9.53 [3/8]
  7
SLDTEXTSTYLE0
 11
-2.983906501879686E-15
 21
1.0
 31
0.0
 73
     1
 44
1.0
  0
POINT
  5
20E
330
202
100
AcDbEntity
  8
Defpoints
 62
     0
100
AcDbPoint
 10
75.61250000000004
 20
7.487500000000009
 30
0.0
  0
POINT
  5
20F
330
202
100
AcDbEntity
  8
Defpoints
 62
     0
100
AcDbPoint
 10
75.61250000000004
 20
17.01250000000001
 30
0.0
  0
POINT
  5
210
330
202
100
AcDbEntity
  8
Defpoints
 62
     0
100
AcDbPoint
 10
91.63098300729305
 20
17.01250000000007
 30
0.0
  0
ENDBLK
  5
204
330
202
100
AcDbEntity
  8
0
100
AcDbBlockEnd
  0
BLOCK
  5
24D
330
24C
100
AcDbEntity
  8
0
100
AcDbBlockBegin
  2
*D12
 70
     1
 10
0.0
 20
0.0
 30
0.0
  3
*D12
  1
*D12
  0
LINE
  5
24F
330
24C
100
AcDbEntity
  8
치수문자_일반주서
 62
     0
370
    -2
100
AcDbLine
 10
-39.925
 20
4.762500000000003
 30
0.0
 11
-53.36250000000003
 21
4.762499999999952
 31
0.0
  0
LINE
  5
250
330
24C
100
AcDbEntity
  8
치수문자_일반주서
 62
     0
370
    -2
100
AcDbLine
 10
-39.925
 20
-4.762500000000003
 30
0.0
 11
-53.36249999999999
 21
-4.762500000000053
 31
0.0
  0
LINE
  5
251
330
24C
100
AcDbEntity
  8
치수문자_일반주서
 62
     0
370
    -2
100
AcDbLine
 10
-53.36250000000001
 20
1.460499999999953
 30
0.0
 11
-53.3625
 21
-1.460500000000054
 31
0.0
  0
SOLID
  5
252
330
24C
100
AcDbEntity
  8
치수문자_일반주서
 62
     0
100
AcDbTrace
 10
-52.81216666666668
 20
1.460499999999955
 30
0.0
 11
-53.91283333333335
 21
1.460499999999951
 31
0.0
 12
-53.36250000000003
 22
4.762499999999952
 32
0.0
 13
-53.36250000000003
 23
4.762499999999952
 33
0.0
  0
SOLID
  5
253
330
24C
100
AcDbEntity
  8
치수문자_일반주서
 62
     0
100
AcDbTrace
 10
-53.91283333333334
 20
-1.460500000000056
 30
0.0
 11
-52.81216666666667
 21
-1.460500000000052
 31
0.0
 12
-53.36249999999999
 22
-4.762500000000053
 32
0.0
 13
-53.36249999999999
 23
-4.762500000000053
 33
0.0
  0
MTEXT
  5
254
330
24C
100
AcDbEntity
  8
치수문자_일반주서
 62
     0
100
AcDbMText
 10
-57.73750000000001
 20
-0.0000000000000124
 30
0.0
 40
3.5
 41
0.0
 71
     2
 72
     1
  1
\A1;%%c9.53 [3/8]
  7
SLDTEXTSTYLE0
 11
-3.729883127349605E-15
 21
1.0
 31
0.0
 73
     1
 44
1.0
  0
POINT
  5
255
330
24C
100
AcDbEntity
  8
Defpoints
 62
     0
100
AcDbPoint
 10
-39.8625
 20
4.762500000000003
 30
0.0
  0
POINT
  5
256
330
24C
100
AcDbEntity
  8
Defpoints
 62
     0
100
AcDbPoint
 10
-39.8625
 20
-4.762500000000003
 30
0.0
  0
POINT
  5
257
330
24C
100
AcDbEntity
  8
Defpoints
 62
     0
100
AcDbPoint
 10
-53.36249999999999
 20
-4.762500000000053
 30
0.0
  0
ENDBLK
  5
24E
330
24C
100
AcDbEntity
  8
0
100
AcDbBlockEnd
  0
BLOCK
  5
259
330
258
100
AcDbEntity
  8
0
100
AcDbBlockBegin
  2
*D13
 70
     1
 10
0.0
 20
0.0
 30
0.0
  3
*D13
  1
*D13
  0
LINE
  5
25B
330
258
100
AcDbEntity
  8
치수문자_일반주서
 62
     0
370
    -2
100
AcDbLine
 10
126.5538380844464
 20
-25.60354924942796
 30
0.0
 11
126.5538380844464
 21
-10.59274657591983
 31
0.0
  0
LINE
  5
25C
330
258
100
AcDbEntity
  8
치수문자_일반주서
 62
     0
370
    -2
100
AcDbLine
 10
112.2663380844464
 20
-26.60004393390197
 30
0.0
 11
112.2663380844464
 21
-10.59274657591983
 31
0.0
  0
LINE
  5
25D
330
258
100
AcDbEntity
  8
치수문자_일반주서
 62
     0
370
    -2
100
AcDbLine
 10
112.2663380844464
 20
-10.59274657591983
 30
0.0
 11
78.53733808444642
 21
-10.59274657591983
 31
0.0
  0
LINE
  5
25E
330
258
100
AcDbEntity
  8
치수문자_일반주서
 62
     0
370
    -2
100
AcDbLine
 10
126.5538380844464
 20
-10.59274657591983
 30
0.0
 11
112.2663380844464
 21
-10.59274657591983
 31
0.0
  0
LINE
  5
25F
330
258
100
AcDbEntity
  8
치수문자_일반주서
 62
     0
370
    -2
100
AcDbLine
 10
129.8558380844464
 20
-10.59274657591983
 30
0.0
 11
133.1578380844464
 21
-10.59274657591983
 31
0.0
  0
LINE
  5
260
330
258
100
AcDbEntity
  8
치수문자_일반주서
 62
     0
370
    -2
100
AcDbLine
 10
108.9643380844464
 20
-10.59274657591983
 30
0.0
 11
105.6623380844464
 21
-10.59274657591983
 31
0.0
  0
SOLID
  5
261
330
258
100
AcDbEntity
  8
치수문자_일반주서
 62
     0
100
AcDbTrace
 10
129.8558380844464
 20
-10.0424132425865
 30
0.0
 11
129.8558380844464
 21
-11.14307990925317
 31
0.0
 12
126.5538380844464
 22
-10.59274657591983
 32
0.0
 13
126.5538380844464
 23
-10.59274657591983
 33
0.0
  0
SOLID
  5
262
330
258
100
AcDbEntity
  8
치수문자_일반주서
 62
     0
100
AcDbTrace
 10
108.9643380844464
 20
-11.14307990925317
 30
0.0
 11
108.9643380844464
 21
-10.0424132425865
 31
0.0
 12
112.2663380844464
 22
-10.59274657591983
 32
0.0
 13
112.2663380844464
 23
-10.59274657591983
 33
0.0
  0
MTEXT
  5
263
330
258
100
AcDbEntity
  8
치수문자_일반주서
 62
     0
100
AcDbMText
 10
92.09983808444642
 20
-6.217746575919833
 30
0.0
 40
3.5
 41
0.0
 71
     2
 72
     1
  1
\A1;14.29 [9/16]
  7
SLDTEXTSTYLE0
 73
     1
 44
1.0
  0
POINT
  5
264
330
258
100
AcDbEntity
  8
Defpoints
 62
     0
100
AcDbPoint
 10
126.5538380844464
 20
-25.66604924942796
 30
0.0
  0
POINT
  5
265
330
258
100
AcDbEntity
  8
Defpoints
 62
     0
100
AcDbPoint
 10
112.2663380844464
 20
-26.66254393390197
 30
0.0
  0
POINT
  5
266
330
258
100
AcDbEntity
  8
Defpoints
 62
     0
100
AcDbPoint
 10
112.2663380844464
 20
-10.59274657591983
 30
0.0
  0
ENDBLK
  5
25A
330
258
100
AcDbEntity
  8
0
100
AcDbBlockEnd
  0
BLOCK
  5
268
330
267
100
AcDbEntity
  8
0
100
AcDbBlockBegin
  2
*D14
 70
     1
 10
0.0
 20
0.0
 30
0.0
  3
*D14
  1
*D14
  0
LINE
  5
26A
330
267
100
AcDbEntity
  8
치수문자_일반주서
 62
     0
370
    -2
100
AcDbLine
 10
22.63749999999999
 20
5.61875
 30
0.0
 11
22.63749999999999
 21
35.04486045510103
 31
0.0
  0
LINE
  5
26B
330
267
100
AcDbEntity
  8
치수문자_일반주서
 62
     0
370
    -2
100
AcDbLine
 10
-40.86250000000001
 20
3.824999999999996
 30
0.0
 11
-40.86250000000001
 21
35.04486045510103
 31
0.0
  0
LINE
  5
26C
330
267
100
AcDbEntity
  8
치수문자_일반주서
 62
     0
370
    -2
100
AcDbLine
 10
19.33549999999999
 20
35.04486045510103
 30
0.0
 11
-37.56050000000001
 21
35.04486045510103
 31
0.0
  0
SOLID
  5
26D
330
267
100
AcDbEntity
  8
치수문자_일반주서
 62
     0
100
AcDbTrace
 10
19.33549999999999
 20
34.4945271217677
 30
0.0
 11
19.33549999999999
 21
35.59519378843436
 31
0.0
 12
22.63749999999999
 22
35.04486045510103
 32
0.0
 13
22.63749999999999
 23
35.04486045510103
 33
0.0
  0
SOLID
  5
26E
330
267
100
AcDbEntity
  8
치수문자_일반주서
 62
     0
100
AcDbTrace
 10
-37.56050000000001
 20
35.59519378843436
 30
0.0
 11
-37.56050000000001
 21
34.4945271217677
 31
0.0
 12
-40.86250000000001
 22
35.04486045510103
 32
0.0
 13
-40.86250000000001
 23
35.04486045510103
 33
0.0
  0
MTEXT
  5
26F
330
267
100
AcDbEntity
  8
치수문자_일반주서
 62
     0
100
AcDbMText
 10
-11.49375000000003
 20
39.41986045510103
 30
0.0
 40
3.5
 41
0.0
 71
     2
 72
     1
  1
\A1;63.50 [2 1/2]
  7
SLDTEXTSTYLE0
 73
     1
 44
1.0
  0
POINT
  5
270
330
267
100
AcDbEntity
  8
Defpoints
 62
     0
100
AcDbPoint
 10
22.63749999999999
 20
5.55625
 30
0.0
  0
POINT
  5
271
330
267
100
AcDbEntity
  8
Defpoints
 62
     0
100
AcDbPoint
 10
-40.86250000000001
 20
3.762499999999996
 30
0.0
  0
POINT
  5
272
330
267
100
AcDbEntity
  8
Defpoints
 62
     0
100
AcDbPoint
 10
-40.86250000000001
 20
35.04486045510103
 30
0.0
  0
ENDBLK
  5
269
330
267
100
AcDbEntity
  8
0
100
AcDbBlockEnd
  0
BLOCK
  5
274
330
273
100
AcDbEntity
  8
0
100
AcDbBlockBegin
  2
*D15
 70
     1
 10
0.0
 20
0.0
 30
0.0
  3
*D15
  1
*D15
  0
LINE
  5
276
330
273
100
AcDbEntity
  8
치수문자_일반주서
 62
     0
370
    -2
100
AcDbLine
 10
126.6163380844464
 20
-35.19104924942796
 30
0.0
 11
142.5723210917394
 21
-35.19104924942789
 31
0.0
  0
LINE
  5
277
330
273
100
AcDbEntity
  8
치수문자_일반주서
 62
     0
370
    -2
100
AcDbLine
 10
126.6163380844464
 20
-25.66604924942796
 30
0.0
 11
142.5723210917394
 21
-25.6660492494279
 31
0.0
  0
LINE
  5
278
330
273
100
AcDbEntity
  8
치수문자_일반주서
 62
     0
370
    -2
100
AcDbLine
 10
142.5723210917394
 20
-25.6660492494279
 30
0.0
 11
142.5723210917393
 21
7.187950750572103
 31
0.0
  0
LINE
  5
279
330
273
100
AcDbEntity
  8
치수문자_일반주서
 62
     0
370
    -2
100
AcDbLine
 10
142.5723210917394
 20
-35.19104924942789
 30
0.0
 11
142.5723210917394
 21
-25.6660492494279
 31
0.0
  0
LINE
  5
27A
330
273
100
AcDbEntity
  8
치수문자_일반주서
 62
     0
370
    -2
100
AcDbLine
 10
142.5723210917394
 20
-38.49304924942789
 30
0.0
 11
142.5723210917394
 21
-41.79504924942789
 31
0.0
  0
LINE
  5
27B
330
273
100
AcDbEntity
  8
치수문자_일반주서
 62
     0
370
    -2
100
AcDbLine
 10
142.5723210917394
 20
-22.3640492494279
 30
0.0
 11
142.5723210917394
 21
-19.0620492494279
 31
0.0
  0
SOLID
  5
27C
330
273
100
AcDbEntity
  8
치수문자_일반주서
 62
     0
100
AcDbTrace
 10
143.1226544250728
 20
-38.49304924942789
 30
0.0
 11
142.0219877584061
 21
-38.49304924942789
 31
0.0
 12
142.5723210917394
 22
-35.19104924942789
 32
0.0
 13
142.5723210917394
 23
-35.19104924942789
 33
0.0
  0
SOLID
  5
27D
330
273
100
AcDbEntity
  8
치수문자_일반주서
 62
     0
100
AcDbTrace
 10
142.0219877584061
 20
-22.3640492494279
 30
0.0
 11
143.1226544250727
 21
-22.3640492494279
 31
0.0
 12
142.5723210917394
 22
-25.6660492494279
 32
0.0
 13
142.5723210917394
 23
-25.6660492494279
 33
0.0
  0
MTEXT
  5
27E
330
273
100
AcDbEntity
  8
치수문자_일반주서
 62
     0
100
AcDbMText
 10
138.1973210917394
 20
-5.93704924942791
 30
0.0
 40
3.5
 41
0.0
 71
     2
 72
     1
  1
\A1;%%c9.53 [3/8]
  7
SLDTEXTSTYLE0
 11
-2.983906501879689E-15
 21
1.0
 31
0.0
 73
     1
 44
1.0
  0
POINT
  5
27F
330
273
100
AcDbEntity
  8
Defpoints
 62
     0
100
AcDbPoint
 10
126.5538380844464
 20
-35.19104924942796
 30
0.0
  0
POINT
  5
280
330
273
100
AcDbEntity
  8
Defpoints
 62
     0
100
AcDbPoint
 10
126.5538380844464
 20
-25.66604924942796
 30
0.0
  0
POINT
  5
281
330
273
100
AcDbEntity
  8
Defpoints
 62
     0
100
AcDbPoint
 10
142.5723210917394
 20
-25.6660492494279
 30
0.0
  0
ENDBLK
  5
275
330
273
100
AcDbEntity
  8
0
100
AcDbBlockEnd
  0
ENDSEC
  0
SECTION
  2
ENTITIES
  0
SPLINE
  5
96
330
1F
100
AcDbEntity
  8
0
  6
Continuous
 62
     1
370
    15
100
AcDbSpline
210
0.0
220
0.0
230
1.0
 70
     8
 71
     3
 72
    18
 73
    14
 74
     0
 42
0.000000001
 43
0.00000001
 40
0.0
 40
0.0
 40
0.0
 40
0.0
 40
0.143559106626394
 40
0.2681469880321231
 40
0.3745935796751438
 40
0.4622372192877579
 40
0.5363103825434654
 40
0.5915877293757175
 40
0.6452364263591428
 40
0.7108114616044462
 40
0.792950732556944
 40
0.8885365581329892
 40
1.0
 40
1.0
 40
1.0
 40
1.0
 10
8.241804874604872
 20
1.423791635275521
 30
0.0
 10
8.172350646898344
 20
1.456381497006918
 30
0.0
 10
8.042620514110112
 20
1.517254495376851
 30
0.0
 10
7.842900330415683
 20
1.613580858324461
 30
0.0
 10
7.673511344525876
 20
1.696643508055391
 30
0.0
 10
7.533065736909871
 20
1.766517381278999
 30
0.0
 10
7.422435366411545
 20
1.822165922388957
 30
0.0
 10
7.337000026612579
 20
1.865345476348872
 30
0.0
 10
7.258151933264202
 20
1.905147212794868
 30
0.0
 10
7.147208666979129
 20
1.962132763234699
 30
0.0
 10
7.01490223419705
 20
2.030595968226079
 30
0.0
 10
6.860017299620077
 20
2.111158993423411
 30
0.0
 10
6.75719455204408
 20
2.165476171666647
 30
0.0
 10
6.701840686326127
 20
2.194717422863829
 30
0.0
  0
SPLINE
  5
97
330
1F
100
AcDbEntity
  8
0
  6
Continuous
 62
     1
370
    15
100
AcDbSpline
210
0.0
220
0.0
230
1.0
 70
     8
 71
     3
 72
    26
 73
    22
 74
     0
 42
0.000000001
 43
0.00000001
 40
0.0
 40
0.0
 40
0.0
 40
0.0
 40
0.0447703711607851
 40
0.0841040813888149
 40
0.1187262237462341
 40
0.1631748280410757
 40
0.2057506642639346
 40
0.2479239951430207
 40
0.2900647611982027
 40
0.3302369581597575
 40
0.3782096457133014
 40
0.4218923131654596
 40
0.4645366066422669
 40
0.5114226155180558
 40
0.5689173694872793
 40
0.6363500737391155
 40
0.7046081414907931
 40
0.7717711662626269
 40
0.8391913517365642
 40
0.9147143379207119
 40
1.0
 40
1.0
 40
1.0
 40
1.0
 10
6.405781130108181
 20
4.415212427304236
 30
0.0
 10
6.349217048792548
 20
4.412132889187443
 30
0.0
 10
6.242957708623832
 20
4.406347774664169
 30
0.0
 10
6.080248808163285
 20
4.397562077950649
 30
0.0
 10
5.907974455531837
 20
4.389201224313842
 30
0.0
 10
5.723047259855343
 20
4.382247037800489
 30
0.0
 10
5.530355122679363
 20
4.375358030931616
 30
0.0
 10
5.339029985117981
 20
4.368673695241887
 30
0.0
 10
5.15264652740855
 20
4.362741499608944
 30
0.0
 10
4.958543428811905
 20
4.357233783321822
 30
0.0
 10
4.763163736281166
 20
4.352440807062377
 30
0.0
 10
4.566586433620921
 20
4.348392973699669
 30
0.0
 10
4.370144250209663
 20
4.345039236527319
 30
0.0
 10
4.152551492533455
 20
4.342149268295269
 30
0.0
 10
3.898283387045071
 20
4.33989175142568
 30
0.0
 10
3.612294604155456
 20
4.338863123893065
 30
0.0
 10
3.312172082573185
 20
4.339516520182429
 30
0.0
 10
3.012227047183718
 20
4.341901615785739
 30
0.0
 10
2.701499802621284
 20
4.346179798943706
 30
0.0
 10
2.363965194003504
 20
4.35269341701325
 30
0.0
 10
2.126134620914945
 20
4.35933672209952
 30
0.0
 10
1.999999999999994
 20
4.362860031814486
 30
0.0
  0
SPLINE
  5
98
330
1F
100
AcDbEntity
  8
0
  6
Continuous
 62
     1
370
    15
100
AcDbSpline
210
0.0
220
0.0
230
1.0
 70
     8
 71
     3
 72
    47
 73
    43
 74
     0
 42
0.000000001
 43
0.00000001
 40
0.0
 40
0.0
 40
0.0
 40
0.0
 40
0.0218328042659832
 40
0.0419213030724558
 40
0.0611224175123297
 40
0.0808304060188308
 40
0.1014639942203901
 40
0.1202989554423651
 40
0.1365585010782802
 40
0.1503276654375145
 40
0.1655797150766604
 40
0.1801446951147317
 40
0.1943303938437208
 40
0.2103165622859365
 40
0.2276111420687804
 40
0.2475690510009935
 40
0.2717689306688973
 40
0.2987513624214108
 40
0.3422675947598862
 40
0.3838681357078998
 40
0.4245225061845936
 40
0.4600034939803193
 40
0.492518116990087
 40
0.5198112767282486
 40
0.5515964411042037
 40
0.5874111317414327
 40
0.6250909174491864
 40
0.6595689878357496
 40
0.6901356176480969
 40
0.7177128894252572
 40
0.7434785384668344
 40
0.7681075927590385
 40
0.7881013401395104
 40
0.8086060675942564
 40
0.8296531105870208
 40
0.8521789853615604
 40
0.8765908022339877
 40
0.8970568439857021
 40
0.9187503771631508
 40
0.9425369415428916
 40
0.9694318436565488
 40
1.0
 40
1.0
 40
1.0
 40
1.0
 10
20.57250448631083
 20
3.800210779429634
 30
0.0
 10
20.52198588902802
 20
3.795614022912801
 30
0.0
 10
20.42498481661939
 20
3.786787762174838
 30
0.0
 10
20.25117661067192
 20
3.770587564653997
 30
0.0
 10
20.06354869085661
 20
3.755513826768899
 30
0.0
 10
19.86151963791142
 20
3.742204463942156
 30
0.0
 10
19.66322593213864
 20
3.731290820290378
 30
0.0
 10
19.47610334364667
 20
3.720776414477549
 30
0.0
 10
19.31118377603763
 20
3.711751335059637
 30
0.0
 10
19.15816848820955
 20
3.703739942228381
 30
0.0
 10
19.01355195884445
 20
3.696748355529273
 30
0.0
 10
18.86952059480346
 20
3.690395887802099
 30
0.0
 10
18.727982210471
 20
3.684724922748955
 30
0.0
 10
18.57598667322669
 20
3.679126666882042
 30
0.0
 10
18.40247981405178
 20
3.673451183808092
 30
0.0
 10
18.20119146771806
 20
3.667831114748381
 30
0.0
 10
17.96826791616361
 20
3.66268683024024
 30
0.0
 10
17.65798029573814
 20
3.657910189088216
 30
0.0
 10
17.2909964395462
 20
3.655628862572667
 30
0.0
 10
16.87921597494631
 20
3.65761062969412
 30
0.0
 10
16.49365912144538
 20
3.663581545496329
 30
0.0
 10
16.13791832272644
 20
3.672649802580725
 30
0.0
 10
15.82600572224312
 20
3.683356985369757
 30
0.0
 10
15.52615963855464
 20
3.695926841826978
 30
0.0
 10
15.21548880248319
 20
3.711278394819308
 30
0.0
 10
14.87065919528631
 20
3.731261984564874
 30
0.0
 10
14.51692915098905
 20
3.755052201918677
 30
0.0
 10
14.18075544452866
 20
3.780734093533641
 30
0.0
 10
13.8777187421195
 20
3.806429670253393
 30
0.0
 10
13.60266830943109
 20
3.831645920269207
 30
0.0
 10
13.3475294129778
 20
3.856628665990189
 30
0.0
 10
13.11611291716021
 20
3.880679581836528
 30
0.0
 10
12.91461576966875
 20
3.902601037911547
 30
0.0
 10
12.73343899960247
 20
3.922352373311623
 30
0.0
 10
12.52101261535321
 20
3.947304526612034
 30
0.0
 10
12.29263287023427
 20
3.976145523966266
 30
0.0
 10
12.06684345840868
 20
4.005439197363007
 30
0.0
 10
11.84411959522428
 20
4.035102301648909
 30
0.0
 10
11.62295980814559
 20
4.064871681870605
 30
0.0
 10
11.38237249533581
 20
4.099223342143298
 30
0.0
 10
11.12559074398096
 20
4.138325226352313
 30
0.0
 10
10.95662739329512
 20
4.164906331597565
 30
0.0
 10
10.86674533238927
 20
4.179046466194214
 30
0.0
  0
SPLINE
  5
99
330
1F
100
AcDbEntity
  8
0
  6
Continuous
 62
     1
370
    15
100
AcDbSpline
210
0.0
220
0.0
230
1.0
 70
     8
 71
     3
 72
    24
 73
    20
 74
     0
 42
0.000000001
 43
0.00000001
 40
0.0
 40
0.0
 40
0.0
 40
0.0
 40
0.0656331172771498
 40
0.1240802014211851
 40
0.1762454727928802
 40
0.2236698494651675
 40
0.2683724980474106
 40
0.3235968011981543
 40
0.3750222114100938
 40
0.4227352562363455
 40
0.4714399738913968
 40
0.5192923202680372
 40
0.5658488427815683
 40
0.6124444497676355
 40
0.6610774979054689
 40
0.7387307335587687
 40
0.8264574791783936
 40
0.925185249912284
 40
1.0
 40
1.0
 40
1.0
 40
1.0
 10
10.86674533238927
 20
-4.179046466194219
 30
0.0
 10
10.94863777010754
 20
-4.166164350922196
 30
0.0
 10
11.10345641332461
 20
-4.141810556313693
 30
0.0
 10
11.3383348931666
 20
-4.105854121724958
 30
0.0
 10
11.55893856647534
 20
-4.073812854147131
 30
0.0
 10
11.76524078741907
 20
-4.045698712757114
 30
0.0
 10
11.97444475457608
 20
-4.017663614113391
 30
0.0
 10
12.1899957425141
 20
-3.989391479055338
 30
0.0
 10
12.40985748513364
 20
-3.961195774773413
 30
0.0
 10
12.62068341587231
 20
-3.935345303575125
 30
0.0
 10
12.81597208990758
 20
-3.913261685778786
 30
0.0
 10
12.9933275285339
 20
-3.894002404215346
 30
0.0
 10
13.18521216902643
 20
-3.873402688368611
 30
0.0
 10
13.38316686389101
 20
-3.853142318865946
 30
0.0
 10
13.62364322619228
 20
-3.829656550706797
 30
0.0
 10
13.92175561168214
 20
-3.802393192640408
 30
0.0
 10
14.28886197094056
 20
-3.772052707158801
 30
0.0
 10
14.65241959370175
 20
-3.745216706192986
 30
0.0
 10
14.89400896635001
 20
-3.730747504922915
 30
0.0
 10
14.99815893750957
 20
-3.724509784784563
 30
0.0
  0
SPLINE
  5
9A
330
1F
100
AcDbEntity
  8
0
  6
Continuous
 62
     1
370
    15
100
AcDbSpline
210
0.0
220
0.0
230
1.0
 70
     8
 71
     3
 72
    24
 73
    20
 74
     0
 42
0.000000001
 43
0.00000001
 40
0.0
 40
0.0
 40
0.0
 40
0.0
 40
0.0852784612752278
 40
0.1607950709335643
 40
0.2282095640140399
 40
0.2953669181048956
 40
0.3636192227193778
 40
0.4310462335207705
 40
0.4885361331164952
 40
0.5354181833320028
 40
0.5952641608433683
 40
0.6595449279914953
 40
0.7337103914879316
 40
0.7915927971968888
 40
0.8502065645425781
 40
0.881283800497621
 40
0.9159030196525089
 40
0.9552334088728406
 40
1.0
 40
1.0
 40
1.0
 40
1.0
 10
1.999999999999994
 20
-4.362860031814489
 30
0.0
 10
2.126134614080221
 20
-4.359336721878311
 30
0.0
 10
2.363965174281705
 20
-4.352693416374939
 30
0.0
 10
2.701499868068841
 20
-4.346179801061984
 30
0.0
 10
3.012226830498362
 20
-4.341901608772512
 30
0.0
 10
3.312172896942577
 20
-4.339516546540283
 30
0.0
 10
3.612291524126131
 20
-4.338863024204955
 30
0.0
 10
3.898294016309523
 20
-4.339892095452057
 30
0.0
 10
4.152520811636133
 20
-4.342148275278502
 30
0.0
 10
4.395711881825426
 20
-4.345380763993675
 30
0.0
 10
4.647112964016709
 20
-4.349847658437882
 30
0.0
 10
4.939040452482129
 20
-4.35654370344707
 30
0.0
 10
5.231894414906384
 20
-4.364994770741445
 30
0.0
 10
5.519497660343989
 20
-4.374990450300723
 30
0.0
 10
5.739429775511141
 20
-4.382671799709982
 30
0.0
 10
5.92750772884221
 20
-4.390163612768554
 30
0.0
 10
6.080222506023434
 20
-4.397556196107323
 30
0.0
 10
6.242965750471917
 20
-4.406349573030799
 30
0.0
 10
6.34921984249228
 20
-4.412133513931451
 30
0.0
 10
6.405781130108181
 20
-4.41521242730424
 30
0.0
  0
SPLINE
  5
9B
330
1F
100
AcDbEntity
  8
0
  6
Continuous
 62
     1
370
    15
100
AcDbSpline
210
0.0
220
0.0
230
1.0
 70
     8
 71
     3
 72
    38
 73
    34
 74
     0
 42
0.000000001
 43
0.00000001
 40
0.0
 40
0.0
 40
0.0
 40
0.0
 40
0.0625
 40
0.0625
 40
0.125
 40
0.125
 40
0.1875
 40
0.1875
 40
0.25
 40
0.25
 40
0.3125
 40
0.3125
 40
0.375
 40
0.375
 40
0.4375
 40
0.4375
 40
0.5
 40
0.5
 40
0.5625
 40
0.5625
 40
0.625
 40
0.625
 40
0.6875
 40
0.6875
 40
0.75
 40
0.75
 40
0.8125
 40
0.8125
 40
0.875
 40
0.875
 40
0.9375
 40
0.9375
 40
1.0
 40
1.0
 40
1.0
 40
1.0
 10
22.6375
 20
-5.272552704669745
 30
0.0
 10
22.21026332835633
 20
-5.194413008082685
 30
0.0
 10
21.77818418750032
 20
-5.100189434525554
 30
0.0
 10
20.91590096109729
 20
-4.881822246299013
 30
0.0
 10
20.48893797048692
 20
-4.758053894243542
 30
0.0
 10
19.62938634092334
 20
-4.482319492818163
 30
0.0
 10
19.19663926790363
 20
-4.330246078674048
 30
0.0
 10
18.33682171499043
 20
-4.001761840742231
 30
0.0
 10
17.91003292720278
 20
-3.825473337613142
 30
0.0
 10
17.04784271113563
 20
-3.449874759563663
 30
0.0
 10
16.6156758044152
 20
-3.250965272253442
 30
0.0
 10
15.76076614891097
 20
-2.836428405260454
 30
0.0
 10
15.32920796307914
 20
-2.619386655428102
 30
0.0
 10
14.46684394794481
 20
-2.171000413987507
 30
0.0
 10
14.0396822588352
 20
-1.940334674792985
 30
0.0
 10
13.18040864537032
 20
-1.467920051747087
 30
0.0
 10
12.74766775886616
 20
-1.226024984360393
 30
0.0
 10
11.88759638787463
 20
-0.7373466225223603
 30
0.0
 10
11.46095729903055
 20
-0.490717024069912
 30
0.0
 10
10.5988723105081
 20
0.0056855401272589
 30
0.0
 10
10.16662379669767
 20
0.2548435338997901
 30
0.0
 10
9.311289703900087
 20
0.7483967895890595
 30
0.0
 10
8.880228193427524
 20
0.9943238026605778
 30
0.0
 10
8.01779561498505
 20
1.47880355006243
 30
0.0
 10
7.590410741054628
 20
1.716620294759159
 30
0.0
 10
6.731427223350904
 20
2.181366396314124
 30
0.0
 10
6.298698709581794
 20
2.408462797933504
 30
0.0
 10
5.43838563773986
 20
2.845983964114302
 30
0.0
 10
5.011871736910475
 20
3.056281605175823
 30
0.0
 10
4.149904188169166
 20
3.458785862476051
 30
0.0
 10
3.717580229942485
 20
3.650430554530303
 30
0.0
 10
2.861833594631922
 20
4.009517495618402
 30
0.0
 10
2.431244456539596
 20
4.177981569667778
 30
0.0
 10
1.999999999996408
 20
4.333494491035223
 30
0.0
  0
SPLINE
  5
9C
330
1F
100
AcDbEntity
  8
0
  6
Continuous
 62
     1
370
    15
100
AcDbSpline
210
0.0
220
0.0
230
1.0
 70
     8
 71
     3
 72
    21
 73
    17
 74
     0
 42
0.000000001
 43
0.00000001
 40
0.0
 40
0.0
 40
0.0
 40
0.0
 40
0.0748812617031413
 40
0.1497638261900222
 40
0.2246437851173918
 40
0.2995276468917116
 40
0.3744063085555105
 40
0.4492914621205878
 40
0.5198789928896391
 40
0.5905370266925073
 40
0.6610628972240635
 40
0.7317680202500433
 40
0.8022498388147216
 40
0.8729863525436541
 40
0.9434417606793652
 40
1.0
 40
1.0
 40
1.0
 40
1.0
 10
22.6375
 20
-4.383727143895903
 30
0.0
 10
22.27795715300128
 20
-4.312771114897497
 30
0.0
 10
21.55886520367958
 20
-4.170857822408121
 30
0.0
 10
20.48022805308639
 20
-3.890919667937484
 30
0.0
 10
19.40159612817592
 20
-3.566077826255594
 30
0.0
 10
18.32295416911501
 20
-3.195474185686793
 30
0.0
 10
17.24433453783048
 20
-2.784971072836268
 30
0.0
 10
16.18625149108515
 20
-2.348114970737409
 30
0.0
 10
15.14866261798683
 20
-1.891827754356304
 30
0.0
 10
14.13151385884355
 20
-1.424557831454531
 30
0.0
 10
13.11462980374024
 20
-0.9395057425058692
 30
0.0
 10
12.09745980600359
 20
-0.4466609298115004
 30
0.0
 10
11.08067534464651
 20
0.0545934720582929
 30
0.0
 10
10.06350258123414
 20
0.5509847194647611
 30
0.0
 10
9.114807445494975
 20
1.013756936968927
 30
0.0
 10
8.504643729588725
 20
1.299546152886712
 30
0.0
 10
8.232942332454574
 20
1.426805980415798
 30
0.0
  0
LINE
  5
9D
330
1F
100
AcDbEntity
  8
0
  6
Continuous
 62
     1
370
    15
100
AcDbLine
 10
22.6375
 20
-5.272552704669746
 30
0.0
 11
22.6375
 21
-4.383727143895903
 31
0.0
  0
SPLINE
  5
9E
330
1F
100
AcDbEntity
  8
0
  6
Continuous
 62
     1
370
    15
100
AcDbSpline
210
0.0
220
0.0
230
1.0
 70
     8
 71
     3
 72
    38
 73
    34
 74
     0
 42
0.000000001
 43
0.00000001
 40
0.0
 40
0.0
 40
0.0
 40
0.0
 40
0.0625
 40
0.0625
 40
0.125
 40
0.125
 40
0.1875
 40
0.1875
 40
0.25
 40
0.25
 40
0.3125
 40
0.3125
 40
0.375
 40
0.375
 40
0.4375
 40
0.4375
 40
0.5
 40
0.5
 40
0.5625
 40
0.5625
 40
0.625
 40
0.625
 40
0.6875
 40
0.6875
 40
0.75
 40
0.75
 40
0.8125
 40
0.8125
 40
0.875
 40
0.875
 40
0.9375
 40
0.9375
 40
1.0
 40
1.0
 40
1.0
 40
1.0
 10
22.63749999999999
 20
-5.556249999999999
 30
0.0
 10
22.2102633283564
 20
-5.541371903835813
 30
0.0
 10
21.77818418750047
 20
-5.514526382039867
 30
0.0
 10
20.9159009610976
 20
-5.427929165842389
 30
0.0
 10
20.48893797048729
 20
-5.368395192438919
 30
0.0
 10
19.62938634092387
 20
-5.217382291391485
 30
0.0
 10
19.19663926790422
 20
-5.125789929334316
 30
0.0
 10
18.33682171499117
 20
-4.912883091401835
 30
0.0
 10
17.91003292720359
 20
-4.79169531988578
 30
0.0
 10
17.0478427111366
 20
-4.520551892920571
 30
0.0
 10
16.61567580441625
 20
-4.370843986136643
 30
0.0
 10
15.76076614891214
 20
-4.047394191542043
 30
0.0
 10
15.32920796308042
 20
-3.872552414133431
 30
0.0
 10
14.46684394794623
 20
-3.500768433872776
 30
0.0
 10
14.03968225883667
 20
-3.304417860873809
 30
0.0
 10
13.18040864537196
 20
-2.892420033066345
 30
0.0
 10
12.74766775886788
 20
-2.676614641270723
 30
0.0
 10
11.88759638787649
 20
-2.231169757384827
 30
0.0
 10
11.46095729903249
 20
-2.001703142814975
 30
0.0
 10
10.59887231051021
 20
-1.530597431417583
 30
0.0
 10
10.16662379669984
 20
-1.289509722707473
 30
0.0
 10
9.31128970390237
 20
-0.8027963061815901
 30
0.0
 10
8.880228193429918
 20
-0.5556661423113812
 30
0.0
 10
8.01779561498759
 20
-0.0594852812374782
 30
0.0
 10
7.590410741057223
 20
0.1887893339782801
 30
0.0
 10
6.731427223353673
 20
0.6835377136650919
 30
0.0
 10
6.298698709584642
 20
0.9302190463602783
 30
0.0
 10
5.438385637742834
 20
1.415565526314374
 30
0.0
 10
5.011871736913534
 20
1.654052199959829
 30
0.0
 10
4.149904188172387
 20
2.121351878848333
 30
0.0
 10
3.717580229945775
 20
2.349553189890518
 30
0.0
 10
2.861833594635313
 20
2.789033780945185
 30
0.0
 10
2.431244456543116
 20
3.001551444151336
 30
0.0
 10
2.000000000000001
 20
3.204538230355079
 30
0.0
  0
SPLINE
  5
9F
330
1F
100
AcDbEntity
  8
0
  6
Continuous
 62
     1
370
    15
100
AcDbSpline
210
0.0
220
0.0
230
1.0
 70
     8
 71
     3
 72
    14
 73
    10
 74
     0
 42
0.000000001
 43
0.00000001
 40
0.0
 40
0.0
 40
0.0
 40
0.0
 40
0.0038637826982919
 40
0.1700513851187947
 40
0.3359075373569101
 40
0.501983924907938
 40
0.6679539107128982
 40
0.8338994952603032
 40
1.0
 40
1.0
 40
1.0
 40
1.0
 10
8.837681158847992
 20
-0.5303594520534922
 30
0.0
 10
8.828876143957444
 20
-0.5268660430501078
 30
0.0
 10
8.441353062291638
 20
-0.3731154089695205
 30
0.0
 10
7.675435729135749
 20
-0.0625952886842075
 30
0.0
 10
6.54043580569957
 20
0.3964729619070052
 30
0.0
 10
5.405444342413976
 20
0.8499034656152252
 30
0.0
 10
4.270481225363704
 20
1.291315037926381
 30
0.0
 10
3.135472517311419
 20
1.716991746647821
 30
0.0
 10
2.37860854717263
 20
1.979406828552219
 30
0.0
 10
1.999999999999997
 20
2.110675585998545
 30
0.0
  0
SPLINE
  5
A0
330
1F
100
AcDbEntity
  8
외형선
  6
Continuous
370
    15
100
AcDbSpline
210
0.0
220
0.0
230
1.0
 70
    24
 71
     3
 72
    10
 73
     6
 74
     0
 42
0.000000001
 43
0.00000001
 40
0.0
 40
0.0
 40
0.0
 40
0.0
 40
0.5
 40
0.5
 40
1.0
 40
1.0
 40
1.0
 40
1.0
 10
1.999999999999997
 20
3.204538230355082
 30
0.0
 10
1.999999999999997
 20
3.11333450069687
 30
0.0
 10
1.999999999999997
 20
2.965063454336573
 30
0.0
 10
1.999999999999997
 20
2.584201855752069
 30
0.0
 10
1.999999999999997
 20
2.352951062580819
 30
0.0
 10
1.999999999999997
 20
2.110675585998546
 30
0.0
  0
LINE
  5
A1
330
1F
100
AcDbEntity
  8
외형선
  6
Continuous
370
    15
100
AcDbLine
 10
1.999999999999997
 20
2.110675585998546
 30
0.0
 11
1.999999999999997
 21
4.762500000000003
 31
0.0
  0
LINE
  5
A2
330
1F
100
AcDbEntity
  8
0
  6
Continuous
 62
     1
370
    15
100
AcDbLine
 10
22.63749999999999
 20
-5.55625
 30
0.0
 11
22.6375
 21
-5.272552704669746
 31
0.0
  0
SPLINE
  5
A3
330
1F
100
AcDbEntity
  8
0
  6
Continuous
 62
     1
370
    15
100
AcDbSpline
210
0.0
220
0.0
230
1.0
 70
     8
 71
     3
 72
     8
 73
     4
 74
     0
 42
0.000000001
 43
0.00000001
 40
0.0
 40
0.0
 40
0.0
 40
0.0
 40
1.0
 40
1.0
 40
1.0
 40
1.0
 10
19.19955706602443
 20
1.554184009602994
 30
0.0
 10
19.00215030753581
 20
1.788049069802694
 30
0.0
 10
18.82592183394383
 20
2.013159355233475
 30
0.0
 10
18.67594740875951
 20
2.227416623920794
 30
0.0
  0
LINE
  5
A4
330
1F
100
AcDbEntity
  8
0
  6
Continuous
 62
     1
370
    15
100
AcDbLine
 10
18.74616073328416
 20
2.286332598632775
 30
0.0
 11
22.6375
 21
0.0000000000000007
 31
0.0
  0
LINE
  5
A5
330
1F
100
AcDbEntity
  8
0
  6
Continuous
 62
     1
370
    15
100
AcDbLine
 10
22.6375
 20
0.0000000000000007
 30
0.0
 11
22.6375
 21
-1.484868618877214
 31
0.0
  0
SPLINE
  5
A6
330
1F
100
AcDbEntity
  8
0
  6
Continuous
 62
     1
370
    15
100
AcDbSpline
210
0.0
220
0.0
230
1.0
 70
     8
 71
     3
 72
    12
 73
     8
 74
     0
 42
0.000000001
 43
0.00000001
 40
0.0
 40
0.0
 40
0.0
 40
0.0
 40
0.5
 40
0.5
 40
0.75
 40
0.75
 40
1.0
 40
1.0
 40
1.0
 40
1.0
 10
22.6375
 20
-1.484868618877216
 30
0.0
 10
22.04238160121405
 20
-1.017005130037891
 30
0.0
 10
21.45720338050392
 20
-0.5299579483693718
 30
0.0
 10
20.59472957402338
 20
0.2301280174900628
 30
0.0
 10
20.30983159546155
 20
0.4884948343414505
 30
0.0
 10
19.74585424369751
 20
1.016457878328654
 30
0.0
 10
19.46831385777938
 20
1.284684048414717
 30
0.0
 10
19.19955706602442
 20
1.554184009602994
 30
0.0
  0
SPLINE
  5
A7
330
1F
100
AcDbEntity
  8
외형선
  6
Continuous
370
    15
100
AcDbSpline
210
0.0
220
0.0
230
1.0
 70
    24
 71
     3
 72
     9
 73
     5
 74
     0
 42
0.000000001
 43
0.00000001
 40
0.0
 40
0.0
 40
0.0
 40
0.0
 40
0.4482951753312201
 40
1.0
 40
1.0
 40
1.0
 40
1.0
 10
2.000000000000003
 20
4.358708023828076
 30
0.0
 10
2.000000000000003
 20
4.36045889331908
 30
0.0
 10
2.000000000000003
 20
4.364364510839298
 30
0.0
 10
2.000000000000003
 20
4.355897371540267
 30
0.0
 10
2.000000000000003
 20
4.351226009937847
 30
0.0
  0
SPLINE
  5
A8
330
1F
100
AcDbEntity
  8
0
  6
Continuous
 62
     1
370
    15
100
AcDbSpline
210
0.0
220
0.0
230
1.0
 70
     8
 71
     3
 72
    19
 73
    15
 74
     0
 42
0.000000001
 43
0.00000001
 40
0.0
 40
0.0
 40
0.0
 40
0.0
 40
0.0842131080017965
 40
0.1686362336147462
 40
0.2528501781919764
 40
0.3372724661650661
 40
0.421487252215072
 40
0.5043994511003429
 40
0.5871228977447642
 40
0.6700169565855377
 40
0.7527602393290562
 40
0.8373285425181798
 40
0.92176470731013
 40
1.0
 40
1.0
 40
1.0
 40
1.0
 10
19.19955706602443
 20
1.55418400960299
 30
0.0
 10
18.84051853540375
 20
1.707914009706068
 30
0.0
 10
18.12154607419082
 20
2.015757394496291
 30
0.0
 10
17.04274941606971
 20
2.445360839825039
 30
0.0
 10
15.96404892749473
 20
2.84776146444415
 30
0.0
 10
14.88519778264929
 20
3.212024370266249
 30
0.0
 10
13.81294022146162
 20
3.53596168479196
 30
0.0
 10
12.74691890156318
 20
3.812882251551958
 30
0.0
 10
11.68747752014511
 20
4.043249287947137
 30
0.0
 10
10.6278924525207
 20
4.223628799507189
 30
0.0
 10
9.561215222393031
 20
4.354732155941364
 30
0.0
 10
8.487255515243335
 20
4.431063759704695
 30
0.0
 10
7.43315804737254
 20
4.456382199534744
 30
0.0
 10
6.739292372058776
 20
4.427271557942266
 30
0.0
 10
6.405584264711834
 20
4.413271071313368
 30
0.0
  0
LINE
  5
A9
330
1F
100
AcDbEntity
  8
0
  6
Continuous
 62
     1
370
    15
100
AcDbLine
 10
22.6375
 20
-4.383727143895901
 30
0.0
 11
22.6375
 21
-1.484868618877217
 31
0.0
  0
SPLINE
  5
AA
330
1F
100
AcDbEntity
  8
0
  6
Continuous
 62
     1
370
    15
100
AcDbSpline
210
0.0
220
0.0
230
1.0
 70
    24
 71
     3
 72
     8
 73
     4
 74
     0
 42
0.000000001
 43
0.00000001
 40
0.0
 40
0.0
 40
0.0
 40
0.0
 40
1.0
 40
1.0
 40
1.0
 40
1.0
 10
19.25552406229177
 20
2.713739180137911
 30
0.0
 10
19.07212811240722
 20
2.559851706230381
 30
0.0
 10
18.87831162830923
 20
2.397220365908023
 30
0.0
 10
18.67594740875974
 20
2.227416623920571
 30
0.0
  0
SPLINE
  5
AB
330
1F
100
AcDbEntity
  8
0
  6
Continuous
 62
     1
370
    15
100
AcDbSpline
210
0.0
220
0.0
230
1.0
 70
     8
 71
     3
 72
     9
 73
     5
 74
     0
 42
0.000000001
 43
0.00000001
 40
0.0
 40
0.0
 40
0.0
 40
0.0
 40
0.522320566525377
 40
1.0
 40
1.0
 40
1.0
 40
1.0
 10
22.6375
 20
3.889374999999996
 30
0.0
 10
22.2779568502559
 20
3.885462552692723
 30
0.0
 10
21.58959959843278
 20
3.877972042921488
 30
0.0
 10
20.90124041610538
 20
3.82405347620947
 30
0.0
 10
20.57242539186417
 20
3.798297685808709
 30
0.0
  0
SPLINE
  5
AC
330
1F
100
AcDbEntity
  8
0
  6
Continuous
 62
     1
370
    15
100
AcDbSpline
210
0.0
220
0.0
230
1.0
 70
     8
 71
     3
 72
    10
 73
     6
 74
     0
 42
0.000000001
 43
0.00000001
 40
0.0
 40
0.0
 40
0.0
 40
0.0
 40
0.5
 40
0.5
 40
1.0
 40
1.0
 40
1.0
 40
1.0
 10
22.6375
 20
3.889374999999999
 30
0.0
 10
22.06595098516718
 20
3.73433523305047
 30
0.0
 10
21.49788855591788
 20
3.56033671727896
 30
0.0
 10
20.36939035213888
 20
3.170868788860799
 30
0.0
 10
19.80889613348036
 20
2.95597042672075
 30
0.0
 10
19.25552406229147
 20
2.713739180138081
 30
0.0
  0
SPLINE
  5
AD
330
1F
100
AcDbEntity
  8
0
  6
Continuous
 62
     1
370
    15
100
AcDbSpline
210
0.0
220
0.0
230
1.0
 70
     8
 71
     3
 72
    16
 73
    12
 74
     0
 42
0.000000001
 43
0.00000001
 40
0.0
 40
0.0
 40
0.0
 40
0.0
 40
0.0271226430292246
 40
0.1464991586365254
 40
0.2685086925926838
 40
0.3903275860411245
 40
0.5123391295143093
 40
0.6341560250469571
 40
0.7561695653261912
 40
0.8779844756265105
 40
1.0
 40
1.0
 40
1.0
 40
1.0
 10
10.86792973995854
 20
-4.174400339008828
 30
0.0
 10
10.78774326024867
 20
-4.188361434024094
 30
0.0
 10
10.35462721772794
 20
-4.26377033393024
 30
0.0
 10
9.561224133893361
 20
-4.351847096794954
 30
0.0
 10
8.487246349783184
 20
-4.432586179437545
 30
0.0
 10
7.406179160478885
 20
-4.45385620411826
 30
0.0
 10
6.32499427946216
 20
-4.420088916164361
 30
0.0
 10
5.243919817275638
 20
-4.330317374615976
 30
0.0
 10
4.162745373798011
 20
-4.185526821789024
 30
0.0
 10
3.081634018986438
 20
-3.990780011875739
 30
0.0
 10
2.360742380073063
 20
-3.819332976105203
 30
0.0
 10
1.999999999999997
 20
-3.733538928287474
 30
0.0
  0
SPLINE
  5
AE
330
1F
100
AcDbEntity
  8
외형선
  6
Continuous
370
    15
100
AcDbSpline
210
0.0
220
0.0
230
1.0
 70
    24
 71
     3
 72
    14
 73
    10
 74
     0
 42
0.000000001
 43
0.00000001
 40
0.0
 40
0.0
 40
0.0
 40
0.0
 40
0.25
 40
0.25
 40
0.5
 40
0.5
 40
0.75
 40
0.75
 40
1.0
 40
1.0
 40
1.0
 40
1.0
 10
1.999999999999997
 20
2.110675585998545
 30
0.0
 10
1.999999999999997
 20
1.649870541323933
 30
0.0
 10
1.999999999999997
 20
1.153066622495044
 30
0.0
 10
1.999999999999997
 20
0.1268236421967665
 30
0.0
 10
1.999999999999997
 20
-0.4021799836558002
 30
0.0
 10
1.999999999999997
 20
-1.440865398036452
 30
0.0
 10
1.999999999999997
 20
-1.949993731550165
 30
0.0
 10
1.999999999999997
 20
-2.900505426202025
 30
0.0
 10
1.999999999999997
 20
-3.34155972040031
 30
0.0
 10
1.999999999999997
 20
-3.733538928287472
 30
0.0
  0
LINE
  5
AF
330
1F
100
AcDbEntity
  8
0
  6
Continuous
 62
     1
370
    15
100
AcDbLine
 10
22.6375
 20
0.0000000000000007
 30
0.0
 11
22.6375
 21
3.889374999999999
 31
0.0
  0
SPLINE
  5
B0
330
1F
100
AcDbEntity
  8
외형선
  6
Continuous
370
    15
100
AcDbSpline
210
0.0
220
0.0
230
1.0
 70
    24
 71
     3
 72
    14
 73
    10
 74
     0
 42
0.000000001
 43
0.00000001
 40
0.0
 40
0.0
 40
0.0
 40
0.0
 40
0.1234678483861086
 40
0.2469356967722174
 40
0.3720173785691329
 40
0.4970990603660484
 40
0.6786603205422954
 40
0.8602215807185424
 40
0.9717987265472402
 40
0.9717987265472402
 40
0.9717987265472402
 40
0.9717987265472402
 10
1.999999999999997
 20
-3.733538928287474
 30
0.0
 10
1.999999999999999
 20
-3.782743389975914
 30
0.0
 10
2.000000000000001
 20
-3.881152313352797
 30
0.0
 10
2.000000000000004
 20
-4.006682288335915
 30
0.0
 10
2.000000000000003
 20
-4.115258997619755
 30
0.0
 10
2.000000000000003
 20
-4.218516845635807
 30
0.0
 10
2.000000000000003
 20
-4.302881363422558
 30
0.0
 10
2.000000000000003
 20
-4.353324012010704
 30
0.0
 10
2.000000000000003
 20
-4.357388892768608
 30
0.0
 10
2.000000000000003
 20
-4.762500000000005
 30
0.0
  0
SPLINE
  5
B1
330
1F
100
AcDbEntity
  8
0
  6
Continuous
 62
     1
370
    15
100
AcDbSpline
210
0.0
220
0.0
230
1.0
 70
     8
 71
     3
 72
    15
 73
    11
 74
     0
 42
0.000000001
 43
0.00000001
 40
0.0
 40
0.0
 40
0.0
 40
0.0
 40
0.0777833555581782
 40
0.2106269401009621
 40
0.3440084537413322
 40
0.476883005192855
 40
0.6078408503143158
 40
0.7384203172013298
 40
0.8692815447416353
 40
0.9999999999999999
 40
0.9999999999999999
 40
0.9999999999999999
 40
0.9999999999999999
 10
14.99794034976953
 20
3.724417180580917
 30
0.0
 10
15.19614213724079
 20
3.809660493859601
 30
0.0
 10
15.73284611096415
 20
4.040488003307014
 30
0.0
 10
16.60782081383326
 20
4.370981926606369
 30
0.0
 10
17.62530670026756
 20
4.710247298023888
 30
0.0
 10
18.63572018778273
 20
4.995760495737532
 30
0.0
 10
19.64103189176819
 20
5.22390252312257
 30
0.0
 10
20.63953931455973
 20
5.394430733674231
 30
0.0
 10
21.63865896188831
 20
5.510511438725763
 30
0.0
 10
22.30467415943574
 20
5.537878086633455
 30
0.0
 10
22.63749999999999
 20
5.55625
 30
0.0
  0
LINE
  5
B2
330
1F
100
AcDbEntity
  8
0
  6
Continuous
 62
     1
370
    15
100
AcDbLine
 10
22.6375
 20
3.889374999999999
 30
0.0
 11
22.63749999999999
 21
5.556250000000002
 31
0.0
  0
LINE
  5
B4
330
1F
100
AcDbEntity
  8
참조1
100
AcDbLine
 10
-11.34067116787306
 20
0.0010749287238892
 30
0.0
 11
-11.34067116787306
 21
-39.99892507127611
 31
0.0
  0
LINE
  5
B5
330
1F
100
AcDbEntity
  8
참조1
100
AcDbLine
 10
-11.34067116787306
 20
-39.99892507127611
 30
0.0
 11
-22.53075298218174
 21
-39.9989250712761
 31
0.0
  0
INSERT
  5
B7
330
1F
100
AcDbEntity
  8
0
  6
Continuous
 62
     7
100
AcDbBlockReference
 66
     1
  2
블럭10
 10
-27.02152293212521
 20
-52.04717430164393
 30
0.0
  0
ATTRIB
  5
B8
330
B7
100
AcDbEntity
  8
FORMAT
 62
     2
100
AcDbText
 10
-36.20281822086649
 20
-49.97180738881175
 30
0.0
 40
4.233333333333333
  1
E1163028 [ 2 FLUTE ]
 41
0.75
  7
SLDTEXTSTYLE0
 11
-36.20281822086649
 21
-52.08847405547841
 31
0.0
100
AcDbAttribute
  2
AUTOATTR0
 70
     0
 74
     1
  0
SEQEND
  5
B9
330
B7
100
AcDbEntity
  8
0
  6
Continuous
 62
     7
  0
HATCH
  5
BA
330
1F
100
AcDbEntity
  8
중심선
100
AcDbHatch
 10
0.0
 20
0.0
 30
0.0
210
0.0
220
0.0
230
1.0
  2
SOLID
 70
     1
 71
     0
 91
        1
 92
        0
 93
        4
 72
     1
 10
-21.30661362774435
 20
-35.8
 11
-24.75288887158164
 21
-35.8
 72
     1
 10
-24.75288887158164
 20
-35.8
 11
-26.88111873078566
 21
-38.3363255805726
 72
     1
 10
-26.88111873078566
 20
-38.3363255805726
 11
-23.43481040183523
 21
-38.33628615127011
 72
     1
 10
-23.43481040183523
 20
-38.33628615127011
 11
-21.30661362774435
 21
-35.8
 97
        0
 75
     0
 76
     1
 98
        1
 10
-1.740578832126941
 20
-0.0010749287238951
  0
HATCH
  5
BB
330
1F
100
AcDbEntity
  8
중심선
100
AcDbHatch
 10
0.0
 20
0.0
 30
0.0
210
0.0
220
0.0
230
1.0
  2
SOLID
 70
     1
 71
     0
 91
        1
 92
        0
 93
        4
 72
     1
 10
-16.29384963670838
 20
-35.80000000000003
 11
-19.74012488054566
 21
-35.79999999999998
 72
     1
 10
-19.74012488054566
 20
-35.79999999999998
 11
-24.27126288890307
 21
-41.20000000000002
 72
     1
 10
-24.27126288890307
 20
-41.20000000000002
 11
-20.82498764506579
 21
-41.20000000000002
 72
     1
 10
-20.8249876450658
 20
-41.20000000000002
 11
-16.29384963670838
 21
-35.80000000000003
 97
        0
 75
     0
 76
     1
 98
        1
 10
-1.740578832126941
 20
-0.0010749287238951
  0
HATCH
  5
BC
330
1F
100
AcDbEntity
  8
중심선
100
AcDbHatch
 10
0.0
 20
0.0
 30
0.0
210
0.0
220
0.0
230
1.0
  2
SOLID
 70
     1
 71
     0
 91
        1
 92
        0
 93
        4
 72
     1
 10
-11.28108564567248
 20
-35.8
 11
-14.7273608895096
 21
-35.79999999999998
 72
     1
 10
-14.7273608895096
 20
-35.79999999999998
 11
-21.77579779139887
 21
-44.20000000000002
 72
     1
 10
-21.77579779139887
 20
-44.20000000000002
 11
-18.32952254756159
 21
-44.20000000000002
 72
     1
 10
-18.3295225475616
 20
-44.20000000000002
 11
-11.28108564567248
 21
-35.8
 97
        0
 75
     0
 76
     1
 98
        1
 10
-1.740578832126941
 20
-0.0010749287238951
  0
HATCH
  5
BD
330
1F
100
AcDbEntity
  8
중심선
100
AcDbHatch
 10
0.0
 20
0.0
 30
0.0
210
0.0
220
0.0
230
1.0
  2
SOLID
 70
     1
 71
     0
 91
        1
 92
        0
 93
        6
 72
     3
 10
-6.48119521466031
 20
-40.00000000005127
 11
3.960054785062284
 21
1.540882976769353E-10
 40
0.3939339440162627
 50
17.09539180608437
 51
320.0019657685086
 73
     0
 72
     1
 10
-4.798195558959715
 20
-38.58789400463833
 11
-2.492893685258677
 21
-36.65356729459038
 72
     3
 10
-6.481195214713157
 20
-40.00000000000015
 11
6.600054785286829
 21
-1.278976924368180E-13
 40
0.636358354079598
 50
39.9987384933741
 51
368.4976242363725
 73
     1
 72
     1
 10
-0.0558627228125472
 20
-39.03999999993002
 11
-7.801127907877234
 21
-39.03999999993002
 72
     1
 10
-7.801127907877234
 20
-39.03999999993002
 11
-7.801152952323168
 21
-40.95999999992991
 72
     1
 10
-7.801152952323168
 20
-40.95999999992991
 11
-3.359773182851131
 21
-40.95999999992988
 97
        0
 75
     0
 76
     1
 98
        1
 10
-1.740578832126941
 20
-0.0010749287238951
  0
DIMENSION
  5
CC
330
1F
100
AcDbEntity
  8
치수문자_일반주서
100
AcDbDimension
  2
_D_1
 10
1.999999999999998
 20
16.54290286035538
 30
0.0
 11
14.7
 21
16.54290286035538
 31
0.0
 70
   160
  1
<>
 71
     2
 42
20.63749999999999
  3
SLDDIMSTYLE1
100
AcDbAlignedDimension
 13
22.63749999999999
 23
5.55625
 33
0.0
 14
1.999999999999997
 24
5.472849324069391
 34
0.0
100
AcDbRotatedDimension
1001
ACAD
1000
DSTYLE
1002
{
1070
   171
1070
     6
1070
   273
1070
     7
1002
}
  0
DIMENSION
  5
F6
330
1F
100
AcDbEntity
  8
치수문자_일반주서
100
AcDbDimension
  2
_D_3
 10
41.63750000000003
 20
5.556250000000073
 30
0.0
 11
41.63749999999997
 21
25.93680394211977
 31
0.0
 70
   160
  1
%%c<>
 71
     2
 42
11.1125
 52
-270.0
  3
SLDDIMSTYLE1
100
AcDbAlignedDimension
 13
22.63749999999999
 23
-5.55625
 33
0.0
 14
22.63749999999999
 24
5.556250000000002
 34
0.0
 50
90.0000000000002
100
AcDbRotatedDimension
1001
ACAD
1000
DSTYLE
1002
{
1070
   171
1070
     6
1070
   273
1070
     7
1002
}
  0
LINE
  5
109
330
1F
100
AcDbEntity
  8
참조1
100
AcDbLine
 10
75.44158764747253
 20
7.441074928723896
 30
0.0
 11
75.44158764747253
 21
-7.438925071276109
 31
0.0
  0
LINE
  5
10A
330
1F
100
AcDbEntity
  8
참조1
100
AcDbLine
 10
88.14158764747253
 20
5.441074928723896
 30
0.0
 11
75.44158764747253
 21
5.441074928723896
 31
0.0
  0
SOLID
  5
10B
330
1F
100
AcDbEntity
  8
참조1
100
AcDbTrace
 10
75.44158764747253
 20
5.441074928723896
 30
0.0
 11
81.79158764747253
 21
4.425074928723896
 31
0.0
 12
81.79158764747253
 22
6.457074928723896
 32
0.0
 13
81.79158764747253
 23
6.457074928723896
 33
0.0
  0
LINE
  5
10C
330
1F
100
AcDbEntity
  8
참조1
100
AcDbLine
 10
88.14158764747253
 20
-5.438925071276109
 30
0.0
 11
75.44158764747253
 21
-5.438925071276109
 31
0.0
  0
SOLID
  5
10D
330
1F
100
AcDbEntity
  8
참조1
100
AcDbTrace
 10
75.44158764747253
 20
-5.438925071276109
 30
0.0
 11
81.79158764747253
 21
-6.454925071276109
 31
0.0
 12
81.79158764747253
 22
-4.422925071276109
 32
0.0
 13
81.79158764747253
 23
-4.422925071276109
 33
0.0
  0
MTEXT
  5
10E
330
1F
100
AcDbEntity
  8
참조1
100
AcDbMText
 10
84.82593778009851
 20
11.01136670591222
 30
0.0
 40
3.5
 41
0.0
 71
     1
 72
     1
  1
A
  7
SLDTEXTSTYLE0
 73
     1
 44
1.0
  0
MTEXT
  5
10F
330
1F
100
AcDbEntity
  8
참조1
100
AcDbMText
 10
84.82593778009851
 20
0.1313667059122201
 30
0.0
 40
3.5
 41
0.0
 71
     1
 72
     1
  1
A
  7
SLDTEXTSTYLE0
 73
     1
 44
1.0
  0
LINE
  5
212
330
1F
100
AcDbEntity
  8
외형선
  6
Continuous
370
    15
100
AcDbLine
 10
-39.86250000000001
 20
-4.762500000000003
 30
0.0
 11
2.000000000000002
 21
-4.762500000000003
 31
0.0
  0
LINE
  5
213
330
1F
100
AcDbEntity
  8
외형선
  6
Continuous
370
    15
100
AcDbLine
 10
-39.86250000000001
 20
4.762499999999992
 30
0.0
 11
-40.86250000000001
 21
3.762499999999996
 31
0.0
  0
LINE
  5
214
330
1F
100
AcDbEntity
  8
외형선
  6
Continuous
370
    15
100
AcDbLine
 10
-40.86250000000001
 20
-3.762500000000002
 30
0.0
 11
-39.86250000000001
 21
-4.762500000000003
 31
0.0
  0
LINE
  5
221
330
1F
100
AcDbEntity
  8
외형선
  6
Continuous
370
    15
100
AcDbLine
 10
-39.86250000000001
 20
4.762499999999992
 30
0.0
 11
-39.86250000000001
 21
-4.762500000000003
 31
0.0
  0
LINE
  5
223
330
1F
100
AcDbEntity
  8
외형선
  6
Continuous
370
    15
100
AcDbLine
 10
-40.86250000000001
 20
3.762499999999996
 30
0.0
 11
-40.86250000000001
 21
-3.762500000000002
 31
0.0
  0
LINE
  5
240
330
1F
100
AcDbEntity
  8
중심선
 48
0.8
100
AcDbLine
 10
-43.86250000000001
 20
-0.0000000000000068
 30
0.0
 11
25.63749999999999
 21
0.0000000000000001
 31
0.0
  0
CIRCLE
  5
241
330
1F
100
AcDbEntity
  8
해칭선
100
AcDbCircle
 10
0.0
 20
0.0
 30
0.0
 40
2.999999999999995
  0
DIMENSION
  5
242
330
1F
100
AcDbEntity
  8
치수문자_일반주서
100
AcDbDimension
  2
*D12
 10
-53.36249999999999
 20
-4.762500000000053
 30
0.0
 11
-53.36250000000001
 21
0.0000000000000039
 31
0.0
 70
   160
  1
%%c<>
 71
     2
 42
9.525000000000006
 52
-270.0
  3
SLDDIMSTYLE1
100
AcDbAlignedDimension
 13
-39.8625
 23
4.762500000000003
 33
0.0
 14
-39.8625
 24
-4.762500000000003
 34
0.0
 50
90.0000000000002
100
AcDbRotatedDimension
1001
ACAD
1000
DSTYLE
1002
{
1070
   171
1070
     6
1070
   273
1070
     7
1002
}
  0
DIMENSION
  5
244
330
1F
100
AcDbEntity
  8
치수문자_일반주서
100
AcDbDimension
  2
*D14
 10
-40.86250000000001
 20
35.04486045510103
 30
0.0
 11
-11.49375000000003
 21
35.04486045510103
 31
0.0
 70
   160
  1
<>
 71
     2
 42
63.5
  3
SLDDIMSTYLE1
100
AcDbAlignedDimension
 13
22.63749999999999
 23
5.55625
 33
0.0
 14
-40.86250000000001
 24
3.762499999999996
 34
0.0
 50
0.0000000000000139
100
AcDbRotatedDimension
1001
ACAD
1000
DSTYLE
1002
{
1070
   171
1070
     6
1070
   273
1070
     7
1002
}
  0
INSERT
  5
246
330
1F
100
AcDbEntity
  8
해칭선
100
AcDbBlockReference
  2
SW_DOWELSYMBOL_0
 10
0.0
 20
0.0
 30
0.0
  0
LINE
  5
247
330
1F
100
AcDbEntity
  8
외형선
  6
Continuous
370
    15
100
AcDbLine
 10
-23.6549285006314
 20
3.492500000000017
 30
0.0
 11
-16.51752850063127
 21
3.492500000000017
 31
0.0
  0
LINE
  5
248
330
1F
100
AcDbEntity
  8
외형선
  6
Continuous
370
    15
100
AcDbLine
 10
-23.6549285006314
 20
3.492500000000017
 30
0.0
 11
-24.92492850063138
 21
4.762499999999999
 31
0.0
  0
LINE
  5
249
330
1F
100
AcDbEntity
  8
외형선
  6
Continuous
370
    15
100
AcDbLine
 10
-16.51752850063127
 20
3.492500000000017
 30
0.0
 11
-15.24752850063117
 21
4.762499999999999
 31
0.0
  0
LINE
  5
24A
330
1F
100
AcDbEntity
  8
외형선
  6
Continuous
370
    15
100
AcDbLine
 10
-24.8574500000001
 20
4.762499999999996
 30
0.0
 11
-39.8625
 21
4.762499999999996
 31
0.0
  0
LINE
  5
24B
330
1F
100
AcDbEntity
  8
외형선
  6
Continuous
370
    15
100
AcDbLine
 10
2.000000000000002
 20
4.762500000000003
 30
0.0
 11
-15.24752850063116
 21
4.762499999999999
 31
0.0
  0
LINE
  5
282
330
1F
100
AcDbEntity
  8
0
100
AcDbLine
 10
-11.5612285006313
 20
0.0
 30
0.0
 11
7.993868348518321
 21
0.0
 31
0.0
  0
ENDSEC
  0
SECTION
  2
OBJECTS
  0
DICTIONARY
  5
C
330
0
100
AcDbDictionary
281
     1
  3
ACAD_GROUP
350
D
  3
ACAD_IMAGE_VARS
350
13A
  3
ACAD_LAYOUT
350
1A
  3
ACAD_MLINESTYLE
350
17
  3
ACAD_PLOTSETTINGS
350
19
  3
ACAD_PLOTSTYLENAME
350
E
  3
ACAD_SCALELIST
350
47
  3
APPDATA
350
138
  3
DWGPROPS
350
28D
  0
DICTIONARY
  5
1D7
330
2
100
AcDbDictionary
280
     1
281
     1
  3
ACAD_LAYERSTATES
360
1D8
  0
DICTIONARY
  5
D
102
{ACAD_REACTORS
330
C
102
}
330
C
100
AcDbDictionary
281
     1
  0
RASTERVARIABLES
  5
13A
102
{ACAD_REACTORS
330
C
102
}
330
C
100
AcDbRasterVariables
 90
        0
 70
     1
 71
     1
 72
     1
  0
DICTIONARY
  5
1A
102
{ACAD_REACTORS
330
C
102
}
330
C
100
AcDbDictionary
281
     1
  3
Layout1
350
1E
  3
Layout2
350
26
  3
Model
350
22
  0
DICTIONARY
  5
17
102
{ACAD_REACTORS
330
C
102
}
330
C
100
AcDbDictionary
281
     1
  3
Standard
350
18
  0
DICTIONARY
  5
19
102
{ACAD_REACTORS
330
C
102
}
330
C
100
AcDbDictionary
281
     1
  0
ACDBDICTIONARYWDFLT
  5
E
102
{ACAD_REACTORS
330
C
102
}
330
C
100
AcDbDictionary
281
     1
  3
Normal
350
F
100
AcDbDictionaryWithDefault
340
F
  0
DICTIONARY
  5
47
102
{ACAD_REACTORS
330
C
102
}
330
C
100
AcDbDictionary
281
     1
  3
A0
350
48
  3
A1
350
49
  3
A2
350
4A
  3
A3
350
4B
  3
A4
350
4C
  3
A5
350
4D
  3
A6
350
4E
  3
A7
350
4F
  3
A8
350
50
  3
A9
350
51
  3
B0
350
52
  3
B1
350
53
  3
B2
350
54
  3
B3
350
55
  3
B4
350
56
  3
B5
350
57
  3
B6
350
58
  3
B7
350
59
  3
B8
350
5A
  3
B9
350
5B
  3
C0
350
5C
  3
C1
350
5D
  3
C2
350
5E
  3
C3
350
5F
  3
C4
350
60
  3
C5
350
61
  3
C6
350
62
  3
C7
350
63
  3
C8
350
64
  3
C9
350
65
  3
D0
350
66
  3
D1
350
67
  3
D2
350
68
  0
DICTIONARY
  5
138
102
{ACAD_REACTORS
330
C
102
}
330
C
100
AcDbDictionary
281
     1
  0
XRECORD
  5
28D
102
{ACAD_REACTORS
330
C
102
}
330
C
100
AcDbXrecord
280
     1
  1
DWGPROPS COOKIE
  2

  3

  4

  6

  7

  8
12017012
  9

300
=
301
=
302
=
303
=
304
=
305
=
306
=
307
=
308
=
309
=
 40
0.0
 41
2458311.200167731
 42
2458319.13722566
  1

 90
        0
  0
DICTIONARY
  5
1D8
102
{ACAD_REACTORS
330
1D7
102
}
330
1D7
100
AcDbDictionary
281
     1
  0
LAYOUT
  5
1E
102
{ACAD_REACTORS
330
1A
102
}
330
1A
100
AcDbPlotSettings
  1

  2
none_device
  4

  6

 40
0.0
 41
0.0
 42
0.0
 43
0.0
 44
0.0
 45
0.0
 46
0.0
 47
0.0
 48
0.0
 49
0.0
140
0.0
141
0.0
142
1.0
143
1.0
 70
   688
 72
     1
 73
     0
 74
     5
  7

 75
    16
147
1.0
148
0.0
149
0.0
100
AcDbLayout
  1
Layout1
 70
     1
 71
     1
 10
0.0
 20
0.0
 11
420.0
 21
297.0
 12
0.0
 22
0.0
 32
0.0
 14
1.000000000000000E+20
 24
1.000000000000000E+20
 34
1.000000000000000E+20
 15
-1.000000000000000E+20
 25
-1.000000000000000E+20
 35
-1.000000000000000E+20
146
0.0
 13
0.0
 23
0.0
 33
0.0
 16
1.0
 26
0.0
 36
0.0
 17
0.0
 27
1.0
 37
0.0
 76
     0
330
1B
  0
LAYOUT
  5
26
102
{ACAD_REACTORS
330
1A
102
}
330
1A
100
AcDbPlotSettings
  1

  2
none_device
  4

  6

 40
0.0
 41
0.0
 42
0.0
 43
0.0
 44
0.0
 45
0.0
 46
0.0
 47
0.0
 48
0.0
 49
0.0
140
0.0
141
0.0
142
1.0
143
1.0
 70
   688
 72
     1
 73
     0
 74
     5
  7

 75
    16
147
1.0
148
0.0
149
0.0
100
AcDbLayout
  1
Layout2
 70
     1
 71
     2
 10
0.0
 20
0.0
 11
0.0
 21
0.0
 12
0.0
 22
0.0
 32
0.0
 14
0.0
 24
0.0
 34
0.0
 15
0.0
 25
0.0
 35
0.0
146
0.0
 13
0.0
 23
0.0
 33
0.0
 16
1.0
 26
0.0
 36
0.0
 17
0.0
 27
1.0
 37
0.0
 76
     0
330
23
  0
LAYOUT
  5
22
102
{ACAD_REACTORS
330
1A
102
}
330
1A
100
AcDbPlotSettings
  1

  2
none_device
  4
ANSI_A_(11.00_x_8.50_Inches)
  6

 40
6.35
 41
19.05
 42
6.35000508
 43
19.05000254
 44
279.4
 45
215.9
 46
111.5354592427306
 47
97.62990263130112
 48
0.0
 49
0.0
140
0.0
141
0.0
142
0.0715194751484015
143
1.0
 70
  1696
 72
     0
 73
     0
 74
     0
  7

 75
     0
147
0.0235690232323232
148
0.0
149
0.0
100
AcDbLayout
  1
Model
 70
     1
 71
     0
 10
0.0
 20
0.0
 11
420.0
 21
297.0
 12
0.0
 22
0.0
 32
0.0
 14
1.000000000000000E+20
 24
1.000000000000000E+20
 34
1.000000000000000E+20
 15
-1.000000000000000E+20
 25
-1.000000000000000E+20
 35
-1.000000000000000E+20
146
0.0
 13
0.0
 23
0.0
 33
0.0
 16
1.0
 26
0.0
 36
0.0
 17
0.0
 27
1.0
 37
0.0
 76
     0
330
1F
331
29
  0
MLINESTYLE
  5
18
102
{ACAD_REACTORS
330
17
102
}
330
17
100
AcDbMlineStyle
  2
Standard
 70
     0
  3

 62
   256
 51
90.0
 52
90.0
 71
     2
 49
0.5
 62
   256
  6
BYLAYER
 49
-0.5
 62
   256
  6
BYLAYER
  0
ACDBPLACEHOLDER
  5
F
102
{ACAD_REACTORS
330
E
102
}
330
E
  0
SCALE
  5
48
102
{ACAD_REACTORS
330
47
102
}
330
47
100
AcDbScale
 70
     0
300
1:1
140
1.0
141
1.0
290
     1
  0
SCALE
  5
49
102
{ACAD_REACTORS
330
47
102
}
330
47
100
AcDbScale
 70
     0
300
1:2
140
1.0
141
2.0
290
     0
  0
SCALE
  5
4A
102
{ACAD_REACTORS
330
47
102
}
330
47
100
AcDbScale
 70
     0
300
1:4
140
1.0
141
4.0
290
     0
  0
SCALE
  5
4B
102
{ACAD_REACTORS
330
47
102
}
330
47
100
AcDbScale
 70
     0
300
1:5
140
1.0
141
5.0
290
     0
  0
SCALE
  5
4C
102
{ACAD_REACTORS
330
47
102
}
330
47
100
AcDbScale
 70
     0
300
1:8
140
1.0
141
8.0
290
     0
  0
SCALE
  5
4D
102
{ACAD_REACTORS
330
47
102
}
330
47
100
AcDbScale
 70
     0
300
1:10
140
1.0
141
10.0
290
     0
  0
SCALE
  5
4E
102
{ACAD_REACTORS
330
47
102
}
330
47
100
AcDbScale
 70
     0
300
1:16
140
1.0
141
16.0
290
     0
  0
SCALE
  5
4F
102
{ACAD_REACTORS
330
47
102
}
330
47
100
AcDbScale
 70
     0
300
1:20
140
1.0
141
20.0
290
     0
  0
SCALE
  5
50
102
{ACAD_REACTORS
330
47
102
}
330
47
100
AcDbScale
 70
     0
300
1:30
140
1.0
141
30.0
290
     0
  0
SCALE
  5
51
102
{ACAD_REACTORS
330
47
102
}
330
47
100
AcDbScale
 70
     0
300
1:40
140
1.0
141
40.0
290
     0
  0
SCALE
  5
52
102
{ACAD_REACTORS
330
47
102
}
330
47
100
AcDbScale
 70
     0
300
1:50
140
1.0
141
50.0
290
     0
  0
SCALE
  5
53
102
{ACAD_REACTORS
330
47
102
}
330
47
100
AcDbScale
 70
     0
300
1:100
140
1.0
141
100.0
290
     0
  0
SCALE
  5
54
102
{ACAD_REACTORS
330
47
102
}
330
47
100
AcDbScale
 70
     0
300
2:1
140
2.0
141
1.0
290
     0
  0
SCALE
  5
55
102
{ACAD_REACTORS
330
47
102
}
330
47
100
AcDbScale
 70
     0
300
4:1
140
4.0
141
1.0
290
     0
  0
SCALE
  5
56
102
{ACAD_REACTORS
330
47
102
}
330
47
100
AcDbScale
 70
     0
300
8:1
140
8.0
141
1.0
290
     0
  0
SCALE
  5
57
102
{ACAD_REACTORS
330
47
102
}
330
47
100
AcDbScale
 70
     0
300
10:1
140
10.0
141
1.0
290
     0
  0
SCALE
  5
58
102
{ACAD_REACTORS
330
47
102
}
330
47
100
AcDbScale
 70
     0
300
100:1
140
100.0
141
1.0
290
     0
  0
SCALE
  5
59
102
{ACAD_REACTORS
330
47
102
}
330
47
100
AcDbScale
 70
     0
300
1/128" = 1'-0"
140
0.0078125
141
12.0
290
     0
  0
SCALE
  5
5A
102
{ACAD_REACTORS
330
47
102
}
330
47
100
AcDbScale
 70
     0
300
1/64" = 1'-0"
140
0.015625
141
12.0
290
     0
  0
SCALE
  5
5B
102
{ACAD_REACTORS
330
47
102
}
330
47
100
AcDbScale
 70
     0
300
1/32" = 1'-0"
140
0.03125
141
12.0
290
     0
  0
SCALE
  5
5C
102
{ACAD_REACTORS
330
47
102
}
330
47
100
AcDbScale
 70
     0
300
1/16" = 1'-0"
140
0.0625
141
12.0
290
     0
  0
SCALE
  5
5D
102
{ACAD_REACTORS
330
47
102
}
330
47
100
AcDbScale
 70
     0
300
3/32" = 1'-0"
140
0.09375
141
12.0
290
     0
  0
SCALE
  5
5E
102
{ACAD_REACTORS
330
47
102
}
330
47
100
AcDbScale
 70
     0
300
1/8" = 1'-0"
140
0.125
141
12.0
290
     0
  0
SCALE
  5
5F
102
{ACAD_REACTORS
330
47
102
}
330
47
100
AcDbScale
 70
     0
300
3/16" = 1'-0"
140
0.1875
141
12.0
290
     0
  0
SCALE
  5
60
102
{ACAD_REACTORS
330
47
102
}
330
47
100
AcDbScale
 70
     0
300
1/4" = 1'-0"
140
0.25
141
12.0
290
     0
  0
SCALE
  5
61
102
{ACAD_REACTORS
330
47
102
}
330
47
100
AcDbScale
 70
     0
300
3/8" = 1'-0"
140
0.375
141
12.0
290
     0
  0
SCALE
  5
62
102
{ACAD_REACTORS
330
47
102
}
330
47
100
AcDbScale
 70
     0
300
1/2" = 1'-0"
140
0.5
141
12.0
290
     0
  0
SCALE
  5
63
102
{ACAD_REACTORS
330
47
102
}
330
47
100
AcDbScale
 70
     0
300
3/4" = 1'-0"
140
0.75
141
12.0
290
     0
  0
SCALE
  5
64
102
{ACAD_REACTORS
330
47
102
}
330
47
100
AcDbScale
 70
     0
300
1" = 1'-0"
140
1.0
141
12.0
290
     0
  0
SCALE
  5
65
102
{ACAD_REACTORS
330
47
102
}
330
47
100
AcDbScale
 70
     0
300
1-1/2" = 1'-0"
140
1.5
141
12.0
290
     0
  0
SCALE
  5
66
102
{ACAD_REACTORS
330
47
102
}
330
47
100
AcDbScale
 70
     0
300
3" = 1'-0"
140
3.0
141
12.0
290
     0
  0
SCALE
  5
67
102
{ACAD_REACTORS
330
47
102
}
330
47
100
AcDbScale
 70
     0
300
6" = 1'-0"
140
6.0
141
12.0
290
     0
  0
SCALE
  5
68
102
{ACAD_REACTORS
330
47
102
}
330
47
100
AcDbScale
 70
     0
300
1'-0" = 1'-0"
140
12.0
141
12.0
290
     0
  0
ENDSEC
  0
EOF
