  0
SECTION
  2
HEADER
  9
$ACADVER
  1
AC1015
  9
$ACADMAINTVER
 70
     6
  9
$DWGCODEPAGE
  3
ANSI_949
  9
$INSBASE
 10
0.0
 20
0.0
 30
0.0
  9
$EXTMIN
 10
1.000000000000000E+20
 20
1.000000000000000E+20
 30
1.000000000000000E+20
  9
$EXTMAX
 10
-1.000000000000000E+20
 20
-1.000000000000000E+20
 30
-1.000000000000000E+20
  9
$LIMMIN
 10
0.0
 20
0.0
  9
$LIMMAX
 10
420.0
 20
297.0
  9
$ORTHOMODE
 70
     1
  9
$REGENMODE
 70
     1
  9
$FILLMODE
 70
     1
  9
$QTEXTMODE
 70
     0
  9
$MIRRTEXT
 70
     1
  9
$LTSCALE
 40
1.0
  9
$ATTMODE
 70
     1
  9
$TEXTSIZE
 40
3.5
  9
$TRACEWID
 40
1.0
  9
$TEXTSTYLE
  7
Standard
  9
$CLAYER
  8
0
  9
$CELTYPE
  6
ByLayer
  9
$CECOLOR
 62
   256
  9
$CELTSCALE
 40
1.0
  9
$DISPSILH
 70
     0
  9
$DIMSCALE
 40
1.0
  9
$DIMASZ
 40
3.302
  9
$DIMEXO
 40
1.0
  9
$DIMDLI
 40
3.75
  9
$DIMRND
 40
0.0
  9
$DIMDLE
 40
0.0
  9
$DIMEXE
 40
1.0
  9
$DIMTP
 40
0.0
  9
$DIMTM
 40
0.0
  9
$DIMTXT
 40
3.5
  9
$DIMCEN
 40
2.5
  9
$DIMTSZ
 40
0.0
  9
$DIMTOL
 70
     0
  9
$DIMLIM
 70
     0
  9
$DIMTIH
 70
     1
  9
$DIMTOH
 70
     1
  9
$DIMSE1
 70
     0
  9
$DIMSE2
 70
     0
  9
$DIMTAD
 70
     1
  9
$DIMZIN
 70
     0
  9
$DIMBLK
  1

  9
$DIMASO
 70
     1
  9
$DIMSHO
 70
     1
  9
$DIMPOST
  1

  9
$DIMAPOST
  1

  9
$DIMALT
 70
     0
  9
$DIMALTD
 70
     3
  9
$DIMALTF
 40
0.0393700787401575
  9
$DIMLFAC
 40
1.0
  9
$DIMTOFL
 70
     1
  9
$DIMTVP
 40
0.0
  9
$DIMTIX
 70
     0
  9
$DIMSOXD
 70
     0
  9
$DIMSAH
 70
     0
  9
$DIMBLK1
  1

  9
$DIMBLK2
  1

  9
$DIMSTYLE
  2
ISO-25
  9
$DIMCLRD
 70
     0
  9
$DIMCLRE
 70
     0
  9
$DIMCLRT
 70
     0
  9
$DIMTFAC
 40
1.0
  9
$DIMGAP
 40
1.524
  9
$DIMJUST
 70
     0
  9
$DIMSD1
 70
     0
  9
$DIMSD2
 70
     0
  9
$DIMTOLJ
 70
     0
  9
$DIMTZIN
 70
     0
  9
$DIMALTZ
 70
     0
  9
$DIMALTTZ
 70
     0
  9
$DIMUPT
 70
     0
  9
$DIMDEC
 70
     2
  9
$DIMTDEC
 70
     2
  9
$DIMALTU
 70
     2
  9
$DIMALTTD
 70
     3
  9
$DIMTXSTY
  7
Standard
  9
$DIMAUNIT
 70
     0
  9
$DIMADEC
 70
     2
  9
$DIMALTRND
 40
0.0
  9
$DIMAZIN
 70
     0
  9
$DIMDSEP
 70
    44
  9
$DIMATFIT
 70
     3
  9
$DIMFRAC
 70
     0
  9
$DIMLDRBLK
  1

  9
$DIMLUNIT
 70
     2
  9
$DIMLWD
 70
    -2
  9
$DIMLWE
 70
    -2
  9
$DIMTMOVE
 70
     0
  9
$LUNITS
 70
     2
  9
$LUPREC
 70
     2
  9
$SKETCHINC
 40
1.0
  9
$FILLETRAD
 40
10.0
  9
$AUNITS
 70
     0
  9
$AUPREC
 70
     2
  9
$MENU
  1
.
  9
$ELEVATION
 40
0.0
  9
$PELEVATION
 40
0.0
  9
$THICKNESS
 40
0.0
  9
$LIMCHECK
 70
     0
  9
$CHAMFERA
 40
0.0
  9
$CHAMFERB
 40
0.0
  9
$CHAMFERC
 40
0.0
  9
$CHAMFERD
 40
0.0
  9
$SKPOLY
 70
     0
  9
$TDCREATE
 40
2458311.47279206
  9
$TDUCREATE
 40
2458311.09779206
  9
$TDUPDATE
 40
2458319.513826528
  9
$TDUUPDATE
 40
2458319.138826528
  9
$TDINDWG
 40
0.0007911227
  9
$TDUSRTIMER
 40
2458319.138035879
  9
$USRTIMER
 70
     1
  9
$ANGBASE
 50
0.0
  9
$ANGDIR
 70
     0
  9
$PDMODE
 70
     0
  9
$PDSIZE
 40
-1.0
  9
$PLINEWID
 40
0.0
  9
$SPLFRAME
 70
     0
  9
$SPLINETYPE
 70
     6
  9
$SPLINESEGS
 70
     8
  9
$HANDSEED
  5
2F1
  9
$SURFTAB1
 70
     6
  9
$SURFTAB2
 70
     6
  9
$SURFTYPE
 70
     6
  9
$SURFU
 70
     6
  9
$SURFV
 70
     6
  9
$UCSBASE
  2

  9
$UCSNAME
  2

  9
$UCSORG
 10
0.0
 20
0.0
 30
0.0
  9
$UCSXDIR
 10
1.0
 20
0.0
 30
0.0
  9
$UCSYDIR
 10
0.0
 20
1.0
 30
0.0
  9
$UCSORTHOREF
  2

  9
$UCSORTHOVIEW
 70
     0
  9
$UCSORGTOP
 10
0.0
 20
0.0
 30
0.0
  9
$UCSORGBOTTOM
 10
0.0
 20
0.0
 30
0.0
  9
$UCSORGLEFT
 10
0.0
 20
0.0
 30
0.0
  9
$UCSORGRIGHT
 10
0.0
 20
0.0
 30
0.0
  9
$UCSORGFRONT
 10
0.0
 20
0.0
 30
0.0
  9
$UCSORGBACK
 10
0.0
 20
0.0
 30
0.0
  9
$PUCSBASE
  2

  9
$PUCSNAME
  2

  9
$PUCSORG
 10
0.0
 20
0.0
 30
0.0
  9
$PUCSXDIR
 10
1.0
 20
0.0
 30
0.0
  9
$PUCSYDIR
 10
0.0
 20
1.0
 30
0.0
  9
$PUCSORTHOREF
  2

  9
$PUCSORTHOVIEW
 70
     0
  9
$PUCSORGTOP
 10
0.0
 20
0.0
 30
0.0
  9
$PUCSORGBOTTOM
 10
0.0
 20
0.0
 30
0.0
  9
$PUCSORGLEFT
 10
0.0
 20
0.0
 30
0.0
  9
$PUCSORGRIGHT
 10
0.0
 20
0.0
 30
0.0
  9
$PUCSORGFRONT
 10
0.0
 20
0.0
 30
0.0
  9
$PUCSORGBACK
 10
0.0
 20
0.0
 30
0.0
  9
$USERI1
 70
     0
  9
$USERI2
 70
     0
  9
$USERI3
 70
     0
  9
$USERI4
 70
     0
  9
$USERI5
 70
     0
  9
$USERR1
 40
0.0
  9
$USERR2
 40
0.0
  9
$USERR3
 40
0.0
  9
$USERR4
 40
0.0
  9
$USERR5
 40
0.0
  9
$WORLDVIEW
 70
     1
  9
$SHADEDGE
 70
     3
  9
$SHADEDIF
 70
    70
  9
$TILEMODE
 70
     1
  9
$MAXACTVP
 70
    64
  9
$PINSBASE
 10
0.0
 20
0.0
 30
0.0
  9
$PLIMCHECK
 70
     0
  9
$PEXTMIN
 10
1.000000000000000E+20
 20
1.000000000000000E+20
 30
1.000000000000000E+20
  9
$PEXTMAX
 10
-1.000000000000000E+20
 20
-1.000000000000000E+20
 30
-1.000000000000000E+20
  9
$PLIMMIN
 10
0.0
 20
0.0
  9
$PLIMMAX
 10
0.0
 20
0.0
  9
$UNITMODE
 70
     0
  9
$VISRETAIN
 70
     1
  9
$PLINEGEN
 70
     0
  9
$PSLTSCALE
 70
     1
  9
$TREEDEPTH
 70
  3020
  9
$CMLSTYLE
  2
Standard
  9
$CMLJUST
 70
     0
  9
$CMLSCALE
 40
20.0
  9
$PROXYGRAPHICS
 70
     1
  9
$MEASUREMENT
 70
     1
  9
$CELWEIGHT
370
    -1
  9
$ENDCAPS
280
     0
  9
$JOINSTYLE
280
     0
  9
$LWDISPLAY
290
     1
  9
$INSUNITS
 70
     4
  9
$HYPERLINKBASE
  1

  9
$STYLESHEET
  1

  9
$XEDIT
290
     1
  9
$CEPSNTYPE
380
     0
  9
$PSTYLEMODE
290
     1
  9
$FINGERPRINTGUID
  2
{55F50673-5A52-4F8F-9CAD-87207384C876}
  9
$VERSIONGUID
  2
{FAEB1C32-E019-11D5-929B-00C0DF256EC4}
  9
$EXTNAMES
290
     1
  9
$PSVPSCALE
 40
0.0
  9
$OLESTARTUP
290
     0
  0
ENDSEC
  0
SECTION
  2
CLASSES
  0
CLASS
  1
ACDBDICTIONARYWDFLT
  2
AcDbDictionaryWithDefault
  3
ObjectDBX Classes
 90
        0
280
     0
281
     0
  0
CLASS
  1
VISUALSTYLE
  2
AcDbVisualStyle
  3
ObjectDBX Classes
 90
     4095
280
     0
281
     0
  0
CLASS
  1
MATERIAL
  2
AcDbMaterial
  3
ObjectDBX Classes
 90
     1153
280
     0
281
     0
  0
CLASS
  1
SCALE
  2
AcDbScale
  3
ObjectDBX Classes
 90
     1153
280
     0
281
     0
  0
CLASS
  1
SUN
  2
AcDbSun
  3
SCENEOE
 90
     1153
280
     0
281
     0
  0
CLASS
  1
ACDBPLACEHOLDER
  2
AcDbPlaceHolder
  3
ObjectDBX Classes
 90
        0
280
     0
281
     0
  0
CLASS
  1
LAYOUT
  2
AcDbLayout
  3
ObjectDBX Classes
 90
        0
280
     0
281
     0
  0
CLASS
  1
TABLESTYLE
  2
AcDbTableStyle
  3
ObjectDBX Classes
 90
     4095
280
     0
281
     0
  0
CLASS
  1
MLEADERSTYLE
  2
AcDbMLeaderStyle
  3
ACDB_MLEADERSTYLE_CLASS
 90
     4095
280
     0
281
     0
  0
CLASS
  1
RASTERVARIABLES
  2
AcDbRasterVariables
  3
ISM
 90
        0
280
     0
281
     0
  0
ENDSEC
  0
SECTION
  2
TABLES
  0
TABLE
  2
VPORT
  5
8
330
0
100
AcDbSymbolTable
 70
     1
  0
VPORT
  5
29
330
8
100
AcDbSymbolTableRecord
100
AcDbViewportTableRecord
  2
*Active
 70
     0
 10
0.0
 20
0.0
 11
1.0
 21
1.0
 12
-16.7298921705736
 22
-2.311585077181711
 13
0.0
 23
0.0
 14
10.0
 24
10.0
 15
10.0
 25
10.0
 16
0.0
 26
0.0
 36
1.0
 17
0.0
 27
0.0
 37
0.0
 40
152.4854648228318
 41
1.632093933463796
 42
50.0
 43
0.0
 44
0.0
 50
0.0
 51
0.0
 71
    16
 72
  2000
 73
     1
 74
     3
 75
     0
 76
     0
 77
     0
 78
     0
281
     0
 65
     1
110
0.0
120
0.0
130
0.0
111
1.0
121
0.0
131
0.0
112
0.0
122
1.0
132
0.0
 79
     0
146
0.0
  0
ENDTAB
  0
TABLE
  2
LTYPE
  5
5
330
0
100
AcDbSymbolTable
 70
     6
  0
LTYPE
  5
14
330
5
100
AcDbSymbolTableRecord
100
AcDbLinetypeTableRecord
  2
ByBlock
 70
     0
  3

 72
    65
 73
     0
 40
0.0
  0
LTYPE
  5
15
330
5
100
AcDbSymbolTableRecord
100
AcDbLinetypeTableRecord
  2
ByLayer
 70
     0
  3

 72
    65
 73
     0
 40
0.0
  0
LTYPE
  5
16
330
5
100
AcDbSymbolTableRecord
100
AcDbLinetypeTableRecord
  2
Continuous
 70
     0
  3
Solid line
 72
    65
 73
     0
 40
0.0
  0
LTYPE
  5
6A
330
5
100
AcDbSymbolTableRecord
100
AcDbLinetypeTableRecord
  2
HIDDEN
 70
     0
  3
Hidden __ __ __ __ __ __ __ __ __ __ __ __ __ __
 72
    65
 73
     2
 40
1.905
 49
1.27
 74
     0
 49
-0.635
 74
     0
  0
LTYPE
  5
6B
330
5
100
AcDbSymbolTableRecord
100
AcDbLinetypeTableRecord
  2
PHANTOM
 70
     0
  3
Phantom ______  __  __  ______  __  __  ______
 72
    65
 73
     6
 40
12.7
 49
6.35
 74
     0
 49
-1.27
 74
     0
 49
1.27
 74
     0
 49
-1.27
 74
     0
 49
1.27
 74
     0
 49
-1.27
 74
     0
  0
LTYPE
  5
6C
330
5
100
AcDbSymbolTableRecord
100
AcDbLinetypeTableRecord
  2
CENTER
 70
     0
  3
Center ____ _ ____ _ ____ _ ____ _ ____ _ ____
 72
    65
 73
     4
 40
10.16
 49
6.35
 74
     0
 49
-1.27
 74
     0
 49
1.27
 74
     0
 49
-1.27
 74
     0
  0
LTYPE
  5
6D
330
5
100
AcDbSymbolTableRecord
100
AcDbLinetypeTableRecord
  2
CENTERX2
 70
     0
  3
Center (2x) ________  __  ________  __  _____
 72
    65
 73
     4
 40
20.32
 49
12.7
 74
     0
 49
-2.54
 74
     0
 49
2.54
 74
     0
 49
-2.54
 74
     0
  0
LTYPE
  5
6E
330
5
100
AcDbSymbolTableRecord
100
AcDbLinetypeTableRecord
  2
DOT2
 70
     0
  3
Dot (.5x) ........................................
 72
    65
 73
     2
 40
0.635
 49
0.0
 74
     0
 49
-0.635
 74
     0
  0
ENDTAB
  0
TABLE
  2
LAYER
  5
2
102
{ACAD_XDICTIONARY
360
1F1
102
}
330
0
100
AcDbSymbolTable
 70
    18
  0
LAYER
  5
10
330
2
100
AcDbSymbolTableRecord
100
AcDbLayerTableRecord
  2
0
 70
     0
 62
     7
  6
Continuous
370
    -3
390
F
  0
LAYER
  5
6F
330
2
100
AcDbSymbolTableRecord
100
AcDbLayerTableRecord
  2
FORMAT
 70
     0
 62
     2
  6
Continuous
370
    -3
390
F
  0
LAYER
  5
70
330
2
100
AcDbSymbolTableRecord
100
AcDbLayerTableRecord
  2
외형선
 70
     0
 62
     4
  6
Continuous
370
    30
390
F
  0
LAYER
  5
71
330
2
100
AcDbSymbolTableRecord
100
AcDbLayerTableRecord
  2
숨은선
 70
     0
 62
     2
  6
HIDDEN
370
    15
390
F
  0
LAYER
  5
72
330
2
100
AcDbSymbolTableRecord
100
AcDbLayerTableRecord
  2
중심선
 70
     0
 62
     1
  6
CENTERX2
370
    -3
390
F
  0
LAYER
  5
73
330
2
100
AcDbSymbolTableRecord
100
AcDbLayerTableRecord
  2
파단선
 70
     0
 62
     4
  6
Continuous
370
    -3
390
F
  0
LAYER
  5
74
330
2
100
AcDbSymbolTableRecord
100
AcDbLayerTableRecord
  2
해칭선
 70
     0
 62
   100
  6
Continuous
370
    -3
390
F
  0
LAYER
  5
75
330
2
100
AcDbSymbolTableRecord
100
AcDbLayerTableRecord
  2
가는실선
 70
     0
 62
     4
  6
Continuous
370
    -3
390
F
  0
LAYER
  5
76
330
2
100
AcDbSymbolTableRecord
100
AcDbLayerTableRecord
  2
치수_보조선
 70
     0
 62
     4
  6
Continuous
370
    -3
390
F
  0
LAYER
  5
77
330
2
100
AcDbSymbolTableRecord
100
AcDbLayerTableRecord
  2
치수문자_일반주서
 70
     0
 62
     7
  6
Continuous
370
    15
390
F
  0
LAYER
  5
78
330
2
100
AcDbSymbolTableRecord
100
AcDbLayerTableRecord
  2
개별주서
 70
     0
 62
   100
  6
Continuous
370
    30
390
F
  0
LAYER
  5
79
330
2
100
AcDbSymbolTableRecord
100
AcDbLayerTableRecord
  2
중간선
 70
     0
 62
     2
  6
Continuous
370
    15
390
F
  0
LAYER
  5
7A
330
2
100
AcDbSymbolTableRecord
100
AcDbLayerTableRecord
  2
윤곽선
 70
     0
 62
     3
  6
Continuous
370
    40
390
F
  0
LAYER
  5
7B
330
2
100
AcDbSymbolTableRecord
100
AcDbLayerTableRecord
  2
중심마크
 70
     0
 62
   100
  6
Continuous
370
    30
390
F
  0
LAYER
  5
7C
330
2
100
AcDbSymbolTableRecord
100
AcDbLayerTableRecord
  2
가상선
 70
     0
 62
     4
  6
PHANTOM
370
    -3
390
F
  0
LAYER
  5
7D
330
2
100
AcDbSymbolTableRecord
100
AcDbLayerTableRecord
  2
특수지정선
 70
     0
 62
     5
  6
CENTERX2
370
    60
390
F
  0
LAYER
  5
7E
330
2
100
AcDbSymbolTableRecord
100
AcDbLayerTableRecord
  2
참조1
 70
     0
 62
    -4
  6
Continuous
370
    -3
390
F
  0
LAYER
  5
156
330
2
100
AcDbSymbolTableRecord
100
AcDbLayerTableRecord
  2
Defpoints
 70
     0
 62
     7
  6
Continuous
290
     0
370
    -3
390
F
  0
ENDTAB
  0
TABLE
  2
STYLE
  5
3
330
0
100
AcDbSymbolTable
 70
     2
  0
STYLE
  5
11
330
3
100
AcDbSymbolTableRecord
100
AcDbTextStyleTableRecord
  2
Standard
 70
     0
 40
0.0
 41
1.0
 50
0.0
 71
     0
 42
3.5
  3
txt
  4

  0
STYLE
  5
94
330
3
100
AcDbSymbolTableRecord
100
AcDbTextStyleTableRecord
  2
SLDTEXTSTYLE0
 70
     0
 40
0.0
 41
0.75
 50
0.0
 71
     0
 42
3.5
  3
TXT
  4

  0
ENDTAB
  0
TABLE
  2
VIEW
  5
6
330
0
100
AcDbSymbolTable
 70
     0
  0
ENDTAB
  0
TABLE
  2
UCS
  5
7
330
0
100
AcDbSymbolTable
 70
     0
  0
ENDTAB
  0
TABLE
  2
APPID
  5
9
330
0
100
AcDbSymbolTable
 70
     1
  0
APPID
  5
12
330
9
100
AcDbSymbolTableRecord
100
AcDbRegAppTableRecord
  2
ACAD
 70
     0
  0
ENDTAB
  0
TABLE
  2
DIMSTYLE
  5
A
330
0
100
AcDbSymbolTable
 70
     4
100
AcDbDimStyleTable
  0
DIMSTYLE
105
27
330
A
100
AcDbSymbolTableRecord
100
AcDbDimStyleTableRecord
  2
ISO-25
 70
     0
 41
2.5
 42
0.625
 43
3.75
 44
1.25
 73
     0
 74
     0
 77
     1
 78
     8
140
2.5
141
2.5
143
0.03937007874016
147
0.625
171
     3
172
     1
178
     0
271
     2
272
     2
274
     3
278
    44
283
     0
284
     8
340
11
  0
DIMSTYLE
105
D3
330
A
100
AcDbSymbolTableRecord
100
AcDbDimStyleTableRecord
  2
SLDDIMSTYLE0
 70
     0
 41
3.302
 44
0.0
 45
0.000000001
 73
     0
 74
     0
 77
     1
 78
     4
 79
     1
140
3.5
143
0.0393700787401575
147
0.875
148
0.000000001
170
     1
172
     1
173
     1
178
     0
271
     2
272
     2
276
     2
284
    12
289
     0
340
94
  0
DIMSTYLE
105
E8
102
{ACAD_REACTORS
330
E7
330
FC
330
1AF
330
1BC
330
1CA
330
1D7
330
10F
330
D2
102
}
330
A
100
AcDbSymbolTableRecord
100
AcDbDimStyleTableRecord
  2
SLDDIMSTYLE1
 70
     0
 41
3.302
 44
0.0
 45
0.000000001
 73
     0
 74
     0
 77
     1
 78
     4
 79
     1
140
3.5
143
0.0393700787401575
147
0.875
148
0.000000001
170
     1
173
     1
178
     0
271
     2
272
     2
276
     2
284
    12
340
94
  0
DIMSTYLE
105
110
330
A
100
AcDbSymbolTableRecord
100
AcDbDimStyleTableRecord
  2
SLDDIMSTYLE2
 70
     0
 41
3.302
 44
0.0
 45
0.000000001
 73
     0
 74
     0
 77
     1
 78
    12
 79
     3
140
3.5
143
0.0393700787401575
147
0.875
148
0.000000001
170
     1
173
     1
178
     0
271
     2
272
     2
276
     2
284
    12
340
94
  0
ENDTAB
  0
TABLE
  2
BLOCK_RECORD
  5
1
330
0
100
AcDbSymbolTable
 70
    18
  0
BLOCK_RECORD
  5
1F
330
1
100
AcDbSymbolTableRecord
100
AcDbBlockTableRecord
  2
*Model_Space
340
22
  0
BLOCK_RECORD
  5
1B
330
1
100
AcDbSymbolTableRecord
100
AcDbBlockTableRecord
  2
*Paper_Space
340
1E
  0
BLOCK_RECORD
  5
23
330
1
100
AcDbSymbolTableRecord
100
AcDbBlockTableRecord
  2
*Paper_Space0
340
26
  0
BLOCK_RECORD
  5
7F
330
1
100
AcDbSymbolTableRecord
100
AcDbBlockTableRecord
  2
블럭10
340
0
102
{BLKREFS
331
CB
102
}
  0
BLOCK_RECORD
  5
D4
330
1
100
AcDbSymbolTableRecord
100
AcDbBlockTableRecord
  2
_D
340
0
  0
BLOCK_RECORD
  5
E9
330
1
100
AcDbSymbolTableRecord
100
AcDbBlockTableRecord
  2
_D_1
340
0
  0
BLOCK_RECORD
  5
FD
330
1
100
AcDbSymbolTableRecord
100
AcDbBlockTableRecord
  2
_D_2
340
0
  0
BLOCK_RECORD
  5
111
330
1
100
AcDbSymbolTableRecord
100
AcDbBlockTableRecord
  2
_D_3
340
0
  0
BLOCK_RECORD
  5
12A
330
1
100
AcDbSymbolTableRecord
100
AcDbBlockTableRecord
  2
SW_DOWELSYMBOL_0
340
0
102
{BLKREFS
331
130
331
1E5
331
0
102
}
  0
BLOCK_RECORD
  5
1F5
330
1
100
AcDbSymbolTableRecord
100
AcDbBlockTableRecord
  2
*D8
340
0
  0
BLOCK_RECORD
  5
201
330
1
100
AcDbSymbolTableRecord
100
AcDbBlockTableRecord
  2
*D9
340
0
  0
BLOCK_RECORD
  5
20E
330
1
100
AcDbSymbolTableRecord
100
AcDbBlockTableRecord
  2
*D10
340
0
  0
BLOCK_RECORD
  5
21A
330
1
100
AcDbSymbolTableRecord
100
AcDbBlockTableRecord
  2
*D11
340
0
  0
BLOCK_RECORD
  5
262
330
1
100
AcDbSymbolTableRecord
100
AcDbBlockTableRecord
  2
*D12
340
0
  0
BLOCK_RECORD
  5
26E
330
1
100
AcDbSymbolTableRecord
100
AcDbBlockTableRecord
  2
*D13
340
0
  0
BLOCK_RECORD
  5
27B
330
1
100
AcDbSymbolTableRecord
100
AcDbBlockTableRecord
  2
*D14
340
0
  0
BLOCK_RECORD
  5
287
330
1
100
AcDbSymbolTableRecord
100
AcDbBlockTableRecord
  2
*D15
340
0
  0
ENDTAB
  0
ENDSEC
  0
SECTION
  2
BLOCKS
  0
BLOCK
  5
20
330
1F
100
AcDbEntity
  8
0
100
AcDbBlockBegin
  2
*Model_Space
 70
     0
 10
0.0
 20
0.0
 30
0.0
  3
*Model_Space
  1
*Model_Space
  0
ENDBLK
  5
21
330
1F
100
AcDbEntity
  8
0
100
AcDbBlockEnd
  0
BLOCK
  5
1C
330
1B
100
AcDbEntity
 67
     1
  8
0
100
AcDbBlockBegin
  2
*Paper_Space
 70
     0
 10
0.0
 20
0.0
 30
0.0
  3
*Paper_Space
  1
*Paper_Space
  0
ENDBLK
  5
1D
330
1B
100
AcDbEntity
 67
     1
  8
0
100
AcDbBlockEnd
  0
BLOCK
  5
24
330
23
100
AcDbEntity
  8
0
100
AcDbBlockBegin
  2
*Paper_Space0
 70
     0
 10
0.0
 20
0.0
 30
0.0
  3
*Paper_Space0
  1
*Paper_Space0
  0
ENDBLK
  5
25
330
23
100
AcDbEntity
  8
0
100
AcDbBlockEnd
  0
BLOCK
  5
80
330
7F
100
AcDbEntity
  8
0
100
AcDbBlockBegin
  2
블럭10
 70
     2
 10
0.0
 20
0.0
 30
0.0
  3
블럭10
  1
블럭10
  0
ELLIPSE
  5
82
330
7F
100
AcDbEntity
  8
중심선
100
AcDbEllipse
 10
20.54032771741204
 20
12.0471743016438
 30
0.0
 11
6.600054785286829
 21
-1.261213355974178E-13
 31
0.0
210
0.0
220
0.0
230
1.0
 40
0.636358354079598
 41
0.9219305317359503
 42
6.513795318482858
  0
ELLIPSE
  5
83
330
7F
100
AcDbEntity
  8
중심선
100
AcDbEllipse
 10
20.54032771746488
 20
12.04717430159265
 30
0.0
 11
3.960054785062283
 21
1.540847449632565E-10
 31
0.0
210
0.0
220
0.0
230
1.0
 40
0.3939339440162632
 41
1.131841032648279
 42
5.62031148352944
  0
LINE
  5
84
330
7F
100
AcDbEntity
  8
중심선
100
AcDbLine
 10
2.268634060543552
 20
16.24717430164393
 30
0.0
 11
5.714909304380834
 21
16.24717430164393
 31
0.0
  0
LINE
  5
85
330
7F
100
AcDbEntity
  8
중심선
100
AcDbLine
 10
5.245725140726316
 20
7.84717430164391
 30
0.0
 11
8.692000384563599
 21
7.84717430164391
 31
0.0
  0
LINE
  5
86
330
7F
100
AcDbEntity
  8
중심선
100
AcDbLine
 10
15.74043728645272
 20
16.24717430164393
 30
0.0
 11
8.692000384563599
 21
7.84717430164391
 31
0.0
  0
LINE
  5
87
330
7F
100
AcDbEntity
  8
중심선
100
AcDbLine
 10
0.1404042013395286
 20
13.71084872107135
 30
0.0
 11
3.58671253028996
 21
13.71088815037384
 31
0.0
  0
LINE
  5
88
330
7F
100
AcDbEntity
  8
중심선
100
AcDbLine
 10
2.750260043222114
 20
10.84717430164391
 30
0.0
 11
6.196535287059397
 21
10.84717430164391
 31
0.0
  0
LINE
  5
89
330
7F
100
AcDbEntity
  8
중심선
100
AcDbLine
 10
12.29416204261559
 20
16.24717430164393
 30
0.0
 11
5.245725140726316
 21
7.84717430164391
 31
0.0
  0
LINE
  5
8A
330
7F
100
AcDbEntity
  8
중심선
100
AcDbLine
 10
10.72767329541681
 20
16.24717430164393
 30
0.0
 11
6.196535287059397
 21
10.84717430164391
 31
0.0
  0
LINE
  5
8B
330
7F
100
AcDbEntity
  8
중심선
100
AcDbLine
 10
7.28139805157953
 20
16.24717430164393
 30
0.0
 11
2.750260043222114
 21
10.84717430164391
 31
0.0
  0
LINE
  5
8C
330
7F
100
AcDbEntity
  8
중심선
100
AcDbLine
 10
5.714909304380834
 20
16.24717430164393
 30
0.0
 11
3.58671253028996
 21
13.71088815037384
 31
0.0
  0
LINE
  5
8D
330
7F
100
AcDbEntity
  8
중심선
100
AcDbLine
 10
2.268634060543552
 20
16.24717430164393
 30
0.0
 11
0.1404042013395286
 21
13.71084872107135
 31
0.0
  0
LINE
  5
8E
330
7F
100
AcDbEntity
  8
중심선
100
AcDbLine
 10
7.28139805157953
 20
16.24717430164393
 30
0.0
 11
10.72767329541681
 21
16.24717430164393
 31
0.0
  0
LINE
  5
8F
330
7F
100
AcDbEntity
  8
중심선
100
AcDbLine
 10
12.29416204261559
 20
16.24717430164393
 30
0.0
 11
15.74043728645272
 21
16.24717430164393
 31
0.0
  0
LINE
  5
90
330
7F
100
AcDbEntity
  8
중심선
100
AcDbLine
 10
19.22036997980202
 20
11.08717430171403
 30
0.0
 11
23.66174974927406
 21
11.08717430171406
 31
0.0
  0
LINE
  5
91
330
7F
100
AcDbEntity
  8
중심선
100
AcDbLine
 10
19.22039502424796
 20
13.00717430171391
 30
0.0
 11
19.22036997980202
 21
11.08717430171403
 31
0.0
  0
LINE
  5
92
330
7F
100
AcDbEntity
  8
중심선
100
AcDbLine
 10
19.22039502424796
 20
13.00717430171391
 30
0.0
 11
26.96566020931264
 21
13.00717430171391
 31
0.0
  0
LINE
  5
93
330
7F
100
AcDbEntity
  8
중심선
100
AcDbLine
 10
22.22332737316547
 20
13.45928029700563
 30
0.0
 11
24.52862924686651
 21
15.39360700705356
 31
0.0
  0
ATTDEF
  5
95
330
7F
100
AcDbEntity
  8
FORMAT
 62
     2
100
AcDbText
 10
4.408487351596664
 20
2.075366912832191
 30
0.0
 40
4.233333333333333
  1
E1163032
 41
0.75
  7
SLDTEXTSTYLE0
 11
4.408487351596664
 21
-0.0412997538344756
 31
0.0
100
AcDbAttributeDefinition
  3

  2
AUTOATTR0
 70
     0
 74
     1
  0
ENDBLK
  5
81
330
7F
100
AcDbEntity
  8
0
100
AcDbBlockEnd
  0
BLOCK
  5
D5
330
D4
100
AcDbEntity
  8
0
100
AcDbBlockBegin
  2
_D
 70
     0
 10
0.0
 20
0.0
 30
0.0
  3
_D
  1
_D
  0
LINE
  5
D7
330
D4
100
AcDbEntity
  8
치수문자_일반주서
 62
     0
370
    -2
100
AcDbLine
 10
-39.8625
 20
6.349999999999993
 30
0.0
 11
-53.30000000000004
 21
6.349999999999944
 31
0.0
  0
LINE
  5
D8
330
D4
100
AcDbEntity
  8
치수문자_일반주서
 62
     0
370
    -2
100
AcDbLine
 10
-39.8625
 20
-6.349999999999996
 30
0.0
 11
-53.3
 21
-6.350000000000046
 31
0.0
  0
LINE
  5
D9
330
D4
100
AcDbEntity
  8
치수문자_일반주서
 62
     0
370
    -2
100
AcDbLine
 10
-53.30000000000003
 20
3.047999999999944
 30
0.0
 11
-53.30000000000001
 21
-3.048000000000046
 31
0.0
  0
SOLID
  5
DA
330
D4
100
AcDbEntity
  8
치수문자_일반주서
 62
     0
100
AcDbTrace
 10
-52.74966666666669
 20
3.047999999999946
 30
0.0
 11
-53.85033333333336
 21
3.047999999999942
 31
0.0
 12
-53.30000000000004
 22
6.349999999999944
 32
0.0
 13
-53.30000000000004
 23
6.349999999999944
 33
0.0
  0
SOLID
  5
DB
330
D4
100
AcDbEntity
  8
치수문자_일반주서
 62
     0
100
AcDbTrace
 10
-53.85033333333335
 20
-3.048000000000048
 30
0.0
 11
-52.74966666666668
 21
-3.048000000000044
 31
0.0
 12
-53.3
 22
-6.350000000000046
 32
0.0
 13
-53.3
 23
-6.350000000000046
 33
0.0
  0
MTEXT
  5
DC
330
D4
100
AcDbEntity
  8
치수문자_일반주서
 62
     0
100
AcDbMText
 10
-57.67500000000002
 20
-0.0000000000000182
 30
0.0
 40
3.5
 41
0.0
 71
     2
 72
     1
  1
\A1;%%c12.70 [1/2]
  7
SLDTEXTSTYLE0
 11
-3.356894814614649E-15
 21
1.0
 31
0.0
 73
     1
 44
1.0
  0
POINT
  5
DD
330
D4
100
AcDbEntity
  8
Defpoints
 62
     0
100
AcDbPoint
 10
-39.8
 20
6.349999999999993
 30
0.0
  0
POINT
  5
DE
330
D4
100
AcDbEntity
  8
Defpoints
 62
     0
100
AcDbPoint
 10
-39.8
 20
-6.349999999999996
 30
0.0
  0
POINT
  5
DF
330
D4
100
AcDbEntity
  8
Defpoints
 62
     0
100
AcDbPoint
 10
-53.3
 20
-6.350000000000047
 30
0.0
  0
ENDBLK
  5
D6
330
D4
100
AcDbEntity
  8
0
100
AcDbBlockEnd
  0
BLOCK
  5
EA
330
E9
100
AcDbEntity
  8
0
100
AcDbBlockBegin
  2
_D_1
 70
     0
 10
0.0
 20
0.0
 30
0.0
  3
_D_1
  1
_D_1
  0
LINE
  5
EC
330
E9
100
AcDbEntity
  8
치수문자_일반주서
 62
     0
370
    -2
100
AcDbLine
 10
35.39999999999967
 20
6.412500000000003
 30
0.0
 11
35.39999999999967
 21
16.00081246753737
 31
0.0
  0
LINE
  5
ED
330
E9
100
AcDbEntity
  8
치수문자_일반주서
 62
     0
370
    -2
100
AcDbLine
 10
10.00000000000001
 20
5.600586587290349
 30
0.0
 11
10.00000000000001
 21
16.00081246753737
 31
0.0
  0
LINE
  5
EE
330
E9
100
AcDbEntity
  8
치수문자_일반주서
 62
     0
370
    -2
100
AcDbLine
 10
10.00000000000001
 20
16.00081246753737
 30
0.0
 11
-19.10074710927018
 21
16.00081246753737
 31
0.0
  0
LINE
  5
EF
330
E9
100
AcDbEntity
  8
치수문자_일반주서
 62
     0
370
    -2
100
AcDbLine
 10
32.09799999999967
 20
16.00081246753737
 30
0.0
 11
13.30200000000001
 21
16.00081246753737
 31
0.0
  0
SOLID
  5
F0
330
E9
100
AcDbEntity
  8
치수문자_일반주서
 62
     0
100
AcDbTrace
 10
32.09799999999967
 20
15.45047913420403
 30
0.0
 11
32.09799999999967
 21
16.5511458008707
 31
0.0
 12
35.39999999999967
 22
16.00081246753737
 32
0.0
 13
35.39999999999967
 23
16.00081246753737
 33
0.0
  0
SOLID
  5
F1
330
E9
100
AcDbEntity
  8
치수문자_일반주서
 62
     0
100
AcDbTrace
 10
13.30200000000001
 20
16.5511458008707
 30
0.0
 11
13.30200000000001
 21
15.45047913420403
 31
0.0
 12
10.00000000000001
 22
16.00081246753737
 32
0.0
 13
10.00000000000001
 23
16.00081246753737
 33
0.0
  0
MTEXT
  5
F2
330
E9
100
AcDbEntity
  8
치수문자_일반주서
 62
     0
100
AcDbMText
 10
-9.256997109270179
 20
20.37581246753737
 30
0.0
 40
3.5
 41
0.0
 71
     2
 72
     1
  1
\A1;25.40 [1]
  7
SLDTEXTSTYLE0
 73
     1
 44
1.0
  0
POINT
  5
F3
330
E9
100
AcDbEntity
  8
Defpoints
 62
     0
100
AcDbPoint
 10
35.39999999999967
 20
6.350000000000003
 30
0.0
  0
POINT
  5
F4
330
E9
100
AcDbEntity
  8
Defpoints
 62
     0
100
AcDbPoint
 10
10.00000000000001
 20
5.538086587290349
 30
0.0
  0
POINT
  5
F5
330
E9
100
AcDbEntity
  8
Defpoints
 62
     0
100
AcDbPoint
 10
10.00000000000001
 20
16.00081246753737
 30
0.0
  0
ENDBLK
  5
EB
330
E9
100
AcDbEntity
  8
0
100
AcDbBlockEnd
  0
BLOCK
  5
FE
330
FD
100
AcDbEntity
  8
0
100
AcDbBlockBegin
  2
_D_2
 70
     0
 10
0.0
 20
0.0
 30
0.0
  3
_D_2
  1
_D_2
  0
LINE
  5
100
330
FD
100
AcDbEntity
  8
치수문자_일반주서
 62
     0
370
    -2
100
AcDbLine
 10
35.39999999999967
 20
6.412500000000004
 30
0.0
 11
35.39999999999967
 21
36.55130408500666
 31
0.0
  0
LINE
  5
101
330
FD
100
AcDbEntity
  8
치수문자_일반주서
 62
     0
370
    -2
100
AcDbLine
 10
-40.8
 20
5.412499999999993
 30
0.0
 11
-40.8
 21
36.55130408500666
 31
0.0
  0
LINE
  5
102
330
FD
100
AcDbEntity
  8
치수문자_일반주서
 62
     0
370
    -2
100
AcDbLine
 10
32.09799999999967
 20
36.55130408500666
 30
0.0
 11
-37.498
 21
36.55130408500666
 31
0.0
  0
SOLID
  5
103
330
FD
100
AcDbEntity
  8
치수문자_일반주서
 62
     0
100
AcDbTrace
 10
32.09799999999967
 20
36.00097075167333
 30
0.0
 11
32.09799999999967
 21
37.10163741834
 31
0.0
 12
35.39999999999967
 22
36.55130408500666
 32
0.0
 13
35.39999999999967
 23
36.55130408500666
 33
0.0
  0
SOLID
  5
104
330
FD
100
AcDbEntity
  8
치수문자_일반주서
 62
     0
100
AcDbTrace
 10
-37.498
 20
37.10163741834
 30
0.0
 11
-37.498
 21
36.00097075167333
 31
0.0
 12
-40.8
 22
36.55130408500666
 32
0.0
 13
-40.8
 23
36.55130408500666
 33
0.0
  0
MTEXT
  5
105
330
FD
100
AcDbEntity
  8
치수문자_일반주서
 62
     0
100
AcDbMText
 10
-2.699999999999999
 20
40.92630408500666
 30
0.0
 40
3.5
 41
0.0
 71
     2
 72
     1
  1
\A1;76.20 [3]
  7
SLDTEXTSTYLE0
 73
     1
 44
1.0
  0
POINT
  5
106
330
FD
100
AcDbEntity
  8
Defpoints
 62
     0
100
AcDbPoint
 10
35.39999999999967
 20
6.350000000000004
 30
0.0
  0
POINT
  5
107
330
FD
100
AcDbEntity
  8
Defpoints
 62
     0
100
AcDbPoint
 10
-40.8
 20
5.349999999999993
 30
0.0
  0
POINT
  5
108
330
FD
100
AcDbEntity
  8
Defpoints
 62
     0
100
AcDbPoint
 10
-40.8
 20
36.55130408500666
 30
0.0
  0
ENDBLK
  5
FF
330
FD
100
AcDbEntity
  8
0
100
AcDbBlockEnd
  0
BLOCK
  5
112
330
111
100
AcDbEntity
  8
0
100
AcDbBlockBegin
  2
_D_3
 70
     0
 10
0.0
 20
0.0
 30
0.0
  3
_D_3
  1
_D_3
  0
LINE
  5
114
330
111
100
AcDbEntity
  8
치수문자_일반주서
 62
     0
370
    -2
100
AcDbLine
 10
35.46250000000001
 20
-6.349999999999995
 30
0.0
 11
54.90029239544388
 21
-6.34999999999992
 31
0.0
  0
LINE
  5
115
330
111
100
AcDbEntity
  8
치수문자_일반주서
 62
     0
370
    -2
100
AcDbLine
 10
35.46249999999967
 20
6.350000000000003
 30
0.0
 11
54.90029239544383
 21
6.350000000000076
 31
0.0
  0
LINE
  5
116
330
111
100
AcDbEntity
  8
치수문자_일반주서
 62
     0
370
    -2
100
AcDbLine
 10
54.90029239544383
 20
6.350000000000076
 30
0.0
 11
54.90029239544373
 21
36.80471240994596
 31
0.0
  0
LINE
  5
117
330
111
100
AcDbEntity
  8
치수문자_일반주서
 62
     0
370
    -2
100
AcDbLine
 10
54.90029239544386
 20
-3.04799999999992
 30
0.0
 11
54.90029239544385
 21
3.048000000000076
 31
0.0
  0
SOLID
  5
118
330
111
100
AcDbEntity
  8
치수문자_일반주서
 62
     0
100
AcDbTrace
 10
54.34995906211053
 20
-3.047999999999922
 30
0.0
 11
55.4506257287772
 21
-3.047999999999918
 31
0.0
 12
54.90029239544388
 22
-6.34999999999992
 32
0.0
 13
54.90029239544388
 23
-6.34999999999992
 33
0.0
  0
SOLID
  5
119
330
111
100
AcDbEntity
  8
치수문자_일반주서
 62
     0
100
AcDbTrace
 10
55.45062572877718
 20
3.048000000000078
 30
0.0
 11
54.34995906211051
 21
3.048000000000075
 31
0.0
 12
54.90029239544383
 22
6.350000000000076
 32
0.0
 13
54.90029239544383
 23
6.350000000000076
 33
0.0
  0
MTEXT
  5
11A
330
111
100
AcDbEntity
  8
치수문자_일반주서
 62
     0
100
AcDbMText
 10
50.52529239544378
 20
23.46096240994594
 30
0.0
 40
3.5
 41
0.0
 71
     2
 72
     1
  1
\A1;%%c12.70 [1/2]
  7
SLDTEXTSTYLE0
 11
-3.356894814614647E-15
 21
1.0
 31
0.0
 73
     1
 44
1.0
  0
POINT
  5
11B
330
111
100
AcDbEntity
  8
Defpoints
 62
     0
100
AcDbPoint
 10
35.40000000000001
 20
-6.349999999999995
 30
0.0
  0
POINT
  5
11C
330
111
100
AcDbEntity
  8
Defpoints
 62
     0
100
AcDbPoint
 10
35.39999999999967
 20
6.350000000000003
 30
0.0
  0
POINT
  5
11D
330
111
100
AcDbEntity
  8
Defpoints
 62
     0
100
AcDbPoint
 10
54.90029239544383
 20
6.350000000000076
 30
0.0
  0
ENDBLK
  5
113
330
111
100
AcDbEntity
  8
0
100
AcDbBlockEnd
  0
BLOCK
  5
12B
330
12A
100
AcDbEntity
  8
0
100
AcDbBlockBegin
  2
SW_DOWELSYMBOL_0
 70
     0
 10
0.0
 20
0.0
 30
0.0
  3
SW_DOWELSYMBOL_0
  1
SW_DOWELSYMBOL_0
  0
CIRCLE
  5
12D
330
12A
100
AcDbEntity
  8
해칭선
 62
     0
100
AcDbCircle
 10
0.0
 20
0.0
 30
0.0
 40
2.999999999999996
  0
HATCH
  5
12E
330
12A
100
AcDbEntity
  8
0
  6
Continuous
 62
     0
370
     0
100
AcDbHatch
 10
0.0
 20
0.0
 30
0.0
210
0.0
220
0.0
230
1.0
  2
SOLID
 70
     1
 71
     0
 91
        1
 92
        0
 93
        3
 72
     2
 10
0.0
 20
0.0
 40
2.999999999999996
 50
0.0
 51
90.0
 73
     1
 72
     1
 10
0.0
 20
2.999999999999996
 11
0.0
 21
0.0
 72
     1
 10
0.0
 20
0.0
 11
2.999999999999996
 21
0.0
 97
        0
 75
     0
 76
     1
 98
        1
 10
0.0
 20
0.0
  0
HATCH
  5
12F
330
12A
100
AcDbEntity
  8
0
  6
Continuous
 62
     0
370
     0
100
AcDbHatch
 10
0.0
 20
0.0
 30
0.0
210
0.0
220
0.0
230
1.0
  2
SOLID
 70
     1
 71
     0
 91
        1
 92
        0
 93
        3
 72
     2
 10
0.0
 20
0.0
 40
2.999999999999996
 50
180.0
 51
270.0000000000008
 73
     1
 72
     1
 10
0.0
 20
-2.999999999999996
 11
0.0
 21
0.0
 72
     1
 10
0.0
 20
0.0
 11
-2.999999999999996
 21
0.0
 97
        0
 75
     0
 76
     1
 98
        1
 10
0.0
 20
0.0
  0
ENDBLK
  5
12C
330
12A
100
AcDbEntity
  8
0
100
AcDbBlockEnd
  0
BLOCK
  5
1F6
330
1F5
100
AcDbEntity
  8
0
100
AcDbBlockBegin
  2
*D8
 70
     1
 10
0.0
 20
0.0
 30
0.0
  3
*D8
  1
*D8
  0
LINE
  5
1F8
330
1F5
100
AcDbEntity
  8
치수문자_일반주서
 62
     0
370
    -2
100
AcDbLine
 10
17.81250000000006
 20
17.01250000000001
 30
0.0
 11
4.375000000000027
 21
17.01249999999996
 31
0.0
  0
LINE
  5
1F9
330
1F5
100
AcDbEntity
  8
치수문자_일반주서
 62
     0
370
    -2
100
AcDbLine
 10
17.81250000000006
 20
7.487500000000003
 30
0.0
 11
4.37500000000006
 21
7.487499999999954
 31
0.0
  0
LINE
  5
1FA
330
1F5
100
AcDbEntity
  8
치수문자_일반주서
 62
     0
370
    -2
100
AcDbLine
 10
4.375000000000038
 20
13.71049999999996
 30
0.0
 11
4.375000000000048
 21
10.78949999999995
 31
0.0
  0
SOLID
  5
1FB
330
1F5
100
AcDbEntity
  8
치수문자_일반주서
 62
     0
100
AcDbTrace
 10
4.925333333333372
 20
13.71049999999996
 30
0.0
 11
3.824666666666705
 21
13.71049999999996
 31
0.0
 12
4.375000000000027
 22
17.01249999999996
 32
0.0
 13
4.375000000000027
 23
17.01249999999996
 33
0.0
  0
SOLID
  5
1FC
330
1F5
100
AcDbEntity
  8
치수문자_일반주서
 62
     0
100
AcDbTrace
 10
3.824666666666715
 20
10.78949999999995
 30
0.0
 11
4.925333333333382
 21
10.78949999999996
 31
0.0
 12
4.37500000000006
 22
7.487499999999954
 32
0.0
 13
4.37500000000006
 23
7.487499999999954
 33
0.0
  0
MTEXT
  5
1FD
330
1F5
100
AcDbEntity
  8
치수문자_일반주서
 62
     0
100
AcDbMText
 10
0.0000000000000426
 20
12.25
 30
0.0
 40
3.5
 41
0.0
 71
     2
 72
     1
  1
\A1;%%c9.53 [3/8]
  7
SLDTEXTSTYLE0
 11
-3.450141892798384E-15
 21
1.0
 31
0.0
 73
     1
 44
1.0
  0
POINT
  5
1FE
330
1F5
100
AcDbEntity
  8
Defpoints
 62
     0
100
AcDbPoint
 10
17.87500000000006
 20
17.01250000000001
 30
0.0
  0
POINT
  5
1FF
330
1F5
100
AcDbEntity
  8
Defpoints
 62
     0
100
AcDbPoint
 10
17.87500000000006
 20
7.487500000000003
 30
0.0
  0
POINT
  5
200
330
1F5
100
AcDbEntity
  8
Defpoints
 62
     0
100
AcDbPoint
 10
4.375000000000064
 20
7.487499999999953
 30
0.0
  0
ENDBLK
  5
1F7
330
1F5
100
AcDbEntity
  8
0
100
AcDbBlockEnd
  0
BLOCK
  5
202
330
201
100
AcDbEntity
  8
0
100
AcDbBlockBegin
  2
*D9
 70
     1
 10
0.0
 20
0.0
 30
0.0
  3
*D9
  1
*D9
  0
LINE
  5
204
330
201
100
AcDbEntity
  8
치수문자_일반주서
 62
     0
370
    -2
100
AcDbLine
 10
75.61250000000004
 20
17.07500000000001
 30
0.0
 11
75.61250000000004
 21
32.08580267350813
 31
0.0
  0
LINE
  5
205
330
201
100
AcDbEntity
  8
치수문자_일반주서
 62
     0
370
    -2
100
AcDbLine
 10
61.32500000000005
 20
16.078505315526
 30
0.0
 11
61.32500000000005
 21
32.08580267350813
 31
0.0
  0
LINE
  5
206
330
201
100
AcDbEntity
  8
치수문자_일반주서
 62
     0
370
    -2
100
AcDbLine
 10
61.32500000000005
 20
32.08580267350813
 30
0.0
 11
30.89800000000005
 21
32.08580267350813
 31
0.0
  0
LINE
  5
207
330
201
100
AcDbEntity
  8
치수문자_일반주서
 62
     0
370
    -2
100
AcDbLine
 10
72.31050000000005
 20
32.08580267350813
 30
0.0
 11
64.62700000000004
 21
32.08580267350813
 31
0.0
  0
SOLID
  5
208
330
201
100
AcDbEntity
  8
치수문자_일반주서
 62
     0
100
AcDbTrace
 10
72.31050000000005
 20
31.5354693401748
 30
0.0
 11
72.31050000000005
 21
32.63613600684147
 31
0.0
 12
75.61250000000004
 22
32.08580267350813
 32
0.0
 13
75.61250000000004
 23
32.08580267350813
 33
0.0
  0
SOLID
  5
209
330
201
100
AcDbEntity
  8
치수문자_일반주서
 62
     0
100
AcDbTrace
 10
64.62700000000004
 20
32.63613600684147
 30
0.0
 11
64.62700000000004
 21
31.5354693401748
 31
0.0
 12
61.32500000000005
 22
32.08580267350813
 32
0.0
 13
61.32500000000005
 23
32.08580267350813
 33
0.0
  0
MTEXT
  5
20A
330
201
100
AcDbEntity
  8
치수문자_일반주서
 62
     0
100
AcDbMText
 10
44.46050000000005
 20
36.46080267350813
 30
0.0
 40
3.5
 41
0.0
 71
     2
 72
     1
  1
\A1;14.29 [9/16]
  7
SLDTEXTSTYLE0
 73
     1
 44
1.0
  0
POINT
  5
20B
330
201
100
AcDbEntity
  8
Defpoints
 62
     0
100
AcDbPoint
 10
75.61250000000004
 20
17.01250000000001
 30
0.0
  0
POINT
  5
20C
330
201
100
AcDbEntity
  8
Defpoints
 62
     0
100
AcDbPoint
 10
61.32500000000005
 20
16.016005315526
 30
0.0
  0
POINT
  5
20D
330
201
100
AcDbEntity
  8
Defpoints
 62
     0
100
AcDbPoint
 10
61.32500000000005
 20
32.08580267350813
 30
0.0
  0
ENDBLK
  5
203
330
201
100
AcDbEntity
  8
0
100
AcDbBlockEnd
  0
BLOCK
  5
20F
330
20E
100
AcDbEntity
  8
0
100
AcDbBlockBegin
  2
*D10
 70
     1
 10
0.0
 20
0.0
 30
0.0
  3
*D10
  1
*D10
  0
LINE
  5
211
330
20E
100
AcDbEntity
  8
치수문자_일반주서
 62
     0
370
    -2
100
AcDbLine
 10
75.61250000000004
 20
17.07500000000001
 30
0.0
 11
75.61250000000004
 21
47.29486045510103
 31
0.0
  0
LINE
  5
212
330
20E
100
AcDbEntity
  8
치수문자_일반주서
 62
     0
370
    -2
100
AcDbLine
 10
16.87500000000005
 20
16.075
 30
0.0
 11
16.87500000000005
 21
47.29486045510103
 31
0.0
  0
LINE
  5
213
330
20E
100
AcDbEntity
  8
치수문자_일반주서
 62
     0
370
    -2
100
AcDbLine
 10
72.31050000000005
 20
47.29486045510103
 30
0.0
 11
20.17700000000005
 21
47.29486045510103
 31
0.0
  0
SOLID
  5
214
330
20E
100
AcDbEntity
  8
치수문자_일반주서
 62
     0
100
AcDbTrace
 10
72.31050000000005
 20
46.7445271217677
 30
0.0
 11
72.31050000000005
 21
47.84519378843436
 31
0.0
 12
75.61250000000004
 22
47.29486045510103
 32
0.0
 13
75.61250000000004
 23
47.29486045510103
 33
0.0
  0
SOLID
  5
215
330
20E
100
AcDbEntity
  8
치수문자_일반주서
 62
     0
100
AcDbTrace
 10
20.17700000000005
 20
47.84519378843436
 30
0.0
 11
20.17700000000005
 21
46.7445271217677
 31
0.0
 12
16.87500000000005
 22
47.29486045510103
 32
0.0
 13
16.87500000000005
 23
47.29486045510103
 33
0.0
  0
MTEXT
  5
216
330
20E
100
AcDbEntity
  8
치수문자_일반주서
 62
     0
100
AcDbMText
 10
46.24375000000001
 20
51.66986045510103
 30
0.0
 40
3.5
 41
0.0
 71
     2
 72
     1
  1
\A1;58.74 [2 5/16]
  7
SLDTEXTSTYLE0
 73
     1
 44
1.0
  0
POINT
  5
217
330
20E
100
AcDbEntity
  8
Defpoints
 62
     0
100
AcDbPoint
 10
75.61250000000004
 20
17.01250000000001
 30
0.0
  0
POINT
  5
218
330
20E
100
AcDbEntity
  8
Defpoints
 62
     0
100
AcDbPoint
 10
16.87500000000005
 20
16.0125
 30
0.0
  0
POINT
  5
219
330
20E
100
AcDbEntity
  8
Defpoints
 62
     0
100
AcDbPoint
 10
16.87500000000005
 20
47.29486045510103
 30
0.0
  0
ENDBLK
  5
210
330
20E
100
AcDbEntity
  8
0
100
AcDbBlockEnd
  0
BLOCK
  5
21B
330
21A
100
AcDbEntity
  8
0
100
AcDbBlockBegin
  2
*D11
 70
     1
 10
0.0
 20
0.0
 30
0.0
  3
*D11
  1
*D11
  0
LINE
  5
21D
330
21A
100
AcDbEntity
  8
치수문자_일반주서
 62
     0
370
    -2
100
AcDbLine
 10
75.67500000000004
 20
7.487500000000009
 30
0.0
 11
91.63098300729308
 21
7.487500000000068
 31
0.0
  0
LINE
  5
21E
330
21A
100
AcDbEntity
  8
치수문자_일반주서
 62
     0
370
    -2
100
AcDbLine
 10
75.67500000000004
 20
17.01250000000001
 30
0.0
 11
91.63098300729305
 21
17.01250000000007
 31
0.0
  0
LINE
  5
21F
330
21A
100
AcDbEntity
  8
치수문자_일반주서
 62
     0
370
    -2
100
AcDbLine
 10
91.63098300729305
 20
17.01250000000007
 30
0.0
 11
91.63098300729295
 21
46.86421489277701
 31
0.0
  0
LINE
  5
220
330
21A
100
AcDbEntity
  8
치수문자_일반주서
 62
     0
370
    -2
100
AcDbLine
 10
91.63098300729307
 20
10.78950000000007
 30
0.0
 11
91.63098300729307
 21
13.71050000000007
 31
0.0
  0
SOLID
  5
221
330
21A
100
AcDbEntity
  8
치수문자_일반주서
 62
     0
100
AcDbTrace
 10
91.08064967395974
 20
10.78950000000007
 30
0.0
 11
92.1813163406264
 21
10.78950000000007
 31
0.0
 12
91.63098300729308
 22
7.487500000000068
 32
0.0
 13
91.63098300729308
 23
7.487500000000068
 33
0.0
  0
SOLID
  5
222
330
21A
100
AcDbEntity
  8
치수문자_일반주서
 62
     0
100
AcDbTrace
 10
92.1813163406264
 20
13.71050000000007
 30
0.0
 11
91.08064967395974
 21
13.71050000000007
 31
0.0
 12
91.63098300729305
 22
17.01250000000007
 32
0.0
 13
91.63098300729305
 23
17.01250000000007
 33
0.0
  0
MTEXT
  5
223
330
21A
100
AcDbEntity
  8
치수문자_일반주서
 62
     0
100
AcDbMText
 10
87.255983007293
 20
33.739214892777
 30
0.0
 40
3.5
 41
0.0
 71
     2
 72
     1
  1
\A1;%%c9.53 [3/8]
  7
SLDTEXTSTYLE0
 11
-2.983906501879686E-15
 21
1.0
 31
0.0
 73
     1
 44
1.0
  0
POINT
  5
224
330
21A
100
AcDbEntity
  8
Defpoints
 62
     0
100
AcDbPoint
 10
75.61250000000004
 20
7.487500000000009
 30
0.0
  0
POINT
  5
225
330
21A
100
AcDbEntity
  8
Defpoints
 62
     0
100
AcDbPoint
 10
75.61250000000004
 20
17.01250000000001
 30
0.0
  0
POINT
  5
226
330
21A
100
AcDbEntity
  8
Defpoints
 62
     0
100
AcDbPoint
 10
91.63098300729305
 20
17.01250000000007
 30
0.0
  0
ENDBLK
  5
21C
330
21A
100
AcDbEntity
  8
0
100
AcDbBlockEnd
  0
BLOCK
  5
263
330
262
100
AcDbEntity
  8
0
100
AcDbBlockBegin
  2
*D12
 70
     1
 10
0.0
 20
0.0
 30
0.0
  3
*D12
  1
*D12
  0
LINE
  5
265
330
262
100
AcDbEntity
  8
치수문자_일반주서
 62
     0
370
    -2
100
AcDbLine
 10
82.3900431253875
 20
-45.34240588670636
 30
0.0
 11
68.95254312538748
 21
-45.34240588670641
 31
0.0
  0
LINE
  5
266
330
262
100
AcDbEntity
  8
치수문자_일반주서
 62
     0
370
    -2
100
AcDbLine
 10
82.3900431253875
 20
-54.86740588670636
 30
0.0
 11
68.9525431253875
 21
-54.86740588670641
 31
0.0
  0
LINE
  5
267
330
262
100
AcDbEntity
  8
치수문자_일반주서
 62
     0
370
    -2
100
AcDbLine
 10
68.95254312538749
 20
-48.64440588670641
 30
0.0
 11
68.95254312538749
 21
-51.56540588670642
 31
0.0
  0
SOLID
  5
268
330
262
100
AcDbEntity
  8
치수문자_일반주서
 62
     0
100
AcDbTrace
 10
69.50287645872082
 20
-48.64440588670641
 30
0.0
 11
68.40220979205417
 21
-48.64440588670641
 31
0.0
 12
68.95254312538748
 22
-45.34240588670641
 32
0.0
 13
68.95254312538748
 23
-45.34240588670641
 33
0.0
  0
SOLID
  5
269
330
262
100
AcDbEntity
  8
치수문자_일반주서
 62
     0
100
AcDbTrace
 10
68.40220979205417
 20
-51.56540588670642
 30
0.0
 11
69.50287645872082
 21
-51.56540588670642
 31
0.0
 12
68.9525431253875
 22
-54.86740588670641
 32
0.0
 13
68.9525431253875
 23
-54.86740588670641
 33
0.0
  0
MTEXT
  5
26A
330
262
100
AcDbEntity
  8
치수문자_일반주서
 62
     0
100
AcDbMText
 10
64.57754312538749
 20
-50.10490588670638
 30
0.0
 40
3.5
 41
0.0
 71
     2
 72
     1
  1
\A1;%%c9.53 [3/8]
  7
SLDTEXTSTYLE0
 11
-2.983906501879684E-15
 21
1.0
 31
0.0
 73
     1
 44
1.0
  0
POINT
  5
26B
330
262
100
AcDbEntity
  8
Defpoints
 62
     0
100
AcDbPoint
 10
82.4525431253875
 20
-45.34240588670636
 30
0.0
  0
POINT
  5
26C
330
262
100
AcDbEntity
  8
Defpoints
 62
     0
100
AcDbPoint
 10
82.4525431253875
 20
-54.86740588670636
 30
0.0
  0
POINT
  5
26D
330
262
100
AcDbEntity
  8
Defpoints
 62
     0
100
AcDbPoint
 10
68.9525431253875
 20
-54.86740588670641
 30
0.0
  0
ENDBLK
  5
264
330
262
100
AcDbEntity
  8
0
100
AcDbBlockEnd
  0
BLOCK
  5
26F
330
26E
100
AcDbEntity
  8
0
100
AcDbBlockBegin
  2
*D13
 70
     1
 10
0.0
 20
0.0
 30
0.0
  3
*D13
  1
*D13
  0
LINE
  5
271
330
26E
100
AcDbEntity
  8
치수문자_일반주서
 62
     0
370
    -2
100
AcDbLine
 10
140.1900431253875
 20
-45.27990588670636
 30
0.0
 11
140.1900431253875
 21
-30.26910321319824
 31
0.0
  0
LINE
  5
272
330
26E
100
AcDbEntity
  8
치수문자_일반주서
 62
     0
370
    -2
100
AcDbLine
 10
125.9025431253875
 20
-46.27640057118037
 30
0.0
 11
125.9025431253875
 21
-30.26910321319824
 31
0.0
  0
LINE
  5
273
330
26E
100
AcDbEntity
  8
치수문자_일반주서
 62
     0
370
    -2
100
AcDbLine
 10
125.9025431253875
 20
-30.26910321319824
 30
0.0
 11
95.4755431253875
 21
-30.26910321319824
 31
0.0
  0
LINE
  5
274
330
26E
100
AcDbEntity
  8
치수문자_일반주서
 62
     0
370
    -2
100
AcDbLine
 10
136.8880431253875
 20
-30.26910321319824
 30
0.0
 11
129.2045431253875
 21
-30.26910321319824
 31
0.0
  0
SOLID
  5
275
330
26E
100
AcDbEntity
  8
치수문자_일반주서
 62
     0
100
AcDbTrace
 10
136.8880431253875
 20
-30.81943654653157
 30
0.0
 11
136.8880431253875
 21
-29.7187698798649
 31
0.0
 12
140.1900431253875
 22
-30.26910321319824
 32
0.0
 13
140.1900431253875
 23
-30.26910321319824
 33
0.0
  0
SOLID
  5
276
330
26E
100
AcDbEntity
  8
치수문자_일반주서
 62
     0
100
AcDbTrace
 10
129.2045431253875
 20
-29.7187698798649
 30
0.0
 11
129.2045431253875
 21
-30.81943654653157
 31
0.0
 12
125.9025431253875
 22
-30.26910321319824
 32
0.0
 13
125.9025431253875
 23
-30.26910321319824
 33
0.0
  0
MTEXT
  5
277
330
26E
100
AcDbEntity
  8
치수문자_일반주서
 62
     0
100
AcDbMText
 10
109.0380431253875
 20
-25.89410321319824
 30
0.0
 40
3.5
 41
0.0
 71
     2
 72
     1
  1
\A1;14.29 [9/16]
  7
SLDTEXTSTYLE0
 73
     1
 44
1.0
  0
POINT
  5
278
330
26E
100
AcDbEntity
  8
Defpoints
 62
     0
100
AcDbPoint
 10
140.1900431253875
 20
-45.34240588670636
 30
0.0
  0
POINT
  5
279
330
26E
100
AcDbEntity
  8
Defpoints
 62
     0
100
AcDbPoint
 10
125.9025431253875
 20
-46.33890057118037
 30
0.0
  0
POINT
  5
27A
330
26E
100
AcDbEntity
  8
Defpoints
 62
     0
100
AcDbPoint
 10
125.9025431253875
 20
-30.26910321319824
 30
0.0
  0
ENDBLK
  5
270
330
26E
100
AcDbEntity
  8
0
100
AcDbBlockEnd
  0
BLOCK
  5
27C
330
27B
100
AcDbEntity
  8
0
100
AcDbBlockBegin
  2
*D14
 70
     1
 10
0.0
 20
0.0
 30
0.0
  3
*D14
  1
*D14
  0
LINE
  5
27E
330
27B
100
AcDbEntity
  8
치수문자_일반주서
 62
     0
370
    -2
100
AcDbLine
 10
140.1900431253875
 20
-45.27990588670636
 30
0.0
 11
140.1900431253875
 21
-15.06004543160534
 31
0.0
  0
LINE
  5
27F
330
27B
100
AcDbEntity
  8
치수문자_일반주서
 62
     0
370
    -2
100
AcDbLine
 10
81.4525431253875
 20
-46.27990588670637
 30
0.0
 11
81.4525431253875
 21
-15.06004543160534
 31
0.0
  0
LINE
  5
280
330
27B
100
AcDbEntity
  8
치수문자_일반주서
 62
     0
370
    -2
100
AcDbLine
 10
136.8880431253875
 20
-15.06004543160534
 30
0.0
 11
84.7545431253875
 21
-15.06004543160534
 31
0.0
  0
SOLID
  5
281
330
27B
100
AcDbEntity
  8
치수문자_일반주서
 62
     0
100
AcDbTrace
 10
136.8880431253875
 20
-15.61037876493867
 30
0.0
 11
136.8880431253875
 21
-14.50971209827201
 31
0.0
 12
140.1900431253875
 22
-15.06004543160534
 32
0.0
 13
140.1900431253875
 23
-15.06004543160534
 33
0.0
  0
SOLID
  5
282
330
27B
100
AcDbEntity
  8
치수문자_일반주서
 62
     0
100
AcDbTrace
 10
84.7545431253875
 20
-14.50971209827201
 30
0.0
 11
84.7545431253875
 21
-15.61037876493867
 31
0.0
 12
81.4525431253875
 22
-15.06004543160534
 32
0.0
 13
81.4525431253875
 23
-15.06004543160534
 33
0.0
  0
MTEXT
  5
283
330
27B
100
AcDbEntity
  8
치수문자_일반주서
 62
     0
100
AcDbMText
 10
110.8212931253875
 20
-10.68504543160534
 30
0.0
 40
3.5
 41
0.0
 71
     2
 72
     1
  1
\A1;58.74 [2 5/16]
  7
SLDTEXTSTYLE0
 73
     1
 44
1.0
  0
POINT
  5
284
330
27B
100
AcDbEntity
  8
Defpoints
 62
     0
100
AcDbPoint
 10
140.1900431253875
 20
-45.34240588670636
 30
0.0
  0
POINT
  5
285
330
27B
100
AcDbEntity
  8
Defpoints
 62
     0
100
AcDbPoint
 10
81.4525431253875
 20
-46.34240588670637
 30
0.0
  0
POINT
  5
286
330
27B
100
AcDbEntity
  8
Defpoints
 62
     0
100
AcDbPoint
 10
81.4525431253875
 20
-15.06004543160534
 30
0.0
  0
ENDBLK
  5
27D
330
27B
100
AcDbEntity
  8
0
100
AcDbBlockEnd
  0
BLOCK
  5
288
330
287
100
AcDbEntity
  8
0
100
AcDbBlockBegin
  2
*D15
 70
     1
 10
0.0
 20
0.0
 30
0.0
  3
*D15
  1
*D15
  0
LINE
  5
28A
330
287
100
AcDbEntity
  8
치수문자_일반주서
 62
     0
370
    -2
100
AcDbLine
 10
140.2525431253875
 20
-54.86740588670636
 30
0.0
 11
156.2085261326805
 21
-54.86740588670629
 31
0.0
  0
LINE
  5
28B
330
287
100
AcDbEntity
  8
치수문자_일반주서
 62
     0
370
    -2
100
AcDbLine
 10
140.2525431253875
 20
-45.34240588670636
 30
0.0
 11
156.2085261326805
 21
-45.3424058867063
 31
0.0
  0
LINE
  5
28C
330
287
100
AcDbEntity
  8
치수문자_일반주서
 62
     0
370
    -2
100
AcDbLine
 10
156.2085261326805
 20
-45.3424058867063
 30
0.0
 11
156.2085261326804
 21
-15.49069099392936
 31
0.0
  0
LINE
  5
28D
330
287
100
AcDbEntity
  8
치수문자_일반주서
 62
     0
370
    -2
100
AcDbLine
 10
156.2085261326805
 20
-51.56540588670629
 30
0.0
 11
156.2085261326805
 21
-48.64440588670629
 31
0.0
  0
SOLID
  5
28E
330
287
100
AcDbEntity
  8
치수문자_일반주서
 62
     0
100
AcDbTrace
 10
155.6581927993472
 20
-51.56540588670629
 30
0.0
 11
156.7588594660139
 21
-51.56540588670629
 31
0.0
 12
156.2085261326805
 22
-54.86740588670629
 32
0.0
 13
156.2085261326805
 23
-54.86740588670629
 33
0.0
  0
SOLID
  5
28F
330
287
100
AcDbEntity
  8
치수문자_일반주서
 62
     0
100
AcDbTrace
 10
156.7588594660138
 20
-48.64440588670629
 30
0.0
 11
155.6581927993472
 21
-48.64440588670629
 31
0.0
 12
156.2085261326805
 22
-45.3424058867063
 32
0.0
 13
156.2085261326805
 23
-45.3424058867063
 33
0.0
  0
MTEXT
  5
290
330
287
100
AcDbEntity
  8
치수문자_일반주서
 62
     0
100
AcDbMText
 10
151.8335261326804
 20
-28.61569099392937
 30
0.0
 40
3.5
 41
0.0
 71
     2
 72
     1
  1
\A1;%%c9.53 [3/8]
  7
SLDTEXTSTYLE0
 11
-2.983906501879689E-15
 21
1.0
 31
0.0
 73
     1
 44
1.0
  0
POINT
  5
291
330
287
100
AcDbEntity
  8
Defpoints
 62
     0
100
AcDbPoint
 10
140.1900431253875
 20
-54.86740588670636
 30
0.0
  0
POINT
  5
292
330
287
100
AcDbEntity
  8
Defpoints
 62
     0
100
AcDbPoint
 10
140.1900431253875
 20
-45.34240588670636
 30
0.0
  0
POINT
  5
293
330
287
100
AcDbEntity
  8
Defpoints
 62
     0
100
AcDbPoint
 10
156.2085261326805
 20
-45.3424058867063
 30
0.0
  0
ENDBLK
  5
289
330
287
100
AcDbEntity
  8
0
100
AcDbBlockEnd
  0
ENDSEC
  0
SECTION
  2
ENTITIES
  0
LINE
  5
96
330
1F
100
AcDbEntity
  8
외형선
  6
Continuous
370
    15
100
AcDbLine
 10
7.969918989556211
 20
6.349999999999999
 30
0.0
 11
-10.06612499999997
 21
6.349999999999998
 31
0.0
  0
LINE
  5
97
330
1F
100
AcDbEntity
  8
외형선
  6
Continuous
370
    15
100
AcDbLine
 10
-39.79999999999999
 20
-6.350000000000003
 30
0.0
 11
7.969918989556211
 21
-6.350000000000001
 31
0.0
  0
LINE
  5
98
330
1F
100
AcDbEntity
  8
외형선
  6
Continuous
370
    15
100
AcDbLine
 10
-39.79999999999999
 20
6.349999999999993
 30
0.0
 11
-40.8
 21
5.349999999999993
 31
0.0
  0
LINE
  5
99
330
1F
100
AcDbEntity
  8
외형선
  6
Continuous
370
    15
100
AcDbLine
 10
-40.8
 20
-5.350000000000001
 30
0.0
 11
-39.79999999999999
 21
-6.35
 31
0.0
  0
SPLINE
  5
9A
330
1F
100
AcDbEntity
  8
외형선
  6
Continuous
370
    15
100
AcDbSpline
210
0.0
220
0.0
230
1.0
 70
     8
 71
     3
 72
     9
 73
     5
 74
     0
 42
0.000000001
 43
0.00000001
 40
0.0
 40
0.0
 40
0.0
 40
0.0
 40
0.5179580090336288
 40
1.0
 40
1.0
 40
1.0
 40
1.0
 10
7.969888033363112
 20
-5.218810017529915
 30
0.0
 10
8.322037599291354
 20
-5.188837958936822
 30
0.0
 10
9.001918129732928
 20
-5.130972151148633
 30
0.0
 10
9.675368596285688
 20
-5.088164943512992
 30
0.0
 10
10.00000000000001
 20
-5.067530071916597
 30
0.0
  0
LINE
  5
9B
330
1F
100
AcDbEntity
  8
0
  6
Continuous
 62
     1
370
    15
100
AcDbLine
 10
15.42106409437473
 20
1.796313545466781
 30
0.0
 11
15.36767260804885
 21
1.825666152078042
 31
0.0
  0
SPLINE
  5
9C
330
1F
100
AcDbEntity
  8
0
  6
Continuous
 62
     1
370
    15
100
AcDbSpline
210
0.0
220
0.0
230
1.0
 70
     8
 71
     3
 72
     9
 73
     5
 74
     0
 42
0.000000001
 43
0.00000001
 40
0.0
 40
0.0
 40
0.0
 40
0.0
 40
0.4624067518754975
 40
1.0
 40
1.0
 40
1.0
 40
1.0
 10
18.94938472027376
 20
1.62713997453455
 30
0.0
 10
18.67796435613583
 20
1.756243348085252
 30
0.0
 10
18.09099117065128
 20
2.035442068750697
 30
0.0
 10
17.50280902211465
 20
2.342954197064533
 30
0.0
 10
17.18660627039401
 20
2.508270640962445
 30
0.0
  0
SPLINE
  5
9D
330
1F
100
AcDbEntity
  8
0
  6
Continuous
 62
     1
370
    15
100
AcDbSpline
210
0.0
220
0.0
230
1.0
 70
     8
 71
     3
 72
    20
 73
    16
 74
     0
 42
0.000000001
 43
0.00000001
 40
0.0
 40
0.0
 40
0.0
 40
0.0
 40
0.1281650274998667
 40
0.2331530502983623
 40
0.3203459404141445
 40
0.3935372779536128
 40
0.4684182120588478
 40
0.5568835825030348
 40
0.6297490020360269
 40
0.6908405877946239
 40
0.7573904304452888
 40
0.835307093494684
 40
0.9257899417733563
 40
0.9757568223381687
 40
1.0
 40
1.0
 40
1.0
 40
1.0
 10
16.8499326448671
 20
5.045957381516748
 30
0.0
 10
16.63673855886342
 20
5.034980568945541
 30
0.0
 10
16.24890380840952
 20
5.015011959852604
 30
0.0
 10
15.69000307420453
 20
4.994136949592972
 30
0.0
 10
15.22521378428392
 20
4.980233371236743
 30
0.0
 10
14.81908047591644
 20
4.970713645591541
 30
0.0
 10
14.41603681221704
 20
4.963879870151527
 30
0.0
 10
14.00854638969749
 20
4.959815011270122
 30
0.0
 10
13.62597584462949
 20
4.958686022560816
 30
0.0
 10
13.28085733591558
 20
4.959651249517093
 30
0.0
 10
12.92703086637644
 20
4.962592931130368
 30
0.0
 10
12.52267576855016
 20
4.968463253402292
 30
0.0
 10
12.14699882190905
 20
4.976737456846777
 30
0.0
 10
11.86356308497047
 20
4.984539004285325
 30
0.0
 10
11.73583405811961
 20
4.988607744983278
 30
0.0
 10
11.69410713370377
 20
4.989936934124986
 30
0.0
  0
SPLINE
  5
9E
330
1F
100
AcDbEntity
  8
0
  6
Continuous
 62
     1
370
    15
100
AcDbSpline
210
0.0
220
0.0
230
1.0
 70
     8
 71
     3
 72
    29
 73
    25
 74
     0
 42
0.000000001
 43
0.00000001
 40
0.0
 40
0.0
 40
0.0
 40
0.0
 40
0.0609782346244782
 40
0.1098749767920015
 40
0.1467594093243207
 40
0.1774224568845258
 40
0.2044095025357908
 40
0.2306274250799623
 40
0.2631115117131069
 40
0.2994631173101099
 40
0.3527496249845275
 40
0.4031959061388276
 40
0.4497065709700391
 40
0.4955876197392383
 40
0.5531559618588113
 40
0.6051435372699353
 40
0.6536014506780643
 40
0.7064906054721489
 40
0.7661113749772599
 40
0.8011093274318244
 40
0.835536638409337
 40
0.8757843430874347
 40
0.9293989050910157
 40
1.0
 40
1.0
 40
1.0
 40
1.0
 10
33.04058755444905
 20
4.343097581521192
 30
0.0
 10
32.81877010660476
 20
4.324868567543076
 30
0.0
 10
32.4190834465359
 20
4.292022216707881
 30
0.0
 10
31.87919146075063
 20
4.257062767510334
 30
0.0
 10
31.44118130176468
 20
4.233333110035531
 30
0.0
 10
31.08550801801754
 20
4.217044403082433
 30
0.0
 10
30.77373840368622
 20
4.205007895323425
 30
0.0
 10
30.459553542062
 20
4.195047152516583
 30
0.0
 10
30.10784230847743
 20
4.186532495953732
 30
0.0
 10
29.65575783686383
 20
4.179604808529683
 30
0.0
 10
29.13759079259921
 20
4.177612720036266
 30
0.0
 10
28.5818706877408
 20
4.182886642995853
 30
0.0
 10
28.05342227008278
 20
4.194545239454162
 30
0.0
 10
27.49855333450131
 20
4.213289596770668
 30
0.0
 10
26.92357391204658
 20
4.240225506082027
 30
0.0
 10
26.33873817104463
 20
4.275737593522034
 30
0.0
 10
25.77165166263735
 20
4.31743102834993
 30
0.0
 10
25.1768181021461
 20
4.368268555393239
 30
0.0
 10
24.62869110902963
 20
4.422563127178753
 30
0.0
 10
24.15844716090847
 20
4.474274746194856
 30
0.0
 10
23.75052798099552
 20
4.522671170200836
 30
0.0
 10
23.26452808248873
 20
4.584225892382152
 30
0.0
 10
22.65338319384775
 20
4.667426383824194
 30
0.0
 10
22.20278652136516
 20
4.736687718413685
 30
0.0
 10
21.94667856178635
 20
4.776054141120908
 30
0.0
  0
SPLINE
  5
9F
330
1F
100
AcDbEntity
  8
0
  6
Continuous
 62
     1
370
    15
100
AcDbSpline
210
0.0
220
0.0
230
1.0
 70
     8
 71
     3
 72
    19
 73
    15
 74
     0
 42
0.000000001
 43
0.00000001
 40
0.0
 40
0.0
 40
0.0
 40
0.0
 40
0.1048307825010221
 40
0.1860497404878171
 40
0.2845909407631655
 40
0.3769745864403858
 40
0.4836150093218513
 40
0.5818201639676652
 40
0.6624528402705351
 40
0.7297452915181776
 40
0.8140002858487094
 40
0.9069524384055114
 40
0.9850429475935306
 40
1.0
 40
1.0
 40
1.0
 40
1.0
 10
21.94667856178636
 20
-4.776054141120912
 30
0.0
 10
22.09217564302467
 20
-4.752855884812387
 30
0.0
 10
22.35039840508277
 20
-4.711684489703047
 30
0.0
 10
22.80776119522193
 20
-4.644733827708055
 30
0.0
 10
23.25055083662843
 20
-4.586801467844507
 30
0.0
 10
23.7302568537675
 20
-4.524864631820442
 30
0.0
 10
24.19913216656764
 20
-4.469398931652243
 30
0.0
 10
24.65231291797672
 20
-4.420419576339186
 30
0.0
 10
25.03987547020063
 20
-4.382105646225815
 30
0.0
 10
25.40258648416686
 20
-4.348865605852595
 30
0.0
 10
25.79151792266483
 20
-4.316238876894976
 30
0.0
 10
26.19964785946972
 20
-4.286004804629764
 30
0.0
 10
26.49602866205103
 20
-4.266113428467193
 30
0.0
 10
26.64285840914954
 20
-4.257717881479186
 30
0.0
 10
26.66646074954995
 20
-4.256368328260072
 30
0.0
  0
SPLINE
  5
A0
330
1F
100
AcDbEntity
  8
0
  6
Continuous
 62
     1
370
    15
100
AcDbSpline
210
0.0
220
0.0
230
1.0
 70
     8
 71
     3
 72
    27
 73
    23
 74
     0
 42
0.000000001
 43
0.00000001
 40
0.0
 40
0.0
 40
0.0
 40
0.0
 40
0.0796991224701655
 40
0.1393755635873172
 40
0.1787455741440347
 40
0.2063205404423649
 40
0.2401897449571546
 40
0.2798349820236719
 40
0.3168410738824782
 40
0.3751677963603509
 40
0.436007708232443
 40
0.5054894976998436
 40
0.5503846546311563
 40
0.5835831710209477
 40
0.6198946374352435
 40
0.6773721559309633
 40
0.7356273732289037
 40
0.7728015208192587
 40
0.8065651037440456
 40
0.8547666787111823
 40
0.9193367114472021
 40
1.0
 40
1.0
 40
1.0
 40
1.0
 10
9.999999999999961
 20
-5.067530071916599
 30
0.0
 10
10.18251377533135
 20
-5.057096757515609
 30
0.0
 10
10.50168868605615
 20
-5.038851273379117
 30
0.0
 10
10.91100685743653
 20
-5.019655549818062
 30
0.0
 10
11.2009656930934
 20
-5.007505317956996
 30
0.0
 10
11.43188780915476
 20
-4.998718655616774
 30
0.0
 10
11.66340136719612
 20
-4.99070914025555
 30
0.0
 10
11.91644215269338
 20
-4.982959462071697
 30
0.0
 10
12.22311562189265
 20
-4.975071047683096
 30
0.0
 10
12.54615468112094
 20
-4.967164097982107
 30
0.0
 10
12.97865000419636
 20
-4.960076721778955
 30
0.0
 10
13.38809465946698
 20
-4.958794619743522
 30
0.0
 10
13.73159210962183
 20
-4.958915985890019
 30
0.0
 10
13.99696106874583
 20
-4.96006999240941
 30
0.0
 10
14.28677981263247
 20
-4.962483536232396
 30
0.0
 10
14.63508675467291
 20
-4.967265249776772
 30
0.0
 10
14.98522419617131
 20
-4.974417551250086
 30
0.0
 10
15.28183433774229
 20
-4.982075221948053
 30
0.0
 10
15.55579380105778
 20
-4.990236092752273
 30
0.0
 10
15.89115722623201
 20
-5.001828510063946
 30
0.0
 10
16.3335423800389
 20
-5.019660754459317
 30
0.0
 10
16.66553971853281
 20
-5.036567367130139
 30
0.0
 10
16.8499326448671
 20
-5.04595738151675
 30
0.0
  0
SPLINE
  5
A1
330
1F
100
AcDbEntity
  8
외형선
  6
Continuous
370
    15
100
AcDbSpline
210
0.0
220
0.0
230
1.0
 70
     8
 71
     3
 72
     8
 73
     4
 74
     0
 42
0.000000001
 43
0.00000001
 40
0.0
 40
0.0
 40
0.0
 40
0.0
 40
1.0
 40
1.0
 40
1.0
 40
1.0
 10
10.00000000000001
 20
5.538086587305228
 30
0.0
 10
9.32679848290987
 20
5.728836816636818
 30
0.0
 10
8.644321164739258
 20
5.888871073993436
 30
0.0
 10
7.969834254665216
 20
6.014078420095607
 30
0.0
  0
LINE
  5
A2
330
1F
100
AcDbEntity
  8
외형선
  6
Continuous
370
    15
100
AcDbLine
 10
10.00000000000001
 20
5.538086587305226
 30
0.0
 11
10.00000000000001
 21
4.464653049026652
 31
0.0
  0
SPLINE
  5
A3
330
1F
100
AcDbEntity
  8
외형선
  6
Continuous
370
    15
100
AcDbSpline
210
0.0
220
0.0
230
1.0
 70
     8
 71
     3
 72
     8
 73
     4
 74
     0
 42
0.000000001
 43
0.00000001
 40
0.0
 40
0.0
 40
0.0
 40
0.0
 40
1.0
 40
1.0
 40
1.0
 40
1.0
 10
7.969918989556211
 20
5.217286373225146
 30
0.0
 10
8.644378322552088
 20
4.994910459616834
 30
0.0
 10
9.326826674032025
 20
4.741881616628882
 30
0.0
 10
9.99999999999979
 20
4.464653049026476
 30
0.0
  0
SPLINE
  5
A4
330
1F
100
AcDbEntity
  8
외형선
  6
Continuous
370
    15
100
AcDbSpline
210
0.0
220
0.0
230
1.0
 70
     8
 71
     3
 72
     8
 73
     4
 74
     0
 42
0.000000001
 43
0.00000001
 40
0.0
 40
0.0
 40
0.0
 40
0.0
 40
1.0
 40
1.0
 40
1.0
 40
1.0
 10
10.00000000000001
 20
-5.53808658730523
 30
0.0
 10
9.32679848290987
 20
-5.728836816636821
 30
0.0
 10
8.644321164739258
 20
-5.888871073993439
 30
0.0
 10
7.969834254665216
 20
-6.014078420095609
 30
0.0
  0
LINE
  5
A5
330
1F
100
AcDbEntity
  8
외형선
  6
Continuous
370
    15
100
AcDbLine
 10
7.969918989556211
 20
6.014165756643947
 30
0.0
 11
7.969918989556211
 21
6.349999999999999
 31
0.0
  0
LINE
  5
A6
330
1F
100
AcDbEntity
  8
외형선
  6
Continuous
370
    15
100
AcDbLine
 10
-39.79999999999999
 20
6.349999999999993
 30
0.0
 11
-39.79999999999999
 21
-6.349999999999993
 31
0.0
  0
LINE
  5
A7
330
1F
100
AcDbEntity
  8
외형선
  6
Continuous
370
    15
100
AcDbLine
 10
7.969918989556211
 20
-6.350000000000001
 30
0.0
 11
7.969918989556211
 21
5.2172851076469
 31
0.0
  0
LINE
  5
A8
330
1F
100
AcDbEntity
  8
외형선
  6
Continuous
370
    15
100
AcDbLine
 10
-40.8
 20
5.349999999999993
 30
0.0
 11
-40.8
 21
-5.350000000000008
 31
0.0
  0
SPLINE
  5
A9
330
1F
100
AcDbEntity
  8
외형선
  6
Continuous
370
    15
100
AcDbSpline
210
0.0
220
0.0
230
1.0
 70
    24
 71
     3
 72
    14
 73
    10
 74
     0
 42
0.000000001
 43
0.00000001
 40
0.0
 40
0.0
 40
0.0
 40
0.0
 40
0.2499999999999999
 40
0.2499999999999999
 40
0.4999999999999999
 40
0.4999999999999999
 40
0.7499999999999999
 40
0.7499999999999999
 40
1.0
 40
1.0
 40
1.0
 40
1.0
 10
10.0
 20
2.992688830855066
 30
0.0
 10
10.0
 20
2.505676465482913
 30
0.0
 10
10.0
 20
1.968520911501918
 30
0.0
 10
10.0
 20
0.833075321658542
 30
0.0
 10
10.0
 20
0.2352183905006418
 30
0.0
 10
10.0
 20
-0.9642415580462698
 30
0.0
 10
10.0
 20
-1.56520545302741
 30
0.0
 10
10.0
 20
-2.712489578917419
 30
0.0
 10
10.0
 20
-3.258360077259149
 30
0.0
 10
10.0
 20
-3.756131498717474
 30
0.0
  0
SPLINE
  5
AA
330
1F
100
AcDbEntity
  8
외형선
  6
Continuous
370
    15
100
AcDbSpline
210
0.0
220
0.0
230
1.0
 70
     8
 71
     3
 72
     8
 73
     4
 74
     0
 42
0.000000001
 43
0.00000001
 40
0.0
 40
0.0
 40
0.0
 40
0.0
 40
1.0
 40
1.0
 40
1.0
 40
1.0
 10
10.00000000000001
 20
-3.756131498717477
 30
0.0
 10
9.326816374974241
 20
-3.546142666635074
 30
0.0
 10
8.644357441101741
 20
-3.313781393792403
 30
0.0
 10
7.969888033363112
 20
-3.064889614138338
 30
0.0
  0
SPLINE
  5
AB
330
1F
100
AcDbEntity
  8
외형선
  6
Continuous
370
    15
100
AcDbSpline
210
0.0
220
0.0
230
1.0
 70
     8
 71
     3
 72
     8
 73
     4
 74
     0
 42
0.000000001
 43
0.00000001
 40
0.0
 40
0.0
 40
0.0
 40
0.0
 40
1.0
 40
1.0
 40
1.0
 40
1.0
 10
10.0
 20
2.992688830855066
 30
0.0
 10
9.326819878512305
 20
3.194474012083019
 30
0.0
 10
8.64436454456323
 20
3.380110058145764
 30
0.0
 10
7.969898564053276
 20
3.544865485375184
 30
0.0
  0
SPLINE
  5
AC
330
1F
100
AcDbEntity
  8
외형선
  6
Continuous
370
    15
100
AcDbSpline
210
0.0
220
0.0
230
1.0
 70
    24
 71
     3
 72
    10
 73
     6
 74
     0
 42
0.000000001
 43
0.00000001
 40
0.0
 40
0.0
 40
0.0
 40
0.0
 40
0.5
 40
0.5
 40
1.0
 40
1.0
 40
1.0
 40
1.0
 10
10.00000000000001
 20
4.464653049026391
 30
0.0
 10
10.00000000000001
 20
4.310707723689768
 30
0.0
 10
10.00000000000001
 20
4.094634871367695
 30
0.0
 10
10.00000000000001
 20
3.583003836283771
 30
0.0
 10
10.00000000000001
 20
3.289121602635857
 30
0.0
 10
10.00000000000001
 20
2.992688830855065
 30
0.0
  0
SPLINE
  5
AD
330
1F
100
AcDbEntity
  8
외형선
  6
Continuous
370
    15
100
AcDbSpline
210
0.0
220
0.0
230
1.0
 70
    24
 71
     3
 72
    12
 73
     8
 74
     0
 42
0.000000001
 43
0.00000001
 40
0.0
 40
0.0
 40
0.0
 40
0.0
 40
0.1813025155515216
 40
0.3649689338549434
 40
0.6316714970557004
 40
0.9061084526569942
 40
1.0
 40
1.0
 40
1.0
 40
1.0
 10
10.00000000000001
 20
-3.756131498717476
 30
0.0
 10
10.00000000000001
 20
-3.902463849745138
 30
0.0
 10
10.00000000000001
 20
-4.197036498009779
 30
0.0
 10
10.00000000000001
 20
-4.595340297291027
 30
0.0
 10
10.00000000000001
 20
-4.913088960495374
 30
0.0
 10
10.00000000000001
 20
-5.072018981179143
 30
0.0
 10
10.00000000000001
 20
-5.053543967675005
 30
0.0
 10
10.00000000000001
 20
-5.048834455402075
 30
0.0
  0
SPLINE
  5
AE
330
1F
100
AcDbEntity
  8
외형선
  6
Continuous
370
    15
100
AcDbSpline
210
0.0
220
0.0
230
1.0
 70
    24
 71
     3
 72
    10
 73
     6
 74
     0
 42
0.000000001
 43
0.00000001
 40
0.0
 40
0.0
 40
0.0
 40
0.0
 40
0.12846606693943
 40
0.7764936588857835
 40
1.0
 40
1.0
 40
1.0
 40
1.0
 10
10.00000000000001
 20
-5.102336767672075
 30
0.0
 10
10.00000000000001
 20
-5.122580348431226
 30
0.0
 10
10.00000000000001
 20
-5.244939602256859
 30
0.0
 10
9.999999999999996
 20
-5.387870867762842
 30
0.0
 10
10.00000000000001
 20
-5.507426376299724
 30
0.0
 10
10.00000000000001
 20
-5.538086587290352
 30
0.0
  0
SPLINE
  5
AF
330
1F
100
AcDbEntity
  8
0
  6
Continuous
 62
     1
370
    15
100
AcDbSpline
210
0.0
220
0.0
230
1.0
 70
     8
 71
     3
 72
    46
 73
    42
 74
     0
 42
0.000000001
 43
0.00000001
 40
0.0
 40
0.0
 40
0.0
 40
0.0
 40
0.0625000000000002
 40
0.0625000000000002
 40
0.1250000000000002
 40
0.1250000000000002
 40
0.1875000000000003
 40
0.1875000000000003
 40
0.2500000000000003
 40
0.2500000000000003
 40
0.3125000000000004
 40
0.3125000000000004
 40
0.3437500000000004
 40
0.3437500000000004
 40
0.3750000000000004
 40
0.3750000000000004
 40
0.4375000000000003
 40
0.4375000000000003
 40
0.4687500000000001
 40
0.4687500000000001
 40
0.5
 40
0.5
 40
0.5312499999999998
 40
0.5312499999999998
 40
0.5624999999999997
 40
0.5624999999999997
 40
0.6249999999999997
 40
0.6249999999999997
 40
0.6562499999999997
 40
0.6562499999999997
 40
0.6874999999999998
 40
0.6874999999999998
 40
0.7499999999999998
 40
0.7499999999999998
 40
0.8124999999999998
 40
0.8124999999999998
 40
0.8749999999999999
 40
0.8749999999999999
 40
0.9375
 40
0.9375
 40
1.0
 40
1.0
 40
1.0
 40
1.0
 10
9.999999999999732
 20
4.464653049025793
 30
0.0
 10
10.52672504416301
 20
4.247735319399876
 30
0.0
 10
11.05796262565487
 20
4.01468233788805
 30
0.0
 10
12.11829303643542
 20
3.522585700552165
 30
0.0
 10
12.64363063229037
 20
3.264212416747879
 30
0.0
 10
13.70411402112662
 20
2.725028152128202
 30
0.0
 10
14.23484100343599
 20
2.444910978201858
 30
0.0
 10
15.28874679353692
 20
1.871044871323254
 30
0.0
 10
15.82121095990087
 20
1.575605287773695
 30
0.0
 10
16.88061608803341
 20
0.976837013700309
 30
0.0
 10
17.40627602998133
 20
0.6737876833984008
 30
0.0
 10
18.20204433537253
 20
0.2158970721233075
 30
0.0
 10
18.4675436685829
 20
0.0628996160891393
 30
0.0
 10
18.9969554503927
 20
-0.2426340664196685
 30
0.0
 10
19.25987472276393
 20
-0.394979136444014
 30
0.0
 10
20.05180097774198
 20
-0.8512014198788144
 30
0.0
 10
20.58445851055981
 20
-1.154341155132647
 30
0.0
 10
21.37808068859528
 20
-1.600455611857817
 30
0.0
 10
21.64078694418775
 20
-1.747559624106986
 30
0.0
 10
22.16917803608332
 20
-2.03903842303707
 30
0.0
 10
22.43444851950109
 20
-2.183331253705864
 30
0.0
 10
22.96507195190446
 20
-2.467882085309888
 30
0.0
 10
23.23042309971412
 20
-2.608139118209644
 30
0.0
 10
23.75913475685213
 20
-2.883537207963963
 30
0.0
 10
24.02178061545386
 20
-3.018563283268864
 30
0.0
 10
24.8149686966164
 20
-3.416336467692507
 30
0.0
 10
25.34765817508974
 20
-3.671171005326202
 30
0.0
 10
26.14011190912462
 20
-4.031973491173746
 30
0.0
 10
26.4028500055436
 20
-4.148642748725692
 30
0.0
 10
26.93200362892968
 20
-4.375123821467017
 30
0.0
 10
27.19745387042816
 20
-4.484784469970342
 30
0.0
 10
27.99331677467486
 20
-4.80171104455893
 30
0.0
 10
28.51925150982562
 20
-4.996437849626131
 30
0.0
 10
29.57820292894587
 20
-5.350798060661888
 30
0.0
 10
30.11076289984771
 20
-5.510253335497867
 30
0.0
 10
31.16549580483542
 20
-5.788904949475867
 30
0.0
 10
31.69531744171187
 20
-5.908824232292168
 30
0.0
 10
32.75605296790275
 20
-6.10684437550907
 30
0.0
 10
33.28145434411103
 20
-6.184700391917333
 30
0.0
 10
34.3414565858693
 20
-6.297449922029898
 30
0.0
 10
34.87372572742331
 20
-6.332097562425494
 30
0.0
 10
35.40000000000001
 20
-6.349999999999995
 30
0.0
  0
SPLINE
  5
B0
330
1F
100
AcDbEntity
  8
0
  6
Continuous
 62
     1
370
    15
100
AcDbSpline
210
0.0
220
0.0
230
1.0
 70
     8
 71
     3
 72
    13
 73
     9
 74
     0
 42
0.000000001
 43
0.00000001
 40
0.0
 40
0.0
 40
0.0
 40
0.0
 40
0.0228734479886289
 40
0.2604912942259759
 40
0.4981087693963793
 40
0.6654434236415374
 40
0.8326100059052541
 40
1.0
 40
1.0
 40
1.0
 40
1.0
 10
19.61907455583736
 20
-0.6011042011910666
 30
0.0
 10
19.54572854350425
 20
-0.5722668462674959
 30
0.0
 10
18.7104369998566
 20
-0.2438563718244158
 30
0.0
 10
17.11322197107715
 20
0.412796743869067
 30
0.0
 10
15.05267800242068
 20
1.231708236158936
 30
0.0
 10
13.21833645353575
 20
1.923199785327802
 30
0.0
 10
11.60946104025943
 20
2.493498833607951
 30
0.0
 10
10.53672579888633
 20
2.826218103470865
 30
0.0
 10
10.00000000000001
 20
2.992688830855065
 30
0.0
  0
SPLINE
  5
B1
330
1F
100
AcDbEntity
  8
외형선
  6
Continuous
370
    15
100
AcDbSpline
210
0.0
220
0.0
230
1.0
 70
    24
 71
     3
 72
    10
 73
     6
 74
     0
 42
0.000000001
 43
0.00000001
 40
0.0
 40
0.0
 40
0.0
 40
0.0
 40
0.5000000000000002
 40
0.5000000000000002
 40
1.0
 40
1.0
 40
1.0
 40
1.0
 10
10.00000000000001
 20
4.464653049026388
 30
0.0
 10
10.00000000000001
 20
4.310707723689767
 30
0.0
 10
10.00000000000001
 20
4.094634871367692
 30
0.0
 10
10.00000000000001
 20
3.583003836283768
 30
0.0
 10
10.00000000000001
 20
3.289121602635854
 30
0.0
 10
10.00000000000001
 20
2.992688830855064
 30
0.0
  0
SPLINE
  5
B2
330
1F
100
AcDbEntity
  8
0
  6
Continuous
 62
     1
370
    15
100
AcDbSpline
210
0.0
220
0.0
230
1.0
 70
     8
 71
     3
 72
    46
 73
    42
 74
     0
 42
0.000000001
 43
0.00000001
 40
0.0
 40
0.0
 40
0.0
 40
0.0
 40
0.0625
 40
0.0625
 40
0.1250000000000001
 40
0.1250000000000001
 40
0.1875000000000001
 40
0.1875000000000001
 40
0.2500000000000002
 40
0.2500000000000002
 40
0.3125000000000002
 40
0.3125000000000002
 40
0.3437500000000004
 40
0.3437500000000004
 40
0.3750000000000006
 40
0.3750000000000006
 40
0.4375000000000006
 40
0.4375000000000006
 40
0.4687500000000007
 40
0.4687500000000007
 40
0.5000000000000007
 40
0.5000000000000007
 40
0.5312500000000007
 40
0.5312500000000007
 40
0.5625000000000007
 40
0.5625000000000007
 40
0.6250000000000007
 40
0.6250000000000007
 40
0.6562500000000006
 40
0.6562500000000006
 40
0.6875000000000004
 40
0.6875000000000004
 40
0.7500000000000003
 40
0.7500000000000003
 40
0.8125000000000003
 40
0.8125000000000003
 40
0.8750000000000002
 40
0.8750000000000002
 40
0.9375000000000002
 40
0.9375000000000002
 40
1.0
 40
1.0
 40
1.0
 40
1.0
 10
35.40000000000001
 20
-6.025774519622565
 30
0.0
 10
34.87372572742322
 20
-5.929573616110916
 30
0.0
 10
34.34145658586912
 20
-5.812053215775037
 30
0.0
 10
33.28145434411069
 20
-5.537740733374996
 30
0.0
 10
32.75605296790233
 20
-5.381300246554264
 30
0.0
 10
31.69531744171129
 20
-5.031198672749323
 30
0.0
 10
31.16549580483478
 20
-4.838060822548671
 30
0.0
 10
30.11076289984688
 20
-4.42027572618678
 30
0.0
 10
29.57820292894498
 20
-4.194580171097231
 30
0.0
 10
28.51925150982456
 20
-3.71648309854084
 30
0.0
 10
27.9933167746737
 20
-3.464249492084571
 30
0.0
 10
27.19745387042689
 20
-3.068072989997657
 30
0.0
 10
26.93200362892838
 20
-2.933200939574387
 30
0.0
 10
26.40285000554221
 20
-2.6588978104475
 30
0.0
 10
26.1401119091232
 20
-2.519642419492139
 30
0.0
 10
25.34765817508817
 20
-2.094948173753147
 30
0.0
 10
24.81496869661476
 20
-1.802749197944185
 30
0.0
 10
24.0217806154521
 20
-1.357653750289137
 30
0.0
 10
23.75913475685034
 20
-1.208312258648277
 30
0.0
 10
23.23042309971223
 20
-0.9071497011257283
 30
0.0
 10
22.96507195190254
 20
-0.7554607481160845
 30
0.0
 10
22.43444851949908
 20
-0.4510466426938197
 30
0.0
 10
22.16917803608128
 20
-0.2983225241680646
 30
0.0
 10
21.64078694418564
 20
0.0069650330481439
 30
0.0
 10
21.37808068859312
 20
0.1594484698243332
 30
0.0
 10
20.5844585105575
 20
0.6171460771169717
 30
0.0
 10
20.0518009777396
 20
0.9218696343603154
 30
0.0
 10
19.25987472276145
 20
1.371242881123164
 30
0.0
 10
18.99695545039017
 20
1.519778135504635
 30
0.0
 10
18.46754366858028
 20
1.814622629434587
 30
0.0
 10
18.20204433536986
 20
1.960742436635096
 30
0.0
 10
17.40627602997856
 20
2.393472084953291
 30
0.0
 10
16.88061608803055
 20
2.673771011333725
 30
0.0
 10
15.82121095989783
 20
3.215322660362484
 30
0.0
 10
15.28874679353381
 20
3.476278009401228
 30
0.0
 10
14.23484100343275
 20
3.970554147754002
 30
0.0
 10
13.70411402112325
 20
4.205342004246704
 30
0.0
 10
12.64363063228685
 20
4.643917003861758
 30
0.0
 10
12.11829303643183
 20
4.847180261326907
 30
0.0
 10
11.0579626256511
 20
5.219919992573505
 30
0.0
 10
10.52672504415921
 20
5.38884015749581
 30
0.0
 10
9.999999999995818
 20
5.538086587306415
 30
0.0
  0
SPLINE
  5
B3
330
1F
100
AcDbEntity
  8
0
  6
Continuous
 62
     1
370
    15
100
AcDbSpline
210
0.0
220
0.0
230
1.0
 70
     8
 71
     3
 72
    17
 73
    13
 74
     0
 42
0.000000001
 43
0.00000001
 40
0.0
 40
0.0
 40
0.0
 40
0.0
 40
0.1040660877167152
 40
0.2080041093880551
 40
0.3119482046090372
 40
0.4160303008914807
 40
0.5200793329551611
 40
0.6240123779804541
 40
0.727963642981197
 40
0.8320585690402125
 40
0.9360916300675832
 40
1.0
 40
1.0
 40
1.0
 40
1.0
 10
35.40000000000001
 20
-5.009973878738173
 30
0.0
 10
34.8281380810084
 20
-4.893897757177961
 30
0.0
 10
33.68511798903961
 20
-4.661888359918055
 30
0.0
 10
31.9713776183156
 20
-4.167935544230978
 30
0.0
 10
30.2575455435331
 20
-3.581504151165731
 30
0.0
 10
28.54255767370066
 20
-2.906533237875927
 30
0.0
 10
26.82779066716861
 20
-2.161499862890137
 30
0.0
 10
25.11413278502695
 20
-1.363594109023988
 30
0.0
 10
23.40020629583993
 20
-0.5321113867940943
 30
0.0
 10
21.68513738218272
 20
0.3096911113525752
 30
0.0
 10
20.19037168571526
 20
1.042839444446676
 30
0.0
 10
19.26774737965282
 20
1.473588904127028
 30
0.0
 10
18.9166522679612
 20
1.637506143965435
 30
0.0
  0
LINE
  5
B4
330
1F
100
AcDbEntity
  8
0
  6
Continuous
 62
     1
370
    15
100
AcDbLine
 10
35.40000000000001
 20
-6.025774519622566
 30
0.0
 11
35.40000000000001
 21
-5.009973878738173
 31
0.0
  0
LINE
  5
B5
330
1F
100
AcDbEntity
  8
0
  6
Continuous
 62
     1
370
    15
100
AcDbLine
 10
35.40000000000001
 20
-6.349999999999995
 30
0.0
 11
35.40000000000001
 21
-6.025774519622566
 31
0.0
  0
SPLINE
  5
B6
330
1F
100
AcDbEntity
  8
0
  6
Continuous
 62
     1
370
    15
100
AcDbSpline
210
0.0
220
0.0
230
1.0
 70
     8
 71
     3
 72
     8
 73
     4
 74
     0
 42
0.000000001
 43
0.00000001
 40
0.0
 40
0.0
 40
0.0
 40
0.0
 40
1.0
 40
1.0
 40
1.0
 40
1.0
 10
31.47110935627956
 20
1.776017074452405
 30
0.0
 10
31.2459566183125
 20
2.042719345426057
 30
0.0
 10
31.04437534697912
 20
2.300050926275846
 30
0.0
 10
30.8724705694509
 20
2.545584801376878
 30
0.0
  0
LINE
  5
B7
330
1F
100
AcDbEntity
  8
0
  6
Continuous
 62
     1
370
    15
100
AcDbLine
 10
30.95275512375335
 20
2.612951541294602
 30
0.0
 11
35.40000000000001
 21
0.0000000000000021
 31
0.0
  0
LINE
  5
B8
330
1F
100
AcDbEntity
  8
0
  6
Continuous
 62
     1
370
    15
100
AcDbLine
 10
35.40000000000001
 20
0.0000000000000021
 30
0.0
 11
35.40000000000001
 21
-1.696992707288243
 31
0.0
  0
SPLINE
  5
B9
330
1F
100
AcDbEntity
  8
0
  6
Continuous
 62
     1
370
    15
100
AcDbSpline
210
0.0
220
0.0
230
1.0
 70
     8
 71
     3
 72
    12
 73
     8
 74
     0
 42
0.000000001
 43
0.00000001
 40
0.0
 40
0.0
 40
0.0
 40
0.0
 40
0.5
 40
0.5
 40
0.75
 40
0.75
 40
1.0
 40
1.0
 40
1.0
 40
1.0
 10
35.40000000000001
 20
-1.696992707288242
 30
0.0
 10
34.71989727265295
 20
-1.16231820457425
 30
0.0
 10
34.0511544579366
 20
-0.6057234975937651
 30
0.0
 10
33.06552321729134
 20
0.2629039036822268
 30
0.0
 10
32.73994021316177
 20
0.5581594504446613
 30
0.0
 10
32.09542402705683
 20
1.16150210920198
 30
0.0
 10
31.77824347731784
 20
1.468032404441035
 30
0.0
 10
31.47110935627955
 20
1.776017074452411
 30
0.0
  0
SPLINE
  5
BA
330
1F
100
AcDbEntity
  8
0
  6
Continuous
 62
     1
370
    15
100
AcDbSpline
210
0.0
220
0.0
230
1.0
 70
     8
 71
     3
 72
    16
 73
    12
 74
     0
 42
0.000000001
 43
0.00000001
 40
0.0
 40
0.0
 40
0.0
 40
0.0
 40
0.1000560031633727
 40
0.2003027150830502
 40
0.3175931675487537
 40
0.4347510467855484
 40
0.5519297576122579
 40
0.6692726788542971
 40
0.7865448719829814
 40
0.9036983166057165
 40
1.0
 40
1.0
 40
1.0
 40
1.0
 10
31.471109356275
 20
1.776017074454373
 30
0.0
 10
30.98355148473281
 20
1.984228266711952
 30
0.0
 10
30.00750644653002
 20
2.401047505951154
 30
0.0
 10
28.4593275932564
 20
3.006945649640998
 30
0.0
 10
26.82781793356287
 20
3.584722420066902
 30
0.0
 10
25.11415256304967
 20
4.1046213269679
 30
0.0
 10
23.40020941915313
 20
4.524913228271197
 30
0.0
 10
21.68517270233784
 20
4.835997376991829
 30
0.0
 10
19.97051570547873
 20
5.026591020403159
 30
0.0
 10
18.35873447972857
 20
5.10358647903937
 30
0.0
 10
17.31836090403095
 20
5.057625836115809
 30
0.0
 10
16.84898953015313
 20
5.036890390101742
 30
0.0
  0
SPLINE
  5
BB
330
1F
100
AcDbEntity
  8
0
  6
Continuous
 62
     1
370
    15
100
AcDbSpline
210
0.0
220
0.0
230
1.0
 70
    24
 71
     3
 72
    10
 73
     6
 74
     0
 42
0.000000001
 43
0.00000001
 40
0.0
 40
0.0
 40
0.0
 40
0.0
 40
0.5
 40
0.5
 40
1.0
 40
1.0
 40
1.0
 40
1.0
 10
35.40000000000001
 20
-5.009973878738172
 30
0.0
 10
35.40000000000001
 20
-4.625920320174163
 30
0.0
 10
35.4
 20
-4.140653922806075
 30
0.0
 10
35.40000000000001
 20
-3.012456250606816
 30
0.0
 10
35.40000000000001
 20
-2.370502263375817
 30
0.0
 10
35.40000000000001
 20
-1.696992707288446
 30
0.0
  0
SPLINE
  5
BC
330
1F
100
AcDbEntity
  8
0
  6
Continuous
 62
     1
370
    15
100
AcDbSpline
210
0.0
220
0.0
230
1.0
 70
    24
 71
     3
 72
     8
 73
     4
 74
     0
 42
0.000000001
 43
0.00000001
 40
0.0
 40
0.0
 40
0.0
 40
0.0
 40
1.0
 40
1.0
 40
1.0
 40
1.0
 10
31.53479688430332
 20
3.101342567901442
 30
0.0
 10
31.3252008107637
 20
2.925470579898145
 30
0.0
 10
31.10370784598384
 20
2.739615914843402
 30
0.0
 10
30.87247056944509
 20
2.545584801385298
 30
0.0
  0
SPLINE
  5
BD
330
1F
100
AcDbEntity
  8
0
  6
Continuous
 62
     1
370
    15
100
AcDbSpline
210
0.0
220
0.0
230
1.0
 70
     8
 71
     3
 72
     9
 73
     5
 74
     0
 42
0.000000001
 43
0.00000001
 40
0.0
 40
0.0
 40
0.0
 40
0.0
 40
0.9684382077806771
 40
1.0
 40
1.0
 40
1.0
 40
1.0
 10
35.40000000000001
 20
4.444999999999999
 30
0.0
 10
34.63804499476559
 20
4.443329309275319
 30
0.0
 10
33.85125756825486
 20
4.441604170065347
 30
0.0
 10
33.06447035458347
 20
4.343236662230664
 30
0.0
 10
33.03963794002475
 20
4.340132007387254
 30
0.0
  0
SPLINE
  5
BE
330
1F
100
AcDbEntity
  8
0
  6
Continuous
 62
     1
370
    15
100
AcDbSpline
210
0.0
220
0.0
230
1.0
 70
     8
 71
     3
 72
    10
 73
     6
 74
     0
 42
0.000000001
 43
0.00000001
 40
0.0
 40
0.0
 40
0.0
 40
0.0
 40
0.5
 40
0.5
 40
1.0
 40
1.0
 40
1.0
 40
1.0
 10
35.40000000000001
 20
4.445000000000002
 30
0.0
 10
34.74677884300199
 20
4.267837056609049
 30
0.0
 10
34.09755500543645
 20
4.068937872914622
 30
0.0
 10
32.80780659456462
 20
3.623835480516936
 30
0.0
 10
32.16724863861666
 20
3.378145942251229
 30
0.0
 10
31.53479688431497
 20
3.101342567906868
 30
0.0
  0
SPLINE
  5
BF
330
1F
100
AcDbEntity
  8
0
  6
Continuous
 62
     1
370
    15
100
AcDbSpline
210
0.0
220
0.0
230
1.0
 70
     8
 71
     3
 72
    15
 73
    11
 74
     0
 42
0.000000001
 43
0.00000001
 40
0.0
 40
0.0
 40
0.0
 40
0.0
 40
0.022118453149617
 40
0.1656250890246233
 40
0.3089864116915338
 40
0.4523902174195771
 40
0.5959969010920053
 40
0.7306940624419223
 40
0.8652594556431356
 40
1.0
 40
1.0
 40
1.0
 40
1.0
 10
21.9492033341692
 20
-4.768295925836534
 30
0.0
 10
21.86109215429935
 20
-4.784538027657518
 30
0.0
 10
21.20130722669634
 20
-4.906160436867183
 30
0.0
 10
19.97052174625448
 20
-5.02204378224655
 30
0.0
 10
18.25691647069377
 20
-5.102075464336643
 30
0.0
 10
16.54288402637213
 20
-5.047372431010854
 30
0.0
 10
14.86278334139812
 20
-4.877373091921353
 30
0.0
 10
13.21831044645468
 20
-4.598667159335711
 30
0.0
 10
11.60949273743838
 20
-4.233139024505844
 30
0.0
 10
10.53673014687089
 20
-3.915202933722759
 30
0.0
 10
10.00000000000001
 20
-3.756131498717478
 30
0.0
  0
SPLINE
  5
C0
330
1F
100
AcDbEntity
  8
외형선
  6
Continuous
370
    15
100
AcDbSpline
210
0.0
220
0.0
230
1.0
 70
    24
 71
     3
 72
    14
 73
    10
 74
     0
 42
0.000000001
 43
0.00000001
 40
0.0
 40
0.0
 40
0.0
 40
0.0
 40
0.25
 40
0.25
 40
0.5
 40
0.5
 40
0.75
 40
0.75
 40
1.0
 40
1.0
 40
1.0
 40
1.0
 10
9.999999999999998
 20
2.992688830855067
 30
0.0
 10
9.999999999999998
 20
2.505676465482915
 30
0.0
 10
9.999999999999998
 20
1.968520911501921
 30
0.0
 10
9.999999999999998
 20
0.8330753216585435
 30
0.0
 10
9.999999999999998
 20
0.2352183905006432
 30
0.0
 10
9.999999999999998
 20
-0.9642415580462684
 30
0.0
 10
9.999999999999998
 20
-1.565205453027408
 30
0.0
 10
9.999999999999998
 20
-2.712489578917416
 30
0.0
 10
9.999999999999998
 20
-3.258360077259148
 30
0.0
 10
9.999999999999998
 20
-3.756131498717473
 30
0.0
  0
LINE
  5
C1
330
1F
100
AcDbEntity
  8
0
  6
Continuous
 62
     1
370
    15
100
AcDbLine
 10
35.40000000000001
 20
0.0000000000000021
 30
0.0
 11
35.40000000000001
 21
4.445000000000001
 31
0.0
  0
SPLINE
  5
C2
330
1F
100
AcDbEntity
  8
외형선
  6
Continuous
370
    15
100
AcDbSpline
210
0.0
220
0.0
230
1.0
 70
    24
 71
     3
 72
    12
 73
     8
 74
     0
 42
0.000000001
 43
0.00000001
 40
0.0
 40
0.0
 40
0.0
 40
0.0
 40
0.1814510693155813
 40
0.365267978293042
 40
0.6321890694581092
 40
0.906850890349482
 40
1.0
 40
1.0
 40
1.0
 40
1.0
 10
10.00000000000001
 20
-3.756131498717476
 30
0.0
 10
10.00000000000001
 20
-3.902463371165383
 30
0.0
 10
10.00000000000001
 20
-4.197035056030577
 30
0.0
 10
10.00000000000001
 20
-4.595347257570977
 30
0.0
 10
10.00000000000001
 20
-4.913048896955503
 30
0.0
 10
10.00000000000001
 20
-5.071923756608516
 30
0.0
 10
10.00000000000001
 20
-5.053548528238185
 30
0.0
 10
10.00000000000001
 20
-5.048894952120152
 30
0.0
  0
SPLINE
  5
C3
330
1F
100
AcDbEntity
  8
0
  6
Continuous
 62
     1
370
    15
100
AcDbSpline
210
0.0
220
0.0
230
1.0
 70
    24
 71
     3
 72
    10
 73
     6
 74
     0
 42
0.000000001
 43
0.00000001
 40
0.0
 40
0.0
 40
0.0
 40
0.0
 40
0.5
 40
0.5
 40
1.0
 40
1.0
 40
1.0
 40
1.0
 10
35.40000000000001
 20
4.444999999999999
 30
0.0
 10
35.40000000000001
 20
4.714444830726441
 30
0.0
 10
35.40000000000001
 20
5.027564677306191
 30
0.0
 10
35.40000000000001
 20
5.68448927210143
 30
0.0
 10
35.40000000000001
 20
6.02661631733935
 30
0.0
 10
35.39999999999967
 20
6.350000000000004
 30
0.0
  0
SPLINE
  5
C4
330
1F
100
AcDbEntity
  8
0
  6
Continuous
 62
     1
370
    15
100
AcDbSpline
210
0.0
220
0.0
230
1.0
 70
     8
 71
     3
 72
    14
 73
    10
 74
     0
 42
0.000000001
 43
0.00000001
 40
0.0
 40
0.0
 40
0.0
 40
0.0
 40
0.0209851406740048
 40
0.1260240843840468
 40
0.2314272480755089
 40
0.421089423267747
 40
0.6112910014241931
 40
0.8053563646938116
 40
1.0
 40
1.0
 40
1.0
 40
1.0
 10
26.66798682775691
 20
4.257014407540398
 30
0.0
 10
26.72906266199483
 20
4.284883175161673
 30
0.0
 10
27.09584724578173
 20
4.452246166763335
 30
0.0
 10
27.7699600391047
 20
4.712818951093417
 30
0.0
 10
28.93338461105662
 20
5.148651299606647
 30
0.0
 10
30.34691969975679
 20
5.59147626401464
 30
0.0
 10
32.01694165940258
 20
5.989453128863078
 30
0.0
 10
33.70172863230784
 20
6.260610583593807
 30
0.0
 10
34.83334838390219
 20
6.316597815431615
 30
0.0
 10
35.39999999999967
 20
6.350000000000004
 30
0.0
  0
LINE
  5
C5
330
1F
100
AcDbEntity
  8
0
  6
Continuous
 62
     1
370
    15
100
AcDbLine
 10
11.69399895693403
 20
-4.98997193607831
 30
0.0
 11
9.999999999995818
 21
-5.538086587306418
 31
0.0
  0
SPLINE
  5
C6
330
1F
100
AcDbEntity
  8
외형선
  6
Continuous
370
    15
100
AcDbSpline
210
0.0
220
0.0
230
1.0
 70
    24
 71
     3
 72
    11
 73
     7
 74
     0
 42
0.000000001
 43
0.00000001
 40
0.0
 40
0.0
 40
0.0
 40
0.0
 40
0.1304332605396754
 40
0.4535392619829384
 40
0.7770223177559418
 40
1.0
 40
1.0
 40
1.0
 40
1.0
 10
10.00000000000001
 20
-5.102336767672075
 30
0.0
 10
10.00000000000001
 20
-5.122568908600158
 30
0.0
 10
10.00000000000001
 20
-5.192919601566744
 30
0.0
 10
10.00000000000001
 20
-5.307709317163534
 30
0.0
 10
10.00000000000001
 20
-5.432586613692133
 30
0.0
 10
10.00000000000001
 20
-5.507513458927778
 30
0.0
 10
10.00000000000001
 20
-5.53808658729035
 30
0.0
  0
LINE
  5
C7
330
1F
100
AcDbEntity
  8
중심선
 48
0.8
100
AcDbLine
 10
-43.80000000000001
 20
-0.0000000000000063
 30
0.0
 11
38.40000000000001
 21
0.0000000000000037
 31
0.0
  0
LINE
  5
C8
330
1F
100
AcDbEntity
  8
참조1
100
AcDbLine
 10
2.149261314031158
 20
0.0010749287238892
 30
0.0
 11
2.149261314031167
 21
-39.99892507127611
 31
0.0
  0
LINE
  5
C9
330
1F
100
AcDbEntity
  8
참조1
100
AcDbLine
 10
2.149261314031167
 20
-39.99892507127611
 30
0.0
 11
-20.15080122126847
 21
-39.9989250712761
 31
0.0
  0
CIRCLE
  5
CA
330
1F
100
AcDbEntity
  8
해칭선
100
AcDbCircle
 10
0.0
 20
0.0
 30
0.0
 40
2.999999999999995
  0
INSERT
  5
CB
330
1F
100
AcDbEntity
  8
0
  6
Continuous
 62
     7
100
AcDbBlockReference
 66
     1
  2
블럭10
 10
-11.79101161809404
 20
-52.04609937292004
 30
0.0
  0
ATTRIB
  5
CC
330
CB
100
AcDbEntity
  8
FORMAT
 62
     2
100
AcDbText
 10
-20.97230690683532
 20
-49.97073246008785
 30
0.0
 40
4.233333333333333
  1
E1163032 [ 2 FLUTE ]
 41
0.75
  7
SLDTEXTSTYLE0
 11
-20.97230690683532
 21
-52.08739912675452
 31
0.0
100
AcDbAttribute
  2
AUTOATTR0
 70
     0
 74
     1
  0
SEQEND
  5
CD
330
CB
100
AcDbEntity
  8
0
  6
Continuous
 62
     7
  0
HATCH
  5
CE
330
1F
100
AcDbEntity
  8
중심선
100
AcDbHatch
 10
0.0
 20
0.0
 30
0.0
210
0.0
220
0.0
230
1.0
  2
SOLID
 70
     1
 71
     0
 91
        1
 92
        0
 93
        4
 72
     1
 10
-6.076102313713195
 20
-35.7989250712761
 11
-9.522377557550477
 21
-35.7989250712761
 72
     1
 10
-9.522377557550477
 20
-35.7989250712761
 11
-11.6506074167545
 21
-38.3352506518487
 72
     1
 10
-11.6506074167545
 20
-38.3352506518487
 11
-8.204299087804067
 21
-38.33521122254621
 72
     1
 10
-8.204299087804067
 20
-38.33521122254621
 11
-6.076102313713195
 21
-35.7989250712761
 97
        0
 75
     0
 76
     1
 98
        1
 10
0.0
 20
0.0
  0
HATCH
  5
CF
330
1F
100
AcDbEntity
  8
중심선
100
AcDbHatch
 10
0.0
 20
0.0
 30
0.0
210
0.0
220
0.0
230
1.0
  2
SOLID
 70
     1
 71
     0
 91
        1
 92
        0
 93
        4
 72
     1
 10
-1.063338322677243
 20
-35.7989250712761
 11
-4.509613566514526
 21
-35.7989250712761
 72
     1
 10
-4.509613566514526
 20
-35.7989250712761
 11
-9.040751574871914
 21
-41.19892507127612
 72
     1
 10
-9.040751574871914
 20
-41.19892507127612
 11
-5.594476331034631
 21
-41.19892507127612
 72
     1
 10
-5.594476331034631
 20
-41.19892507127612
 11
-1.063338322677243
 21
-35.7989250712761
 97
        0
 75
     0
 76
     1
 98
        1
 10
0.0
 20
0.0
  0
HATCH
  5
D0
330
1F
100
AcDbEntity
  8
중심선
100
AcDbHatch
 10
0.0
 20
0.0
 30
0.0
210
0.0
220
0.0
230
1.0
  2
SOLID
 70
     1
 71
     0
 91
        1
 92
        0
 93
        4
 72
     1
 10
3.949425668358653
 20
-35.7989250712761
 11
0.5031504245215368
 21
-35.79892507127613
 72
     1
 10
0.5031504245215368
 20
-35.79892507127613
 11
-6.545286477367712
 21
-44.19892507127612
 72
     1
 10
-6.545286477367712
 20
-44.19892507127612
 11
-3.09901123353043
 21
-44.19892507127612
 72
     1
 10
-3.09901123353043
 20
-44.19892507127612
 11
3.949425668358653
 21
-35.7989250712761
 97
        0
 75
     0
 76
     1
 98
        1
 10
0.0
 20
0.0
  0
HATCH
  5
D1
330
1F
100
AcDbEntity
  8
중심선
100
AcDbHatch
 10
0.0
 20
0.0
 30
0.0
210
0.0
220
0.0
230
1.0
  2
SOLID
 70
     1
 71
     0
 91
        1
 92
        0
 93
        6
 72
     3
 10
8.749316099370851
 20
-39.99892507132738
 11
3.960054785062284
 21
1.540850780301639E-10
 40
0.3939339440162633
 50
17.09539180608433
 51
320.0019657685074
 73
     0
 72
     1
 10
10.43231575507145
 20
-38.58681907591438
 11
12.73761762877251
 21
-36.65249236586646
 72
     3
 10
8.749316099318005
 20
-39.99892507127625
 11
6.600054785286829
 21
-1.249000902703301E-13
 40
0.6363583540795982
 50
39.99873849337411
 51
368.4976242363725
 73
     1
 72
     1
 10
15.17464859121861
 20
-39.03892507120613
 11
7.429383406153955
 21
-39.03892507120613
 72
     1
 10
7.429383406153955
 20
-39.03892507120613
 11
7.429358361707994
 21
-40.95892507120602
 72
     1
 10
7.429358361707994
 20
-40.95892507120602
 11
11.87073813118003
 21
-40.95892507120599
 97
        0
 75
     0
 76
     1
 98
        1
 10
0.0
 20
0.0
  0
DIMENSION
  5
D2
330
1F
100
AcDbEntity
  8
치수문자_일반주서
100
AcDbDimension
  2
_D
 10
-53.3
 20
-6.350000000000046
 30
0.0
 11
-53.30000000000002
 21
-0.0000000000000037
 31
0.0
 70
   160
  1
%%c<>
 71
     2
 42
12.69999999999999
 52
-270.0
  3
SLDDIMSTYLE1
100
AcDbAlignedDimension
 13
-39.8
 23
6.349999999999993
 33
0.0
 14
-39.8
 24
-6.349999999999996
 34
0.0
 50
90.0000000000002
100
AcDbRotatedDimension
1001
ACAD
1000
DSTYLE
1002
{
1070
   171
1070
     6
1070
   273
1070
     7
1002
}
  0
DIMENSION
  5
E7
330
1F
100
AcDbEntity
  8
치수문자_일반주서
100
AcDbDimension
  2
_D_1
 10
10.00000000000001
 20
16.00081246753737
 30
0.0
 11
-9.256997109270179
 21
16.00081246753737
 31
0.0
 70
   160
  1
<>
 71
     2
 42
25.39999999999966
  3
SLDDIMSTYLE1
100
AcDbAlignedDimension
 13
35.39999999999967
 23
6.350000000000003
 33
0.0
 14
10.00000000000001
 24
5.538086587290349
 34
0.0
100
AcDbRotatedDimension
1001
ACAD
1000
DSTYLE
1002
{
1070
   171
1070
     6
1070
   273
1070
     7
1002
}
  0
DIMENSION
  5
FC
330
1F
100
AcDbEntity
  8
치수문자_일반주서
100
AcDbDimension
  2
_D_2
 10
-40.8
 20
36.55130408500666
 30
0.0
 11
-2.699999999999999
 21
36.55130408500666
 31
0.0
 70
   160
  1
<>
 71
     2
 42
76.19999999999968
  3
SLDDIMSTYLE1
100
AcDbAlignedDimension
 13
35.39999999999967
 23
6.350000000000004
 33
0.0
 14
-40.8
 24
5.349999999999993
 34
0.0
 50
0.0000000000000053
100
AcDbRotatedDimension
1001
ACAD
1000
DSTYLE
1002
{
1070
   171
1070
     6
1070
   273
1070
     7
1002
}
  0
DIMENSION
  5
10F
330
1F
100
AcDbEntity
  8
치수문자_일반주서
100
AcDbDimension
  2
_D_3
 10
54.90029239544383
 20
6.350000000000076
 30
0.0
 11
54.90029239544378
 21
23.46096240994596
 31
0.0
 70
   160
  1
%%c<>
 71
     2
 42
12.7
 52
-270.0
  3
SLDDIMSTYLE1
100
AcDbAlignedDimension
 13
35.40000000000001
 23
-6.349999999999995
 33
0.0
 14
35.39999999999967
 24
6.350000000000003
 34
0.0
 50
90.0000000000002
100
AcDbRotatedDimension
1001
ACAD
1000
DSTYLE
1002
{
1070
   171
1070
     6
1070
   273
1070
     7
1002
}
  0
LINE
  5
123
330
1F
100
AcDbEntity
  8
참조1
100
AcDbLine
 10
77.82153940838579
 20
7.441074928723896
 30
0.0
 11
77.82153940838579
 21
-7.438925071276109
 31
0.0
  0
LINE
  5
124
330
1F
100
AcDbEntity
  8
참조1
100
AcDbLine
 10
90.52153940838579
 20
5.441074928723896
 30
0.0
 11
77.82153940838579
 21
5.441074928723896
 31
0.0
  0
SOLID
  5
125
330
1F
100
AcDbEntity
  8
참조1
100
AcDbTrace
 10
77.82153940838579
 20
5.441074928723896
 30
0.0
 11
84.17153940838578
 21
4.425074928723896
 31
0.0
 12
84.17153940838578
 22
6.457074928723896
 32
0.0
 13
84.17153940838578
 23
6.457074928723896
 33
0.0
  0
LINE
  5
126
330
1F
100
AcDbEntity
  8
참조1
100
AcDbLine
 10
90.52153940838579
 20
-5.438925071276109
 30
0.0
 11
77.82153940838579
 21
-5.438925071276109
 31
0.0
  0
SOLID
  5
127
330
1F
100
AcDbEntity
  8
참조1
100
AcDbTrace
 10
77.82153940838579
 20
-5.438925071276109
 30
0.0
 11
84.17153940838578
 21
-6.454925071276109
 31
0.0
 12
84.17153940838578
 22
-4.422925071276109
 32
0.0
 13
84.17153940838578
 23
-4.422925071276109
 33
0.0
  0
MTEXT
  5
128
330
1F
100
AcDbEntity
  8
참조1
100
AcDbMText
 10
87.20588954101179
 20
11.01136670591222
 30
0.0
 40
3.5
 41
0.0
 71
     1
 72
     1
  1
A
  7
SLDTEXTSTYLE0
 73
     1
 44
1.0
  0
MTEXT
  5
129
330
1F
100
AcDbEntity
  8
참조1
100
AcDbMText
 10
87.20588954101179
 20
0.1313667059122192
 30
0.0
 40
3.5
 41
0.0
 71
     1
 72
     1
  1
A
  7
SLDTEXTSTYLE0
 73
     1
 44
1.0
  0
INSERT
  5
130
330
1F
100
AcDbEntity
  8
해칭선
100
AcDbBlockReference
  2
SW_DOWELSYMBOL_0
 10
0.0
 20
0.0
 30
0.0
  0
LINE
  5
2E7
330
1F
100
AcDbEntity
  8
외형선
  6
Continuous
370
    15
100
AcDbLine
 10
-22.76612499999997
 20
4.825999999999993
 30
0.0
 11
-11.59012500000009
 21
4.825999999999993
 31
0.0
  0
LINE
  5
2E8
330
1F
100
AcDbEntity
  8
외형선
  6
Continuous
370
    15
100
AcDbLine
 10
-22.76612499999997
 20
4.825999999999993
 30
0.0
 11
-24.29012499999997
 21
6.349999999999994
 31
0.0
  0
LINE
  5
2E9
330
1F
100
AcDbEntity
  8
외형선
  6
Continuous
370
    15
100
AcDbLine
 10
-11.59012499999998
 20
4.825999999999993
 30
0.0
 11
-10.06612499999998
 21
6.349999999999994
 31
0.0
  0
LINE
  5
2EB
330
1F
100
AcDbEntity
  8
외형선
  6
Continuous
370
    15
100
AcDbLine
 10
-24.29012499999997
 20
6.349999999999997
 30
0.0
 11
-39.79999999999999
 21
6.349999999999996
 31
0.0
  0
ENDSEC
  0
SECTION
  2
OBJECTS
  0
DICTIONARY
  5
C
330
0
100
AcDbDictionary
281
     1
  3
ACAD_GROUP
350
D
  3
ACAD_IMAGE_VARS
350
154
  3
ACAD_LAYOUT
350
1A
  3
ACAD_MLINESTYLE
350
17
  3
ACAD_PLOTSETTINGS
350
19
  3
ACAD_PLOTSTYLENAME
350
E
  3
ACAD_SCALELIST
350
47
  3
APPDATA
350
152
  3
DWGPROPS
350
2F0
  0
DICTIONARY
  5
1F1
330
2
100
AcDbDictionary
280
     1
281
     1
  3
ACAD_LAYERSTATES
360
1F2
  0
DICTIONARY
  5
D
102
{ACAD_REACTORS
330
C
102
}
330
C
100
AcDbDictionary
281
     1
  0
RASTERVARIABLES
  5
154
102
{ACAD_REACTORS
330
C
102
}
330
C
100
AcDbRasterVariables
 90
        0
 70
     1
 71
     1
 72
     1
  0
DICTIONARY
  5
1A
102
{ACAD_REACTORS
330
C
102
}
330
C
100
AcDbDictionary
281
     1
  3
Layout1
350
1E
  3
Layout2
350
26
  3
Model
350
22
  0
DICTIONARY
  5
17
102
{ACAD_REACTORS
330
C
102
}
330
C
100
AcDbDictionary
281
     1
  3
Standard
350
18
  0
DICTIONARY
  5
19
102
{ACAD_REACTORS
330
C
102
}
330
C
100
AcDbDictionary
281
     1
  0
ACDBDICTIONARYWDFLT
  5
E
102
{ACAD_REACTORS
330
C
102
}
330
C
100
AcDbDictionary
281
     1
  3
Normal
350
F
100
AcDbDictionaryWithDefault
340
F
  0
DICTIONARY
  5
47
102
{ACAD_REACTORS
330
C
102
}
330
C
100
AcDbDictionary
281
     1
  3
A0
350
48
  3
A1
350
49
  3
A2
350
4A
  3
A3
350
4B
  3
A4
350
4C
  3
A5
350
4D
  3
A6
350
4E
  3
A7
350
4F
  3
A8
350
50
  3
A9
350
51
  3
B0
350
52
  3
B1
350
53
  3
B2
350
54
  3
B3
350
55
  3
B4
350
56
  3
B5
350
57
  3
B6
350
58
  3
B7
350
59
  3
B8
350
5A
  3
B9
350
5B
  3
C0
350
5C
  3
C1
350
5D
  3
C2
350
5E
  3
C3
350
5F
  3
C4
350
60
  3
C5
350
61
  3
C6
350
62
  3
C7
350
63
  3
C8
350
64
  3
C9
350
65
  3
D0
350
66
  3
D1
350
67
  3
D2
350
68
  0
DICTIONARY
  5
152
102
{ACAD_REACTORS
330
C
102
}
330
C
100
AcDbDictionary
281
     1
  0
XRECORD
  5
2F0
102
{ACAD_REACTORS
330
C
102
}
330
C
100
AcDbXrecord
280
     1
  1
DWGPROPS COOKIE
  2

  3

  4

  6

  7

  8
12017012
  9

300
=
301
=
302
=
303
=
304
=
305
=
306
=
307
=
308
=
309
=
 40
0.0
 41
2458311.09779206
 42
2458319.138826528
  1

 90
        0
  0
DICTIONARY
  5
1F2
102
{ACAD_REACTORS
330
1F1
102
}
330
1F1
100
AcDbDictionary
281
     1
  0
LAYOUT
  5
1E
102
{ACAD_REACTORS
330
1A
102
}
330
1A
100
AcDbPlotSettings
  1

  2
none_device
  4

  6

 40
0.0
 41
0.0
 42
0.0
 43
0.0
 44
0.0
 45
0.0
 46
0.0
 47
0.0
 48
0.0
 49
0.0
140
0.0
141
0.0
142
1.0
143
1.0
 70
   688
 72
     1
 73
     0
 74
     5
  7

 75
    16
147
1.0
148
0.0
149
0.0
100
AcDbLayout
  1
Layout1
 70
     1
 71
     1
 10
0.0
 20
0.0
 11
420.0
 21
297.0
 12
0.0
 22
0.0
 32
0.0
 14
1.000000000000000E+20
 24
1.000000000000000E+20
 34
1.000000000000000E+20
 15
-1.000000000000000E+20
 25
-1.000000000000000E+20
 35
-1.000000000000000E+20
146
0.0
 13
0.0
 23
0.0
 33
0.0
 16
1.0
 26
0.0
 36
0.0
 17
0.0
 27
1.0
 37
0.0
 76
     0
330
1B
  0
LAYOUT
  5
26
102
{ACAD_REACTORS
330
1A
102
}
330
1A
100
AcDbPlotSettings
  1

  2
none_device
  4

  6

 40
0.0
 41
0.0
 42
0.0
 43
0.0
 44
0.0
 45
0.0
 46
0.0
 47
0.0
 48
0.0
 49
0.0
140
0.0
141
0.0
142
1.0
143
1.0
 70
   688
 72
     1
 73
     0
 74
     5
  7

 75
    16
147
1.0
148
0.0
149
0.0
100
AcDbLayout
  1
Layout2
 70
     1
 71
     2
 10
0.0
 20
0.0
 11
0.0
 21
0.0
 12
0.0
 22
0.0
 32
0.0
 14
0.0
 24
0.0
 34
0.0
 15
0.0
 25
0.0
 35
0.0
146
0.0
 13
0.0
 23
0.0
 33
0.0
 16
1.0
 26
0.0
 36
0.0
 17
0.0
 27
1.0
 37
0.0
 76
     0
330
23
  0
LAYOUT
  5
22
102
{ACAD_REACTORS
330
1A
102
}
330
1A
100
AcDbPlotSettings
  1

  2
none_device
  4
ANSI_A_(11.00_x_8.50_Inches)
  6

 40
6.35
 41
19.05
 42
6.35000508
 43
19.05000254
 44
279.4
 45
215.9
 46
105.0757541933179
 47
73.71844477230658
 48
0.0
 49
0.0
140
0.0
141
0.0
142
0.0711785962167616
143
1.0
 70
  1696
 72
     0
 73
     0
 74
     0
  7

 75
     0
147
0.0235690232323232
148
0.0
149
0.0
100
AcDbLayout
  1
Model
 70
     1
 71
     0
 10
0.0
 20
0.0
 11
420.0
 21
297.0
 12
0.0
 22
0.0
 32
0.0
 14
1.000000000000000E+20
 24
1.000000000000000E+20
 34
1.000000000000000E+20
 15
-1.000000000000000E+20
 25
-1.000000000000000E+20
 35
-1.000000000000000E+20
146
0.0
 13
0.0
 23
0.0
 33
0.0
 16
1.0
 26
0.0
 36
0.0
 17
0.0
 27
1.0
 37
0.0
 76
     0
330
1F
331
29
  0
MLINESTYLE
  5
18
102
{ACAD_REACTORS
330
17
102
}
330
17
100
AcDbMlineStyle
  2
Standard
 70
     0
  3

 62
   256
 51
90.0
 52
90.0
 71
     2
 49
0.5
 62
   256
  6
BYLAYER
 49
-0.5
 62
   256
  6
BYLAYER
  0
ACDBPLACEHOLDER
  5
F
102
{ACAD_REACTORS
330
E
102
}
330
E
  0
SCALE
  5
48
102
{ACAD_REACTORS
330
47
102
}
330
47
100
AcDbScale
 70
     0
300
1:1
140
1.0
141
1.0
290
     1
  0
SCALE
  5
49
102
{ACAD_REACTORS
330
47
102
}
330
47
100
AcDbScale
 70
     0
300
1:2
140
1.0
141
2.0
290
     0
  0
SCALE
  5
4A
102
{ACAD_REACTORS
330
47
102
}
330
47
100
AcDbScale
 70
     0
300
1:4
140
1.0
141
4.0
290
     0
  0
SCALE
  5
4B
102
{ACAD_REACTORS
330
47
102
}
330
47
100
AcDbScale
 70
     0
300
1:5
140
1.0
141
5.0
290
     0
  0
SCALE
  5
4C
102
{ACAD_REACTORS
330
47
102
}
330
47
100
AcDbScale
 70
     0
300
1:8
140
1.0
141
8.0
290
     0
  0
SCALE
  5
4D
102
{ACAD_REACTORS
330
47
102
}
330
47
100
AcDbScale
 70
     0
300
1:10
140
1.0
141
10.0
290
     0
  0
SCALE
  5
4E
102
{ACAD_REACTORS
330
47
102
}
330
47
100
AcDbScale
 70
     0
300
1:16
140
1.0
141
16.0
290
     0
  0
SCALE
  5
4F
102
{ACAD_REACTORS
330
47
102
}
330
47
100
AcDbScale
 70
     0
300
1:20
140
1.0
141
20.0
290
     0
  0
SCALE
  5
50
102
{ACAD_REACTORS
330
47
102
}
330
47
100
AcDbScale
 70
     0
300
1:30
140
1.0
141
30.0
290
     0
  0
SCALE
  5
51
102
{ACAD_REACTORS
330
47
102
}
330
47
100
AcDbScale
 70
     0
300
1:40
140
1.0
141
40.0
290
     0
  0
SCALE
  5
52
102
{ACAD_REACTORS
330
47
102
}
330
47
100
AcDbScale
 70
     0
300
1:50
140
1.0
141
50.0
290
     0
  0
SCALE
  5
53
102
{ACAD_REACTORS
330
47
102
}
330
47
100
AcDbScale
 70
     0
300
1:100
140
1.0
141
100.0
290
     0
  0
SCALE
  5
54
102
{ACAD_REACTORS
330
47
102
}
330
47
100
AcDbScale
 70
     0
300
2:1
140
2.0
141
1.0
290
     0
  0
SCALE
  5
55
102
{ACAD_REACTORS
330
47
102
}
330
47
100
AcDbScale
 70
     0
300
4:1
140
4.0
141
1.0
290
     0
  0
SCALE
  5
56
102
{ACAD_REACTORS
330
47
102
}
330
47
100
AcDbScale
 70
     0
300
8:1
140
8.0
141
1.0
290
     0
  0
SCALE
  5
57
102
{ACAD_REACTORS
330
47
102
}
330
47
100
AcDbScale
 70
     0
300
10:1
140
10.0
141
1.0
290
     0
  0
SCALE
  5
58
102
{ACAD_REACTORS
330
47
102
}
330
47
100
AcDbScale
 70
     0
300
100:1
140
100.0
141
1.0
290
     0
  0
SCALE
  5
59
102
{ACAD_REACTORS
330
47
102
}
330
47
100
AcDbScale
 70
     0
300
1/128" = 1'-0"
140
0.0078125
141
12.0
290
     0
  0
SCALE
  5
5A
102
{ACAD_REACTORS
330
47
102
}
330
47
100
AcDbScale
 70
     0
300
1/64" = 1'-0"
140
0.015625
141
12.0
290
     0
  0
SCALE
  5
5B
102
{ACAD_REACTORS
330
47
102
}
330
47
100
AcDbScale
 70
     0
300
1/32" = 1'-0"
140
0.03125
141
12.0
290
     0
  0
SCALE
  5
5C
102
{ACAD_REACTORS
330
47
102
}
330
47
100
AcDbScale
 70
     0
300
1/16" = 1'-0"
140
0.0625
141
12.0
290
     0
  0
SCALE
  5
5D
102
{ACAD_REACTORS
330
47
102
}
330
47
100
AcDbScale
 70
     0
300
3/32" = 1'-0"
140
0.09375
141
12.0
290
     0
  0
SCALE
  5
5E
102
{ACAD_REACTORS
330
47
102
}
330
47
100
AcDbScale
 70
     0
300
1/8" = 1'-0"
140
0.125
141
12.0
290
     0
  0
SCALE
  5
5F
102
{ACAD_REACTORS
330
47
102
}
330
47
100
AcDbScale
 70
     0
300
3/16" = 1'-0"
140
0.1875
141
12.0
290
     0
  0
SCALE
  5
60
102
{ACAD_REACTORS
330
47
102
}
330
47
100
AcDbScale
 70
     0
300
1/4" = 1'-0"
140
0.25
141
12.0
290
     0
  0
SCALE
  5
61
102
{ACAD_REACTORS
330
47
102
}
330
47
100
AcDbScale
 70
     0
300
3/8" = 1'-0"
140
0.375
141
12.0
290
     0
  0
SCALE
  5
62
102
{ACAD_REACTORS
330
47
102
}
330
47
100
AcDbScale
 70
     0
300
1/2" = 1'-0"
140
0.5
141
12.0
290
     0
  0
SCALE
  5
63
102
{ACAD_REACTORS
330
47
102
}
330
47
100
AcDbScale
 70
     0
300
3/4" = 1'-0"
140
0.75
141
12.0
290
     0
  0
SCALE
  5
64
102
{ACAD_REACTORS
330
47
102
}
330
47
100
AcDbScale
 70
     0
300
1" = 1'-0"
140
1.0
141
12.0
290
     0
  0
SCALE
  5
65
102
{ACAD_REACTORS
330
47
102
}
330
47
100
AcDbScale
 70
     0
300
1-1/2" = 1'-0"
140
1.5
141
12.0
290
     0
  0
SCALE
  5
66
102
{ACAD_REACTORS
330
47
102
}
330
47
100
AcDbScale
 70
     0
300
3" = 1'-0"
140
3.0
141
12.0
290
     0
  0
SCALE
  5
67
102
{ACAD_REACTORS
330
47
102
}
330
47
100
AcDbScale
 70
     0
300
6" = 1'-0"
140
6.0
141
12.0
290
     0
  0
SCALE
  5
68
102
{ACAD_REACTORS
330
47
102
}
330
47
100
AcDbScale
 70
     0
300
1'-0" = 1'-0"
140
12.0
141
12.0
290
     0
  0
ENDSEC
  0
EOF
