  0
SECTION
  2
HEADER
  9
$ACADVER
  1
AC1015
  9
$ACADMAINTVER
 70
     6
  9
$DWGCODEPAGE
  3
ANSI_949
  9
$INSBASE
 10
0.0
 20
0.0
 30
0.0
  9
$EXTMIN
 10
1.000000000000000E+20
 20
1.000000000000000E+20
 30
1.000000000000000E+20
  9
$EXTMAX
 10
-1.000000000000000E+20
 20
-1.000000000000000E+20
 30
-1.000000000000000E+20
  9
$LIMMIN
 10
0.0
 20
0.0
  9
$LIMMAX
 10
420.0
 20
297.0
  9
$ORTHOMODE
 70
     1
  9
$REGENMODE
 70
     1
  9
$FILLMODE
 70
     1
  9
$QTEXTMODE
 70
     0
  9
$MIRRTEXT
 70
     1
  9
$LTSCALE
 40
1.0
  9
$ATTMODE
 70
     1
  9
$TEXTSIZE
 40
3.5
  9
$TRACEWID
 40
1.0
  9
$TEXTSTYLE
  7
Standard
  9
$CLAYER
  8
0
  9
$CELTYPE
  6
ByLayer
  9
$CECOLOR
 62
   256
  9
$CELTSCALE
 40
1.0
  9
$DISPSILH
 70
     0
  9
$DIMSCALE
 40
1.0
  9
$DIMASZ
 40
3.302
  9
$DIMEXO
 40
1.0
  9
$DIMDLI
 40
3.75
  9
$DIMRND
 40
0.0
  9
$DIMDLE
 40
0.0
  9
$DIMEXE
 40
1.0
  9
$DIMTP
 40
0.0
  9
$DIMTM
 40
0.0
  9
$DIMTXT
 40
3.5
  9
$DIMCEN
 40
2.5
  9
$DIMTSZ
 40
0.0
  9
$DIMTOL
 70
     0
  9
$DIMLIM
 70
     0
  9
$DIMTIH
 70
     1
  9
$DIMTOH
 70
     1
  9
$DIMSE1
 70
     0
  9
$DIMSE2
 70
     0
  9
$DIMTAD
 70
     1
  9
$DIMZIN
 70
     0
  9
$DIMBLK
  1

  9
$DIMASO
 70
     1
  9
$DIMSHO
 70
     1
  9
$DIMPOST
  1

  9
$DIMAPOST
  1

  9
$DIMALT
 70
     0
  9
$DIMALTD
 70
     3
  9
$DIMALTF
 40
0.0393700787401575
  9
$DIMLFAC
 40
1.0
  9
$DIMTOFL
 70
     1
  9
$DIMTVP
 40
0.0
  9
$DIMTIX
 70
     0
  9
$DIMSOXD
 70
     0
  9
$DIMSAH
 70
     0
  9
$DIMBLK1
  1

  9
$DIMBLK2
  1

  9
$DIMSTYLE
  2
ISO-25
  9
$DIMCLRD
 70
     0
  9
$DIMCLRE
 70
     0
  9
$DIMCLRT
 70
     0
  9
$DIMTFAC
 40
1.0
  9
$DIMGAP
 40
1.524
  9
$DIMJUST
 70
     0
  9
$DIMSD1
 70
     0
  9
$DIMSD2
 70
     0
  9
$DIMTOLJ
 70
     0
  9
$DIMTZIN
 70
     0
  9
$DIMALTZ
 70
     0
  9
$DIMALTTZ
 70
     0
  9
$DIMUPT
 70
     0
  9
$DIMDEC
 70
     2
  9
$DIMTDEC
 70
     2
  9
$DIMALTU
 70
     2
  9
$DIMALTTD
 70
     3
  9
$DIMTXSTY
  7
Standard
  9
$DIMAUNIT
 70
     0
  9
$DIMADEC
 70
     2
  9
$DIMALTRND
 40
0.0
  9
$DIMAZIN
 70
     0
  9
$DIMDSEP
 70
    44
  9
$DIMATFIT
 70
     3
  9
$DIMFRAC
 70
     0
  9
$DIMLDRBLK
  1

  9
$DIMLUNIT
 70
     2
  9
$DIMLWD
 70
    -2
  9
$DIMLWE
 70
    -2
  9
$DIMTMOVE
 70
     0
  9
$LUNITS
 70
     2
  9
$LUPREC
 70
     2
  9
$SKETCHINC
 40
1.0
  9
$FILLETRAD
 40
10.0
  9
$AUNITS
 70
     0
  9
$AUPREC
 70
     2
  9
$MENU
  1
.
  9
$ELEVATION
 40
0.0
  9
$PELEVATION
 40
0.0
  9
$THICKNESS
 40
0.0
  9
$LIMCHECK
 70
     0
  9
$CHAMFERA
 40
0.0
  9
$CHAMFERB
 40
0.0
  9
$CHAMFERC
 40
0.0
  9
$CHAMFERD
 40
0.0
  9
$SKPOLY
 70
     0
  9
$TDCREATE
 40
2458311.473004213
  9
$TDUCREATE
 40
2458311.098004213
  9
$TDUPDATE
 40
2458319.563850637
  9
$TDUUPDATE
 40
2458319.188850637
  9
$TDINDWG
 40
0.0195399306
  9
$TDUSRTIMER
 40
2458319.166817072
  9
$USRTIMER
 70
     1
  9
$ANGBASE
 50
0.0
  9
$ANGDIR
 70
     0
  9
$PDMODE
 70
     0
  9
$PDSIZE
 40
-1.0
  9
$PLINEWID
 40
0.0
  9
$SPLFRAME
 70
     0
  9
$SPLINETYPE
 70
     6
  9
$SPLINESEGS
 70
     8
  9
$HANDSEED
  5
1E6
  9
$SURFTAB1
 70
     6
  9
$SURFTAB2
 70
     6
  9
$SURFTYPE
 70
     6
  9
$SURFU
 70
     6
  9
$SURFV
 70
     6
  9
$UCSBASE
  2

  9
$UCSNAME
  2

  9
$UCSORG
 10
0.0
 20
0.0
 30
0.0
  9
$UCSXDIR
 10
1.0
 20
0.0
 30
0.0
  9
$UCSYDIR
 10
0.0
 20
1.0
 30
0.0
  9
$UCSORTHOREF
  2

  9
$UCSORTHOVIEW
 70
     0
  9
$UCSORGTOP
 10
0.0
 20
0.0
 30
0.0
  9
$UCSORGBOTTOM
 10
0.0
 20
0.0
 30
0.0
  9
$UCSORGLEFT
 10
0.0
 20
0.0
 30
0.0
  9
$UCSORGRIGHT
 10
0.0
 20
0.0
 30
0.0
  9
$UCSORGFRONT
 10
0.0
 20
0.0
 30
0.0
  9
$UCSORGBACK
 10
0.0
 20
0.0
 30
0.0
  9
$PUCSBASE
  2

  9
$PUCSNAME
  2

  9
$PUCSORG
 10
0.0
 20
0.0
 30
0.0
  9
$PUCSXDIR
 10
1.0
 20
0.0
 30
0.0
  9
$PUCSYDIR
 10
0.0
 20
1.0
 30
0.0
  9
$PUCSORTHOREF
  2

  9
$PUCSORTHOVIEW
 70
     0
  9
$PUCSORGTOP
 10
0.0
 20
0.0
 30
0.0
  9
$PUCSORGBOTTOM
 10
0.0
 20
0.0
 30
0.0
  9
$PUCSORGLEFT
 10
0.0
 20
0.0
 30
0.0
  9
$PUCSORGRIGHT
 10
0.0
 20
0.0
 30
0.0
  9
$PUCSORGFRONT
 10
0.0
 20
0.0
 30
0.0
  9
$PUCSORGBACK
 10
0.0
 20
0.0
 30
0.0
  9
$USERI1
 70
     0
  9
$USERI2
 70
     0
  9
$USERI3
 70
     0
  9
$USERI4
 70
     0
  9
$USERI5
 70
     0
  9
$USERR1
 40
0.0
  9
$USERR2
 40
0.0
  9
$USERR3
 40
0.0
  9
$USERR4
 40
0.0
  9
$USERR5
 40
0.0
  9
$WORLDVIEW
 70
     1
  9
$SHADEDGE
 70
     3
  9
$SHADEDIF
 70
    70
  9
$TILEMODE
 70
     1
  9
$MAXACTVP
 70
    64
  9
$PINSBASE
 10
0.0
 20
0.0
 30
0.0
  9
$PLIMCHECK
 70
     0
  9
$PEXTMIN
 10
1.000000000000000E+20
 20
1.000000000000000E+20
 30
1.000000000000000E+20
  9
$PEXTMAX
 10
-1.000000000000000E+20
 20
-1.000000000000000E+20
 30
-1.000000000000000E+20
  9
$PLIMMIN
 10
0.0
 20
0.0
  9
$PLIMMAX
 10
0.0
 20
0.0
  9
$UNITMODE
 70
     0
  9
$VISRETAIN
 70
     1
  9
$PLINEGEN
 70
     0
  9
$PSLTSCALE
 70
     1
  9
$TREEDEPTH
 70
  3020
  9
$CMLSTYLE
  2
Standard
  9
$CMLJUST
 70
     0
  9
$CMLSCALE
 40
20.0
  9
$PROXYGRAPHICS
 70
     1
  9
$MEASUREMENT
 70
     1
  9
$CELWEIGHT
370
    -1
  9
$ENDCAPS
280
     0
  9
$JOINSTYLE
280
     0
  9
$LWDISPLAY
290
     1
  9
$INSUNITS
 70
     4
  9
$HYPERLINKBASE
  1

  9
$STYLESHEET
  1

  9
$XEDIT
290
     1
  9
$CEPSNTYPE
380
     0
  9
$PSTYLEMODE
290
     1
  9
$FINGERPRINTGUID
  2
{A7F1AE7A-7E50-4DCD-92B7-0794556CA82A}
  9
$VERSIONGUID
  2
{FAEB1C32-E019-11D5-929B-00C0DF256EC4}
  9
$EXTNAMES
290
     1
  9
$PSVPSCALE
 40
0.0
  9
$OLESTARTUP
290
     0
  0
ENDSEC
  0
SECTION
  2
CLASSES
  0
CLASS
  1
ACDBDICTIONARYWDFLT
  2
AcDbDictionaryWithDefault
  3
ObjectDBX Classes
 90
        0
280
     0
281
     0
  0
CLASS
  1
VISUALSTYLE
  2
AcDbVisualStyle
  3
ObjectDBX Classes
 90
     4095
280
     0
281
     0
  0
CLASS
  1
MATERIAL
  2
AcDbMaterial
  3
ObjectDBX Classes
 90
     1153
280
     0
281
     0
  0
CLASS
  1
SCALE
  2
AcDbScale
  3
ObjectDBX Classes
 90
     1153
280
     0
281
     0
  0
CLASS
  1
SUN
  2
AcDbSun
  3
SCENEOE
 90
     1153
280
     0
281
     0
  0
CLASS
  1
ACDBPLACEHOLDER
  2
AcDbPlaceHolder
  3
ObjectDBX Classes
 90
        0
280
     0
281
     0
  0
CLASS
  1
LAYOUT
  2
AcDbLayout
  3
ObjectDBX Classes
 90
        0
280
     0
281
     0
  0
CLASS
  1
TABLESTYLE
  2
AcDbTableStyle
  3
ObjectDBX Classes
 90
     4095
280
     0
281
     0
  0
CLASS
  1
MLEADERSTYLE
  2
AcDbMLeaderStyle
  3
ACDB_MLEADERSTYLE_CLASS
 90
     4095
280
     0
281
     0
  0
CLASS
  1
RASTERVARIABLES
  2
AcDbRasterVariables
  3
ISM
 90
        0
280
     0
281
     0
  0
ENDSEC
  0
SECTION
  2
TABLES
  0
TABLE
  2
VPORT
  5
8
330
0
100
AcDbSymbolTable
 70
     1
  0
VPORT
  5
29
330
8
100
AcDbSymbolTableRecord
100
AcDbViewportTableRecord
  2
*Active
 70
     0
 10
0.0
 20
0.0
 11
1.0
 21
1.0
 12
27.4862635960112
 22
-6.90957788989933
 13
0.0
 23
0.0
 14
10.0
 24
10.0
 15
10.0
 25
10.0
 16
0.0
 26
0.0
 36
1.0
 17
0.0
 27
0.0
 37
0.0
 40
109.6368974866123
 41
1.632093933463796
 42
50.0
 43
0.0
 44
0.0
 50
0.0
 51
0.0
 71
    16
 72
  2000
 73
     1
 74
     3
 75
     0
 76
     0
 77
     0
 78
     0
281
     0
 65
     1
110
0.0
120
0.0
130
0.0
111
1.0
121
0.0
131
0.0
112
0.0
122
1.0
132
0.0
 79
     0
146
0.0
  0
ENDTAB
  0
TABLE
  2
LTYPE
  5
5
330
0
100
AcDbSymbolTable
 70
     6
  0
LTYPE
  5
14
330
5
100
AcDbSymbolTableRecord
100
AcDbLinetypeTableRecord
  2
ByBlock
 70
     0
  3

 72
    65
 73
     0
 40
0.0
  0
LTYPE
  5
15
330
5
100
AcDbSymbolTableRecord
100
AcDbLinetypeTableRecord
  2
ByLayer
 70
     0
  3

 72
    65
 73
     0
 40
0.0
  0
LTYPE
  5
16
330
5
100
AcDbSymbolTableRecord
100
AcDbLinetypeTableRecord
  2
Continuous
 70
     0
  3
Solid line
 72
    65
 73
     0
 40
0.0
  0
LTYPE
  5
6A
330
5
100
AcDbSymbolTableRecord
100
AcDbLinetypeTableRecord
  2
HIDDEN
 70
     0
  3
Hidden __ __ __ __ __ __ __ __ __ __ __ __ __ __
 72
    65
 73
     2
 40
1.905
 49
1.27
 74
     0
 49
-0.635
 74
     0
  0
LTYPE
  5
6B
330
5
100
AcDbSymbolTableRecord
100
AcDbLinetypeTableRecord
  2
PHANTOM
 70
     0
  3
Phantom ______  __  __  ______  __  __  ______
 72
    65
 73
     6
 40
12.7
 49
6.35
 74
     0
 49
-1.27
 74
     0
 49
1.27
 74
     0
 49
-1.27
 74
     0
 49
1.27
 74
     0
 49
-1.27
 74
     0
  0
LTYPE
  5
6C
330
5
100
AcDbSymbolTableRecord
100
AcDbLinetypeTableRecord
  2
CENTER
 70
     0
  3
Center ____ _ ____ _ ____ _ ____ _ ____ _ ____
 72
    65
 73
     4
 40
10.16
 49
6.35
 74
     0
 49
-1.27
 74
     0
 49
1.27
 74
     0
 49
-1.27
 74
     0
  0
LTYPE
  5
6D
330
5
100
AcDbSymbolTableRecord
100
AcDbLinetypeTableRecord
  2
CENTERX2
 70
     0
  3
Center (2x) ________  __  ________  __  _____
 72
    65
 73
     4
 40
20.32
 49
12.7
 74
     0
 49
-2.54
 74
     0
 49
2.54
 74
     0
 49
-2.54
 74
     0
  0
LTYPE
  5
6E
330
5
100
AcDbSymbolTableRecord
100
AcDbLinetypeTableRecord
  2
DOT2
 70
     0
  3
Dot (.5x) ........................................
 72
    65
 73
     2
 40
0.635
 49
0.0
 74
     0
 49
-0.635
 74
     0
  0
ENDTAB
  0
TABLE
  2
LAYER
  5
2
102
{ACAD_XDICTIONARY
360
17C
102
}
330
0
100
AcDbSymbolTable
 70
    18
  0
LAYER
  5
10
330
2
100
AcDbSymbolTableRecord
100
AcDbLayerTableRecord
  2
0
 70
     0
 62
     7
  6
Continuous
370
    -3
390
F
  0
LAYER
  5
6F
330
2
100
AcDbSymbolTableRecord
100
AcDbLayerTableRecord
  2
FORMAT
 70
     0
 62
     2
  6
Continuous
370
    -3
390
F
  0
LAYER
  5
70
330
2
100
AcDbSymbolTableRecord
100
AcDbLayerTableRecord
  2
외형선
 70
     0
 62
     4
  6
Continuous
370
    30
390
F
  0
LAYER
  5
71
330
2
100
AcDbSymbolTableRecord
100
AcDbLayerTableRecord
  2
숨은선
 70
     0
 62
     2
  6
HIDDEN
370
    15
390
F
  0
LAYER
  5
72
330
2
100
AcDbSymbolTableRecord
100
AcDbLayerTableRecord
  2
중심선
 70
     0
 62
     1
  6
CENTERX2
370
    -3
390
F
  0
LAYER
  5
73
330
2
100
AcDbSymbolTableRecord
100
AcDbLayerTableRecord
  2
파단선
 70
     0
 62
     4
  6
Continuous
370
    -3
390
F
  0
LAYER
  5
74
330
2
100
AcDbSymbolTableRecord
100
AcDbLayerTableRecord
  2
해칭선
 70
     0
 62
   100
  6
Continuous
370
    -3
390
F
  0
LAYER
  5
75
330
2
100
AcDbSymbolTableRecord
100
AcDbLayerTableRecord
  2
가는실선
 70
     0
 62
     4
  6
Continuous
370
    -3
390
F
  0
LAYER
  5
76
330
2
100
AcDbSymbolTableRecord
100
AcDbLayerTableRecord
  2
치수_보조선
 70
     0
 62
     4
  6
Continuous
370
    -3
390
F
  0
LAYER
  5
77
330
2
100
AcDbSymbolTableRecord
100
AcDbLayerTableRecord
  2
치수문자_일반주서
 70
     0
 62
     7
  6
Continuous
370
    15
390
F
  0
LAYER
  5
78
330
2
100
AcDbSymbolTableRecord
100
AcDbLayerTableRecord
  2
개별주서
 70
     0
 62
   100
  6
Continuous
370
    30
390
F
  0
LAYER
  5
79
330
2
100
AcDbSymbolTableRecord
100
AcDbLayerTableRecord
  2
중간선
 70
     0
 62
     2
  6
Continuous
370
    15
390
F
  0
LAYER
  5
7A
330
2
100
AcDbSymbolTableRecord
100
AcDbLayerTableRecord
  2
윤곽선
 70
     0
 62
     3
  6
Continuous
370
    40
390
F
  0
LAYER
  5
7B
330
2
100
AcDbSymbolTableRecord
100
AcDbLayerTableRecord
  2
중심마크
 70
     0
 62
   100
  6
Continuous
370
    30
390
F
  0
LAYER
  5
7C
330
2
100
AcDbSymbolTableRecord
100
AcDbLayerTableRecord
  2
가상선
 70
     0
 62
     4
  6
PHANTOM
370
    -3
390
F
  0
LAYER
  5
7D
330
2
100
AcDbSymbolTableRecord
100
AcDbLayerTableRecord
  2
특수지정선
 70
     0
 62
     5
  6
CENTERX2
370
    60
390
F
  0
LAYER
  5
7E
330
2
100
AcDbSymbolTableRecord
100
AcDbLayerTableRecord
  2
참조1
 70
     0
 62
    -4
  6
Continuous
370
    -3
390
F
  0
LAYER
  5
1DC
330
2
100
AcDbSymbolTableRecord
100
AcDbLayerTableRecord
  2
Defpoints
 70
     0
 62
     7
  6
Continuous
290
     0
370
    -3
390
F
  0
ENDTAB
  0
TABLE
  2
STYLE
  5
3
330
0
100
AcDbSymbolTable
 70
     2
  0
STYLE
  5
11
330
3
100
AcDbSymbolTableRecord
100
AcDbTextStyleTableRecord
  2
Standard
 70
     0
 40
0.0
 41
1.0
 50
0.0
 71
     0
 42
3.5
  3
txt
  4

  0
STYLE
  5
94
330
3
100
AcDbSymbolTableRecord
100
AcDbTextStyleTableRecord
  2
SLDTEXTSTYLE0
 70
     0
 40
0.0
 41
0.75
 50
0.0
 71
     0
 42
3.5
  3
TXT
  4

  0
ENDTAB
  0
TABLE
  2
VIEW
  5
6
330
0
100
AcDbSymbolTable
 70
     0
  0
ENDTAB
  0
TABLE
  2
UCS
  5
7
330
0
100
AcDbSymbolTable
 70
     0
  0
ENDTAB
  0
TABLE
  2
APPID
  5
9
330
0
100
AcDbSymbolTable
 70
     1
  0
APPID
  5
12
330
9
100
AcDbSymbolTableRecord
100
AcDbRegAppTableRecord
  2
ACAD
 70
     0
  0
ENDTAB
  0
TABLE
  2
DIMSTYLE
  5
A
330
0
100
AcDbSymbolTable
 70
     3
100
AcDbDimStyleTable
  0
DIMSTYLE
105
27
330
A
100
AcDbSymbolTableRecord
100
AcDbDimStyleTableRecord
  2
ISO-25
 70
     0
 41
2.5
 42
0.625
 43
3.75
 44
1.25
 73
     0
 74
     0
 77
     1
 78
     8
140
2.5
141
2.5
143
0.03937007874016
147
0.625
171
     3
172
     1
178
     0
271
     2
272
     2
274
     3
278
    44
283
     0
284
     8
340
11
  0
DIMSTYLE
105
D4
102
{ACAD_REACTORS
330
D3
330
E8
330
FD
330
110
102
}
330
A
100
AcDbSymbolTableRecord
100
AcDbDimStyleTableRecord
  2
SLDDIMSTYLE0
 70
     0
 41
3.302
 44
0.0
 45
0.000000001
 73
     0
 74
     0
 77
     1
 78
    12
 79
     3
140
3.5
143
0.0393700787401575
147
0.875
148
0.000000001
170
     1
172
     1
173
     1
178
     0
271
     2
272
     2
276
     2
284
    12
289
     0
340
94
  0
DIMSTYLE
105
E9
330
A
100
AcDbSymbolTableRecord
100
AcDbDimStyleTableRecord
  2
SLDDIMSTYLE1
 70
     0
 41
3.302
 44
0.0
 45
0.000000001
 73
     0
 74
     0
 77
     1
 78
    12
 79
     3
140
3.5
143
0.0393700787401575
147
0.875
148
0.000000001
170
     1
173
     1
178
     0
271
     2
272
     2
276
     2
284
    12
340
94
  0
ENDTAB
  0
TABLE
  2
BLOCK_RECORD
  5
1
330
0
100
AcDbSymbolTable
 70
    10
  0
BLOCK_RECORD
  5
1F
330
1
100
AcDbSymbolTableRecord
100
AcDbBlockTableRecord
  2
*Model_Space
340
22
  0
BLOCK_RECORD
  5
1B
330
1
100
AcDbSymbolTableRecord
100
AcDbBlockTableRecord
  2
*Paper_Space
340
1E
  0
BLOCK_RECORD
  5
23
330
1
100
AcDbSymbolTableRecord
100
AcDbBlockTableRecord
  2
*Paper_Space0
340
26
  0
BLOCK_RECORD
  5
7F
330
1
100
AcDbSymbolTableRecord
100
AcDbBlockTableRecord
  2
블럭10
340
0
102
{BLKREFS
331
CC
102
}
  0
BLOCK_RECORD
  5
D5
330
1
100
AcDbSymbolTableRecord
100
AcDbBlockTableRecord
  2
_D
340
0
  0
BLOCK_RECORD
  5
EA
330
1
100
AcDbSymbolTableRecord
100
AcDbBlockTableRecord
  2
_D_1
340
0
  0
BLOCK_RECORD
  5
FE
330
1
100
AcDbSymbolTableRecord
100
AcDbBlockTableRecord
  2
_D_2
340
0
  0
BLOCK_RECORD
  5
111
330
1
100
AcDbSymbolTableRecord
100
AcDbBlockTableRecord
  2
_D_3
340
0
  0
BLOCK_RECORD
  5
12A
330
1
100
AcDbSymbolTableRecord
100
AcDbBlockTableRecord
  2
SW_DOWELSYMBOL_0
340
0
102
{BLKREFS
331
130
102
}
  0
ENDTAB
  0
ENDSEC
  0
SECTION
  2
BLOCKS
  0
BLOCK
  5
20
330
1F
100
AcDbEntity
  8
0
100
AcDbBlockBegin
  2
*Model_Space
 70
     0
 10
0.0
 20
0.0
 30
0.0
  3
*Model_Space
  1
*Model_Space
  0
ENDBLK
  5
21
330
1F
100
AcDbEntity
  8
0
100
AcDbBlockEnd
  0
BLOCK
  5
1C
330
1B
100
AcDbEntity
 67
     1
  8
0
100
AcDbBlockBegin
  2
*Paper_Space
 70
     0
 10
0.0
 20
0.0
 30
0.0
  3
*Paper_Space
  1
*Paper_Space
  0
ENDBLK
  5
1D
330
1B
100
AcDbEntity
 67
     1
  8
0
100
AcDbBlockEnd
  0
BLOCK
  5
24
330
23
100
AcDbEntity
  8
0
100
AcDbBlockBegin
  2
*Paper_Space0
 70
     0
 10
0.0
 20
0.0
 30
0.0
  3
*Paper_Space0
  1
*Paper_Space0
  0
ENDBLK
  5
25
330
23
100
AcDbEntity
  8
0
100
AcDbBlockEnd
  0
BLOCK
  5
80
330
7F
100
AcDbEntity
  8
0
100
AcDbBlockBegin
  2
블럭10
 70
     2
 10
0.0
 20
0.0
 30
0.0
  3
블럭10
  1
블럭10
  0
ELLIPSE
  5
82
330
7F
100
AcDbEntity
  8
중심선
100
AcDbEllipse
 10
20.54032771741204
 20
12.0471743016438
 30
0.0
 11
6.600054785286829
 21
-1.261213355974178E-13
 31
0.0
210
0.0
220
0.0
230
1.0
 40
0.636358354079598
 41
0.9219305317359503
 42
6.513795318482858
  0
ELLIPSE
  5
83
330
7F
100
AcDbEntity
  8
중심선
100
AcDbEllipse
 10
20.54032771746488
 20
12.04717430159265
 30
0.0
 11
3.960054785062283
 21
1.540847449632565E-10
 31
0.0
210
0.0
220
0.0
230
1.0
 40
0.3939339440162632
 41
1.131841032648279
 42
5.62031148352944
  0
LINE
  5
84
330
7F
100
AcDbEntity
  8
중심선
100
AcDbLine
 10
2.268634060543552
 20
16.24717430164393
 30
0.0
 11
5.714909304380834
 21
16.24717430164393
 31
0.0
  0
LINE
  5
85
330
7F
100
AcDbEntity
  8
중심선
100
AcDbLine
 10
5.245725140726316
 20
7.84717430164391
 30
0.0
 11
8.692000384563599
 21
7.84717430164391
 31
0.0
  0
LINE
  5
86
330
7F
100
AcDbEntity
  8
중심선
100
AcDbLine
 10
15.74043728645272
 20
16.24717430164393
 30
0.0
 11
8.692000384563599
 21
7.84717430164391
 31
0.0
  0
LINE
  5
87
330
7F
100
AcDbEntity
  8
중심선
100
AcDbLine
 10
0.1404042013395286
 20
13.71084872107135
 30
0.0
 11
3.58671253028996
 21
13.71088815037384
 31
0.0
  0
LINE
  5
88
330
7F
100
AcDbEntity
  8
중심선
100
AcDbLine
 10
2.750260043222114
 20
10.84717430164391
 30
0.0
 11
6.196535287059397
 21
10.84717430164391
 31
0.0
  0
LINE
  5
89
330
7F
100
AcDbEntity
  8
중심선
100
AcDbLine
 10
12.29416204261559
 20
16.24717430164393
 30
0.0
 11
5.245725140726316
 21
7.84717430164391
 31
0.0
  0
LINE
  5
8A
330
7F
100
AcDbEntity
  8
중심선
100
AcDbLine
 10
10.72767329541681
 20
16.24717430164393
 30
0.0
 11
6.196535287059397
 21
10.84717430164391
 31
0.0
  0
LINE
  5
8B
330
7F
100
AcDbEntity
  8
중심선
100
AcDbLine
 10
7.28139805157953
 20
16.24717430164393
 30
0.0
 11
2.750260043222114
 21
10.84717430164391
 31
0.0
  0
LINE
  5
8C
330
7F
100
AcDbEntity
  8
중심선
100
AcDbLine
 10
5.714909304380834
 20
16.24717430164393
 30
0.0
 11
3.58671253028996
 21
13.71088815037384
 31
0.0
  0
LINE
  5
8D
330
7F
100
AcDbEntity
  8
중심선
100
AcDbLine
 10
2.268634060543552
 20
16.24717430164393
 30
0.0
 11
0.1404042013395286
 21
13.71084872107135
 31
0.0
  0
LINE
  5
8E
330
7F
100
AcDbEntity
  8
중심선
100
AcDbLine
 10
7.28139805157953
 20
16.24717430164393
 30
0.0
 11
10.72767329541681
 21
16.24717430164393
 31
0.0
  0
LINE
  5
8F
330
7F
100
AcDbEntity
  8
중심선
100
AcDbLine
 10
12.29416204261559
 20
16.24717430164393
 30
0.0
 11
15.74043728645272
 21
16.24717430164393
 31
0.0
  0
LINE
  5
90
330
7F
100
AcDbEntity
  8
중심선
100
AcDbLine
 10
19.22036997980202
 20
11.08717430171403
 30
0.0
 11
23.66174974927406
 21
11.08717430171406
 31
0.0
  0
LINE
  5
91
330
7F
100
AcDbEntity
  8
중심선
100
AcDbLine
 10
19.22039502424796
 20
13.00717430171391
 30
0.0
 11
19.22036997980202
 21
11.08717430171403
 31
0.0
  0
LINE
  5
92
330
7F
100
AcDbEntity
  8
중심선
100
AcDbLine
 10
19.22039502424796
 20
13.00717430171391
 30
0.0
 11
26.96566020931264
 21
13.00717430171391
 31
0.0
  0
LINE
  5
93
330
7F
100
AcDbEntity
  8
중심선
100
AcDbLine
 10
22.22332737316547
 20
13.45928029700563
 30
0.0
 11
24.52862924686651
 21
15.39360700705356
 31
0.0
  0
ATTDEF
  5
95
330
7F
100
AcDbEntity
  8
FORMAT
 62
     2
100
AcDbText
 10
4.408487351596664
 20
2.075366912832191
 30
0.0
 40
4.233333333333333
  1
E1163040
 41
0.75
  7
SLDTEXTSTYLE0
 11
4.408487351596664
 21
-0.0412997538344756
 31
0.0
100
AcDbAttributeDefinition
  3

  2
AUTOATTR0
 70
     0
 74
     1
  0
ENDBLK
  5
81
330
7F
100
AcDbEntity
  8
0
100
AcDbBlockEnd
  0
BLOCK
  5
D6
330
D5
100
AcDbEntity
  8
0
100
AcDbBlockBegin
  2
_D
 70
     0
 10
0.0
 20
0.0
 30
0.0
  3
_D
  1
_D
  0
LINE
  5
D8
330
D5
100
AcDbEntity
  8
치수문자_일반주서
 62
     0
370
    -2
100
AcDbLine
 10
-41.03749999999999
 20
7.938574928723879
 30
0.0
 11
-54.47500000000004
 21
7.938574928723829
 31
0.0
  0
LINE
  5
D9
330
D5
100
AcDbEntity
  8
치수문자_일반주서
 62
     0
370
    -2
100
AcDbLine
 10
-41.03749999999999
 20
-7.936425071276121
 30
0.0
 11
-54.47499999999998
 21
-7.936425071276171
 31
0.0
  0
LINE
  5
DA
330
D5
100
AcDbEntity
  8
치수문자_일반주서
 62
     0
370
    -2
100
AcDbLine
 10
-54.47500000000002
 20
4.636574928723829
 30
0.0
 11
-54.47499999999999
 21
-4.634425071276172
 31
0.0
  0
SOLID
  5
DB
330
D5
100
AcDbEntity
  8
치수문자_일반주서
 62
     0
100
AcDbTrace
 10
-53.92466666666669
 20
4.636574928723831
 30
0.0
 11
-55.02533333333336
 21
4.636574928723827
 31
0.0
 12
-54.47500000000004
 22
7.938574928723829
 32
0.0
 13
-54.47500000000004
 23
7.938574928723829
 33
0.0
  0
SOLID
  5
DC
330
D5
100
AcDbEntity
  8
치수문자_일반주서
 62
     0
100
AcDbTrace
 10
-55.02533333333333
 20
-4.634425071276174
 30
0.0
 11
-53.92466666666666
 21
-4.63442507127617
 31
0.0
 12
-54.47499999999998
 22
-7.936425071276171
 32
0.0
 13
-54.47499999999998
 23
-7.936425071276171
 33
0.0
  0
MTEXT
  5
DD
330
D5
100
AcDbEntity
  8
치수문자_일반주서
 62
     0
100
AcDbMText
 10
-58.85000000000001
 20
0.0010749287238707
 30
0.0
 40
3.5
 41
0.0
 71
     2
 72
     1
  1
\A1;%%c15.88 [5/8]
  7
SLDTEXTSTYLE0
 11
-3.580687802255623E-15
 21
1.0
 31
0.0
 73
     1
 44
1.0
  0
POINT
  5
DE
330
D5
100
AcDbEntity
  8
Defpoints
 62
     0
100
AcDbPoint
 10
-40.97499999999999
 20
7.938574928723879
 30
0.0
  0
POINT
  5
DF
330
D5
100
AcDbEntity
  8
Defpoints
 62
     0
100
AcDbPoint
 10
-40.97499999999999
 20
-7.936425071276121
 30
0.0
  0
POINT
  5
E0
330
D5
100
AcDbEntity
  8
Defpoints
 62
     0
100
AcDbPoint
 10
-54.47499999999998
 20
-7.936425071276171
 30
0.0
  0
ENDBLK
  5
D7
330
D5
100
AcDbEntity
  8
0
100
AcDbBlockEnd
  0
BLOCK
  5
EB
330
EA
100
AcDbEntity
  8
0
100
AcDbBlockBegin
  2
_D_1
 70
     0
 10
0.0
 20
0.0
 30
0.0
  3
_D_1
  1
_D_1
  0
LINE
  5
ED
330
EA
100
AcDbEntity
  8
치수문자_일반주서
 62
     0
370
    -2
100
AcDbLine
 10
45.33750000000001
 20
8.001074928723899
 30
0.0
 11
45.33750000000001
 21
22.87269102606321
 31
0.0
  0
LINE
  5
EE
330
EA
100
AcDbEntity
  8
치수문자_일반주서
 62
     0
370
    -2
100
AcDbLine
 10
12.0
 20
7.387587560166374
 30
0.0
 11
12.0
 21
22.87269102606321
 31
0.0
  0
LINE
  5
EF
330
EA
100
AcDbEntity
  8
치수문자_일반주서
 62
     0
370
    -2
100
AcDbLine
 10
12.0
 20
22.87269102606321
 30
0.0
 11
-26.979
 21
22.87269102606321
 31
0.0
  0
LINE
  5
F0
330
EA
100
AcDbEntity
  8
치수문자_일반주서
 62
     0
370
    -2
100
AcDbLine
 10
45.33750000000001
 20
22.87269102606321
 30
0.0
 11
12.0
 21
22.87269102606321
 31
0.0
  0
LINE
  5
F1
330
EA
100
AcDbEntity
  8
치수문자_일반주서
 62
     0
370
    -2
100
AcDbLine
 10
48.63950000000001
 20
22.87269102606321
 30
0.0
 11
51.9415
 21
22.87269102606321
 31
0.0
  0
LINE
  5
F2
330
EA
100
AcDbEntity
  8
치수문자_일반주서
 62
     0
370
    -2
100
AcDbLine
 10
8.697999999999997
 20
22.87269102606321
 30
0.0
 11
5.395999999999997
 21
22.87269102606321
 31
0.0
  0
SOLID
  5
F3
330
EA
100
AcDbEntity
  8
치수문자_일반주서
 62
     0
100
AcDbTrace
 10
48.63950000000001
 20
23.42302435939654
 30
0.0
 11
48.63950000000001
 21
22.32235769272987
 31
0.0
 12
45.33750000000001
 22
22.87269102606321
 32
0.0
 13
45.33750000000001
 23
22.87269102606321
 33
0.0
  0
SOLID
  5
F4
330
EA
100
AcDbEntity
  8
치수문자_일반주서
 62
     0
100
AcDbTrace
 10
8.697999999999997
 20
22.32235769272987
 30
0.0
 11
8.697999999999997
 21
23.42302435939654
 31
0.0
 12
12.0
 22
22.87269102606321
 32
0.0
 13
12.0
 23
22.87269102606321
 33
0.0
  0
MTEXT
  5
F5
330
EA
100
AcDbEntity
  8
치수문자_일반주서
 62
     0
100
AcDbMText
 10
-10.7915
 20
27.24769102606321
 30
0.0
 40
3.5
 41
0.0
 71
     2
 72
     1
  1
\A1;33.34 [1 5/16]
  7
SLDTEXTSTYLE0
 73
     1
 44
1.0
  0
POINT
  5
F6
330
EA
100
AcDbEntity
  8
Defpoints
 62
     0
100
AcDbPoint
 10
45.33750000000001
 20
7.9385749287239
 30
0.0
  0
POINT
  5
1DD
330
EA
100
AcDbEntity
  8
Defpoints
 62
     0
100
AcDbPoint
 10
12.0
 20
7.325087560166374
 30
0.0
  0
POINT
  5
1DE
330
EA
100
AcDbEntity
  8
Defpoints
 62
     0
100
AcDbPoint
 10
12.0
 20
22.87269102606321
 30
0.0
  0
ENDBLK
  5
EC
330
EA
100
AcDbEntity
  8
0
100
AcDbBlockEnd
  0
BLOCK
  5
FF
330
FE
100
AcDbEntity
  8
0
100
AcDbBlockBegin
  2
_D_2
 70
     0
 10
0.0
 20
0.0
 30
0.0
  3
_D_2
  1
_D_2
  0
LINE
  5
101
330
FE
100
AcDbEntity
  8
치수문자_일반주서
 62
     0
370
    -2
100
AcDbLine
 10
45.33750000000001
 20
8.001074928723899
 30
0.0
 11
45.33750000000001
 21
38.0588226436362
 31
0.0
  0
LINE
  5
102
330
FE
100
AcDbEntity
  8
치수문자_일반주서
 62
     0
370
    -2
100
AcDbLine
 10
-41.97500000000001
 20
7.001074928723887
 30
0.0
 11
-41.97500000000001
 21
38.0588226436362
 31
0.0
  0
LINE
  5
103
330
FE
100
AcDbEntity
  8
치수문자_일반주서
 62
     0
370
    -2
100
AcDbLine
 10
42.03550000000001
 20
38.0588226436362
 30
0.0
 11
-38.67300000000001
 21
38.0588226436362
 31
0.0
  0
SOLID
  5
104
330
FE
100
AcDbEntity
  8
치수문자_일반주서
 62
     0
100
AcDbTrace
 10
42.03550000000001
 20
37.50848931030287
 30
0.0
 11
42.03550000000001
 21
38.60915597696954
 31
0.0
 12
45.33750000000001
 22
38.0588226436362
 32
0.0
 13
45.33750000000001
 23
38.0588226436362
 33
0.0
  0
SOLID
  5
105
330
FE
100
AcDbEntity
  8
치수문자_일반주서
 62
     0
100
AcDbTrace
 10
-38.67300000000001
 20
38.60915597696954
 30
0.0
 11
-38.67300000000001
 21
37.50848931030287
 31
0.0
 12
-41.97500000000001
 22
38.0588226436362
 32
0.0
 13
-41.97500000000001
 23
38.0588226436362
 33
0.0
  0
MTEXT
  5
106
330
FE
100
AcDbEntity
  8
치수문자_일반주서
 62
     0
100
AcDbMText
 10
1.681249999999991
 20
42.4338226436362
 30
0.0
 40
3.5
 41
0.0
 71
     2
 72
     1
  1
\A1;87.31 [3 7/16]
  7
SLDTEXTSTYLE0
 73
     1
 44
1.0
  0
POINT
  5
107
330
FE
100
AcDbEntity
  8
Defpoints
 62
     0
100
AcDbPoint
 10
45.33750000000001
 20
7.9385749287239
 30
0.0
  0
POINT
  5
108
330
FE
100
AcDbEntity
  8
Defpoints
 62
     0
100
AcDbPoint
 10
-41.97500000000001
 20
6.938574928723887
 30
0.0
  0
POINT
  5
109
330
FE
100
AcDbEntity
  8
Defpoints
 62
     0
100
AcDbPoint
 10
-41.97500000000001
 20
38.0588226436362
 30
0.0
  0
ENDBLK
  5
100
330
FE
100
AcDbEntity
  8
0
100
AcDbBlockEnd
  0
BLOCK
  5
112
330
111
100
AcDbEntity
  8
0
100
AcDbBlockBegin
  2
_D_3
 70
     0
 10
0.0
 20
0.0
 30
0.0
  3
_D_3
  1
_D_3
  0
LINE
  5
114
330
111
100
AcDbEntity
  8
치수문자_일반주서
 62
     0
370
    -2
100
AcDbLine
 10
45.39999999999999
 20
-7.936425071276097
 30
0.0
 11
62.57441612920806
 21
-7.936425071276034
 31
0.0
  0
LINE
  5
115
330
111
100
AcDbEntity
  8
치수문자_일반주서
 62
     0
370
    -2
100
AcDbLine
 10
45.40000000000001
 20
7.9385749287239
 30
0.0
 11
62.574416129208
 21
7.938574928723963
 31
0.0
  0
LINE
  5
116
330
111
100
AcDbEntity
  8
치수문자_일반주서
 62
     0
370
    -2
100
AcDbLine
 10
62.574416129208
 20
7.938574928723963
 30
0.0
 11
62.57441612920788
 21
42.75461627460925
 31
0.0
  0
LINE
  5
117
330
111
100
AcDbEntity
  8
치수문자_일반주서
 62
     0
370
    -2
100
AcDbLine
 10
62.57441612920806
 20
-7.936425071276034
 30
0.0
 11
62.574416129208
 21
7.938574928723963
 31
0.0
  0
LINE
  5
118
330
111
100
AcDbEntity
  8
치수문자_일반주서
 62
     0
370
    -2
100
AcDbLine
 10
62.57441612920807
 20
-11.23842507127603
 30
0.0
 11
62.57441612920809
 21
-14.54042507127603
 31
0.0
  0
LINE
  5
119
330
111
100
AcDbEntity
  8
치수문자_일반주서
 62
     0
370
    -2
100
AcDbLine
 10
62.57441612920799
 20
11.24057492872396
 30
0.0
 11
62.57441612920798
 21
14.54257492872396
 31
0.0
  0
SOLID
  5
11A
330
111
100
AcDbEntity
  8
치수문자_일반주서
 62
     0
100
AcDbTrace
 10
63.12474946254141
 20
-11.23842507127603
 30
0.0
 11
62.02408279587474
 21
-11.23842507127604
 31
0.0
 12
62.57441612920806
 22
-7.936425071276034
 32
0.0
 13
62.57441612920806
 23
-7.936425071276034
 33
0.0
  0
SOLID
  5
11B
330
111
100
AcDbEntity
  8
치수문자_일반주서
 62
     0
100
AcDbTrace
 10
62.02408279587466
 20
11.24057492872396
 30
0.0
 11
63.12474946254132
 21
11.24057492872396
 31
0.0
 12
62.574416129208
 22
7.938574928723963
 32
0.0
 13
62.574416129208
 23
7.938574928723963
 33
0.0
  0
MTEXT
  5
11C
330
111
100
AcDbEntity
  8
치수문자_일반주서
 62
     0
100
AcDbMText
 10
58.19941612920793
 20
28.75461627460923
 30
0.0
 40
3.5
 41
0.0
 71
     2
 72
     1
  1
\A1;%%c15.88 [5/8]
  7
SLDTEXTSTYLE0
 11
-3.580687802255624E-15
 21
1.0
 31
0.0
 73
     1
 44
1.0
  0
POINT
  5
11D
330
111
100
AcDbEntity
  8
Defpoints
 62
     0
100
AcDbPoint
 10
45.33749999999999
 20
-7.936425071276097
 30
0.0
  0
POINT
  5
1DF
330
111
100
AcDbEntity
  8
Defpoints
 62
     0
100
AcDbPoint
 10
45.33750000000001
 20
7.9385749287239
 30
0.0
  0
POINT
  5
1E0
330
111
100
AcDbEntity
  8
Defpoints
 62
     0
100
AcDbPoint
 10
62.574416129208
 20
7.938574928723964
 30
0.0
  0
ENDBLK
  5
113
330
111
100
AcDbEntity
  8
0
100
AcDbBlockEnd
  0
BLOCK
  5
12B
330
12A
100
AcDbEntity
  8
0
100
AcDbBlockBegin
  2
SW_DOWELSYMBOL_0
 70
     0
 10
0.0
 20
0.0
 30
0.0
  3
SW_DOWELSYMBOL_0
  1
SW_DOWELSYMBOL_0
  0
CIRCLE
  5
12D
330
12A
100
AcDbEntity
  8
해칭선
 62
     0
100
AcDbCircle
 10
0.0
 20
0.0
 30
0.0
 40
2.999999999999996
  0
HATCH
  5
12E
330
12A
100
AcDbEntity
  8
0
  6
Continuous
 62
     0
370
     0
100
AcDbHatch
 10
0.0
 20
0.0
 30
0.0
210
0.0
220
0.0
230
1.0
  2
SOLID
 70
     1
 71
     0
 91
        1
 92
        0
 93
        3
 72
     2
 10
0.0
 20
0.0
 40
2.999999999999996
 50
0.0
 51
90.0
 73
     1
 72
     1
 10
0.0
 20
2.999999999999996
 11
0.0
 21
0.0
 72
     1
 10
0.0
 20
0.0
 11
2.999999999999996
 21
0.0
 97
        0
 75
     0
 76
     1
 98
        1
 10
0.0
 20
0.0
  0
HATCH
  5
12F
330
12A
100
AcDbEntity
  8
0
  6
Continuous
 62
     0
370
     0
100
AcDbHatch
 10
0.0
 20
0.0
 30
0.0
210
0.0
220
0.0
230
1.0
  2
SOLID
 70
     1
 71
     0
 91
        1
 92
        0
 93
        3
 72
     2
 10
0.0
 20
0.0
 40
2.999999999999996
 50
180.0
 51
270.0000000000008
 73
     1
 72
     1
 10
0.0
 20
-2.999999999999996
 11
0.0
 21
0.0
 72
     1
 10
0.0
 20
0.0
 11
-2.999999999999996
 21
0.0
 97
        0
 75
     0
 76
     1
 98
        1
 10
0.0
 20
0.0
  0
ENDBLK
  5
12C
330
12A
100
AcDbEntity
  8
0
100
AcDbBlockEnd
  0
ENDSEC
  0
SECTION
  2
ENTITIES
  0
LINE
  5
96
330
1F
100
AcDbEntity
  8
외형선
  6
Continuous
370
    15
100
AcDbLine
 10
8.950012361278553
 20
7.938574928723893
 30
0.0
 11
-10.02192500000009
 21
7.938574928723892
 31
0.0
  0
LINE
  5
97
330
1F
100
AcDbEntity
  8
외형선
  6
Continuous
370
    15
100
AcDbLine
 10
-40.97499999999999
 20
-7.93642507127611
 30
0.0
 11
8.950012361278553
 21
-7.936425071276107
 31
0.0
  0
LINE
  5
98
330
1F
100
AcDbEntity
  8
외형선
  6
Continuous
370
    15
100
AcDbLine
 10
-40.97499999999999
 20
7.938574928723886
 30
0.0
 11
-41.97500000000001
 21
6.938574928723886
 31
0.0
  0
LINE
  5
99
330
1F
100
AcDbEntity
  8
외형선
  6
Continuous
370
    15
100
AcDbLine
 10
-41.97500000000001
 20
-6.936425071276107
 30
0.0
 11
-40.97499999999999
 21
-7.936425071276107
 31
0.0
  0
SPLINE
  5
9A
330
1F
100
AcDbEntity
  8
외형선
  6
Continuous
370
    15
100
AcDbSpline
210
0.0
220
0.0
230
1.0
 70
     8
 71
     3
 72
     9
 73
     5
 74
     0
 42
0.000000001
 43
0.00000001
 40
0.0
 40
0.0
 40
0.0
 40
0.0
 40
0.4989829524466181
 40
1.0
 40
1.0
 40
1.0
 40
1.0
 10
10.21138371584545
 20
-6.60401605816041
 30
0.0
 10
10.50901574159762
 20
-6.574920628532786
 30
0.0
 10
11.10549308474695
 20
-6.516611162277549
 30
0.0
 10
11.70142696618491
 20
-6.467826172989239
 30
0.0
 10
11.99999999999998
 20
-6.443384061691087
 30
0.0
  0
SPLINE
  5
9B
330
1F
100
AcDbEntity
  8
0
  6
Continuous
 62
     1
370
    15
100
AcDbSpline
210
0.0
220
0.0
230
1.0
 70
     8
 71
     3
 72
     9
 73
     5
 74
     0
 42
0.000000001
 43
0.00000001
 40
0.0
 40
0.0
 40
0.0
 40
0.0
 40
0.4793004641340241
 40
0.9999999999999999
 40
0.9999999999999999
 40
0.9999999999999999
 40
0.9999999999999999
 10
24.77264931183339
 20
2.035083789776245
 30
0.0
 10
24.42131312841075
 20
2.202568225671012
 30
0.0
 10
23.68829446952543
 20
2.552003388846519
 30
0.0
 10
22.95415856274833
 20
2.936262336055437
 30
0.0
 10
22.57189433682694
 20
3.136345791519468
 30
0.0
  0
SPLINE
  5
9C
330
1F
100
AcDbEntity
  8
0
  6
Continuous
 62
     1
370
    15
100
AcDbSpline
210
0.0
220
0.0
230
1.0
 70
     8
 71
     3
 72
    23
 73
    19
 74
     0
 42
0.000000001
 43
0.00000001
 40
0.0
 40
0.0
 40
0.0
 40
0.0
 40
0.0989161947018256
 40
0.1796542623721228
 40
0.2426983234637047
 40
0.2946082665648053
 40
0.3648827215213135
 40
0.4260964625287812
 40
0.4799524857794693
 40
0.527190936814523
 40
0.5768770836052829
 40
0.6480918802421434
 40
0.7205946333421617
 40
0.7709771320174286
 40
0.8195800559603151
 40
0.8856644664886749
 40
0.9604202100566709
 40
1.0
 40
1.0
 40
1.0
 40
1.0
 10
22.14903777478121
 20
6.308520214282765
 30
0.0
 10
21.94047472622846
 20
6.297833947841738
 30
0.0
 10
21.56167688873809
 20
6.27842526233011
 30
0.0
 10
21.04489626467906
 20
6.25663607257597
 30
0.0
 10
20.6217259925684
 20
6.241516237939389
 30
0.0
 10
20.21839041492834
 20
6.229268498110812
 30
0.0
 10
19.820725651878
 20
6.219082885317295
 30
0.0
 10
19.42173459577122
 20
6.211116224927346
 30
0.0
 10
19.07323816180968
 20
6.205869819428726
 30
0.0
 10
18.74919025357146
 20
6.202396010955278
 30
0.0
 10
18.38777632560721
 20
6.200030260574134
 30
0.0
 10
17.97244193306431
 20
6.199489234600506
 30
0.0
 10
17.55502031446954
 20
6.201543049232128
 30
0.0
 10
17.18761375248778
 20
6.205290731918719
 30
0.0
 10
16.82814707338103
 20
6.210459780208806
 30
0.0
 10
16.41499608900804
 20
6.218307006297275
 30
0.0
 10
16.01887845119504
 20
6.227042005028142
 30
0.0
 10
15.77373834301888
 20
6.235110113701584
 30
0.0
 10
15.68887763794912
 20
6.237903069108603
 30
0.0
  0
SPLINE
  5
9D
330
1F
100
AcDbEntity
  8
0
  6
Continuous
 62
     1
370
    15
100
AcDbSpline
210
0.0
220
0.0
230
1.0
 70
     8
 71
     3
 72
    35
 73
    31
 74
     0
 42
0.000000001
 43
0.00000001
 40
0.0
 40
0.0
 40
0.0
 40
0.0
 40
0.0589302646437882
 40
0.1054243420265038
 40
0.1392651363601747
 40
0.1635814424138876
 40
0.1871943708162363
 40
0.2450937313417615
 40
0.2955756107999156
 40
0.3478671279835897
 40
0.4016045552316432
 40
0.4613062600994383
 40
0.5244433440130664
 40
0.5510910419385513
 40
0.5790410846981053
 40
0.6117835803533056
 40
0.6463869228062687
 40
0.6730825474132569
 40
0.691274513262347
 40
0.7118737592804191
 40
0.7369986735921815
 40
0.7675993479098235
 40
0.7951837196507682
 40
0.8179224581675948
 40
0.8306388282080532
 40
0.8483900742438821
 40
0.8742533740891971
 40
0.90819106995902
 40
0.9500919848996835
 40
1.0
 40
1.0
 40
1.0
 40
1.0
 10
42.38866864088024
 20
5.429953611970921
 30
0.0
 10
42.1178013051079
 20
5.407728684592281
 30
0.0
 10
41.63322838111235
 20
5.367969006612842
 30
0.0
 10
40.99194341266959
 20
5.326170048998933
 30
0.0
 10
40.50803832760757
 20
5.299016014975301
 30
0.0
 10
40.12584737152601
 20
5.280477280049168
 30
0.0
 10
39.63383818070733
 20
5.259516638241871
 30
0.0
 10
39.02433522744793
 20
5.240010274882613
 30
0.0
 10
38.28119463646408
 20
5.226515119808266
 30
0.0
 10
37.55778520620841
 20
5.22290087515364
 30
0.0
 10
36.79218649612849
 20
5.229564070803939
 30
0.0
 10
35.97573448170186
 20
5.248538213011375
 30
0.0
 10
35.28481948323946
 20
5.275382645511132
 30
0.0
 10
34.74059461108951
 20
5.302761597002493
 30
0.0
 10
34.33712107824935
 20
5.325907504705284
 30
0.0
 10
33.89677120415146
 20
5.354444022757013
 30
0.0
 10
33.46207086803194
 20
5.386187349063889
 30
0.0
 10
33.09451817971762
 20
5.415766752648053
 30
0.0
 10
32.79165081752924
 20
5.441793660040501
 30
0.0
 10
32.49629097349728
 20
5.468571972895862
 30
0.0
 10
32.14368893900248
 20
5.502494109787111
 30
0.0
 10
31.75869328671492
 20
5.542209608393687
 30
0.0
 10
31.38566898230128
 20
5.583168603946219
 30
0.0
 10
31.09575164339875
 20
5.616620321230985
 30
0.0
 10
30.85324071069432
 20
5.645516105607445
 30
0.0
 10
30.59402641960392
 20
5.677287639148444
 30
0.0
 10
30.23572316003496
 20
5.722959275863777
 30
0.0
 10
29.76466547844103
 20
5.786218632140701
 30
0.0
 10
29.18137102021336
 20
5.869220139517665
 30
0.0
 10
28.75464169472758
 20
5.935246163774672
 30
0.0
 10
28.52266846934976
 20
5.971138400119892
 30
0.0
  0
SPLINE
  5
9E
330
1F
100
AcDbEntity
  8
0
  6
Continuous
 62
     1
370
    15
100
AcDbSpline
210
0.0
220
0.0
230
1.0
 70
     8
 71
     3
 72
    17
 73
    13
 74
     0
 42
0.000000001
 43
0.00000001
 40
0.0
 40
0.0
 40
0.0
 40
0.0
 40
0.1361938461965288
 40
0.2443243706256726
 40
0.3241999022052374
 40
0.3826686972639693
 40
0.4386606266198223
 40
0.5716728122383385
 40
0.6918484894048916
 40
0.813055379907155
 40
0.9399831522117355
 40
1.0
 40
1.0
 40
1.0
 40
1.0
 10
28.52266846934975
 20
-5.968988542672103
 30
0.0
 10
28.78925214439122
 20
-5.927839108376944
 30
0.0
 10
29.26748879342158
 20
-5.854019255890666
 30
0.0
 10
29.9032673230161
 20
-5.764934299853973
 30
0.0
 10
30.38908858306026
 20
-5.700931642805066
 30
0.0
 10
30.77601173118841
 20
-5.652615253669233
 30
0.0
 10
31.26650405677488
 20
-5.593984874324161
 30
0.0
 10
31.87455521829695
 20
-5.526707409829911
 30
0.0
 10
32.61224396495605
 20
-5.454386835908086
 30
0.0
 10
33.3373823134765
 20
-5.39307024053197
 30
0.0
 10
33.94431706810831
 20
-5.347581780791941
 30
0.0
 10
34.31237693690448
 20
-5.32682179927111
 30
0.0
 10
34.43053916650775
 20
-5.320156998484629
 30
0.0
  0
SPLINE
  5
9F
330
1F
100
AcDbEntity
  8
0
  6
Continuous
 62
     1
370
    15
100
AcDbSpline
210
0.0
220
0.0
230
1.0
 70
     8
 71
     3
 72
    31
 73
    27
 74
     0
 42
0.000000001
 43
0.00000001
 40
0.0
 40
0.0
 40
0.0
 40
0.0
 40
0.0626810649607559
 40
0.1114747719593175
 40
0.1499264018420431
 40
0.1738710616582629
 40
0.2008154901047734
 40
0.2339195252712386
 40
0.2682650819320078
 40
0.2996614293817643
 40
0.3285999933977783
 40
0.3721005306977499
 40
0.4241007074492953
 40
0.4753289022864451
 40
0.5118572852526309
 40
0.5463744124269585
 40
0.596495815638621
 40
0.6420835354047437
 40
0.6737763757294948
 40
0.7070212379469197
 40
0.7554298014163447
 40
0.8134684548613571
 40
0.8463352919247273
 40
0.886251707931476
 40
0.9373711034924136
 40
1.0
 40
1.0
 40
1.0
 40
1.0
 10
11.99999999999998
 20
-6.443384061691087
 30
0.0
 10
12.21143496505367
 20
-6.427156331813434
 30
0.0
 10
12.58746023725259
 20
-6.398296220890602
 30
0.0
 10
13.09303234885428
 20
-6.363848887037725
 30
0.0
 10
13.46822376102687
 20
-6.340231337384913
 30
0.0
 10
13.77148079336772
 20
-6.322411295702667
 30
0.0
 10
14.05651283820086
 20
-6.306606437339668
 30
0.0
 10
14.37737509119156
 20
-6.290084738143427
 30
0.0
 10
14.71069196343208
 20
-6.274371184089899
 30
0.0
 10
15.0247527370421
 20
-6.260919395850368
 30
0.0
 10
15.34926295905024
 20
-6.247272451963349
 30
0.0
 10
15.76757755409394
 20
-6.231951264949693
 30
0.0
 10
16.27411766334246
 20
-6.21890708171797
 30
0.0
 10
16.75615712116059
 20
-6.209462706608457
 30
0.0
 10
17.17708095588553
 20
-6.203198088401313
 30
0.0
 10
17.5870571143343
 20
-6.199101919775464
 30
0.0
 10
18.02938452842738
 20
-6.197204202605477
 30
0.0
 10
18.461522520296
 20
-6.198189231379131
 30
0.0
 10
18.83677127334193
 20
-6.201025681649705
 30
0.0
 10
19.22147426540011
 20
-6.205634043288897
 30
0.0
 10
19.69496968605161
 20
-6.213906292038131
 30
0.0
 10
20.17182369623893
 20
-6.225701929360657
 30
0.0
 10
20.62172242982842
 20
-6.239366938993467
 30
0.0
 10
21.04489760717673
 20
-6.254486004675708
 30
0.0
 10
21.56167642191463
 20
-6.27627547806245
 30
0.0
 10
21.94047456046643
 20
-6.295684116379118
 30
0.0
 10
22.14903777478121
 20
-6.306370356834977
 30
0.0
  0
SPLINE
  5
A0
330
1F
100
AcDbEntity
  8
외형선
  6
Continuous
370
    15
100
AcDbSpline
210
0.0
220
0.0
230
1.0
 70
     8
 71
     3
 72
    10
 73
     6
 74
     0
 42
0.000000001
 43
0.00000001
 40
0.0
 40
0.0
 40
0.0
 40
0.0
 40
0.5
 40
0.5
 40
1.0
 40
1.0
 40
1.0
 40
1.0
 10
12.0
 20
7.325087560176446
 30
0.0
 10
11.49090184597931
 20
7.438262250995082
 30
0.0
 10
10.98055872834583
 20
7.536452831258206
 30
0.0
 10
9.966764630757158
 20
7.701191806279806
 30
0.0
 10
9.459448785463561
 20
7.767992840799572
 30
0.0
 10
8.95002531627748
 20
7.81881068369878
 30
0.0
  0
LINE
  5
A1
330
1F
100
AcDbEntity
  8
외형선
  6
Continuous
370
    15
100
AcDbLine
 10
12.0
 20
7.325087560176444
 30
0.0
 11
12.0
 21
6.195150668018949
 31
0.0
  0
SPLINE
  5
A2
330
1F
100
AcDbEntity
  8
외형선
  6
Continuous
370
    15
100
AcDbSpline
210
0.0
220
0.0
230
1.0
 70
     8
 71
     3
 72
    10
 73
     6
 74
     0
 42
0.000000001
 43
0.00000001
 40
0.0
 40
0.0
 40
0.0
 40
0.0
 40
0.5
 40
0.5
 40
1.0
 40
1.0
 40
1.0
 40
1.0
 10
12.0
 20
6.195150668018948
 30
0.0
 10
11.49089968819166
 20
6.378739556488223
 30
0.0
 10
10.98055440228525
 20
6.549726757583294
 30
0.0
 10
9.966756066067873
 20
6.863466519205716
 30
0.0
 10
9.45943799250289
 20
7.006655664438986
 30
0.0
 10
8.950012361278546
 20
7.135372969057068
 30
0.0
  0
SPLINE
  5
A3
330
1F
100
AcDbEntity
  8
외형선
  6
Continuous
370
    15
100
AcDbSpline
210
0.0
220
0.0
230
1.0
 70
     8
 71
     3
 72
    10
 73
     6
 74
     0
 42
0.000000001
 43
0.00000001
 40
0.0
 40
0.0
 40
0.0
 40
0.0
 40
0.5
 40
0.5
 40
1.0
 40
1.0
 40
1.0
 40
1.0
 10
12.0
 20
-7.322937702728658
 30
0.0
 10
11.49090184597931
 20
-7.436112393547295
 30
0.0
 10
10.98055872834583
 20
-7.534302973810418
 30
0.0
 10
9.966764630757158
 20
-7.699041948832019
 30
0.0
 10
9.459448785463561
 20
-7.765842983351784
 30
0.0
 10
8.95002531627748
 20
-7.816660826250994
 30
0.0
  0
LINE
  5
A4
330
1F
100
AcDbEntity
  8
외형선
  6
Continuous
370
    15
100
AcDbLine
 10
8.950012361278553
 20
7.818869547287544
 30
0.0
 11
8.950012361278553
 21
7.938574928723893
 31
0.0
  0
LINE
  5
A5
330
1F
100
AcDbEntity
  8
외형선
  6
Continuous
370
    15
100
AcDbLine
 10
-40.97499999999999
 20
7.938574928723886
 30
0.0
 11
-40.97499999999999
 21
-7.93642507127611
 31
0.0
  0
LINE
  5
A6
330
1F
100
AcDbEntity
  8
외형선
  6
Continuous
370
    15
100
AcDbLine
 10
8.950012361278553
 20
-7.936425071276107
 30
0.0
 11
8.95001236127855
 21
7.135372568051735
 31
0.0
  0
LINE
  5
A7
330
1F
100
AcDbEntity
  8
외형선
  6
Continuous
370
    15
100
AcDbLine
 10
-41.97500000000001
 20
6.938574928723887
 30
0.0
 11
-41.97500000000001
 21
-6.936425071276106
 31
0.0
  0
SPLINE
  5
A8
330
1F
100
AcDbEntity
  8
외형선
  6
Continuous
370
    15
100
AcDbSpline
210
0.0
220
0.0
230
1.0
 70
    24
 71
     3
 72
    14
 73
    10
 74
     0
 42
0.000000001
 43
0.00000001
 40
0.0
 40
0.0
 40
0.0
 40
0.0
 40
0.2500000000000001
 40
0.2500000000000001
 40
0.5000000000000002
 40
0.5000000000000002
 40
0.7500000000000001
 40
0.7500000000000001
 40
1.0
 40
1.0
 40
1.0
 40
1.0
 10
12.0
 20
4.190441739821246
 30
0.0
 10
12.0
 20
3.626280254018393
 30
0.0
 10
12.0
 20
2.992560416562033
 30
0.0
 10
12.0
 20
1.629035304270225
 30
0.0
 10
12.0
 20
0.8997060483746814
 30
0.0
 10
12.0
 20
-0.586209937348619
 30
0.0
 10
12.0
 20
-1.342004909015679
 30
0.0
 10
12.0
 20
-2.806372949640748
 30
0.0
 10
12.0
 20
-3.51432836032478
 30
0.0
 10
12.0
 20
-4.170137556415273
 30
0.0
  0
SPLINE
  5
A9
330
1F
100
AcDbEntity
  8
외형선
  6
Continuous
370
    15
100
AcDbSpline
210
0.0
220
0.0
230
1.0
 70
     8
 71
     3
 72
    10
 73
     6
 74
     0
 42
0.000000001
 43
0.00000001
 40
0.0
 40
0.0
 40
0.0
 40
0.0
 40
0.5
 40
0.5
 40
1.0
 40
1.0
 40
1.0
 40
1.0
 10
12.0
 20
-4.170137556415273
 30
0.0
 10
11.49090047598009
 20
-3.993049522056435
 30
0.0
 10
10.98055598169019
 20
-3.807232978590285
 30
0.0
 10
9.966759192957072
 20
-3.42163020636321
 30
0.0
 10
9.459441932913656
 20
-3.221375134941509
 30
0.0
 10
8.950017091029522
 20
-3.014640538512782
 30
0.0
  0
SPLINE
  5
AA
330
1F
100
AcDbEntity
  8
외형선
  6
Continuous
370
    15
100
AcDbSpline
210
0.0
220
0.0
230
1.0
 70
     8
 71
     3
 72
    10
 73
     6
 74
     0
 42
0.000000001
 43
0.00000001
 40
0.0
 40
0.0
 40
0.0
 40
0.0
 40
0.5
 40
0.5
 40
1.0
 40
1.0
 40
1.0
 40
1.0
 10
12.0
 20
4.190441739821246
 30
0.0
 10
11.49090020798993
 20
4.325437297695474
 30
0.0
 10
10.98055544440764
 20
4.451918436927315
 30
0.0
 10
9.966758129250753
 20
4.685602667229197
 30
0.0
 10
9.459440592463286
 20
4.793128500833309
 30
0.0
 10
8.950015482061104
 20
4.890748748024735
 30
0.0
  0
LINE
  5
AB
330
1F
100
AcDbEntity
  8
외형선
  6
Continuous
370
    15
100
AcDbLine
 10
10.21277899957014
 20
-6.598034465521075
 30
0.0
 11
8.95002531627748
 21
-6.702293337690023
 31
0.0
  0
SPLINE
  5
AC
330
1F
100
AcDbEntity
  8
외형선
  6
Continuous
370
    15
100
AcDbSpline
210
0.0
220
0.0
230
1.0
 70
    24
 71
     3
 72
    14
 73
    10
 74
     0
 42
0.000000001
 43
0.00000001
 40
0.0
 40
0.0
 40
0.0
 40
0.0
 40
0.15266884771503
 40
0.3053376954300597
 40
0.5286179486179072
 40
0.6436004399011238
 40
0.7585829311843406
 40
0.9602124568226299
 40
1.0
 40
1.0
 40
1.0
 40
1.0
 10
12.0
 20
-4.170137556415273
 30
0.0
 10
12.0
 20
-4.384561233374312
 30
0.0
 10
12.0
 20
-4.813408587292387
 30
0.0
 10
12.0
 20
-5.425387723526323
 30
0.0
 10
12.0
 20
-5.86961085877101
 30
0.0
 10
12.0
 20
-6.163163770167182
 30
0.0
 10
12.0
 20
-6.35699700694705
 30
0.0
 10
12.0
 20
-6.46667242469102
 30
0.0
 10
12.0
 20
-6.432919153904145
 30
0.0
 10
12.0
 20
-6.427356333821047
 30
0.0
  0
SPLINE
  5
AD
330
1F
100
AcDbEntity
  8
외형선
  6
Continuous
370
    15
100
AcDbSpline
210
0.0
220
0.0
230
1.0
 70
    24
 71
     3
 72
    10
 73
     6
 74
     0
 42
0.000000001
 43
0.00000001
 40
0.0
 40
0.0
 40
0.0
 40
0.0
 40
0.5000000000000002
 40
0.5000000000000002
 40
1.0
 40
1.0
 40
1.0
 40
1.0
 10
12.0
 20
6.195150668018948
 30
0.0
 10
12.0
 20
5.962238030531928
 30
0.0
 10
12.0
 20
5.655635201270973
 30
0.0
 10
12.0
 20
4.959484741493786
 30
0.0
 10
12.0
 20
4.572125110840477
 30
0.0
 10
12.0
 20
4.190441739821247
 30
0.0
  0
SPLINE
  5
AE
330
1F
100
AcDbEntity
  8
외형선
  6
Continuous
370
    15
100
AcDbSpline
210
0.0
220
0.0
230
1.0
 70
    24
 71
     3
 72
    10
 73
     6
 74
     0
 42
0.000000001
 43
0.00000001
 40
0.0
 40
0.0
 40
0.0
 40
0.0
 40
0.3801611154143867
 40
0.8405054771075369
 40
1.0
 40
1.0
 40
1.0
 40
1.0
 10
12.0
 20
-6.443384061691086
 30
0.0
 10
12.0
 20
-6.560934688971075
 30
0.0
 10
11.99999999999999
 20
-6.820829617884467
 30
0.0
 10
11.99999999999999
 20
-7.108670210333156
 30
0.0
 10
12.0
 20
-7.27908677686137
 30
0.0
 10
12.0
 20
-7.322937702718595
 30
0.0
  0
SPLINE
  5
AF
330
1F
100
AcDbEntity
  8
0
  6
Continuous
 62
     1
370
    15
100
AcDbSpline
210
0.0
220
0.0
230
1.0
 70
     8
 71
     3
 72
    52
 73
    48
 74
     0
 42
0.000000001
 43
0.00000001
 40
0.0
 40
0.0
 40
0.0
 40
0.0
 40
0.0625000000000001
 40
0.0625000000000001
 40
0.0937499999999999
 40
0.0937499999999999
 40
0.1249999999999997
 40
0.1249999999999997
 40
0.1874999999999993
 40
0.1874999999999993
 40
0.2187499999999993
 40
0.2187499999999993
 40
0.2499999999999992
 40
0.2499999999999992
 40
0.3124999999999989
 40
0.3124999999999989
 40
0.3437499999999987
 40
0.3437499999999987
 40
0.3749999999999985
 40
0.3749999999999985
 40
0.4374999999999982
 40
0.4374999999999982
 40
0.4687499999999982
 40
0.4687499999999982
 40
0.4999999999999981
 40
0.4999999999999981
 40
0.5624999999999982
 40
0.5624999999999982
 40
0.6249999999999986
 40
0.6249999999999986
 40
0.6562499999999986
 40
0.6562499999999986
 40
0.6874999999999987
 40
0.6874999999999987
 40
0.7187499999999987
 40
0.7187499999999987
 40
0.7499999999999987
 40
0.7499999999999987
 40
0.812499999999999
 40
0.812499999999999
 40
0.8749999999999993
 40
0.8749999999999993
 40
0.9062499999999996
 40
0.9062499999999996
 40
0.9374999999999997
 40
0.9374999999999997
 40
1.0
 40
1.0
 40
1.0
 40
1.0
 10
45.33749999999999
 20
-7.531143220804313
 30
0.0
 10
44.64629468359349
 20
-7.404849745660097
 30
0.0
 10
43.94734134597623
 20
-7.24917840887298
 30
0.0
 10
42.90523538068926
 20
-6.975391055043518
 30
0.0
 10
42.56014472591185
 20
-6.877577090621976
 30
0.0
 10
41.86627514673042
 20
-6.668649035558696
 30
0.0
 10
41.51801220492055
 20
-6.55756328876714
 30
0.0
 10
40.47373109281776
 20
-6.205811762284671
 30
0.0
 10
39.78313066717508
 20
-5.94727625963902
 30
0.0
 10
38.73981903897663
 20
-5.525946819868627
 30
0.0
 10
38.39133167070727
 20
-5.37997020701121
 30
0.0
 10
37.69592448198541
 20
-5.078209221589182
 30
0.0
 10
37.35016230178511
 20
-4.922605991079059
 30
0.0
 10
36.31095507075425
 20
-4.441863637298415
 30
0.0
 10
35.61175012401809
 20
-4.10207938256415
 30
0.0
 10
34.57130985619864
 20
-3.572171742729188
 30
0.0
 10
34.22611674452905
 20
-3.392231848688721
 30
0.0
 10
33.531196948495
 20
-3.02542000310521
 30
0.0
 10
33.18274732548706
 20
-2.838762532015529
 30
0.0
 10
32.13892945995126
 20
-2.2714348842697
 30
0.0
 10
31.44859910030026
 20
-1.884077954558642
 30
0.0
 10
30.40454362312202
 20
-1.292866090935254
 30
0.0
 10
30.05614900502194
 20
-1.0942937761853
 30
0.0
 10
29.36160606290893
 20
-0.6958603388131289
 30
0.0
 10
29.01657753586162
 20
-0.4962166306210214
 30
0.0
 10
27.97542681516514
 20
0.1047306163195131
 30
0.0
 10
27.27628353566888
 20
0.5074644338067799
 30
0.0
 10
25.89186088236811
 20
1.303345198253071
 30
0.0
 10
25.19511646978643
 20
1.698682120867946
 30
0.0
 10
24.15222441262839
 20
2.279262786992688
 30
0.0
 10
23.80668888582825
 20
2.470406946193509
 30
0.0
 10
23.11360496782418
 20
2.847986225481839
 30
0.0
 10
22.76553057166151
 20
3.034509761230713
 30
0.0
 10
22.06930629621903
 20
3.401394769326885
 30
0.0
 10
21.72115928773097
 20
3.58175472641063
 30
0.0
 10
21.02778699532474
 20
3.9347851515359
 30
0.0
 10
20.68245110343981
 20
4.107486364561097
 30
0.0
 10
19.6398155196231
 20
4.614404877039139
 30
0.0
 10
18.94233305016494
 20
4.936280715111205
 30
0.0
 10
17.55859090228673
 20
5.538245836045737
 30
0.0
 10
16.8595011461222
 20
5.820159098442011
 30
0.0
 10
15.81799609176509
 20
6.207066796761985
 30
0.0
 10
15.47298935974514
 20
6.329966774692885
 30
0.0
 10
14.77866982386121
 20
6.563942498324707
 30
0.0
 10
14.43031491733
 20
6.674887710726802
 30
0.0
 10
13.38616089651678
 20
6.988114060916668
 30
0.0
 10
12.69577308736682
 20
7.170414235551834
 30
0.0
 10
11.99999999999753
 20
7.325087560176999
 30
0.0
  0
SPLINE
  5
B0
330
1F
100
AcDbEntity
  8
0
  6
Continuous
 62
     1
370
    15
100
AcDbSpline
210
0.0
220
0.0
230
1.0
 70
     8
 71
     3
 72
    17
 73
    13
 74
     0
 42
0.000000001
 43
0.00000001
 40
0.0
 40
0.0
 40
0.0
 40
0.0
 40
0.1103956694370538
 40
0.2207353028345846
 40
0.3310445960826362
 40
0.4413493838340096
 40
0.5516755213709721
 40
0.6620487662741193
 40
0.7724600573338036
 40
0.8828163061867552
 40
0.993133241378972
 40
1.0
 40
1.0
 40
1.0
 40
1.0
 10
45.33750000000001
 20
-6.261392419698821
 30
0.0
 10
44.5790172504618
 20
-6.106431504654501
 30
0.0
 10
43.06243675171692
 20
-5.796588331600181
 30
0.0
 10
40.7882052511573
 20
-5.127587467801873
 30
0.0
 10
38.51467338028727
 20
-4.330908964191781
 30
0.0
 10
36.24125255586433
 20
-3.412733065196783
 30
0.0
 10
33.96732664271199
 20
-2.402028761534871
 30
0.0
 10
31.69252112999646
 20
-1.325927434770726
 30
0.0
 10
29.4173008831479
 20
-0.2120643517355089
 30
0.0
 10
27.14274897916992
 20
0.9008786650622359
 30
0.0
 10
25.57961161442496
 20
1.667285388541729
 30
0.0
 10
24.774605463853
 20
2.032997358533488
 30
0.0
 10
24.72743351744525
 20
2.054427437591724
 30
0.0
  0
LINE
  5
B1
330
1F
100
AcDbEntity
  8
0
  6
Continuous
 62
     1
370
    15
100
AcDbLine
 10
45.33750000000001
 20
-7.531143220804314
 30
0.0
 11
45.33750000000001
 21
-6.261392419698821
 31
0.0
  0
SPLINE
  5
B2
330
1F
100
AcDbEntity
  8
0
  6
Continuous
 62
     1
370
    15
100
AcDbSpline
210
0.0
220
0.0
230
1.0
 70
     8
 71
     3
 72
    52
 73
    48
 74
     0
 42
0.000000001
 43
0.00000001
 40
0.0
 40
0.0
 40
0.0
 40
0.0
 40
0.0625
 40
0.0625
 40
0.09375
 40
0.09375
 40
0.1250000000000001
 40
0.1250000000000001
 40
0.1875000000000003
 40
0.1875000000000003
 40
0.2187500000000003
 40
0.2187500000000003
 40
0.2500000000000002
 40
0.2500000000000002
 40
0.3124999999999999
 40
0.3124999999999999
 40
0.3437499999999998
 40
0.3437499999999998
 40
0.3749999999999997
 40
0.3749999999999997
 40
0.4374999999999994
 40
0.4374999999999994
 40
0.4687499999999995
 40
0.4687499999999995
 40
0.4999999999999995
 40
0.4999999999999995
 40
0.5624999999999998
 40
0.5624999999999998
 40
0.6249999999999999
 40
0.6249999999999999
 40
0.6562500000000001
 40
0.6562500000000001
 40
0.6875000000000001
 40
0.6875000000000001
 40
0.7187500000000001
 40
0.7187500000000001
 40
0.7500000000000001
 40
0.7500000000000001
 40
0.8125000000000001
 40
0.8125000000000001
 40
0.8750000000000001
 40
0.8750000000000001
 40
0.9062500000000002
 40
0.9062500000000002
 40
0.9375000000000002
 40
0.9375000000000002
 40
1.0
 40
1.0
 40
1.0
 40
1.0
 10
45.33749999999999
 20
-7.9364250712761
 30
0.0
 10
44.64629468359355
 20
-7.913259672957238
 30
0.0
 10
43.94734134597632
 20
-7.866303377512908
 30
0.0
 10
42.90523538068944
 20
-7.751097009135762
 30
0.0
 10
42.56014472591206
 20
-7.705337367317651
 30
0.0
 10
41.86627514673069
 20
-7.599021557908943
 30
0.0
 10
41.51801220492082
 20
-7.538465339689728
 30
0.0
 10
40.47373109281813
 20
-7.33531115051704
 30
0.0
 10
39.78313066717548
 20
-7.171629860074358
 30
0.0
 10
38.73981903897712
 20
-6.885357224744204
 30
0.0
 10
38.39133167070779
 20
-6.783169418512979
 30
0.0
 10
37.69592448198598
 20
-6.566149184985096
 30
0.0
 10
37.35016230178569
 20
-6.451454322664003
 30
0.0
 10
36.31095507075494
 20
-6.08901945156251
 30
0.0
 10
35.61175012401881
 20
-5.822319536150749
 30
0.0
 10
34.57130985619944
 20
-5.391467982663543
 30
0.0
 10
34.22611674452986
 20
-5.242790791994966
 30
0.0
 10
33.53119694849588
 20
-4.935039982119886
 30
0.0
 10
33.18274732548798
 20
-4.776138399311466
 30
0.0
 10
32.13892945995222
 20
-4.286388405608835
 30
0.0
 10
31.44859910030129
 20
-3.943099617094105
 30
0.0
 10
30.40454362312313
 20
-3.406109821863874
 30
0.0
 10
30.05614900502307
 20
-3.2236070095736
 30
0.0
 10
29.36160606291011
 20
-2.85317389509625
 30
0.0
 10
29.01657753586284
 20
-2.665453517072617
 30
0.0
 10
27.97542681516643
 20
-2.094093689526285
 30
0.0
 10
27.27628353567023
 20
-1.70274551367837
 30
0.0
 10
25.89186088236954
 20
-0.9126129379484299
 30
0.0
 10
25.19511646978793
 20
-0.5116704478120757
 30
0.0
 10
24.15222441262996
 20
0.0899732375282408
 30
0.0
 10
23.80668888582984
 20
0.2902246008913708
 30
0.0
 10
23.11360496782584
 20
0.6901796023064494
 30
0.0
 10
22.76553057166319
 20
0.8899834431097724
 30
0.0
 10
22.06930629622075
 20
1.287518289239708
 30
0.0
 10
21.72115928773272
 20
1.485247654542879
 30
0.0
 10
21.02778699532653
 20
1.876939923128455
 30
0.0
 10
20.68245110344164
 20
2.070929235072677
 30
0.0
 10
19.63981551962502
 20
2.647633274915421
 30
0.0
 10
18.94233305016688
 20
3.023830945736851
 30
0.0
 10
17.55859090228881
 20
3.74831118071925
 30
0.0
 10
16.85950114612432
 20
4.098803097573312
 30
0.0
 10
15.81799609176728
 20
4.597833948191662
 30
0.0
 10
15.47298935974734
 20
4.759602811782319
 30
0.0
 10
14.77866982386348
 20
5.074404535832773
 30
0.0
 10
14.4303149173323
 20
5.227275145324783
 30
0.0
 10
13.38616089651915
 20
5.67028428422106
 30
0.0
 10
12.69577308736924
 20
5.944244894099401
 30
0.0
 10
11.99999999999999
 20
6.195150668018955
 30
0.0
  0
SPLINE
  5
B3
330
1F
100
AcDbEntity
  8
0
  6
Continuous
 62
     1
370
    15
100
AcDbSpline
210
0.0
220
0.0
230
1.0
 70
     8
 71
     3
 72
    13
 73
     9
 74
     0
 42
0.000000001
 43
0.00000001
 40
0.0
 40
0.0
 40
0.0
 40
0.0
 40
0.1022985260780716
 40
0.2818634956402945
 40
0.4614073901656477
 40
0.6409389384469867
 40
0.8204668899112332
 40
1.0
 40
1.0
 40
1.0
 40
1.0
 10
25.61477026035268
 20
-0.750996446324634
 30
0.0
 10
25.15049892577533
 20
-0.5654446960536812
 30
0.0
 10
23.87129045321448
 20
-0.0541932933342371
 30
0.0
 10
21.77728963211504
 20
0.7967853424296046
 30
0.0
 10
19.3328042548379
 20
1.761908953353063
 30
0.0
 10
16.88850611015517
 20
2.669994639301611
 30
0.0
 10
14.44426277253414
 20
3.503111532032692
 30
0.0
 10
12.81476206118159
 20
3.961329476155105
 30
0.0
 10
12.0
 20
4.190441739821245
 30
0.0
  0
SPLINE
  5
B4
330
1F
100
AcDbEntity
  8
외형선
  6
Continuous
370
    15
100
AcDbSpline
210
0.0
220
0.0
230
1.0
 70
    24
 71
     3
 72
    10
 73
     6
 74
     0
 42
0.000000001
 43
0.00000001
 40
0.0
 40
0.0
 40
0.0
 40
0.0
 40
0.5
 40
0.5
 40
1.0
 40
1.0
 40
1.0
 40
1.0
 10
12.0
 20
6.195150668018948
 30
0.0
 10
12.0
 20
5.962238030531925
 30
0.0
 10
12.0
 20
5.655635201270973
 30
0.0
 10
12.0
 20
4.959484741493782
 30
0.0
 10
12.0
 20
4.572125110840474
 30
0.0
 10
12.0
 20
4.190441739821246
 30
0.0
  0
LINE
  5
B5
330
1F
100
AcDbEntity
  8
0
  6
Continuous
 62
     1
370
    15
100
AcDbLine
 10
45.33749999999999
 20
-7.936425071276097
 30
0.0
 11
45.33750000000001
 21
-7.531143220804315
 31
0.0
  0
SPLINE
  5
B6
330
1F
100
AcDbEntity
  8
0
  6
Continuous
 62
     1
370
    15
100
AcDbSpline
210
0.0
220
0.0
230
1.0
 70
     8
 71
     3
 72
     8
 73
     4
 74
     0
 42
0.000000001
 43
0.00000001
 40
0.0
 40
0.0
 40
0.0
 40
0.0
 40
1.0
 40
1.0
 40
1.0
 40
1.0
 10
40.42633024581498
 20
2.221154600720031
 30
0.0
 10
40.39640471791195
 20
2.256598748002347
 30
0.0
 10
40.36679209920447
 20
2.291938090550514
 30
0.0
 10
40.3375
 20
2.327170079394226
 30
0.0
  0
LINE
  5
B7
330
1F
100
AcDbEntity
  8
0
  6
Continuous
 62
     1
370
    15
100
AcDbLine
 10
40.3375
 20
2.938794364020486
 30
0.0
 11
45.33750000000001
 21
0.0010749287238982
 31
0.0
  0
LINE
  5
B8
330
1F
100
AcDbEntity
  8
0
  6
Continuous
 62
     1
370
    15
100
AcDbLine
 10
45.33750000000001
 20
0.0010749287238982
 30
0.0
 11
45.33750000000001
 21
-2.120165955386409
 31
0.0
  0
SPLINE
  5
B9
330
1F
100
AcDbEntity
  8
0
  6
Continuous
 62
     1
370
    15
100
AcDbSpline
210
0.0
220
0.0
230
1.0
 70
     8
 71
     3
 72
    12
 73
     8
 74
     0
 42
0.000000001
 43
0.00000001
 40
0.0
 40
0.0
 40
0.0
 40
0.0
 40
0.5
 40
0.5
 40
0.75
 40
0.75
 40
1.0
 40
1.0
 40
1.0
 40
1.0
 10
45.33750000000001
 20
-2.120165955386408
 30
0.0
 10
44.48735708373018
 20
-1.45181245369302
 30
0.0
 10
43.65141642663288
 20
-0.7560606014285762
 30
0.0
 10
42.41936851419033
 20
0.3297444205255351
 30
0.0
 10
42.01238238863036
 20
0.6988105700279288
 30
0.0
 10
41.20672911848983
 20
1.452991467674587
 30
0.0
 10
40.81024411284289
 20
1.836165308017937
 30
0.0
 10
40.42633024581498
 20
2.221154600720034
 30
0.0
  0
SPLINE
  5
BA
330
1F
100
AcDbEntity
  8
0
  6
Continuous
 62
     1
370
    15
100
AcDbSpline
210
0.0
220
0.0
230
1.0
 70
     8
 71
     3
 72
    14
 73
    10
 74
     0
 42
0.000000001
 43
0.00000001
 40
0.0
 40
0.0
 40
0.0
 40
0.0
 40
0.1451631652056631
 40
0.2903256654180786
 40
0.4354875380892916
 40
0.5806488207056468
 40
0.7258095507857467
 40
0.8709697658784127
 40
1.0
 40
1.0
 40
1.0
 40
1.0
 10
40.42633024581498
 20
2.221154600720029
 30
0.0
 10
39.54188364914397
 20
2.595891203137774
 30
0.0
 10
37.7729945074566
 20
3.345362691302857
 30
0.0
 10
35.11966847167156
 20
4.323394221900352
 30
0.0
 10
32.46635627109977
 20
5.14648931154448
 30
0.0
 10
29.81305269869429
 20
5.778287403787713
 30
0.0
 10
27.15977407370342
 20
6.190968264949779
 30
0.0
 10
24.6047303096848
 20
6.384992160800225
 30
0.0
 10
22.93424171786162
 20
6.32912201659125
 30
0.0
 10
22.14813288468355
 20
6.302830299252628
 30
0.0
  0
SPLINE
  5
BB
330
1F
100
AcDbEntity
  8
0
  6
Continuous
 62
     1
370
    15
100
AcDbSpline
210
0.0
220
0.0
230
1.0
 70
    24
 71
     3
 72
    10
 73
     6
 74
     0
 42
0.000000001
 43
0.00000001
 40
0.0
 40
0.0
 40
0.0
 40
0.0
 40
0.5
 40
0.5
 40
1.0
 40
1.0
 40
1.0
 40
1.0
 10
45.33750000000001
 20
-6.261392419698819
 30
0.0
 10
45.33749999999999
 20
-5.781325471493807
 30
0.0
 10
45.33750000000001
 20
-5.174742474783701
 30
0.0
 10
45.33750000000001
 20
-3.764495384534627
 30
0.0
 10
45.33749999999999
 20
-2.962052900495874
 30
0.0
 10
45.33750000000001
 20
-2.120165955386662
 30
0.0
  0
SPLINE
  5
BC
330
1F
100
AcDbEntity
  8
0
  6
Continuous
 62
     1
370
    15
100
AcDbSpline
210
0.0
220
0.0
230
1.0
 70
     8
 71
     3
 72
     9
 73
     5
 74
     0
 42
0.000000001
 43
0.00000001
 40
0.0
 40
0.0
 40
0.0
 40
0.0
 40
0.90351766144706
 40
1.0
 40
1.0
 40
1.0
 40
1.0
 10
45.33750000000001
 20
5.557324928723894
 30
0.0
 10
44.44842603725621
 20
5.553384099396157
 30
0.0
 10
43.46441210960386
 20
5.549022447714194
 30
0.0
 10
42.48039874630037
 20
5.431466001907797
 30
0.0
 10
42.38545883584151
 20
5.420123881104423
 30
0.0
  0
SPLINE
  5
BD
330
1F
100
AcDbEntity
  8
0
  6
Continuous
 62
     1
370
    15
100
AcDbSpline
210
0.0
220
0.0
230
1.0
 70
     8
 71
     3
 72
    10
 73
     6
 74
     0
 42
0.000000001
 43
0.00000001
 40
0.0
 40
0.0
 40
0.0
 40
0.0
 40
0.5000000000000007
 40
0.5000000000000007
 40
1.0
 40
1.0
 40
1.0
 40
1.0
 10
45.33750000000001
 20
5.557324928723898
 30
0.0
 10
44.52102361685138
 20
5.335916916876101
 30
0.0
 10
43.70900566384055
 20
5.087095753050126
 30
0.0
 10
42.09682145579499
 20
4.530721101946713
 30
0.0
 10
41.29661785017193
 20
4.223681092867039
 30
0.0
 10
40.50599131611423
 20
3.877749119930791
 30
0.0
  0
SPLINE
  5
BE
330
1F
100
AcDbEntity
  8
0
  6
Continuous
 62
     1
370
    15
100
AcDbSpline
210
0.0
220
0.0
230
1.0
 70
    24
 71
     3
 72
     8
 73
     4
 74
     0
 42
0.000000001
 43
0.00000001
 40
0.0
 40
0.0
 40
0.0
 40
0.0
 40
1.0
 40
1.0
 40
1.0
 40
1.0
 10
40.50599131611423
 20
3.877749119930793
 30
0.0
 10
40.4505816833712
 20
3.831254917532462
 30
0.0
 10
40.39440809952008
 20
3.784119684041076
 30
0.0
 10
40.33750000000001
 20
3.736368118722779
 30
0.0
  0
SPLINE
  5
BF
330
1F
100
AcDbEntity
  8
0
  6
Continuous
 62
     1
370
    15
100
AcDbSpline
210
0.0
220
0.0
230
1.0
 70
    24
 71
     3
 72
     8
 73
     4
 74
     0
 42
0.000000001
 43
0.00000001
 40
0.0
 40
0.0
 40
0.0
 40
0.0
 40
1.0
 40
1.0
 40
1.0
 40
1.0
 10
40.33750000000001
 20
2.327170079394222
 30
0.0
 10
40.33750000000001
 20
2.845403626732492
 30
0.0
 10
40.33750000000002
 20
3.324769265598891
 30
0.0
 10
40.33750000000002
 20
3.736368118722625
 30
0.0
  0
SPLINE
  5
C0
330
1F
100
AcDbEntity
  8
0
  6
Continuous
 62
     1
370
    15
100
AcDbSpline
210
0.0
220
0.0
230
1.0
 70
     8
 71
     3
 72
    14
 73
    10
 74
     0
 42
0.000000001
 43
0.00000001
 40
0.0
 40
0.0
 40
0.0
 40
0.0
 40
0.0831612586240733
 40
0.243621117136955
 40
0.3949031627317611
 40
0.5461787873429643
 40
0.6974512762005
 40
0.8487239176789961
 40
1.0
 40
1.0
 40
1.0
 40
1.0
 10
28.53487348291714
 20
-5.939057128305977
 30
0.0
 10
28.07650415365527
 20
-6.01636504250101
 30
0.0
 10
26.73371004611431
 20
-6.242838772352306
 30
0.0
 10
24.55703917985563
 20
-6.368435444093357
 30
0.0
 10
22.00510984439813
 20
-6.334815343699587
 30
0.0
 10
19.50379039149666
 20
-6.08308822759126
 30
0.0
 10
17.00254025934805
 20
-5.630587856613388
 30
0.0
 10
14.50128542653822
 20
-5.001297752607578
 30
0.0
 10
12.83376813032307
 20
-4.447193055730009
 30
0.0
 10
12.0
 20
-4.170137556415275
 30
0.0
  0
SPLINE
  5
C1
330
1F
100
AcDbEntity
  8
외형선
  6
Continuous
370
    15
100
AcDbSpline
210
0.0
220
0.0
230
1.0
 70
    24
 71
     3
 72
    14
 73
    10
 74
     0
 42
0.000000001
 43
0.00000001
 40
0.0
 40
0.0
 40
0.0
 40
0.0
 40
0.25
 40
0.25
 40
0.5
 40
0.5
 40
0.75
 40
0.75
 40
1.0
 40
1.0
 40
1.0
 40
1.0
 10
12.0
 20
4.190441739821245
 30
0.0
 10
12.0
 20
3.626280254018392
 30
0.0
 10
12.0
 20
2.992560416562031
 30
0.0
 10
12.0
 20
1.629035304270223
 30
0.0
 10
12.0
 20
0.8997060483746789
 30
0.0
 10
12.0
 20
-0.5862099373486216
 30
0.0
 10
12.0
 20
-1.342004909015681
 30
0.0
 10
12.0
 20
-2.80637294964075
 30
0.0
 10
12.0
 20
-3.514328360324782
 30
0.0
 10
12.0
 20
-4.170137556415276
 30
0.0
  0
SPLINE
  5
C2
330
1F
100
AcDbEntity
  8
외형선
  6
Continuous
370
    15
100
AcDbSpline
210
0.0
220
0.0
230
1.0
 70
    24
 71
     3
 72
    14
 73
    10
 74
     0
 42
0.000000001
 43
0.00000001
 40
0.0
 40
0.0
 40
0.0
 40
0.0
 40
0.152720611185259
 40
0.3054412223705178
 40
0.528797180333187
 40
0.6438186572565883
 40
0.7588401341799896
 40
0.9605380237582963
 40
1.0
 40
1.0
 40
1.0
 40
1.0
 10
12.0
 20
-4.170137556415275
 30
0.0
 10
12.0
 20
-4.384561202756048
 30
0.0
 10
12.0
 20
-4.813408495437594
 30
0.0
 10
11.99999999999999
 20
-5.425388161752307
 30
0.0
 10
11.99999999999999
 20
-5.869608879836449
 30
0.0
 10
11.99999999999999
 20
-6.163167285232574
 30
0.0
 10
11.99999999999999
 20
-6.356979365505338
 30
0.0
 10
12.0
 20
-6.466647235025363
 30
0.0
 10
11.99999999999999
 20
-6.43298224037239
 30
0.0
 10
11.99999999999999
 20
-6.427473499460398
 30
0.0
  0
LINE
  5
C3
330
1F
100
AcDbEntity
  8
0
  6
Continuous
 62
     1
370
    15
100
AcDbLine
 10
45.33750000000001
 20
0.0010749287238982
 30
0.0
 11
45.33750000000001
 21
5.557324928723894
 31
0.0
  0
SPLINE
  5
C4
330
1F
100
AcDbEntity
  8
0
  6
Continuous
 62
     1
370
    15
100
AcDbSpline
210
0.0
220
0.0
230
1.0
 70
     8
 71
     3
 72
    13
 73
     9
 74
     0
 42
0.000000001
 43
0.00000001
 40
0.0
 40
0.0
 40
0.0
 40
0.0
 40
0.039485415962786
 40
0.2317255885612367
 40
0.4238139622210456
 40
0.6157999841502628
 40
0.8078174819945447
 40
1.0
 40
1.0
 40
1.0
 40
1.0
 10
34.42792484993465
 20
5.321145109220678
 30
0.0
 10
34.57150826372832
 20
5.385596902441605
 30
0.0
 10
35.41414725480107
 20
5.763841106124858
 30
0.0
 10
36.95581748191888
 20
6.333717499491437
 30
0.0
 10
39.05146883686938
 20
7.002349576785023
 30
0.0
 10
41.14616303868966
 20
7.494567868638639
 30
0.0
 10
43.2412050289439
 20
7.828999778568681
 30
0.0
 10
44.63853495099844
 20
7.897567625593519
 30
0.0
 10
45.33750000000001
 20
7.9385749287239
 30
0.0
  0
SPLINE
  5
C5
330
1F
100
AcDbEntity
  8
0
  6
Continuous
 62
     1
370
    15
100
AcDbSpline
210
0.0
220
0.0
230
1.0
 70
    24
 71
     3
 72
    10
 73
     6
 74
     0
 42
0.000000001
 43
0.00000001
 40
0.0
 40
0.0
 40
0.0
 40
0.0
 40
0.5
 40
0.5
 40
1.0
 40
1.0
 40
1.0
 40
1.0
 10
45.33750000000001
 20
5.557324928723893
 30
0.0
 10
45.33750000000001
 20
5.894130967131946
 30
0.0
 10
45.33750000000001
 20
6.285530775356636
 30
0.0
 10
45.33749999999999
 20
7.106686518850682
 30
0.0
 10
45.33749999999999
 20
7.534345325398077
 30
0.0
 10
45.33750000000001
 20
7.9385749287239
 30
0.0
  0
SPLINE
  5
C6
330
1F
100
AcDbEntity
  8
0
  6
Continuous
 62
     1
370
    15
100
AcDbSpline
210
0.0
220
0.0
230
1.0
 70
     8
 71
     3
 72
     9
 73
     5
 74
     0
 42
0.000000001
 43
0.00000001
 40
0.0
 40
0.0
 40
0.0
 40
0.0
 40
0.4323910325177319
 40
1.0
 40
1.0
 40
1.0
 40
1.0
 10
15.68957981722357
 20
-6.235516399475268
 30
0.0
 10
15.15778021045182
 20
-6.42348099059752
 30
0.0
 10
13.92787587206817
 20
-6.858190725505223
 30
0.0
 10
12.69805650253049
 20
-7.154659415634254
 30
0.0
 10
11.99999999999752
 20
-7.322937702729212
 30
0.0
  0
SPLINE
  5
C7
330
1F
100
AcDbEntity
  8
외형선
  6
Continuous
370
    15
100
AcDbSpline
210
0.0
220
0.0
230
1.0
 70
    24
 71
     3
 72
    12
 73
     8
 74
     0
 42
0.000000001
 43
0.00000001
 40
0.0
 40
0.0
 40
0.0
 40
0.0
 40
0.1507779048362684
 40
0.3808403659354424
 40
0.6106350219769504
 40
0.8406974830761241
 40
0.9999999999999999
 40
0.9999999999999999
 40
0.9999999999999999
 40
0.9999999999999999
 10
12.0
 20
-6.443384061691086
 30
0.0
 10
12.0
 20
-6.490413700484461
 30
0.0
 10
11.99999999999999
 20
-6.609202888245959
 30
0.0
 10
12.0
 20
-6.793164002269729
 30
0.0
 10
11.99999999999999
 20
-6.995714068034316
 30
0.0
 10
11.99999999999999
 20
-7.172025251208205
 30
0.0
 10
12.0
 20
-7.279121122399605
 30
0.0
 10
12.0
 20
-7.322937702718585
 30
0.0
  0
LINE
  5
C8
330
1F
100
AcDbEntity
  8
중심선
 48
0.8
100
AcDbLine
 10
-44.97500000000002
 20
0.0010749287238888
 30
0.0
 11
48.33750000000001
 21
0.0010749287239002
 31
0.0
  0
LINE
  5
C9
330
1F
100
AcDbEntity
  8
참조1
100
AcDbLine
 10
4.530511314031163
 20
0.0010749287238892
 30
0.0
 11
4.530511314031168
 21
-39.99892507127611
 31
0.0
  0
LINE
  5
CA
330
1F
100
AcDbEntity
  8
참조1
100
AcDbLine
 10
4.530511314031168
 20
-39.99892507127611
 30
0.0
 11
-20.15080122126847
 21
-39.9989250712761
 31
0.0
  0
CIRCLE
  5
CB
330
1F
100
AcDbEntity
  8
해칭선
100
AcDbCircle
 10
0.0
 20
0.0
 30
0.0
 40
2.999999999999995
  0
INSERT
  5
CC
330
1F
100
AcDbEntity
  8
0
  6
Continuous
 62
     7
100
AcDbBlockReference
 66
     1
  2
블럭10
 10
-12.25902293212521
 20
-52.04609937292004
 30
0.0
  0
ATTRIB
  5
CD
330
CC
100
AcDbEntity
  8
FORMAT
 62
     2
100
AcDbText
 10
-21.44031822086649
 20
-49.97073246008785
 30
0.0
 40
4.233333333333333
  1
E1163040 [ 2 FLUTE ]
 41
0.75
  7
SLDTEXTSTYLE0
 11
-21.44031822086649
 21
-52.08739912675452
 31
0.0
100
AcDbAttribute
  2
AUTOATTR0
 70
     0
 74
     1
  0
SEQEND
  5
CE
330
CC
100
AcDbEntity
  8
0
  6
Continuous
 62
     7
  0
HATCH
  5
CF
330
1F
100
AcDbEntity
  8
중심선
100
AcDbHatch
 10
0.0
 20
0.0
 30
0.0
210
0.0
220
0.0
230
1.0
  2
SOLID
 70
     1
 71
     0
 91
        1
 92
        0
 93
        4
 72
     1
 10
-6.544113627744361
 20
-35.7989250712761
 11
-9.990388871581644
 21
-35.7989250712761
 72
     1
 10
-9.990388871581644
 20
-35.7989250712761
 11
-12.11861873078567
 21
-38.3352506518487
 72
     1
 10
-12.11861873078567
 20
-38.3352506518487
 11
-8.672310401835206
 21
-38.33521122254621
 72
     1
 10
-8.672310401835206
 20
-38.33521122254621
 11
-6.544113627744361
 21
-35.7989250712761
 97
        0
 75
     0
 76
     1
 98
        1
 10
-2.849261314031168
 20
0.0
  0
HATCH
  5
D0
330
1F
100
AcDbEntity
  8
중심선
100
AcDbHatch
 10
0.0
 20
0.0
 30
0.0
210
0.0
220
0.0
230
1.0
  2
SOLID
 70
     1
 71
     0
 91
        1
 92
        0
 93
        4
 72
     1
 10
-1.531349636708381
 20
-35.7989250712761
 11
-4.977624880545664
 21
-35.7989250712761
 72
     1
 10
-4.977624880545664
 20
-35.7989250712761
 11
-9.50876288890308
 21
-41.19892507127612
 72
     1
 10
-9.50876288890308
 20
-41.19892507127612
 11
-6.062487645065797
 21
-41.19892507127612
 72
     1
 10
-6.062487645065797
 20
-41.19892507127612
 11
-1.531349636708382
 21
-35.7989250712761
 97
        0
 75
     0
 76
     1
 98
        1
 10
-2.849261314031168
 20
0.0
  0
HATCH
  5
D1
330
1F
100
AcDbEntity
  8
중심선
100
AcDbHatch
 10
0.0
 20
0.0
 30
0.0
210
0.0
220
0.0
230
1.0
  2
SOLID
 70
     1
 71
     0
 91
        1
 92
        0
 93
        4
 72
     1
 10
3.481414354327542
 20
-35.7989250712761
 11
0.0351391104903982
 21
-35.7989250712761
 72
     1
 10
0.0351391104903982
 20
-35.7989250712761
 11
-7.013297791398879
 21
-44.19892507127612
 72
     1
 10
-7.013297791398879
 20
-44.19892507127612
 11
-3.567022547561596
 21
-44.19892507127612
 72
     1
 10
-3.567022547561596
 20
-44.19892507127612
 11
3.481414354327542
 21
-35.7989250712761
 97
        0
 75
     0
 76
     1
 98
        1
 10
-2.849261314031168
 20
0.0
  0
HATCH
  5
D2
330
1F
100
AcDbEntity
  8
중심선
100
AcDbHatch
 10
0.0
 20
0.0
 30
0.0
210
0.0
220
0.0
230
1.0
  2
SOLID
 70
     1
 71
     0
 91
        1
 92
        0
 93
        6
 72
     3
 10
8.281304785339685
 20
-39.99892507132738
 11
3.960054785062283
 21
1.540882976769353E-10
 40
0.3939339440162628
 50
17.09539180608437
 51
320.0019657685081
 73
     0
 72
     1
 10
9.964304441040282
 20
-38.58681907591441
 11
12.26960631474132
 21
-36.65249236586646
 72
     3
 10
8.281304785286839
 20
-39.99892507127625
 11
6.600054785286829
 21
-1.278976924368180E-13
 40
0.636358354079598
 50
39.9987384933743
 51
368.4976242363725
 73
     1
 72
     1
 10
14.70663727718745
 20
-39.03892507120613
 11
6.961372092122762
 21
-39.03892507120613
 72
     1
 10
6.961372092122762
 20
-39.03892507120613
 11
6.961347047676828
 21
-40.95892507120602
 72
     1
 10
6.961347047676828
 20
-40.95892507120602
 11
11.40272681714887
 21
-40.95892507120599
 97
        0
 75
     0
 76
     1
 98
        1
 10
-2.849261314031168
 20
0.0
  0
DIMENSION
  5
D3
330
1F
100
AcDbEntity
  8
치수문자_일반주서
100
AcDbDimension
  2
_D
 10
-54.47499999999998
 20
-7.936425071276171
 30
0.0
 11
-54.47500000000001
 21
0.0010749287238862
 31
0.0
 70
   160
  1
%%c<>
 71
     2
 42
15.875
 52
-270.0
  3
SLDDIMSTYLE0
100
AcDbAlignedDimension
 13
-40.97499999999999
 23
7.938574928723879
 33
0.0
 14
-40.97499999999999
 24
-7.936425071276121
 34
0.0
 50
90.0000000000002
100
AcDbRotatedDimension
1001
ACAD
1000
DSTYLE
1002
{
1070
   171
1070
     6
1070
   273
1070
     7
1002
}
  0
DIMENSION
  5
E8
330
1F
100
AcDbEntity
  8
치수문자_일반주서
100
AcDbDimension
  2
_D_1
 10
12.0
 20
22.87269102606321
 30
0.0
 11
-10.7915
 21
22.87269102606321
 31
0.0
 70
   160
  1
<>
 71
     2
 42
33.33750000000001
  3
SLDDIMSTYLE0
100
AcDbAlignedDimension
 13
45.33750000000001
 23
7.9385749287239
 33
0.0
 14
12.0
 24
7.325087560166374
 34
0.0
 50
0.0000000000000061
100
AcDbRotatedDimension
1001
ACAD
1000
DSTYLE
1002
{
1070
   171
1070
     6
1070
   273
1070
     7
1002
}
  0
DIMENSION
  5
FD
330
1F
100
AcDbEntity
  8
치수문자_일반주서
100
AcDbDimension
  2
_D_2
 10
-41.97500000000001
 20
38.0588226436362
 30
0.0
 11
1.681249999999991
 21
38.0588226436362
 31
0.0
 70
   160
  1
<>
 71
     2
 42
87.31250000000001
  3
SLDDIMSTYLE0
100
AcDbAlignedDimension
 13
45.33750000000001
 23
7.9385749287239
 33
0.0
 14
-41.97500000000001
 24
6.938574928723887
 34
0.0
 50
0.0000000000000093
100
AcDbRotatedDimension
1001
ACAD
1000
DSTYLE
1002
{
1070
   171
1070
     6
1070
   273
1070
     7
1002
}
  0
DIMENSION
  5
110
330
1F
100
AcDbEntity
  8
치수문자_일반주서
100
AcDbDimension
  2
_D_3
 10
62.574416129208
 20
7.938574928723963
 30
0.0
 11
62.57441612920793
 21
28.75461627460925
 31
0.0
 70
   160
  1
%%c<>
 71
     2
 42
15.875
 52
-270.0
  3
SLDDIMSTYLE0
100
AcDbAlignedDimension
 13
45.33749999999999
 23
-7.936425071276097
 33
0.0
 14
45.33750000000001
 24
7.9385749287239
 34
0.0
 50
90.0000000000002
100
AcDbRotatedDimension
1001
ACAD
1000
DSTYLE
1002
{
1070
   171
1070
     6
1070
   273
1070
     7
1002
}
  0
LINE
  5
123
330
1F
100
AcDbEntity
  8
참조1
100
AcDbLine
 10
77.82153940838579
 20
7.441074928723896
 30
0.0
 11
77.82153940838579
 21
-7.438925071276109
 31
0.0
  0
LINE
  5
124
330
1F
100
AcDbEntity
  8
참조1
100
AcDbLine
 10
90.52153940838579
 20
5.441074928723896
 30
0.0
 11
77.82153940838579
 21
5.441074928723896
 31
0.0
  0
SOLID
  5
125
330
1F
100
AcDbEntity
  8
참조1
100
AcDbTrace
 10
77.82153940838579
 20
5.441074928723896
 30
0.0
 11
84.17153940838578
 21
4.425074928723896
 31
0.0
 12
84.17153940838578
 22
6.457074928723896
 32
0.0
 13
84.17153940838578
 23
6.457074928723896
 33
0.0
  0
LINE
  5
126
330
1F
100
AcDbEntity
  8
참조1
100
AcDbLine
 10
90.52153940838579
 20
-5.438925071276109
 30
0.0
 11
77.82153940838579
 21
-5.438925071276109
 31
0.0
  0
SOLID
  5
127
330
1F
100
AcDbEntity
  8
참조1
100
AcDbTrace
 10
77.82153940838579
 20
-5.438925071276109
 30
0.0
 11
84.17153940838578
 21
-6.454925071276109
 31
0.0
 12
84.17153940838578
 22
-4.422925071276109
 32
0.0
 13
84.17153940838578
 23
-4.422925071276109
 33
0.0
  0
MTEXT
  5
128
330
1F
100
AcDbEntity
  8
참조1
100
AcDbMText
 10
87.20588954101179
 20
11.01136670591222
 30
0.0
 40
3.5
 41
0.0
 71
     1
 72
     1
  1
A
  7
SLDTEXTSTYLE0
 73
     1
 44
1.0
  0
MTEXT
  5
129
330
1F
100
AcDbEntity
  8
참조1
100
AcDbMText
 10
87.20588954101179
 20
0.1313667059122192
 30
0.0
 40
3.5
 41
0.0
 71
     1
 72
     1
  1
A
  7
SLDTEXTSTYLE0
 73
     1
 44
1.0
  0
INSERT
  5
130
330
1F
100
AcDbEntity
  8
해칭선
100
AcDbBlockReference
  2
SW_DOWELSYMBOL_0
 10
0.0
 20
0.0
 30
0.0
  0
LINE
  5
181
330
1F
100
AcDbEntity
  8
외형선
  6
Continuous
370
    15
100
AcDbLine
 10
-21.85832500000001
 20
6.287574928723878
 30
0.0
 11
-11.67292499999999
 21
6.287574928723878
 31
0.0
  0
LINE
  5
182
330
1F
100
AcDbEntity
  8
외형선
  6
Continuous
370
    15
100
AcDbLine
 10
-11.67292500000011
 20
6.287574928723977
 30
0.0
 11
-10.0219250000001
 21
7.938574928723888
 31
0.0
  0
LINE
  5
183
330
1F
100
AcDbEntity
  8
외형선
  6
Continuous
370
    15
100
AcDbLine
 10
-21.85832500000001
 20
6.287574928723977
 30
0.0
 11
-23.50932499999996
 21
7.938574928723888
 31
0.0
  0
LINE
  5
185
330
1F
100
AcDbEntity
  8
외형선
  6
Continuous
370
    15
100
AcDbLine
 10
-23.50932499999996
 20
7.938574928723891
 30
0.0
 11
-40.97499999999999
 21
7.93857492872389
 31
0.0
  0
ENDSEC
  0
SECTION
  2
OBJECTS
  0
DICTIONARY
  5
C
330
0
100
AcDbDictionary
281
     1
  3
ACAD_GROUP
350
D
  3
ACAD_IMAGE_VARS
350
154
  3
ACAD_LAYOUT
350
1A
  3
ACAD_MLINESTYLE
350
17
  3
ACAD_PLOTSETTINGS
350
19
  3
ACAD_PLOTSTYLENAME
350
E
  3
ACAD_SCALELIST
350
47
  3
APPDATA
350
152
  3
DWGPROPS
350
1E5
  0
DICTIONARY
  5
17C
330
2
100
AcDbDictionary
280
     1
281
     1
  3
ACAD_LAYERSTATES
360
17D
  0
DICTIONARY
  5
D
102
{ACAD_REACTORS
330
C
102
}
330
C
100
AcDbDictionary
281
     1
  0
RASTERVARIABLES
  5
154
102
{ACAD_REACTORS
330
C
102
}
330
C
100
AcDbRasterVariables
 90
        0
 70
     1
 71
     1
 72
     1
  0
DICTIONARY
  5
1A
102
{ACAD_REACTORS
330
C
102
}
330
C
100
AcDbDictionary
281
     1
  3
Layout1
350
1E
  3
Layout2
350
26
  3
Model
350
22
  0
DICTIONARY
  5
17
102
{ACAD_REACTORS
330
C
102
}
330
C
100
AcDbDictionary
281
     1
  3
Standard
350
18
  0
DICTIONARY
  5
19
102
{ACAD_REACTORS
330
C
102
}
330
C
100
AcDbDictionary
281
     1
  0
ACDBDICTIONARYWDFLT
  5
E
102
{ACAD_REACTORS
330
C
102
}
330
C
100
AcDbDictionary
281
     1
  3
Normal
350
F
100
AcDbDictionaryWithDefault
340
F
  0
DICTIONARY
  5
47
102
{ACAD_REACTORS
330
C
102
}
330
C
100
AcDbDictionary
281
     1
  3
A0
350
48
  3
A1
350
49
  3
A2
350
4A
  3
A3
350
4B
  3
A4
350
4C
  3
A5
350
4D
  3
A6
350
4E
  3
A7
350
4F
  3
A8
350
50
  3
A9
350
51
  3
B0
350
52
  3
B1
350
53
  3
B2
350
54
  3
B3
350
55
  3
B4
350
56
  3
B5
350
57
  3
B6
350
58
  3
B7
350
59
  3
B8
350
5A
  3
B9
350
5B
  3
C0
350
5C
  3
C1
350
5D
  3
C2
350
5E
  3
C3
350
5F
  3
C4
350
60
  3
C5
350
61
  3
C6
350
62
  3
C7
350
63
  3
C8
350
64
  3
C9
350
65
  3
D0
350
66
  3
D1
350
67
  3
D2
350
68
  0
DICTIONARY
  5
152
102
{ACAD_REACTORS
330
C
102
}
330
C
100
AcDbDictionary
281
     1
  0
XRECORD
  5
1E5
102
{ACAD_REACTORS
330
C
102
}
330
C
100
AcDbXrecord
280
     1
  1
DWGPROPS COOKIE
  2

  3

  4

  6

  7

  8
12017012
  9

300
=
301
=
302
=
303
=
304
=
305
=
306
=
307
=
308
=
309
=
 40
0.0
 41
2458311.098004213
 42
2458319.188850637
  1

 90
        0
  0
DICTIONARY
  5
17D
102
{ACAD_REACTORS
330
17C
102
}
330
17C
100
AcDbDictionary
281
     1
  0
LAYOUT
  5
1E
102
{ACAD_REACTORS
330
1A
102
}
330
1A
100
AcDbPlotSettings
  1

  2
none_device
  4

  6

 40
0.0
 41
0.0
 42
0.0
 43
0.0
 44
0.0
 45
0.0
 46
0.0
 47
0.0
 48
0.0
 49
0.0
140
0.0
141
0.0
142
1.0
143
1.0
 70
   688
 72
     1
 73
     0
 74
     5
  7

 75
    16
147
1.0
148
0.0
149
0.0
100
AcDbLayout
  1
Layout1
 70
     1
 71
     1
 10
0.0
 20
0.0
 11
420.0
 21
297.0
 12
0.0
 22
0.0
 32
0.0
 14
1.000000000000000E+20
 24
1.000000000000000E+20
 34
1.000000000000000E+20
 15
-1.000000000000000E+20
 25
-1.000000000000000E+20
 35
-1.000000000000000E+20
146
0.0
 13
0.0
 23
0.0
 33
0.0
 16
1.0
 26
0.0
 36
0.0
 17
0.0
 27
1.0
 37
0.0
 76
     0
330
1B
  0
LAYOUT
  5
26
102
{ACAD_REACTORS
330
1A
102
}
330
1A
100
AcDbPlotSettings
  1

  2
none_device
  4

  6

 40
0.0
 41
0.0
 42
0.0
 43
0.0
 44
0.0
 45
0.0
 46
0.0
 47
0.0
 48
0.0
 49
0.0
140
0.0
141
0.0
142
1.0
143
1.0
 70
   688
 72
     1
 73
     0
 74
     5
  7

 75
    16
147
1.0
148
0.0
149
0.0
100
AcDbLayout
  1
Layout2
 70
     1
 71
     2
 10
0.0
 20
0.0
 11
0.0
 21
0.0
 12
0.0
 22
0.0
 32
0.0
 14
0.0
 24
0.0
 34
0.0
 15
0.0
 25
0.0
 35
0.0
146
0.0
 13
0.0
 23
0.0
 33
0.0
 16
1.0
 26
0.0
 36
0.0
 17
0.0
 27
1.0
 37
0.0
 76
     0
330
23
  0
LAYOUT
  5
22
102
{ACAD_REACTORS
330
1A
102
}
330
1A
100
AcDbPlotSettings
  1

  2
none_device
  4
ANSI_A_(11.00_x_8.50_Inches)
  6

 40
6.35
 41
19.05
 42
6.35000508
 43
19.05000254
 44
279.4
 45
215.9
 46
110.2559363589861
 47
63.5402635944213
 48
0.0
 49
0.0
140
0.0
141
0.0
142
0.063277222282902
143
1.0
 70
  1696
 72
     0
 73
     0
 74
     0
  7

 75
     0
147
0.0235690232323232
148
0.0
149
0.0
100
AcDbLayout
  1
Model
 70
     1
 71
     0
 10
0.0
 20
0.0
 11
420.0
 21
297.0
 12
0.0
 22
0.0
 32
0.0
 14
1.000000000000000E+20
 24
1.000000000000000E+20
 34
1.000000000000000E+20
 15
-1.000000000000000E+20
 25
-1.000000000000000E+20
 35
-1.000000000000000E+20
146
0.0
 13
0.0
 23
0.0
 33
0.0
 16
1.0
 26
0.0
 36
0.0
 17
0.0
 27
1.0
 37
0.0
 76
     0
330
1F
331
29
  0
MLINESTYLE
  5
18
102
{ACAD_REACTORS
330
17
102
}
330
17
100
AcDbMlineStyle
  2
Standard
 70
     0
  3

 62
   256
 51
90.0
 52
90.0
 71
     2
 49
0.5
 62
   256
  6
BYLAYER
 49
-0.5
 62
   256
  6
BYLAYER
  0
ACDBPLACEHOLDER
  5
F
102
{ACAD_REACTORS
330
E
102
}
330
E
  0
SCALE
  5
48
102
{ACAD_REACTORS
330
47
102
}
330
47
100
AcDbScale
 70
     0
300
1:1
140
1.0
141
1.0
290
     1
  0
SCALE
  5
49
102
{ACAD_REACTORS
330
47
102
}
330
47
100
AcDbScale
 70
     0
300
1:2
140
1.0
141
2.0
290
     0
  0
SCALE
  5
4A
102
{ACAD_REACTORS
330
47
102
}
330
47
100
AcDbScale
 70
     0
300
1:4
140
1.0
141
4.0
290
     0
  0
SCALE
  5
4B
102
{ACAD_REACTORS
330
47
102
}
330
47
100
AcDbScale
 70
     0
300
1:5
140
1.0
141
5.0
290
     0
  0
SCALE
  5
4C
102
{ACAD_REACTORS
330
47
102
}
330
47
100
AcDbScale
 70
     0
300
1:8
140
1.0
141
8.0
290
     0
  0
SCALE
  5
4D
102
{ACAD_REACTORS
330
47
102
}
330
47
100
AcDbScale
 70
     0
300
1:10
140
1.0
141
10.0
290
     0
  0
SCALE
  5
4E
102
{ACAD_REACTORS
330
47
102
}
330
47
100
AcDbScale
 70
     0
300
1:16
140
1.0
141
16.0
290
     0
  0
SCALE
  5
4F
102
{ACAD_REACTORS
330
47
102
}
330
47
100
AcDbScale
 70
     0
300
1:20
140
1.0
141
20.0
290
     0
  0
SCALE
  5
50
102
{ACAD_REACTORS
330
47
102
}
330
47
100
AcDbScale
 70
     0
300
1:30
140
1.0
141
30.0
290
     0
  0
SCALE
  5
51
102
{ACAD_REACTORS
330
47
102
}
330
47
100
AcDbScale
 70
     0
300
1:40
140
1.0
141
40.0
290
     0
  0
SCALE
  5
52
102
{ACAD_REACTORS
330
47
102
}
330
47
100
AcDbScale
 70
     0
300
1:50
140
1.0
141
50.0
290
     0
  0
SCALE
  5
53
102
{ACAD_REACTORS
330
47
102
}
330
47
100
AcDbScale
 70
     0
300
1:100
140
1.0
141
100.0
290
     0
  0
SCALE
  5
54
102
{ACAD_REACTORS
330
47
102
}
330
47
100
AcDbScale
 70
     0
300
2:1
140
2.0
141
1.0
290
     0
  0
SCALE
  5
55
102
{ACAD_REACTORS
330
47
102
}
330
47
100
AcDbScale
 70
     0
300
4:1
140
4.0
141
1.0
290
     0
  0
SCALE
  5
56
102
{ACAD_REACTORS
330
47
102
}
330
47
100
AcDbScale
 70
     0
300
8:1
140
8.0
141
1.0
290
     0
  0
SCALE
  5
57
102
{ACAD_REACTORS
330
47
102
}
330
47
100
AcDbScale
 70
     0
300
10:1
140
10.0
141
1.0
290
     0
  0
SCALE
  5
58
102
{ACAD_REACTORS
330
47
102
}
330
47
100
AcDbScale
 70
     0
300
100:1
140
100.0
141
1.0
290
     0
  0
SCALE
  5
59
102
{ACAD_REACTORS
330
47
102
}
330
47
100
AcDbScale
 70
     0
300
1/128" = 1'-0"
140
0.0078125
141
12.0
290
     0
  0
SCALE
  5
5A
102
{ACAD_REACTORS
330
47
102
}
330
47
100
AcDbScale
 70
     0
300
1/64" = 1'-0"
140
0.015625
141
12.0
290
     0
  0
SCALE
  5
5B
102
{ACAD_REACTORS
330
47
102
}
330
47
100
AcDbScale
 70
     0
300
1/32" = 1'-0"
140
0.03125
141
12.0
290
     0
  0
SCALE
  5
5C
102
{ACAD_REACTORS
330
47
102
}
330
47
100
AcDbScale
 70
     0
300
1/16" = 1'-0"
140
0.0625
141
12.0
290
     0
  0
SCALE
  5
5D
102
{ACAD_REACTORS
330
47
102
}
330
47
100
AcDbScale
 70
     0
300
3/32" = 1'-0"
140
0.09375
141
12.0
290
     0
  0
SCALE
  5
5E
102
{ACAD_REACTORS
330
47
102
}
330
47
100
AcDbScale
 70
     0
300
1/8" = 1'-0"
140
0.125
141
12.0
290
     0
  0
SCALE
  5
5F
102
{ACAD_REACTORS
330
47
102
}
330
47
100
AcDbScale
 70
     0
300
3/16" = 1'-0"
140
0.1875
141
12.0
290
     0
  0
SCALE
  5
60
102
{ACAD_REACTORS
330
47
102
}
330
47
100
AcDbScale
 70
     0
300
1/4" = 1'-0"
140
0.25
141
12.0
290
     0
  0
SCALE
  5
61
102
{ACAD_REACTORS
330
47
102
}
330
47
100
AcDbScale
 70
     0
300
3/8" = 1'-0"
140
0.375
141
12.0
290
     0
  0
SCALE
  5
62
102
{ACAD_REACTORS
330
47
102
}
330
47
100
AcDbScale
 70
     0
300
1/2" = 1'-0"
140
0.5
141
12.0
290
     0
  0
SCALE
  5
63
102
{ACAD_REACTORS
330
47
102
}
330
47
100
AcDbScale
 70
     0
300
3/4" = 1'-0"
140
0.75
141
12.0
290
     0
  0
SCALE
  5
64
102
{ACAD_REACTORS
330
47
102
}
330
47
100
AcDbScale
 70
     0
300
1" = 1'-0"
140
1.0
141
12.0
290
     0
  0
SCALE
  5
65
102
{ACAD_REACTORS
330
47
102
}
330
47
100
AcDbScale
 70
     0
300
1-1/2" = 1'-0"
140
1.5
141
12.0
290
     0
  0
SCALE
  5
66
102
{ACAD_REACTORS
330
47
102
}
330
47
100
AcDbScale
 70
     0
300
3" = 1'-0"
140
3.0
141
12.0
290
     0
  0
SCALE
  5
67
102
{ACAD_REACTORS
330
47
102
}
330
47
100
AcDbScale
 70
     0
300
6" = 1'-0"
140
6.0
141
12.0
290
     0
  0
SCALE
  5
68
102
{ACAD_REACTORS
330
47
102
}
330
47
100
AcDbScale
 70
     0
300
1'-0" = 1'-0"
140
12.0
141
12.0
290
     0
  0
ENDSEC
  0
EOF
