  0
SECTION
  2
HEADER
  9
$ACADVER
  1
AC1015
  9
$ACADMAINTVER
 70
     6
  9
$DWGCODEPAGE
  3
ANSI_949
  9
$INSBASE
 10
0.0
 20
0.0
 30
0.0
  9
$EXTMIN
 10
1.000000000000000E+20
 20
1.000000000000000E+20
 30
1.000000000000000E+20
  9
$EXTMAX
 10
-1.000000000000000E+20
 20
-1.000000000000000E+20
 30
-1.000000000000000E+20
  9
$LIMMIN
 10
0.0
 20
0.0
  9
$LIMMAX
 10
420.0
 20
297.0
  9
$ORTHOMODE
 70
     1
  9
$REGENMODE
 70
     1
  9
$FILLMODE
 70
     1
  9
$QTEXTMODE
 70
     0
  9
$MIRRTEXT
 70
     1
  9
$LTSCALE
 40
1.0
  9
$ATTMODE
 70
     1
  9
$TEXTSIZE
 40
3.5
  9
$TRACEWID
 40
1.0
  9
$TEXTSTYLE
  7
Standard
  9
$CLAYER
  8
0
  9
$CELTYPE
  6
ByLayer
  9
$CECOLOR
 62
   256
  9
$CELTSCALE
 40
1.0
  9
$DISPSILH
 70
     0
  9
$DIMSCALE
 40
1.0
  9
$DIMASZ
 40
3.302
  9
$DIMEXO
 40
1.0
  9
$DIMDLI
 40
3.75
  9
$DIMRND
 40
0.0
  9
$DIMDLE
 40
0.0
  9
$DIMEXE
 40
1.0
  9
$DIMTP
 40
0.0
  9
$DIMTM
 40
0.0
  9
$DIMTXT
 40
3.5
  9
$DIMCEN
 40
2.5
  9
$DIMTSZ
 40
0.0
  9
$DIMTOL
 70
     0
  9
$DIMLIM
 70
     0
  9
$DIMTIH
 70
     1
  9
$DIMTOH
 70
     1
  9
$DIMSE1
 70
     0
  9
$DIMSE2
 70
     0
  9
$DIMTAD
 70
     1
  9
$DIMZIN
 70
     0
  9
$DIMBLK
  1

  9
$DIMASO
 70
     1
  9
$DIMSHO
 70
     1
  9
$DIMPOST
  1

  9
$DIMAPOST
  1

  9
$DIMALT
 70
     0
  9
$DIMALTD
 70
     3
  9
$DIMALTF
 40
0.0393700787401575
  9
$DIMLFAC
 40
1.0
  9
$DIMTOFL
 70
     1
  9
$DIMTVP
 40
0.0
  9
$DIMTIX
 70
     0
  9
$DIMSOXD
 70
     0
  9
$DIMSAH
 70
     0
  9
$DIMBLK1
  1

  9
$DIMBLK2
  1

  9
$DIMSTYLE
  2
ISO-25
  9
$DIMCLRD
 70
     0
  9
$DIMCLRE
 70
     0
  9
$DIMCLRT
 70
     0
  9
$DIMTFAC
 40
1.0
  9
$DIMGAP
 40
1.524
  9
$DIMJUST
 70
     0
  9
$DIMSD1
 70
     0
  9
$DIMSD2
 70
     0
  9
$DIMTOLJ
 70
     0
  9
$DIMTZIN
 70
     0
  9
$DIMALTZ
 70
     0
  9
$DIMALTTZ
 70
     0
  9
$DIMUPT
 70
     0
  9
$DIMDEC
 70
     2
  9
$DIMTDEC
 70
     2
  9
$DIMALTU
 70
     2
  9
$DIMALTTD
 70
     3
  9
$DIMTXSTY
  7
Standard
  9
$DIMAUNIT
 70
     0
  9
$DIMADEC
 70
     2
  9
$DIMALTRND
 40
0.0
  9
$DIMAZIN
 70
     0
  9
$DIMDSEP
 70
    44
  9
$DIMATFIT
 70
     3
  9
$DIMFRAC
 70
     0
  9
$DIMLDRBLK
  1

  9
$DIMLUNIT
 70
     2
  9
$DIMLWD
 70
    -2
  9
$DIMLWE
 70
    -2
  9
$DIMTMOVE
 70
     0
  9
$LUNITS
 70
     2
  9
$LUPREC
 70
     2
  9
$SKETCHINC
 40
1.0
  9
$FILLETRAD
 40
10.0
  9
$AUNITS
 70
     0
  9
$AUPREC
 70
     2
  9
$MENU
  1
.
  9
$ELEVATION
 40
0.0
  9
$PELEVATION
 40
0.0
  9
$THICKNESS
 40
0.0
  9
$LIMCHECK
 70
     0
  9
$CHAMFERA
 40
0.0
  9
$CHAMFERB
 40
0.0
  9
$CHAMFERC
 40
0.0
  9
$CHAMFERD
 40
0.0
  9
$SKPOLY
 70
     0
  9
$TDCREATE
 40
2458311.473427627
  9
$TDUCREATE
 40
2458311.098427627
  9
$TDUPDATE
 40
2458319.568866215
  9
$TDUUPDATE
 40
2458319.193866215
  9
$TDINDWG
 40
0.000815787
  9
$TDUSRTIMER
 40
2458319.193050683
  9
$USRTIMER
 70
     1
  9
$ANGBASE
 50
0.0
  9
$ANGDIR
 70
     0
  9
$PDMODE
 70
     0
  9
$PDSIZE
 40
-1.0
  9
$PLINEWID
 40
0.0
  9
$SPLFRAME
 70
     0
  9
$SPLINETYPE
 70
     6
  9
$SPLINESEGS
 70
     8
  9
$HANDSEED
  5
1E7
  9
$SURFTAB1
 70
     6
  9
$SURFTAB2
 70
     6
  9
$SURFTYPE
 70
     6
  9
$SURFU
 70
     6
  9
$SURFV
 70
     6
  9
$UCSBASE
  2

  9
$UCSNAME
  2

  9
$UCSORG
 10
0.0
 20
0.0
 30
0.0
  9
$UCSXDIR
 10
1.0
 20
0.0
 30
0.0
  9
$UCSYDIR
 10
0.0
 20
1.0
 30
0.0
  9
$UCSORTHOREF
  2

  9
$UCSORTHOVIEW
 70
     0
  9
$UCSORGTOP
 10
0.0
 20
0.0
 30
0.0
  9
$UCSORGBOTTOM
 10
0.0
 20
0.0
 30
0.0
  9
$UCSORGLEFT
 10
0.0
 20
0.0
 30
0.0
  9
$UCSORGRIGHT
 10
0.0
 20
0.0
 30
0.0
  9
$UCSORGFRONT
 10
0.0
 20
0.0
 30
0.0
  9
$UCSORGBACK
 10
0.0
 20
0.0
 30
0.0
  9
$PUCSBASE
  2

  9
$PUCSNAME
  2

  9
$PUCSORG
 10
0.0
 20
0.0
 30
0.0
  9
$PUCSXDIR
 10
1.0
 20
0.0
 30
0.0
  9
$PUCSYDIR
 10
0.0
 20
1.0
 30
0.0
  9
$PUCSORTHOREF
  2

  9
$PUCSORTHOVIEW
 70
     0
  9
$PUCSORGTOP
 10
0.0
 20
0.0
 30
0.0
  9
$PUCSORGBOTTOM
 10
0.0
 20
0.0
 30
0.0
  9
$PUCSORGLEFT
 10
0.0
 20
0.0
 30
0.0
  9
$PUCSORGRIGHT
 10
0.0
 20
0.0
 30
0.0
  9
$PUCSORGFRONT
 10
0.0
 20
0.0
 30
0.0
  9
$PUCSORGBACK
 10
0.0
 20
0.0
 30
0.0
  9
$USERI1
 70
     0
  9
$USERI2
 70
     0
  9
$USERI3
 70
     0
  9
$USERI4
 70
     0
  9
$USERI5
 70
     0
  9
$USERR1
 40
0.0
  9
$USERR2
 40
0.0
  9
$USERR3
 40
0.0
  9
$USERR4
 40
0.0
  9
$USERR5
 40
0.0
  9
$WORLDVIEW
 70
     1
  9
$SHADEDGE
 70
     3
  9
$SHADEDIF
 70
    70
  9
$TILEMODE
 70
     1
  9
$MAXACTVP
 70
    64
  9
$PINSBASE
 10
0.0
 20
0.0
 30
0.0
  9
$PLIMCHECK
 70
     0
  9
$PEXTMIN
 10
1.000000000000000E+20
 20
1.000000000000000E+20
 30
1.000000000000000E+20
  9
$PEXTMAX
 10
-1.000000000000000E+20
 20
-1.000000000000000E+20
 30
-1.000000000000000E+20
  9
$PLIMMIN
 10
0.0
 20
0.0
  9
$PLIMMAX
 10
0.0
 20
0.0
  9
$UNITMODE
 70
     0
  9
$VISRETAIN
 70
     1
  9
$PLINEGEN
 70
     0
  9
$PSLTSCALE
 70
     1
  9
$TREEDEPTH
 70
  3020
  9
$CMLSTYLE
  2
Standard
  9
$CMLJUST
 70
     0
  9
$CMLSCALE
 40
20.0
  9
$PROXYGRAPHICS
 70
     1
  9
$MEASUREMENT
 70
     1
  9
$CELWEIGHT
370
    -1
  9
$ENDCAPS
280
     0
  9
$JOINSTYLE
280
     0
  9
$LWDISPLAY
290
     1
  9
$INSUNITS
 70
     4
  9
$HYPERLINKBASE
  1

  9
$STYLESHEET
  1

  9
$XEDIT
290
     1
  9
$CEPSNTYPE
380
     0
  9
$PSTYLEMODE
290
     1
  9
$FINGERPRINTGUID
  2
{6FEC5BD7-F83E-4BDB-990B-F707AC684A9E}
  9
$VERSIONGUID
  2
{FAEB1C32-E019-11D5-929B-00C0DF256EC4}
  9
$EXTNAMES
290
     1
  9
$PSVPSCALE
 40
0.0
  9
$OLESTARTUP
290
     0
  0
ENDSEC
  0
SECTION
  2
CLASSES
  0
CLASS
  1
ACDBDICTIONARYWDFLT
  2
AcDbDictionaryWithDefault
  3
ObjectDBX Classes
 90
        0
280
     0
281
     0
  0
CLASS
  1
VISUALSTYLE
  2
AcDbVisualStyle
  3
ObjectDBX Classes
 90
     4095
280
     0
281
     0
  0
CLASS
  1
MATERIAL
  2
AcDbMaterial
  3
ObjectDBX Classes
 90
     1153
280
     0
281
     0
  0
CLASS
  1
SCALE
  2
AcDbScale
  3
ObjectDBX Classes
 90
     1153
280
     0
281
     0
  0
CLASS
  1
SUN
  2
AcDbSun
  3
SCENEOE
 90
     1153
280
     0
281
     0
  0
CLASS
  1
ACDBPLACEHOLDER
  2
AcDbPlaceHolder
  3
ObjectDBX Classes
 90
        0
280
     0
281
     0
  0
CLASS
  1
LAYOUT
  2
AcDbLayout
  3
ObjectDBX Classes
 90
        0
280
     0
281
     0
  0
CLASS
  1
TABLESTYLE
  2
AcDbTableStyle
  3
ObjectDBX Classes
 90
     4095
280
     0
281
     0
  0
CLASS
  1
MLEADERSTYLE
  2
AcDbMLeaderStyle
  3
ACDB_MLEADERSTYLE_CLASS
 90
     4095
280
     0
281
     0
  0
CLASS
  1
RASTERVARIABLES
  2
AcDbRasterVariables
  3
ISM
 90
        0
280
     0
281
     0
  0
ENDSEC
  0
SECTION
  2
TABLES
  0
TABLE
  2
VPORT
  5
8
330
0
100
AcDbSymbolTable
 70
     1
  0
VPORT
  5
29
330
8
100
AcDbSymbolTableRecord
100
AcDbViewportTableRecord
  2
*Active
 70
     0
 10
0.0
 20
0.0
 11
1.0
 21
1.0
 12
5.185793494708875
 22
-11.86554234557304
 13
0.0
 23
0.0
 14
10.0
 24
10.0
 15
10.0
 25
10.0
 16
0.0
 26
0.0
 36
1.0
 17
0.0
 27
0.0
 37
0.0
 40
133.7292974866122
 41
1.632093933463796
 42
50.0
 43
0.0
 44
0.0
 50
0.0
 51
0.0
 71
    16
 72
  2000
 73
     1
 74
     3
 75
     0
 76
     0
 77
     0
 78
     0
281
     0
 65
     1
110
0.0
120
0.0
130
0.0
111
1.0
121
0.0
131
0.0
112
0.0
122
1.0
132
0.0
 79
     0
146
0.0
  0
ENDTAB
  0
TABLE
  2
LTYPE
  5
5
330
0
100
AcDbSymbolTable
 70
     6
  0
LTYPE
  5
14
330
5
100
AcDbSymbolTableRecord
100
AcDbLinetypeTableRecord
  2
ByBlock
 70
     0
  3

 72
    65
 73
     0
 40
0.0
  0
LTYPE
  5
15
330
5
100
AcDbSymbolTableRecord
100
AcDbLinetypeTableRecord
  2
ByLayer
 70
     0
  3

 72
    65
 73
     0
 40
0.0
  0
LTYPE
  5
16
330
5
100
AcDbSymbolTableRecord
100
AcDbLinetypeTableRecord
  2
Continuous
 70
     0
  3
Solid line
 72
    65
 73
     0
 40
0.0
  0
LTYPE
  5
6A
330
5
100
AcDbSymbolTableRecord
100
AcDbLinetypeTableRecord
  2
HIDDEN
 70
     0
  3
Hidden __ __ __ __ __ __ __ __ __ __ __ __ __ __
 72
    65
 73
     2
 40
1.905
 49
1.27
 74
     0
 49
-0.635
 74
     0
  0
LTYPE
  5
6B
330
5
100
AcDbSymbolTableRecord
100
AcDbLinetypeTableRecord
  2
PHANTOM
 70
     0
  3
Phantom ______  __  __  ______  __  __  ______
 72
    65
 73
     6
 40
12.7
 49
6.35
 74
     0
 49
-1.27
 74
     0
 49
1.27
 74
     0
 49
-1.27
 74
     0
 49
1.27
 74
     0
 49
-1.27
 74
     0
  0
LTYPE
  5
6C
330
5
100
AcDbSymbolTableRecord
100
AcDbLinetypeTableRecord
  2
CENTER
 70
     0
  3
Center ____ _ ____ _ ____ _ ____ _ ____ _ ____
 72
    65
 73
     4
 40
10.16
 49
6.35
 74
     0
 49
-1.27
 74
     0
 49
1.27
 74
     0
 49
-1.27
 74
     0
  0
LTYPE
  5
6D
330
5
100
AcDbSymbolTableRecord
100
AcDbLinetypeTableRecord
  2
CENTERX2
 70
     0
  3
Center (2x) ________  __  ________  __  _____
 72
    65
 73
     4
 40
20.32
 49
12.7
 74
     0
 49
-2.54
 74
     0
 49
2.54
 74
     0
 49
-2.54
 74
     0
  0
LTYPE
  5
6E
330
5
100
AcDbSymbolTableRecord
100
AcDbLinetypeTableRecord
  2
DOT2
 70
     0
  3
Dot (.5x) ........................................
 72
    65
 73
     2
 40
0.635
 49
0.0
 74
     0
 49
-0.635
 74
     0
  0
ENDTAB
  0
TABLE
  2
LAYER
  5
2
102
{ACAD_XDICTIONARY
360
17A
102
}
330
0
100
AcDbSymbolTable
 70
    18
  0
LAYER
  5
10
330
2
100
AcDbSymbolTableRecord
100
AcDbLayerTableRecord
  2
0
 70
     0
 62
     7
  6
Continuous
370
    -3
390
F
  0
LAYER
  5
6F
330
2
100
AcDbSymbolTableRecord
100
AcDbLayerTableRecord
  2
FORMAT
 70
     0
 62
     2
  6
Continuous
370
    -3
390
F
  0
LAYER
  5
70
330
2
100
AcDbSymbolTableRecord
100
AcDbLayerTableRecord
  2
외형선
 70
     0
 62
     4
  6
Continuous
370
    30
390
F
  0
LAYER
  5
71
330
2
100
AcDbSymbolTableRecord
100
AcDbLayerTableRecord
  2
숨은선
 70
     0
 62
     2
  6
HIDDEN
370
    15
390
F
  0
LAYER
  5
72
330
2
100
AcDbSymbolTableRecord
100
AcDbLayerTableRecord
  2
중심선
 70
     0
 62
     1
  6
CENTERX2
370
    -3
390
F
  0
LAYER
  5
73
330
2
100
AcDbSymbolTableRecord
100
AcDbLayerTableRecord
  2
파단선
 70
     0
 62
     4
  6
Continuous
370
    -3
390
F
  0
LAYER
  5
74
330
2
100
AcDbSymbolTableRecord
100
AcDbLayerTableRecord
  2
해칭선
 70
     0
 62
   100
  6
Continuous
370
    -3
390
F
  0
LAYER
  5
75
330
2
100
AcDbSymbolTableRecord
100
AcDbLayerTableRecord
  2
가는실선
 70
     0
 62
     4
  6
Continuous
370
    -3
390
F
  0
LAYER
  5
76
330
2
100
AcDbSymbolTableRecord
100
AcDbLayerTableRecord
  2
치수_보조선
 70
     0
 62
     4
  6
Continuous
370
    -3
390
F
  0
LAYER
  5
77
330
2
100
AcDbSymbolTableRecord
100
AcDbLayerTableRecord
  2
치수문자_일반주서
 70
     0
 62
     7
  6
Continuous
370
    15
390
F
  0
LAYER
  5
78
330
2
100
AcDbSymbolTableRecord
100
AcDbLayerTableRecord
  2
개별주서
 70
     0
 62
   100
  6
Continuous
370
    30
390
F
  0
LAYER
  5
79
330
2
100
AcDbSymbolTableRecord
100
AcDbLayerTableRecord
  2
중간선
 70
     0
 62
     2
  6
Continuous
370
    15
390
F
  0
LAYER
  5
7A
330
2
100
AcDbSymbolTableRecord
100
AcDbLayerTableRecord
  2
윤곽선
 70
     0
 62
     3
  6
Continuous
370
    40
390
F
  0
LAYER
  5
7B
330
2
100
AcDbSymbolTableRecord
100
AcDbLayerTableRecord
  2
중심마크
 70
     0
 62
   100
  6
Continuous
370
    30
390
F
  0
LAYER
  5
7C
330
2
100
AcDbSymbolTableRecord
100
AcDbLayerTableRecord
  2
가상선
 70
     0
 62
     4
  6
PHANTOM
370
    -3
390
F
  0
LAYER
  5
7D
330
2
100
AcDbSymbolTableRecord
100
AcDbLayerTableRecord
  2
특수지정선
 70
     0
 62
     5
  6
CENTERX2
370
    60
390
F
  0
LAYER
  5
7E
330
2
100
AcDbSymbolTableRecord
100
AcDbLayerTableRecord
  2
참조1
 70
     0
 62
    -4
  6
Continuous
370
    -3
390
F
  0
LAYER
  5
1B3
330
2
100
AcDbSymbolTableRecord
100
AcDbLayerTableRecord
  2
Defpoints
 70
     0
 62
     7
  6
Continuous
290
     0
370
    -3
390
F
  0
ENDTAB
  0
TABLE
  2
STYLE
  5
3
330
0
100
AcDbSymbolTable
 70
     2
  0
STYLE
  5
11
330
3
100
AcDbSymbolTableRecord
100
AcDbTextStyleTableRecord
  2
Standard
 70
     0
 40
0.0
 41
1.0
 50
0.0
 71
     0
 42
3.5
  3
txt
  4

  0
STYLE
  5
94
330
3
100
AcDbSymbolTableRecord
100
AcDbTextStyleTableRecord
  2
SLDTEXTSTYLE0
 70
     0
 40
0.0
 41
0.75
 50
0.0
 71
     0
 42
3.5
  3
TXT
  4

  0
ENDTAB
  0
TABLE
  2
VIEW
  5
6
330
0
100
AcDbSymbolTable
 70
     0
  0
ENDTAB
  0
TABLE
  2
UCS
  5
7
330
0
100
AcDbSymbolTable
 70
     0
  0
ENDTAB
  0
TABLE
  2
APPID
  5
9
330
0
100
AcDbSymbolTable
 70
     1
  0
APPID
  5
12
330
9
100
AcDbSymbolTableRecord
100
AcDbRegAppTableRecord
  2
ACAD
 70
     0
  0
ENDTAB
  0
TABLE
  2
DIMSTYLE
  5
A
330
0
100
AcDbSymbolTable
 70
     4
100
AcDbDimStyleTable
  0
DIMSTYLE
105
27
330
A
100
AcDbSymbolTableRecord
100
AcDbDimStyleTableRecord
  2
ISO-25
 70
     0
 41
2.5
 42
0.625
 43
3.75
 44
1.25
 73
     0
 74
     0
 77
     1
 78
     8
140
2.5
141
2.5
143
0.03937007874016
147
0.625
171
     3
172
     1
178
     0
271
     2
272
     2
274
     3
278
    44
283
     0
284
     8
340
11
  0
DIMSTYLE
105
D2
102
{ACAD_REACTORS
330
D1
330
E6
330
FB
330
10F
102
}
330
A
100
AcDbSymbolTableRecord
100
AcDbDimStyleTableRecord
  2
SLDDIMSTYLE0
 70
     0
 41
3.302
 44
0.0
 45
0.000000001
 73
     0
 74
     0
 77
     1
 78
    12
 79
     3
140
3.5
143
0.0393700787401575
147
0.875
148
0.000000001
170
     1
172
     1
173
     1
178
     0
271
     2
272
     2
276
     2
284
    12
289
     0
340
94
  0
DIMSTYLE
105
E7
330
A
100
AcDbSymbolTableRecord
100
AcDbDimStyleTableRecord
  2
SLDDIMSTYLE1
 70
     0
 41
3.302
 44
0.0
 45
0.000000001
 73
     0
 74
     0
 77
     1
 78
     4
 79
     1
140
3.5
143
0.0393700787401575
147
0.875
148
0.000000001
170
     1
173
     1
178
     0
271
     2
272
     2
276
     2
284
    12
340
94
  0
DIMSTYLE
105
FC
330
A
100
AcDbSymbolTableRecord
100
AcDbDimStyleTableRecord
  2
SLDDIMSTYLE2
 70
     0
 41
3.302
 44
0.0
 45
0.000000001
 73
     0
 74
     0
 77
     1
 78
    12
 79
     3
140
3.5
143
0.0393700787401575
147
0.875
148
0.000000001
170
     1
173
     1
178
     0
271
     2
272
     2
276
     2
284
    12
340
94
  0
ENDTAB
  0
TABLE
  2
BLOCK_RECORD
  5
1
330
0
100
AcDbSymbolTable
 70
    10
  0
BLOCK_RECORD
  5
1F
330
1
100
AcDbSymbolTableRecord
100
AcDbBlockTableRecord
  2
*Model_Space
340
22
  0
BLOCK_RECORD
  5
1B
330
1
100
AcDbSymbolTableRecord
100
AcDbBlockTableRecord
  2
*Paper_Space
340
1E
  0
BLOCK_RECORD
  5
23
330
1
100
AcDbSymbolTableRecord
100
AcDbBlockTableRecord
  2
*Paper_Space0
340
26
  0
BLOCK_RECORD
  5
7F
330
1
100
AcDbSymbolTableRecord
100
AcDbBlockTableRecord
  2
블럭10
340
0
102
{BLKREFS
331
CA
102
}
  0
BLOCK_RECORD
  5
D3
330
1
100
AcDbSymbolTableRecord
100
AcDbBlockTableRecord
  2
_D
340
0
  0
BLOCK_RECORD
  5
E8
330
1
100
AcDbSymbolTableRecord
100
AcDbBlockTableRecord
  2
_D_1
340
0
  0
BLOCK_RECORD
  5
FD
330
1
100
AcDbSymbolTableRecord
100
AcDbBlockTableRecord
  2
_D_2
340
0
  0
BLOCK_RECORD
  5
110
330
1
100
AcDbSymbolTableRecord
100
AcDbBlockTableRecord
  2
_D_3
340
0
  0
BLOCK_RECORD
  5
129
330
1
100
AcDbSymbolTableRecord
100
AcDbBlockTableRecord
  2
SW_DOWELSYMBOL_0
340
0
102
{BLKREFS
331
12F
102
}
  0
ENDTAB
  0
ENDSEC
  0
SECTION
  2
BLOCKS
  0
BLOCK
  5
20
330
1F
100
AcDbEntity
  8
0
100
AcDbBlockBegin
  2
*Model_Space
 70
     0
 10
0.0
 20
0.0
 30
0.0
  3
*Model_Space
  1
*Model_Space
  0
ENDBLK
  5
21
330
1F
100
AcDbEntity
  8
0
100
AcDbBlockEnd
  0
BLOCK
  5
1C
330
1B
100
AcDbEntity
 67
     1
  8
0
100
AcDbBlockBegin
  2
*Paper_Space
 70
     0
 10
0.0
 20
0.0
 30
0.0
  3
*Paper_Space
  1
*Paper_Space
  0
ENDBLK
  5
1D
330
1B
100
AcDbEntity
 67
     1
  8
0
100
AcDbBlockEnd
  0
BLOCK
  5
24
330
23
100
AcDbEntity
  8
0
100
AcDbBlockBegin
  2
*Paper_Space0
 70
     0
 10
0.0
 20
0.0
 30
0.0
  3
*Paper_Space0
  1
*Paper_Space0
  0
ENDBLK
  5
25
330
23
100
AcDbEntity
  8
0
100
AcDbBlockEnd
  0
BLOCK
  5
80
330
7F
100
AcDbEntity
  8
0
100
AcDbBlockBegin
  2
블럭10
 70
     2
 10
0.0
 20
0.0
 30
0.0
  3
블럭10
  1
블럭10
  0
ELLIPSE
  5
82
330
7F
100
AcDbEntity
  8
중심선
100
AcDbEllipse
 10
20.54032771741204
 20
12.0471743016438
 30
0.0
 11
6.600054785286829
 21
-1.261213355974178E-13
 31
0.0
210
0.0
220
0.0
230
1.0
 40
0.636358354079598
 41
0.9219305317359503
 42
6.513795318482858
  0
ELLIPSE
  5
83
330
7F
100
AcDbEntity
  8
중심선
100
AcDbEllipse
 10
20.54032771746488
 20
12.04717430159265
 30
0.0
 11
3.960054785062283
 21
1.540847449632565E-10
 31
0.0
210
0.0
220
0.0
230
1.0
 40
0.3939339440162632
 41
1.131841032648279
 42
5.62031148352944
  0
LINE
  5
84
330
7F
100
AcDbEntity
  8
중심선
100
AcDbLine
 10
2.268634060543552
 20
16.24717430164393
 30
0.0
 11
5.714909304380834
 21
16.24717430164393
 31
0.0
  0
LINE
  5
85
330
7F
100
AcDbEntity
  8
중심선
100
AcDbLine
 10
5.245725140726316
 20
7.84717430164391
 30
0.0
 11
8.692000384563599
 21
7.84717430164391
 31
0.0
  0
LINE
  5
86
330
7F
100
AcDbEntity
  8
중심선
100
AcDbLine
 10
15.74043728645272
 20
16.24717430164393
 30
0.0
 11
8.692000384563599
 21
7.84717430164391
 31
0.0
  0
LINE
  5
87
330
7F
100
AcDbEntity
  8
중심선
100
AcDbLine
 10
0.1404042013395286
 20
13.71084872107135
 30
0.0
 11
3.58671253028996
 21
13.71088815037384
 31
0.0
  0
LINE
  5
88
330
7F
100
AcDbEntity
  8
중심선
100
AcDbLine
 10
2.750260043222114
 20
10.84717430164391
 30
0.0
 11
6.196535287059397
 21
10.84717430164391
 31
0.0
  0
LINE
  5
89
330
7F
100
AcDbEntity
  8
중심선
100
AcDbLine
 10
12.29416204261559
 20
16.24717430164393
 30
0.0
 11
5.245725140726316
 21
7.84717430164391
 31
0.0
  0
LINE
  5
8A
330
7F
100
AcDbEntity
  8
중심선
100
AcDbLine
 10
10.72767329541681
 20
16.24717430164393
 30
0.0
 11
6.196535287059397
 21
10.84717430164391
 31
0.0
  0
LINE
  5
8B
330
7F
100
AcDbEntity
  8
중심선
100
AcDbLine
 10
7.28139805157953
 20
16.24717430164393
 30
0.0
 11
2.750260043222114
 21
10.84717430164391
 31
0.0
  0
LINE
  5
8C
330
7F
100
AcDbEntity
  8
중심선
100
AcDbLine
 10
5.714909304380834
 20
16.24717430164393
 30
0.0
 11
3.58671253028996
 21
13.71088815037384
 31
0.0
  0
LINE
  5
8D
330
7F
100
AcDbEntity
  8
중심선
100
AcDbLine
 10
2.268634060543552
 20
16.24717430164393
 30
0.0
 11
0.1404042013395286
 21
13.71084872107135
 31
0.0
  0
LINE
  5
8E
330
7F
100
AcDbEntity
  8
중심선
100
AcDbLine
 10
7.28139805157953
 20
16.24717430164393
 30
0.0
 11
10.72767329541681
 21
16.24717430164393
 31
0.0
  0
LINE
  5
8F
330
7F
100
AcDbEntity
  8
중심선
100
AcDbLine
 10
12.29416204261559
 20
16.24717430164393
 30
0.0
 11
15.74043728645272
 21
16.24717430164393
 31
0.0
  0
LINE
  5
90
330
7F
100
AcDbEntity
  8
중심선
100
AcDbLine
 10
19.22036997980202
 20
11.08717430171403
 30
0.0
 11
23.66174974927406
 21
11.08717430171406
 31
0.0
  0
LINE
  5
91
330
7F
100
AcDbEntity
  8
중심선
100
AcDbLine
 10
19.22039502424796
 20
13.00717430171391
 30
0.0
 11
19.22036997980202
 21
11.08717430171403
 31
0.0
  0
LINE
  5
92
330
7F
100
AcDbEntity
  8
중심선
100
AcDbLine
 10
19.22039502424796
 20
13.00717430171391
 30
0.0
 11
26.96566020931264
 21
13.00717430171391
 31
0.0
  0
LINE
  5
93
330
7F
100
AcDbEntity
  8
중심선
100
AcDbLine
 10
22.22332737316547
 20
13.45928029700563
 30
0.0
 11
24.52862924686651
 21
15.39360700705356
 31
0.0
  0
ATTDEF
  5
95
330
7F
100
AcDbEntity
  8
FORMAT
 62
     2
100
AcDbText
 10
4.408487351596664
 20
2.075366912832191
 30
0.0
 40
4.233333333333333
  1
E1163056
 41
0.75
  7
SLDTEXTSTYLE0
 11
4.408487351596664
 21
-0.0412997538344756
 31
0.0
100
AcDbAttributeDefinition
  3

  2
AUTOATTR0
 70
     0
 74
     1
  0
ENDBLK
  5
81
330
7F
100
AcDbEntity
  8
0
100
AcDbBlockEnd
  0
BLOCK
  5
D4
330
D3
100
AcDbEntity
  8
0
100
AcDbBlockBegin
  2
_D
 70
     0
 10
0.0
 20
0.0
 30
0.0
  3
_D
  1
_D
  0
LINE
  5
D6
330
D3
100
AcDbEntity
  8
치수문자_일반주서
 62
     0
370
    -2
100
AcDbLine
 10
-44.21249999999997
 20
11.1125
 30
0.0
 11
-57.65000000000002
 21
11.11249999999995
 31
0.0
  0
LINE
  5
D7
330
D3
100
AcDbEntity
  8
치수문자_일반주서
 62
     0
370
    -2
100
AcDbLine
 10
-44.21249999999997
 20
-11.1125
 30
0.0
 11
-57.64999999999994
 21
-11.11250000000005
 31
0.0
  0
LINE
  5
D8
330
D3
100
AcDbEntity
  8
치수문자_일반주서
 62
     0
370
    -2
100
AcDbLine
 10
-57.65000000000001
 20
7.810499999999946
 30
0.0
 11
-57.64999999999996
 21
-7.810500000000049
 31
0.0
  0
SOLID
  5
D9
330
D3
100
AcDbEntity
  8
치수문자_일반주서
 62
     0
100
AcDbTrace
 10
-57.09966666666667
 20
7.810499999999948
 30
0.0
 11
-58.20033333333334
 21
7.810499999999944
 31
0.0
 12
-57.65000000000002
 22
11.11249999999995
 32
0.0
 13
-57.65000000000002
 23
11.11249999999995
 33
0.0
  0
SOLID
  5
DA
330
D3
100
AcDbEntity
  8
치수문자_일반주서
 62
     0
100
AcDbTrace
 10
-58.20033333333329
 20
-7.810500000000051
 30
0.0
 11
-57.09966666666662
 21
-7.810500000000047
 31
0.0
 12
-57.64999999999994
 22
-11.11250000000005
 32
0.0
 13
-57.64999999999994
 23
-11.11250000000005
 33
0.0
  0
MTEXT
  5
DB
330
D3
100
AcDbEntity
  8
치수문자_일반주서
 62
     0
100
AcDbMText
 10
-62.02499999999998
 20
-0.0000000000000177
 30
0.0
 40
3.5
 41
0.0
 71
     2
 72
     1
  1
\A1;%%c22.23 [7/8]
  7
SLDTEXTSTYLE0
 11
-3.516746948643917E-15
 21
1.0
 31
0.0
 73
     1
 44
1.0
  0
POINT
  5
DC
330
D3
100
AcDbEntity
  8
Defpoints
 62
     0
100
AcDbPoint
 10
-44.14999999999997
 20
11.1125
 30
0.0
  0
POINT
  5
DD
330
D3
100
AcDbEntity
  8
Defpoints
 62
     0
100
AcDbPoint
 10
-44.14999999999997
 20
-11.1125
 30
0.0
  0
POINT
  5
DE
330
D3
100
AcDbEntity
  8
Defpoints
 62
     0
100
AcDbPoint
 10
-57.64999999999994
 20
-11.11250000000005
 30
0.0
  0
ENDBLK
  5
D5
330
D3
100
AcDbEntity
  8
0
100
AcDbBlockEnd
  0
BLOCK
  5
E9
330
E8
100
AcDbEntity
  8
0
100
AcDbBlockBegin
  2
_D_1
 70
     0
 10
0.0
 20
0.0
 30
0.0
  3
_D_1
  1
_D_1
  0
LINE
  5
EB
330
E8
100
AcDbEntity
  8
치수문자_일반주서
 62
     0
370
    -2
100
AcDbLine
 10
50.10000000000002
 20
11.17500000000001
 30
0.0
 11
50.10000000000002
 21
24.27944961506234
 31
0.0
  0
LINE
  5
EC
330
E8
100
AcDbEntity
  8
치수문자_일반주서
 62
     0
370
    -2
100
AcDbLine
 10
12.0
 20
8.74078267845591
 30
0.0
 11
12.0
 21
24.27944961506234
 31
0.0
  0
LINE
  5
ED
330
E8
100
AcDbEntity
  8
치수문자_일반주서
 62
     0
370
    -2
100
AcDbLine
 10
46.79800000000002
 20
24.27944961506234
 30
0.0
 11
15.302
 21
24.27944961506234
 31
0.0
  0
SOLID
  5
EE
330
E8
100
AcDbEntity
  8
치수문자_일반주서
 62
     0
100
AcDbTrace
 10
46.79800000000002
 20
23.72911628172901
 30
0.0
 11
46.79800000000002
 21
24.82978294839568
 31
0.0
 12
50.10000000000002
 22
24.27944961506234
 32
0.0
 13
50.10000000000002
 23
24.27944961506234
 33
0.0
  0
SOLID
  5
EF
330
E8
100
AcDbEntity
  8
치수문자_일반주서
 62
     0
100
AcDbTrace
 10
15.302
 20
24.82978294839568
 30
0.0
 11
15.302
 21
23.72911628172901
 31
0.0
 12
12.0
 22
24.27944961506234
 32
0.0
 13
12.0
 23
24.27944961506234
 33
0.0
  0
MTEXT
  5
F0
330
E8
100
AcDbEntity
  8
치수문자_일반주서
 62
     0
100
AcDbMText
 10
31.05
 20
28.65444961506234
 30
0.0
 40
3.5
 41
0.0
 71
     2
 72
     1
  1
\A1;38.1 [1 1/2]
  7
SLDTEXTSTYLE0
 73
     1
 44
1.0
  0
POINT
  5
F1
330
E8
100
AcDbEntity
  8
Defpoints
 62
     0
100
AcDbPoint
 10
50.10000000000002
 20
11.11250000000001
 30
0.0
  0
POINT
  5
F2
330
E8
100
AcDbEntity
  8
Defpoints
 62
     0
100
AcDbPoint
 10
12.0
 20
8.67828267845591
 30
0.0
  0
POINT
  5
F3
330
E8
100
AcDbEntity
  8
Defpoints
 62
     0
100
AcDbPoint
 10
12.0
 20
24.27944961506234
 30
0.0
  0
ENDBLK
  5
EA
330
E8
100
AcDbEntity
  8
0
100
AcDbBlockEnd
  0
BLOCK
  5
FE
330
FD
100
AcDbEntity
  8
0
100
AcDbBlockBegin
  2
_D_2
 70
     0
 10
0.0
 20
0.0
 30
0.0
  3
_D_2
  1
_D_2
  0
LINE
  5
100
330
FD
100
AcDbEntity
  8
치수문자_일반주서
 62
     0
370
    -2
100
AcDbLine
 10
50.10000000000002
 20
11.17500000000001
 30
0.0
 11
50.10000000000001
 21
41.07063497472359
 31
0.0
  0
LINE
  5
101
330
FD
100
AcDbEntity
  8
치수문자_일반주서
 62
     0
370
    -2
100
AcDbLine
 10
-45.14999999999999
 20
10.17499999999999
 30
0.0
 11
-45.15
 21
41.07063497472359
 31
0.0
  0
LINE
  5
102
330
FD
100
AcDbEntity
  8
치수문자_일반주서
 62
     0
370
    -2
100
AcDbLine
 10
46.79800000000001
 20
41.07063497472359
 30
0.0
 11
-41.848
 21
41.07063497472359
 31
0.0
  0
SOLID
  5
103
330
FD
100
AcDbEntity
  8
치수문자_일반주서
 62
     0
100
AcDbTrace
 10
46.79800000000001
 20
40.52030164139025
 30
0.0
 11
46.79800000000001
 21
41.62096830805692
 31
0.0
 12
50.10000000000001
 22
41.07063497472359
 32
0.0
 13
50.10000000000001
 23
41.07063497472359
 33
0.0
  0
SOLID
  5
104
330
FD
100
AcDbEntity
  8
치수문자_일반주서
 62
     0
100
AcDbTrace
 10
-41.848
 20
41.62096830805692
 30
0.0
 11
-41.848
 21
40.52030164139025
 31
0.0
 12
-45.15
 22
41.07063497472359
 32
0.0
 13
-45.15
 23
41.07063497472359
 33
0.0
  0
MTEXT
  5
105
330
FD
100
AcDbEntity
  8
치수문자_일반주서
 62
     0
100
AcDbMText
 10
2.474999999999868
 20
45.44563497472359
 30
0.0
 40
3.5
 41
0.0
 71
     2
 72
     1
  1
\A1;95.25 [3 3/4]
  7
SLDTEXTSTYLE0
 73
     1
 44
1.0
  0
POINT
  5
106
330
FD
100
AcDbEntity
  8
Defpoints
 62
     0
100
AcDbPoint
 10
50.10000000000002
 20
11.11250000000001
 30
0.0
  0
POINT
  5
107
330
FD
100
AcDbEntity
  8
Defpoints
 62
     0
100
AcDbPoint
 10
-45.14999999999999
 20
10.11249999999999
 30
0.0
  0
POINT
  5
108
330
FD
100
AcDbEntity
  8
Defpoints
 62
     0
100
AcDbPoint
 10
-45.14999999999999
 20
41.07063497472359
 30
0.0
  0
ENDBLK
  5
FF
330
FD
100
AcDbEntity
  8
0
100
AcDbBlockEnd
  0
BLOCK
  5
111
330
110
100
AcDbEntity
  8
0
100
AcDbBlockBegin
  2
_D_3
 70
     0
 10
0.0
 20
0.0
 30
0.0
  3
_D_3
  1
_D_3
  0
LINE
  5
113
330
110
100
AcDbEntity
  8
치수문자_일반주서
 62
     0
370
    -2
100
AcDbLine
 10
50.16250000000002
 20
-11.1125
 30
0.0
 11
72.37714649907957
 21
-11.11249999999992
 31
0.0
  0
LINE
  5
114
330
110
100
AcDbEntity
  8
치수문자_일반주서
 62
     0
370
    -2
100
AcDbLine
 10
50.16250000000002
 20
11.11250000000001
 30
0.0
 11
72.3771464990795
 21
11.11250000000008
 31
0.0
  0
LINE
  5
115
330
110
100
AcDbEntity
  8
치수문자_일반주서
 62
     0
370
    -2
100
AcDbLine
 10
72.3771464990795
 20
11.11250000000008
 30
0.0
 11
72.37714649907939
 21
46.81025000000008
 31
0.0
  0
LINE
  5
116
330
110
100
AcDbEntity
  8
치수문자_일반주서
 62
     0
370
    -2
100
AcDbLine
 10
72.37714649907957
 20
-11.11249999999992
 30
0.0
 11
72.3771464990795
 21
11.11250000000008
 31
0.0
  0
LINE
  5
117
330
110
100
AcDbEntity
  8
치수문자_일반주서
 62
     0
370
    -2
100
AcDbLine
 10
72.37714649907959
 20
-14.41449999999992
 30
0.0
 11
72.3771464990796
 21
-17.71649999999992
 31
0.0
  0
LINE
  5
118
330
110
100
AcDbEntity
  8
치수문자_일반주서
 62
     0
370
    -2
100
AcDbLine
 10
72.37714649907949
 20
14.41450000000008
 30
0.0
 11
72.37714649907947
 21
17.71650000000008
 31
0.0
  0
SOLID
  5
119
330
110
100
AcDbEntity
  8
치수문자_일반주서
 62
     0
100
AcDbTrace
 10
72.92747983241291
 20
-14.41449999999992
 30
0.0
 11
71.82681316574626
 21
-14.41449999999992
 31
0.0
 12
72.37714649907957
 22
-11.11249999999992
 32
0.0
 13
72.37714649907957
 23
-11.11249999999992
 33
0.0
  0
SOLID
  5
11A
330
110
100
AcDbEntity
  8
치수문자_일반주서
 62
     0
100
AcDbTrace
 10
71.82681316574616
 20
14.41450000000008
 30
0.0
 11
72.92747983241281
 21
14.41450000000008
 31
0.0
 12
72.3771464990795
 22
11.11250000000008
 32
0.0
 13
72.3771464990795
 23
11.11250000000008
 33
0.0
  0
MTEXT
  5
11B
330
110
100
AcDbEntity
  8
치수문자_일반주서
 62
     0
100
AcDbMText
 10
68.00214649907943
 20
32.37275000000007
 30
0.0
 40
3.5
 41
0.0
 71
     2
 72
     1
  1
\A1;%%c22.23 [7/8]
  7
SLDTEXTSTYLE0
 11
-3.197042680585377E-15
 21
1.0
 31
0.0
 73
     1
 44
1.0
  0
POINT
  5
11C
330
110
100
AcDbEntity
  8
Defpoints
 62
     0
100
AcDbPoint
 10
50.10000000000002
 20
-11.1125
 30
0.0
  0
POINT
  5
1B7
330
110
100
AcDbEntity
  8
Defpoints
 62
     0
100
AcDbPoint
 10
50.10000000000002
 20
11.11250000000001
 30
0.0
  0
POINT
  5
1B8
330
110
100
AcDbEntity
  8
Defpoints
 62
     0
100
AcDbPoint
 10
72.37714649907949
 20
11.11250000000009
 30
0.0
  0
ENDBLK
  5
112
330
110
100
AcDbEntity
  8
0
100
AcDbBlockEnd
  0
BLOCK
  5
12A
330
129
100
AcDbEntity
  8
0
100
AcDbBlockBegin
  2
SW_DOWELSYMBOL_0
 70
     0
 10
0.0
 20
0.0
 30
0.0
  3
SW_DOWELSYMBOL_0
  1
SW_DOWELSYMBOL_0
  0
CIRCLE
  5
12C
330
129
100
AcDbEntity
  8
해칭선
 62
     0
100
AcDbCircle
 10
0.0
 20
0.0
 30
0.0
 40
2.999999999999996
  0
HATCH
  5
12D
330
129
100
AcDbEntity
  8
0
  6
Continuous
 62
     0
370
     0
100
AcDbHatch
 10
0.0
 20
0.0
 30
0.0
210
0.0
220
0.0
230
1.0
  2
SOLID
 70
     1
 71
     0
 91
        1
 92
        0
 93
        3
 72
     2
 10
0.0
 20
0.0
 40
2.999999999999996
 50
0.0
 51
90.0
 73
     1
 72
     1
 10
0.0
 20
2.999999999999996
 11
0.0
 21
0.0
 72
     1
 10
0.0
 20
0.0
 11
2.999999999999996
 21
0.0
 97
        0
 75
     0
 76
     1
 98
        1
 10
0.0
 20
0.0
  0
HATCH
  5
12E
330
129
100
AcDbEntity
  8
0
  6
Continuous
 62
     0
370
     0
100
AcDbHatch
 10
0.0
 20
0.0
 30
0.0
210
0.0
220
0.0
230
1.0
  2
SOLID
 70
     1
 71
     0
 91
        1
 92
        0
 93
        3
 72
     2
 10
0.0
 20
0.0
 40
2.999999999999996
 50
180.0
 51
270.0000000000008
 73
     1
 72
     1
 10
0.0
 20
-2.999999999999996
 11
0.0
 21
0.0
 72
     1
 10
0.0
 20
0.0
 11
-2.999999999999996
 21
0.0
 97
        0
 75
     0
 76
     1
 98
        1
 10
0.0
 20
0.0
  0
ENDBLK
  5
12B
330
129
100
AcDbEntity
  8
0
100
AcDbBlockEnd
  0
ENDSEC
  0
SECTION
  2
ENTITIES
  0
LINE
  5
96
330
1F
100
AcDbEntity
  8
외형선
  6
Continuous
370
    15
100
AcDbLine
 10
8.950112339999738
 20
11.1125
 30
0.0
 11
-10.91092499999983
 21
11.1125
 31
0.0
  0
LINE
  5
97
330
1F
100
AcDbEntity
  8
외형선
  6
Continuous
370
    15
100
AcDbLine
 10
-44.14999999999998
 20
-11.11250000000001
 30
0.0
 11
8.950112339999738
 21
-11.1125
 31
0.0
  0
LINE
  5
99
330
1F
100
AcDbEntity
  8
외형선
  6
Continuous
370
    15
100
AcDbLine
 10
-45.14999999999999
 20
-10.1125
 30
0.0
 11
-44.14999999999998
 21
-11.1125
 31
0.0
  0
SPLINE
  5
9A
330
1F
100
AcDbEntity
  8
외형선
  6
Continuous
370
    15
100
AcDbSpline
210
0.0
220
0.0
230
1.0
 70
     8
 71
     3
 72
     9
 73
     5
 74
     0
 42
0.000000001
 43
0.00000001
 40
0.0
 40
0.0
 40
0.0
 40
0.0
 40
0.4532296105446606
 40
1.0
 40
1.0
 40
1.0
 40
1.0
 10
12.00000000000001
 20
8.677353441369219
 30
0.0
 10
11.62013603036361
 20
8.678617727553831
 30
0.0
 10
10.78200903954344
 20
8.681407232376992
 30
0.0
 10
9.911718284627325
 20
8.699577432222569
 30
0.0
 10
9.435869069622461
 20
8.709512359468615
 30
0.0
  0
SPLINE
  5
9B
330
1F
100
AcDbEntity
  8
외형선
  6
Continuous
370
    15
100
AcDbSpline
210
0.0
220
0.0
230
1.0
 70
     8
 71
     3
 72
    17
 73
    13
 74
     0
 42
0.000000001
 43
0.00000001
 40
0.0
 40
0.0
 40
0.0
 40
0.0
 40
0.0070801997622609
 40
0.0156204795691281
 40
0.0394629476657554
 40
0.128173538411997
 40
0.499846899053988
 40
0.8714155085394594
 40
0.9601566875853113
 40
0.9841234724266871
 40
0.9927736443398496
 40
1.0
 40
1.0
 40
1.0
 40
1.0
 10
9.437977331210002
 20
8.709115208070676
 30
0.0
 10
9.43699049837564
 20
8.709248915340426
 30
0.0
 10
9.434813327865642
 20
8.709543903016687
 30
0.0
 10
9.427956393858183
 20
8.712470053590241
 30
0.0
 10
9.405387378976865
 20
8.72645463476421
 30
0.0
 10
9.316377368076157
 20
8.800012640173613
 30
0.0
 10
9.174224841609902
 20
8.939756795051894
 30
0.0
 10
9.037968361788906
 20
9.0852176310914
 30
0.0
 10
8.966596320182854
 20
9.17574912926451
 30
0.0
 10
8.953203147268544
 20
9.198393077278215
 30
0.0
 10
8.950460472973383
 20
9.205185019126617
 30
0.0
 10
8.950221232585102
 20
9.20729550277428
 30
0.0
 10
8.950112339999741
 20
9.208256109895867
 30
0.0
  0
SPLINE
  5
9C
330
1F
100
AcDbEntity
  8
외형선
  6
Continuous
370
    15
100
AcDbSpline
210
0.0
220
0.0
230
1.0
 70
     8
 71
     3
 72
     9
 73
     5
 74
     0
 42
0.000000001
 43
0.00000001
 40
0.0
 40
0.0
 40
0.0
 40
0.0
 40
0.5557258566730712
 40
1.0
 40
1.0
 40
1.0
 40
1.0
 10
8.95015530372103
 20
-8.722072887632768
 30
0.0
 10
9.525106504483617
 20
-8.707997139440796
 30
0.0
 10
10.5597015190194
 20
-8.682668556969869
 30
0.0
 10
11.55694881284883
 20
-8.678988427663944
 30
0.0
 10
12.0
 20
-8.677353441369217
 30
0.0
  0
SPLINE
  5
9D
330
1F
100
AcDbEntity
  8
0
  6
Continuous
 62
     1
370
    15
100
AcDbSpline
210
0.0
220
0.0
230
1.0
 70
     8
 71
     3
 72
    10
 73
     6
 74
     0
 42
0.000000001
 43
0.00000001
 40
0.0
 40
0.0
 40
0.0
 40
0.0
 40
0.4445681398274284
 40
0.6329316365054466
 40
1.0
 40
1.0
 40
1.0
 40
1.0
 10
21.30957293890914
 20
2.84762148642887
 30
0.0
 10
20.85298693124676
 20
3.065035994683061
 30
0.0
 10
20.20294545695798
 20
3.37456901826583
 30
0.0
 10
19.17586732650287
 20
3.892873898908249
 30
0.0
 10
18.60499153938979
 20
4.191845755314375
 30
0.0
 10
18.22771674483775
 20
4.389427345300641
 30
0.0
  0
SPLINE
  5
9E
330
1F
100
AcDbEntity
  8
0
  6
Continuous
 62
     1
370
    15
100
AcDbSpline
210
0.0
220
0.0
230
1.0
 70
     8
 71
     3
 72
    11
 73
     7
 74
     0
 42
0.000000001
 43
0.00000001
 40
0.0
 40
0.0
 40
0.0
 40
0.0
 40
0.207978010234194
 40
0.4421152572616898
 40
0.7057429624271575
 40
1.0
 40
1.0
 40
1.0
 40
1.0
 10
17.63605829202672
 20
8.830423404703728
 30
0.0
 10
17.26377638010756
 20
8.811062879354848
 30
0.0
 10
16.47238736221727
 20
8.769906683871959
 30
0.0
 10
15.14181276524759
 20
8.72031094521616
 30
0.0
 10
13.63274474338207
 20
8.686368380987618
 30
0.0
 10
12.56381067376465
 20
8.680466432056095
 30
0.0
 10
12.0
 20
8.677353441369215
 30
0.0
  0
SPLINE
  5
9F
330
1F
100
AcDbEntity
  8
0
  6
Continuous
 62
     1
370
    15
100
AcDbSpline
210
0.0
220
0.0
230
1.0
 70
     8
 71
     3
 72
    32
 73
    28
 74
     0
 42
0.000000001
 43
0.00000001
 40
0.0
 40
0.0
 40
0.0
 40
0.0
 40
0.049700691582551
 40
0.090303175986702
 40
0.1234814475420963
 40
0.1384787196109482
 40
0.1532334887429685
 40
0.2092107076729124
 40
0.2597159595456517
 40
0.2903278114869579
 40
0.322351466101969
 40
0.3687891846562804
 40
0.4124229742939707
 40
0.4484154276664455
 40
0.4871550393084442
 40
0.5464233307097035
 40
0.611528736580307
 40
0.6710074531500759
 40
0.725596725157269
 40
0.7790389395219639
 40
0.8050385925332261
 40
0.8268157198277921
 40
0.8487224255935049
 40
0.8743742800737987
 40
0.9057309478538681
 40
0.9474057635960819
 40
1.0
 40
1.0
 40
1.0
 40
1.0
 10
45.97153672060329
 20
7.600422930998311
 30
0.0
 10
45.74489742744756
 20
7.578440037273664
 30
0.0
 10
45.33310742365354
 20
7.538498437720327
 30
0.0
 10
44.6576523901668
 20
7.46476532911031
 30
0.0
 10
44.08411155558014
 20
7.421046215694884
 30
0.0
 10
43.65177163468876
 20
7.402110447359193
 30
0.0
 10
43.07952997531748
 20
7.389314656294219
 30
0.0
 10
42.26984589656132
 20
7.365805464428366
 30
0.0
 10
41.32924105958428
 20
7.337238875139001
 30
0.0
 10
40.56750726050794
 20
7.321715034398917
 30
0.0
 10
39.85802401490492
 20
7.313170613364753
 30
0.0
 10
39.05115818434349
 20
7.311602798225488
 30
0.0
 10
38.22021060353548
 20
7.319870567965181
 30
0.0
 10
37.43891638593315
 20
7.33573821992498
 30
0.0
 10
36.55525754866678
 20
7.362378628426385
 30
0.0
 10
35.47871621308359
 20
7.408579373150705
 30
0.0
 10
34.26383163061232
 20
7.47990405723447
 30
0.0
 10
33.08251487567571
 20
7.568281287047471
 30
0.0
 10
31.9789989093089
 20
7.666296023135295
 30
0.0
 10
31.08548139030179
 20
7.757110259002118
 30
0.0
 10
30.41544894589887
 20
7.831905302582093
 30
0.0
 10
29.97626317742149
 20
7.883471802664637
 30
0.0
 10
29.52366687692052
 20
7.938597402070405
 30
0.0
 10
28.9898623285153
 20
8.006838985943553
 30
0.0
 10
28.32290446941351
 20
8.095181813525436
 30
0.0
 10
27.49675191141635
 20
8.212484524281452
 30
0.0
 10
26.89426500407439
 20
8.305946655664853
 30
0.0
 10
26.55812776588631
 20
8.358090697859877
 30
0.0
  0
SPLINE
  5
A0
330
1F
100
AcDbEntity
  8
0
  6
Continuous
 62
     1
370
    15
100
AcDbSpline
210
0.0
220
0.0
230
1.0
 70
     8
 71
     3
 72
    19
 73
    15
 74
     0
 42
0.000000001
 43
0.00000001
 40
0.0
 40
0.0
 40
0.0
 40
0.0
 40
0.0812880142025597
 40
0.1640726016301637
 40
0.2433300113712321
 40
0.316128233733405
 40
0.3814454017110201
 40
0.4447637786950936
 40
0.5087135530643767
 40
0.6282090804902705
 40
0.7392456080330959
 40
0.8369985797045781
 40
0.9365362344442099
 40
1.0
 40
1.0
 40
1.0
 40
1.0
 10
26.55812776588631
 20
-8.358090697859877
 30
0.0
 10
26.74092254742792
 20
-8.328277054086357
 30
0.0
 10
27.10987749935002
 20
-8.268100875027445
 30
0.0
 10
27.81869741334292
 20
-8.162616646341528
 30
0.0
 10
28.48791975388646
 20
-8.073542979115578
 30
0.0
 10
29.11411298908372
 20
-7.990502544053582
 30
0.0
 10
29.68323190837511
 20
-7.918816199671231
 30
0.0
 10
30.22115078651566
 20
-7.854255631883239
 30
0.0
 10
30.91258221101582
 20
-7.775844555445502
 30
0.0
 10
31.73791128606302
 20
-7.690009413288816
 30
0.0
 10
32.65753913863879
 20
-7.605188142262842
 30
0.0
 10
33.49769150411171
 20
-7.536804598446584
 30
0.0
 10
34.19790923689677
 20
-7.484125792969391
 30
0.0
 10
34.65926811981729
 20
-7.457398534539719
 30
0.0
 10
34.8388958306046
 20
-7.446992413784108
 30
0.0
  0
SPLINE
  5
A1
330
1F
100
AcDbEntity
  8
0
  6
Continuous
 62
     1
370
    15
100
AcDbSpline
210
0.0
220
0.0
230
1.0
 70
     8
 71
     3
 72
    11
 73
     7
 74
     0
 42
0.000000001
 43
0.00000001
 40
0.0
 40
0.0
 40
0.0
 40
0.0
 40
0.1991278213294126
 40
0.4319982054963127
 40
0.6993453011589921
 40
1.0
 40
1.0
 40
1.0
 40
1.0
 10
12.0
 20
-8.67735344136922
 30
0.0
 10
12.3780853283435
 20
-8.67897730094344
 30
0.0
 10
13.19832321513623
 20
-8.682500185979594
 30
0.0
 10
14.5156899067663
 20
-8.70630409057774
 30
0.0
 10
16.01661424804688
 20
-8.75091476741976
 30
0.0
 10
17.07554505686067
 20
-8.802904304137488
 30
0.0
 10
17.63605829202671
 20
-8.830423404703728
 30
0.0
  0
SPLINE
  5
A2
330
1F
100
AcDbEntity
  8
외형선
  6
Continuous
370
    15
100
AcDbSpline
210
0.0
220
0.0
230
1.0
 70
     8
 71
     3
 72
    10
 73
     6
 74
     0
 42
0.000000001
 43
0.00000001
 40
0.0
 40
0.0
 40
0.0
 40
0.0
 40
0.5000000000000002
 40
0.5000000000000002
 40
1.0
 40
1.0
 40
1.0
 40
1.0
 10
12.0
 20
7.40774741120595
 30
0.0
 10
11.49097887779417
 20
7.626614568170753
 30
0.0
 10
10.98112237716318
 20
7.837831103081534
 30
0.0
 10
9.96453529622092
 20
8.24299864368575
 30
0.0
 10
9.458813718985587
 20
8.436844371813411
 30
0.0
 10
8.950229989860565
 20
8.622029980079363
 30
0.0
  0
LINE
  5
A3
330
1F
100
AcDbEntity
  8
외형선
  6
Continuous
370
    15
100
AcDbLine
 10
12.0
 20
7.407747411205947
 30
0.0
 11
12.0
 21
4.831942169735824
 31
0.0
  0
SPLINE
  5
A4
330
1F
100
AcDbEntity
  8
외형선
  6
Continuous
370
    15
100
AcDbSpline
210
0.0
220
0.0
230
1.0
 70
     8
 71
     3
 72
    10
 73
     6
 74
     0
 42
0.000000001
 43
0.00000001
 40
0.0
 40
0.0
 40
0.0
 40
0.0
 40
0.5
 40
0.5
 40
1.0
 40
1.0
 40
1.0
 40
1.0
 10
12.0
 20
4.831942169735826
 30
0.0
 10
11.49095925262439
 20
5.096364493470372
 30
0.0
 10
10.98108306252866
 20
5.355862350573912
 30
0.0
 10
9.96445702816098
 20
5.862582882343803
 30
0.0
 10
9.45871588115231
 20
6.109658025974634
 30
0.0
 10
8.950112339999754
 20
6.350550062747215
 30
0.0
  0
LINE
  5
A5
330
1F
100
AcDbEntity
  8
외형선
  6
Continuous
370
    15
100
AcDbLine
 10
8.950112339999746
 20
8.622330425969308
 30
0.0
 11
8.950112339999738
 21
11.1125
 31
0.0
  0
LINE
  5
A6
330
1F
100
AcDbEntity
  8
외형선
  6
Continuous
370
    15
100
AcDbLine
 10
-44.14999999999998
 20
9.461499999999987
 30
0.0
 11
-44.14999999999998
 21
-11.11250000000001
 31
0.0
  0
LINE
  5
A7
330
1F
100
AcDbEntity
  8
외형선
  6
Continuous
370
    15
100
AcDbLine
 10
8.950112339999738
 20
-11.1125
 30
0.0
 11
8.950112339999754
 21
6.350551453890636
 31
0.0
  0
LINE
  5
A8
330
1F
100
AcDbEntity
  8
외형선
  6
Continuous
370
    15
100
AcDbLine
 10
-45.14999999999999
 20
9.461499999999987
 30
0.0
 11
-45.14999999999999
 21
-10.11250000000001
 31
0.0
  0
SPLINE
  5
A9
330
1F
100
AcDbEntity
  8
외형선
  6
Continuous
370
    15
100
AcDbSpline
210
0.0
220
0.0
230
1.0
 70
    24
 71
     3
 72
    10
 73
     6
 74
     0
 42
0.000000001
 43
0.00000001
 40
0.0
 40
0.0
 40
0.0
 40
0.0
 40
0.5
 40
0.5
 40
1.0
 40
1.0
 40
1.0
 40
1.0
 10
12.0
 20
4.831942169735822
 30
0.0
 10
12.0
 20
4.741428194083584
 30
0.0
 10
12.0
 20
4.534468936711316
 30
0.0
 10
12.0
 20
3.926966611916778
 30
0.0
 10
12.0
 20
3.528777107320651
 30
0.0
 10
12.0
 20
3.091561556538161
 30
0.0
  0
SPLINE
  5
AA
330
1F
100
AcDbEntity
  8
외형선
  6
Continuous
370
    15
100
AcDbSpline
210
0.0
220
0.0
230
1.0
 70
     8
 71
     3
 72
    10
 73
     6
 74
     0
 42
0.000000001
 43
0.00000001
 40
0.0
 40
0.0
 40
0.0
 40
0.0
 40
0.5
 40
0.5
 40
1.0
 40
1.0
 40
1.0
 40
1.0
 10
11.99999999999999
 20
3.091561556538166
 30
0.0
 10
11.49096398109224
 20
3.280172771215808
 30
0.0
 10
10.98109253495574
 20
3.465643871076437
 30
0.0
 10
9.96447588598258
 20
3.828570674967218
 30
0.0
 10
9.458739454102844
 20
4.00591937650617
 30
0.0
 10
8.95014068643829
 20
4.179226842907924
 30
0.0
  0
SPLINE
  5
AB
330
1F
100
AcDbEntity
  8
외형선
  6
Continuous
370
    15
100
AcDbSpline
210
0.0
220
0.0
230
1.0
 70
     8
 71
     3
 72
    10
 73
     6
 74
     0
 42
0.000000001
 43
0.00000001
 40
0.0
 40
0.0
 40
0.0
 40
0.0
 40
0.5
 40
0.5
 40
1.0
 40
1.0
 40
1.0
 40
1.0
 10
12.0
 20
-8.157726670497372
 30
0.0
 10
11.49096641940055
 20
-8.064367265767364
 30
0.0
 10
10.98109741956068
 20
-7.962400064549997
 30
0.0
 10
9.964485610313545
 20
-7.74223350057497
 30
0.0
 10
9.458751609861649
 20
-7.62413510326408
 30
0.0
 10
8.95015530372103
 20
-7.497966521888837
 30
0.0
  0
SPLINE
  5
AC
330
1F
100
AcDbEntity
  8
외형선
  6
Continuous
370
    15
100
AcDbSpline
210
0.0
220
0.0
230
1.0
 70
    24
 71
     3
 72
    14
 73
    10
 74
     0
 42
0.000000001
 43
0.00000001
 40
0.0
 40
0.0
 40
0.0
 40
0.0
 40
0.25
 40
0.25
 40
0.5
 40
0.5
 40
0.75
 40
0.75
 40
1.0
 40
1.0
 40
1.0
 40
1.0
 10
12.0
 20
3.09156155653816
 30
0.0
 10
12.0
 20
2.125667170529334
 30
0.0
 10
12.0
 20
1.105472076254889
 30
0.0
 10
12.0
 20
-0.9567277288386162
 30
0.0
 10
12.0
 20
-1.997772334493884
 30
0.0
 10
12.0
 20
-3.997095181905359
 30
0.0
 10
12.0
 20
-4.954308100860332
 30
0.0
 10
12.0
 20
-6.697082093066038
 30
0.0
 10
12.0
 20
-7.482131711942589
 30
0.0
 10
12.0
 20
-8.157726670497368
 30
0.0
  0
SPLINE
  5
AD
330
1F
100
AcDbEntity
  8
외형선
  6
Continuous
370
    15
100
AcDbSpline
210
0.0
220
0.0
230
1.0
 70
    24
 71
     3
 72
    14
 73
    10
 74
     0
 42
0.000000001
 43
0.00000001
 40
0.0
 40
0.0
 40
0.0
 40
0.0
 40
0.0645453061697868
 40
0.2459794996461765
 40
0.4326847489935098
 40
0.6193899983408431
 40
0.7833284972982645
 40
0.9472669962556859
 40
1.0
 40
1.0
 40
1.0
 40
1.0
 10
12.0
 20
8.667629223472238
 30
0.0
 10
12.0
 20
8.671695037469147
 30
0.0
 10
12.0
 20
8.687189686917126
 30
0.0
 10
12.0
 20
8.626688815006865
 30
0.0
 10
12.0
 20
8.482849061680454
 30
0.0
 10
12.0
 20
8.255292891322522
 30
0.0
 10
12.0
 20
7.959356144952441
 30
0.0
 10
12.0
 20
7.703262200006994
 30
0.0
 10
12.0
 20
7.52066617539809
 30
0.0
 10
12.0
 20
7.476226381842713
 30
0.0
  0
SPLINE
  5
AE
330
1F
100
AcDbEntity
  8
외형선
  6
Continuous
370
    15
100
AcDbSpline
210
0.0
220
0.0
230
1.0
 70
    24
 71
     3
 72
    10
 73
     6
 74
     0
 42
0.000000001
 43
0.00000001
 40
0.0
 40
0.0
 40
0.0
 40
0.0
 40
0.4045304211907553
 40
0.8090608423815105
 40
1.0
 40
1.0
 40
1.0
 40
1.0
 10
12.0
 20
-8.157726670497372
 30
0.0
 10
12.0
 20
-8.275613865264349
 30
0.0
 10
12.0
 20
-8.5113882547983
 30
0.0
 10
12.0
 20
-8.656934894240054
 30
0.0
 10
12.0
 20
-8.665032599112005
 30
0.0
 10
12.0
 20
-8.66762915316265
 30
0.0
  0
SPLINE
  5
AF
330
1F
100
AcDbEntity
  8
0
  6
Continuous
 62
     1
370
    15
100
AcDbSpline
210
0.0
220
0.0
230
1.0
 70
     8
 71
     3
 72
    50
 73
    46
 74
     0
 42
0.000000001
 43
0.00000001
 40
0.0
 40
0.0
 40
0.0
 40
0.0
 40
0.0625000000000001
 40
0.0625000000000001
 40
0.1250000000000003
 40
0.1250000000000003
 40
0.1562500000000003
 40
0.1562500000000003
 40
0.1875000000000004
 40
0.1875000000000004
 40
0.2500000000000003
 40
0.2500000000000003
 40
0.2812500000000003
 40
0.2812500000000003
 40
0.3125000000000002
 40
0.3125000000000002
 40
0.3437500000000002
 40
0.3437500000000002
 40
0.3750000000000002
 40
0.3750000000000002
 40
0.4374999999999998
 40
0.4374999999999998
 40
0.4999999999999996
 40
0.4999999999999996
 40
0.5624999999999992
 40
0.5624999999999992
 40
0.5937499999999992
 40
0.5937499999999992
 40
0.6249999999999991
 40
0.6249999999999991
 40
0.6874999999999993
 40
0.6874999999999993
 40
0.7187499999999993
 40
0.7187499999999993
 40
0.7499999999999994
 40
0.7499999999999994
 40
0.7812499999999996
 40
0.7812499999999996
 40
0.8124999999999996
 40
0.8124999999999996
 40
0.8749999999999997
 40
0.8749999999999997
 40
0.9374999999999999
 40
0.9374999999999999
 40
1.0
 40
1.0
 40
1.0
 40
1.0
 10
50.10000000000002
 20
-11.1125
 30
0.0
 10
49.30925155013441
 20
-11.08429388261008
 30
0.0
 10
48.5120781922135
 20
-11.03706699982465
 30
0.0
 10
46.92310038164948
 20
-10.88660281274129
 30
0.0
 10
46.1330576493957
 20
-10.78356795277192
 30
0.0
 10
44.9403191142536
 20
-10.58783879780453
 30
0.0
 10
44.54247473793089
 20
-10.51577249942561
 30
0.0
 10
43.74853898049227
 20
-10.35842772816313
 30
0.0
 10
43.35351074846441
 20
-10.2732360668802
 30
0.0
 10
42.16438549621027
 20
-9.997915222552336
 30
0.0
 10
41.3668296865231
 20
-9.787947541289164
 30
0.0
 10
40.17697323024661
 20
-9.436945199454287
 30
0.0
 10
39.78210731565305
 20
-9.314036526409932
 30
0.0
 10
38.98857238048691
 20
-9.056113593144627
 30
0.0
 10
38.59080675239726
 20
-8.921181483606876
 30
0.0
 10
37.79556039665091
 20
-8.640125562449073
 30
0.0
 10
37.39808112518384
 20
-8.494002275805489
 30
0.0
 10
36.605686154194
 20
-8.191442124870058
 30
0.0
 10
36.21044065456923
 20
-8.034974820464113
 30
0.0
 10
35.01917819293438
 20
-7.54977155109554
 30
0.0
 10
34.2218285597316
 20
-7.205706581487697
 30
0.0
 10
32.63901201811046
 20
-6.484385074352454
 30
0.0
 10
31.8433286281625
 20
-6.105600899476176
 30
0.0
 10
30.25382725041117
 20
-5.319081494050315
 30
0.0
 10
29.46398201120486
 20
-4.912068050358653
 30
0.0
 10
28.27145291571141
 20
-4.282999171711255
 30
0.0
 10
27.87355599621112
 20
-4.070370506027482
 30
0.0
 10
27.07927144266283
 20
-3.640460521848165
 30
0.0
 10
26.68388645596203
 20
-3.423365451507848
 30
0.0
 10
25.49557005814865
 20
-2.765566623269234
 30
0.0
 10
24.69806706693003
 20
-2.317867331104508
 30
0.0
 10
23.50755721683405
 20
-1.640232362668046
 30
0.0
 10
23.11265914700136
 20
-1.413533713620003
 30
0.0
 10
22.31957697258174
 20
-0.9579987654934531
 30
0.0
 10
21.92191628047285
 20
-0.7292605139518407
 30
0.0
 10
21.1266349056715
 20
-0.2711516747475572
 30
0.0
 10
20.72901567961699
 20
-0.0417819262441793
 30
0.0
 10
19.93609857839868
 20
0.416271953533027
 30
0.0
 10
19.54114554252886
 20
0.6448902013739926
 30
0.0
 10
18.35043209496613
 20
1.330199787873591
 30
0.0
 10
17.55295895927793
 20
1.785533609430822
 30
0.0
 10
15.96892572401648
 20
2.682723812997773
 30
0.0
 10
15.17456468387276
 20
3.126059436761446
 30
0.0
 10
13.58464414816233
 20
3.99474118293143
 30
0.0
 10
12.7948275070591
 20
4.419067291902857
 30
0.0
 10
11.99999999999999
 20
4.831942169735832
 30
0.0
  0
SPLINE
  5
B0
330
1F
100
AcDbEntity
  8
0
  6
Continuous
 62
     1
370
    15
100
AcDbSpline
210
0.0
220
0.0
230
1.0
 70
     8
 71
     3
 72
    11
 73
     7
 74
     0
 42
0.000000001
 43
0.00000001
 40
0.0
 40
0.0
 40
0.0
 40
0.0
 40
0.3102784338586806
 40
0.5403586627826317
 40
0.7702445952605136
 40
1.0
 40
1.0
 40
1.0
 40
1.0
 10
22.49426820188883
 20
-1.05800426623603
 30
0.0
 10
21.40882273008686
 20
-0.6205885571702582
 30
0.0
 10
19.51848876013548
 20
0.1411832640016576
 30
0.0
 10
16.82391103045633
 20
1.226898531509511
 30
0.0
 10
14.41131710989481
 20
2.182747354584949
 30
0.0
 10
12.80362018678325
 20
2.788680846353689
 30
0.0
 10
12.0
 20
3.091561556538161
 30
0.0
  0
SPLINE
  5
B1
330
1F
100
AcDbEntity
  8
외형선
  6
Continuous
370
    15
100
AcDbSpline
210
0.0
220
0.0
230
1.0
 70
    24
 71
     3
 72
    10
 73
     6
 74
     0
 42
0.000000001
 43
0.00000001
 40
0.0
 40
0.0
 40
0.0
 40
0.0
 40
0.5
 40
0.5
 40
1.0
 40
1.0
 40
1.0
 40
1.0
 10
12.0
 20
4.831942169735822
 30
0.0
 10
12.0
 20
4.741428194083584
 30
0.0
 10
12.0
 20
4.534468936711316
 30
0.0
 10
12.0
 20
3.926966611916778
 30
0.0
 10
12.0
 20
3.528777107320651
 30
0.0
 10
12.0
 20
3.091561556538161
 30
0.0
  0
SPLINE
  5
B2
330
1F
100
AcDbEntity
  8
0
  6
Continuous
 62
     1
370
    15
100
AcDbSpline
210
0.0
220
0.0
230
1.0
 70
     8
 71
     3
 72
    50
 73
    46
 74
     0
 42
0.000000001
 43
0.00000001
 40
0.0
 40
0.0
 40
0.0
 40
0.0
 40
0.0625000000000004
 40
0.0625000000000004
 40
0.1250000000000009
 40
0.1250000000000009
 40
0.1562500000000011
 40
0.1562500000000011
 40
0.1875000000000013
 40
0.1875000000000013
 40
0.2500000000000016
 40
0.2500000000000016
 40
0.2812500000000016
 40
0.2812500000000016
 40
0.3125000000000016
 40
0.3125000000000016
 40
0.3437500000000016
 40
0.3437500000000016
 40
0.3750000000000015
 40
0.3750000000000015
 40
0.4375000000000015
 40
0.4375000000000015
 40
0.5000000000000014
 40
0.5000000000000014
 40
0.5625000000000016
 40
0.5625000000000016
 40
0.5937500000000014
 40
0.5937500000000014
 40
0.6250000000000013
 40
0.6250000000000013
 40
0.687500000000001
 40
0.687500000000001
 40
0.7187500000000009
 40
0.7187500000000009
 40
0.7500000000000007
 40
0.7500000000000007
 40
0.7812500000000006
 40
0.7812500000000006
 40
0.8125000000000004
 40
0.8125000000000004
 40
0.8750000000000003
 40
0.8750000000000003
 40
0.9375000000000002
 40
0.9375000000000002
 40
1.0
 40
1.0
 40
1.0
 40
1.0
 10
50.10000000000002
 20
-10.54510540933949
 30
0.0
 10
49.30925155013433
 20
-10.40072170757811
 30
0.0
 10
48.51207819221337
 20
-10.22901157031479
 30
0.0
 10
46.92310038164923
 20
-9.834618404595275
 30
0.0
 10
46.13305764939538
 20
-9.612217098153778
 30
0.0
 10
44.94031911425318
 20
-9.24199017906506
 30
0.0
 10
44.54247473793041
 20
-9.112568108443133
 30
0.0
 10
43.7485389804917
 20
-8.842458575899425
 30
0.0
 10
43.35351074846384
 20
-8.701906001882747
 30
0.0
 10
42.16438549620959
 20
-8.263421082356578
 30
0.0
 10
41.36682968652235
 20
-7.948618473060892
 30
0.0
 10
40.17697323024577
 20
-7.448078544378061
 30
0.0
 10
39.78210731565218
 20
-7.276631380607055
 30
0.0
 10
38.98857238048597
 20
-6.924134490137111
 30
0.0
 10
38.59080675239627
 20
-6.743206374348987
 30
0.0
 10
37.79556039664987
 20
-6.373010235642735
 30
0.0
 10
37.39808112518277
 20
-6.183742898347756
 30
0.0
 10
36.60568615419286
 20
-5.797983682122824
 30
0.0
 10
36.21044065456805
 20
-5.601446470012415
 30
0.0
 10
35.0191781929331
 20
-5.000580227630667
 30
0.0
 10
34.22182855973023
 20
-4.585637760450284
 30
0.0
 10
32.63901201810899
 20
-3.736599053985749
 30
0.0
 10
31.84332862816096
 20
-3.300693833376524
 30
0.0
 10
30.25382725040949
 20
-2.414587340957703
 30
0.0
 10
29.4639820112031
 20
-1.965160262798509
 30
0.0
 10
28.27145291570955
 20
-1.283762208337947
 30
0.0
 10
27.87355599620921
 20
-1.055590398997798
 30
0.0
 10
27.07927144266088
 20
-0.5984796310294423
 30
0.0
 10
26.68388645596005
 20
-0.3697344725593451
 30
0.0
 10
25.49557005814655
 20
0.3171848860374651
 30
0.0
 10
24.69806706692785
 20
0.7765062060515812
 30
0.0
 10
23.50755721683178
 20
1.459665639544782
 30
0.0
 10
23.11265914699906
 20
1.686230373420596
 30
0.0
 10
22.31957697257937
 20
2.137549331574241
 30
0.0
 10
21.92191628047044
 20
2.362201211924284
 30
0.0
 10
21.12663490566904
 20
2.808193083266599
 30
0.0
 10
20.72901567961449
 20
3.029532257815584
 30
0.0
 10
19.93609857839612
 20
3.46763853931133
 30
0.0
 10
19.54114554252626
 20
3.684347669641765
 30
0.0
 10
18.35043209496342
 20
4.328081877304142
 30
0.0
 10
17.55295895927514
 20
4.747907969360866
 30
0.0
 10
15.96892572401359
 20
5.559347587338594
 30
0.0
 10
15.17456468386978
 20
5.952315454212586
 30
0.0
 10
13.58464414815922
 20
6.706065556462301
 30
0.0
 10
12.79482750705593
 20
7.06599020476063
 30
0.0
 10
11.99999999999674
 20
7.40774741120735
 30
0.0
  0
SPLINE
  5
B3
330
1F
100
AcDbEntity
  8
0
  6
Continuous
 62
     1
370
    15
100
AcDbSpline
210
0.0
220
0.0
230
1.0
 70
     8
 71
     3
 72
    19
 73
    15
 74
     0
 42
0.000000001
 43
0.00000001
 40
0.0
 40
0.0
 40
0.0
 40
0.0
 40
0.0892310466557505
 40
0.1783944186271907
 40
0.267549820412925
 40
0.3567570196985802
 40
0.4460071052826446
 40
0.5351826897946261
 40
0.6243343682422248
 40
0.7135219378374861
 40
0.8027772299181408
 40
0.8919692624446359
 40
0.9811214665010629
 40
1.0
 40
1.0
 40
1.0
 40
1.0
 10
50.10000000000002
 20
-8.767454287791804
 30
0.0
 10
49.24225724419646
 20
-8.59582573933212
 30
0.0
 10
47.52742226256065
 20
-8.252698809078629
 30
0.0
 10
44.95600536740488
 20
-7.548682249212792
 30
0.0
 10
42.38482203381493
 20
-6.721304039501927
 30
0.0
 10
39.8125593171801
 20
-5.771127411387292
 30
0.0
 10
37.23974973833793
 20
-4.719394868870688
 30
0.0
 10
34.66802997827211
 20
-3.58259736692065
 30
0.0
 10
32.09695321053199
 20
-2.382056142652599
 30
0.0
 10
29.52500114894877
 20
-1.139211213277832
 30
0.0
 10
26.95213214702808
 20
0.1243218652935259
 30
0.0
 10
24.38008916954407
 20
1.381753358807772
 30
0.0
 10
22.48462934334378
 20
2.303568952301844
 30
0.0
 10
21.44629934830539
 20
2.780857083313852
 30
0.0
 10
21.26484962355241
 20
2.864263900427708
 30
0.0
  0
LINE
  5
B4
330
1F
100
AcDbEntity
  8
0
  6
Continuous
 62
     1
370
    15
100
AcDbLine
 10
50.09999999999972
 20
-10.54510540933949
 30
0.0
 11
50.10000000000002
 21
-8.767454287791804
 31
0.0
  0
LINE
  5
B5
330
1F
100
AcDbEntity
  8
0
  6
Continuous
 62
     1
370
    15
100
AcDbLine
 10
50.10000000000002
 20
-11.1125
 30
0.0
 11
50.09999999999967
 21
-10.54510540933947
 31
0.0
  0
SPLINE
  5
B6
330
1F
100
AcDbEntity
  8
0
  6
Continuous
 62
     1
370
    15
100
AcDbSpline
210
0.0
220
0.0
230
1.0
 70
     8
 71
     3
 72
    10
 73
     6
 74
     0
 42
0.000000001
 43
0.00000001
 40
0.0
 40
0.0
 40
0.0
 40
0.0
 40
0.5
 40
0.5
 40
1.0
 40
1.0
 40
1.0
 40
1.0
 10
50.10000000000002
 20
-2.969737237754431
 30
0.0
 10
49.24442494795398
 20
-2.297114754807901
 30
0.0
 10
48.3999476495667
 20
-1.604994341207402
 30
0.0
 10
46.73286042874513
 20
-0.1823341551858992
 30
0.0
 10
45.91023187812836
 20
0.5481728888990827
 30
0.0
 10
45.10000000000155
 20
1.300459967753443
 30
0.0
  0
LINE
  5
B7
330
1F
100
AcDbEntity
  8
0
  6
Continuous
 62
     1
370
    15
100
AcDbLine
 10
45.10000000000001
 20
2.937719435296589
 30
0.0
 11
50.10000000000002
 21
0.0000000000000032
 31
0.0
  0
LINE
  5
B8
330
1F
100
AcDbEntity
  8
0
  6
Continuous
 62
     1
370
    15
100
AcDbLine
 10
50.10000000000002
 20
0.0000000000000032
 30
0.0
 11
50.10000000000002
 21
-2.969737237754426
 31
0.0
  0
SPLINE
  5
B9
330
1F
100
AcDbEntity
  8
0
  6
Continuous
 62
     1
370
    15
100
AcDbSpline
210
0.0
220
0.0
230
1.0
 70
     8
 71
     3
 72
    18
 73
    14
 74
     0
 42
0.000000001
 43
0.00000001
 40
0.0
 40
0.0
 40
0.0
 40
0.0
 40
0.0962256819453547
 40
0.1925016842610978
 40
0.2862041159987418
 40
0.3798272381749722
 40
0.4734249087982543
 40
0.567060784785304
 40
0.6607687574643943
 40
0.754409391764833
 40
0.8480076228366605
 40
0.9416271031282032
 40
1.0
 40
1.0
 40
1.0
 40
1.0
 10
45.09999999999955
 20
2.283536363151326
 30
0.0
 10
44.21908774452606
 20
2.672741792268167
 30
0.0
 10
42.45680256829639
 20
3.451356182043061
 30
0.0
 10
39.83650589789853
 20
4.532694162438667
 30
0.0
 10
37.23974676719598
 20
5.523781334987585
 30
0.0
 10
34.66800545469064
 20
6.407122333882341
 30
0.0
 10
32.09691387634894
 20
7.176234102297052
 30
0.0
 10
29.52494727448997
 20
7.817494892054849
 30
0.0
 10
26.95210312755011
 20
8.318603402434706
 30
0.0
 10
24.38006300772268
 20
8.673343129716653
 30
0.0
 10
21.80895129186691
 20
8.867430832179346
 30
0.0
 10
19.56069385157829
 20
8.91824085726693
 30
0.0
 10
18.16903137309233
 20
8.843513233861668
 30
0.0
 10
17.63456134339005
 20
8.814813979754849
 30
0.0
  0
SPLINE
  5
BA
330
1F
100
AcDbEntity
  8
0
  6
Continuous
 62
     1
370
    15
100
AcDbSpline
210
0.0
220
0.0
230
1.0
 70
    24
 71
     3
 72
     8
 73
     4
 74
     0
 42
0.000000001
 43
0.00000001
 40
0.0
 40
0.0
 40
0.0
 40
0.0
 40
1.0
 40
1.0
 40
1.0
 40
1.0
 10
45.10000000000002
 20
1.300459967734665
 30
0.0
 10
45.10000000000002
 20
1.631923426792385
 30
0.0
 10
45.10000000000001
 20
1.960107858705641
 30
0.0
 10
45.10000000000001
 20
2.283536363151125
 30
0.0
  0
SPLINE
  5
BB
330
1F
100
AcDbEntity
  8
0
  6
Continuous
 62
     1
370
    15
100
AcDbSpline
210
0.0
220
0.0
230
1.0
 70
    24
 71
     3
 72
    10
 73
     6
 74
     0
 42
0.000000001
 43
0.00000001
 40
0.0
 40
0.0
 40
0.0
 40
0.0
 40
0.5
 40
0.5
 40
1.0
 40
1.0
 40
1.0
 40
1.0
 10
50.10000000000002
 20
-8.7674542877918
 30
0.0
 10
50.10000000000002
 20
-8.09536056030478
 30
0.0
 10
50.10000000000002
 20
-7.246144364910634
 30
0.0
 10
50.10000000000002
 20
-5.271798438561933
 30
0.0
 10
50.10000000000002
 20
-4.148378960907683
 30
0.0
 10
50.10000000000002
 20
-2.969737237754786
 30
0.0
  0
SPLINE
  5
BC
330
1F
100
AcDbEntity
  8
외형선
  6
Continuous
370
    15
100
AcDbSpline
210
0.0
220
0.0
230
1.0
 70
    24
 71
     3
 72
    14
 73
    10
 74
     0
 42
0.000000001
 43
0.00000001
 40
0.0
 40
0.0
 40
0.0
 40
0.0
 40
0.064673047972051
 40
0.2460824655495974
 40
0.4327622192046207
 40
0.6194419728596441
 40
0.7833580850574977
 40
0.9472741972553513
 40
1.0
 40
1.0
 40
1.0
 40
1.0
 10
12.0
 20
8.667610682784739
 30
0.0
 10
12.0
 20
8.671686820767246
 30
0.0
 10
12.0
 20
8.687196621466436
 30
0.0
 10
12.0
 20
8.626693433017506
 30
0.0
 10
12.0
 20
8.482847803717512
 30
0.0
 10
12.0
 20
8.255293183657557
 30
0.0
 10
12.0
 20
7.959356068736845
 30
0.0
 10
12.0
 20
7.703262205087389
 30
0.0
 10
12.0
 20
7.520666176392521
 30
0.0
 10
12.0
 20
7.476226381842713
 30
0.0
  0
SPLINE
  5
BD
330
1F
100
AcDbEntity
  8
0
  6
Continuous
 62
     1
370
    15
100
AcDbSpline
210
0.0
220
0.0
230
1.0
 70
    24
 71
     3
 72
    10
 73
     6
 74
     0
 42
0.000000001
 43
0.00000001
 40
0.0
 40
0.0
 40
0.0
 40
0.0
 40
0.5
 40
0.5
 40
1.0
 40
1.0
 40
1.0
 40
1.0
 10
45.10000000000001
 20
2.283536363151126
 30
0.0
 10
45.09999999999999
 20
3.059531527112045
 30
0.0
 10
45.10000000000002
 20
3.796003738630713
 30
0.0
 10
45.10000000000001
 20
5.109618802043821
 30
0.0
 10
45.10000000000001
 20
5.68593737983019
 30
0.0
 10
45.10000000000001
 20
6.150941962892349
 30
0.0
  0
SPLINE
  5
BE
330
1F
100
AcDbEntity
  8
0
  6
Continuous
 62
     1
370
    15
100
AcDbSpline
210
0.0
220
0.0
230
1.0
 70
     8
 71
     3
 72
     9
 73
     5
 74
     0
 42
0.000000001
 43
0.00000001
 40
0.0
 40
0.0
 40
0.0
 40
0.0
 40
0.8301481652002786
 40
1.0
 40
1.0
 40
1.0
 40
1.0
 10
50.10000000000002
 20
7.778749999999995
 30
0.0
 10
48.95699869187576
 20
7.771239159712303
 30
0.0
 10
47.58013446927222
 20
7.762191569652424
 30
0.0
 10
46.20326845618121
 20
7.607169647030365
 30
0.0
 10
45.9694052375843
 20
7.580838889038827
 30
0.0
  0
SPLINE
  5
BF
330
1F
100
AcDbEntity
  8
0
  6
Continuous
 62
     1
370
    15
100
AcDbSpline
210
0.0
220
0.0
230
1.0
 70
     8
 71
     3
 72
     8
 73
     4
 74
     0
 42
0.000000001
 43
0.00000001
 40
0.0
 40
0.0
 40
0.0
 40
0.0
 40
1.0
 40
1.0
 40
1.0
 40
1.0
 10
50.10000000000002
 20
7.77875
 30
0.0
 10
48.41749199506564
 20
7.32259642802317
 30
0.0
 10
46.74835003005507
 20
6.785187056975847
 30
0.0
 10
45.10000000000002
 20
6.150941962891937
 30
0.0
  0
SPLINE
  5
C0
330
1F
100
AcDbEntity
  8
0
  6
Continuous
 62
     1
370
    15
100
AcDbSpline
210
0.0
220
0.0
230
1.0
 70
     8
 71
     3
 72
    13
 73
     9
 74
     0
 42
0.000000001
 43
0.00000001
 40
0.0
 40
0.0
 40
0.0
 40
0.0
 40
0.1497432754111842
 40
0.3262991586687312
 40
0.5028951246790436
 40
0.6687182178052195
 40
0.8344049200433643
 40
1.0
 40
1.0
 40
1.0
 40
1.0
 10
26.55999933575499
 20
-8.347954830036851
 30
0.0
 10
25.83322070896046
 20
-8.455966466679335
 30
0.0
 10
24.24952852772373
 20
-8.691329998471316
 30
0.0
 10
21.80895565928552
 20
-8.868473252499216
 30
0.0
 10
19.29031714986169
 20
-8.91194245542734
 30
0.0
 10
16.82386640885235
 20
-8.80056133201976
 30
0.0
 10
14.41130847969532
 20
-8.563593114334052
 30
0.0
 10
12.80362128106818
 20
-8.292990538345515
 30
0.0
 10
12.0
 20
-8.157726670497372
 30
0.0
  0
SPLINE
  5
C1
330
1F
100
AcDbEntity
  8
외형선
  6
Continuous
370
    15
100
AcDbSpline
210
0.0
220
0.0
230
1.0
 70
    24
 71
     3
 72
    14
 73
    10
 74
     0
 42
0.000000001
 43
0.00000001
 40
0.0
 40
0.0
 40
0.0
 40
0.0
 40
0.25
 40
0.25
 40
0.5
 40
0.5
 40
0.75
 40
0.75
 40
1.0
 40
1.0
 40
1.0
 40
1.0
 10
12.0
 20
3.09156155653816
 30
0.0
 10
12.0
 20
2.125667170529334
 30
0.0
 10
12.0
 20
1.105472076254889
 30
0.0
 10
12.0
 20
-0.9567277288386162
 30
0.0
 10
12.0
 20
-1.997772334493884
 30
0.0
 10
12.0
 20
-3.997095181905359
 30
0.0
 10
12.0
 20
-4.954308100860332
 30
0.0
 10
12.0
 20
-6.697082093066038
 30
0.0
 10
12.0
 20
-7.482131711942589
 30
0.0
 10
12.0
 20
-8.157726670497368
 30
0.0
  0
LINE
  5
C2
330
1F
100
AcDbEntity
  8
0
  6
Continuous
 62
     1
370
    15
100
AcDbLine
 10
50.10000000000002
 20
0.0000000000000032
 30
0.0
 11
50.10000000000002
 21
7.778750000000001
 31
0.0
  0
SPLINE
  5
C3
330
1F
100
AcDbEntity
  8
외형선
  6
Continuous
370
    15
100
AcDbSpline
210
0.0
220
0.0
230
1.0
 70
    24
 71
     3
 72
    10
 73
     6
 74
     0
 42
0.000000001
 43
0.00000001
 40
0.0
 40
0.0
 40
0.0
 40
0.0
 40
0.4048732201621056
 40
0.8097464403242113
 40
1.0
 40
1.0
 40
1.0
 40
1.0
 10
12.0
 20
-8.157726670497375
 30
0.0
 10
12.0
 20
-8.275609162642818
 30
0.0
 10
12.0
 20
-8.511374146933713
 30
0.0
 10
12.0
 20
-8.656855629854068
 30
0.0
 10
12.0
 20
-8.664966014305785
 30
0.0
 10
12.0
 20
-8.667558788760829
 30
0.0
  0
SPLINE
  5
C4
330
1F
100
AcDbEntity
  8
0
  6
Continuous
 62
     1
370
    15
100
AcDbSpline
210
0.0
220
0.0
230
1.0
 70
     8
 71
     3
 72
    13
 73
     9
 74
     0
 42
0.000000001
 43
0.00000001
 40
0.0
 40
0.0
 40
0.0
 40
0.0
 40
0.0843123351369832
 40
0.2674521732028575
 40
0.4505508493193843
 40
0.633648386826133
 40
0.8167848136880488
 40
1.0
 40
1.0
 40
1.0
 40
1.0
 10
34.84449860240129
 20
7.449397268765417
 30
0.0
 10
35.27328213126346
 20
7.636872722178185
 30
0.0
 10
36.63345186729857
 20
8.2315747590269
 30
0.0
 10
38.92450935984668
 20
9.058834569593632
 30
0.0
 10
41.71782665450542
 20
9.911001183846935
 30
0.0
 10
44.51111310332708
 20
10.54143167397297
 30
0.0
 10
47.30508951737485
 20
10.96925141072046
 30
0.0
 10
49.16822965783506
 20
11.05848266532557
 30
0.0
 10
50.10000000000002
 20
11.11250000000001
 30
0.0
  0
SPLINE
  5
C5
330
1F
100
AcDbEntity
  8
0
  6
Continuous
 62
     1
370
    15
100
AcDbSpline
210
0.0
220
0.0
230
1.0
 70
    24
 71
     3
 72
    10
 73
     6
 74
     0
 42
0.000000001
 43
0.00000001
 40
0.0
 40
0.0
 40
0.0
 40
0.0
 40
0.5
 40
0.5
 40
1.0
 40
1.0
 40
1.0
 40
1.0
 10
50.10000000000002
 20
7.778749999999998
 30
0.0
 10
50.10000000000002
 20
8.250278453771271
 30
0.0
 10
50.10000000000002
 20
8.798238185285836
 30
0.0
 10
50.1
 20
9.9478562261775
 30
0.0
 10
50.1
 20
10.54657855534385
 30
0.0
 10
50.10000000000002
 20
11.11250000000001
 30
0.0
  0
LINE
  5
C6
330
1F
100
AcDbEntity
  8
중심선
100
AcDbLine
 10
-48.15000000000001
 20
-0.0000000000000059
 30
0.0
 11
53.10000000000002
 21
0.0000000000000065
 31
0.0
  0
LINE
  5
C7
330
1F
100
AcDbEntity
  8
참조1
100
AcDbLine
 10
5.324261314031173
 20
0.0010749287238892
 30
0.0
 11
5.324261314031178
 21
-39.99892507127611
 31
0.0
  0
LINE
  5
C8
330
1F
100
AcDbEntity
  8
참조1
100
AcDbLine
 10
5.324261314031178
 20
-39.99892507127611
 30
0.0
 11
-20.15080122126847
 21
-39.9989250712761
 31
0.0
  0
CIRCLE
  5
C9
330
1F
100
AcDbEntity
  8
해칭선
100
AcDbCircle
 10
0.0
 20
0.0
 30
0.0
 40
2.999999999999995
  0
INSERT
  5
CA
330
1F
100
AcDbEntity
  8
0
  6
Continuous
 62
     7
100
AcDbBlockReference
 66
     1
  2
블럭10
 10
-11.46527293212519
 20
-52.04717430164393
 30
0.0
  0
ATTRIB
  5
CB
330
CA
100
AcDbEntity
  8
FORMAT
 62
     2
100
AcDbText
 10
-20.64656822086647
 20
-49.97180738881175
 30
0.0
 40
4.233333333333333
  1
E1163056 [ 2 FLUTE ]
 41
0.75
  7
SLDTEXTSTYLE0
 11
-20.64656822086647
 21
-52.08847405547841
 31
0.0
100
AcDbAttribute
  2
AUTOATTR0
 70
     0
 74
     1
  0
SEQEND
  5
CC
330
CA
100
AcDbEntity
  8
0
  6
Continuous
 62
     7
  0
HATCH
  5
CD
330
1F
100
AcDbEntity
  8
중심선
100
AcDbHatch
 10
0.0
 20
0.0
 30
0.0
210
0.0
220
0.0
230
1.0
  2
SOLID
 70
     1
 71
     0
 91
        1
 92
        0
 93
        4
 72
     1
 10
-5.750363627744344
 20
-35.8
 11
-9.196638871581627
 21
-35.8
 72
     1
 10
-9.196638871581627
 20
-35.8
 11
-11.32486873078568
 21
-38.3363255805726
 72
     1
 10
-11.32486873078568
 20
-38.3363255805726
 11
-7.878560401835217
 21
-38.33628615127011
 72
     1
 10
-7.878560401835217
 20
-38.33628615127011
 11
-5.750363627744344
 21
-35.8
 97
        0
 75
     0
 76
     1
 98
        1
 10
-2.84926131403116
 20
-0.0010749287238956
  0
HATCH
  5
CE
330
1F
100
AcDbEntity
  8
중심선
100
AcDbHatch
 10
0.0
 20
0.0
 30
0.0
210
0.0
220
0.0
230
1.0
  2
SOLID
 70
     1
 71
     0
 91
        1
 92
        0
 93
        4
 72
     1
 10
-0.7375996367083921
 20
-35.80000000000003
 11
-4.183874880545675
 21
-35.8
 72
     1
 10
-4.183874880545675
 20
-35.8
 11
-8.715012888903063
 21
-41.20000000000002
 72
     1
 10
-8.715012888903063
 20
-41.20000000000002
 11
-5.26873764506578
 21
-41.20000000000002
 72
     1
 10
-5.26873764506578
 20
-41.20000000000002
 11
-0.7375996367083921
 21
-35.80000000000003
 97
        0
 75
     0
 76
     1
 98
        1
 10
-2.84926131403116
 20
-0.0010749287238956
  0
HATCH
  5
CF
330
1F
100
AcDbEntity
  8
중심선
100
AcDbHatch
 10
0.0
 20
0.0
 30
0.0
210
0.0
220
0.0
230
1.0
  2
SOLID
 70
     1
 71
     0
 91
        1
 92
        0
 93
        4
 72
     1
 10
4.275164354327531
 20
-35.8
 11
0.8288891104903877
 21
-35.8
 72
     1
 10
0.8288891104903877
 20
-35.8
 11
-6.219547791398861
 21
-44.20000000000002
 72
     1
 10
-6.219547791398861
 20
-44.20000000000002
 11
-2.773272547561579
 21
-44.20000000000002
 72
     1
 10
-2.773272547561579
 20
-44.20000000000002
 11
4.275164354327531
 21
-35.8
 97
        0
 75
     0
 76
     1
 98
        1
 10
-2.84926131403116
 20
-0.0010749287238956
  0
HATCH
  5
D0
330
1F
100
AcDbEntity
  8
중심선
100
AcDbHatch
 10
0.0
 20
0.0
 30
0.0
210
0.0
220
0.0
230
1.0
  2
SOLID
 70
     1
 71
     0
 91
        1
 92
        0
 93
        6
 72
     3
 10
9.075054785339702
 20
-40.00000000005127
 11
3.960054785062283
 21
1.540882976769353E-10
 40
0.3939339440162628
 50
17.09539180608437
 51
320.0019657685079
 73
     0
 72
     1
 10
10.75805444104033
 20
-38.58789400463827
 11
13.06335631474136
 21
-36.65356729459038
 72
     3
 10
9.075054785286856
 20
-40.00000000000015
 11
6.600054785286829
 21
-1.278976924368180E-13
 40
0.636358354079598
 50
39.99873849337385
 51
368.4976242363725
 73
     1
 72
     1
 10
15.50038727718746
 20
-39.03999999993002
 11
7.755122092122805
 21
-39.03999999993002
 72
     1
 10
7.755122092122805
 20
-39.03999999993002
 11
7.755097047676845
 21
-40.95999999992991
 72
     1
 10
7.755097047676845
 20
-40.95999999992991
 11
12.19647681714888
 21
-40.95999999992988
 97
        0
 75
     0
 76
     1
 98
        1
 10
-2.84926131403116
 20
-0.0010749287238956
  0
DIMENSION
  5
D1
330
1F
100
AcDbEntity
  8
치수문자_일반주서
100
AcDbDimension
  2
_D
 10
-57.64999999999994
 20
-11.11250000000005
 30
0.0
 11
-57.64999999999998
 21
-0.0000000000000024
 31
0.0
 70
   160
  1
%%c<>
 71
     2
 42
22.22499999999999
 52
-270.0
  3
SLDDIMSTYLE0
100
AcDbAlignedDimension
 13
-44.14999999999997
 23
11.1125
 33
0.0
 14
-44.14999999999997
 24
-11.1125
 34
0.0
 50
90.0000000000002
100
AcDbRotatedDimension
1001
ACAD
1000
DSTYLE
1002
{
1070
   171
1070
     6
1070
   273
1070
     7
1002
}
  0
DIMENSION
  5
E6
330
1F
100
AcDbEntity
  8
치수문자_일반주서
100
AcDbDimension
  2
_D_1
 10
12.0
 20
24.27944961506234
 30
0.0
 11
31.05
 21
24.27944961506234
 31
0.0
 70
   160
  1
<>
 71
     2
 42
38.10000000000002
  3
SLDDIMSTYLE0
100
AcDbAlignedDimension
 13
50.10000000000002
 23
11.11250000000001
 33
0.0
 14
12.0
 24
8.67828267845591
 34
0.0
100
AcDbRotatedDimension
1001
ACAD
1000
DSTYLE
1002
{
1070
   171
1070
     6
1070
   273
1070
     7
1002
}
  0
DIMENSION
  5
FB
330
1F
100
AcDbEntity
  8
치수문자_일반주서
100
AcDbDimension
  2
_D_2
 10
-45.15
 20
41.07063497472359
 30
0.0
 11
2.474999999999868
 21
41.07063497472359
 31
0.0
 70
   160
  1
<>
 71
     2
 42
95.25
  3
SLDDIMSTYLE0
100
AcDbAlignedDimension
 13
50.10000000000002
 23
11.11250000000001
 33
0.0
 14
-45.14999999999999
 24
10.11249999999999
 34
0.0
 50
0.0000000000000043
100
AcDbRotatedDimension
1001
ACAD
1000
DSTYLE
1002
{
1070
   171
1070
     6
1070
   273
1070
     7
1002
}
  0
DIMENSION
  5
10F
330
1F
100
AcDbEntity
  8
치수문자_일반주서
100
AcDbDimension
  2
_D_3
 10
72.3771464990795
 20
11.11250000000008
 30
0.0
 11
72.37714649907943
 21
32.37275000000008
 31
0.0
 70
   160
  1
%%c<>
 71
     2
 42
22.225
 52
-270.0
  3
SLDDIMSTYLE0
100
AcDbAlignedDimension
 13
50.10000000000002
 23
-11.1125
 33
0.0
 14
50.10000000000002
 24
11.11250000000001
 34
0.0
 50
90.0000000000002
100
AcDbRotatedDimension
1001
ACAD
1000
DSTYLE
1002
{
1070
   171
1070
     6
1070
   273
1070
     7
1002
}
  0
LINE
  5
122
330
1F
100
AcDbEntity
  8
참조1
100
AcDbLine
 10
77.82153940838579
 20
7.441074928723896
 30
0.0
 11
77.82153940838579
 21
-7.438925071276109
 31
0.0
  0
LINE
  5
123
330
1F
100
AcDbEntity
  8
참조1
100
AcDbLine
 10
90.52153940838579
 20
5.441074928723896
 30
0.0
 11
77.82153940838579
 21
5.441074928723896
 31
0.0
  0
SOLID
  5
124
330
1F
100
AcDbEntity
  8
참조1
100
AcDbTrace
 10
77.82153940838579
 20
5.441074928723896
 30
0.0
 11
84.17153940838578
 21
4.425074928723896
 31
0.0
 12
84.17153940838578
 22
6.457074928723896
 32
0.0
 13
84.17153940838578
 23
6.457074928723896
 33
0.0
  0
LINE
  5
125
330
1F
100
AcDbEntity
  8
참조1
100
AcDbLine
 10
90.52153940838579
 20
-5.438925071276109
 30
0.0
 11
77.82153940838579
 21
-5.438925071276109
 31
0.0
  0
SOLID
  5
126
330
1F
100
AcDbEntity
  8
참조1
100
AcDbTrace
 10
77.82153940838579
 20
-5.438925071276109
 30
0.0
 11
84.17153940838578
 21
-6.454925071276109
 31
0.0
 12
84.17153940838578
 22
-4.422925071276109
 32
0.0
 13
84.17153940838578
 23
-4.422925071276109
 33
0.0
  0
MTEXT
  5
127
330
1F
100
AcDbEntity
  8
참조1
100
AcDbMText
 10
87.20588954101179
 20
11.01136670591222
 30
0.0
 40
3.5
 41
0.0
 71
     1
 72
     1
  1
A
  7
SLDTEXTSTYLE0
 73
     1
 44
1.0
  0
MTEXT
  5
128
330
1F
100
AcDbEntity
  8
참조1
100
AcDbMText
 10
87.20588954101179
 20
0.1313667059122192
 30
0.0
 40
3.5
 41
0.0
 71
     1
 72
     1
  1
A
  7
SLDTEXTSTYLE0
 73
     1
 44
1.0
  0
INSERT
  5
12F
330
1F
100
AcDbEntity
  8
해칭선
100
AcDbBlockReference
  2
SW_DOWELSYMBOL_0
 10
0.0
 20
0.0
 30
0.0
  0
LINE
  5
1AD
330
1F
100
AcDbEntity
  8
외형선
  6
Continuous
370
    15
100
AcDbLine
 10
-24.14432499999999
 20
9.461499999999987
 30
0.0
 11
-12.56192499999998
 21
9.461499999999987
 31
0.0
  0
LINE
  5
1AE
330
1F
100
AcDbEntity
  8
외형선
  6
Continuous
370
    15
100
AcDbLine
 10
-24.14432499999999
 20
9.461499999999987
 30
0.0
 11
-25.795325
 21
11.11249999999997
 31
0.0
  0
LINE
  5
1AF
330
1F
100
AcDbEntity
  8
외형선
  6
Continuous
370
    15
100
AcDbLine
 10
-12.56192499999998
 20
9.461499999999987
 30
0.0
 11
-10.91092499999986
 21
11.11249999999997
 31
0.0
  0
LINE
  5
1B0
330
1F
100
AcDbEntity
  8
외형선
  6
Continuous
370
    15
100
AcDbLine
 10
-45.14999999999999
 20
9.461499999999987
 30
0.0
 11
-31.45
 21
9.461499999999987
 31
0.0
  0
LINE
  5
1B1
330
1F
100
AcDbEntity
  8
외형선
  6
Continuous
370
    15
100
AcDbLine
 10
-31.45
 20
9.461499999999987
 30
0.0
 11
-29.79899999999999
 21
11.11249999999996
 31
0.0
  0
LINE
  5
1B4
330
1F
100
AcDbEntity
  8
외형선
  6
Continuous
370
    15
100
AcDbLine
 10
-25.79532500000003
 20
11.1125
 30
0.0
 11
-29.79899999999995
 21
11.1125
 31
0.0
  0
ENDSEC
  0
SECTION
  2
OBJECTS
  0
DICTIONARY
  5
C
330
0
100
AcDbDictionary
281
     1
  3
ACAD_GROUP
350
D
  3
ACAD_IMAGE_VARS
350
153
  3
ACAD_LAYOUT
350
1A
  3
ACAD_MLINESTYLE
350
17
  3
ACAD_PLOTSETTINGS
350
19
  3
ACAD_PLOTSTYLENAME
350
E
  3
ACAD_SCALELIST
350
47
  3
APPDATA
350
151
  3
DWGPROPS
350
1E6
  0
DICTIONARY
  5
17A
330
2
100
AcDbDictionary
280
     1
281
     1
  3
ACAD_LAYERSTATES
360
17B
  0
DICTIONARY
  5
D
102
{ACAD_REACTORS
330
C
102
}
330
C
100
AcDbDictionary
281
     1
  0
RASTERVARIABLES
  5
153
102
{ACAD_REACTORS
330
C
102
}
330
C
100
AcDbRasterVariables
 90
        0
 70
     1
 71
     1
 72
     1
  0
DICTIONARY
  5
1A
102
{ACAD_REACTORS
330
C
102
}
330
C
100
AcDbDictionary
281
     1
  3
Layout1
350
1E
  3
Layout2
350
26
  3
Model
350
22
  0
DICTIONARY
  5
17
102
{ACAD_REACTORS
330
C
102
}
330
C
100
AcDbDictionary
281
     1
  3
Standard
350
18
  0
DICTIONARY
  5
19
102
{ACAD_REACTORS
330
C
102
}
330
C
100
AcDbDictionary
281
     1
  0
ACDBDICTIONARYWDFLT
  5
E
102
{ACAD_REACTORS
330
C
102
}
330
C
100
AcDbDictionary
281
     1
  3
Normal
350
F
100
AcDbDictionaryWithDefault
340
F
  0
DICTIONARY
  5
47
102
{ACAD_REACTORS
330
C
102
}
330
C
100
AcDbDictionary
281
     1
  3
A0
350
48
  3
A1
350
49
  3
A2
350
4A
  3
A3
350
4B
  3
A4
350
4C
  3
A5
350
4D
  3
A6
350
4E
  3
A7
350
4F
  3
A8
350
50
  3
A9
350
51
  3
B0
350
52
  3
B1
350
53
  3
B2
350
54
  3
B3
350
55
  3
B4
350
56
  3
B5
350
57
  3
B6
350
58
  3
B7
350
59
  3
B8
350
5A
  3
B9
350
5B
  3
C0
350
5C
  3
C1
350
5D
  3
C2
350
5E
  3
C3
350
5F
  3
C4
350
60
  3
C5
350
61
  3
C6
350
62
  3
C7
350
63
  3
C8
350
64
  3
C9
350
65
  3
D0
350
66
  3
D1
350
67
  3
D2
350
68
  0
DICTIONARY
  5
151
102
{ACAD_REACTORS
330
C
102
}
330
C
100
AcDbDictionary
281
     1
  0
XRECORD
  5
1E6
102
{ACAD_REACTORS
330
C
102
}
330
C
100
AcDbXrecord
280
     1
  1
DWGPROPS COOKIE
  2

  3

  4

  6

  7

  8
12017012
  9

300
=
301
=
302
=
303
=
304
=
305
=
306
=
307
=
308
=
309
=
 40
0.0
 41
2458311.098427627
 42
2458319.193866215
  1

 90
        0
  0
DICTIONARY
  5
17B
102
{ACAD_REACTORS
330
17A
102
}
330
17A
100
AcDbDictionary
281
     1
  0
LAYOUT
  5
1E
102
{ACAD_REACTORS
330
1A
102
}
330
1A
100
AcDbPlotSettings
  1

  2
none_device
  4

  6

 40
0.0
 41
0.0
 42
0.0
 43
0.0
 44
0.0
 45
0.0
 46
0.0
 47
0.0
 48
0.0
 49
0.0
140
0.0
141
0.0
142
1.0
143
1.0
 70
   688
 72
     1
 73
     0
 74
     5
  7

 75
    16
147
1.0
148
0.0
149
0.0
100
AcDbLayout
  1
Layout1
 70
     1
 71
     1
 10
0.0
 20
0.0
 11
420.0
 21
297.0
 12
0.0
 22
0.0
 32
0.0
 14
1.000000000000000E+20
 24
1.000000000000000E+20
 34
1.000000000000000E+20
 15
-1.000000000000000E+20
 25
-1.000000000000000E+20
 35
-1.000000000000000E+20
146
0.0
 13
0.0
 23
0.0
 33
0.0
 16
1.0
 26
0.0
 36
0.0
 17
0.0
 27
1.0
 37
0.0
 76
     0
330
1B
  0
LAYOUT
  5
26
102
{ACAD_REACTORS
330
1A
102
}
330
1A
100
AcDbPlotSettings
  1

  2
none_device
  4

  6

 40
0.0
 41
0.0
 42
0.0
 43
0.0
 44
0.0
 45
0.0
 46
0.0
 47
0.0
 48
0.0
 49
0.0
140
0.0
141
0.0
142
1.0
143
1.0
 70
   688
 72
     1
 73
     0
 74
     5
  7

 75
    16
147
1.0
148
0.0
149
0.0
100
AcDbLayout
  1
Layout2
 70
     1
 71
     2
 10
0.0
 20
0.0
 11
0.0
 21
0.0
 12
0.0
 22
0.0
 32
0.0
 14
0.0
 24
0.0
 34
0.0
 15
0.0
 25
0.0
 35
0.0
146
0.0
 13
0.0
 23
0.0
 33
0.0
 16
1.0
 26
0.0
 36
0.0
 17
0.0
 27
1.0
 37
0.0
 76
     0
330
23
  0
LAYOUT
  5
22
102
{ACAD_REACTORS
330
1A
102
}
330
1A
100
AcDbPlotSettings
  1

  2
none_device
  4
ANSI_A_(11.00_x_8.50_Inches)
  6

 40
6.35
 41
19.05
 42
6.35000508
 43
19.05000254
 44
279.4
 45
215.9
 46
110.1179202265218
 47
48.7314091301085
 48
0.0
 49
0.0
140
0.0
141
0.0
142
0.0517810330709359
143
1.0
 70
  1696
 72
     0
 73
     0
 74
     0
  7

 75
     0
147
0.0235690232323232
148
0.0
149
0.0
100
AcDbLayout
  1
Model
 70
     1
 71
     0
 10
0.0
 20
0.0
 11
420.0
 21
297.0
 12
0.0
 22
0.0
 32
0.0
 14
1.000000000000000E+20
 24
1.000000000000000E+20
 34
1.000000000000000E+20
 15
-1.000000000000000E+20
 25
-1.000000000000000E+20
 35
-1.000000000000000E+20
146
0.0
 13
0.0
 23
0.0
 33
0.0
 16
1.0
 26
0.0
 36
0.0
 17
0.0
 27
1.0
 37
0.0
 76
     0
330
1F
331
29
  0
MLINESTYLE
  5
18
102
{ACAD_REACTORS
330
17
102
}
330
17
100
AcDbMlineStyle
  2
Standard
 70
     0
  3

 62
   256
 51
90.0
 52
90.0
 71
     2
 49
0.5
 62
   256
  6
BYLAYER
 49
-0.5
 62
   256
  6
BYLAYER
  0
ACDBPLACEHOLDER
  5
F
102
{ACAD_REACTORS
330
E
102
}
330
E
  0
SCALE
  5
48
102
{ACAD_REACTORS
330
47
102
}
330
47
100
AcDbScale
 70
     0
300
1:1
140
1.0
141
1.0
290
     1
  0
SCALE
  5
49
102
{ACAD_REACTORS
330
47
102
}
330
47
100
AcDbScale
 70
     0
300
1:2
140
1.0
141
2.0
290
     0
  0
SCALE
  5
4A
102
{ACAD_REACTORS
330
47
102
}
330
47
100
AcDbScale
 70
     0
300
1:4
140
1.0
141
4.0
290
     0
  0
SCALE
  5
4B
102
{ACAD_REACTORS
330
47
102
}
330
47
100
AcDbScale
 70
     0
300
1:5
140
1.0
141
5.0
290
     0
  0
SCALE
  5
4C
102
{ACAD_REACTORS
330
47
102
}
330
47
100
AcDbScale
 70
     0
300
1:8
140
1.0
141
8.0
290
     0
  0
SCALE
  5
4D
102
{ACAD_REACTORS
330
47
102
}
330
47
100
AcDbScale
 70
     0
300
1:10
140
1.0
141
10.0
290
     0
  0
SCALE
  5
4E
102
{ACAD_REACTORS
330
47
102
}
330
47
100
AcDbScale
 70
     0
300
1:16
140
1.0
141
16.0
290
     0
  0
SCALE
  5
4F
102
{ACAD_REACTORS
330
47
102
}
330
47
100
AcDbScale
 70
     0
300
1:20
140
1.0
141
20.0
290
     0
  0
SCALE
  5
50
102
{ACAD_REACTORS
330
47
102
}
330
47
100
AcDbScale
 70
     0
300
1:30
140
1.0
141
30.0
290
     0
  0
SCALE
  5
51
102
{ACAD_REACTORS
330
47
102
}
330
47
100
AcDbScale
 70
     0
300
1:40
140
1.0
141
40.0
290
     0
  0
SCALE
  5
52
102
{ACAD_REACTORS
330
47
102
}
330
47
100
AcDbScale
 70
     0
300
1:50
140
1.0
141
50.0
290
     0
  0
SCALE
  5
53
102
{ACAD_REACTORS
330
47
102
}
330
47
100
AcDbScale
 70
     0
300
1:100
140
1.0
141
100.0
290
     0
  0
SCALE
  5
54
102
{ACAD_REACTORS
330
47
102
}
330
47
100
AcDbScale
 70
     0
300
2:1
140
2.0
141
1.0
290
     0
  0
SCALE
  5
55
102
{ACAD_REACTORS
330
47
102
}
330
47
100
AcDbScale
 70
     0
300
4:1
140
4.0
141
1.0
290
     0
  0
SCALE
  5
56
102
{ACAD_REACTORS
330
47
102
}
330
47
100
AcDbScale
 70
     0
300
8:1
140
8.0
141
1.0
290
     0
  0
SCALE
  5
57
102
{ACAD_REACTORS
330
47
102
}
330
47
100
AcDbScale
 70
     0
300
10:1
140
10.0
141
1.0
290
     0
  0
SCALE
  5
58
102
{ACAD_REACTORS
330
47
102
}
330
47
100
AcDbScale
 70
     0
300
100:1
140
100.0
141
1.0
290
     0
  0
SCALE
  5
59
102
{ACAD_REACTORS
330
47
102
}
330
47
100
AcDbScale
 70
     0
300
1/128" = 1'-0"
140
0.0078125
141
12.0
290
     0
  0
SCALE
  5
5A
102
{ACAD_REACTORS
330
47
102
}
330
47
100
AcDbScale
 70
     0
300
1/64" = 1'-0"
140
0.015625
141
12.0
290
     0
  0
SCALE
  5
5B
102
{ACAD_REACTORS
330
47
102
}
330
47
100
AcDbScale
 70
     0
300
1/32" = 1'-0"
140
0.03125
141
12.0
290
     0
  0
SCALE
  5
5C
102
{ACAD_REACTORS
330
47
102
}
330
47
100
AcDbScale
 70
     0
300
1/16" = 1'-0"
140
0.0625
141
12.0
290
     0
  0
SCALE
  5
5D
102
{ACAD_REACTORS
330
47
102
}
330
47
100
AcDbScale
 70
     0
300
3/32" = 1'-0"
140
0.09375
141
12.0
290
     0
  0
SCALE
  5
5E
102
{ACAD_REACTORS
330
47
102
}
330
47
100
AcDbScale
 70
     0
300
1/8" = 1'-0"
140
0.125
141
12.0
290
     0
  0
SCALE
  5
5F
102
{ACAD_REACTORS
330
47
102
}
330
47
100
AcDbScale
 70
     0
300
3/16" = 1'-0"
140
0.1875
141
12.0
290
     0
  0
SCALE
  5
60
102
{ACAD_REACTORS
330
47
102
}
330
47
100
AcDbScale
 70
     0
300
1/4" = 1'-0"
140
0.25
141
12.0
290
     0
  0
SCALE
  5
61
102
{ACAD_REACTORS
330
47
102
}
330
47
100
AcDbScale
 70
     0
300
3/8" = 1'-0"
140
0.375
141
12.0
290
     0
  0
SCALE
  5
62
102
{ACAD_REACTORS
330
47
102
}
330
47
100
AcDbScale
 70
     0
300
1/2" = 1'-0"
140
0.5
141
12.0
290
     0
  0
SCALE
  5
63
102
{ACAD_REACTORS
330
47
102
}
330
47
100
AcDbScale
 70
     0
300
3/4" = 1'-0"
140
0.75
141
12.0
290
     0
  0
SCALE
  5
64
102
{ACAD_REACTORS
330
47
102
}
330
47
100
AcDbScale
 70
     0
300
1" = 1'-0"
140
1.0
141
12.0
290
     0
  0
SCALE
  5
65
102
{ACAD_REACTORS
330
47
102
}
330
47
100
AcDbScale
 70
     0
300
1-1/2" = 1'-0"
140
1.5
141
12.0
290
     0
  0
SCALE
  5
66
102
{ACAD_REACTORS
330
47
102
}
330
47
100
AcDbScale
 70
     0
300
3" = 1'-0"
140
3.0
141
12.0
290
     0
  0
SCALE
  5
67
102
{ACAD_REACTORS
330
47
102
}
330
47
100
AcDbScale
 70
     0
300
6" = 1'-0"
140
6.0
141
12.0
290
     0
  0
SCALE
  5
68
102
{ACAD_REACTORS
330
47
102
}
330
47
100
AcDbScale
 70
     0
300
1'-0" = 1'-0"
140
12.0
141
12.0
290
     0
  0
ENDSEC
  0
EOF
