  0
SECTION
  2
HEADER
  9
$ACADVER
  1
AC1015
  9
$ACADMAINTVER
 70
     6
  9
$DWGCODEPAGE
  3
ANSI_949
  9
$INSBASE
 10
0.0
 20
0.0
 30
0.0
  9
$EXTMIN
 10
1.000000000000000E+20
 20
1.000000000000000E+20
 30
1.000000000000000E+20
  9
$EXTMAX
 10
-1.000000000000000E+20
 20
-1.000000000000000E+20
 30
-1.000000000000000E+20
  9
$LIMMIN
 10
0.0
 20
0.0
  9
$LIMMAX
 10
420.0
 20
297.0
  9
$ORTHOMODE
 70
     1
  9
$REGENMODE
 70
     1
  9
$FILLMODE
 70
     1
  9
$QTEXTMODE
 70
     0
  9
$MIRRTEXT
 70
     1
  9
$LTSCALE
 40
1.0
  9
$ATTMODE
 70
     1
  9
$TEXTSIZE
 40
3.5
  9
$TRACEWID
 40
1.0
  9
$TEXTSTYLE
  7
Standard
  9
$CLAYER
  8
0
  9
$CELTYPE
  6
ByLayer
  9
$CECOLOR
 62
   256
  9
$CELTSCALE
 40
1.0
  9
$DISPSILH
 70
     0
  9
$DIMSCALE
 40
1.0
  9
$DIMASZ
 40
3.302
  9
$DIMEXO
 40
1.0
  9
$DIMDLI
 40
3.75
  9
$DIMRND
 40
0.0
  9
$DIMDLE
 40
0.0
  9
$DIMEXE
 40
1.0
  9
$DIMTP
 40
0.0
  9
$DIMTM
 40
0.0
  9
$DIMTXT
 40
3.5
  9
$DIMCEN
 40
2.5
  9
$DIMTSZ
 40
0.0
  9
$DIMTOL
 70
     0
  9
$DIMLIM
 70
     0
  9
$DIMTIH
 70
     1
  9
$DIMTOH
 70
     1
  9
$DIMSE1
 70
     0
  9
$DIMSE2
 70
     0
  9
$DIMTAD
 70
     1
  9
$DIMZIN
 70
     0
  9
$DIMBLK
  1

  9
$DIMASO
 70
     1
  9
$DIMSHO
 70
     1
  9
$DIMPOST
  1

  9
$DIMAPOST
  1

  9
$DIMALT
 70
     0
  9
$DIMALTD
 70
     3
  9
$DIMALTF
 40
0.0393700787401575
  9
$DIMLFAC
 40
1.0
  9
$DIMTOFL
 70
     1
  9
$DIMTVP
 40
0.0
  9
$DIMTIX
 70
     0
  9
$DIMSOXD
 70
     0
  9
$DIMSAH
 70
     0
  9
$DIMBLK1
  1

  9
$DIMBLK2
  1

  9
$DIMSTYLE
  2
ISO-25
  9
$DIMCLRD
 70
     0
  9
$DIMCLRE
 70
     0
  9
$DIMCLRT
 70
     0
  9
$DIMTFAC
 40
1.0
  9
$DIMGAP
 40
1.524
  9
$DIMJUST
 70
     0
  9
$DIMSD1
 70
     0
  9
$DIMSD2
 70
     0
  9
$DIMTOLJ
 70
     0
  9
$DIMTZIN
 70
     0
  9
$DIMALTZ
 70
     0
  9
$DIMALTTZ
 70
     0
  9
$DIMUPT
 70
     0
  9
$DIMDEC
 70
     2
  9
$DIMTDEC
 70
     2
  9
$DIMALTU
 70
     2
  9
$DIMALTTD
 70
     3
  9
$DIMTXSTY
  7
Standard
  9
$DIMAUNIT
 70
     0
  9
$DIMADEC
 70
     2
  9
$DIMALTRND
 40
0.0
  9
$DIMAZIN
 70
     0
  9
$DIMDSEP
 70
    44
  9
$DIMATFIT
 70
     3
  9
$DIMFRAC
 70
     0
  9
$DIMLDRBLK
  1

  9
$DIMLUNIT
 70
     2
  9
$DIMLWD
 70
    -2
  9
$DIMLWE
 70
    -2
  9
$DIMTMOVE
 70
     0
  9
$LUNITS
 70
     2
  9
$LUPREC
 70
     2
  9
$SKETCHINC
 40
1.0
  9
$FILLETRAD
 40
10.0
  9
$AUNITS
 70
     0
  9
$AUPREC
 70
     2
  9
$MENU
  1
.
  9
$ELEVATION
 40
0.0
  9
$PELEVATION
 40
0.0
  9
$THICKNESS
 40
0.0
  9
$LIMCHECK
 70
     0
  9
$CHAMFERA
 40
0.0
  9
$CHAMFERB
 40
0.0
  9
$CHAMFERC
 40
0.0
  9
$CHAMFERD
 40
0.0
  9
$SKPOLY
 70
     0
  9
$TDCREATE
 40
2458311.47363941
  9
$TDUCREATE
 40
2458311.09863941
  9
$TDUPDATE
 40
2458319.566448588
  9
$TDUUPDATE
 40
2458319.191448588
  9
$TDINDWG
 40
0.0011539468
  9
$TDUSRTIMER
 40
2458319.190295498
  9
$USRTIMER
 70
     1
  9
$ANGBASE
 50
0.0
  9
$ANGDIR
 70
     0
  9
$PDMODE
 70
     0
  9
$PDSIZE
 40
-1.0
  9
$PLINEWID
 40
0.0
  9
$SPLFRAME
 70
     0
  9
$SPLINETYPE
 70
     6
  9
$SPLINESEGS
 70
     8
  9
$HANDSEED
  5
1C0
  9
$SURFTAB1
 70
     6
  9
$SURFTAB2
 70
     6
  9
$SURFTYPE
 70
     6
  9
$SURFU
 70
     6
  9
$SURFV
 70
     6
  9
$UCSBASE
  2

  9
$UCSNAME
  2

  9
$UCSORG
 10
0.0
 20
0.0
 30
0.0
  9
$UCSXDIR
 10
1.0
 20
0.0
 30
0.0
  9
$UCSYDIR
 10
0.0
 20
1.0
 30
0.0
  9
$UCSORTHOREF
  2

  9
$UCSORTHOVIEW
 70
     0
  9
$UCSORGTOP
 10
0.0
 20
0.0
 30
0.0
  9
$UCSORGBOTTOM
 10
0.0
 20
0.0
 30
0.0
  9
$UCSORGLEFT
 10
0.0
 20
0.0
 30
0.0
  9
$UCSORGRIGHT
 10
0.0
 20
0.0
 30
0.0
  9
$UCSORGFRONT
 10
0.0
 20
0.0
 30
0.0
  9
$UCSORGBACK
 10
0.0
 20
0.0
 30
0.0
  9
$PUCSBASE
  2

  9
$PUCSNAME
  2

  9
$PUCSORG
 10
0.0
 20
0.0
 30
0.0
  9
$PUCSXDIR
 10
1.0
 20
0.0
 30
0.0
  9
$PUCSYDIR
 10
0.0
 20
1.0
 30
0.0
  9
$PUCSORTHOREF
  2

  9
$PUCSORTHOVIEW
 70
     0
  9
$PUCSORGTOP
 10
0.0
 20
0.0
 30
0.0
  9
$PUCSORGBOTTOM
 10
0.0
 20
0.0
 30
0.0
  9
$PUCSORGLEFT
 10
0.0
 20
0.0
 30
0.0
  9
$PUCSORGRIGHT
 10
0.0
 20
0.0
 30
0.0
  9
$PUCSORGFRONT
 10
0.0
 20
0.0
 30
0.0
  9
$PUCSORGBACK
 10
0.0
 20
0.0
 30
0.0
  9
$USERI1
 70
     0
  9
$USERI2
 70
     0
  9
$USERI3
 70
     0
  9
$USERI4
 70
     0
  9
$USERI5
 70
     0
  9
$USERR1
 40
0.0
  9
$USERR2
 40
0.0
  9
$USERR3
 40
0.0
  9
$USERR4
 40
0.0
  9
$USERR5
 40
0.0
  9
$WORLDVIEW
 70
     1
  9
$SHADEDGE
 70
     3
  9
$SHADEDIF
 70
    70
  9
$TILEMODE
 70
     1
  9
$MAXACTVP
 70
    64
  9
$PINSBASE
 10
0.0
 20
0.0
 30
0.0
  9
$PLIMCHECK
 70
     0
  9
$PEXTMIN
 10
1.000000000000000E+20
 20
1.000000000000000E+20
 30
1.000000000000000E+20
  9
$PEXTMAX
 10
-1.000000000000000E+20
 20
-1.000000000000000E+20
 30
-1.000000000000000E+20
  9
$PLIMMIN
 10
0.0
 20
0.0
  9
$PLIMMAX
 10
0.0
 20
0.0
  9
$UNITMODE
 70
     0
  9
$VISRETAIN
 70
     1
  9
$PLINEGEN
 70
     0
  9
$PSLTSCALE
 70
     1
  9
$TREEDEPTH
 70
  3020
  9
$CMLSTYLE
  2
Standard
  9
$CMLJUST
 70
     0
  9
$CMLSCALE
 40
20.0
  9
$PROXYGRAPHICS
 70
     1
  9
$MEASUREMENT
 70
     1
  9
$CELWEIGHT
370
    -1
  9
$ENDCAPS
280
     0
  9
$JOINSTYLE
280
     0
  9
$LWDISPLAY
290
     1
  9
$INSUNITS
 70
     4
  9
$HYPERLINKBASE
  1

  9
$STYLESHEET
  1

  9
$XEDIT
290
     1
  9
$CEPSNTYPE
380
     0
  9
$PSTYLEMODE
290
     1
  9
$FINGERPRINTGUID
  2
{2F83D4A5-A6C5-4ECF-BBDF-97A8E716FAC2}
  9
$VERSIONGUID
  2
{FAEB1C32-E019-11D5-929B-00C0DF256EC4}
  9
$EXTNAMES
290
     1
  9
$PSVPSCALE
 40
0.0
  9
$OLESTARTUP
290
     0
  0
ENDSEC
  0
SECTION
  2
CLASSES
  0
CLASS
  1
ACDBDICTIONARYWDFLT
  2
AcDbDictionaryWithDefault
  3
ObjectDBX Classes
 90
        0
280
     0
281
     0
  0
CLASS
  1
VISUALSTYLE
  2
AcDbVisualStyle
  3
ObjectDBX Classes
 90
     4095
280
     0
281
     0
  0
CLASS
  1
MATERIAL
  2
AcDbMaterial
  3
ObjectDBX Classes
 90
     1153
280
     0
281
     0
  0
CLASS
  1
SCALE
  2
AcDbScale
  3
ObjectDBX Classes
 90
     1153
280
     0
281
     0
  0
CLASS
  1
SUN
  2
AcDbSun
  3
SCENEOE
 90
     1153
280
     0
281
     0
  0
CLASS
  1
ACDBPLACEHOLDER
  2
AcDbPlaceHolder
  3
ObjectDBX Classes
 90
        0
280
     0
281
     0
  0
CLASS
  1
LAYOUT
  2
AcDbLayout
  3
ObjectDBX Classes
 90
        0
280
     0
281
     0
  0
CLASS
  1
TABLESTYLE
  2
AcDbTableStyle
  3
ObjectDBX Classes
 90
     4095
280
     0
281
     0
  0
CLASS
  1
MLEADERSTYLE
  2
AcDbMLeaderStyle
  3
ACDB_MLEADERSTYLE_CLASS
 90
     4095
280
     0
281
     0
  0
CLASS
  1
RASTERVARIABLES
  2
AcDbRasterVariables
  3
ISM
 90
        0
280
     0
281
     0
  0
ENDSEC
  0
SECTION
  2
TABLES
  0
TABLE
  2
VPORT
  5
8
330
0
100
AcDbSymbolTable
 70
     1
  0
VPORT
  5
29
330
8
100
AcDbSymbolTableRecord
100
AcDbViewportTableRecord
  2
*Active
 70
     0
 10
0.0
 20
0.0
 11
1.0
 21
1.0
 12
26.36235043132316
 22
-6.408388879070273
 13
0.0
 23
0.0
 14
10.0
 24
10.0
 15
10.0
 25
10.0
 16
0.0
 26
0.0
 36
1.0
 17
0.0
 27
0.0
 37
0.0
 40
116.6203979892897
 41
1.632093933463796
 42
50.0
 43
0.0
 44
0.0
 50
0.0
 51
0.0
 71
    16
 72
  2000
 73
     1
 74
     3
 75
     0
 76
     0
 77
     0
 78
     0
281
     0
 65
     1
110
0.0
120
0.0
130
0.0
111
1.0
121
0.0
131
0.0
112
0.0
122
1.0
132
0.0
 79
     0
146
0.0
  0
ENDTAB
  0
TABLE
  2
LTYPE
  5
5
330
0
100
AcDbSymbolTable
 70
     6
  0
LTYPE
  5
14
330
5
100
AcDbSymbolTableRecord
100
AcDbLinetypeTableRecord
  2
ByBlock
 70
     0
  3

 72
    65
 73
     0
 40
0.0
  0
LTYPE
  5
15
330
5
100
AcDbSymbolTableRecord
100
AcDbLinetypeTableRecord
  2
ByLayer
 70
     0
  3

 72
    65
 73
     0
 40
0.0
  0
LTYPE
  5
16
330
5
100
AcDbSymbolTableRecord
100
AcDbLinetypeTableRecord
  2
Continuous
 70
     0
  3
Solid line
 72
    65
 73
     0
 40
0.0
  0
LTYPE
  5
6A
330
5
100
AcDbSymbolTableRecord
100
AcDbLinetypeTableRecord
  2
HIDDEN
 70
     0
  3
Hidden __ __ __ __ __ __ __ __ __ __ __ __ __ __
 72
    65
 73
     2
 40
1.905
 49
1.27
 74
     0
 49
-0.635
 74
     0
  0
LTYPE
  5
6B
330
5
100
AcDbSymbolTableRecord
100
AcDbLinetypeTableRecord
  2
PHANTOM
 70
     0
  3
Phantom ______  __  __  ______  __  __  ______
 72
    65
 73
     6
 40
12.7
 49
6.35
 74
     0
 49
-1.27
 74
     0
 49
1.27
 74
     0
 49
-1.27
 74
     0
 49
1.27
 74
     0
 49
-1.27
 74
     0
  0
LTYPE
  5
6C
330
5
100
AcDbSymbolTableRecord
100
AcDbLinetypeTableRecord
  2
CENTER
 70
     0
  3
Center ____ _ ____ _ ____ _ ____ _ ____ _ ____
 72
    65
 73
     4
 40
10.16
 49
6.35
 74
     0
 49
-1.27
 74
     0
 49
1.27
 74
     0
 49
-1.27
 74
     0
  0
LTYPE
  5
6D
330
5
100
AcDbSymbolTableRecord
100
AcDbLinetypeTableRecord
  2
CENTERX2
 70
     0
  3
Center (2x) ________  __  ________  __  _____
 72
    65
 73
     4
 40
20.32
 49
12.7
 74
     0
 49
-2.54
 74
     0
 49
2.54
 74
     0
 49
-2.54
 74
     0
  0
LTYPE
  5
6E
330
5
100
AcDbSymbolTableRecord
100
AcDbLinetypeTableRecord
  2
DOT2
 70
     0
  3
Dot (.5x) ........................................
 72
    65
 73
     2
 40
0.635
 49
0.0
 74
     0
 49
-0.635
 74
     0
  0
ENDTAB
  0
TABLE
  2
LAYER
  5
2
102
{ACAD_XDICTIONARY
360
17A
102
}
330
0
100
AcDbSymbolTable
 70
    18
  0
LAYER
  5
10
330
2
100
AcDbSymbolTableRecord
100
AcDbLayerTableRecord
  2
0
 70
     0
 62
     7
  6
Continuous
370
    -3
390
F
  0
LAYER
  5
6F
330
2
100
AcDbSymbolTableRecord
100
AcDbLayerTableRecord
  2
FORMAT
 70
     0
 62
     2
  6
Continuous
370
    -3
390
F
  0
LAYER
  5
70
330
2
100
AcDbSymbolTableRecord
100
AcDbLayerTableRecord
  2
외형선
 70
     0
 62
     4
  6
Continuous
370
    30
390
F
  0
LAYER
  5
71
330
2
100
AcDbSymbolTableRecord
100
AcDbLayerTableRecord
  2
숨은선
 70
     0
 62
     2
  6
HIDDEN
370
    15
390
F
  0
LAYER
  5
72
330
2
100
AcDbSymbolTableRecord
100
AcDbLayerTableRecord
  2
중심선
 70
     0
 62
     1
  6
CENTERX2
370
    -3
390
F
  0
LAYER
  5
73
330
2
100
AcDbSymbolTableRecord
100
AcDbLayerTableRecord
  2
파단선
 70
     0
 62
     4
  6
Continuous
370
    -3
390
F
  0
LAYER
  5
74
330
2
100
AcDbSymbolTableRecord
100
AcDbLayerTableRecord
  2
해칭선
 70
     0
 62
   100
  6
Continuous
370
    -3
390
F
  0
LAYER
  5
75
330
2
100
AcDbSymbolTableRecord
100
AcDbLayerTableRecord
  2
가는실선
 70
     0
 62
     4
  6
Continuous
370
    -3
390
F
  0
LAYER
  5
76
330
2
100
AcDbSymbolTableRecord
100
AcDbLayerTableRecord
  2
치수_보조선
 70
     0
 62
     4
  6
Continuous
370
    -3
390
F
  0
LAYER
  5
77
330
2
100
AcDbSymbolTableRecord
100
AcDbLayerTableRecord
  2
치수문자_일반주서
 70
     0
 62
     7
  6
Continuous
370
    15
390
F
  0
LAYER
  5
78
330
2
100
AcDbSymbolTableRecord
100
AcDbLayerTableRecord
  2
개별주서
 70
     0
 62
   100
  6
Continuous
370
    30
390
F
  0
LAYER
  5
79
330
2
100
AcDbSymbolTableRecord
100
AcDbLayerTableRecord
  2
중간선
 70
     0
 62
     2
  6
Continuous
370
    15
390
F
  0
LAYER
  5
7A
330
2
100
AcDbSymbolTableRecord
100
AcDbLayerTableRecord
  2
윤곽선
 70
     0
 62
     3
  6
Continuous
370
    40
390
F
  0
LAYER
  5
7B
330
2
100
AcDbSymbolTableRecord
100
AcDbLayerTableRecord
  2
중심마크
 70
     0
 62
   100
  6
Continuous
370
    30
390
F
  0
LAYER
  5
7C
330
2
100
AcDbSymbolTableRecord
100
AcDbLayerTableRecord
  2
가상선
 70
     0
 62
     4
  6
PHANTOM
370
    -3
390
F
  0
LAYER
  5
7D
330
2
100
AcDbSymbolTableRecord
100
AcDbLayerTableRecord
  2
특수지정선
 70
     0
 62
     5
  6
CENTERX2
370
    60
390
F
  0
LAYER
  5
7E
330
2
100
AcDbSymbolTableRecord
100
AcDbLayerTableRecord
  2
참조1
 70
     0
 62
    -4
  6
Continuous
370
    -3
390
F
  0
LAYER
  5
1B6
330
2
100
AcDbSymbolTableRecord
100
AcDbLayerTableRecord
  2
Defpoints
 70
     0
 62
     7
  6
Continuous
290
     0
370
    -3
390
F
  0
ENDTAB
  0
TABLE
  2
STYLE
  5
3
330
0
100
AcDbSymbolTable
 70
     2
  0
STYLE
  5
11
330
3
100
AcDbSymbolTableRecord
100
AcDbTextStyleTableRecord
  2
Standard
 70
     0
 40
0.0
 41
1.0
 50
0.0
 71
     0
 42
3.5
  3
txt
  4

  0
STYLE
  5
94
330
3
100
AcDbSymbolTableRecord
100
AcDbTextStyleTableRecord
  2
SLDTEXTSTYLE0
 70
     0
 40
0.0
 41
0.75
 50
0.0
 71
     0
 42
3.5
  3
TXT
  4

  0
ENDTAB
  0
TABLE
  2
VIEW
  5
6
330
0
100
AcDbSymbolTable
 70
     0
  0
ENDTAB
  0
TABLE
  2
UCS
  5
7
330
0
100
AcDbSymbolTable
 70
     0
  0
ENDTAB
  0
TABLE
  2
APPID
  5
9
330
0
100
AcDbSymbolTable
 70
     1
  0
APPID
  5
12
330
9
100
AcDbSymbolTableRecord
100
AcDbRegAppTableRecord
  2
ACAD
 70
     0
  0
ENDTAB
  0
TABLE
  2
DIMSTYLE
  5
A
330
0
100
AcDbSymbolTable
 70
     3
100
AcDbDimStyleTable
  0
DIMSTYLE
105
27
330
A
100
AcDbSymbolTableRecord
100
AcDbDimStyleTableRecord
  2
ISO-25
 70
     0
 41
2.5
 42
0.625
 43
3.75
 44
1.25
 73
     0
 74
     0
 77
     1
 78
     8
140
2.5
141
2.5
143
0.03937007874016
147
0.625
171
     3
172
     1
178
     0
271
     2
272
     2
274
     3
278
    44
283
     0
284
     8
340
11
  0
DIMSTYLE
105
D3
102
{ACAD_REACTORS
330
D2
330
E7
330
FC
330
10F
102
}
330
A
100
AcDbSymbolTableRecord
100
AcDbDimStyleTableRecord
  2
SLDDIMSTYLE0
 70
     0
 41
3.302
 44
0.0
 45
0.000000001
 73
     0
 74
     0
 77
     1
 78
     4
 79
     1
140
3.5
143
0.0393700787401575
147
0.875
148
0.000000001
170
     1
172
     1
173
     1
178
     0
271
     2
272
     2
276
     2
284
    12
289
     0
340
94
  0
DIMSTYLE
105
E8
330
A
100
AcDbSymbolTableRecord
100
AcDbDimStyleTableRecord
  2
SLDDIMSTYLE1
 70
     0
 41
3.302
 44
0.0
 45
0.000000001
 73
     0
 74
     0
 77
     1
 78
    12
 79
     3
140
3.5
143
0.0393700787401575
147
0.875
148
0.000000001
170
     1
173
     1
178
     0
271
     2
272
     2
276
     2
284
    12
340
94
  0
ENDTAB
  0
TABLE
  2
BLOCK_RECORD
  5
1
330
0
100
AcDbSymbolTable
 70
     9
  0
BLOCK_RECORD
  5
1F
330
1
100
AcDbSymbolTableRecord
100
AcDbBlockTableRecord
  2
*Model_Space
340
22
  0
BLOCK_RECORD
  5
1B
330
1
100
AcDbSymbolTableRecord
100
AcDbBlockTableRecord
  2
*Paper_Space
340
1E
  0
BLOCK_RECORD
  5
23
330
1
100
AcDbSymbolTableRecord
100
AcDbBlockTableRecord
  2
*Paper_Space0
340
26
  0
BLOCK_RECORD
  5
7F
330
1
100
AcDbSymbolTableRecord
100
AcDbBlockTableRecord
  2
블럭10
340
0
102
{BLKREFS
331
CB
102
}
  0
BLOCK_RECORD
  5
D4
330
1
100
AcDbSymbolTableRecord
100
AcDbBlockTableRecord
  2
_D
340
0
  0
BLOCK_RECORD
  5
E9
330
1
100
AcDbSymbolTableRecord
100
AcDbBlockTableRecord
  2
_D_1
340
0
  0
BLOCK_RECORD
  5
FD
330
1
100
AcDbSymbolTableRecord
100
AcDbBlockTableRecord
  2
_D_2
340
0
  0
BLOCK_RECORD
  5
110
330
1
100
AcDbSymbolTableRecord
100
AcDbBlockTableRecord
  2
_D_3
340
0
  0
BLOCK_RECORD
  5
129
330
1
100
AcDbSymbolTableRecord
100
AcDbBlockTableRecord
  2
SW_DOWELSYMBOL_0
340
0
102
{BLKREFS
331
12F
102
}
  0
ENDTAB
  0
ENDSEC
  0
SECTION
  2
BLOCKS
  0
BLOCK
  5
20
330
1F
100
AcDbEntity
  8
0
100
AcDbBlockBegin
  2
*Model_Space
 70
     0
 10
0.0
 20
0.0
 30
0.0
  3
*Model_Space
  1
*Model_Space
  0
ENDBLK
  5
21
330
1F
100
AcDbEntity
  8
0
100
AcDbBlockEnd
  0
BLOCK
  5
1C
330
1B
100
AcDbEntity
 67
     1
  8
0
100
AcDbBlockBegin
  2
*Paper_Space
 70
     0
 10
0.0
 20
0.0
 30
0.0
  3
*Paper_Space
  1
*Paper_Space
  0
ENDBLK
  5
1D
330
1B
100
AcDbEntity
 67
     1
  8
0
100
AcDbBlockEnd
  0
BLOCK
  5
24
330
23
100
AcDbEntity
  8
0
100
AcDbBlockBegin
  2
*Paper_Space0
 70
     0
 10
0.0
 20
0.0
 30
0.0
  3
*Paper_Space0
  1
*Paper_Space0
  0
ENDBLK
  5
25
330
23
100
AcDbEntity
  8
0
100
AcDbBlockEnd
  0
BLOCK
  5
80
330
7F
100
AcDbEntity
  8
0
100
AcDbBlockBegin
  2
블럭10
 70
     2
 10
0.0
 20
0.0
 30
0.0
  3
블럭10
  1
블럭10
  0
ELLIPSE
  5
82
330
7F
100
AcDbEntity
  8
중심선
100
AcDbEllipse
 10
20.54032771741204
 20
12.0471743016438
 30
0.0
 11
6.600054785286829
 21
-1.261213355974178E-13
 31
0.0
210
0.0
220
0.0
230
1.0
 40
0.636358354079598
 41
0.9219305317359503
 42
6.513795318482858
  0
ELLIPSE
  5
83
330
7F
100
AcDbEntity
  8
중심선
100
AcDbEllipse
 10
20.54032771746488
 20
12.04717430159265
 30
0.0
 11
3.960054785062283
 21
1.540847449632565E-10
 31
0.0
210
0.0
220
0.0
230
1.0
 40
0.3939339440162632
 41
1.131841032648279
 42
5.62031148352944
  0
LINE
  5
84
330
7F
100
AcDbEntity
  8
중심선
100
AcDbLine
 10
2.268634060543552
 20
16.24717430164393
 30
0.0
 11
5.714909304380834
 21
16.24717430164393
 31
0.0
  0
LINE
  5
85
330
7F
100
AcDbEntity
  8
중심선
100
AcDbLine
 10
5.245725140726316
 20
7.84717430164391
 30
0.0
 11
8.692000384563599
 21
7.84717430164391
 31
0.0
  0
LINE
  5
86
330
7F
100
AcDbEntity
  8
중심선
100
AcDbLine
 10
15.74043728645272
 20
16.24717430164393
 30
0.0
 11
8.692000384563599
 21
7.84717430164391
 31
0.0
  0
LINE
  5
87
330
7F
100
AcDbEntity
  8
중심선
100
AcDbLine
 10
0.1404042013395286
 20
13.71084872107135
 30
0.0
 11
3.58671253028996
 21
13.71088815037384
 31
0.0
  0
LINE
  5
88
330
7F
100
AcDbEntity
  8
중심선
100
AcDbLine
 10
2.750260043222114
 20
10.84717430164391
 30
0.0
 11
6.196535287059397
 21
10.84717430164391
 31
0.0
  0
LINE
  5
89
330
7F
100
AcDbEntity
  8
중심선
100
AcDbLine
 10
12.29416204261559
 20
16.24717430164393
 30
0.0
 11
5.245725140726316
 21
7.84717430164391
 31
0.0
  0
LINE
  5
8A
330
7F
100
AcDbEntity
  8
중심선
100
AcDbLine
 10
10.72767329541681
 20
16.24717430164393
 30
0.0
 11
6.196535287059397
 21
10.84717430164391
 31
0.0
  0
LINE
  5
8B
330
7F
100
AcDbEntity
  8
중심선
100
AcDbLine
 10
7.28139805157953
 20
16.24717430164393
 30
0.0
 11
2.750260043222114
 21
10.84717430164391
 31
0.0
  0
LINE
  5
8C
330
7F
100
AcDbEntity
  8
중심선
100
AcDbLine
 10
5.714909304380834
 20
16.24717430164393
 30
0.0
 11
3.58671253028996
 21
13.71088815037384
 31
0.0
  0
LINE
  5
8D
330
7F
100
AcDbEntity
  8
중심선
100
AcDbLine
 10
2.268634060543552
 20
16.24717430164393
 30
0.0
 11
0.1404042013395286
 21
13.71084872107135
 31
0.0
  0
LINE
  5
8E
330
7F
100
AcDbEntity
  8
중심선
100
AcDbLine
 10
7.28139805157953
 20
16.24717430164393
 30
0.0
 11
10.72767329541681
 21
16.24717430164393
 31
0.0
  0
LINE
  5
8F
330
7F
100
AcDbEntity
  8
중심선
100
AcDbLine
 10
12.29416204261559
 20
16.24717430164393
 30
0.0
 11
15.74043728645272
 21
16.24717430164393
 31
0.0
  0
LINE
  5
90
330
7F
100
AcDbEntity
  8
중심선
100
AcDbLine
 10
19.22036997980202
 20
11.08717430171403
 30
0.0
 11
23.66174974927406
 21
11.08717430171406
 31
0.0
  0
LINE
  5
91
330
7F
100
AcDbEntity
  8
중심선
100
AcDbLine
 10
19.22039502424796
 20
13.00717430171391
 30
0.0
 11
19.22036997980202
 21
11.08717430171403
 31
0.0
  0
LINE
  5
92
330
7F
100
AcDbEntity
  8
중심선
100
AcDbLine
 10
19.22039502424796
 20
13.00717430171391
 30
0.0
 11
26.96566020931264
 21
13.00717430171391
 31
0.0
  0
LINE
  5
93
330
7F
100
AcDbEntity
  8
중심선
100
AcDbLine
 10
22.22332737316547
 20
13.45928029700563
 30
0.0
 11
24.52862924686651
 21
15.39360700705356
 31
0.0
  0
ATTDEF
  5
95
330
7F
100
AcDbEntity
  8
FORMAT
 62
     2
100
AcDbText
 10
4.408487351596664
 20
2.075366912832191
 30
0.0
 40
4.233333333333333
  1
E1163064
 41
0.75
  7
SLDTEXTSTYLE0
 11
4.408487351596664
 21
-0.0412997538344756
 31
0.0
100
AcDbAttributeDefinition
  3

  2
AUTOATTR0
 70
     0
 74
     1
  0
ENDBLK
  5
81
330
7F
100
AcDbEntity
  8
0
100
AcDbBlockEnd
  0
BLOCK
  5
D5
330
D4
100
AcDbEntity
  8
0
100
AcDbBlockBegin
  2
_D
 70
     0
 10
0.0
 20
0.0
 30
0.0
  3
_D
  1
_D
  0
LINE
  5
D7
330
D4
100
AcDbEntity
  8
치수문자_일반주서
 62
     0
370
    -2
100
AcDbLine
 10
-50.56249999999999
 20
12.69999999999998
 30
0.0
 11
-64.00000000000004
 21
12.69999999999993
 31
0.0
  0
LINE
  5
D8
330
D4
100
AcDbEntity
  8
치수문자_일반주서
 62
     0
370
    -2
100
AcDbLine
 10
-50.56249999999999
 20
-12.70000000000002
 30
0.0
 11
-63.99999999999996
 21
-12.70000000000007
 31
0.0
  0
LINE
  5
D9
330
D4
100
AcDbEntity
  8
치수문자_일반주서
 62
     0
370
    -2
100
AcDbLine
 10
-64.00000000000003
 20
9.397999999999934
 30
0.0
 11
-63.99999999999997
 21
-9.398000000000073
 31
0.0
  0
SOLID
  5
DA
330
D4
100
AcDbEntity
  8
치수문자_일반주서
 62
     0
100
AcDbTrace
 10
-63.44966666666669
 20
9.397999999999936
 30
0.0
 11
-64.55033333333336
 21
9.397999999999932
 31
0.0
 12
-64.00000000000004
 22
12.69999999999993
 32
0.0
 13
-64.00000000000004
 23
12.69999999999993
 33
0.0
  0
SOLID
  5
DB
330
D4
100
AcDbEntity
  8
치수문자_일반주서
 62
     0
100
AcDbTrace
 10
-64.5503333333333
 20
-9.398000000000074
 30
0.0
 11
-63.44966666666664
 21
-9.39800000000007
 31
0.0
 12
-63.99999999999996
 22
-12.70000000000007
 32
0.0
 13
-63.99999999999996
 23
-12.70000000000007
 33
0.0
  0
MTEXT
  5
DC
330
D4
100
AcDbEntity
  8
치수문자_일반주서
 62
     0
100
AcDbMText
 10
-68.375
 20
-0.00000000000002
 30
0.0
 40
3.5
 41
0.0
 71
     2
 72
     1
  1
\A1;%%c25.40 [1]
  7
SLDTEXTSTYLE0
 11
-3.356894814614646E-15
 21
1.0
 31
0.0
 73
     1
 44
1.0
  0
POINT
  5
DD
330
D4
100
AcDbEntity
  8
Defpoints
 62
     0
100
AcDbPoint
 10
-50.49999999999999
 20
12.69999999999998
 30
0.0
  0
POINT
  5
DE
330
D4
100
AcDbEntity
  8
Defpoints
 62
     0
100
AcDbPoint
 10
-50.49999999999999
 20
-12.70000000000002
 30
0.0
  0
POINT
  5
DF
330
D4
100
AcDbEntity
  8
Defpoints
 62
     0
100
AcDbPoint
 10
-63.99999999999996
 20
-12.70000000000007
 30
0.0
  0
ENDBLK
  5
D6
330
D4
100
AcDbEntity
  8
0
100
AcDbBlockEnd
  0
BLOCK
  5
EA
330
E9
100
AcDbEntity
  8
0
100
AcDbBlockBegin
  2
_D_1
 70
     0
 10
0.0
 20
0.0
 30
0.0
  3
_D_1
  1
_D_1
  0
LINE
  5
EC
330
E9
100
AcDbEntity
  8
치수문자_일반주서
 62
     0
370
    -2
100
AcDbLine
 10
53.27500000000002
 20
12.7625
 30
0.0
 11
53.27500000000002
 21
25.8656078842394
 31
0.0
  0
LINE
  5
ED
330
E9
100
AcDbEntity
  8
치수문자_일반주서
 62
     0
370
    -2
100
AcDbLine
 10
12.00000000000002
 20
10.0025263028657
 30
0.0
 11
12.00000000000002
 21
25.8656078842394
 31
0.0
  0
LINE
  5
EE
330
E9
100
AcDbEntity
  8
치수문자_일반주서
 62
     0
370
    -2
100
AcDbLine
 10
49.97300000000002
 20
25.8656078842394
 30
0.0
 11
15.30200000000002
 21
25.8656078842394
 31
0.0
  0
SOLID
  5
EF
330
E9
100
AcDbEntity
  8
치수문자_일반주서
 62
     0
100
AcDbTrace
 10
49.97300000000002
 20
25.31527455090607
 30
0.0
 11
49.97300000000002
 21
26.41594121757274
 31
0.0
 12
53.27500000000002
 22
25.8656078842394
 32
0.0
 13
53.27500000000002
 23
25.8656078842394
 33
0.0
  0
SOLID
  5
F0
330
E9
100
AcDbEntity
  8
치수문자_일반주서
 62
     0
100
AcDbTrace
 10
15.30200000000002
 20
26.41594121757274
 30
0.0
 11
15.30200000000002
 21
25.31527455090607
 31
0.0
 12
12.00000000000002
 22
25.8656078842394
 32
0.0
 13
12.00000000000002
 23
25.8656078842394
 33
0.0
  0
MTEXT
  5
F1
330
E9
100
AcDbEntity
  8
치수문자_일반주서
 62
     0
100
AcDbMText
 10
32.63750000000002
 20
30.2406078842394
 30
0.0
 40
3.5
 41
0.0
 71
     2
 72
     1
  1
\A1;41.28 [1 5/8]
  7
SLDTEXTSTYLE0
 73
     1
 44
1.0
  0
POINT
  5
F2
330
E9
100
AcDbEntity
  8
Defpoints
 62
     0
100
AcDbPoint
 10
53.27500000000002
 20
12.7
 30
0.0
  0
POINT
  5
F3
330
E9
100
AcDbEntity
  8
Defpoints
 62
     0
100
AcDbPoint
 10
12.00000000000002
 20
9.9400263028657
 30
0.0
  0
POINT
  5
F4
330
E9
100
AcDbEntity
  8
Defpoints
 62
     0
100
AcDbPoint
 10
12.00000000000002
 20
25.8656078842394
 30
0.0
  0
ENDBLK
  5
EB
330
E9
100
AcDbEntity
  8
0
100
AcDbBlockEnd
  0
BLOCK
  5
FE
330
FD
100
AcDbEntity
  8
0
100
AcDbBlockBegin
  2
_D_2
 70
     0
 10
0.0
 20
0.0
 30
0.0
  3
_D_2
  1
_D_2
  0
LINE
  5
100
330
FD
100
AcDbEntity
  8
치수문자_일반주서
 62
     0
370
    -2
100
AcDbLine
 10
53.27500000000001
 20
12.7625
 30
0.0
 11
53.27500000000001
 21
42.57707860462922
 31
0.0
  0
LINE
  5
101
330
FD
100
AcDbEntity
  8
치수문자_일반주서
 62
     0
370
    -2
100
AcDbLine
 10
-51.50000000000001
 20
11.76249999999998
 30
0.0
 11
-51.50000000000001
 21
42.57707860462922
 31
0.0
  0
LINE
  5
102
330
FD
100
AcDbEntity
  8
치수문자_일반주서
 62
     0
370
    -2
100
AcDbLine
 10
49.97300000000001
 20
42.57707860462922
 30
0.0
 11
-48.19800000000001
 21
42.57707860462922
 31
0.0
  0
SOLID
  5
103
330
FD
100
AcDbEntity
  8
치수문자_일반주서
 62
     0
100
AcDbTrace
 10
49.97300000000001
 20
42.02674527129589
 30
0.0
 11
49.97300000000001
 21
43.12741193796256
 31
0.0
 12
53.27500000000001
 22
42.57707860462922
 32
0.0
 13
53.27500000000001
 23
42.57707860462922
 33
0.0
  0
SOLID
  5
104
330
FD
100
AcDbEntity
  8
치수문자_일반주서
 62
     0
100
AcDbTrace
 10
-48.19800000000001
 20
43.12741193796256
 30
0.0
 11
-48.19800000000001
 21
42.02674527129589
 31
0.0
 12
-51.50000000000001
 22
42.57707860462922
 32
0.0
 13
-51.50000000000001
 23
42.57707860462922
 33
0.0
  0
MTEXT
  5
105
330
FD
100
AcDbEntity
  8
치수문자_일반주서
 62
     0
100
AcDbMText
 10
0.8874999999998598
 20
46.95207860462922
 30
0.0
 40
3.5
 41
0.0
 71
     2
 72
     1
  1
\A1;104.78 [4 1/8]
  7
SLDTEXTSTYLE0
 73
     1
 44
1.0
  0
POINT
  5
106
330
FD
100
AcDbEntity
  8
Defpoints
 62
     0
100
AcDbPoint
 10
53.27500000000001
 20
12.7
 30
0.0
  0
POINT
  5
107
330
FD
100
AcDbEntity
  8
Defpoints
 62
     0
100
AcDbPoint
 10
-51.50000000000001
 20
11.69999999999998
 30
0.0
  0
POINT
  5
108
330
FD
100
AcDbEntity
  8
Defpoints
 62
     0
100
AcDbPoint
 10
-51.50000000000001
 20
42.57707860462922
 30
0.0
  0
ENDBLK
  5
FF
330
FD
100
AcDbEntity
  8
0
100
AcDbBlockEnd
  0
BLOCK
  5
111
330
110
100
AcDbEntity
  8
0
100
AcDbBlockBegin
  2
_D_3
 70
     0
 10
0.0
 20
0.0
 30
0.0
  3
_D_3
  1
_D_3
  0
LINE
  5
113
330
110
100
AcDbEntity
  8
치수문자_일반주서
 62
     0
370
    -2
100
AcDbLine
 10
53.33750000000002
 20
-12.69999999999999
 30
0.0
 11
75.31356189137848
 21
-12.69999999999992
 31
0.0
  0
LINE
  5
114
330
110
100
AcDbEntity
  8
치수문자_일반주서
 62
     0
370
    -2
100
AcDbLine
 10
53.33750000000002
 20
12.7
 30
0.0
 11
75.3135618913784
 21
12.70000000000008
 31
0.0
  0
LINE
  5
115
330
110
100
AcDbEntity
  8
치수문자_일반주서
 62
     0
370
    -2
100
AcDbLine
 10
75.3135618913784
 20
12.70000000000008
 30
0.0
 11
75.31356189137828
 21
44.46025000000009
 31
0.0
  0
LINE
  5
116
330
110
100
AcDbEntity
  8
치수문자_일반주서
 62
     0
370
    -2
100
AcDbLine
 10
75.31356189137848
 20
-12.69999999999992
 30
0.0
 11
75.3135618913784
 21
12.70000000000008
 31
0.0
  0
LINE
  5
117
330
110
100
AcDbEntity
  8
치수문자_일반주서
 62
     0
370
    -2
100
AcDbLine
 10
75.3135618913785
 20
-16.00199999999992
 30
0.0
 11
75.31356189137851
 21
-19.30399999999992
 31
0.0
  0
LINE
  5
118
330
110
100
AcDbEntity
  8
치수문자_일반주서
 62
     0
370
    -2
100
AcDbLine
 10
75.31356189137838
 20
16.00200000000008
 30
0.0
 11
75.31356189137837
 21
19.30400000000008
 31
0.0
  0
SOLID
  5
119
330
110
100
AcDbEntity
  8
치수문자_일반주서
 62
     0
100
AcDbTrace
 10
75.86389522471183
 20
-16.00199999999991
 30
0.0
 11
74.76322855804517
 21
-16.00199999999992
 31
0.0
 12
75.31356189137848
 22
-12.69999999999992
 32
0.0
 13
75.31356189137848
 23
-12.69999999999992
 33
0.0
  0
SOLID
  5
11A
330
110
100
AcDbEntity
  8
치수문자_일반주서
 62
     0
100
AcDbTrace
 10
74.76322855804506
 20
16.00200000000008
 30
0.0
 11
75.86389522471171
 21
16.00200000000009
 31
0.0
 12
75.3135618913784
 22
12.70000000000008
 32
0.0
 13
75.3135618913784
 23
12.70000000000008
 33
0.0
  0
MTEXT
  5
11B
330
110
100
AcDbEntity
  8
치수문자_일반주서
 62
     0
100
AcDbMText
 10
70.93856189137833
 20
33.30400000000007
 30
0.0
 40
3.5
 41
0.0
 71
     2
 72
     1
  1
\A1;%%c25.40 [1]
  7
SLDTEXTSTYLE0
 11
-3.356894814614647E-15
 21
1.0
 31
0.0
 73
     1
 44
1.0
  0
POINT
  5
11C
330
110
100
AcDbEntity
  8
Defpoints
 62
     0
100
AcDbPoint
 10
53.27500000000002
 20
-12.69999999999999
 30
0.0
  0
POINT
  5
1B9
330
110
100
AcDbEntity
  8
Defpoints
 62
     0
100
AcDbPoint
 10
53.27500000000002
 20
12.7
 30
0.0
  0
POINT
  5
1BA
330
110
100
AcDbEntity
  8
Defpoints
 62
     0
100
AcDbPoint
 10
75.3135618913784
 20
12.70000000000009
 30
0.0
  0
ENDBLK
  5
112
330
110
100
AcDbEntity
  8
0
100
AcDbBlockEnd
  0
BLOCK
  5
12A
330
129
100
AcDbEntity
  8
0
100
AcDbBlockBegin
  2
SW_DOWELSYMBOL_0
 70
     0
 10
0.0
 20
0.0
 30
0.0
  3
SW_DOWELSYMBOL_0
  1
SW_DOWELSYMBOL_0
  0
CIRCLE
  5
12C
330
129
100
AcDbEntity
  8
해칭선
 62
     0
100
AcDbCircle
 10
0.0
 20
0.0
 30
0.0
 40
2.999999999999996
  0
HATCH
  5
12D
330
129
100
AcDbEntity
  8
0
  6
Continuous
 62
     0
370
     0
100
AcDbHatch
 10
0.0
 20
0.0
 30
0.0
210
0.0
220
0.0
230
1.0
  2
SOLID
 70
     1
 71
     0
 91
        1
 92
        0
 93
        3
 72
     2
 10
0.0
 20
0.0
 40
2.999999999999996
 50
0.0
 51
90.0
 73
     1
 72
     1
 10
0.0
 20
2.999999999999996
 11
0.0
 21
0.0
 72
     1
 10
0.0
 20
0.0
 11
2.999999999999996
 21
0.0
 97
        0
 75
     0
 76
     1
 98
        1
 10
0.0
 20
0.0
  0
HATCH
  5
12E
330
129
100
AcDbEntity
  8
0
  6
Continuous
 62
     0
370
     0
100
AcDbHatch
 10
0.0
 20
0.0
 30
0.0
210
0.0
220
0.0
230
1.0
  2
SOLID
 70
     1
 71
     0
 91
        1
 92
        0
 93
        3
 72
     2
 10
0.0
 20
0.0
 40
2.999999999999996
 50
180.0
 51
270.0000000000008
 73
     1
 72
     1
 10
0.0
 20
-2.999999999999996
 11
0.0
 21
0.0
 72
     1
 10
0.0
 20
0.0
 11
-2.999999999999996
 21
0.0
 97
        0
 75
     0
 76
     1
 98
        1
 10
0.0
 20
0.0
  0
ENDBLK
  5
12B
330
129
100
AcDbEntity
  8
0
100
AcDbBlockEnd
  0
ENDSEC
  0
SECTION
  2
ENTITIES
  0
LINE
  5
96
330
1F
100
AcDbEntity
  8
외형선
  6
Continuous
370
    15
100
AcDbLine
 10
8.950110812596096
 20
12.69999999999999
 30
0.0
 11
-13.06992499999999
 21
12.69999999999999
 31
0.0
  0
LINE
  5
97
330
1F
100
AcDbEntity
  8
외형선
  6
Continuous
370
    15
100
AcDbLine
 10
-50.5
 20
-12.70000000000001
 30
0.0
 11
8.950110812596096
 21
-12.7
 31
0.0
  0
LINE
  5
99
330
1F
100
AcDbEntity
  8
외형선
  6
Continuous
370
    15
100
AcDbLine
 10
-51.50000000000001
 20
-11.7
 30
0.0
 11
-50.5
 21
-12.7
 31
0.0
  0
SPLINE
  5
9A
330
1F
100
AcDbEntity
  8
외형선
  6
Continuous
370
    15
100
AcDbSpline
210
0.0
220
0.0
230
1.0
 70
     8
 71
     3
 72
     9
 73
     5
 74
     0
 42
0.000000001
 43
0.00000001
 40
0.0
 40
0.0
 40
0.0
 40
0.0
 40
0.513415295112947
 40
1.0
 40
1.0
 40
1.0
 40
1.0
 10
12.00000000000002
 20
9.939487277299612
 30
0.0
 10
11.56346805561673
 20
9.932559342376885
 30
0.0
 10
10.71321690700759
 20
9.919065519756726
 30
0.0
 10
9.863278316587149
 20
9.918429673093256
 30
0.0
 10
9.4497111983953
 20
9.918120279832157
 30
0.0
  0
SPLINE
  5
9B
330
1F
100
AcDbEntity
  8
외형선
  6
Continuous
370
    15
100
AcDbSpline
210
0.0
220
0.0
230
1.0
 70
     8
 71
     3
 72
    15
 73
    11
 74
     0
 42
0.000000001
 43
0.00000001
 40
0.0
 40
0.0
 40
0.0
 40
0.0
 40
0.0244565305945641
 40
0.0541440412063436
 40
0.1454998821154878
 40
0.4992080449012715
 40
0.852911514464883
 40
0.9446926652743755
 40
0.9748701462068602
 40
1.0
 40
1.0
 40
1.0
 40
1.0
 10
9.449029934223322
 20
9.918313302500133
 30
0.0
 10
9.446740163760074
 20
9.918764000652327
 30
0.0
 10
9.441670866386275
 20
9.919761796281174
 30
0.0
 10
9.418273631027839
 20
9.93349093995659
 30
0.0
 10
9.327868005913697
 20
10.00468820002098
 30
0.0
 10
9.179175450037482
 20
10.14770306579338
 30
0.0
 10
9.036077449857524
 20
10.29663221865342
 30
0.0
 10
8.9650947306803
 20
10.38606605545353
 30
0.0
 10
8.951522721287034
 20
10.40862082226948
 30
0.0
 10
8.950551915270442
 20
10.41326827598809
 30
0.0
 10
8.950110812596096
 20
10.41537992777964
 30
0.0
  0
SPLINE
  5
9C
330
1F
100
AcDbEntity
  8
외형선
  6
Continuous
370
    15
100
AcDbSpline
210
0.0
220
0.0
230
1.0
 70
     8
 71
     3
 72
    11
 73
     7
 74
     0
 42
0.000000001
 43
0.00000001
 40
0.0
 40
0.0
 40
0.0
 40
0.0
 40
0.2098863354409208
 40
0.4444777216078921
 40
0.707289598900393
 40
1.0
 40
1.0
 40
1.0
 40
1.0
 10
8.950153183669368
 20
-9.92043464141012
 30
0.0
 10
9.154857916548611
 20
-9.91931902355094
 30
0.0
 10
9.588362523131869
 20
-9.916956472014698
 30
0.0
 10
10.31006195626751
 20
-9.918368485491905
 30
0.0
 10
11.12326974936986
 20
-9.925344987350627
 30
0.0
 10
11.69745558085327
 20
-9.934607018069432
 30
0.0
 10
12.00000000000002
 20
-9.93948727729962
 30
0.0
  0
SPLINE
  5
9D
330
1F
100
AcDbEntity
  8
0
  6
Continuous
 62
     1
370
    15
100
AcDbSpline
210
0.0
220
0.0
230
1.0
 70
     8
 71
     3
 72
    10
 73
     6
 74
     0
 42
0.000000001
 43
0.00000001
 40
0.0
 40
0.0
 40
0.0
 40
0.0
 40
0.4546850319362271
 40
0.6191840964945812
 40
1.0
 40
1.0
 40
1.0
 40
1.0
 10
20.37243445472381
 20
3.25437249649292
 30
0.0
 10
19.83722050515967
 20
3.509561084550675
 30
0.0
 10
19.10837318775192
 20
3.857073547539409
 30
0.0
 10
17.94276860349646
 20
4.442796872566452
 30
0.0
 10
17.29911217306121
 20
4.780583086247144
 30
0.0
 10
16.8496203757361
 20
5.016473112540065
 30
0.0
  0
LINE
  5
9E
330
1F
100
AcDbEntity
  8
0
  6
Continuous
 62
     1
370
    15
100
AcDbLine
 10
13.32001260190487
 20
3.591667772247323
 30
0.0
 11
13.21208456257704
 21
3.651209552347483
 31
0.0
  0
SPLINE
  5
9F
330
1F
100
AcDbEntity
  8
0
  6
Continuous
 62
     1
370
    15
100
AcDbSpline
210
0.0
220
0.0
230
1.0
 70
     8
 71
     3
 72
     9
 73
     5
 74
     0
 42
0.000000001
 43
0.00000001
 40
0.0
 40
0.0
 40
0.0
 40
0.0
 40
0.4999069767252088
 40
1.0
 40
1.0
 40
1.0
 40
1.0
 10
16.17494874251063
 20
10.09191712941579
 30
0.0
 10
15.47795047654305
 20
10.05765409389106
 30
0.0
 10
14.08369454810318
 20
9.989115271430148
 30
0.0
 10
12.69465099162137
 20
9.95603199368635
 30
0.0
 10
12.00000000000001
 20
9.939487277299616
 30
0.0
  0
SPLINE
  5
A0
330
1F
100
AcDbEntity
  8
0
  6
Continuous
 62
     1
370
    15
100
AcDbSpline
210
0.0
220
0.0
230
1.0
 70
     8
 71
     3
 72
    41
 73
    37
 74
     0
 42
0.000000001
 43
0.00000001
 40
0.0
 40
0.0
 40
0.0
 40
0.0
 40
0.026817118067125
 40
0.0506568004332871
 40
0.0716293940157532
 40
0.0900050363705528
 40
0.1062728547303763
 40
0.1211973852201806
 40
0.1435203664130207
 40
0.1655604536327489
 40
0.1865229445325855
 40
0.2322999553660414
 40
0.2734100250912319
 40
0.3188498010523824
 40
0.3498473853576477
 40
0.3833995721997501
 40
0.4126908393503768
 40
0.4354545772410917
 40
0.4535876666804128
 40
0.476094889409881
 40
0.5159263932838372
 40
0.5590677156766201
 40
0.6037121553633857
 40
0.6485494479408637
 40
0.6932168088676549
 40
0.7323520230576609
 40
0.7645568915265787
 40
0.7966452404924462
 40
0.8338447975742178
 40
0.8491820542024766
 40
0.8650895433498108
 40
0.8821251198342309
 40
0.9009019991268928
 40
0.9293482863540341
 40
0.9623028466351435
 40
1.0
 40
1.0
 40
1.0
 40
1.0
 10
48.5565215571371
 20
8.68619734368034
 30
0.0
 10
48.43379705529333
 20
8.674446751220104
 30
0.0
 10
48.20197383765252
 20
8.652250204382332
 30
0.0
 10
47.83029814035687
 20
8.606990567487307
 30
0.0
 10
47.46459692171584
 20
8.562949929097085
 30
0.0
 10
47.10115630216927
 20
8.523812177564709
 30
0.0
 10
46.73946811869071
 20
8.493310976596542
 30
0.0
 10
46.31443167095655
 20
8.469031116397232
 30
0.0
 10
45.85195994447048
 20
8.461363397349043
 30
0.0
 10
45.35639644991878
 20
8.450405886127237
 30
0.0
 10
44.66413468829154
 20
8.430115225629542
 30
0.0
 10
43.80586985473816
 20
8.401254459748266
 30
0.0
 10
42.76240641155806
 20
8.373719935807227
 30
0.0
 10
41.86069209401673
 20
8.360329910006481
 30
0.0
 10
41.01417844156688
 20
8.35638724441231
 30
0.0
 10
40.29388492252643
 20
8.359251734647124
 30
0.0
 10
39.63697958860787
 20
8.36735661665504
 30
0.0
 10
39.09876679068699
 20
8.377736085693845
 30
0.0
 10
38.61304895744986
 20
8.389768285248728
 30
0.0
 10
37.99527718225123
 20
8.408398142035598
 30
0.0
 10
37.18426608130358
 20
8.439518021832901
 30
0.0
 10
36.20712949849728
 20
8.487626090402973
 30
0.0
 10
35.19484144869064
 20
8.549039193009518
 30
0.0
 10
34.16758948964886
 20
8.623288819665278
 30
0.0
 10
33.18218011240103
 20
8.705458988016991
 30
0.0
 10
32.28282335091421
 20
8.790053463248285
 30
0.0
 10
31.47044537861141
 20
8.873905887448991
 30
0.0
 10
30.66929750334674
 20
8.960498271288257
 30
0.0
 10
30.0091719195566
 20
9.031818549272213
 30
0.0
 10
29.48777247849448
 20
9.083759824563769
 30
0.0
 10
29.10558663906888
 20
9.125603709863205
 30
0.0
 10
28.70035471935179
 20
9.177442641004076
 30
0.0
 10
28.21870182599947
 20
9.247200707295477
 30
0.0
 10
27.65842801143715
 20
9.33776367175071
 30
0.0
 10
27.0170140628961
 20
9.447341090708052
 30
0.0
 10
26.59534021408579
 20
9.515652677811186
 30
0.0
 10
26.3703505722463
 20
9.552101225804343
 30
0.0
  0
SPLINE
  5
A1
330
1F
100
AcDbEntity
  8
0
  6
Continuous
 62
     1
370
    15
100
AcDbSpline
210
0.0
220
0.0
230
1.0
 70
     8
 71
     3
 72
    18
 73
    14
 74
     0
 42
0.000000001
 43
0.00000001
 40
0.0
 40
0.0
 40
0.0
 40
0.0
 40
0.0873206815603312
 40
0.1596107432709637
 40
0.2235529486635561
 40
0.2932372426988613
 40
0.4120545331744478
 40
0.5337171010505267
 40
0.6403538720721264
 40
0.7345346724332341
 40
0.8253032805735628
 40
0.9151709899006267
 40
1.0
 40
1.0
 40
1.0
 40
1.0
 10
26.3703505722463
 20
-9.55210122580435
 30
0.0
 10
26.58526206194921
 20
-9.517116160217729
 30
0.0
 10
26.97809205360763
 20
-9.453168052829154
 30
0.0
 10
27.61233009737488
 20
-9.346809953418816
 30
0.0
 10
28.26626527184809
 20
-9.250262080382763
 30
0.0
 10
29.08983195711226
 20
-9.140348847582366
 30
0.0
 10
30.11835776951995
 20
-9.020428440317296
 30
0.0
 10
31.26405900265781
 20
-8.895246626733556
 30
0.0
 10
32.331726311878
 20
-8.784872321955078
 30
0.0
 10
33.29612483258883
 20
-8.693425678557778
 30
0.0
 10
34.19373119006823
 20
-8.619040387183498
 30
0.0
 10
35.01278441321172
 20
-8.561075767574701
 30
0.0
 10
35.5550978023842
 20
-8.527963969370326
 30
0.0
 10
35.81843364588589
 20
-8.511885584650168
 30
0.0
  0
SPLINE
  5
A2
330
1F
100
AcDbEntity
  8
0
  6
Continuous
 62
     1
370
    15
100
AcDbSpline
210
0.0
220
0.0
230
1.0
 70
     8
 71
     3
 72
     9
 73
     5
 74
     0
 42
0.000000001
 43
0.00000001
 40
0.0
 40
0.0
 40
0.0
 40
0.0
 40
0.5000930232747912
 40
1.0
 40
1.0
 40
1.0
 40
1.0
 10
12.00000000000001
 20
-9.939487277299623
 30
0.0
 10
12.69465099162137
 20
-9.956031993686357
 30
0.0
 10
14.08369454810318
 20
-9.989115271430155
 30
0.0
 10
15.47795047654305
 20
-10.05765409389106
 30
0.0
 10
16.17494874251063
 20
-10.0919171294158
 30
0.0
  0
SPLINE
  5
A3
330
1F
100
AcDbEntity
  8
외형선
  6
Continuous
370
    15
100
AcDbSpline
210
0.0
220
0.0
230
1.0
 70
     8
 71
     3
 72
    10
 73
     6
 74
     0
 42
0.000000001
 43
0.00000001
 40
0.0
 40
0.0
 40
0.0
 40
0.0
 40
0.5
 40
0.5
 40
1.0
 40
1.0
 40
1.0
 40
1.0
 10
12.00000000000001
 20
7.446721624469297
 30
0.0
 10
11.49102042277706
 20
7.684567226967091
 30
0.0
 10
10.98137695914895
 20
7.916538245378723
 30
0.0
 10
9.964434825066611
 20
8.367071821301089
 30
0.0
 10
9.458423685134006
 20
8.585462560442126
 30
0.0
 10
8.950226827818094
 20
8.797122000067223
 30
0.0
  0
LINE
  5
A4
330
1F
100
AcDbEntity
  8
외형선
  6
Continuous
370
    15
100
AcDbLine
 10
12.00000000000001
 20
7.446721624469294
 30
0.0
 11
12.00000000000001
 21
4.315827518756311
 31
0.0
  0
SPLINE
  5
A5
330
1F
100
AcDbEntity
  8
외형선
  6
Continuous
370
    15
100
AcDbSpline
210
0.0
220
0.0
230
1.0
 70
     8
 71
     3
 72
    10
 73
     6
 74
     0
 42
0.000000001
 43
0.00000001
 40
0.0
 40
0.0
 40
0.0
 40
0.0
 40
0.5
 40
0.5
 40
1.0
 40
1.0
 40
1.0
 40
1.0
 10
12.00000000000001
 20
4.31582751875631
 30
0.0
 10
11.49100105712978
 20
4.591981233107698
 30
0.0
 10
10.98133817740113
 20
4.864789966932776
 30
0.0
 10
9.964357529027625
 20
5.40175880899405
 30
0.0
 10
9.458327214088861
 20
5.665703784534664
 30
0.0
 10
8.950110812596106
 20
5.925282220656463
 30
0.0
  0
LINE
  5
A6
330
1F
100
AcDbEntity
  8
외형선
  6
Continuous
370
    15
100
AcDbLine
 10
8.950110812596103
 20
8.797514552226685
 30
0.0
 11
8.950110812596096
 21
12.69999999999999
 31
0.0
  0
LINE
  5
A7
330
1F
100
AcDbEntity
  8
외형선
  6
Continuous
370
    15
100
AcDbLine
 10
-50.5
 20
10.795
 30
0.0
 11
-50.5
 21
-12.70000000000001
 31
0.0
  0
LINE
  5
A8
330
1F
100
AcDbEntity
  8
외형선
  6
Continuous
370
    15
100
AcDbLine
 10
8.950110812596096
 20
-12.7
 30
0.0
 11
8.950110812596106
 21
5.9252848742322
 31
0.0
  0
LINE
  5
A9
330
1F
100
AcDbEntity
  8
외형선
  6
Continuous
370
    15
100
AcDbLine
 10
-51.50000000000001
 20
10.795
 30
0.0
 11
-51.50000000000001
 21
-11.69999999999998
 31
0.0
  0
SPLINE
  5
AA
330
1F
100
AcDbEntity
  8
외형선
  6
Continuous
370
    15
100
AcDbSpline
210
0.0
220
0.0
230
1.0
 70
    24
 71
     3
 72
    10
 73
     6
 74
     0
 42
0.000000001
 43
0.00000001
 40
0.0
 40
0.0
 40
0.0
 40
0.0
 40
0.4999999999999999
 40
0.4999999999999999
 40
1.0
 40
1.0
 40
1.0
 40
1.0
 10
12.00000000000001
 20
4.315827518756297
 30
0.0
 10
12.00000000000001
 20
4.279658615326987
 30
0.0
 10
12.00000000000001
 20
4.11059227549412
 30
0.0
 10
12.00000000000001
 20
3.536403249295897
 30
0.0
 10
12.00000000000001
 20
3.133699623960425
 30
0.0
 10
12.00000000000001
 20
2.674846316482876
 30
0.0
  0
SPLINE
  5
AB
330
1F
100
AcDbEntity
  8
외형선
  6
Continuous
370
    15
100
AcDbSpline
210
0.0
220
0.0
230
1.0
 70
     8
 71
     3
 72
    10
 73
     6
 74
     0
 42
0.000000001
 43
0.00000001
 40
0.0
 40
0.0
 40
0.0
 40
0.0
 40
0.5
 40
0.5
 40
1.0
 40
1.0
 40
1.0
 40
1.0
 10
12.00000000000001
 20
2.674846316482876
 30
0.0
 10
11.49100572366786
 20
2.870859885713889
 30
0.0
 10
10.98134752263518
 20
3.06481113236584
 30
0.0
 10
9.964376155044347
 20
3.447195878410515
 30
0.0
 10
9.458350460711761
 20
3.635475267125553
 30
0.0
 10
8.950138768776855
 20
3.820964835720194
 30
0.0
  0
SPLINE
  5
AC
330
1F
100
AcDbEntity
  8
외형선
  6
Continuous
370
    15
100
AcDbSpline
210
0.0
220
0.0
230
1.0
 70
     8
 71
     3
 72
    10
 73
     6
 74
     0
 42
0.000000001
 43
0.00000001
 40
0.0
 40
0.0
 40
0.0
 40
0.0
 40
0.5
 40
0.5
 40
1.0
 40
1.0
 40
1.0
 40
1.0
 10
12.00000000000001
 20
-9.689197666626093
 30
0.0
 10
11.49100812984954
 20
-9.618520521853252
 30
0.0
 10
10.9813523412674
 20
-9.540034571421144
 30
0.0
 10
9.964385759076656
 20
-9.368026046656338
 30
0.0
 10
9.458362447240427
 20
-9.274597583487253
 30
0.0
 10
8.950153183669364
 20
-9.173688581716458
 30
0.0
  0
SPLINE
  5
AD
330
1F
100
AcDbEntity
  8
외형선
  6
Continuous
370
    15
100
AcDbSpline
210
0.0
220
0.0
230
1.0
 70
    24
 71
     3
 72
    14
 73
    10
 74
     0
 42
0.000000001
 43
0.00000001
 40
0.0
 40
0.0
 40
0.0
 40
0.0
 40
0.25
 40
0.25
 40
0.5
 40
0.5
 40
0.75
 40
0.75
 40
1.0
 40
1.0
 40
1.0
 40
1.0
 10
12.0
 20
2.674846316482881
 30
0.0
 10
12.0
 20
1.554485769315659
 30
0.0
 10
12.0
 20
0.3856054938153967
 30
0.0
 10
12.0
 20
-1.945594131518678
 30
0.0
 10
12.0
 20
-3.106767436886728
 30
0.0
 10
12.0
 20
-5.304214521798375
 30
0.0
 10
12.0
 20
-6.339317409663781
 30
0.0
 10
12.0
 20
-8.190148010146235
 30
0.0
 10
12.0
 20
-9.005404382512424
 30
0.0
 10
12.0
 20
-9.68919766662609
 30
0.0
  0
SPLINE
  5
AE
330
1F
100
AcDbEntity
  8
외형선
  6
Continuous
370
    15
100
AcDbSpline
210
0.0
220
0.0
230
1.0
 70
    24
 71
     3
 72
    15
 73
    11
 74
     0
 42
0.000000001
 43
0.00000001
 40
0.0
 40
0.0
 40
0.0
 40
0.0
 40
0.0481601969769369
 40
0.1895210010626969
 40
0.3308818051484568
 40
0.4763494464407028
 40
0.6218170877329486
 40
0.7495835185739168
 40
0.877349949414885
 40
1.0
 40
1.0
 40
1.0
 40
1.0
 10
12.00000000000001
 20
9.922574482852257
 30
0.0
 10
12.00000000000001
 20
9.926690916627221
 30
0.0
 10
12.00000000000001
 20
9.942889991772493
 30
0.0
 10
12.00000000000001
 20
9.848832077628966
 30
0.0
 10
12.00000000000001
 20
9.667805616807716
 30
0.0
 10
12.00000000000001
 20
9.376527322424545
 30
0.0
 10
12.00000000000001
 20
9.003908865015461
 30
0.0
 10
12.00000000000001
 20
8.5623108560052
 30
0.0
 10
12.00000000000001
 20
8.081598201255908
 30
0.0
 10
12.00000000000001
 20
7.706205142716403
 30
0.0
 10
12.00000000000001
 20
7.522343532023012
 30
0.0
  0
SPLINE
  5
AF
330
1F
100
AcDbEntity
  8
외형선
  6
Continuous
370
    15
100
AcDbSpline
210
0.0
220
0.0
230
1.0
 70
    24
 71
     3
 72
     9
 73
     5
 74
     0
 42
0.000000001
 43
0.00000001
 40
0.0
 40
0.0
 40
0.0
 40
0.0
 40
0.571335264264989
 40
1.0
 40
1.0
 40
1.0
 40
1.0
 10
12.00000000000001
 20
-9.689197666626093
 30
0.0
 10
12.00000000000001
 20
-9.77615342868333
 30
0.0
 10
12.00000000000001
 20
-9.92835086422777
 30
0.0
 10
12.00000000000001
 20
-9.924307413507005
 30
0.0
 10
12.00000000000001
 20
-9.922574128772332
 30
0.0
  0
SPLINE
  5
B0
330
1F
100
AcDbEntity
  8
0
  6
Continuous
 62
     1
370
    15
100
AcDbSpline
210
0.0
220
0.0
230
1.0
 70
     8
 71
     3
 72
    46
 73
    42
 74
     0
 42
0.000000001
 43
0.00000001
 40
0.0
 40
0.0
 40
0.0
 40
0.0
 40
0.0625000000000011
 40
0.0625000000000011
 40
0.1250000000000022
 40
0.1250000000000022
 40
0.1562500000000025
 40
0.1562500000000025
 40
0.1875000000000028
 40
0.1875000000000028
 40
0.2500000000000031
 40
0.2500000000000031
 40
0.281250000000003
 40
0.281250000000003
 40
0.3125000000000029
 40
0.3125000000000029
 40
0.3750000000000027
 40
0.3750000000000027
 40
0.4375000000000025
 40
0.4375000000000025
 40
0.5000000000000023
 40
0.5000000000000023
 40
0.5625000000000022
 40
0.5625000000000022
 40
0.6250000000000019
 40
0.6250000000000019
 40
0.6875000000000017
 40
0.6875000000000017
 40
0.7187500000000016
 40
0.7187500000000016
 40
0.7500000000000014
 40
0.7500000000000014
 40
0.7812500000000013
 40
0.7812500000000013
 40
0.8125000000000012
 40
0.8125000000000012
 40
0.8750000000000008
 40
0.8750000000000008
 40
0.9375000000000004
 40
0.9375000000000004
 40
1.0
 40
1.0
 40
1.0
 40
1.0
 10
53.27500000000001
 20
-12.05154903924513
 30
0.0
 10
52.41802336815081
 20
-11.89511349864417
 30
0.0
 10
51.55479595826377
 20
-11.7106409071992
 30
0.0
 10
49.83357464804024
 20
-11.28918609935062
 30
0.0
 10
48.97727866983163
 20
-11.05246802764861
 30
0.0
 10
47.68537754825451
 20
-10.65953923207231
 30
0.0
 10
47.25448877638487
 20
-10.52234161189882
 30
0.0
 10
46.3944226578177
 20
-10.23622812879244
 30
0.0
 10
45.96627830225736
 20
-10.08744021235875
 30
0.0
 10
44.67786930258333
 20
-9.623559513695907
 30
0.0
 10
43.81427063034964
 20
-9.29091908520968
 30
0.0
 10
42.52520384645388
 20
-8.761992708821202
 30
0.0
 10
42.09720675507268
 20
-8.58080287516286
 30
0.0
 10
41.23750046485348
 20
-8.20828219595553
 30
0.0
 10
40.80668213912563
 20
-8.017068452839448
 30
0.0
 10
39.51466213924705
 20
-7.430019351370405
 30
0.0
 10
38.65804036066298
 20
-7.021439379603727
 30
0.0
 10
36.9373809167671
 20
-6.172837891571612
 30
0.0
 10
36.07399368937809
 20
-5.732859573800203
 30
0.0
 10
34.35885015507043
 20
-4.830681198107118
 30
0.0
 10
33.49696793172738
 20
-4.366722108927341
 30
0.0
 10
31.77527146257333
 20
-3.421262996181763
 30
0.0
 10
30.91916103708048
 20
-2.940479938841582
 30
0.0
 10
29.19687164099404
 20
-1.965772145040638
 30
0.0
 10
28.33689954836403
 20
-1.473007406397303
 30
0.0
 10
26.61998407398064
 20
-0.4835734897887996
 30
0.0
 10
25.75642925733101
 20
0.0143662456866206
 30
0.0
 10
24.4667694092131
 20
0.7584312913247193
 30
0.0
 10
24.03875799461127
 20
1.005800388957488
 30
0.0
 10
23.17945473452714
 20
1.499733638927589
 30
0.0
 10
22.74872861799554
 20
1.746187810395788
 30
0.0
 10
21.88734617668375
 20
2.236796257899982
 30
0.0
 10
21.45669112560874
 20
2.480949808911089
 30
0.0
 10
20.59767090886832
 20
2.965704551652908
 30
0.0
 10
20.16956444300769
 20
3.206260829992865
 30
0.0
 10
18.879556219563
 20
3.923068356389053
 30
0.0
 10
18.01605299435163
 20
4.393657964567735
 30
0.0
 10
16.29980487746097
 20
5.310637641695529
 30
0.0
 10
15.43912853062943
 20
5.758454978466909
 30
0.0
 10
13.71704368982192
 20
6.625757965686914
 30
0.0
 10
12.86097853820136
 20
7.044387290597893
 30
0.0
 10
11.99999999999626
 20
7.44672162447105
 30
0.0
  0
SPLINE
  5
B1
330
1F
100
AcDbEntity
  8
0
  6
Continuous
 62
     1
370
    15
100
AcDbSpline
210
0.0
220
0.0
230
1.0
 70
     8
 71
     3
 72
    19
 73
    15
 74
     0
 42
0.000000001
 43
0.00000001
 40
0.0
 40
0.0
 40
0.0
 40
0.0
 40
0.0840793558272142
 40
0.1681001210921681
 40
0.2521156446066643
 40
0.3361793137209563
 40
0.4202720998289532
 40
0.5043001615238255
 40
0.5883124994525234
 40
0.6723625243911815
 40
0.7564621857966848
 40
0.8404995965341937
 40
0.9245108059445415
 40
1.0
 40
1.0
 40
1.0
 40
1.0
 10
53.27500000000001
 20
-10.01994775747635
 30
0.0
 10
52.35112478898962
 20
-9.83601449656629
 30
0.0
 10
50.50401816790597
 20
-9.468276148339667
 30
0.0
 10
47.73416746078847
 20
-8.723853772026276
 30
0.0
 10
44.96449151755762
 20
-7.85262007181648
 30
0.0
 10
42.19373911864876
 20
-6.854057595921409
 30
0.0
 10
39.42257186192465
 20
-5.748170193040731
 30
0.0
 10
36.65250736881616
 20
-4.550338077965345
 30
0.0
 10
33.88293579279511
 20
-3.280595481151802
 30
0.0
 10
31.11240911842028
 20
-1.95890918561276
 30
0.0
 10
28.34114923994262
 20
-0.606654427912154
 30
0.0
 10
25.57085784916489
 20
0.7548578659454546
 30
0.0
 10
22.8952812391823
 20
2.063014440402109
 30
0.0
 10
21.14281862103514
 20
2.889066020013149
 30
0.0
 10
20.31340384977653
 20
3.280024078037397
 30
0.0
  0
LINE
  5
B2
330
1F
100
AcDbEntity
  8
0
  6
Continuous
 62
     1
370
    15
100
AcDbLine
 10
53.27499999999974
 20
-12.05154903924513
 30
0.0
 11
53.27500000000001
 21
-10.01994775747635
 31
0.0
  0
SPLINE
  5
B3
330
1F
100
AcDbEntity
  8
0
  6
Continuous
 62
     1
370
    15
100
AcDbSpline
210
0.0
220
0.0
230
1.0
 70
     8
 71
     3
 72
    46
 73
    42
 74
     0
 42
0.000000001
 43
0.00000001
 40
0.0
 40
0.0
 40
0.0
 40
0.0
 40
0.0625000000000007
 40
0.0625000000000007
 40
0.1250000000000014
 40
0.1250000000000014
 40
0.1562500000000016
 40
0.1562500000000016
 40
0.1875000000000017
 40
0.1875000000000017
 40
0.2500000000000017
 40
0.2500000000000017
 40
0.2812500000000016
 40
0.2812500000000016
 40
0.3125000000000016
 40
0.3125000000000016
 40
0.3750000000000014
 40
0.3750000000000014
 40
0.4375000000000013
 40
0.4375000000000013
 40
0.5000000000000011
 40
0.5000000000000011
 40
0.5625000000000009
 40
0.5625000000000009
 40
0.6250000000000008
 40
0.6250000000000008
 40
0.6875000000000006
 40
0.6875000000000006
 40
0.7187500000000004
 40
0.7187500000000004
 40
0.7500000000000003
 40
0.7500000000000003
 40
0.7812500000000003
 40
0.7812500000000003
 40
0.8125000000000002
 40
0.8125000000000002
 40
0.8750000000000001
 40
0.8750000000000001
 40
0.9375000000000001
 40
0.9375000000000001
 40
1.0
 40
1.0
 40
1.0
 40
1.0
 10
53.27500000000002
 20
-12.69999999999999
 30
0.0
 10
52.4180233681509
 20
-12.66888172996807
 30
0.0
 10
51.55479595826392
 20
-12.61932649145726
 30
0.0
 10
49.83357464804055
 20
-12.46264914720379
 30
0.0
 10
48.97727866983205
 20
-12.35571397793478
 30
0.0
 10
47.685377548255
 20
-12.15290962277116
 30
0.0
 10
47.2544887763854
 20
-12.07827821850325
 30
0.0
 10
46.39442265781834
 20
-11.9153597528644
 30
0.0
 10
45.96627830225802
 20
-11.82715334534657
 30
0.0
 10
44.67786930258411
 20
-11.54211402367307
 30
0.0
 10
43.81427063035051
 20
-11.32478006311305
 30
0.0
 10
42.52520384645484
 20
-10.96114974958545
 30
0.0
 10
42.09720675507367
 20
-10.83376004118903
 30
0.0
 10
41.23750046485458
 20
-10.56635290185847
 30
0.0
 10
40.80668213912674
 20
-10.42641308132184
 30
0.0
 10
39.5146621392483
 20
-9.98893283099933
 30
0.0
 10
38.65804036066427
 20
-9.67424520991214
 30
0.0
 10
36.93738091676857
 20
-9.001124794393327
 30
0.0
 10
36.07399368937963
 20
-8.642684253806745
 30
0.0
 10
34.35885015507213
 20
-7.88954145025936
 30
0.0
 10
33.49696793172919
 20
-7.49337879207248
 30
0.0
 10
31.77527146257527
 20
-6.66880626702805
 30
0.0
 10
30.9191610370825
 20
-6.241054631410259
 30
0.0
 10
29.19687164099622
 20
-5.357253144744902
 30
0.0
 10
28.33689954836627
 20
-4.902233731272993
 30
0.0
 10
26.61998407398306
 20
-3.972395501729445
 30
0.0
 10
25.75642925733351
 20
-3.496364889126041
 30
0.0
 10
24.4667694092157
 20
-2.772974201691859
 30
0.0
 10
24.03875799461391
 20
-2.530470033960612
 30
0.0
 10
23.17945473452987
 20
-2.0422256370075
 30
0.0
 10
22.74872861799831
 20
-1.796589293843949
 30
0.0
 10
21.88734617668659
 20
-1.303549287776609
 30
0.0
 10
21.45669112561162
 20
-1.056146354259552
 30
0.0
 10
20.59767090887126
 20
-0.5608535141949644
 30
0.0
 10
20.16956444301067
 20
-0.3130141863220613
 30
0.0
 10
18.87955621956612
 20
0.4317098346949083
 30
0.0
 10
18.01605299435482
 20
0.9290096166786657
 30
0.0
 10
16.29980487746428
 20
1.915024006059622
 30
0.0
 10
15.43912853063286
 20
2.405258308834978
 30
0.0
 10
13.71704368982551
 20
3.372593096460405
 30
0.0
 10
12.86097853820501
 20
3.848709807349282
 30
0.0
 10
11.99999999999999
 20
4.315827518756323
 30
0.0
  0
SPLINE
  5
B4
330
1F
100
AcDbEntity
  8
0
  6
Continuous
 62
     1
370
    15
100
AcDbSpline
210
0.0
220
0.0
230
1.0
 70
     8
 71
     3
 72
    10
 73
     6
 74
     0
 42
0.000000001
 43
0.00000001
 40
0.0
 40
0.0
 40
0.0
 40
0.0
 40
0.1720206832233679
 40
0.5859910212018757
 40
1.0
 40
1.0
 40
1.0
 40
1.0
 10
21.7001192479553
 20
-1.195236921939828
 30
0.0
 10
21.14393029007678
 20
-0.9735720046709293
 30
0.0
 10
19.24926431560655
 20
-0.2184671602937846
 30
0.0
 10
16.01585361805559
 20
1.102758146251476
 30
0.0
 10
13.33865951985044
 20
2.150800622769701
 30
0.0
 10
12.00000000000002
 20
2.674846316482872
 30
0.0
  0
SPLINE
  5
B5
330
1F
100
AcDbEntity
  8
외형선
  6
Continuous
370
    15
100
AcDbSpline
210
0.0
220
0.0
230
1.0
 70
    24
 71
     3
 72
    10
 73
     6
 74
     0
 42
0.000000001
 43
0.00000001
 40
0.0
 40
0.0
 40
0.0
 40
0.0
 40
0.5
 40
0.5
 40
1.0
 40
1.0
 40
1.0
 40
1.0
 10
12.00000000000002
 20
4.315827518756294
 30
0.0
 10
12.00000000000002
 20
4.279658615326983
 30
0.0
 10
12.00000000000002
 20
4.110592275494116
 30
0.0
 10
12.00000000000002
 20
3.536403249295893
 30
0.0
 10
12.00000000000002
 20
3.133699623960422
 30
0.0
 10
12.00000000000002
 20
2.674846316482874
 30
0.0
  0
LINE
  5
B6
330
1F
100
AcDbEntity
  8
0
  6
Continuous
 62
     1
370
    15
100
AcDbLine
 10
53.27500000000002
 20
-12.69999999999999
 30
0.0
 11
53.27499999999968
 21
-12.05154903924511
 31
0.0
  0
SPLINE
  5
B7
330
1F
100
AcDbEntity
  8
0
  6
Continuous
 62
     1
370
    15
100
AcDbSpline
210
0.0
220
0.0
230
1.0
 70
     8
 71
     3
 72
    10
 73
     6
 74
     0
 42
0.000000001
 43
0.00000001
 40
0.0
 40
0.0
 40
0.0
 40
0.0
 40
0.5
 40
0.5
 40
1.0
 40
1.0
 40
1.0
 40
1.0
 10
53.27500000000001
 20
-3.393985414576489
 30
0.0
 10
52.42440223300545
 20
-2.725276500219909
 30
0.0
 10
51.58243926415032
 20
-2.038875865003513
 30
0.0
 10
49.91554037091925
 20
-0.6311881139455375
 30
0.0
 10
49.09060326807884
 20
0.090096587356128
 30
0.0
 10
48.27500000000167
 20
0.8305052561804179
 30
0.0
  0
LINE
  5
B8
330
1F
100
AcDbEntity
  8
0
  6
Continuous
 62
     1
370
    15
100
AcDbLine
 10
48.27500000000002
 20
2.937719435296587
 30
0.0
 11
53.27500000000001
 21
0.0000000000000005
 31
0.0
  0
LINE
  5
B9
330
1F
100
AcDbEntity
  8
0
  6
Continuous
 62
     1
370
    15
100
AcDbLine
 10
53.27500000000001
 20
0.0000000000000005
 30
0.0
 11
53.27500000000001
 21
-3.39398541457649
 31
0.0
  0
SPLINE
  5
BA
330
1F
100
AcDbEntity
  8
0
  6
Continuous
 62
     1
370
    15
100
AcDbSpline
210
0.0
220
0.0
230
1.0
 70
     8
 71
     3
 72
    17
 73
    13
 74
     0
 42
0.000000001
 43
0.00000001
 40
0.0
 40
0.0
 40
0.0
 40
0.0
 40
0.094697193356427
 40
0.1894263379178352
 40
0.3044803249861337
 40
0.4195347475378057
 40
0.534589590188487
 40
0.6496448375402617
 40
0.7647004741821555
 40
0.8797564846906277
 40
0.9632103692004189
 40
1.0
 40
1.0
 40
1.0
 40
1.0
 10
48.27500000000001
 20
2.289784744250632
 30
0.0
 10
47.26170246722469
 20
2.741624747753547
 30
0.0
 10
45.23476551110663
 20
3.645457207351253
 30
0.0
 10
41.97651720154009
 20
5.010724720636127
 30
0.0
 10
38.50028058358028
 20
6.352667019293717
 30
0.0
 10
34.80657261128439
 20
7.598449174783775
 30
0.0
 10
31.11283609135846
 20
8.631100732678446
 30
0.0
 10
27.41909276575958
 20
9.41985547096509
 30
0.0
 10
23.72531691602583
 20
9.947343855564174
 30
0.0
 10
20.36977863245892
 20
10.15975049035618
 30
0.0
 10
17.85163890707121
 20
10.18105903823536
 30
0.0
 10
16.56503281368774
 20
10.09861581188565
 30
0.0
 10
16.17138361740231
 20
10.07339153387341
 30
0.0
  0
SPLINE
  5
BB
330
1F
100
AcDbEntity
  8
0
  6
Continuous
 62
     1
370
    15
100
AcDbSpline
210
0.0
220
0.0
230
1.0
 70
    24
 71
     3
 72
     8
 73
     4
 74
     0
 42
0.000000001
 43
0.00000001
 40
0.0
 40
0.0
 40
0.0
 40
0.0
 40
1.0
 40
1.0
 40
1.0
 40
1.0
 10
48.27500000000002
 20
0.8305052561693248
 30
0.0
 10
48.27500000000002
 20
1.322728240362208
 30
0.0
 10
48.27500000000001
 20
1.81040697189483
 30
0.0
 10
48.27500000000001
 20
2.289784744250635
 30
0.0
  0
SPLINE
  5
BC
330
1F
100
AcDbEntity
  8
0
  6
Continuous
 62
     1
370
    15
100
AcDbSpline
210
0.0
220
0.0
230
1.0
 70
    24
 71
     3
 72
    12
 73
     8
 74
     0
 42
0.000000001
 43
0.00000001
 40
0.0
 40
0.0
 40
0.0
 40
0.0
 40
0.5000000000000001
 40
0.5000000000000001
 40
0.75
 40
0.75
 40
1.0
 40
1.0
 40
1.0
 40
1.0
 10
53.27500000000001
 20
-10.01994775747635
 30
0.0
 10
53.27500000000001
 20
-9.251840640348329
 30
0.0
 10
53.27500000000001
 20
-8.281307845612153
 30
0.0
 10
53.27500000000001
 20
-6.589011337313265
 30
0.0
 10
53.27500000000001
 20
-5.986484557406005
 30
0.0
 10
53.27500000000001
 20
-4.725678605577808
 30
0.0
 10
53.27500000000001
 20
-4.067494970664265
 30
0.0
 10
53.27500000000001
 20
-3.393985414576895
 30
0.0
  0
SPLINE
  5
BD
330
1F
100
AcDbEntity
  8
외형선
  6
Continuous
370
    15
100
AcDbSpline
210
0.0
220
0.0
230
1.0
 70
    24
 71
     3
 72
    15
 73
    11
 74
     0
 42
0.000000001
 43
0.00000001
 40
0.0
 40
0.0
 40
0.0
 40
0.0
 40
0.0487479268184043
 40
0.190021445246734
 40
0.3312949636750639
 40
0.4766727834726801
 40
0.6220506032702965
 40
0.7497381425331818
 40
0.8774256817960671
 40
1.0
 40
1.0
 40
1.0
 40
1.0
 10
12.00000000000001
 20
9.92240028147789
 30
0.0
 10
12.00000000000001
 20
9.926611652889552
 30
0.0
 10
12.00000000000001
 20
9.94302775372387
 30
0.0
 10
12.00000000000001
 20
9.84884609486814
 30
0.0
 10
12.00000000000001
 20
9.667801738062478
 30
0.0
 10
12.00000000000001
 20
9.37652837881501
 30
0.0
 10
12.00000000000002
 20
9.003908620097576
 30
0.0
 10
12.00000000000002
 20
8.56231091779048
 30
0.0
 10
12.00000000000002
 20
8.081598186529115
 30
0.0
 10
12.00000000000002
 20
7.706205137874794
 30
0.0
 10
12.00000000000002
 20
7.522343532023011
 30
0.0
  0
SPLINE
  5
BE
330
1F
100
AcDbEntity
  8
0
  6
Continuous
 62
     1
370
    15
100
AcDbSpline
210
0.0
220
0.0
230
1.0
 70
    24
 71
     3
 72
    10
 73
     6
 74
     0
 42
0.000000001
 43
0.00000001
 40
0.0
 40
0.0
 40
0.0
 40
0.0
 40
0.5
 40
0.5
 40
1.0
 40
1.0
 40
1.0
 40
1.0
 10
48.27500000000002
 20
2.289784744250637
 30
0.0
 10
48.27500000000002
 20
3.318117051978197
 30
0.0
 10
48.27500000000002
 20
4.293337801787541
 30
0.0
 10
48.27500000000002
 20
6.00302680080738
 30
0.0
 10
48.27500000000003
 20
6.735761112039308
 30
0.0
 10
48.27500000000002
 20
7.298596457508376
 30
0.0
  0
SPLINE
  5
BF
330
1F
100
AcDbEntity
  8
0
  6
Continuous
 62
     1
370
    15
100
AcDbSpline
210
0.0
220
0.0
230
1.0
 70
     8
 71
     3
 72
     9
 73
     5
 74
     0
 42
0.000000001
 43
0.00000001
 40
0.0
 40
0.0
 40
0.0
 40
0.0
 40
0.7825338639350078
 40
1.0
 40
1.0
 40
1.0
 40
1.0
 10
53.27500000000001
 20
8.889999999999993
 30
0.0
 10
52.04378275513606
 20
8.880476822777617
 30
0.0
 10
50.47041027682221
 20
8.868307154906
 30
0.0
 10
48.897036752614
 20
8.698591732726117
 30
0.0
 10
48.55488129171746
 20
8.661684375634017
 30
0.0
  0
SPLINE
  5
C0
330
1F
100
AcDbEntity
  8
0
  6
Continuous
 62
     1
370
    15
100
AcDbSpline
210
0.0
220
0.0
230
1.0
 70
     8
 71
     3
 72
     8
 73
     4
 74
     0
 42
0.000000001
 43
0.00000001
 40
0.0
 40
0.0
 40
0.0
 40
0.0
 40
1.0
 40
1.0
 40
1.0
 40
1.0
 10
53.27500000000001
 20
8.89
 30
0.0
 10
51.59435188656208
 20
8.43438940178129
 30
0.0
 10
49.92704233969718
 20
7.907363561684506
 30
0.0
 10
48.27500000000002
 20
7.298596457508375
 30
0.0
  0
SPLINE
  5
C1
330
1F
100
AcDbEntity
  8
0
  6
Continuous
 62
     1
370
    15
100
AcDbSpline
210
0.0
220
0.0
230
1.0
 70
     8
 71
     3
 72
    12
 73
     8
 74
     0
 42
0.000000001
 43
0.00000001
 40
0.0
 40
0.0
 40
0.0
 40
0.0
 40
0.1843392896632229
 40
0.4412766793494116
 40
0.6276417649312684
 40
0.8138568032466839
 40
1.0
 40
1.0
 40
1.0
 40
1.0
 10
26.37542341426184
 20
-9.523825470908553
 30
0.0
 10
25.49205827848957
 20
-9.660516199179481
 30
0.0
 10
23.37743347723972
 20
-9.987730385473933
 30
0.0
 10
20.36976491602228
 20
-10.16379150185979
 30
0.0
 10
17.3530002474268
 20
-10.16467903312103
 30
0.0
 10
14.67591863452276
 20
-10.0195117661715
 30
0.0
 10
12.89185814127071
 20
-9.799288203406785
 30
0.0
 10
12.00000000000002
 20
-9.689197666626093
 30
0.0
  0
SPLINE
  5
C2
330
1F
100
AcDbEntity
  8
외형선
  6
Continuous
370
    15
100
AcDbSpline
210
0.0
220
0.0
230
1.0
 70
    24
 71
     3
 72
    14
 73
    10
 74
     0
 42
0.000000001
 43
0.00000001
 40
0.0
 40
0.0
 40
0.0
 40
0.0
 40
0.25
 40
0.25
 40
0.4999999999999999
 40
0.4999999999999999
 40
0.75
 40
0.75
 40
1.0
 40
1.0
 40
1.0
 40
1.0
 10
12.00000000000001
 20
2.674846316482879
 30
0.0
 10
12.00000000000001
 20
1.554485769315656
 30
0.0
 10
12.00000000000001
 20
0.3856054938153932
 30
0.0
 10
12.00000000000001
 20
-1.945594131518681
 30
0.0
 10
12.00000000000001
 20
-3.106767436886731
 30
0.0
 10
12.00000000000001
 20
-5.304214521798378
 30
0.0
 10
12.00000000000001
 20
-6.339317409663782
 30
0.0
 10
12.00000000000001
 20
-8.190148010146235
 30
0.0
 10
12.00000000000001
 20
-9.005404382512431
 30
0.0
 10
12.00000000000001
 20
-9.689197666626093
 30
0.0
  0
LINE
  5
C3
330
1F
100
AcDbEntity
  8
0
  6
Continuous
 62
     1
370
    15
100
AcDbLine
 10
53.27500000000001
 20
0.0000000000000005
 30
0.0
 11
53.27500000000001
 21
8.889999999999997
 31
0.0
  0
SPLINE
  5
C4
330
1F
100
AcDbEntity
  8
외형선
  6
Continuous
370
    15
100
AcDbSpline
210
0.0
220
0.0
230
1.0
 70
    24
 71
     3
 72
     9
 73
     5
 74
     0
 42
0.000000001
 43
0.00000001
 40
0.0
 40
0.0
 40
0.0
 40
0.0
 40
0.5723804910689725
 40
1.0
 40
1.0
 40
1.0
 40
1.0
 10
12.00000000000002
 20
-9.689197666626097
 30
0.0
 10
12.00000000000002
 20
-9.776184529730221
 30
0.0
 10
12.00000000000001
 20
-9.928158373111346
 30
0.0
 10
12.00000000000001
 20
-9.924176642471046
 30
0.0
 10
12.00000000000001
 20
-9.922473976769945
 30
0.0
  0
SPLINE
  5
C5
330
1F
100
AcDbEntity
  8
0
  6
Continuous
 62
     1
370
    15
100
AcDbSpline
210
0.0
220
0.0
230
1.0
 70
     8
 71
     3
 72
    13
 73
     9
 74
     0
 42
0.000000001
 43
0.00000001
 40
0.0
 40
0.0
 40
0.0
 40
0.0
 40
0.1329397671411796
 40
0.3063531810909437
 40
0.479732224056916
 40
0.6531105943247072
 40
0.8265219926187168
 40
1.0
 40
1.0
 40
1.0
 40
1.0
 10
35.82119295510682
 20
8.513024895112913
 30
0.0
 10
36.59469374189027
 20
8.84065361740569
 30
0.0
 10
38.37718841375026
 20
9.595657958466122
 30
0.0
 10
41.1681694001678
 20
10.57194232212176
 30
0.0
 10
44.19432948630394
 20
11.45159522982426
 30
0.0
 10
47.22047207593418
 20
12.10491235177946
 30
0.0
 10
50.24728357458605
 20
12.54803546971509
 30
0.0
 10
52.26563200496899
 20
12.64218323282061
 30
0.0
 10
53.27500000000002
 20
12.7
 30
0.0
  0
SPLINE
  5
C6
330
1F
100
AcDbEntity
  8
0
  6
Continuous
 62
     1
370
    15
100
AcDbSpline
210
0.0
220
0.0
230
1.0
 70
    24
 71
     3
 72
    10
 73
     6
 74
     0
 42
0.000000001
 43
0.00000001
 40
0.0
 40
0.0
 40
0.0
 40
0.0
 40
0.5
 40
0.5
 40
1.0
 40
1.0
 40
1.0
 40
1.0
 10
53.27500000000001
 20
8.889999999999993
 30
0.0
 10
53.27500000000001
 20
9.42888966145288
 30
0.0
 10
53.27500000000002
 20
10.05512935461238
 30
0.0
 10
53.27500000000002
 20
11.36897854420285
 30
0.0
 10
53.27500000000001
 20
12.05323263467869
 30
0.0
 10
53.27500000000001
 20
12.7
 30
0.0
  0
LINE
  5
C7
330
1F
100
AcDbEntity
  8
중심선
100
AcDbLine
 10
-54.50000000000001
 20
-0.000000000000009
 30
0.0
 11
56.27500000000001
 21
0.0000000000000045
 31
0.0
  0
LINE
  5
C8
330
1F
100
AcDbEntity
  8
참조1
100
AcDbLine
 10
3.736761314031146
 20
0.0010749287238892
 30
0.0
 11
3.736761314031152
 21
-39.99892507127611
 31
0.0
  0
LINE
  5
C9
330
1F
100
AcDbEntity
  8
참조1
100
AcDbLine
 10
3.736761314031152
 20
-39.99892507127611
 30
0.0
 11
-20.15080122126847
 21
-39.9989250712761
 31
0.0
  0
CIRCLE
  5
CA
330
1F
100
AcDbEntity
  8
해칭선
100
AcDbCircle
 10
0.0
 20
0.0
 30
0.0
 40
2.999999999999995
  0
INSERT
  5
CB
330
1F
100
AcDbEntity
  8
0
  6
Continuous
 62
     7
100
AcDbBlockReference
 66
     1
  2
블럭10
 10
-13.05277293212521
 20
-52.04717430164393
 30
0.0
  0
ATTRIB
  5
CC
330
CB
100
AcDbEntity
  8
FORMAT
 62
     2
100
AcDbText
 10
-22.23406822086649
 20
-49.97180738881175
 30
0.0
 40
4.233333333333333
  1
E1163064 [ 2 FLUTE ]
 41
0.75
  7
SLDTEXTSTYLE0
 11
-22.23406822086649
 21
-52.08847405547841
 31
0.0
100
AcDbAttribute
  2
AUTOATTR0
 70
     0
 74
     1
  0
SEQEND
  5
CD
330
CB
100
AcDbEntity
  8
0
  6
Continuous
 62
     7
  0
HATCH
  5
CE
330
1F
100
AcDbEntity
  8
중심선
100
AcDbHatch
 10
0.0
 20
0.0
 30
0.0
210
0.0
220
0.0
230
1.0
  2
SOLID
 70
     1
 71
     0
 91
        1
 92
        0
 93
        4
 72
     1
 10
-7.337863627744352
 20
-35.8
 11
-10.78413887158164
 21
-35.8
 72
     1
 10
-10.78413887158164
 20
-35.8
 11
-12.91236873078566
 21
-38.3363255805726
 72
     1
 10
-12.91236873078566
 20
-38.33632558057261
 11
-9.466060401835225
 21
-38.33628615127012
 72
     1
 10
-9.466060401835225
 20
-38.33628615127012
 11
-7.337863627744351
 21
-35.8
 97
        0
 75
     0
 76
     1
 98
        1
 10
-2.84926131403115
 20
-0.0010749287238987
  0
HATCH
  5
CF
330
1F
100
AcDbEntity
  8
중심선
100
AcDbHatch
 10
0.0
 20
0.0
 30
0.0
210
0.0
220
0.0
230
1.0
  2
SOLID
 70
     1
 71
     0
 91
        1
 92
        0
 93
        4
 72
     1
 10
-2.325099636708345
 20
-35.79999999999998
 11
-5.771374880545683
 21
-35.80000000000003
 72
     1
 10
-5.771374880545683
 20
-35.80000000000003
 11
-10.30251288890307
 21
-41.20000000000002
 72
     1
 10
-10.30251288890307
 20
-41.20000000000002
 11
-6.856237645065789
 21
-41.20000000000002
 72
     1
 10
-6.856237645065789
 20
-41.20000000000002
 11
-2.325099636708345
 21
-35.79999999999998
 97
        0
 75
     0
 76
     1
 98
        1
 10
-2.84926131403115
 20
-0.0010749287238987
  0
HATCH
  5
D0
330
1F
100
AcDbEntity
  8
중심선
100
AcDbHatch
 10
0.0
 20
0.0
 30
0.0
210
0.0
220
0.0
230
1.0
  2
SOLID
 70
     1
 71
     0
 91
        1
 92
        0
 93
        4
 72
     1
 10
2.687664354327494
 20
-35.79999999999998
 11
-0.7586108895096215
 21
-35.8
 72
     1
 10
-0.7586108895096215
 20
-35.8
 11
-7.807047791398871
 21
-44.20000000000002
 72
     1
 10
-7.807047791398871
 20
-44.20000000000002
 11
-4.360772547561588
 21
-44.20000000000002
 72
     1
 10
-4.360772547561588
 20
-44.20000000000002
 11
2.687664354327494
 21
-35.79999999999998
 97
        0
 75
     0
 76
     1
 98
        1
 10
-2.84926131403115
 20
-0.0010749287238987
  0
HATCH
  5
D1
330
1F
100
AcDbEntity
  8
중심선
100
AcDbHatch
 10
0.0
 20
0.0
 30
0.0
210
0.0
220
0.0
230
1.0
  2
SOLID
 70
     1
 71
     0
 91
        1
 92
        0
 93
        6
 72
     3
 10
7.487554785339693
 20
-40.00000000005127
 11
3.960054785062283
 21
1.540882976769353E-10
 40
0.3939339440162628
 50
17.09539180608437
 51
320.0019657685082
 73
     0
 72
     1
 10
9.17055444104029
 20
-38.5878940046383
 11
11.47585631474133
 21
-36.65356729459041
 72
     3
 10
7.487554785286846
 20
-40.00000000000016
 11
6.600054785286829
 21
-1.278976924368180E-13
 40
0.636358354079598
 50
39.99873849337388
 51
368.4976242363725
 73
     1
 72
     1
 10
13.91288727718745
 20
-39.03999999993003
 11
6.16762209212277
 21
-39.03999999993003
 72
     1
 10
6.16762209212277
 20
-39.03999999993003
 11
6.167597047676836
 21
-40.95999999992992
 72
     1
 10
6.167597047676836
 20
-40.95999999992992
 11
10.60897681714887
 21
-40.95999999992989
 97
        0
 75
     0
 76
     1
 98
        1
 10
-2.84926131403115
 20
-0.0010749287238987
  0
DIMENSION
  5
D2
330
1F
100
AcDbEntity
  8
치수문자_일반주서
100
AcDbDimension
  2
_D
 10
-63.99999999999996
 20
-12.70000000000007
 30
0.0
 11
-64.0
 21
-0.0000000000000055
 31
0.0
 70
   160
  1
%%c<>
 71
     2
 42
25.40000000000001
 52
-270.0
  3
SLDDIMSTYLE0
100
AcDbAlignedDimension
 13
-50.49999999999999
 23
12.69999999999998
 33
0.0
 14
-50.49999999999999
 24
-12.70000000000002
 34
0.0
 50
90.0000000000002
100
AcDbRotatedDimension
1001
ACAD
1000
DSTYLE
1002
{
1070
   171
1070
     6
1070
   273
1070
     7
1002
}
  0
DIMENSION
  5
E7
330
1F
100
AcDbEntity
  8
치수문자_일반주서
100
AcDbDimension
  2
_D_1
 10
12.00000000000002
 20
25.8656078842394
 30
0.0
 11
32.63750000000002
 21
25.8656078842394
 31
0.0
 70
   160
  1
<>
 71
     2
 42
41.275
  3
SLDDIMSTYLE0
100
AcDbAlignedDimension
 13
53.27500000000002
 23
12.7
 33
0.0
 14
12.00000000000002
 24
9.9400263028657
 34
0.0
100
AcDbRotatedDimension
1001
ACAD
1000
DSTYLE
1002
{
1070
   171
1070
     6
1070
   273
1070
     7
1002
}
  0
DIMENSION
  5
FC
330
1F
100
AcDbEntity
  8
치수문자_일반주서
100
AcDbDimension
  2
_D_2
 10
-51.50000000000001
 20
42.57707860462922
 30
0.0
 11
0.8874999999998598
 21
42.57707860462922
 31
0.0
 70
   160
  1
<>
 71
     2
 42
104.775
  3
SLDDIMSTYLE0
100
AcDbAlignedDimension
 13
53.27500000000001
 23
12.7
 33
0.0
 14
-51.50000000000001
 24
11.69999999999998
 34
0.0
 50
0.0000000000000039
100
AcDbRotatedDimension
1001
ACAD
1000
DSTYLE
1002
{
1070
   171
1070
     6
1070
   273
1070
     7
1002
}
  0
DIMENSION
  5
10F
330
1F
100
AcDbEntity
  8
치수문자_일반주서
100
AcDbDimension
  2
_D_3
 10
75.3135618913784
 20
12.70000000000008
 30
0.0
 11
75.31356189137833
 21
33.30400000000009
 31
0.0
 70
   160
  1
%%c<>
 71
     2
 42
25.4
 52
-270.0
  3
SLDDIMSTYLE0
100
AcDbAlignedDimension
 13
53.27500000000002
 23
-12.69999999999999
 33
0.0
 14
53.27500000000002
 24
12.7
 34
0.0
 50
90.0000000000002
100
AcDbRotatedDimension
1001
ACAD
1000
DSTYLE
1002
{
1070
   171
1070
     6
1070
   273
1070
     7
1002
}
  0
LINE
  5
122
330
1F
100
AcDbEntity
  8
참조1
100
AcDbLine
 10
77.82153940838579
 20
7.441074928723896
 30
0.0
 11
77.82153940838579
 21
-7.438925071276109
 31
0.0
  0
LINE
  5
123
330
1F
100
AcDbEntity
  8
참조1
100
AcDbLine
 10
90.52153940838579
 20
5.441074928723896
 30
0.0
 11
77.82153940838579
 21
5.441074928723896
 31
0.0
  0
SOLID
  5
124
330
1F
100
AcDbEntity
  8
참조1
100
AcDbTrace
 10
77.82153940838579
 20
5.441074928723896
 30
0.0
 11
84.17153940838578
 21
4.425074928723896
 31
0.0
 12
84.17153940838578
 22
6.457074928723896
 32
0.0
 13
84.17153940838578
 23
6.457074928723896
 33
0.0
  0
LINE
  5
125
330
1F
100
AcDbEntity
  8
참조1
100
AcDbLine
 10
90.52153940838579
 20
-5.438925071276109
 30
0.0
 11
77.82153940838579
 21
-5.438925071276109
 31
0.0
  0
SOLID
  5
126
330
1F
100
AcDbEntity
  8
참조1
100
AcDbTrace
 10
77.82153940838579
 20
-5.438925071276109
 30
0.0
 11
84.17153940838578
 21
-6.454925071276109
 31
0.0
 12
84.17153940838578
 22
-4.422925071276109
 32
0.0
 13
84.17153940838578
 23
-4.422925071276109
 33
0.0
  0
MTEXT
  5
127
330
1F
100
AcDbEntity
  8
참조1
100
AcDbMText
 10
87.20588954101179
 20
11.01136670591222
 30
0.0
 40
3.5
 41
0.0
 71
     1
 72
     1
  1
A
  7
SLDTEXTSTYLE0
 73
     1
 44
1.0
  0
MTEXT
  5
128
330
1F
100
AcDbEntity
  8
참조1
100
AcDbMText
 10
87.20588954101179
 20
0.1313667059122192
 30
0.0
 40
3.5
 41
0.0
 71
     1
 72
     1
  1
A
  7
SLDTEXTSTYLE0
 73
     1
 44
1.0
  0
INSERT
  5
12F
330
1F
100
AcDbEntity
  8
해칭선
100
AcDbBlockReference
  2
SW_DOWELSYMBOL_0
 10
0.0
 20
0.0
 30
0.0
  0
LINE
  5
1AE
330
1F
100
AcDbEntity
  8
외형선
  6
Continuous
370
    15
100
AcDbLine
 10
-35.89500000000001
 20
12.7
 30
0.0
 11
-29.98632499999988
 21
12.7
 31
0.0
  0
LINE
  5
1AF
330
1F
100
AcDbEntity
  8
외형선
  6
Continuous
370
    15
100
AcDbLine
 10
-28.0813249999999
 20
10.795
 30
0.0
 11
-14.97492500000001
 21
10.795
 31
0.0
  0
LINE
  5
1B0
330
1F
100
AcDbEntity
  8
외형선
  6
Continuous
370
    15
100
AcDbLine
 10
-28.0813249999999
 20
10.79500000000001
 30
0.0
 11
-29.98632499999988
 21
12.7
 31
0.0
  0
LINE
  5
1B1
330
1F
100
AcDbEntity
  8
외형선
  6
Continuous
370
    15
100
AcDbLine
 10
-14.97492500000001
 20
10.79500000000001
 30
0.0
 11
-13.06992499999998
 21
12.7
 31
0.0
  0
LINE
  5
1B2
330
1F
100
AcDbEntity
  8
외형선
  6
Continuous
370
    15
100
AcDbLine
 10
-51.50000000000001
 20
10.795
 30
0.0
 11
-37.79999999999998
 21
10.795
 31
0.0
  0
LINE
  5
1B3
330
1F
100
AcDbEntity
  8
외형선
  6
Continuous
370
    15
100
AcDbLine
 10
-37.79999999999998
 20
10.79500000000001
 30
0.0
 11
-35.89500000000001
 21
12.69999999999999
 31
0.0
  0
LINE
  5
1B4
330
1F
100
AcDbEntity
  8
외형선
  6
Continuous
370
    15
100
AcDbLine
 10
-50.5
 20
10.795
 30
0.0
 11
-50.5
 21
-12.7
 31
0.0
  0
ENDSEC
  0
SECTION
  2
OBJECTS
  0
DICTIONARY
  5
C
330
0
100
AcDbDictionary
281
     1
  3
ACAD_GROUP
350
D
  3
ACAD_IMAGE_VARS
350
153
  3
ACAD_LAYOUT
350
1A
  3
ACAD_MLINESTYLE
350
17
  3
ACAD_PLOTSETTINGS
350
19
  3
ACAD_PLOTSTYLENAME
350
E
  3
ACAD_SCALELIST
350
47
  3
APPDATA
350
151
  3
DWGPROPS
350
1BF
  0
DICTIONARY
  5
17A
330
2
100
AcDbDictionary
280
     1
281
     1
  3
ACAD_LAYERSTATES
360
17B
  0
DICTIONARY
  5
D
102
{ACAD_REACTORS
330
C
102
}
330
C
100
AcDbDictionary
281
     1
  0
RASTERVARIABLES
  5
153
102
{ACAD_REACTORS
330
C
102
}
330
C
100
AcDbRasterVariables
 90
        0
 70
     1
 71
     1
 72
     1
  0
DICTIONARY
  5
1A
102
{ACAD_REACTORS
330
C
102
}
330
C
100
AcDbDictionary
281
     1
  3
Layout1
350
1E
  3
Layout2
350
26
  3
Model
350
22
  0
DICTIONARY
  5
17
102
{ACAD_REACTORS
330
C
102
}
330
C
100
AcDbDictionary
281
     1
  3
Standard
350
18
  0
DICTIONARY
  5
19
102
{ACAD_REACTORS
330
C
102
}
330
C
100
AcDbDictionary
281
     1
  0
ACDBDICTIONARYWDFLT
  5
E
102
{ACAD_REACTORS
330
C
102
}
330
C
100
AcDbDictionary
281
     1
  3
Normal
350
F
100
AcDbDictionaryWithDefault
340
F
  0
DICTIONARY
  5
47
102
{ACAD_REACTORS
330
C
102
}
330
C
100
AcDbDictionary
281
     1
  3
A0
350
48
  3
A1
350
49
  3
A2
350
4A
  3
A3
350
4B
  3
A4
350
4C
  3
A5
350
4D
  3
A6
350
4E
  3
A7
350
4F
  3
A8
350
50
  3
A9
350
51
  3
B0
350
52
  3
B1
350
53
  3
B2
350
54
  3
B3
350
55
  3
B4
350
56
  3
B5
350
57
  3
B6
350
58
  3
B7
350
59
  3
B8
350
5A
  3
B9
350
5B
  3
C0
350
5C
  3
C1
350
5D
  3
C2
350
5E
  3
C3
350
5F
  3
C4
350
60
  3
C5
350
61
  3
C6
350
62
  3
C7
350
63
  3
C8
350
64
  3
C9
350
65
  3
D0
350
66
  3
D1
350
67
  3
D2
350
68
  0
DICTIONARY
  5
151
102
{ACAD_REACTORS
330
C
102
}
330
C
100
AcDbDictionary
281
     1
  0
XRECORD
  5
1BF
102
{ACAD_REACTORS
330
C
102
}
330
C
100
AcDbXrecord
280
     1
  1
DWGPROPS COOKIE
  2

  3

  4

  6

  7

  8
12017012
  9

300
=
301
=
302
=
303
=
304
=
305
=
306
=
307
=
308
=
309
=
 40
0.0
 41
2458311.09863941
 42
2458319.191448588
  1

 90
        0
  0
DICTIONARY
  5
17B
102
{ACAD_REACTORS
330
17A
102
}
330
17A
100
AcDbDictionary
281
     1
  0
LAYOUT
  5
1E
102
{ACAD_REACTORS
330
1A
102
}
330
1A
100
AcDbPlotSettings
  1

  2
none_device
  4

  6

 40
0.0
 41
0.0
 42
0.0
 43
0.0
 44
0.0
 45
0.0
 46
0.0
 47
0.0
 48
0.0
 49
0.0
140
0.0
141
0.0
142
1.0
143
1.0
 70
   688
 72
     1
 73
     0
 74
     5
  7

 75
    16
147
1.0
148
0.0
149
0.0
100
AcDbLayout
  1
Layout1
 70
     1
 71
     1
 10
0.0
 20
0.0
 11
420.0
 21
297.0
 12
0.0
 22
0.0
 32
0.0
 14
1.000000000000000E+20
 24
1.000000000000000E+20
 34
1.000000000000000E+20
 15
-1.000000000000000E+20
 25
-1.000000000000000E+20
 35
-1.000000000000000E+20
146
0.0
 13
0.0
 23
0.0
 33
0.0
 16
1.0
 26
0.0
 36
0.0
 17
0.0
 27
1.0
 37
0.0
 76
     0
330
1B
  0
LAYOUT
  5
26
102
{ACAD_REACTORS
330
1A
102
}
330
1A
100
AcDbPlotSettings
  1

  2
none_device
  4

  6

 40
0.0
 41
0.0
 42
0.0
 43
0.0
 44
0.0
 45
0.0
 46
0.0
 47
0.0
 48
0.0
 49
0.0
140
0.0
141
0.0
142
1.0
143
1.0
 70
   688
 72
     1
 73
     0
 74
     5
  7

 75
    16
147
1.0
148
0.0
149
0.0
100
AcDbLayout
  1
Layout2
 70
     1
 71
     2
 10
0.0
 20
0.0
 11
0.0
 21
0.0
 12
0.0
 22
0.0
 32
0.0
 14
0.0
 24
0.0
 34
0.0
 15
0.0
 25
0.0
 35
0.0
146
0.0
 13
0.0
 23
0.0
 33
0.0
 16
1.0
 26
0.0
 36
0.0
 17
0.0
 27
1.0
 37
0.0
 76
     0
330
23
  0
LAYOUT
  5
22
102
{ACAD_REACTORS
330
1A
102
}
330
1A
100
AcDbPlotSettings
  1

  2
none_device
  4
ANSI_A_(11.00_x_8.50_Inches)
  6

 40
6.35
 41
19.05
 42
6.35000508
 43
19.05000254
 44
279.4
 45
215.9
 46
111.9561005549141
 47
43.17679658125441
 48
0.0
 49
0.0
140
0.0
141
0.0
142
0.0474689590334285
143
1.0
 70
  1696
 72
     0
 73
     0
 74
     0
  7

 75
     0
147
0.0235690232323232
148
0.0
149
0.0
100
AcDbLayout
  1
Model
 70
     1
 71
     0
 10
0.0
 20
0.0
 11
420.0
 21
297.0
 12
0.0
 22
0.0
 32
0.0
 14
1.000000000000000E+20
 24
1.000000000000000E+20
 34
1.000000000000000E+20
 15
-1.000000000000000E+20
 25
-1.000000000000000E+20
 35
-1.000000000000000E+20
146
0.0
 13
0.0
 23
0.0
 33
0.0
 16
1.0
 26
0.0
 36
0.0
 17
0.0
 27
1.0
 37
0.0
 76
     0
330
1F
331
29
  0
MLINESTYLE
  5
18
102
{ACAD_REACTORS
330
17
102
}
330
17
100
AcDbMlineStyle
  2
Standard
 70
     0
  3

 62
   256
 51
90.0
 52
90.0
 71
     2
 49
0.5
 62
   256
  6
BYLAYER
 49
-0.5
 62
   256
  6
BYLAYER
  0
ACDBPLACEHOLDER
  5
F
102
{ACAD_REACTORS
330
E
102
}
330
E
  0
SCALE
  5
48
102
{ACAD_REACTORS
330
47
102
}
330
47
100
AcDbScale
 70
     0
300
1:1
140
1.0
141
1.0
290
     1
  0
SCALE
  5
49
102
{ACAD_REACTORS
330
47
102
}
330
47
100
AcDbScale
 70
     0
300
1:2
140
1.0
141
2.0
290
     0
  0
SCALE
  5
4A
102
{ACAD_REACTORS
330
47
102
}
330
47
100
AcDbScale
 70
     0
300
1:4
140
1.0
141
4.0
290
     0
  0
SCALE
  5
4B
102
{ACAD_REACTORS
330
47
102
}
330
47
100
AcDbScale
 70
     0
300
1:5
140
1.0
141
5.0
290
     0
  0
SCALE
  5
4C
102
{ACAD_REACTORS
330
47
102
}
330
47
100
AcDbScale
 70
     0
300
1:8
140
1.0
141
8.0
290
     0
  0
SCALE
  5
4D
102
{ACAD_REACTORS
330
47
102
}
330
47
100
AcDbScale
 70
     0
300
1:10
140
1.0
141
10.0
290
     0
  0
SCALE
  5
4E
102
{ACAD_REACTORS
330
47
102
}
330
47
100
AcDbScale
 70
     0
300
1:16
140
1.0
141
16.0
290
     0
  0
SCALE
  5
4F
102
{ACAD_REACTORS
330
47
102
}
330
47
100
AcDbScale
 70
     0
300
1:20
140
1.0
141
20.0
290
     0
  0
SCALE
  5
50
102
{ACAD_REACTORS
330
47
102
}
330
47
100
AcDbScale
 70
     0
300
1:30
140
1.0
141
30.0
290
     0
  0
SCALE
  5
51
102
{ACAD_REACTORS
330
47
102
}
330
47
100
AcDbScale
 70
     0
300
1:40
140
1.0
141
40.0
290
     0
  0
SCALE
  5
52
102
{ACAD_REACTORS
330
47
102
}
330
47
100
AcDbScale
 70
     0
300
1:50
140
1.0
141
50.0
290
     0
  0
SCALE
  5
53
102
{ACAD_REACTORS
330
47
102
}
330
47
100
AcDbScale
 70
     0
300
1:100
140
1.0
141
100.0
290
     0
  0
SCALE
  5
54
102
{ACAD_REACTORS
330
47
102
}
330
47
100
AcDbScale
 70
     0
300
2:1
140
2.0
141
1.0
290
     0
  0
SCALE
  5
55
102
{ACAD_REACTORS
330
47
102
}
330
47
100
AcDbScale
 70
     0
300
4:1
140
4.0
141
1.0
290
     0
  0
SCALE
  5
56
102
{ACAD_REACTORS
330
47
102
}
330
47
100
AcDbScale
 70
     0
300
8:1
140
8.0
141
1.0
290
     0
  0
SCALE
  5
57
102
{ACAD_REACTORS
330
47
102
}
330
47
100
AcDbScale
 70
     0
300
10:1
140
10.0
141
1.0
290
     0
  0
SCALE
  5
58
102
{ACAD_REACTORS
330
47
102
}
330
47
100
AcDbScale
 70
     0
300
100:1
140
100.0
141
1.0
290
     0
  0
SCALE
  5
59
102
{ACAD_REACTORS
330
47
102
}
330
47
100
AcDbScale
 70
     0
300
1/128" = 1'-0"
140
0.0078125
141
12.0
290
     0
  0
SCALE
  5
5A
102
{ACAD_REACTORS
330
47
102
}
330
47
100
AcDbScale
 70
     0
300
1/64" = 1'-0"
140
0.015625
141
12.0
290
     0
  0
SCALE
  5
5B
102
{ACAD_REACTORS
330
47
102
}
330
47
100
AcDbScale
 70
     0
300
1/32" = 1'-0"
140
0.03125
141
12.0
290
     0
  0
SCALE
  5
5C
102
{ACAD_REACTORS
330
47
102
}
330
47
100
AcDbScale
 70
     0
300
1/16" = 1'-0"
140
0.0625
141
12.0
290
     0
  0
SCALE
  5
5D
102
{ACAD_REACTORS
330
47
102
}
330
47
100
AcDbScale
 70
     0
300
3/32" = 1'-0"
140
0.09375
141
12.0
290
     0
  0
SCALE
  5
5E
102
{ACAD_REACTORS
330
47
102
}
330
47
100
AcDbScale
 70
     0
300
1/8" = 1'-0"
140
0.125
141
12.0
290
     0
  0
SCALE
  5
5F
102
{ACAD_REACTORS
330
47
102
}
330
47
100
AcDbScale
 70
     0
300
3/16" = 1'-0"
140
0.1875
141
12.0
290
     0
  0
SCALE
  5
60
102
{ACAD_REACTORS
330
47
102
}
330
47
100
AcDbScale
 70
     0
300
1/4" = 1'-0"
140
0.25
141
12.0
290
     0
  0
SCALE
  5
61
102
{ACAD_REACTORS
330
47
102
}
330
47
100
AcDbScale
 70
     0
300
3/8" = 1'-0"
140
0.375
141
12.0
290
     0
  0
SCALE
  5
62
102
{ACAD_REACTORS
330
47
102
}
330
47
100
AcDbScale
 70
     0
300
1/2" = 1'-0"
140
0.5
141
12.0
290
     0
  0
SCALE
  5
63
102
{ACAD_REACTORS
330
47
102
}
330
47
100
AcDbScale
 70
     0
300
3/4" = 1'-0"
140
0.75
141
12.0
290
     0
  0
SCALE
  5
64
102
{ACAD_REACTORS
330
47
102
}
330
47
100
AcDbScale
 70
     0
300
1" = 1'-0"
140
1.0
141
12.0
290
     0
  0
SCALE
  5
65
102
{ACAD_REACTORS
330
47
102
}
330
47
100
AcDbScale
 70
     0
300
1-1/2" = 1'-0"
140
1.5
141
12.0
290
     0
  0
SCALE
  5
66
102
{ACAD_REACTORS
330
47
102
}
330
47
100
AcDbScale
 70
     0
300
3" = 1'-0"
140
3.0
141
12.0
290
     0
  0
SCALE
  5
67
102
{ACAD_REACTORS
330
47
102
}
330
47
100
AcDbScale
 70
     0
300
6" = 1'-0"
140
6.0
141
12.0
290
     0
  0
SCALE
  5
68
102
{ACAD_REACTORS
330
47
102
}
330
47
100
AcDbScale
 70
     0
300
1'-0" = 1'-0"
140
12.0
141
12.0
290
     0
  0
ENDSEC
  0
EOF
