  0
SECTION
  2
HEADER
  9
$ACADVER
  1
AC1015
  9
$ACADMAINTVER
 70
     6
  9
$DWGCODEPAGE
  3
ANSI_949
  9
$INSBASE
 10
0.0
 20
0.0
 30
0.0
  9
$EXTMIN
 10
-36.7750000000001
 20
-49.97180738881174
 30
0.0
  9
$EXTMAX
 10
95.51600003295505
 20
27.88124999999997
 30
0.0
  9
$LIMMIN
 10
0.0
 20
0.0
  9
$LIMMAX
 10
420.0
 20
297.0
  9
$ORTHOMODE
 70
     1
  9
$REGENMODE
 70
     1
  9
$FILLMODE
 70
     1
  9
$QTEXTMODE
 70
     0
  9
$MIRRTEXT
 70
     1
  9
$LTSCALE
 40
1.0
  9
$ATTMODE
 70
     1
  9
$TEXTSIZE
 40
3.5
  9
$TRACEWID
 40
1.0
  9
$TEXTSTYLE
  7
Standard
  9
$CLAYER
  8
0
  9
$CELTYPE
  6
ByLayer
  9
$CECOLOR
 62
   256
  9
$CELTSCALE
 40
1.0
  9
$DISPSILH
 70
     0
  9
$DIMSCALE
 40
1.0
  9
$DIMASZ
 40
3.302
  9
$DIMEXO
 40
1.0
  9
$DIMDLI
 40
3.75
  9
$DIMRND
 40
0.0
  9
$DIMDLE
 40
0.0
  9
$DIMEXE
 40
1.0
  9
$DIMTP
 40
0.0
  9
$DIMTM
 40
0.0
  9
$DIMTXT
 40
3.5
  9
$DIMCEN
 40
2.5
  9
$DIMTSZ
 40
0.0
  9
$DIMTOL
 70
     0
  9
$DIMLIM
 70
     0
  9
$DIMTIH
 70
     1
  9
$DIMTOH
 70
     1
  9
$DIMSE1
 70
     0
  9
$DIMSE2
 70
     0
  9
$DIMTAD
 70
     1
  9
$DIMZIN
 70
     0
  9
$DIMBLK
  1

  9
$DIMASO
 70
     1
  9
$DIMSHO
 70
     1
  9
$DIMPOST
  1

  9
$DIMAPOST
  1

  9
$DIMALT
 70
     0
  9
$DIMALTD
 70
     3
  9
$DIMALTF
 40
0.0393700787401575
  9
$DIMLFAC
 40
1.0
  9
$DIMTOFL
 70
     1
  9
$DIMTVP
 40
0.0
  9
$DIMTIX
 70
     0
  9
$DIMSOXD
 70
     0
  9
$DIMSAH
 70
     0
  9
$DIMBLK1
  1

  9
$DIMBLK2
  1

  9
$DIMSTYLE
  2
ISO-25
  9
$DIMCLRD
 70
     0
  9
$DIMCLRE
 70
     0
  9
$DIMCLRT
 70
     0
  9
$DIMTFAC
 40
1.0
  9
$DIMGAP
 40
1.524
  9
$DIMJUST
 70
     0
  9
$DIMSD1
 70
     0
  9
$DIMSD2
 70
     0
  9
$DIMTOLJ
 70
     0
  9
$DIMTZIN
 70
     0
  9
$DIMALTZ
 70
     0
  9
$DIMALTTZ
 70
     0
  9
$DIMUPT
 70
     0
  9
$DIMDEC
 70
     2
  9
$DIMTDEC
 70
     2
  9
$DIMALTU
 70
     2
  9
$DIMALTTD
 70
     3
  9
$DIMTXSTY
  7
Standard
  9
$DIMAUNIT
 70
     0
  9
$DIMADEC
 70
     2
  9
$DIMALTRND
 40
0.0
  9
$DIMAZIN
 70
     0
  9
$DIMDSEP
 70
    44
  9
$DIMATFIT
 70
     3
  9
$DIMFRAC
 70
     0
  9
$DIMLDRBLK
  1

  9
$DIMLUNIT
 70
     2
  9
$DIMLWD
 70
    -2
  9
$DIMLWE
 70
    -2
  9
$DIMTMOVE
 70
     0
  9
$LUNITS
 70
     2
  9
$LUPREC
 70
     2
  9
$SKETCHINC
 40
1.0
  9
$FILLETRAD
 40
10.0
  9
$AUNITS
 70
     0
  9
$AUPREC
 70
     2
  9
$MENU
  1
.
  9
$ELEVATION
 40
0.0
  9
$PELEVATION
 40
0.0
  9
$THICKNESS
 40
0.0
  9
$LIMCHECK
 70
     0
  9
$CHAMFERA
 40
0.0
  9
$CHAMFERB
 40
0.0
  9
$CHAMFERC
 40
0.0
  9
$CHAMFERD
 40
0.0
  9
$SKPOLY
 70
     0
  9
$TDCREATE
 40
2458313.387207095
  9
$TDUCREATE
 40
2458313.012207095
  9
$TDUPDATE
 40
2458318.644656609
  9
$TDUUPDATE
 40
2458318.269656609
  9
$TDINDWG
 40
0.0059031134
  9
$TDUSRTIMER
 40
2458318.269612836
  9
$USRTIMER
 70
     1
  9
$ANGBASE
 50
0.0
  9
$ANGDIR
 70
     0
  9
$PDMODE
 70
     0
  9
$PDSIZE
 40
-1.0
  9
$PLINEWID
 40
0.0
  9
$SPLFRAME
 70
     0
  9
$SPLINETYPE
 70
     6
  9
$SPLINESEGS
 70
     8
  9
$HANDSEED
  5
28B
  9
$SURFTAB1
 70
     6
  9
$SURFTAB2
 70
     6
  9
$SURFTYPE
 70
     6
  9
$SURFU
 70
     6
  9
$SURFV
 70
     6
  9
$UCSBASE
  2

  9
$UCSNAME
  2

  9
$UCSORG
 10
0.0
 20
0.0
 30
0.0
  9
$UCSXDIR
 10
1.0
 20
0.0
 30
0.0
  9
$UCSYDIR
 10
0.0
 20
1.0
 30
0.0
  9
$UCSORTHOREF
  2

  9
$UCSORTHOVIEW
 70
     0
  9
$UCSORGTOP
 10
0.0
 20
0.0
 30
0.0
  9
$UCSORGBOTTOM
 10
0.0
 20
0.0
 30
0.0
  9
$UCSORGLEFT
 10
0.0
 20
0.0
 30
0.0
  9
$UCSORGRIGHT
 10
0.0
 20
0.0
 30
0.0
  9
$UCSORGFRONT
 10
0.0
 20
0.0
 30
0.0
  9
$UCSORGBACK
 10
0.0
 20
0.0
 30
0.0
  9
$PUCSBASE
  2

  9
$PUCSNAME
  2

  9
$PUCSORG
 10
0.0
 20
0.0
 30
0.0
  9
$PUCSXDIR
 10
1.0
 20
0.0
 30
0.0
  9
$PUCSYDIR
 10
0.0
 20
1.0
 30
0.0
  9
$PUCSORTHOREF
  2

  9
$PUCSORTHOVIEW
 70
     0
  9
$PUCSORGTOP
 10
0.0
 20
0.0
 30
0.0
  9
$PUCSORGBOTTOM
 10
0.0
 20
0.0
 30
0.0
  9
$PUCSORGLEFT
 10
0.0
 20
0.0
 30
0.0
  9
$PUCSORGRIGHT
 10
0.0
 20
0.0
 30
0.0
  9
$PUCSORGFRONT
 10
0.0
 20
0.0
 30
0.0
  9
$PUCSORGBACK
 10
0.0
 20
0.0
 30
0.0
  9
$USERI1
 70
     0
  9
$USERI2
 70
     0
  9
$USERI3
 70
     0
  9
$USERI4
 70
     0
  9
$USERI5
 70
     0
  9
$USERR1
 40
0.0
  9
$USERR2
 40
0.0
  9
$USERR3
 40
0.0
  9
$USERR4
 40
0.0
  9
$USERR5
 40
0.0
  9
$WORLDVIEW
 70
     1
  9
$SHADEDGE
 70
     3
  9
$SHADEDIF
 70
    70
  9
$TILEMODE
 70
     1
  9
$MAXACTVP
 70
    64
  9
$PINSBASE
 10
0.0
 20
0.0
 30
0.0
  9
$PLIMCHECK
 70
     0
  9
$PEXTMIN
 10
1.000000000000000E+20
 20
1.000000000000000E+20
 30
1.000000000000000E+20
  9
$PEXTMAX
 10
-1.000000000000000E+20
 20
-1.000000000000000E+20
 30
-1.000000000000000E+20
  9
$PLIMMIN
 10
0.0
 20
0.0
  9
$PLIMMAX
 10
0.0
 20
0.0
  9
$UNITMODE
 70
     0
  9
$VISRETAIN
 70
     1
  9
$PLINEGEN
 70
     0
  9
$PSLTSCALE
 70
     1
  9
$TREEDEPTH
 70
  3020
  9
$CMLSTYLE
  2
Standard
  9
$CMLJUST
 70
     0
  9
$CMLSCALE
 40
20.0
  9
$PROXYGRAPHICS
 70
     1
  9
$MEASUREMENT
 70
     1
  9
$CELWEIGHT
370
    -1
  9
$ENDCAPS
280
     0
  9
$JOINSTYLE
280
     0
  9
$LWDISPLAY
290
     1
  9
$INSUNITS
 70
     4
  9
$HYPERLINKBASE
  1

  9
$STYLESHEET
  1

  9
$XEDIT
290
     1
  9
$CEPSNTYPE
380
     0
  9
$PSTYLEMODE
290
     1
  9
$FINGERPRINTGUID
  2
{9974A0DA-68E3-472D-816D-792FDA85489A}
  9
$VERSIONGUID
  2
{FAEB1C32-E019-11D5-929B-00C0DF256EC4}
  9
$EXTNAMES
290
     1
  9
$PSVPSCALE
 40
0.0
  9
$OLESTARTUP
290
     0
  0
ENDSEC
  0
SECTION
  2
CLASSES
  0
CLASS
  1
ACDBDICTIONARYWDFLT
  2
AcDbDictionaryWithDefault
  3
ObjectDBX Classes
 90
        0
280
     0
281
     0
  0
CLASS
  1
VISUALSTYLE
  2
AcDbVisualStyle
  3
ObjectDBX Classes
 90
     4095
280
     0
281
     0
  0
CLASS
  1
MATERIAL
  2
AcDbMaterial
  3
ObjectDBX Classes
 90
     1153
280
     0
281
     0
  0
CLASS
  1
SCALE
  2
AcDbScale
  3
ObjectDBX Classes
 90
     1153
280
     0
281
     0
  0
CLASS
  1
SUN
  2
AcDbSun
  3
SCENEOE
 90
     1153
280
     0
281
     0
  0
CLASS
  1
ACDBPLACEHOLDER
  2
AcDbPlaceHolder
  3
ObjectDBX Classes
 90
        0
280
     0
281
     0
  0
CLASS
  1
LAYOUT
  2
AcDbLayout
  3
ObjectDBX Classes
 90
        0
280
     0
281
     0
  0
CLASS
  1
TABLESTYLE
  2
AcDbTableStyle
  3
ObjectDBX Classes
 90
     4095
280
     0
281
     0
  0
CLASS
  1
MLEADERSTYLE
  2
AcDbMLeaderStyle
  3
ACDB_MLEADERSTYLE_CLASS
 90
     4095
280
     0
281
     0
  0
CLASS
  1
DICTIONARYVAR
  2
AcDbDictionaryVar
  3
ObjectDBX Classes
 90
        0
280
     0
281
     0
  0
CLASS
  1
RASTERVARIABLES
  2
AcDbRasterVariables
  3
ISM
 90
        0
280
     0
281
     0
  0
ENDSEC
  0
SECTION
  2
TABLES
  0
TABLE
  2
VPORT
  5
8
330
0
100
AcDbSymbolTable
 70
     1
  0
VPORT
  5
29
330
8
100
AcDbSymbolTableRecord
100
AcDbViewportTableRecord
  2
*Active
 70
     0
 10
0.0
 20
0.0
 11
1.0
 21
1.0
 12
29.37050001647747
 22
-11.04527869440589
 13
0.0
 23
0.0
 14
10.0
 24
10.0
 15
10.0
 25
10.0
 16
0.0
 26
0.0
 36
1.0
 17
0.0
 27
0.0
 37
0.0
 40
79.41011853658796
 41
1.782762691853601
 42
50.0
 43
0.0
 44
0.0
 50
0.0
 51
0.0
 71
    16
 72
  2000
 73
     1
 74
     3
 75
     0
 76
     0
 77
     0
 78
     0
281
     0
 65
     1
110
0.0
120
0.0
130
0.0
111
1.0
121
0.0
131
0.0
112
0.0
122
1.0
132
0.0
 79
     0
146
0.0
  0
ENDTAB
  0
TABLE
  2
LTYPE
  5
5
330
0
100
AcDbSymbolTable
 70
     6
  0
LTYPE
  5
14
330
5
100
AcDbSymbolTableRecord
100
AcDbLinetypeTableRecord
  2
ByBlock
 70
     0
  3

 72
    65
 73
     0
 40
0.0
  0
LTYPE
  5
15
330
5
100
AcDbSymbolTableRecord
100
AcDbLinetypeTableRecord
  2
ByLayer
 70
     0
  3

 72
    65
 73
     0
 40
0.0
  0
LTYPE
  5
16
330
5
100
AcDbSymbolTableRecord
100
AcDbLinetypeTableRecord
  2
Continuous
 70
     0
  3
Solid line
 72
    65
 73
     0
 40
0.0
  0
LTYPE
  5
6A
330
5
100
AcDbSymbolTableRecord
100
AcDbLinetypeTableRecord
  2
HIDDEN
 70
     0
  3
Hidden __ __ __ __ __ __ __ __ __ __ __ __ __ __
 72
    65
 73
     2
 40
1.905
 49
1.27
 74
     0
 49
-0.635
 74
     0
  0
LTYPE
  5
6B
330
5
100
AcDbSymbolTableRecord
100
AcDbLinetypeTableRecord
  2
PHANTOM
 70
     0
  3
Phantom ______  __  __  ______  __  __  ______
 72
    65
 73
     6
 40
12.7
 49
6.35
 74
     0
 49
-1.27
 74
     0
 49
1.27
 74
     0
 49
-1.27
 74
     0
 49
1.27
 74
     0
 49
-1.27
 74
     0
  0
LTYPE
  5
6C
330
5
100
AcDbSymbolTableRecord
100
AcDbLinetypeTableRecord
  2
CENTER
 70
     0
  3
Center ____ _ ____ _ ____ _ ____ _ ____ _ ____
 72
    65
 73
     4
 40
10.16
 49
6.35
 74
     0
 49
-1.27
 74
     0
 49
1.27
 74
     0
 49
-1.27
 74
     0
  0
LTYPE
  5
6D
330
5
100
AcDbSymbolTableRecord
100
AcDbLinetypeTableRecord
  2
CENTERX2
 70
     0
  3
Center (2x) ________  __  ________  __  _____
 72
    65
 73
     4
 40
20.32
 49
12.7
 74
     0
 49
-2.54
 74
     0
 49
2.54
 74
     0
 49
-2.54
 74
     0
  0
LTYPE
  5
6E
330
5
100
AcDbSymbolTableRecord
100
AcDbLinetypeTableRecord
  2
DOT2
 70
     0
  3
Dot (.5x) ........................................
 72
    65
 73
     2
 40
0.635
 49
0.0
 74
     0
 49
-0.635
 74
     0
  0
ENDTAB
  0
TABLE
  2
LAYER
  5
2
330
0
100
AcDbSymbolTable
 70
    18
  0
LAYER
  5
10
330
2
100
AcDbSymbolTableRecord
100
AcDbLayerTableRecord
  2
0
 70
     0
 62
     7
  6
Continuous
370
    -3
390
F
  0
LAYER
  5
6F
330
2
100
AcDbSymbolTableRecord
100
AcDbLayerTableRecord
  2
FORMAT
 70
     0
 62
     2
  6
Continuous
370
    -3
390
F
  0
LAYER
  5
70
330
2
100
AcDbSymbolTableRecord
100
AcDbLayerTableRecord
  2
외형선
 70
     0
 62
     4
  6
Continuous
370
    30
390
F
  0
LAYER
  5
71
330
2
100
AcDbSymbolTableRecord
100
AcDbLayerTableRecord
  2
숨은선
 70
     0
 62
     2
  6
HIDDEN
370
    15
390
F
  0
LAYER
  5
72
330
2
100
AcDbSymbolTableRecord
100
AcDbLayerTableRecord
  2
중심선
 70
     0
 62
     1
  6
CENTERX2
370
    -3
390
F
  0
LAYER
  5
73
330
2
100
AcDbSymbolTableRecord
100
AcDbLayerTableRecord
  2
파단선
 70
     0
 62
     4
  6
Continuous
370
    -3
390
F
  0
LAYER
  5
74
330
2
100
AcDbSymbolTableRecord
100
AcDbLayerTableRecord
  2
해칭선
 70
     0
 62
   100
  6
Continuous
370
    -3
390
F
  0
LAYER
  5
75
330
2
100
AcDbSymbolTableRecord
100
AcDbLayerTableRecord
  2
가는실선
 70
     0
 62
     4
  6
Continuous
370
    -3
390
F
  0
LAYER
  5
76
330
2
100
AcDbSymbolTableRecord
100
AcDbLayerTableRecord
  2
치수_보조선
 70
     0
 62
     4
  6
Continuous
370
    -3
390
F
  0
LAYER
  5
77
330
2
100
AcDbSymbolTableRecord
100
AcDbLayerTableRecord
  2
치수문자_일반주서
 70
     0
 62
     7
  6
Continuous
370
    15
390
F
  0
LAYER
  5
78
330
2
100
AcDbSymbolTableRecord
100
AcDbLayerTableRecord
  2
개별주서
 70
     0
 62
   100
  6
Continuous
370
    30
390
F
  0
LAYER
  5
79
330
2
100
AcDbSymbolTableRecord
100
AcDbLayerTableRecord
  2
중간선
 70
     0
 62
     2
  6
Continuous
370
    15
390
F
  0
LAYER
  5
7A
330
2
100
AcDbSymbolTableRecord
100
AcDbLayerTableRecord
  2
윤곽선
 70
     0
 62
     3
  6
Continuous
370
    40
390
F
  0
LAYER
  5
7B
330
2
100
AcDbSymbolTableRecord
100
AcDbLayerTableRecord
  2
중심마크
 70
     0
 62
   100
  6
Continuous
370
    30
390
F
  0
LAYER
  5
7C
330
2
100
AcDbSymbolTableRecord
100
AcDbLayerTableRecord
  2
가상선
 70
     0
 62
     4
  6
PHANTOM
370
    -3
390
F
  0
LAYER
  5
7D
330
2
100
AcDbSymbolTableRecord
100
AcDbLayerTableRecord
  2
특수지정선
 70
     0
 62
     5
  6
CENTERX2
370
    60
390
F
  0
LAYER
  5
7E
330
2
100
AcDbSymbolTableRecord
100
AcDbLayerTableRecord
  2
참조1
 70
     0
 62
    -4
  6
Continuous
370
    -3
390
F
  0
LAYER
  5
161
330
2
100
AcDbSymbolTableRecord
100
AcDbLayerTableRecord
  2
Defpoints
 70
     0
 62
     7
  6
Continuous
290
     0
370
    -3
390
F
  0
ENDTAB
  0
TABLE
  2
STYLE
  5
3
330
0
100
AcDbSymbolTable
 70
     2
  0
STYLE
  5
11
330
3
100
AcDbSymbolTableRecord
100
AcDbTextStyleTableRecord
  2
Standard
 70
     0
 40
0.0
 41
1.0
 50
0.0
 71
     0
 42
3.5
  3
txt
  4

  0
STYLE
  5
94
330
3
100
AcDbSymbolTableRecord
100
AcDbTextStyleTableRecord
  2
SLDTEXTSTYLE0
 70
     0
 40
0.0
 41
0.75
 50
0.0
 71
     0
 42
3.5
  3
TXT
  4

  0
ENDTAB
  0
TABLE
  2
VIEW
  5
6
330
0
100
AcDbSymbolTable
 70
     0
  0
ENDTAB
  0
TABLE
  2
UCS
  5
7
330
0
100
AcDbSymbolTable
 70
     0
  0
ENDTAB
  0
TABLE
  2
APPID
  5
9
330
0
100
AcDbSymbolTable
 70
     2
  0
APPID
  5
12
330
9
100
AcDbSymbolTableRecord
100
AcDbRegAppTableRecord
  2
ACAD
 70
     0
  0
APPID
  5
162
330
9
100
AcDbSymbolTableRecord
100
AcDbRegAppTableRecord
  2
PE_URL
 70
     0
  0
ENDTAB
  0
TABLE
  2
DIMSTYLE
  5
A
330
0
100
AcDbSymbolTable
 70
     4
100
AcDbDimStyleTable
  0
DIMSTYLE
105
27
330
A
100
AcDbSymbolTableRecord
100
AcDbDimStyleTableRecord
  2
ISO-25
 70
     0
 41
2.5
 42
0.625
 43
3.75
 44
1.25
 73
     0
 74
     0
 77
     1
 78
     8
140
2.5
141
2.5
143
0.03937007874016
147
0.625
171
     3
172
     1
178
     0
271
     2
272
     2
274
     3
278
    44
283
     0
284
     8
340
11
  0
DIMSTYLE
105
D8
102
{ACAD_REACTORS
330
D7
330
101
330
EC
330
116
102
}
330
A
100
AcDbSymbolTableRecord
100
AcDbDimStyleTableRecord
  2
SLDDIMSTYLE0
 70
     0
 41
3.302
 44
0.0
 45
0.000000001
 73
     0
 74
     0
 77
     1
 78
    12
 79
     3
140
3.5
143
0.0393700787401575
147
0.875
148
0.000000001
170
     1
172
     1
173
     1
178
     0
271
     2
272
     2
276
     2
284
    12
289
     0
340
94
  0
DIMSTYLE
105
ED
330
A
100
AcDbSymbolTableRecord
100
AcDbDimStyleTableRecord
  2
SLDDIMSTYLE1
 70
     0
 41
3.302
 44
0.0
 45
0.000000001
 73
     0
 74
     0
 77
     1
 78
     8
 79
     2
140
3.5
143
0.0393700787401575
147
0.875
148
0.000000001
170
     1
172
     1
173
     1
178
     0
271
     2
272
     2
276
     2
284
    12
289
     0
340
94
  0
DIMSTYLE
105
117
330
A
100
AcDbSymbolTableRecord
100
AcDbDimStyleTableRecord
  2
SLDDIMSTYLE2
 70
     0
 41
3.302
 44
0.0
 45
0.000000001
 73
     0
 74
     0
 77
     1
 78
     4
 79
     1
140
3.5
143
0.0393700787401575
147
0.875
148
0.000000001
170
     1
173
     1
178
     0
271
     2
272
     2
276
     2
284
    12
340
94
  0
ENDTAB
  0
TABLE
  2
BLOCK_RECORD
  5
1
330
0
100
AcDbSymbolTable
 70
     9
  0
BLOCK_RECORD
  5
1F
330
1
100
AcDbSymbolTableRecord
100
AcDbBlockTableRecord
  2
*Model_Space
340
22
  0
BLOCK_RECORD
  5
1B
330
1
100
AcDbSymbolTableRecord
100
AcDbBlockTableRecord
  2
*Paper_Space
340
1E
  0
BLOCK_RECORD
  5
23
330
1
100
AcDbSymbolTableRecord
100
AcDbBlockTableRecord
  2
*Paper_Space0
340
26
  0
BLOCK_RECORD
  5
7F
330
1
100
AcDbSymbolTableRecord
100
AcDbBlockTableRecord
  2
블럭10
340
0
102
{BLKREFS
331
D0
102
}
  0
BLOCK_RECORD
  5
D9
330
1
100
AcDbSymbolTableRecord
100
AcDbBlockTableRecord
  2
_D
340
0
  0
BLOCK_RECORD
  5
EE
330
1
100
AcDbSymbolTableRecord
100
AcDbBlockTableRecord
  2
_D_1
340
0
  0
BLOCK_RECORD
  5
102
330
1
100
AcDbSymbolTableRecord
100
AcDbBlockTableRecord
  2
_D_2
340
0
  0
BLOCK_RECORD
  5
118
330
1
100
AcDbSymbolTableRecord
100
AcDbBlockTableRecord
  2
_D_3
340
0
  0
BLOCK_RECORD
  5
131
330
1
100
AcDbSymbolTableRecord
100
AcDbBlockTableRecord
  2
SW_DOWELSYMBOL_0
340
0
102
{BLKREFS
331
137
102
}
  0
BLOCK_RECORD
  5
19A
330
1
100
AcDbSymbolTableRecord
100
AcDbBlockTableRecord
  2
*D7
340
0
  0
BLOCK_RECORD
  5
1AB
330
1
100
AcDbSymbolTableRecord
100
AcDbBlockTableRecord
  2
*D8
340
0
  0
ENDTAB
  0
ENDSEC
  0
SECTION
  2
BLOCKS
  0
BLOCK
  5
20
330
1F
100
AcDbEntity
  8
0
100
AcDbBlockBegin
  2
*Model_Space
 70
     0
 10
0.0
 20
0.0
 30
0.0
  3
*Model_Space
  1
*Model_Space
  0
ENDBLK
  5
21
330
1F
100
AcDbEntity
  8
0
100
AcDbBlockEnd
  0
BLOCK
  5
1C
330
1B
100
AcDbEntity
 67
     1
  8
0
100
AcDbBlockBegin
  2
*Paper_Space
 70
     0
 10
0.0
 20
0.0
 30
0.0
  3
*Paper_Space
  1
*Paper_Space
  0
ENDBLK
  5
1D
330
1B
100
AcDbEntity
 67
     1
  8
0
100
AcDbBlockEnd
  0
BLOCK
  5
24
330
23
100
AcDbEntity
  8
0
100
AcDbBlockBegin
  2
*Paper_Space0
 70
     0
 10
0.0
 20
0.0
 30
0.0
  3
*Paper_Space0
  1
*Paper_Space0
  0
ENDBLK
  5
25
330
23
100
AcDbEntity
  8
0
100
AcDbBlockEnd
  0
BLOCK
  5
80
330
7F
100
AcDbEntity
  8
0
100
AcDbBlockBegin
  2
블럭10
 70
     2
 10
0.0
 20
0.0
 30
0.0
  3
블럭10
  1
블럭10
  0
ELLIPSE
  5
82
330
7F
100
AcDbEntity
  8
중심선
100
AcDbEllipse
 10
20.54032771741204
 20
12.0471743016438
 30
0.0
 11
6.600054785286829
 21
-1.261213355974178E-13
 31
0.0
210
0.0
220
0.0
230
1.0
 40
0.636358354079598
 41
0.9219305317359503
 42
6.513795318482858
  0
ELLIPSE
  5
83
330
7F
100
AcDbEntity
  8
중심선
100
AcDbEllipse
 10
20.54032771746488
 20
12.04717430159265
 30
0.0
 11
3.960054785062283
 21
1.540847449632565E-10
 31
0.0
210
0.0
220
0.0
230
1.0
 40
0.3939339440162632
 41
1.131841032648279
 42
5.62031148352944
  0
LINE
  5
84
330
7F
100
AcDbEntity
  8
중심선
100
AcDbLine
 10
2.268634060543552
 20
16.24717430164393
 30
0.0
 11
5.714909304380834
 21
16.24717430164393
 31
0.0
  0
LINE
  5
85
330
7F
100
AcDbEntity
  8
중심선
100
AcDbLine
 10
5.245725140726316
 20
7.84717430164391
 30
0.0
 11
8.692000384563599
 21
7.84717430164391
 31
0.0
  0
LINE
  5
86
330
7F
100
AcDbEntity
  8
중심선
100
AcDbLine
 10
15.74043728645272
 20
16.24717430164393
 30
0.0
 11
8.692000384563599
 21
7.84717430164391
 31
0.0
  0
LINE
  5
87
330
7F
100
AcDbEntity
  8
중심선
100
AcDbLine
 10
0.1404042013395286
 20
13.71084872107135
 30
0.0
 11
3.58671253028996
 21
13.71088815037384
 31
0.0
  0
LINE
  5
88
330
7F
100
AcDbEntity
  8
중심선
100
AcDbLine
 10
2.750260043222114
 20
10.84717430164391
 30
0.0
 11
6.196535287059397
 21
10.84717430164391
 31
0.0
  0
LINE
  5
89
330
7F
100
AcDbEntity
  8
중심선
100
AcDbLine
 10
12.29416204261559
 20
16.24717430164393
 30
0.0
 11
5.245725140726316
 21
7.84717430164391
 31
0.0
  0
LINE
  5
8A
330
7F
100
AcDbEntity
  8
중심선
100
AcDbLine
 10
10.72767329541681
 20
16.24717430164393
 30
0.0
 11
6.196535287059397
 21
10.84717430164391
 31
0.0
  0
LINE
  5
8B
330
7F
100
AcDbEntity
  8
중심선
100
AcDbLine
 10
7.28139805157953
 20
16.24717430164393
 30
0.0
 11
2.750260043222114
 21
10.84717430164391
 31
0.0
  0
LINE
  5
8C
330
7F
100
AcDbEntity
  8
중심선
100
AcDbLine
 10
5.714909304380834
 20
16.24717430164393
 30
0.0
 11
3.58671253028996
 21
13.71088815037384
 31
0.0
  0
LINE
  5
8D
330
7F
100
AcDbEntity
  8
중심선
100
AcDbLine
 10
2.268634060543552
 20
16.24717430164393
 30
0.0
 11
0.1404042013395286
 21
13.71084872107135
 31
0.0
  0
LINE
  5
8E
330
7F
100
AcDbEntity
  8
중심선
100
AcDbLine
 10
7.28139805157953
 20
16.24717430164393
 30
0.0
 11
10.72767329541681
 21
16.24717430164393
 31
0.0
  0
LINE
  5
8F
330
7F
100
AcDbEntity
  8
중심선
100
AcDbLine
 10
12.29416204261559
 20
16.24717430164393
 30
0.0
 11
15.74043728645272
 21
16.24717430164393
 31
0.0
  0
LINE
  5
90
330
7F
100
AcDbEntity
  8
중심선
100
AcDbLine
 10
19.22036997980202
 20
11.08717430171403
 30
0.0
 11
23.66174974927406
 21
11.08717430171406
 31
0.0
  0
LINE
  5
91
330
7F
100
AcDbEntity
  8
중심선
100
AcDbLine
 10
19.22039502424796
 20
13.00717430171391
 30
0.0
 11
19.22036997980202
 21
11.08717430171403
 31
0.0
  0
LINE
  5
92
330
7F
100
AcDbEntity
  8
중심선
100
AcDbLine
 10
19.22039502424796
 20
13.00717430171391
 30
0.0
 11
26.96566020931264
 21
13.00717430171391
 31
0.0
  0
LINE
  5
93
330
7F
100
AcDbEntity
  8
중심선
100
AcDbLine
 10
22.22332737316547
 20
13.45928029700563
 30
0.0
 11
24.52862924686651
 21
15.39360700705356
 31
0.0
  0
ATTDEF
  5
95
330
7F
100
AcDbEntity
  8
FORMAT
 62
     2
100
AcDbText
 10
4.408487351596664
 20
2.075366912832191
 30
0.0
 40
4.233333333333333
  1
E1001002
 41
0.75
  7
SLDTEXTSTYLE0
 11
4.408487351596664
 21
-0.0412997538344756
 31
0.0
100
AcDbAttributeDefinition
  3

  2
AUTOATTR0
 70
     0
 74
     1
  0
ENDBLK
  5
81
330
7F
100
AcDbEntity
  8
0
100
AcDbBlockEnd
  0
BLOCK
  5
DA
330
D9
100
AcDbEntity
  8
0
100
AcDbBlockBegin
  2
_D
 70
     0
 10
0.0
 20
0.0
 30
0.0
  3
_D
  1
_D
  0
LINE
  5
DC
330
D9
100
AcDbEntity
  8
치수문자_일반주서
 62
     0
370
    -2
100
AcDbLine
 10
-16.36608667873053
 20
2.381250000000018
 30
0.0
 11
-33.40000000000003
 21
2.381249999999955
 31
0.0
  0
LINE
  5
DD
330
D9
100
AcDbEntity
  8
치수문자_일반주서
 62
     0
370
    -2
100
AcDbLine
 10
-16.36608667873053
 20
-2.381249999999997
 30
0.0
 11
-33.40000000000001
 21
-2.381250000000062
 31
0.0
  0
LINE
  5
DE
330
D9
100
AcDbEntity
  8
치수문자_일반주서
 62
     0
370
    -2
100
AcDbLine
 10
-33.40000000000003
 20
2.381249999999955
 30
0.0
 11
-33.4000000000001
 21
27.88124999999997
 31
0.0
  0
LINE
  5
DF
330
D9
100
AcDbEntity
  8
치수문자_일반주서
 62
     0
370
    -2
100
AcDbLine
 10
-33.40000000000003
 20
2.381249999999955
 30
0.0
 11
-33.40000000000001
 21
-2.381250000000062
 31
0.0
  0
LINE
  5
E0
330
D9
100
AcDbEntity
  8
치수문자_일반주서
 62
     0
370
    -2
100
AcDbLine
 10
-33.40000000000003
 20
4.881249999999955
 30
0.0
 11
-33.40000000000004
 21
7.381249999999955
 31
0.0
  0
LINE
  5
E1
330
D9
100
AcDbEntity
  8
치수문자_일반주서
 62
     0
370
    -2
100
AcDbLine
 10
-33.40000000000001
 20
-4.881250000000062
 30
0.0
 11
-33.4
 21
-7.381250000000062
 31
0.0
  0
SOLID
  5
E2
330
D9
100
AcDbEntity
  8
치수문자_일반주서
 62
     0
100
AcDbTrace
 10
-33.8166666666667
 20
4.881249999999954
 30
0.0
 11
-32.98333333333337
 21
4.881249999999956
 31
0.0
 12
-33.40000000000003
 22
2.381249999999955
 32
0.0
 13
-33.40000000000003
 23
2.381249999999955
 33
0.0
  0
SOLID
  5
E3
330
D9
100
AcDbEntity
  8
치수문자_일반주서
 62
     0
100
AcDbTrace
 10
-32.98333333333334
 20
-4.881250000000061
 30
0.0
 11
-33.81666666666667
 21
-4.881250000000063
 31
0.0
 12
-33.40000000000001
 22
-2.381250000000062
 32
0.0
 13
-33.40000000000001
 23
-2.381250000000062
 33
0.0
  0
MTEXT
  5
E4
330
D9
100
AcDbEntity
  8
치수문자_일반주서
 62
     0
100
AcDbMText
 10
-36.77500000000007
 20
17.63124999999996
 30
0.0
 40
2.5
 41
0.0
 71
     2
 72
     1
  1
\A1;%%c4.76 [3/16]
  7
SLDTEXTSTYLE0
 11
-2.983906501879676E-15
 21
1.0
 31
0.0
 73
     1
 44
1.0
  0
POINT
  5
1BE
330
D9
100
AcDbEntity
  8
Defpoints
 62
     0
100
AcDbPoint
 10
-16.30358667873053
 20
2.381250000000018
 30
0.0
  0
POINT
  5
1BF
330
D9
100
AcDbEntity
  8
Defpoints
 62
     0
100
AcDbPoint
 10
-16.30358667873053
 20
-2.381249999999997
 30
0.0
  0
POINT
  5
1C0
330
D9
100
AcDbEntity
  8
Defpoints
 62
     0
100
AcDbPoint
 10
-33.40000000000001
 20
-2.381250000000061
 30
0.0
  0
ENDBLK
  5
DB
330
D9
100
AcDbEntity
  8
0
100
AcDbBlockEnd
  0
BLOCK
  5
EF
330
EE
100
AcDbEntity
  8
0
100
AcDbBlockBegin
  2
_D_1
 70
     0
 10
0.0
 20
0.0
 30
0.0
  3
_D_1
  1
_D_1
  0
LINE
  5
F1
330
EE
100
AcDbEntity
  8
치수문자_일반주서
 62
     0
370
    -2
100
AcDbLine
 10
25.4625
 20
-0.3965395672942597
 30
0.0
 11
52.41713083417416
 21
-0.396539567294159
 31
0.0
  0
LINE
  5
F2
330
EE
100
AcDbEntity
  8
치수문자_일반주서
 62
     0
370
    -2
100
AcDbLine
 10
25.4625
 20
0.3965395672942693
 30
0.0
 11
52.41713083417416
 21
0.3965395672943703
 31
0.0
  0
LINE
  5
F3
330
EE
100
AcDbEntity
  8
치수문자_일반주서
 62
     0
370
    -2
100
AcDbLine
 10
52.41713083417416
 20
0.3965395672943703
 30
0.0
 11
52.41713083417416
 21
24.02153956729438
 31
0.0
  0
LINE
  5
F4
330
EE
100
AcDbEntity
  8
치수문자_일반주서
 62
     0
370
    -2
100
AcDbLine
 10
52.41713083417416
 20
-0.396539567294159
 30
0.0
 11
52.41713083417416
 21
0.3965395672943703
 31
0.0
  0
LINE
  5
F5
330
EE
100
AcDbEntity
  8
치수문자_일반주서
 62
     0
370
    -2
100
AcDbLine
 10
52.41713083417416
 20
-2.896539567294159
 30
0.0
 11
52.41713083417416
 21
-5.396539567294159
 31
0.0
  0
LINE
  5
F6
330
EE
100
AcDbEntity
  8
치수문자_일반주서
 62
     0
370
    -2
100
AcDbLine
 10
52.41713083417416
 20
2.89653956729437
 30
0.0
 11
52.41713083417416
 21
5.39653956729437
 31
0.0
  0
SOLID
  5
F7
330
EE
100
AcDbEntity
  8
치수문자_일반주서
 62
     0
100
AcDbTrace
 10
52.83379750084082
 20
-2.896539567294159
 30
0.0
 11
52.0004641675075
 21
-2.896539567294159
 31
0.0
 12
52.41713083417416
 22
-0.396539567294159
 32
0.0
 13
52.41713083417416
 23
-0.396539567294159
 33
0.0
  0
SOLID
  5
F8
330
EE
100
AcDbEntity
  8
치수문자_일반주서
 62
     0
100
AcDbTrace
 10
52.0004641675075
 20
2.89653956729437
 30
0.0
 11
52.83379750084082
 21
2.89653956729437
 31
0.0
 12
52.41713083417416
 22
0.3965395672943703
 32
0.0
 13
52.41713083417416
 23
0.3965395672943703
 33
0.0
  0
MTEXT
  5
F9
330
EE
100
AcDbEntity
  8
치수문자_일반주서
 62
     0
100
AcDbMText
 10
49.04213083417416
 20
14.70903956729438
 30
0.0
 40
2.5
 41
0.0
 71
     2
 72
     1
  1
\A1;%%c.79 [1/32]
  7
SLDTEXTSTYLE0
 11
0.0
 21
1.0
 31
0.0
 73
     1
 44
1.0
  0
POINT
  5
FA
330
EE
100
AcDbEntity
  8
Defpoints
 62
     0
100
AcDbPoint
 10
25.4
 20
-0.3965395672942599
 30
0.0
  0
POINT
  5
FB
330
EE
100
AcDbEntity
  8
Defpoints
 62
     0
100
AcDbPoint
 10
25.4
 20
0.3965395672942691
 30
0.0
  0
POINT
  5
FC
330
EE
100
AcDbEntity
  8
Defpoints
 62
     0
100
AcDbPoint
 10
52.41713083417416
 20
0.3965395672943701
 30
0.0
  0
ENDBLK
  5
F0
330
EE
100
AcDbEntity
  8
0
100
AcDbBlockEnd
  0
BLOCK
  5
103
330
102
100
AcDbEntity
  8
0
100
AcDbBlockBegin
  2
_D_2
 70
     0
 10
0.0
 20
0.0
 30
0.0
  3
_D_2
  1
_D_2
  0
LINE
  5
105
330
102
100
AcDbEntity
  8
치수문자_일반주서
 62
     0
370
    -2
100
AcDbLine
 10
25.4
 20
0.4590395672942691
 30
0.0
 11
25.4
 21
10.38125
 31
0.0
  0
LINE
  5
106
330
102
100
AcDbEntity
  8
치수문자_일반주서
 62
     0
370
    -2
100
AcDbLine
 10
24.209375
 20
0.3763007020599826
 30
0.0
 11
24.209375
 21
10.38125
 31
0.0
  0
LINE
  5
107
330
102
100
AcDbEntity
  8
치수문자_일반주서
 62
     0
370
    -2
100
AcDbLine
 10
25.4
 20
10.38125
 30
0.0
 11
48.40000000000001
 21
10.38125
 31
0.0
  0
LINE
  5
108
330
102
100
AcDbEntity
  8
치수문자_일반주서
 62
     0
370
    -2
100
AcDbLine
 10
25.4
 20
10.38125
 30
0.0
 11
24.209375
 21
10.38125
 31
0.0
  0
LINE
  5
109
330
102
100
AcDbEntity
  8
치수문자_일반주서
 62
     0
370
    -2
100
AcDbLine
 10
27.9
 20
10.38125
 30
0.0
 11
30.4
 21
10.38125
 31
0.0
  0
LINE
  5
10A
330
102
100
AcDbEntity
  8
치수문자_일반주서
 62
     0
370
    -2
100
AcDbLine
 10
21.709375
 20
10.38125
 30
0.0
 11
19.209375
 21
10.38125
 31
0.0
  0
SOLID
  5
10B
330
102
100
AcDbEntity
  8
치수문자_일반주서
 62
     0
100
AcDbTrace
 10
27.9
 20
10.79791666666667
 30
0.0
 11
27.9
 21
9.964583333333339
 31
0.0
 12
25.4
 22
10.38125
 32
0.0
 13
25.4
 23
10.38125
 33
0.0
  0
SOLID
  5
10C
330
102
100
AcDbEntity
  8
치수문자_일반주서
 62
     0
100
AcDbTrace
 10
21.709375
 20
9.964583333333339
 30
0.0
 11
21.709375
 21
10.79791666666667
 31
0.0
 12
24.209375
 22
10.38125
 32
0.0
 13
24.209375
 23
10.38125
 33
0.0
  0
MTEXT
  5
10D
330
102
100
AcDbEntity
  8
치수문자_일반주서
 62
     0
100
AcDbMText
 10
39.40000000000001
 20
13.75625
 30
0.0
 40
2.5
 41
0.0
 71
     2
 72
     1
  1
\A1;1.19 [3/64]
  7
SLDTEXTSTYLE0
 73
     1
 44
1.0
  0
POINT
  5
10E
330
102
100
AcDbEntity
  8
Defpoints
 62
     0
100
AcDbPoint
 10
25.4
 20
0.3965395672942691
 30
0.0
  0
POINT
  5
10F
330
102
100
AcDbEntity
  8
Defpoints
 62
     0
100
AcDbPoint
 10
24.209375
 20
0.3138007020599826
 30
0.0
  0
POINT
  5
110
330
102
100
AcDbEntity
  8
Defpoints
 62
     0
100
AcDbPoint
 10
24.209375
 20
10.38125
 30
0.0
  0
ENDBLK
  5
104
330
102
100
AcDbEntity
  8
0
100
AcDbBlockEnd
  0
BLOCK
  5
119
330
118
100
AcDbEntity
  8
0
100
AcDbBlockBegin
  2
_D_3
 70
     0
 10
0.0
 20
0.0
 30
0.0
  3
_D_3
  1
_D_3
  0
LINE
  5
11B
330
118
100
AcDbEntity
  8
치수문자_일반주서
 62
     0
370
    -2
100
AcDbLine
 10
-25.4
 20
0.4590395672942904
 30
0.0
 11
-25.39999999999999
 21
18.42014478364714
 31
0.0
  0
LINE
  5
11C
330
118
100
AcDbEntity
  8
치수문자_일반주서
 62
     0
370
    -2
100
AcDbLine
 10
25.4
 20
0.4590395672942691
 30
0.0
 11
25.40000000000001
 21
18.42014478364714
 31
0.0
  0
LINE
  5
11D
330
118
100
AcDbEntity
  8
치수문자_일반주서
 62
     0
370
    -2
100
AcDbLine
 10
-22.89999999999999
 20
18.42014478364714
 30
0.0
 11
22.90000000000001
 21
18.42014478364714
 31
0.0
  0
SOLID
  5
11E
330
118
100
AcDbEntity
  8
치수문자_일반주서
 62
     0
100
AcDbTrace
 10
-22.89999999999999
 20
18.83681145031381
 30
0.0
 11
-22.89999999999999
 21
18.00347811698047
 31
0.0
 12
-25.39999999999999
 22
18.42014478364714
 32
0.0
 13
-25.39999999999999
 23
18.42014478364714
 33
0.0
  0
SOLID
  5
11F
330
118
100
AcDbEntity
  8
치수문자_일반주서
 62
     0
100
AcDbTrace
 10
22.90000000000001
 20
18.00347811698047
 30
0.0
 11
22.90000000000001
 21
18.83681145031381
 31
0.0
 12
25.40000000000001
 22
18.42014478364714
 32
0.0
 13
25.40000000000001
 23
18.42014478364714
 33
0.0
  0
MTEXT
  5
120
330
118
100
AcDbEntity
  8
치수문자_일반주서
 62
     0
100
AcDbMText
 10
0.0000000000000018
 20
21.79514478364714
 30
0.0
 40
2.5
 41
0.0
 71
     2
 72
     1
  1
\A1;50.8 [2]
  7
SLDTEXTSTYLE0
 73
     1
 44
1.0
  0
POINT
  5
121
330
118
100
AcDbEntity
  8
Defpoints
 62
     0
100
AcDbPoint
 10
-25.4
 20
0.3965395672942904
 30
0.0
  0
POINT
  5
122
330
118
100
AcDbEntity
  8
Defpoints
 62
     0
100
AcDbPoint
 10
25.4
 20
0.3965395672942691
 30
0.0
  0
POINT
  5
123
330
118
100
AcDbEntity
  8
Defpoints
 62
     0
100
AcDbPoint
 10
25.4
 20
18.42014478364714
 30
0.0
  0
ENDBLK
  5
11A
330
118
100
AcDbEntity
  8
0
100
AcDbBlockEnd
  0
BLOCK
  5
132
330
131
100
AcDbEntity
  8
0
100
AcDbBlockBegin
  2
SW_DOWELSYMBOL_0
 70
     0
 10
0.0
 20
0.0
 30
0.0
  3
SW_DOWELSYMBOL_0
  1
SW_DOWELSYMBOL_0
  0
CIRCLE
  5
134
330
131
100
AcDbEntity
  8
해칭선
 62
     0
100
AcDbCircle
 10
0.0
 20
0.0
 30
0.0
 40
3.0
  0
HATCH
  5
135
330
131
100
AcDbEntity
  8
0
  6
Continuous
 62
     0
370
     0
100
AcDbHatch
 10
0.0
 20
0.0
 30
0.0
210
0.0
220
0.0
230
1.0
  2
SOLID
 70
     1
 71
     0
 91
        1
 92
        0
 93
        3
 72
     2
 10
0.0000000000000087
 20
0.0
 40
3.0
 50
0.0
 51
90.0
 73
     1
 72
     1
 10
0.0000000000000087
 20
3.0
 11
0.0000000000000087
 21
0.0
 72
     1
 10
0.0000000000000087
 20
0.0
 11
3.000000000000008
 21
0.0
 97
        0
 75
     0
 76
     1
 98
        1
 10
0.0
 20
0.0
  0
HATCH
  5
136
330
131
100
AcDbEntity
  8
0
  6
Continuous
 62
     0
370
     0
100
AcDbHatch
 10
0.0
 20
0.0
 30
0.0
210
0.0
220
0.0
230
1.0
  2
SOLID
 70
     1
 71
     0
 91
        1
 92
        0
 93
        3
 72
     2
 10
0.0000000000000087
 20
0.0
 40
3.0
 50
180.0
 51
270.0000000000007
 73
     1
 72
     1
 10
0.0000000000000087
 20
-3.0
 11
0.0000000000000087
 21
0.0
 72
     1
 10
0.0000000000000087
 20
0.0
 11
-2.999999999999991
 21
0.0
 97
        0
 75
     0
 76
     1
 98
        1
 10
0.0
 20
0.0
  0
ENDBLK
  5
133
330
131
100
AcDbEntity
  8
0
100
AcDbBlockEnd
  0
BLOCK
  5
19B
330
19A
100
AcDbEntity
  8
0
100
AcDbBlockBegin
  2
*D7
 70
     1
 10
0.0
 20
0.0
 30
0.0
  3
*D7
  1
*D7
  0
LINE
  5
19D
330
19A
100
AcDbEntity
  8
치수문자_일반주서
 62
     0
370
    -2
100
AcDbLine
 10
4.999999999999998
 20
1.518600912039116
 30
0.0
 11
4.999999999999998
 21
12.30201921462676
 31
0.0
  0
LINE
  5
19E
330
19A
100
AcDbEntity
  8
치수문자_일반주서
 62
     0
370
    -2
100
AcDbLine
 10
10.99999999999999
 20
1.555798244697894
 30
0.0
 11
10.99999999999999
 21
12.30201921462676
 31
0.0
  0
LINE
  5
19F
330
19A
100
AcDbEntity
  8
치수문자_일반주서
 62
     0
370
    -2
100
AcDbLine
 10
4.999999999999998
 20
12.30201921462676
 30
0.0
 11
10.99999999999999
 21
12.30201921462676
 31
0.0
  0
LINE
  5
1A0
330
19A
100
AcDbEntity
  8
치수문자_일반주서
 62
     0
370
    -2
100
AcDbLine
 10
2.499999999999998
 20
12.30201921462676
 30
0.0
 11
-0.0000000000000018
 21
12.30201921462676
 31
0.0
  0
LINE
  5
1A1
330
19A
100
AcDbEntity
  8
치수문자_일반주서
 62
     0
370
    -2
100
AcDbLine
 10
13.49999999999999
 20
12.30201921462676
 30
0.0
 11
15.99999999999999
 21
12.30201921462676
 31
0.0
  0
SOLID
  5
1A2
330
19A
100
AcDbEntity
  8
치수문자_일반주서
 62
     0
100
AcDbTrace
 10
2.499999999999998
 20
11.8853525479601
 30
0.0
 11
2.499999999999998
 21
12.71868588129343
 31
0.0
 12
4.999999999999998
 22
12.30201921462676
 32
0.0
 13
4.999999999999998
 23
12.30201921462676
 33
0.0
  0
SOLID
  5
1A3
330
19A
100
AcDbEntity
  8
치수문자_일반주서
 62
     0
100
AcDbTrace
 10
13.49999999999999
 20
12.71868588129343
 30
0.0
 11
13.49999999999999
 21
11.8853525479601
 31
0.0
 12
10.99999999999999
 22
12.30201921462676
 32
0.0
 13
10.99999999999999
 23
12.30201921462676
 33
0.0
  0
MTEXT
  5
1A4
330
19A
100
AcDbEntity
  8
치수문자_일반주서
 62
     0
100
AcDbMText
 10
7.999999999999995
 20
15.67701921462676
 30
0.0
 40
2.5
 41
0.0
 71
     2
 72
     1
  1
\A1;6 [0.24]
  7
SLDTEXTSTYLE0
 73
     1
 44
1.0
  0
POINT
  5
1A5
330
19A
100
AcDbEntity
  8
Defpoints
 62
     0
100
AcDbPoint
 10
4.999999999999998
 20
1.456100912039116
 30
0.0
  0
POINT
  5
1A6
330
19A
100
AcDbEntity
  8
Defpoints
 62
     0
100
AcDbPoint
 10
10.99999999999999
 20
1.493298244697894
 30
0.0
  0
POINT
  5
1A7
330
19A
100
AcDbEntity
  8
Defpoints
 62
     0
100
AcDbPoint
 10
10.99999999999999
 20
12.30201921462676
 30
0.0
  0
ENDBLK
  5
19C
330
19A
100
AcDbEntity
  8
0
100
AcDbBlockEnd
  0
BLOCK
  5
1AC
330
1AB
100
AcDbEntity
  8
0
100
AcDbBlockBegin
  2
*D8
 70
     1
 10
0.0
 20
0.0
 30
0.0
  3
*D8
  1
*D8
  0
LINE
  5
1AE
330
1AB
100
AcDbEntity
  8
치수문자_일반주서
 62
     0
370
    -2
100
AcDbLine
 10
76.34379582762135
 20
-1.400107453539505
 30
0.0
 11
76.34379582762135
 21
9.383310849048142
 31
0.0
  0
LINE
  5
1AF
330
1AB
100
AcDbEntity
  8
치수문자_일반주서
 62
     0
370
    -2
100
AcDbLine
 10
82.34379582762135
 20
-1.362910120880727
 30
0.0
 11
82.34379582762135
 21
9.383310849048142
 31
0.0
  0
LINE
  5
1B0
330
1AB
100
AcDbEntity
  8
치수문자_일반주서
 62
     0
370
    -2
100
AcDbLine
 10
76.34379582762135
 20
9.383310849048142
 30
0.0
 11
82.34379582762135
 21
9.383310849048142
 31
0.0
  0
LINE
  5
1B1
330
1AB
100
AcDbEntity
  8
치수문자_일반주서
 62
     0
370
    -2
100
AcDbLine
 10
73.84379582762135
 20
9.383310849048142
 30
0.0
 11
71.34379582762135
 21
9.383310849048142
 31
0.0
  0
LINE
  5
1B2
330
1AB
100
AcDbEntity
  8
치수문자_일반주서
 62
     0
370
    -2
100
AcDbLine
 10
84.84379582762135
 20
9.383310849048142
 30
0.0
 11
87.34379582762135
 21
9.383310849048142
 31
0.0
  0
SOLID
  5
1B3
330
1AB
100
AcDbEntity
  8
치수문자_일반주서
 62
     0
100
AcDbTrace
 10
73.84379582762135
 20
8.966644182381476
 30
0.0
 11
73.84379582762135
 21
9.799977515714808
 31
0.0
 12
76.34379582762135
 22
9.383310849048142
 32
0.0
 13
76.34379582762135
 23
9.383310849048142
 33
0.0
  0
SOLID
  5
1B4
330
1AB
100
AcDbEntity
  8
치수문자_일반주서
 62
     0
100
AcDbTrace
 10
84.84379582762135
 20
9.799977515714808
 30
0.0
 11
84.84379582762135
 21
8.966644182381476
 31
0.0
 12
82.34379582762135
 22
9.383310849048142
 32
0.0
 13
82.34379582762135
 23
9.383310849048142
 33
0.0
  0
MTEXT
  5
1B5
330
1AB
100
AcDbEntity
  8
치수문자_일반주서
 62
     0
100
AcDbMText
 10
79.34379582762135
 20
12.75831084904814
 30
0.0
 40
2.5
 41
0.0
 71
     2
 72
     1
  1
\A1;6 [0.24]
  7
SLDTEXTSTYLE0
 73
     1
 44
1.0
  0
POINT
  5
1B6
330
1AB
100
AcDbEntity
  8
Defpoints
 62
     0
100
AcDbPoint
 10
76.34379582762135
 20
-1.462607453539505
 30
0.0
  0
POINT
  5
1B7
330
1AB
100
AcDbEntity
  8
Defpoints
 62
     0
100
AcDbPoint
 10
82.34379582762135
 20
-1.425410120880727
 30
0.0
  0
POINT
  5
1B8
330
1AB
100
AcDbEntity
  8
Defpoints
 62
     0
100
AcDbPoint
 10
82.34379582762135
 20
9.383310849048142
 30
0.0
  0
ENDBLK
  5
1AD
330
1AB
100
AcDbEntity
  8
0
100
AcDbBlockEnd
  0
ENDSEC
  0
SECTION
  2
ENTITIES
  0
LINE
  5
96
330
1F
100
AcDbEntity
  8
0
  6
Continuous
 62
     1
370
    25
100
AcDbLine
 10
24.42801679204195
 20
0.0747448487663114
 30
0.0
 11
24.37798151139426
 21
0.0927200553968256
 31
0.0
1001
PE_URL
1000

  0
LINE
  5
97
330
1F
100
AcDbEntity
  8
0
  6
Continuous
 62
     1
370
    25
100
AcDbLine
 10
24.36929124195058
 20
0.3166677756409811
 30
0.0
 11
24.20937499999999
 21
0.3136458474840153
 31
0.0
1001
PE_URL
1000

  0
SPLINE
  5
98
330
1F
100
AcDbEntity
  8
0
  6
Continuous
 62
     1
370
    25
100
AcDbSpline
210
0.0
220
0.0
230
1.0
 70
     8
 71
     3
 72
    10
 73
     6
 74
     0
 42
0.000000001
 43
0.00000001
 40
0.0
 40
0.0
 40
0.0
 40
0.0
 40
0.3895404952414549
 40
0.5940668457082358
 40
1.0
 40
1.0
 40
1.0
 40
1.0
 10
25.18642069635928
 20
0.2645562105250913
 30
0.0
 10
25.10805982166066
 20
0.2623618230545288
 30
0.0
 10
24.98855594920629
 20
0.2590152830700512
 30
0.0
 10
24.76824434956664
 20
0.2694846779796293
 30
0.0
 10
24.63528620138604
 20
0.2880958247388479
 30
0.0
 10
24.54687391513441
 20
0.3004715539232837
 30
0.0
1001
PE_URL
1000

  0
SPLINE
  5
99
330
1F
100
AcDbEntity
  8
0
  6
Continuous
 62
     1
370
    25
100
AcDbSpline
210
0.0
220
0.0
230
1.0
 70
     8
 71
     3
 72
     9
 73
     5
 74
     0
 42
0.000000001
 43
0.00000001
 40
0.0
 40
0.0
 40
0.0
 40
0.0
 40
0.9377891239705481
 40
1.0
 40
1.0
 40
1.0
 40
1.0
 10
24.54687391513441
 20
-0.300471553923275
 30
0.0
 10
24.64448767516796
 20
-0.286182667988455
 30
0.0
 10
24.74857691819551
 20
-0.2709458886639928
 30
0.0
 10
24.8507622071231
 20
-0.2663970678298496
 30
0.0
 10
24.85711924346461
 20
-0.2661140817008565
 30
0.0
1001
PE_URL
1000

  0
LINE
  5
9A
330
1F
100
AcDbEntity
  8
0
  6
Continuous
 62
     1
370
    25
100
AcDbLine
 10
24.20937499999999
 20
-0.3136458474840066
 30
0.0
 11
24.36929124195058
 21
-0.3166677756409724
 31
0.0
1001
PE_URL
1000

  0
LINE
  5
9B
330
1F
100
AcDbEntity
  8
외형선
  6
Continuous
370
    15
100
AcDbLine
 10
16.30358667873053
 20
2.381250000000002
 30
0.0
 11
-16.30358667873053
 21
2.381250000000001
 31
0.0
  0
LINE
  5
9C
330
1F
100
AcDbEntity
  8
외형선
  6
Continuous
370
    15
100
AcDbLine
 10
-16.30358667873053
 20
-2.381249999999997
 30
0.0
 11
16.30358667873053
 21
-2.381249999999996
 31
0.0
  0
LINE
  5
9D
330
1F
100
AcDbEntity
  8
외형선
  6
Continuous
370
    15
100
AcDbLine
 10
16.30358667873053
 20
-2.381249999999997
 30
0.0
 11
23.56144657516128
 21
-0.4365123019731411
 31
0.0
  0
LINE
  5
9E
330
1F
100
AcDbEntity
  8
외형선
  6
Continuous
370
    15
100
AcDbLine
 10
23.56144657516128
 20
0.4365123019731492
 30
0.0
 11
16.30358667873053
 21
2.381250000000004
 31
0.0
  0
SPLINE
  5
A1
330
1F
100
AcDbEntity
  8
외형선
  6
Continuous
370
    15
100
AcDbSpline
210
0.0
220
0.0
230
1.0
 70
     8
 71
     3
 72
    10
 73
     6
 74
     0
 42
0.000000001
 43
0.00000001
 40
0.0
 40
0.0
 40
0.0
 40
0.0
 40
0.488344026734779
 40
0.6389993665436896
 40
1.0
 40
1.0
 40
1.0
 40
1.0
 10
23.63316825128409
 20
-0.3312160874355565
 30
0.0
 10
23.72687498888486
 20
-0.3233461806729184
 30
0.0
 10
23.84949048675045
 20
-0.3130483882135569
 30
0.0
 10
24.04161318279503
 20
-0.3087531477386868
 30
0.0
 10
24.13997528215646
 20
-0.3116218351820688
 30
0.0
 10
24.209375
 20
-0.3136458474840072
 30
0.0
  0
LINE
  5
A2
330
1F
100
AcDbEntity
  8
외형선
  6
Continuous
370
    15
100
AcDbLine
 10
24.209375
 20
0.3136458474840159
 30
0.0
 11
23.91649574711835
 21
0.3120721334991319
 31
0.0
  0
SPLINE
  5
A3
330
1F
100
AcDbEntity
  8
0
  6
Continuous
 62
     1
370
    25
100
AcDbSpline
210
0.0
220
0.0
230
1.0
 70
     8
 71
     3
 72
    18
 73
    14
 74
     0
 42
0.000000001
 43
0.00000001
 40
0.0
 40
0.0
 40
0.0
 40
0.0
 40
0.2499999999999998
 40
0.2499999999999998
 40
0.3749999999999999
 40
0.3749999999999999
 40
0.5
 40
0.5
 40
0.75
 40
0.75
 40
0.875
 40
0.875
 40
1.0
 40
1.0
 40
1.0
 40
1.0
 10
25.4
 20
-0.3766109074764058
 30
0.0
 10
25.30408083861391
 20
-0.3587310269901851
 30
0.0
 10
25.19972932000976
 20
-0.328284797306047
 30
0.0
 10
25.05153627624656
 20
-0.2694577151472192
 30
0.0
 10
25.00412894766412
 20
-0.2478903898165698
 30
0.0
 10
24.90449781695233
 20
-0.2005307765048856
 30
0.0
 10
24.85356780401141
 20
-0.1748971797901841
 30
0.0
 10
24.70279073127266
 20
-0.0947942208213629
 30
0.0
 10
24.60739797252154
 20
-0.0376630368493187
 30
0.0
 10
24.45587102692962
 20
0.0487195188212903
 30
0.0
 10
24.40530101528308
 20
0.07736068376214
 30
0.0
 10
24.30752815425012
 20
0.1323726660624553
 30
0.0
 10
24.25951236921652
 20
0.1589160072412802
 30
0.0
 10
24.20937500000018
 20
0.1843835112739588
 30
0.0
1001
PE_URL
1000

  0
SPLINE
  5
A4
330
1F
100
AcDbEntity
  8
0
  6
Continuous
 62
     1
370
    25
100
AcDbSpline
210
0.0
220
0.0
230
1.0
 70
     8
 71
     3
 72
    11
 73
     7
 74
     0
 42
0.000000001
 43
0.00000001
 40
0.0
 40
0.0
 40
0.0
 40
0.0
 40
0.2552961154971548
 40
0.5081674989082213
 40
0.7625349117965617
 40
1.0
 40
1.0
 40
1.0
 40
1.0
 10
25.4
 20
-0.3131233674211313
 30
0.0
 10
25.31668944553022
 20
-0.2940117206820314
 30
0.0
 10
25.15085959725726
 20
-0.2559699443529506
 30
0.0
 10
24.90265540714251
 20
-0.1542298806676112
 30
0.0
 10
24.65984745304945
 20
-0.0379673382272133
 30
0.0
 10
24.49931653160711
 20
0.0399149501311922
 30
0.0
 10
24.42180947517008
 20
0.0775178422407221
 30
0.0
1001
PE_URL
1000

  0
LINE
  5
A5
330
1F
100
AcDbEntity
  8
0
  6
Continuous
 62
     1
370
    25
100
AcDbLine
 10
25.39999999999999
 20
-0.3766109074764059
 30
0.0
 11
25.4
 21
-0.3131233674211313
 31
0.0
1001
PE_URL
1000

  0
SPLINE
  5
A6
330
1F
100
AcDbEntity
  8
0
  6
Continuous
 62
     1
370
    25
100
AcDbSpline
210
0.0
220
0.0
230
1.0
 70
     8
 71
     3
 72
    18
 73
    14
 74
     0
 42
0.000000001
 43
0.00000001
 40
0.0
 40
0.0
 40
0.0
 40
0.0
 40
0.2499999999999999
 40
0.2499999999999999
 40
0.3750000000000001
 40
0.3750000000000001
 40
0.5000000000000003
 40
0.5000000000000003
 40
0.7500000000000002
 40
0.7500000000000002
 40
0.8750000000000001
 40
0.8750000000000001
 40
1.0
 40
1.0
 40
1.0
 40
1.0
 10
25.4
 20
-0.3965395672942604
 30
0.0
 10
25.30408083861381
 20
-0.3942097191431415
 30
0.0
 10
25.19972932000955
 20
-0.3791068764735596
 30
0.0
 10
25.05153627624621
 20
-0.3398381070158901
 30
0.0
 10
25.00412894766371
 20
-0.324213304356385
 30
0.0
 10
24.90449781695181
 20
-0.2876510182635259
 30
0.0
 10
24.85356780401083
 20
-0.26680726543772
 30
0.0
 10
24.70279073127194
 20
-0.1987248365148101
 30
0.0
 10
24.6073979725207
 20
-0.1464686949059869
 30
0.0
 10
24.45587102692862
 20
-0.0622466510250344
 30
0.0
 10
24.40530101528204
 20
-0.0334431070928035
 30
0.0
 10
24.30752815424903
 20
0.0235916874334511
 30
0.0
 10
24.25951236921533
 20
0.0519829909387017
 30
0.0
 10
24.20937499999893
 20
0.0801501252731627
 30
0.0
1001
PE_URL
1000

  0
LINE
  5
A7
330
1F
100
AcDbEntity
  8
외형선
  6
Continuous
370
    15
100
AcDbLine
 10
24.209375
 20
0.0801501252733222
 30
0.0
 11
24.209375
 21
0.1843835112741254
 31
0.0
  0
LINE
  5
A8
330
1F
100
AcDbEntity
  8
0
  6
Continuous
 62
     1
370
    25
100
AcDbLine
 10
25.4
 20
-0.3965395672942605
 30
0.0
 11
25.39999999999999
 21
-0.3766109074764052
 31
0.0
1001
PE_URL
1000

  0
LINE
  5
A9
330
1F
100
AcDbEntity
  8
0
  6
Continuous
 62
     1
370
    25
100
AcDbLine
 10
24.41869706687188
 20
-0.0395051584142013
 30
0.0
 11
24.209375
 21
0.0448733687584765
 31
0.0
1001
PE_URL
1000

  0
SPLINE
  5
AA
330
1F
100
AcDbEntity
  8
외형선
  6
Continuous
370
    15
100
AcDbSpline
210
0.0
220
0.0
230
1.0
 70
    24
 71
     3
 72
    10
 73
     6
 74
     0
 42
0.000000001
 43
0.00000001
 40
0.0
 40
0.0
 40
0.0
 40
0.0
 40
0.0305484481961686
 40
0.6600435413628685
 40
1.0
 40
1.0
 40
1.0
 40
1.0
 10
24.20937499999969
 20
0.0786642917565146
 30
0.0
 10
24.20937499999968
 20
0.078635480070996
 30
0.0
 10
24.20937499999952
 20
0.0780129618068846
 30
0.0
 10
24.20937499999975
 20
0.0663030973201061
 30
0.0
 10
24.20937499999994
 20
0.0504370850131723
 30
0.0
 10
24.209375
 20
0.0448733687588402
 30
0.0
  0
SPLINE
  5
AB
330
1F
100
AcDbEntity
  8
0
  6
Continuous
 62
     1
370
    25
100
AcDbSpline
210
0.0
220
0.0
230
1.0
 70
     8
 71
     3
 72
     8
 73
     4
 74
     0
 42
0.000000001
 43
0.00000001
 40
0.0
 40
0.0
 40
0.0
 40
0.0
 40
1.0
 40
1.0
 40
1.0
 40
1.0
 10
25.15487869489136
 20
0.1105524090215005
 30
0.0
 10
25.14062611634238
 20
0.1274235236677003
 30
0.0
 10
25.12789810768229
 20
0.14367039877108
 30
0.0
 10
25.11707500202294
 20
0.1591373058408641
 30
0.0
1001
PE_URL
1000

  0
LINE
  5
AC
330
1F
100
AcDbEntity
  8
0
  6
Continuous
 62
     1
370
    25
100
AcDbLine
 10
25.12204719523458
 20
0.1633094713309171
 30
0.0
 11
25.4
 21
0.0000000000000046
 31
0.0
1001
PE_URL
1000

  0
LINE
  5
AD
330
1F
100
AcDbEntity
  8
0
  6
Continuous
 62
     1
370
    25
100
AcDbLine
 10
25.4
 20
0.0000000000000046
 30
0.0
 11
25.4
 21
-0.1060620442055107
 31
0.0
1001
PE_URL
1000

  0
SPLINE
  5
AE
330
1F
100
AcDbEntity
  8
0
  6
Continuous
 62
     1
370
    25
100
AcDbSpline
210
0.0
220
0.0
230
1.0
 70
     8
 71
     3
 72
     8
 73
     4
 74
     0
 42
0.000000001
 43
0.00000001
 40
0.0
 40
0.0
 40
0.0
 40
0.0
 40
1.0
 40
1.0
 40
1.0
 40
1.0
 10
25.4
 20
-0.1060620442055107
 30
0.0
 10
25.31515313053235
 20
-0.0393536404118628
 30
0.0
 10
25.23156195477936
 20
0.0337168127794815
 30
0.0
 10
25.15487869489104
 20
0.1105524090207197
 30
0.0
1001
PE_URL
1000

  0
SPLINE
  5
AF
330
1F
100
AcDbEntity
  8
0
  6
Continuous
 62
     1
370
    25
100
AcDbSpline
210
0.0
220
0.0
230
1.0
 70
     8
 71
     3
 72
    14
 73
    10
 74
     0
 42
0.000000001
 43
0.00000001
 40
0.0
 40
0.0
 40
0.0
 40
0.0
 40
0.25
 40
0.25
 40
0.5
 40
0.5
 40
0.75
 40
0.75
 40
1.0
 40
1.0
 40
1.0
 40
1.0
 10
25.15487869489138
 20
0.110552409021488
 30
0.0
 10
25.0750828178802
 20
0.1448597959598644
 30
0.0
 10
24.99976643748643
 20
0.1763578339741155
 30
0.0
 10
24.84000685498873
 20
0.2323920801054459
 30
0.0
 10
24.75839300267259
 20
0.2563934712961496
 30
0.0
 10
24.60568935061884
 20
0.2926360324207808
 30
0.0
 10
24.52431122678001
 20
0.3056798178010236
 30
0.0
 10
24.36443732165878
 20
0.3188958412338426
 30
0.0
 10
24.28910456834714
 20
0.319240596833058
 30
0.0
 10
24.209375
 20
0.3133308422868504
 30
0.0
1001
PE_URL
1000

  0
SPLINE
  5
B0
330
1F
100
AcDbEntity
  8
0
  6
Continuous
 62
     1
370
    25
100
AcDbSpline
210
0.0
220
0.0
230
1.0
 70
    24
 71
     3
 72
     8
 73
     4
 74
     0
 42
0.000000001
 43
0.00000001
 40
0.0
 40
0.0
 40
0.0
 40
0.0
 40
1.0
 40
1.0
 40
1.0
 40
1.0
 10
25.4
 20
-0.3131233674211312
 30
0.0
 10
25.4
 20
-0.2651166726006301
 30
0.0
 10
25.4
 20
-0.1902507387164446
 30
0.0
 10
25.4
 20
-0.1060620442055234
 30
0.0
1001
PE_URL
1000

  0
SPLINE
  5
B1
330
1F
100
AcDbEntity
  8
외형선
  6
Continuous
370
    15
100
AcDbSpline
210
0.0
220
0.0
230
1.0
 70
    24
 71
     3
 72
    10
 73
     6
 74
     0
 42
0.000000001
 43
0.00000001
 40
0.0
 40
0.0
 40
0.0
 40
0.0
 40
0.1974370553730453
 40
0.6242148365073265
 40
1.0
 40
1.0
 40
1.0
 40
1.0
 10
24.209375
 20
0.3109130383219054
 30
0.0
 10
24.209375
 20
0.3101230256974508
 30
0.0
 10
24.209375
 20
0.3076253304179052
 30
0.0
 10
24.209375
 20
0.2648409702038961
 30
0.0
 10
24.209375
 20
0.203273656141175
 30
0.0
 10
24.209375
 20
0.1744459070708282
 30
0.0
  0
SPLINE
  5
B2
330
1F
100
AcDbEntity
  8
0
  6
Continuous
 62
     1
370
    25
100
AcDbSpline
210
0.0
220
0.0
230
1.0
 70
    24
 71
     3
 72
     8
 73
     4
 74
     0
 42
0.000000001
 43
0.00000001
 40
0.0
 40
0.0
 40
0.0
 40
0.0
 40
1.0
 40
1.0
 40
1.0
 40
1.0
 10
25.15826430936535
 20
0.1936992384402993
 30
0.0
 10
25.145226339218
 20
0.1827590824983604
 30
0.0
 10
25.13145189846995
 20
0.1712009543470355
 30
0.0
 10
25.11707500202291
 20
0.1591373058408568
 30
0.0
1001
PE_URL
1000

  0
LINE
  5
B3
330
1F
100
AcDbEntity
  8
0
  6
Continuous
 62
     1
370
    25
100
AcDbLine
 10
25.4
 20
0.2778125000000043
 30
0.0
 11
25.18520463197256
 21
0.2571703277716157
 31
0.0
1001
PE_URL
1000

  0
SPLINE
  5
B4
330
1F
100
AcDbEntity
  8
0
  6
Continuous
 62
     1
370
    25
100
AcDbSpline
210
0.0
220
0.0
230
1.0
 70
     8
 71
     3
 72
    17
 73
    13
 74
     0
 42
0.000000001
 43
0.00000001
 40
0.0
 40
0.0
 40
0.0
 40
0.0
 40
0.0001031126202385
 40
0.0001031126202385
 40
0.0001031126202385
 40
0.0002062313519065
 40
0.0002062313519065
 40
0.0002062313519065
 40
0.0002926365297923
 40
0.0002926365297923
 40
0.0002926365297923
 40
0.0003267556738351
 40
0.0003267556738351
 40
0.0003267556738351
 40
0.0003267556738351
 10
25.39999999999994
 20
0.2778125000000046
 30
0.0
 10
25.37422776876435
 20
0.2707777224272455
 30
0.0
 10
25.34853216522401
 20
0.2632411734053045
 30
0.0
 10
25.3229431012798
 20
0.2551467517548671
 30
0.0
 10
25.29735315484334
 20
0.2470520509514136
 30
0.0
 10
25.27186201679991
 20
0.2383979100308037
 30
0.0
 10
25.24651216472754
 20
0.2291045903526569
 30
0.0
 10
25.22527052432437
 20
0.2213173514294742
 30
0.0
 10
25.20412183673331
 20
0.2130790880162314
 30
0.0
 10
25.18310289484807
 20
0.2043224395195938
 30
0.0
 10
25.17480276322605
 20
0.2008645425670877
 30
0.0
 10
25.16652223657422
 20
0.1973252428005865
 30
0.0
 10
25.15826430936532
 20
0.1936992384403159
 30
0.0
1001
PE_URL
1000

  0
SPLINE
  5
B5
330
1F
100
AcDbEntity
  8
0
  6
Continuous
 62
     1
370
    25
100
AcDbSpline
210
0.0
220
0.0
230
1.0
 70
     8
 71
     3
 72
     9
 73
     5
 74
     0
 42
0.000000001
 43
0.00000001
 40
0.0
 40
0.0
 40
0.0
 40
0.0
 40
0.3902104171380952
 40
1.0
 40
1.0
 40
1.0
 40
1.0
 10
24.54802399430745
 20
-0.2969837507108193
 30
0.0
 10
24.50388862898982
 20
-0.303964165080341
 30
0.0
 10
24.39078205013083
 20
-0.3218530118741242
 30
0.0
 10
24.27809213583264
 20
-0.3165590469497571
 30
0.0
 10
24.209375
 20
-0.3133308422868417
 30
0.0
1001
PE_URL
1000

  0
SPLINE
  5
B6
330
1F
100
AcDbEntity
  8
외형선
  6
Continuous
370
    15
100
AcDbSpline
210
0.0
220
0.0
230
1.0
 70
    24
 71
     3
 72
    10
 73
     6
 74
     0
 42
0.000000001
 43
0.00000001
 40
0.0
 40
0.0
 40
0.0
 40
0.0
 40
0.5
 40
0.5
 40
1.0
 40
1.0
 40
1.0
 40
1.0
 10
24.209375
 20
0.0448733687584763
 30
0.0
 10
24.209375
 20
-0.0253444648349717
 30
0.0
 10
24.209375
 20
-0.0992758404942352
 30
0.0
 10
24.209375
 20
-0.2266022719498249
 30
0.0
 10
24.209375
 20
-0.2790107915729813
 30
0.0
 10
24.209375
 20
-0.3133308422868417
 30
0.0
  0
LINE
  5
B7
330
1F
100
AcDbEntity
  8
0
  6
Continuous
 62
     1
370
    25
100
AcDbLine
 10
25.4
 20
0.0000000000000046
 30
0.0
 11
25.4
 21
0.2778125000000045
 31
0.0
1001
PE_URL
1000

  0
SPLINE
  5
B8
330
1F
100
AcDbEntity
  8
0
  6
Continuous
 62
     1
370
    25
100
AcDbSpline
210
0.0
220
0.0
230
1.0
 70
     8
 71
     3
 72
    10
 73
     6
 74
     0
 42
0.000000001
 43
0.00000001
 40
0.0
 40
0.0
 40
0.0
 40
0.0
 40
0.0332729491468283
 40
0.5147033773662134
 40
1.0
 40
1.0
 40
1.0
 40
1.0
 10
24.85789744338953
 20
0.2664995050438544
 30
0.0
 10
24.86391503807749
 20
0.269504889290902
 30
0.0
 10
24.95700195669865
 20
0.3159955509816481
 30
0.0
 10
25.1372410113548
 20
0.3711228156140639
 30
0.0
 10
25.31218046090808
 20
0.3880447583087489
 30
0.0
 10
25.4
 20
0.3965395672942691
 30
0.0
1001
PE_URL
1000

  0
SPLINE
  5
B9
330
1F
100
AcDbEntity
  8
0
  6
Continuous
 62
     1
370
    25
100
AcDbSpline
210
0.0
220
0.0
230
1.0
 70
    24
 71
     3
 72
     8
 73
     4
 74
     0
 42
0.000000001
 43
0.00000001
 40
0.0
 40
0.0
 40
0.0
 40
0.0
 40
1.0
 40
1.0
 40
1.0
 40
1.0
 10
25.4
 20
0.2778125000000043
 30
0.0
 10
25.4
 20
0.3114931038408096
 30
0.0
 10
25.4
 20
0.356787472373158
 30
0.0
 10
25.4
 20
0.3965395672942691
 30
0.0
1001
PE_URL
1000

  0
LINE
  5
BA
330
1F
100
AcDbEntity
  8
외형선
  6
Continuous
370
    15
100
AcDbLine
 10
16.30358667873053
 20
2.381250000000005
 30
0.0
 11
16.30358667873053
 21
-2.381249999999996
 31
0.0
  0
SPLINE
  5
BC
330
1F
100
AcDbEntity
  8
외형선
  6
Continuous
370
    15
100
AcDbSpline
210
0.0
220
0.0
230
1.0
 70
     8
 71
     3
 72
     8
 73
     4
 74
     0
 42
0.000000001
 43
0.00000001
 40
0.0000000000000001
 40
0.0000000000000001
 40
0.0000000000000001
 40
0.0000000000000001
 40
0.0001693130155445
 40
0.0001693130155445
 40
0.0001693130155445
 40
0.0001693130155445
 10
23.709375
 20
0.3711208554140493
 30
0.0
 10
23.65953112443534
 20
0.3917093690071817
 30
0.0
 10
23.61026646850506
 20
0.4111890174023958
 30
0.0
 10
23.56125923357462
 20
0.4287429753308793
 30
0.0
  0
LINE
  5
BD
330
1F
100
AcDbEntity
  8
외형선
  6
Continuous
370
    15
100
AcDbLine
 10
23.709375
 20
0.371120855414054
 30
0.0
 11
23.709375
 21
0.3178448314488871
 31
0.0
  0
SPLINE
  5
BE
330
1F
100
AcDbEntity
  8
외형선
  6
Continuous
370
    15
100
AcDbSpline
210
0.0
220
0.0
230
1.0
 70
     8
 71
     3
 72
     8
 73
     4
 74
     0
 42
0.000000001
 43
0.00000001
 40
0.0
 40
0.0
 40
0.0
 40
0.0
 40
0.0001699497934556
 40
0.0001699497934556
 40
0.0001699497934556
 40
0.0001699497934556
 10
23.56125923357462
 20
0.3900560908282719
 30
0.0
 10
23.61078423823252
 20
0.3673796711768363
 30
0.0
 10
23.65997735388288
 20
0.3430388685438442
 30
0.0
 10
23.70937499998836
 20
0.3178448314548232
 30
0.0
  0
SPLINE
  5
BF
330
1F
100
AcDbEntity
  8
외형선
  6
Continuous
370
    15
100
AcDbSpline
210
0.0
220
0.0
230
1.0
 70
    24
 71
     3
 72
    23
 73
    19
 74
     0
 42
0.000000001
 43
0.00000001
 40
0.0
 40
0.0
 40
0.0
 40
0.0
 40
0.0552495143638429
 40
0.1173883067055486
 40
0.1813291282347546
 40
0.2434679205761832
 40
0.3074087421049952
 40
0.3695475344465109
 40
0.4334883559755096
 40
0.4956271483170734
 40
0.5595679698461249
 40
0.6217067621874915
 40
0.6856475837166901
 40
0.7477863760582297
 40
0.8117271975872548
 40
0.873865989928791
 40
0.9378068114578124
 40
0.9999999999999999
 40
0.9999999999999999
 40
0.9999999999999999
 40
0.9999999999999999
 10
23.56125923357462
 20
-0.435813133653345
 30
0.0
 10
23.56125923357462
 20
-0.4351989137423011
 30
0.0
 10
23.56125923357462
 20
-0.4338938844378359
 30
0.0
 10
23.56125923357462
 20
-0.4167557922789389
 30
0.0
 10
23.56125923357462
 20
-0.388394323222572
 30
0.0
 10
23.56125923357462
 20
-0.3483673331674894
 30
0.0
 10
23.56125923357462
 20
-0.2989442364010415
 30
0.0
 10
23.56125923357462
 20
-0.2405227400245753
 30
0.0
 10
23.56125923357462
 20
-0.1758377801809551
 30
0.0
 10
23.56125923357462
 20
-0.105548127414173
 30
0.0
 10
23.56125923357462
 20
-0.0329101857336441
 30
0.0
 10
23.56125923357462
 20
0.0413265787746624
 30
0.0
 10
23.56125923357462
 20
0.1137297733529032
 30
0.0
 10
23.56125923357462
 20
0.1835339227169091
 30
0.0
 10
23.56125923357462
 20
0.2475786775778041
 30
0.0
 10
23.56125923357462
 20
0.3049353906048526
 30
0.0
 10
23.56125923357462
 20
0.3539628155347527
 30
0.0
 10
23.56125923357462
 20
0.3781366448217341
 30
0.0
 10
23.56125923357462
 20
0.390056090828272
 30
0.0
  0
SPLINE
  5
C0
330
1F
100
AcDbEntity
  8
외형선
  6
Continuous
370
    15
100
AcDbSpline
210
0.0
220
0.0
230
1.0
 70
     8
 71
     3
 72
     8
 73
     4
 74
     0
 42
0.000000001
 43
0.00000001
 40
0.0000000000000001
 40
0.0000000000000001
 40
0.0000000000000001
 40
0.0000000000000001
 40
0.0001693130155445
 40
0.0001693130155445
 40
0.0001693130155445
 40
0.0001693130155445
 10
23.709375
 20
-0.3711208554140405
 30
0.0
 10
23.65953112443534
 20
-0.391709369007173
 30
0.0
 10
23.61026646850506
 20
-0.411189017402387
 30
0.0
 10
23.56125923357462
 20
-0.4287429753308705
 30
0.0
  0
SPLINE
  5
C1
330
1F
100
AcDbEntity
  8
외형선
  6
Continuous
370
    15
100
AcDbSpline
210
0.0
220
0.0
230
1.0
 70
    24
 71
     3
 72
     9
 73
     5
 74
     0
 42
0.000000001
 43
0.00000001
 40
0.0
 40
0.0
 40
0.0
 40
0.0
 40
0.8772935909208273
 40
1.0
 40
1.0
 40
1.0
 40
1.0
 10
23.56125923357462
 20
0.4287429753308795
 30
0.0
 10
23.56125923357462
 20
0.4330957067408322
 30
0.0
 10
23.56125923357462
 20
0.4380572514905029
 30
0.0
 10
23.56125923357462
 20
0.4360584049363179
 30
0.0
 10
23.56125923357462
 20
0.4358131336533537
 30
0.0
  0
SPLINE
  5
C3
330
1F
100
AcDbEntity
  8
외형선
  6
Continuous
370
    15
100
AcDbSpline
210
0.0
220
0.0
230
1.0
 70
    24
 71
     3
 72
     8
 73
     4
 74
     0
 42
0.000000001
 43
0.00000001
 40
0.0
 40
0.0
 40
0.0
 40
0.0
 40
1.0
 40
1.0
 40
1.0
 40
1.0
 10
24.2093750000036
 20
0.0801501252705908
 30
0.0
 10
24.2093750000036
 20
0.0837671385267322
 30
0.0
 10
24.2093750000036
 20
0.0695037552556385
 30
0.0
 10
24.2093750000036
 20
0.044873368757051
 30
0.0
  0
SPLINE
  5
C4
330
1F
100
AcDbEntity
  8
외형선
  6
Continuous
370
    15
100
AcDbSpline
210
0.0
220
0.0
230
1.0
 70
     8
 71
     3
 72
    10
 73
     6
 74
     0
 42
0.000000001
 43
0.00000001
 40
0.0
 40
0.0
 40
0.0
 40
0.0
 40
0.3476219739017838
 40
0.6924110661264559
 40
1.0
 40
1.0
 40
1.0
 40
1.0
 10
24.209375
 20
0.0448733687584765
 30
0.0
 10
24.1342351297188
 20
0.0738829233423917
 30
0.0
 10
23.98456772778204
 20
0.1316656244525855
 30
0.0
 10
23.76879664950071
 20
0.2062884934880651
 30
0.0
 10
23.62775757691911
 20
0.2293702036732205
 30
0.0
 10
23.56125923357462
 20
0.2402529715528995
 30
0.0
  0
SPLINE
  5
C5
330
1F
100
AcDbEntity
  8
외형선
  6
Continuous
370
    15
100
AcDbSpline
210
0.0
220
0.0
230
1.0
 70
     8
 71
     3
 72
    10
 73
     6
 74
     0
 42
0.000000001
 43
0.00000001
 40
0.0
 40
0.0
 40
0.0
 40
0.0
 40
0.5
 40
0.5
 40
1.0
 40
1.0
 40
1.0
 40
1.0
 10
24.209375
 20
0.0801501252725585
 30
0.0
 10
24.12556857975305
 20
0.1272325058218581
 30
0.0
 10
24.03962276624251
 20
0.1728479942382319
 30
0.0
 10
23.87920649221614
 20
0.2528278870634506
 30
0.0
 10
23.79314754044232
 20
0.2890607327757965
 30
0.0
 10
23.709375
 20
0.3178448314488871
 30
0.0
  0
SPLINE
  5
C6
330
1F
100
AcDbEntity
  8
외형선
  6
Continuous
370
    15
100
AcDbSpline
210
0.0
220
0.0
230
1.0
 70
     8
 71
     3
 72
    10
 73
     6
 74
     0
 42
0.000000001
 43
0.00000001
 40
0.0
 40
0.0
 40
0.0
 40
0.0
 40
0.5000000000000001
 40
0.5000000000000001
 40
1.0
 40
1.0
 40
1.0
 40
1.0
 10
24.209375
 20
0.184383511274047
 30
0.0
 10
24.12556857975305
 20
0.2269533624442176
 30
0.0
 10
24.03962276624251
 20
0.2656569058711982
 30
0.0
 10
23.87920649221614
 20
0.3284911812855636
 30
0.0
 10
23.79314754044232
 20
0.3540878506745805
 30
0.0
 10
23.709375
 20
0.3711208554140543
 30
0.0
  0
LINE
  5
C7
330
1F
100
AcDbEntity
  8
외형선
  6
Continuous
370
    15
100
AcDbLine
 10
23.6335520749228
 20
-0.3292804168883978
 30
0.0
 11
23.56125923357462
 21
-0.3308852821476153
 31
0.0
  0
SPLINE
  5
C8
330
1F
100
AcDbEntity
  8
외형선
  6
Continuous
370
    15
100
AcDbSpline
210
0.0
220
0.0
230
1.0
 70
     8
 71
     3
 72
    10
 73
     6
 74
     0
 42
0.000000001
 43
0.00000001
 40
0.0
 40
0.0
 40
0.0
 40
0.0
 40
0.3476020488052596
 40
0.6924445385163711
 40
1.0
 40
1.0
 40
1.0
 40
1.0
 10
24.209375
 20
-0.3133308422868417
 30
0.0
 10
24.13422929735865
 20
-0.3043665574950467
 30
0.0
 10
23.98453446222802
 20
-0.2865091539868716
 30
0.0
 10
23.76883103218399
 20
-0.2259711411256563
 30
0.0
 10
23.62776229452439
 20
-0.1662930796955774
 30
0.0
 10
23.56125923357462
 20
-0.1381594632579967
 30
0.0
  0
SPLINE
  5
C9
330
1F
100
AcDbEntity
  8
외형선
  6
Continuous
370
    15
100
AcDbSpline
210
0.0
220
0.0
230
1.0
 70
    24
 71
     3
 72
    10
 73
     6
 74
     0
 42
0.000000001
 43
0.00000001
 40
0.0
 40
0.0
 40
0.0
 40
0.0
 40
0.5000000000000001
 40
0.5000000000000001
 40
1.0
 40
1.0
 40
1.0
 40
1.0
 10
24.209375
 20
0.0448733687584761
 30
0.0
 10
24.209375
 20
-0.0253444648349718
 30
0.0
 10
24.209375
 20
-0.0992758404942353
 30
0.0
 10
24.209375
 20
-0.226602271949825
 30
0.0
 10
24.209375
 20
-0.2790107915729814
 30
0.0
 10
24.209375
 20
-0.3133308422868417
 30
0.0
  0
SPLINE
  5
CA
330
1F
100
AcDbEntity
  8
외형선
  6
Continuous
370
    15
100
AcDbSpline
210
0.0
220
0.0
230
1.0
 70
    24
 71
     3
 72
    10
 73
     6
 74
     0
 42
0.000000001
 43
0.00000001
 40
0.0
 40
0.0
 40
0.0
 40
0.0
 40
0.4999999999999999
 40
0.4999999999999999
 40
1.0
 40
1.0
 40
1.0
 40
1.0
 10
24.209375
 20
0.3133308422868505
 30
0.0
 10
24.209375
 20
0.3161701968232652
 30
0.0
 10
24.209375
 20
0.3056602785317384
 30
0.0
 10
24.209375
 20
0.2571131115726654
 30
0.0
 10
24.209375
 20
0.2192848288901308
 30
0.0
 10
24.209375
 20
0.1744459070708282
 30
0.0
  0
LINE
  5
CB
330
1F
100
AcDbEntity
  8
외형선
  6
Continuous
370
    15
100
AcDbLine
 10
23.91688080766648
 20
-0.3119623553453467
 30
0.0
 11
23.709375
 21
-0.3711208554140455
 31
0.0
  0
LINE
  5
CC
330
1F
100
AcDbEntity
  8
중심선
 62
     1
100
AcDbLine
 10
-26.9
 20
0.0
 30
0.0
 11
26.9
 21
0.0
 31
0.0
  0
LINE
  5
CD
330
1F
100
AcDbEntity
  8
참조1
100
AcDbLine
 10
-0.0000000000000071
 20
0.0
 30
0.0
 11
-0.0000000000000071
 21
-40.0
 31
0.0
  0
LINE
  5
CE
330
1F
100
AcDbEntity
  8
참조1
100
AcDbLine
 10
-0.0000000000000071
 20
-40.0
 30
0.0
 11
-15.15634059669922
 21
-39.99999999999999
 31
0.0
  0
CIRCLE
  5
CF
330
1F
100
AcDbEntity
  8
해칭선
100
AcDbCircle
 10
0.0
 20
0.0
 30
0.0
 40
2.999999999999999
  0
INSERT
  5
D0
330
1F
100
AcDbEntity
  8
0
  6
Continuous
 62
     7
100
AcDbBlockReference
 66
     1
  2
블럭10
 10
-13.94027293212521
 20
-52.04717430164392
 30
0.0
  0
ATTRIB
  5
D1
330
D0
100
AcDbEntity
  8
FORMAT
 62
     2
100
AcDbText
 10
-23.1215682208665
 20
-49.97180738881173
 30
0.0
 40
4.233333333333333
  1
E2001002 [ 2 FLUTE ]
 41
0.75
  7
SLDTEXTSTYLE0
 11
-23.1215682208665
 21
-52.0884740554784
 31
0.0
100
AcDbAttribute
  2
AUTOATTR0
 70
     0
 74
     1
  0
SEQEND
  5
D2
330
D0
100
AcDbEntity
  8
0
  6
Continuous
 62
     7
  0
HATCH
  5
D3
330
1F
100
AcDbEntity
  8
중심선
100
AcDbHatch
 10
0.0
 20
0.0
 30
0.0
210
0.0
220
0.0
230
1.0
  2
SOLID
 70
     1
 71
     0
 91
        1
 92
        0
 93
        4
 72
     1
 10
-8.225363627744379
 20
-35.79999999999999
 11
-11.67163887158167
 21
-35.79999999999999
 72
     1
 10
-11.67163887158167
 20
-35.79999999999999
 11
-13.79986873078569
 21
-38.33632558057259
 72
     1
 10
-13.79986873078569
 20
-38.33632558057259
 11
-10.35356040183526
 21
-38.3362861512701
 72
     1
 10
-10.35356040183526
 20
-38.3362861512701
 11
-8.225363627744379
 21
-35.79999999999999
 97
        0
 75
     0
 76
     1
 98
        1
 10
14.30358667873051
 20
-0.0010749287238892
  0
HATCH
  5
D4
330
1F
100
AcDbEntity
  8
중심선
100
AcDbHatch
 10
0.0
 20
0.0
 30
0.0
210
0.0
220
0.0
230
1.0
  2
SOLID
 70
     1
 71
     0
 91
        1
 92
        0
 93
        4
 72
     1
 10
-3.212599636708408
 20
-35.79999999999999
 11
-6.658874880545689
 21
-35.79999999999999
 72
     1
 10
-6.658874880545689
 20
-35.79999999999999
 11
-11.1900128889031
 21
-41.20000000000001
 72
     1
 10
-11.1900128889031
 20
-41.20000000000001
 11
-7.743737645065817
 21
-41.20000000000001
 72
     1
 10
-7.743737645065817
 20
-41.20000000000001
 11
-3.212599636708408
 21
-35.79999999999999
 97
        0
 75
     0
 76
     1
 98
        1
 10
14.30358667873051
 20
-0.0010749287238892
  0
HATCH
  5
D5
330
1F
100
AcDbEntity
  8
중심선
100
AcDbHatch
 10
0.0
 20
0.0
 30
0.0
210
0.0
220
0.0
230
1.0
  2
SOLID
 70
     1
 71
     0
 91
        1
 92
        0
 93
        4
 72
     1
 10
1.800164354327492
 20
-35.79999999999999
 11
-1.646110889509597
 21
-35.79999999999999
 72
     1
 10
-1.646110889509597
 20
-35.79999999999999
 11
-8.694547791398907
 21
-44.20000000000001
 72
     1
 10
-8.694547791398897
 20
-44.20000000000001
 11
-5.248272547561619
 21
-44.20000000000001
 72
     1
 10
-5.248272547561619
 20
-44.20000000000001
 11
1.800164354327492
 21
-35.79999999999999
 97
        0
 75
     0
 76
     1
 98
        1
 10
14.30358667873051
 20
-0.0010749287238892
  0
HATCH
  5
D6
330
1F
100
AcDbEntity
  8
중심선
100
AcDbHatch
 10
0.0
 20
0.0
 30
0.0
210
0.0
220
0.0
230
1.0
  2
SOLID
 70
     1
 71
     0
 91
        1
 92
        0
 93
        6
 72
     3
 10
6.600054785339661
 20
-40.00000000005127
 11
3.960054785062284
 21
1.540882976769353E-10
 40
0.3939339440162627
 50
17.09539180608439
 51
320.0019657685075
 73
     0
 72
     1
 10
8.283054441040258
 20
-38.58789400463827
 11
10.58835631474132
 21
-36.65356729459035
 72
     3
 10
6.600054785286815
 20
-40.00000000000014
 11
6.600054785286829
 21
-1.278976924368180E-13
 40
0.636358354079598
 50
39.99873849337411
 51
368.4976242363724
 73
     1
 72
     1
 10
13.02538727718743
 20
-39.03999999993001
 11
5.280122092122765
 21
-39.03999999992999
 72
     1
 10
5.280122092122765
 20
-39.03999999992999
 11
5.280097047676804
 21
-40.95999999992991
 72
     1
 10
5.280097047676804
 20
-40.95999999992991
 11
9.72147681714884
 21
-40.95999999992987
 97
        0
 75
     0
 76
     1
 98
        1
 10
14.30358667873051
 20
-0.0010749287238892
  0
DIMENSION
  5
D7
330
1F
100
AcDbEntity
  8
치수문자_일반주서
100
AcDbDimension
  2
_D
 10
-33.40000000000001
 20
-2.381250000000062
 30
0.0
 11
-33.40000000000007
 21
17.63124999999997
 31
0.0
 70
   160
  1
%%c<>
 71
     2
 42
4.762500000000015
 52
-270.0
  3
SLDDIMSTYLE0
100
AcDbAlignedDimension
 13
-16.30358667873053
 23
2.381250000000018
 33
0.0
 14
-16.30358667873053
 24
-2.381249999999997
 34
0.0
 50
90.0000000000002
100
AcDbRotatedDimension
1001
ACAD
1000
DSTYLE
1002
{
1070
   171
1070
     8
1070
   273
1070
     7
1070
    41
1040
2.5
1070
   140
1040
2.5
1002
}
1001
PE_URL
1000

  0
DIMENSION
  5
EC
330
1F
100
AcDbEntity
  8
치수문자_일반주서
100
AcDbDimension
  2
_D_1
 10
52.41713083417416
 20
0.3965395672943703
 30
0.0
 11
52.41713083417416
 21
14.70903956729438
 31
0.0
 70
   160
  1
%%c<>
 71
     2
 42
0.793079134588529
 52
-270.0
  3
SLDDIMSTYLE0
100
AcDbAlignedDimension
 13
25.4
 23
-0.3965395672942599
 33
0.0
 14
25.4
 24
0.3965395672942691
 34
0.0
 50
90.0000000000002
100
AcDbRotatedDimension
1001
PE_URL
1000

1001
ACAD
1000
DSTYLE
1002
{
1070
   171
1070
     8
1070
   273
1070
     7
1070
    41
1040
2.5
1070
   140
1040
2.5
1002
}
  0
DIMENSION
  5
101
330
1F
100
AcDbEntity
  8
치수문자_일반주서
100
AcDbDimension
  2
_D_2
 10
24.209375
 20
10.38125
 30
0.0
 11
39.40000000000001
 21
10.38125
 31
0.0
 70
   160
  1
<>
 71
     2
 42
1.190624999999997
  3
SLDDIMSTYLE0
100
AcDbAlignedDimension
 13
25.4
 23
0.3965395672942691
 33
0.0
 14
24.209375
 24
0.3138007020599826
 34
0.0
100
AcDbRotatedDimension
1001
PE_URL
1000

1001
ACAD
1000
DSTYLE
1002
{
1070
   171
1070
     8
1070
   273
1070
     7
1070
    41
1040
2.5
1070
   140
1040
2.5
1002
}
  0
DIMENSION
  5
116
330
1F
100
AcDbEntity
  8
치수문자_일반주서
100
AcDbDimension
  2
_D_3
 10
25.40000000000001
 20
18.42014478364714
 30
0.0
 11
0.0000000000000018
 21
18.42014478364714
 31
0.0
 70
   160
  1
<>
 71
     2
 42
50.8
  3
SLDDIMSTYLE0
100
AcDbAlignedDimension
 13
-25.4
 23
0.3965395672942904
 33
0.0
 14
25.4
 24
0.3965395672942691
 34
0.0
100
AcDbRotatedDimension
1001
PE_URL
1000

1001
ACAD
1000
DSTYLE
1002
{
1070
   171
1070
     8
1070
   273
1070
     7
1070
    41
1040
2.5
1070
   140
1040
2.5
1002
}
  0
LINE
  5
12A
330
1F
100
AcDbEntity
  8
참조1
100
AcDbLine
 10
82.81600003295503
 20
7.440000000000006
 30
0.0
 11
82.81600003295503
 21
-7.439999999999999
 31
0.0
  0
LINE
  5
12B
330
1F
100
AcDbEntity
  8
참조1
100
AcDbLine
 10
95.51600003295505
 20
5.440000000000006
 30
0.0
 11
82.81600003295503
 21
5.440000000000006
 31
0.0
  0
SOLID
  5
12C
330
1F
100
AcDbEntity
  8
참조1
100
AcDbTrace
 10
82.81600003295503
 20
5.440000000000006
 30
0.0
 11
89.16600003295503
 21
4.424000000000006
 31
0.0
 12
89.16600003295503
 22
6.456000000000006
 32
0.0
 13
89.16600003295503
 23
6.456000000000006
 33
0.0
  0
LINE
  5
12D
330
1F
100
AcDbEntity
  8
참조1
100
AcDbLine
 10
95.51600003295505
 20
-5.439999999999999
 30
0.0
 11
82.81600003295503
 21
-5.439999999999999
 31
0.0
  0
SOLID
  5
12E
330
1F
100
AcDbEntity
  8
참조1
100
AcDbTrace
 10
82.81600003295503
 20
-5.439999999999999
 30
0.0
 11
89.16600003295503
 21
-6.455999999999999
 31
0.0
 12
89.16600003295503
 22
-4.423999999999999
 32
0.0
 13
89.16600003295503
 23
-4.423999999999999
 33
0.0
  0
MTEXT
  5
12F
330
1F
100
AcDbEntity
  8
참조1
100
AcDbMText
 10
92.20035016558103
 20
11.01029177718834
 30
0.0
 40
3.5
 41
0.0
 71
     1
 72
     1
  1
A
  7
SLDTEXTSTYLE0
 73
     1
 44
1.0
  0
MTEXT
  5
130
330
1F
100
AcDbEntity
  8
참조1
100
AcDbMText
 10
92.20035016558103
 20
0.13029177718833
 30
0.0
 40
3.5
 41
0.0
 71
     1
 72
     1
  1
A
  7
SLDTEXTSTYLE0
 73
     1
 44
1.0
  0
INSERT
  5
137
330
1F
100
AcDbEntity
  8
해칭선
100
AcDbBlockReference
  2
SW_DOWELSYMBOL_0
 10
0.0
 20
0.0
 30
0.0
  0
LINE
  5
236
330
1F
100
AcDbEntity
  8
0
  6
Continuous
 62
     1
370
    25
100
AcDbLine
 10
-24.42801679204195
 20
-0.0747448487663078
 30
0.0
 11
-24.37798151139426
 21
-0.0927200553968248
 31
0.0
1001
PE_URL
1000

  0
LINE
  5
237
330
1F
100
AcDbEntity
  8
0
  6
Continuous
 62
     1
370
    25
100
AcDbLine
 10
-24.36929124195058
 20
-0.3166677756409797
 30
0.0
 11
-24.20937499999999
 21
-0.3136458474840111
 31
0.0
1001
PE_URL
1000

  0
SPLINE
  5
238
330
1F
100
AcDbEntity
  8
0
  6
Continuous
 62
     1
370
    25
100
AcDbSpline
210
0.0
220
0.0
230
1.0
 70
     8
 71
     3
 72
    10
 73
     6
 74
     0
 42
0.000000001
 43
0.00000001
 40
0.0
 40
0.0
 40
0.0
 40
0.0
 40
0.3895404952414549
 40
0.5940668457082358
 40
1.0
 40
1.0
 40
1.0
 40
1.0
 10
-25.18642069635928
 20
-0.2645562105250931
 30
0.0
 10
-25.10805982166066
 20
-0.2623618230545262
 30
0.0
 10
-24.98855594920629
 20
-0.259015283070049
 30
0.0
 10
-24.76824434956664
 20
-0.2694846779796265
 30
0.0
 10
-24.63528620138604
 20
-0.2880958247388463
 30
0.0
 10
-24.54687391513441
 20
-0.3004715539232805
 30
0.0
1001
PE_URL
1000

  0
SPLINE
  5
239
330
1F
100
AcDbEntity
  8
0
  6
Continuous
 62
     1
370
    25
100
AcDbSpline
210
0.0
220
0.0
230
1.0
 70
     8
 71
     3
 72
     9
 73
     5
 74
     0
 42
0.000000001
 43
0.00000001
 40
0.0
 40
0.0
 40
0.0
 40
0.0
 40
0.9377891239705481
 40
1.0
 40
1.0
 40
1.0
 40
1.0
 10
-24.54687391513441
 20
0.3004715539232734
 30
0.0
 10
-24.64448767516796
 20
0.2861826679884558
 30
0.0
 10
-24.74857691819551
 20
0.270945888663995
 30
0.0
 10
-24.8507622071231
 20
0.2663970678298497
 30
0.0
 10
-24.85711924346462
 20
0.2661140817008558
 30
0.0
1001
PE_URL
1000

  0
LINE
  5
23A
330
1F
100
AcDbEntity
  8
0
  6
Continuous
 62
     1
370
    25
100
AcDbLine
 10
-24.20937499999999
 20
0.313645847484004
 30
0.0
 11
-24.36929124195058
 21
0.3166677756409726
 31
0.0
1001
PE_URL
1000

  0
LINE
  5
23B
330
1F
100
AcDbEntity
  8
외형선
  6
Continuous
370
    15
100
AcDbLine
 10
-16.30358667873053
 20
2.381250000000001
 30
0.0
 11
-23.56144657516128
 21
0.4365123019731456
 31
0.0
  0
LINE
  5
23C
330
1F
100
AcDbEntity
  8
외형선
  6
Continuous
370
    15
100
AcDbLine
 10
-23.56144657516128
 20
-0.4365123019731456
 30
0.0
 11
-16.30358667873053
 21
-2.381249999999994
 31
0.0
  0
SPLINE
  5
23D
330
1F
100
AcDbEntity
  8
외형선
  6
Continuous
370
    15
100
AcDbSpline
210
0.0
220
0.0
230
1.0
 70
     8
 71
     3
 72
    10
 73
     6
 74
     0
 42
0.000000001
 43
0.00000001
 40
0.0
 40
0.0
 40
0.0
 40
0.0
 40
0.488344026734779
 40
0.6389993665436896
 40
1.0
 40
1.0
 40
1.0
 40
1.0
 10
-23.63316825128408
 20
0.331216087435557
 30
0.0
 10
-23.72687498888486
 20
0.323346180672921
 30
0.0
 10
-23.84949048675045
 20
0.3130483882135593
 30
0.0
 10
-24.04161318279503
 20
0.3087531477386847
 30
0.0
 10
-24.13997528215646
 20
0.3116218351820734
 30
0.0
 10
-24.209375
 20
0.3136458474840111
 30
0.0
  0
LINE
  5
23E
330
1F
100
AcDbEntity
  8
외형선
  6
Continuous
370
    15
100
AcDbLine
 10
-24.209375
 20
-0.3136458474840182
 30
0.0
 11
-23.91649574711835
 21
-0.3120721334991288
 31
0.0
  0
SPLINE
  5
23F
330
1F
100
AcDbEntity
  8
0
  6
Continuous
 62
     1
370
    25
100
AcDbSpline
210
0.0
220
0.0
230
1.0
 70
     8
 71
     3
 72
    18
 73
    14
 74
     0
 42
0.000000001
 43
0.00000001
 40
0.0
 40
0.0
 40
0.0
 40
0.0
 40
0.2499999999999998
 40
0.2499999999999998
 40
0.3749999999999999
 40
0.3749999999999999
 40
0.5
 40
0.5
 40
0.75
 40
0.75
 40
0.875
 40
0.875
 40
1.0
 40
1.0
 40
1.0
 40
1.0
 10
-25.4
 20
0.3766109074764046
 30
0.0
 10
-25.30408083861391
 20
0.3587310269901849
 30
0.0
 10
-25.19972932000976
 20
0.328284797306047
 30
0.0
 10
-25.05153627624656
 20
0.2694577151472188
 30
0.0
 10
-25.00412894766412
 20
0.2478903898165683
 30
0.0
 10
-24.90449781695234
 20
0.200530776504884
 30
0.0
 10
-24.85356780401141
 20
0.1748971797901859
 30
0.0
 10
-24.70279073127266
 20
0.0947942208213632
 30
0.0
 10
-24.60739797252155
 20
0.0376630368493167
 30
0.0
 10
-24.45587102692962
 20
-0.0487195188212866
 30
0.0
 10
-24.40530101528308
 20
-0.0773606837621372
 30
0.0
 10
-24.30752815425012
 20
-0.1323726660624516
 30
0.0
 10
-24.25951236921652
 20
-0.158916007241281
 30
0.0
 10
-24.20937500000018
 20
-0.1843835112739569
 30
0.0
1001
PE_URL
1000

  0
SPLINE
  5
240
330
1F
100
AcDbEntity
  8
0
  6
Continuous
 62
     1
370
    25
100
AcDbSpline
210
0.0
220
0.0
230
1.0
 70
     8
 71
     3
 72
    11
 73
     7
 74
     0
 42
0.000000001
 43
0.00000001
 40
0.0
 40
0.0
 40
0.0
 40
0.0
 40
0.2552961154971548
 40
0.5081674989082213
 40
0.7625349117965617
 40
1.0
 40
1.0
 40
1.0
 40
1.0
 10
-25.4
 20
0.3131233674211344
 30
0.0
 10
-25.31668944553022
 20
0.294011720682029
 30
0.0
 10
-25.15085959725726
 20
0.2559699443529482
 30
0.0
 10
-24.90265540714251
 20
0.1542298806676143
 30
0.0
 10
-24.65984745304945
 20
0.0379673382272117
 30
0.0
 10
-24.49931653160711
 20
-0.0399149501311911
 30
0.0
 10
-24.42180947517009
 20
-0.0775178422407237
 30
0.0
1001
PE_URL
1000

  0
LINE
  5
241
330
1F
100
AcDbEntity
  8
0
  6
Continuous
 62
     1
370
    25
100
AcDbLine
 10
-25.39999999999999
 20
0.3766109074764046
 30
0.0
 11
-25.4
 21
0.3131233674211344
 31
0.0
1001
PE_URL
1000

  0
SPLINE
  5
242
330
1F
100
AcDbEntity
  8
0
  6
Continuous
 62
     1
370
    25
100
AcDbSpline
210
0.0
220
0.0
230
1.0
 70
     8
 71
     3
 72
    18
 73
    14
 74
     0
 42
0.000000001
 43
0.00000001
 40
0.0
 40
0.0
 40
0.0
 40
0.0
 40
0.2499999999999999
 40
0.2499999999999999
 40
0.3750000000000001
 40
0.3750000000000001
 40
0.5000000000000003
 40
0.5000000000000003
 40
0.7500000000000002
 40
0.7500000000000002
 40
0.8750000000000001
 40
0.8750000000000001
 40
1.0
 40
1.0
 40
1.0
 40
1.0
 10
-25.4
 20
0.396539567294262
 30
0.0
 10
-25.30408083861381
 20
0.3942097191431415
 30
0.0
 10
-25.19972932000955
 20
0.379106876473557
 30
0.0
 10
-25.05153627624621
 20
0.3398381070158933
 30
0.0
 10
-25.00412894766371
 20
0.324213304356384
 30
0.0
 10
-24.90449781695181
 20
0.2876510182635243
 30
0.0
 10
-24.85356780401083
 20
0.2668072654377198
 30
0.0
 10
-24.70279073127194
 20
0.1987248365148133
 30
0.0
 10
-24.6073979725207
 20
0.146468694905991
 30
0.0
 10
-24.45587102692863
 20
0.0622466510250348
 30
0.0
 10
-24.40530101528204
 20
0.0334431070928076
 30
0.0
 10
-24.30752815424903
 20
-0.0235916874334521
 30
0.0
 10
-24.25951236921534
 20
-0.0519829909387042
 30
0.0
 10
-24.20937499999893
 20
-0.080150125273164
 30
0.0
1001
PE_URL
1000

  0
LINE
  5
243
330
1F
100
AcDbEntity
  8
외형선
  6
Continuous
370
    15
100
AcDbLine
 10
-24.209375
 20
-0.0801501252733203
 30
0.0
 11
-24.209375
 21
-0.1843835112741274
 31
0.0
  0
LINE
  5
244
330
1F
100
AcDbEntity
  8
0
  6
Continuous
 62
     1
370
    25
100
AcDbLine
 10
-25.4
 20
0.396539567294262
 30
0.0
 11
-25.39999999999999
 21
0.3766109074764046
 31
0.0
1001
PE_URL
1000

  0
LINE
  5
245
330
1F
100
AcDbEntity
  8
0
  6
Continuous
 62
     1
370
    25
100
AcDbLine
 10
-24.41869706687188
 20
0.039505158414201
 30
0.0
 11
-24.209375
 21
-0.0448733687584735
 31
0.0
1001
PE_URL
1000

  0
SPLINE
  5
246
330
1F
100
AcDbEntity
  8
외형선
  6
Continuous
370
    15
100
AcDbSpline
210
0.0
220
0.0
230
1.0
 70
    24
 71
     3
 72
    10
 73
     6
 74
     0
 42
0.000000001
 43
0.00000001
 40
0.0
 40
0.0
 40
0.0
 40
0.0
 40
0.0305484481961686
 40
0.6600435413628685
 40
1.0
 40
1.0
 40
1.0
 40
1.0
 10
-24.20937499999969
 20
-0.0786642917565104
 30
0.0
 10
-24.20937499999967
 20
-0.078635480070993
 30
0.0
 10
-24.20937499999952
 20
-0.0780129618068841
 30
0.0
 10
-24.20937499999975
 20
-0.0663030973201018
 30
0.0
 10
-24.20937499999994
 20
-0.0504370850131721
 30
0.0
 10
-24.209375
 20
-0.0448733687588359
 30
0.0
  0
SPLINE
  5
247
330
1F
100
AcDbEntity
  8
0
  6
Continuous
 62
     1
370
    25
100
AcDbSpline
210
0.0
220
0.0
230
1.0
 70
     8
 71
     3
 72
     8
 73
     4
 74
     0
 42
0.000000001
 43
0.00000001
 40
0.0
 40
0.0
 40
0.0
 40
0.0
 40
1.0
 40
1.0
 40
1.0
 40
1.0
 10
-25.15487869489136
 20
-0.1105524090215013
 30
0.0
 10
-25.14062611634238
 20
-0.1274235236677015
 30
0.0
 10
-25.12789810768229
 20
-0.1436703987710786
 30
0.0
 10
-25.11707500202294
 20
-0.1591373058408649
 30
0.0
1001
PE_URL
1000

  0
LINE
  5
248
330
1F
100
AcDbEntity
  8
0
  6
Continuous
 62
     1
370
    25
100
AcDbLine
 10
-25.12204719523458
 20
-0.1633094713309191
 30
0.0
 11
-25.4
 21
-0.0000000000000071
 31
0.0
1001
PE_URL
1000

  0
LINE
  5
249
330
1F
100
AcDbEntity
  8
0
  6
Continuous
 62
     1
370
    25
100
AcDbLine
 10
-25.4
 20
-0.0000000000000071
 30
0.0
 11
-25.4
 21
0.1060620442055082
 31
0.0
1001
PE_URL
1000

  0
SPLINE
  5
24A
330
1F
100
AcDbEntity
  8
0
  6
Continuous
 62
     1
370
    25
100
AcDbSpline
210
0.0
220
0.0
230
1.0
 70
     8
 71
     3
 72
     8
 73
     4
 74
     0
 42
0.000000001
 43
0.00000001
 40
0.0
 40
0.0
 40
0.0
 40
0.0
 40
1.0
 40
1.0
 40
1.0
 40
1.0
 10
-25.4
 20
0.1060620442055082
 30
0.0
 10
-25.31515313053235
 20
0.0393536404118606
 30
0.0
 10
-25.23156195477936
 20
-0.0337168127794811
 30
0.0
 10
-25.15487869489105
 20
-0.1105524090207197
 30
0.0
1001
PE_URL
1000

  0
SPLINE
  5
24B
330
1F
100
AcDbEntity
  8
0
  6
Continuous
 62
     1
370
    25
100
AcDbSpline
210
0.0
220
0.0
230
1.0
 70
     8
 71
     3
 72
    14
 73
    10
 74
     0
 42
0.000000001
 43
0.00000001
 40
0.0
 40
0.0
 40
0.0
 40
0.0
 40
0.25
 40
0.25
 40
0.5
 40
0.5
 40
0.75
 40
0.75
 40
1.0
 40
1.0
 40
1.0
 40
1.0
 10
-25.15487869489138
 20
-0.1105524090214871
 30
0.0
 10
-25.0750828178802
 20
-0.1448597959598672
 30
0.0
 10
-24.99976643748644
 20
-0.1763578339741159
 30
0.0
 10
-24.84000685498874
 20
-0.2323920801054484
 30
0.0
 10
-24.75839300267259
 20
-0.2563934712961498
 30
0.0
 10
-24.60568935061884
 20
-0.2926360324207806
 30
0.0
 10
-24.52431122678001
 20
-0.3056798178010212
 30
0.0
 10
-24.36443732165878
 20
-0.3188958412338394
 30
0.0
 10
-24.28910456834714
 20
-0.3192405968330547
 30
0.0
 10
-24.209375
 20
-0.3133308422868524
 30
0.0
1001
PE_URL
1000

  0
SPLINE
  5
24C
330
1F
100
AcDbEntity
  8
0
  6
Continuous
 62
     1
370
    25
100
AcDbSpline
210
0.0
220
0.0
230
1.0
 70
    24
 71
     3
 72
     8
 73
     4
 74
     0
 42
0.000000001
 43
0.00000001
 40
0.0
 40
0.0
 40
0.0
 40
0.0
 40
1.0
 40
1.0
 40
1.0
 40
1.0
 10
-25.4
 20
0.3131233674211344
 30
0.0
 10
-25.4
 20
0.2651166726006267
 30
0.0
 10
-25.4
 20
0.1902507387164434
 30
0.0
 10
-25.4
 20
0.1060620442055225
 30
0.0
1001
PE_URL
1000

  0
SPLINE
  5
24D
330
1F
100
AcDbEntity
  8
외형선
  6
Continuous
370
    15
100
AcDbSpline
210
0.0
220
0.0
230
1.0
 70
    24
 71
     3
 72
    10
 73
     6
 74
     0
 42
0.000000001
 43
0.00000001
 40
0.0
 40
0.0
 40
0.0
 40
0.0
 40
0.1974370553730453
 40
0.6242148365073265
 40
1.0
 40
1.0
 40
1.0
 40
1.0
 10
-24.209375
 20
-0.3109130383219068
 30
0.0
 10
-24.209375
 20
-0.3101230256974503
 30
0.0
 10
-24.209375
 20
-0.3076253304179062
 30
0.0
 10
-24.209375
 20
-0.2648409702038919
 30
0.0
 10
-24.209375
 20
-0.203273656141171
 30
0.0
 10
-24.209375
 20
-0.174445907070826
 30
0.0
  0
SPLINE
  5
24E
330
1F
100
AcDbEntity
  8
0
  6
Continuous
 62
     1
370
    25
100
AcDbSpline
210
0.0
220
0.0
230
1.0
 70
    24
 71
     3
 72
     8
 73
     4
 74
     0
 42
0.000000001
 43
0.00000001
 40
0.0
 40
0.0
 40
0.0
 40
0.0
 40
1.0
 40
1.0
 40
1.0
 40
1.0
 10
-25.15826430936535
 20
-0.1936992384402956
 30
0.0
 10
-25.14522633921801
 20
-0.1827590824983574
 30
0.0
 10
-25.13145189846995
 20
-0.1712009543470359
 30
0.0
 10
-25.11707500202291
 20
-0.1591373058408578
 30
0.0
1001
PE_URL
1000

  0
LINE
  5
24F
330
1F
100
AcDbEntity
  8
0
  6
Continuous
 62
     1
370
    25
100
AcDbLine
 10
-25.4
 20
-0.2778125000000031
 30
0.0
 11
-25.18520463197256
 21
-0.2571703277716182
 31
0.0
1001
PE_URL
1000

  0
SPLINE
  5
250
330
1F
100
AcDbEntity
  8
0
  6
Continuous
 62
     1
370
    25
100
AcDbSpline
210
0.0
220
0.0
230
1.0
 70
     8
 71
     3
 72
    17
 73
    13
 74
     0
 42
0.000000001
 43
0.00000001
 40
0.0
 40
0.0
 40
0.0
 40
0.0
 40
0.0001031126202385
 40
0.0001031126202385
 40
0.0001031126202385
 40
0.0002062313519065
 40
0.0002062313519065
 40
0.0002062313519065
 40
0.0002926365297923
 40
0.0002926365297923
 40
0.0002926365297923
 40
0.0003267556738351
 40
0.0003267556738351
 40
0.0003267556738351
 40
0.0003267556738351
 10
-25.39999999999994
 20
-0.2778125000000031
 30
0.0
 10
-25.37422776876435
 20
-0.2707777224272476
 30
0.0
 10
-25.34853216522401
 20
-0.2632411734053051
 30
0.0
 10
-25.3229431012798
 20
-0.2551467517548645
 30
0.0
 10
-25.29735315484334
 20
-0.2470520509514103
 30
0.0
 10
-25.27186201679991
 20
-0.2383979100308053
 30
0.0
 10
-25.24651216472754
 20
-0.2291045903526552
 30
0.0
 10
-25.22527052432437
 20
-0.2213173514294766
 30
0.0
 10
-25.20412183673331
 20
-0.2130790880162294
 30
0.0
 10
-25.18310289484807
 20
-0.2043224395195935
 30
0.0
 10
-25.17480276322605
 20
-0.2008645425670892
 30
0.0
 10
-25.16652223657422
 20
-0.1973252428005878
 30
0.0
 10
-25.15826430936532
 20
-0.1936992384403169
 30
0.0
1001
PE_URL
1000

  0
SPLINE
  5
251
330
1F
100
AcDbEntity
  8
0
  6
Continuous
 62
     1
370
    25
100
AcDbSpline
210
0.0
220
0.0
230
1.0
 70
     8
 71
     3
 72
     9
 73
     5
 74
     0
 42
0.000000001
 43
0.00000001
 40
0.0
 40
0.0
 40
0.0
 40
0.0
 40
0.3902104171380952
 40
1.0
 40
1.0
 40
1.0
 40
1.0
 10
-24.54802399430745
 20
0.2969837507108224
 30
0.0
 10
-24.50388862898982
 20
0.3039641650803446
 30
0.0
 10
-24.39078205013083
 20
0.3218530118741256
 30
0.0
 10
-24.27809213583264
 20
0.3165590469497559
 30
0.0
 10
-24.209375
 20
0.3133308422868453
 30
0.0
1001
PE_URL
1000

  0
SPLINE
  5
252
330
1F
100
AcDbEntity
  8
외형선
  6
Continuous
370
    15
100
AcDbSpline
210
0.0
220
0.0
230
1.0
 70
    24
 71
     3
 72
    10
 73
     6
 74
     0
 42
0.000000001
 43
0.00000001
 40
0.0
 40
0.0
 40
0.0
 40
0.0
 40
0.5
 40
0.5
 40
1.0
 40
1.0
 40
1.0
 40
1.0
 10
-24.209375
 20
-0.0448733687584735
 30
0.0
 10
-24.209375
 20
0.0253444648349728
 30
0.0
 10
-24.209375
 20
0.0992758404942364
 30
0.0
 10
-24.209375
 20
0.2266022719498224
 30
0.0
 10
-24.209375
 20
0.2790107915729791
 30
0.0
 10
-24.209375
 20
0.3133308422868453
 30
0.0
  0
LINE
  5
253
330
1F
100
AcDbEntity
  8
0
  6
Continuous
 62
     1
370
    25
100
AcDbLine
 10
-25.4
 20
-0.0000000000000071
 30
0.0
 11
-25.4
 21
-0.2778125000000031
 31
0.0
1001
PE_URL
1000

  0
SPLINE
  5
254
330
1F
100
AcDbEntity
  8
0
  6
Continuous
 62
     1
370
    25
100
AcDbSpline
210
0.0
220
0.0
230
1.0
 70
     8
 71
     3
 72
    10
 73
     6
 74
     0
 42
0.000000001
 43
0.00000001
 40
0.0
 40
0.0
 40
0.0
 40
0.0
 40
0.0332729491468283
 40
0.5147033773662134
 40
1.0
 40
1.0
 40
1.0
 40
1.0
 10
-24.85789744338953
 20
-0.2664995050438534
 30
0.0
 10
-24.86391503807749
 20
-0.2695048892909
 30
0.0
 10
-24.95700195669865
 20
-0.315995550981647
 30
0.0
 10
-25.1372410113548
 20
-0.3711228156140649
 30
0.0
 10
-25.31218046090808
 20
-0.3880447583087516
 30
0.0
 10
-25.4
 20
-0.3965395672942691
 30
0.0
1001
PE_URL
1000

  0
SPLINE
  5
255
330
1F
100
AcDbEntity
  8
0
  6
Continuous
 62
     1
370
    25
100
AcDbSpline
210
0.0
220
0.0
230
1.0
 70
    24
 71
     3
 72
     8
 73
     4
 74
     0
 42
0.000000001
 43
0.00000001
 40
0.0
 40
0.0
 40
0.0
 40
0.0
 40
1.0
 40
1.0
 40
1.0
 40
1.0
 10
-25.4
 20
-0.2778125000000031
 30
0.0
 10
-25.4
 20
-0.3114931038408102
 30
0.0
 10
-25.4
 20
-0.3567874723731563
 30
0.0
 10
-25.4
 20
-0.3965395672942691
 30
0.0
1001
PE_URL
1000

  0
LINE
  5
256
330
1F
100
AcDbEntity
  8
외형선
  6
Continuous
370
    15
100
AcDbLine
 10
-16.30358667873053
 20
-2.381249999999994
 30
0.0
 11
-16.30358667873053
 21
2.381250000000001
 31
0.0
  0
SPLINE
  5
257
330
1F
100
AcDbEntity
  8
외형선
  6
Continuous
370
    15
100
AcDbSpline
210
0.0
220
0.0
230
1.0
 70
     8
 71
     3
 72
     8
 73
     4
 74
     0
 42
0.000000001
 43
0.00000001
 40
0.0000000000000001
 40
0.0000000000000001
 40
0.0000000000000001
 40
0.0000000000000001
 40
0.0001693130155445
 40
0.0001693130155445
 40
0.0001693130155445
 40
0.0001693130155445
 10
-23.709375
 20
-0.3711208554140484
 30
0.0
 10
-23.65953112443534
 20
-0.3917093690071809
 30
0.0
 10
-23.61026646850506
 20
-0.4111890174023927
 30
0.0
 10
-23.56125923357462
 20
-0.4287429753308771
 30
0.0
  0
LINE
  5
258
330
1F
100
AcDbEntity
  8
외형선
  6
Continuous
370
    15
100
AcDbLine
 10
-23.709375
 20
-0.3711208554140555
 30
0.0
 11
-23.709375
 21
-0.3178448314488875
 31
0.0
  0
SPLINE
  5
259
330
1F
100
AcDbEntity
  8
외형선
  6
Continuous
370
    15
100
AcDbSpline
210
0.0
220
0.0
230
1.0
 70
     8
 71
     3
 72
     8
 73
     4
 74
     0
 42
0.000000001
 43
0.00000001
 40
0.0
 40
0.0
 40
0.0
 40
0.0
 40
0.0001699497934556
 40
0.0001699497934556
 40
0.0001699497934556
 40
0.0001699497934556
 10
-23.56125923357462
 20
-0.3900560908282671
 30
0.0
 10
-23.61078423823252
 20
-0.3673796711768347
 30
0.0
 10
-23.65997735388288
 20
-0.343038868543843
 30
0.0
 10
-23.70937499998836
 20
-0.3178448314548206
 30
0.0
  0
SPLINE
  5
25A
330
1F
100
AcDbEntity
  8
외형선
  6
Continuous
370
    15
100
AcDbSpline
210
0.0
220
0.0
230
1.0
 70
    24
 71
     3
 72
    23
 73
    19
 74
     0
 42
0.000000001
 43
0.00000001
 40
0.0
 40
0.0
 40
0.0
 40
0.0
 40
0.0552495143638429
 40
0.1173883067055486
 40
0.1813291282347546
 40
0.2434679205761832
 40
0.3074087421049952
 40
0.3695475344465109
 40
0.4334883559755096
 40
0.4956271483170734
 40
0.5595679698461249
 40
0.6217067621874915
 40
0.6856475837166901
 40
0.7477863760582297
 40
0.8117271975872548
 40
0.873865989928791
 40
0.9378068114578124
 40
0.9999999999999999
 40
0.9999999999999999
 40
0.9999999999999999
 40
0.9999999999999999
 10
-23.56125923357462
 20
0.4358131336533475
 30
0.0
 10
-23.56125923357462
 20
0.4351989137423047
 30
0.0
 10
-23.56125923357462
 20
0.4338938844378362
 30
0.0
 10
-23.56125923357462
 20
0.4167557922789413
 30
0.0
 10
-23.56125923357462
 20
0.3883943232225704
 30
0.0
 10
-23.56125923357462
 20
0.3483673331674879
 30
0.0
 10
-23.56125923357462
 20
0.2989442364010415
 30
0.0
 10
-23.56125923357462
 20
0.2405227400245735
 30
0.0
 10
-23.56125923357462
 20
0.1758377801809559
 30
0.0
 10
-23.56125923357462
 20
0.1055481274141741
 30
0.0
 10
-23.56125923357462
 20
0.0329101857336482
 30
0.0
 10
-23.56125923357462
 20
-0.0413265787746582
 30
0.0
 10
-23.56125923357462
 20
-0.113729773352901
 30
0.0
 10
-23.56125923357462
 20
-0.1835339227169044
 30
0.0
 10
-23.56125923357462
 20
-0.2475786775777991
 30
0.0
 10
-23.56125923357462
 20
-0.3049353906048538
 30
0.0
 10
-23.56125923357462
 20
-0.3539628155347501
 30
0.0
 10
-23.56125923357462
 20
-0.3781366448217298
 30
0.0
 10
-23.56125923357462
 20
-0.3900560908282671
 30
0.0
  0
SPLINE
  5
25B
330
1F
100
AcDbEntity
  8
외형선
  6
Continuous
370
    15
100
AcDbSpline
210
0.0
220
0.0
230
1.0
 70
     8
 71
     3
 72
     8
 73
     4
 74
     0
 42
0.000000001
 43
0.00000001
 40
0.0000000000000001
 40
0.0000000000000001
 40
0.0000000000000001
 40
0.0000000000000001
 40
0.0001693130155445
 40
0.0001693130155445
 40
0.0001693130155445
 40
0.0001693130155445
 10
-23.709375
 20
0.3711208554140413
 30
0.0
 10
-23.65953112443534
 20
0.3917093690071738
 30
0.0
 10
-23.61026646850506
 20
0.4111890174023856
 30
0.0
 10
-23.56125923357462
 20
0.42874297533087
 30
0.0
  0
SPLINE
  5
25C
330
1F
100
AcDbEntity
  8
외형선
  6
Continuous
370
    15
100
AcDbSpline
210
0.0
220
0.0
230
1.0
 70
    24
 71
     3
 72
     9
 73
     5
 74
     0
 42
0.000000001
 43
0.00000001
 40
0.0
 40
0.0
 40
0.0
 40
0.0
 40
0.8772935909208273
 40
1.0
 40
1.0
 40
1.0
 40
1.0
 10
-23.56125923357462
 20
-0.4287429753308771
 30
0.0
 10
-23.56125923357462
 20
-0.4330957067408292
 30
0.0
 10
-23.56125923357462
 20
-0.4380572514904983
 30
0.0
 10
-23.56125923357462
 20
-0.4360584049363183
 30
0.0
 10
-23.56125923357462
 20
-0.4358131336533546
 30
0.0
  0
SPLINE
  5
25D
330
1F
100
AcDbEntity
  8
외형선
  6
Continuous
370
    15
100
AcDbSpline
210
0.0
220
0.0
230
1.0
 70
    24
 71
     3
 72
     8
 73
     4
 74
     0
 42
0.000000001
 43
0.00000001
 40
0.0
 40
0.0
 40
0.0
 40
0.0
 40
1.0
 40
1.0
 40
1.0
 40
1.0
 10
-24.2093750000036
 20
-0.0801501252705918
 30
0.0
 10
-24.2093750000036
 20
-0.0837671385267313
 30
0.0
 10
-24.2093750000036
 20
-0.0695037552556386
 30
0.0
 10
-24.2093750000036
 20
-0.0448733687570524
 30
0.0
  0
SPLINE
  5
25E
330
1F
100
AcDbEntity
  8
외형선
  6
Continuous
370
    15
100
AcDbSpline
210
0.0
220
0.0
230
1.0
 70
     8
 71
     3
 72
    10
 73
     6
 74
     0
 42
0.000000001
 43
0.00000001
 40
0.0
 40
0.0
 40
0.0
 40
0.0
 40
0.3476219739017838
 40
0.6924110661264559
 40
1.0
 40
1.0
 40
1.0
 40
1.0
 10
-24.209375
 20
-0.0448733687584735
 30
0.0
 10
-24.1342351297188
 20
-0.0738829233423886
 30
0.0
 10
-23.98456772778204
 20
-0.1316656244525873
 30
0.0
 10
-23.76879664950071
 20
-0.2062884934880671
 30
0.0
 10
-23.62775757691912
 20
-0.2293702036732199
 30
0.0
 10
-23.56125923357462
 20
-0.2402529715528985
 30
0.0
  0
SPLINE
  5
25F
330
1F
100
AcDbEntity
  8
외형선
  6
Continuous
370
    15
100
AcDbSpline
210
0.0
220
0.0
230
1.0
 70
     8
 71
     3
 72
    10
 73
     6
 74
     0
 42
0.000000001
 43
0.00000001
 40
0.0
 40
0.0
 40
0.0
 40
0.0
 40
0.5
 40
0.5
 40
1.0
 40
1.0
 40
1.0
 40
1.0
 10
-24.209375
 20
-0.08015012527256
 30
0.0
 10
-24.12556857975304
 20
-0.1272325058218584
 30
0.0
 10
-24.03962276624251
 20
-0.1728479942382322
 30
0.0
 10
-23.87920649221614
 20
-0.2528278870634466
 30
0.0
 10
-23.79314754044232
 20
-0.2890607327757948
 30
0.0
 10
-23.709375
 20
-0.3178448314488875
 30
0.0
  0
SPLINE
  5
260
330
1F
100
AcDbEntity
  8
외형선
  6
Continuous
370
    15
100
AcDbSpline
210
0.0
220
0.0
230
1.0
 70
     8
 71
     3
 72
    10
 73
     6
 74
     0
 42
0.000000001
 43
0.00000001
 40
0.0
 40
0.0
 40
0.0
 40
0.0
 40
0.5000000000000001
 40
0.5000000000000001
 40
1.0
 40
1.0
 40
1.0
 40
1.0
 10
-24.209375
 20
-0.1843835112740493
 30
0.0
 10
-24.12556857975304
 20
-0.2269533624442133
 30
0.0
 10
-24.03962276624251
 20
-0.2656569058711966
 30
0.0
 10
-23.87920649221614
 20
-0.328491181285564
 30
0.0
 10
-23.79314754044232
 20
-0.3540878506745813
 30
0.0
 10
-23.709375
 20
-0.3711208554140555
 30
0.0
  0
LINE
  5
261
330
1F
100
AcDbEntity
  8
외형선
  6
Continuous
370
    15
100
AcDbLine
 10
-23.6335520749228
 20
0.3292804168884018
 30
0.0
 11
-23.56125923357462
 21
0.3308852821476194
 31
0.0
  0
SPLINE
  5
262
330
1F
100
AcDbEntity
  8
외형선
  6
Continuous
370
    15
100
AcDbSpline
210
0.0
220
0.0
230
1.0
 70
     8
 71
     3
 72
    10
 73
     6
 74
     0
 42
0.000000001
 43
0.00000001
 40
0.0
 40
0.0
 40
0.0
 40
0.0
 40
0.3476020488052596
 40
0.6924445385163711
 40
1.0
 40
1.0
 40
1.0
 40
1.0
 10
-24.209375
 20
0.3133308422868453
 30
0.0
 10
-24.13422929735865
 20
0.3043665574950509
 30
0.0
 10
-23.98453446222802
 20
0.28650915398687
 30
0.0
 10
-23.76883103218399
 20
0.2259711411256546
 30
0.0
 10
-23.62776229452439
 20
0.1662930796955777
 30
0.0
 10
-23.56125923357462
 20
0.138159463257999
 30
0.0
  0
SPLINE
  5
263
330
1F
100
AcDbEntity
  8
외형선
  6
Continuous
370
    15
100
AcDbSpline
210
0.0
220
0.0
230
1.0
 70
    24
 71
     3
 72
    10
 73
     6
 74
     0
 42
0.000000001
 43
0.00000001
 40
0.0
 40
0.0
 40
0.0
 40
0.0
 40
0.5000000000000001
 40
0.5000000000000001
 40
1.0
 40
1.0
 40
1.0
 40
1.0
 10
-24.209375
 20
-0.0448733687584735
 30
0.0
 10
-24.209375
 20
0.0253444648349728
 30
0.0
 10
-24.209375
 20
0.0992758404942364
 30
0.0
 10
-24.209375
 20
0.2266022719498295
 30
0.0
 10
-24.209375
 20
0.2790107915729791
 30
0.0
 10
-24.209375
 20
0.3133308422868453
 30
0.0
  0
SPLINE
  5
264
330
1F
100
AcDbEntity
  8
외형선
  6
Continuous
370
    15
100
AcDbSpline
210
0.0
220
0.0
230
1.0
 70
    24
 71
     3
 72
    10
 73
     6
 74
     0
 42
0.000000001
 43
0.00000001
 40
0.0
 40
0.0
 40
0.0
 40
0.0
 40
0.4999999999999999
 40
0.4999999999999999
 40
1.0
 40
1.0
 40
1.0
 40
1.0
 10
-24.209375
 20
-0.3133308422868524
 30
0.0
 10
-24.209375
 20
-0.3161701968232649
 30
0.0
 10
-24.209375
 20
-0.3056602785317395
 30
0.0
 10
-24.209375
 20
-0.2571131115726644
 30
0.0
 10
-24.209375
 20
-0.2192848288901317
 30
0.0
 10
-24.209375
 20
-0.174445907070826
 30
0.0
  0
LINE
  5
265
330
1F
100
AcDbEntity
  8
외형선
  6
Continuous
370
    15
100
AcDbLine
 10
-23.91688080766648
 20
0.3119623553453508
 30
0.0
 11
-23.709375
 21
0.3711208554140484
 31
0.0
  0
ENDSEC
  0
SECTION
  2
OBJECTS
  0
DICTIONARY
  5
C
330
0
100
AcDbDictionary
281
     1
  3
ACAD_DETAILVIEWSTYLE
350
15F
  3
ACAD_GROUP
350
D
  3
ACAD_IMAGE_VARS
350
289
  3
ACAD_LAYOUT
350
1A
  3
ACAD_MLINESTYLE
350
17
  3
ACAD_PLOTSETTINGS
350
19
  3
ACAD_PLOTSTYLENAME
350
E
  3
ACAD_SCALELIST
350
47
  3
ACAD_SECTIONVIEWSTYLE
350
160
  3
AcDbVariableDictionary
350
15A
  3
APPDATA
350
159
  3
DWGPROPS
350
28A
  0
DICTIONARY
  5
15F
102
{ACAD_REACTORS
330
C
102
}
330
C
100
AcDbDictionary
281
     1
  0
DICTIONARY
  5
D
102
{ACAD_REACTORS
330
C
102
}
330
C
100
AcDbDictionary
281
     1
  0
RASTERVARIABLES
  5
289
102
{ACAD_REACTORS
330
C
102
}
330
C
100
AcDbRasterVariables
 90
        0
 70
     1
 71
     1
 72
     1
  0
DICTIONARY
  5
1A
102
{ACAD_REACTORS
330
C
102
}
330
C
100
AcDbDictionary
281
     1
  3
Layout1
350
1E
  3
Layout2
350
26
  3
Model
350
22
  0
DICTIONARY
  5
17
102
{ACAD_REACTORS
330
C
102
}
330
C
100
AcDbDictionary
281
     1
  3
Standard
350
18
  0
DICTIONARY
  5
19
102
{ACAD_REACTORS
330
C
102
}
330
C
100
AcDbDictionary
281
     1
  0
ACDBDICTIONARYWDFLT
  5
E
102
{ACAD_REACTORS
330
C
102
}
330
C
100
AcDbDictionary
281
     1
  3
Normal
350
F
100
AcDbDictionaryWithDefault
340
F
  0
DICTIONARY
  5
47
102
{ACAD_REACTORS
330
C
102
}
330
C
100
AcDbDictionary
281
     1
  3
A0
350
48
  3
A1
350
49
  3
A2
350
4A
  3
A3
350
4B
  3
A4
350
4C
  3
A5
350
4D
  3
A6
350
4E
  3
A7
350
4F
  3
A8
350
50
  3
A9
350
51
  3
B0
350
52
  3
B1
350
53
  3
B2
350
54
  3
B3
350
55
  3
B4
350
56
  3
B5
350
57
  3
B6
350
58
  3
B7
350
59
  3
B8
350
5A
  3
B9
350
5B
  3
C0
350
5C
  3
C1
350
5D
  3
C2
350
5E
  3
C3
350
5F
  3
C4
350
60
  3
C5
350
61
  3
C6
350
62
  3
C7
350
63
  3
C8
350
64
  3
C9
350
65
  3
D0
350
66
  3
D1
350
67
  3
D2
350
68
  0
DICTIONARY
  5
160
102
{ACAD_REACTORS
330
C
102
}
330
C
100
AcDbDictionary
281
     1
  0
DICTIONARY
  5
15A
102
{ACAD_REACTORS
330
C
102
}
330
C
100
AcDbDictionary
281
     1
  0
DICTIONARY
  5
159
102
{ACAD_REACTORS
330
C
102
}
330
C
100
AcDbDictionary
281
     1
  0
XRECORD
  5
28A
102
{ACAD_REACTORS
330
C
102
}
330
C
100
AcDbXrecord
280
     1
  1
DWGPROPS COOKIE
  2

  3

  4

  6

  7

  8
12016016
  9

300
=
301
=
302
=
303
=
304
=
305
=
306
=
307
=
308
=
309
=
 40
0.0
 41
2458313.012207095
 42
2458318.269656609
  1

 90
        0
  0
LAYOUT
  5
1E
102
{ACAD_REACTORS
330
1A
102
}
330
1A
100
AcDbPlotSettings
  1

  2
none_device
  4

  6

 40
0.0
 41
0.0
 42
0.0
 43
0.0
 44
0.0
 45
0.0
 46
0.0
 47
0.0
 48
0.0
 49
0.0
140
0.0
141
0.0
142
1.0
143
1.0
 70
   688
 72
     1
 73
     0
 74
     5
  7

 75
    16
147
1.0
148
0.0
149
0.0
100
AcDbLayout
  1
Layout1
 70
     1
 71
     1
 10
0.0
 20
0.0
 11
420.0
 21
297.0
 12
0.0
 22
0.0
 32
0.0
 14
1.000000000000000E+20
 24
1.000000000000000E+20
 34
1.000000000000000E+20
 15
-1.000000000000000E+20
 25
-1.000000000000000E+20
 35
-1.000000000000000E+20
146
0.0
 13
0.0
 23
0.0
 33
0.0
 16
1.0
 26
0.0
 36
0.0
 17
0.0
 27
1.0
 37
0.0
 76
     0
330
1B
  0
LAYOUT
  5
26
102
{ACAD_REACTORS
330
1A
102
}
330
1A
100
AcDbPlotSettings
  1

  2
none_device
  4

  6

 40
0.0
 41
0.0
 42
0.0
 43
0.0
 44
0.0
 45
0.0
 46
0.0
 47
0.0
 48
0.0
 49
0.0
140
0.0
141
0.0
142
1.0
143
1.0
 70
   688
 72
     1
 73
     0
 74
     5
  7

 75
    16
147
1.0
148
0.0
149
0.0
100
AcDbLayout
  1
Layout2
 70
     1
 71
     2
 10
0.0
 20
0.0
 11
0.0
 21
0.0
 12
0.0
 22
0.0
 32
0.0
 14
0.0
 24
0.0
 34
0.0
 15
0.0
 25
0.0
 35
0.0
146
0.0
 13
0.0
 23
0.0
 33
0.0
 16
1.0
 26
0.0
 36
0.0
 17
0.0
 27
1.0
 37
0.0
 76
     0
330
23
  0
LAYOUT
  5
22
102
{ACAD_REACTORS
330
1A
102
}
330
1A
100
AcDbPlotSettings
  1

  2
none_device
  4
ANSI_A_(11.00_x_8.50_Inches)
  6

 40
6.35
 41
19.05
 42
6.35000508
 43
19.05000254
 44
279.4
 45
215.9
 46
116.4182908079033
 47
92.28280629761466
 48
0.0
 49
0.0
140
0.0
141
0.0
142
0.0752545377200071
143
1.0
 70
  1696
 72
     0
 73
     0
 74
     0
  7

 75
     0
147
0.0235690232323232
148
0.0
149
0.0
100
AcDbLayout
  1
Model
 70
     1
 71
     0
 10
0.0
 20
0.0
 11
420.0
 21
297.0
 12
0.0
 22
0.0
 32
0.0
 14
-36.7750000000001
 24
-49.97180738881174
 34
0.0
 15
95.51600003295505
 25
27.88124999999997
 35
0.0
146
0.0
 13
0.0
 23
0.0
 33
0.0
 16
1.0
 26
0.0
 36
0.0
 17
0.0
 27
1.0
 37
0.0
 76
     0
330
1F
331
29
  0
MLINESTYLE
  5
18
102
{ACAD_REACTORS
330
17
102
}
330
17
100
AcDbMlineStyle
  2
Standard
 70
     0
  3

 62
   256
 51
90.0
 52
90.0
 71
     2
 49
0.5
 62
   256
  6
BYLAYER
 49
-0.5
 62
   256
  6
BYLAYER
  0
ACDBPLACEHOLDER
  5
F
102
{ACAD_REACTORS
330
E
102
}
330
E
  0
SCALE
  5
48
102
{ACAD_REACTORS
330
47
102
}
330
47
100
AcDbScale
 70
     0
300
1:1
140
1.0
141
1.0
290
     1
  0
SCALE
  5
49
102
{ACAD_REACTORS
330
47
102
}
330
47
100
AcDbScale
 70
     0
300
1:2
140
1.0
141
2.0
290
     0
  0
SCALE
  5
4A
102
{ACAD_REACTORS
330
47
102
}
330
47
100
AcDbScale
 70
     0
300
1:4
140
1.0
141
4.0
290
     0
  0
SCALE
  5
4B
102
{ACAD_REACTORS
330
47
102
}
330
47
100
AcDbScale
 70
     0
300
1:5
140
1.0
141
5.0
290
     0
  0
SCALE
  5
4C
102
{ACAD_REACTORS
330
47
102
}
330
47
100
AcDbScale
 70
     0
300
1:8
140
1.0
141
8.0
290
     0
  0
SCALE
  5
4D
102
{ACAD_REACTORS
330
47
102
}
330
47
100
AcDbScale
 70
     0
300
1:10
140
1.0
141
10.0
290
     0
  0
SCALE
  5
4E
102
{ACAD_REACTORS
330
47
102
}
330
47
100
AcDbScale
 70
     0
300
1:16
140
1.0
141
16.0
290
     0
  0
SCALE
  5
4F
102
{ACAD_REACTORS
330
47
102
}
330
47
100
AcDbScale
 70
     0
300
1:20
140
1.0
141
20.0
290
     0
  0
SCALE
  5
50
102
{ACAD_REACTORS
330
47
102
}
330
47
100
AcDbScale
 70
     0
300
1:30
140
1.0
141
30.0
290
     0
  0
SCALE
  5
51
102
{ACAD_REACTORS
330
47
102
}
330
47
100
AcDbScale
 70
     0
300
1:40
140
1.0
141
40.0
290
     0
  0
SCALE
  5
52
102
{ACAD_REACTORS
330
47
102
}
330
47
100
AcDbScale
 70
     0
300
1:50
140
1.0
141
50.0
290
     0
  0
SCALE
  5
53
102
{ACAD_REACTORS
330
47
102
}
330
47
100
AcDbScale
 70
     0
300
1:100
140
1.0
141
100.0
290
     0
  0
SCALE
  5
54
102
{ACAD_REACTORS
330
47
102
}
330
47
100
AcDbScale
 70
     0
300
2:1
140
2.0
141
1.0
290
     0
  0
SCALE
  5
55
102
{ACAD_REACTORS
330
47
102
}
330
47
100
AcDbScale
 70
     0
300
4:1
140
4.0
141
1.0
290
     0
  0
SCALE
  5
56
102
{ACAD_REACTORS
330
47
102
}
330
47
100
AcDbScale
 70
     0
300
8:1
140
8.0
141
1.0
290
     0
  0
SCALE
  5
57
102
{ACAD_REACTORS
330
47
102
}
330
47
100
AcDbScale
 70
     0
300
10:1
140
10.0
141
1.0
290
     0
  0
SCALE
  5
58
102
{ACAD_REACTORS
330
47
102
}
330
47
100
AcDbScale
 70
     0
300
100:1
140
100.0
141
1.0
290
     0
  0
SCALE
  5
59
102
{ACAD_REACTORS
330
47
102
}
330
47
100
AcDbScale
 70
     0
300
1/128" = 1'-0"
140
0.0078125
141
12.0
290
     0
  0
SCALE
  5
5A
102
{ACAD_REACTORS
330
47
102
}
330
47
100
AcDbScale
 70
     0
300
1/64" = 1'-0"
140
0.015625
141
12.0
290
     0
  0
SCALE
  5
5B
102
{ACAD_REACTORS
330
47
102
}
330
47
100
AcDbScale
 70
     0
300
1/32" = 1'-0"
140
0.03125
141
12.0
290
     0
  0
SCALE
  5
5C
102
{ACAD_REACTORS
330
47
102
}
330
47
100
AcDbScale
 70
     0
300
1/16" = 1'-0"
140
0.0625
141
12.0
290
     0
  0
SCALE
  5
5D
102
{ACAD_REACTORS
330
47
102
}
330
47
100
AcDbScale
 70
     0
300
3/32" = 1'-0"
140
0.09375
141
12.0
290
     0
  0
SCALE
  5
5E
102
{ACAD_REACTORS
330
47
102
}
330
47
100
AcDbScale
 70
     0
300
1/8" = 1'-0"
140
0.125
141
12.0
290
     0
  0
SCALE
  5
5F
102
{ACAD_REACTORS
330
47
102
}
330
47
100
AcDbScale
 70
     0
300
3/16" = 1'-0"
140
0.1875
141
12.0
290
     0
  0
SCALE
  5
60
102
{ACAD_REACTORS
330
47
102
}
330
47
100
AcDbScale
 70
     0
300
1/4" = 1'-0"
140
0.25
141
12.0
290
     0
  0
SCALE
  5
61
102
{ACAD_REACTORS
330
47
102
}
330
47
100
AcDbScale
 70
     0
300
3/8" = 1'-0"
140
0.375
141
12.0
290
     0
  0
SCALE
  5
62
102
{ACAD_REACTORS
330
47
102
}
330
47
100
AcDbScale
 70
     0
300
1/2" = 1'-0"
140
0.5
141
12.0
290
     0
  0
SCALE
  5
63
102
{ACAD_REACTORS
330
47
102
}
330
47
100
AcDbScale
 70
     0
300
3/4" = 1'-0"
140
0.75
141
12.0
290
     0
  0
SCALE
  5
64
102
{ACAD_REACTORS
330
47
102
}
330
47
100
AcDbScale
 70
     0
300
1" = 1'-0"
140
1.0
141
12.0
290
     0
  0
SCALE
  5
65
102
{ACAD_REACTORS
330
47
102
}
330
47
100
AcDbScale
 70
     0
300
1-1/2" = 1'-0"
140
1.5
141
12.0
290
     0
  0
SCALE
  5
66
102
{ACAD_REACTORS
330
47
102
}
330
47
100
AcDbScale
 70
     0
300
3" = 1'-0"
140
3.0
141
12.0
290
     0
  0
SCALE
  5
67
102
{ACAD_REACTORS
330
47
102
}
330
47
100
AcDbScale
 70
     0
300
6" = 1'-0"
140
6.0
141
12.0
290
     0
  0
SCALE
  5
68
102
{ACAD_REACTORS
330
47
102
}
330
47
100
AcDbScale
 70
     0
300
1'-0" = 1'-0"
140
12.0
141
12.0
290
     0
  0
ENDSEC
  0
EOF
