  0
SECTION
  2
HEADER
  9
$ACADVER
  1
AC1015
  9
$ACADMAINTVER
 70
     6
  9
$DWGCODEPAGE
  3
ANSI_949
  9
$INSBASE
 10
0.0
 20
0.0
 30
0.0
  9
$EXTMIN
 10
-36.77500000000009
 20
-49.97180738881175
 30
0.0
  9
$EXTMAX
 10
94.81912503295504
 20
27.88124999999997
 30
0.0
  9
$LIMMIN
 10
0.0
 20
0.0
  9
$LIMMAX
 10
420.0
 20
297.0
  9
$ORTHOMODE
 70
     1
  9
$REGENMODE
 70
     1
  9
$FILLMODE
 70
     1
  9
$QTEXTMODE
 70
     0
  9
$MIRRTEXT
 70
     1
  9
$LTSCALE
 40
1.0
  9
$ATTMODE
 70
     1
  9
$TEXTSIZE
 40
3.5
  9
$TRACEWID
 40
1.0
  9
$TEXTSTYLE
  7
Standard
  9
$CLAYER
  8
0
  9
$CELTYPE
  6
ByLayer
  9
$CECOLOR
 62
   256
  9
$CELTSCALE
 40
1.0
  9
$DISPSILH
 70
     0
  9
$DIMSCALE
 40
1.0
  9
$DIMASZ
 40
3.302
  9
$DIMEXO
 40
1.0
  9
$DIMDLI
 40
3.75
  9
$DIMRND
 40
0.0
  9
$DIMDLE
 40
0.0
  9
$DIMEXE
 40
1.0
  9
$DIMTP
 40
0.0
  9
$DIMTM
 40
0.0
  9
$DIMTXT
 40
3.5
  9
$DIMCEN
 40
2.5
  9
$DIMTSZ
 40
0.0
  9
$DIMTOL
 70
     0
  9
$DIMLIM
 70
     0
  9
$DIMTIH
 70
     1
  9
$DIMTOH
 70
     1
  9
$DIMSE1
 70
     0
  9
$DIMSE2
 70
     0
  9
$DIMTAD
 70
     1
  9
$DIMZIN
 70
     0
  9
$DIMBLK
  1

  9
$DIMASO
 70
     1
  9
$DIMSHO
 70
     1
  9
$DIMPOST
  1

  9
$DIMAPOST
  1

  9
$DIMALT
 70
     0
  9
$DIMALTD
 70
     3
  9
$DIMALTF
 40
0.0393700787401575
  9
$DIMLFAC
 40
1.0
  9
$DIMTOFL
 70
     1
  9
$DIMTVP
 40
0.0
  9
$DIMTIX
 70
     0
  9
$DIMSOXD
 70
     0
  9
$DIMSAH
 70
     0
  9
$DIMBLK1
  1

  9
$DIMBLK2
  1

  9
$DIMSTYLE
  2
ISO-25
  9
$DIMCLRD
 70
     0
  9
$DIMCLRE
 70
     0
  9
$DIMCLRT
 70
     0
  9
$DIMTFAC
 40
1.0
  9
$DIMGAP
 40
1.524
  9
$DIMJUST
 70
     0
  9
$DIMSD1
 70
     0
  9
$DIMSD2
 70
     0
  9
$DIMTOLJ
 70
     0
  9
$DIMTZIN
 70
     0
  9
$DIMALTZ
 70
     0
  9
$DIMALTTZ
 70
     0
  9
$DIMUPT
 70
     0
  9
$DIMDEC
 70
     2
  9
$DIMTDEC
 70
     2
  9
$DIMALTU
 70
     2
  9
$DIMALTTD
 70
     3
  9
$DIMTXSTY
  7
Standard
  9
$DIMAUNIT
 70
     0
  9
$DIMADEC
 70
     2
  9
$DIMALTRND
 40
0.0
  9
$DIMAZIN
 70
     0
  9
$DIMDSEP
 70
    44
  9
$DIMATFIT
 70
     3
  9
$DIMFRAC
 70
     0
  9
$DIMLDRBLK
  1

  9
$DIMLUNIT
 70
     2
  9
$DIMLWD
 70
    -2
  9
$DIMLWE
 70
    -2
  9
$DIMTMOVE
 70
     0
  9
$LUNITS
 70
     2
  9
$LUPREC
 70
     2
  9
$SKETCHINC
 40
1.0
  9
$FILLETRAD
 40
10.0
  9
$AUNITS
 70
     0
  9
$AUPREC
 70
     2
  9
$MENU
  1
.
  9
$ELEVATION
 40
0.0
  9
$PELEVATION
 40
0.0
  9
$THICKNESS
 40
0.0
  9
$LIMCHECK
 70
     0
  9
$CHAMFERA
 40
0.0
  9
$CHAMFERB
 40
0.0
  9
$CHAMFERC
 40
0.0
  9
$CHAMFERD
 40
0.0
  9
$SKPOLY
 70
     0
  9
$TDCREATE
 40
2458313.387416528
  9
$TDUCREATE
 40
2458313.012416528
  9
$TDUPDATE
 40
2458318.644605255
  9
$TDUUPDATE
 40
2458318.269605255
  9
$TDINDWG
 40
0.0031814583
  9
$TDUSRTIMER
 40
2458318.26955331
  9
$USRTIMER
 70
     1
  9
$ANGBASE
 50
0.0
  9
$ANGDIR
 70
     0
  9
$PDMODE
 70
     0
  9
$PDSIZE
 40
-1.0
  9
$PLINEWID
 40
0.0
  9
$SPLFRAME
 70
     0
  9
$SPLINETYPE
 70
     6
  9
$SPLINESEGS
 70
     8
  9
$HANDSEED
  5
277
  9
$SURFTAB1
 70
     6
  9
$SURFTAB2
 70
     6
  9
$SURFTYPE
 70
     6
  9
$SURFU
 70
     6
  9
$SURFV
 70
     6
  9
$UCSBASE
  2

  9
$UCSNAME
  2

  9
$UCSORG
 10
0.0
 20
0.0
 30
0.0
  9
$UCSXDIR
 10
1.0
 20
0.0
 30
0.0
  9
$UCSYDIR
 10
0.0
 20
1.0
 30
0.0
  9
$UCSORTHOREF
  2

  9
$UCSORTHOVIEW
 70
     0
  9
$UCSORGTOP
 10
0.0
 20
0.0
 30
0.0
  9
$UCSORGBOTTOM
 10
0.0
 20
0.0
 30
0.0
  9
$UCSORGLEFT
 10
0.0
 20
0.0
 30
0.0
  9
$UCSORGRIGHT
 10
0.0
 20
0.0
 30
0.0
  9
$UCSORGFRONT
 10
0.0
 20
0.0
 30
0.0
  9
$UCSORGBACK
 10
0.0
 20
0.0
 30
0.0
  9
$PUCSBASE
  2

  9
$PUCSNAME
  2

  9
$PUCSORG
 10
0.0
 20
0.0
 30
0.0
  9
$PUCSXDIR
 10
1.0
 20
0.0
 30
0.0
  9
$PUCSYDIR
 10
0.0
 20
1.0
 30
0.0
  9
$PUCSORTHOREF
  2

  9
$PUCSORTHOVIEW
 70
     0
  9
$PUCSORGTOP
 10
0.0
 20
0.0
 30
0.0
  9
$PUCSORGBOTTOM
 10
0.0
 20
0.0
 30
0.0
  9
$PUCSORGLEFT
 10
0.0
 20
0.0
 30
0.0
  9
$PUCSORGRIGHT
 10
0.0
 20
0.0
 30
0.0
  9
$PUCSORGFRONT
 10
0.0
 20
0.0
 30
0.0
  9
$PUCSORGBACK
 10
0.0
 20
0.0
 30
0.0
  9
$USERI1
 70
     0
  9
$USERI2
 70
     0
  9
$USERI3
 70
     0
  9
$USERI4
 70
     0
  9
$USERI5
 70
     0
  9
$USERR1
 40
0.0
  9
$USERR2
 40
0.0
  9
$USERR3
 40
0.0
  9
$USERR4
 40
0.0
  9
$USERR5
 40
0.0
  9
$WORLDVIEW
 70
     1
  9
$SHADEDGE
 70
     3
  9
$SHADEDIF
 70
    70
  9
$TILEMODE
 70
     1
  9
$MAXACTVP
 70
    64
  9
$PINSBASE
 10
0.0
 20
0.0
 30
0.0
  9
$PLIMCHECK
 70
     0
  9
$PEXTMIN
 10
1.000000000000000E+20
 20
1.000000000000000E+20
 30
1.000000000000000E+20
  9
$PEXTMAX
 10
-1.000000000000000E+20
 20
-1.000000000000000E+20
 30
-1.000000000000000E+20
  9
$PLIMMIN
 10
0.0
 20
0.0
  9
$PLIMMAX
 10
0.0
 20
0.0
  9
$UNITMODE
 70
     0
  9
$VISRETAIN
 70
     1
  9
$PLINEGEN
 70
     0
  9
$PSLTSCALE
 70
     1
  9
$TREEDEPTH
 70
  3020
  9
$CMLSTYLE
  2
Standard
  9
$CMLJUST
 70
     0
  9
$CMLSCALE
 40
20.0
  9
$PROXYGRAPHICS
 70
     1
  9
$MEASUREMENT
 70
     1
  9
$CELWEIGHT
370
    -1
  9
$ENDCAPS
280
     0
  9
$JOINSTYLE
280
     0
  9
$LWDISPLAY
290
     1
  9
$INSUNITS
 70
     4
  9
$HYPERLINKBASE
  1

  9
$STYLESHEET
  1

  9
$XEDIT
290
     1
  9
$CEPSNTYPE
380
     0
  9
$PSTYLEMODE
290
     1
  9
$FINGERPRINTGUID
  2
{D9B28245-7D34-43A5-8F8C-1D646E3F7154}
  9
$VERSIONGUID
  2
{FAEB1C32-E019-11D5-929B-00C0DF256EC4}
  9
$EXTNAMES
290
     1
  9
$PSVPSCALE
 40
0.0
  9
$OLESTARTUP
290
     0
  0
ENDSEC
  0
SECTION
  2
CLASSES
  0
CLASS
  1
ACDBDICTIONARYWDFLT
  2
AcDbDictionaryWithDefault
  3
ObjectDBX Classes
 90
        0
280
     0
281
     0
  0
CLASS
  1
VISUALSTYLE
  2
AcDbVisualStyle
  3
ObjectDBX Classes
 90
     4095
280
     0
281
     0
  0
CLASS
  1
MATERIAL
  2
AcDbMaterial
  3
ObjectDBX Classes
 90
     1153
280
     0
281
     0
  0
CLASS
  1
SCALE
  2
AcDbScale
  3
ObjectDBX Classes
 90
     1153
280
     0
281
     0
  0
CLASS
  1
SUN
  2
AcDbSun
  3
SCENEOE
 90
     1153
280
     0
281
     0
  0
CLASS
  1
ACDBPLACEHOLDER
  2
AcDbPlaceHolder
  3
ObjectDBX Classes
 90
        0
280
     0
281
     0
  0
CLASS
  1
LAYOUT
  2
AcDbLayout
  3
ObjectDBX Classes
 90
        0
280
     0
281
     0
  0
CLASS
  1
TABLESTYLE
  2
AcDbTableStyle
  3
ObjectDBX Classes
 90
     4095
280
     0
281
     0
  0
CLASS
  1
MLEADERSTYLE
  2
AcDbMLeaderStyle
  3
ACDB_MLEADERSTYLE_CLASS
 90
     4095
280
     0
281
     0
  0
CLASS
  1
RASTERVARIABLES
  2
AcDbRasterVariables
  3
ISM
 90
        0
280
     0
281
     0
  0
ENDSEC
  0
SECTION
  2
TABLES
  0
TABLE
  2
VPORT
  5
8
330
0
100
AcDbSymbolTable
 70
     1
  0
VPORT
  5
29
330
8
100
AcDbSymbolTableRecord
100
AcDbViewportTableRecord
  2
*Active
 70
     0
 10
0.0
 20
0.0
 11
1.0
 21
1.0
 12
29.02206251647746
 22
-11.04527869440589
 13
0.0
 23
0.0
 14
10.0
 24
10.0
 15
10.0
 25
10.0
 16
0.0
 26
0.0
 36
1.0
 17
0.0
 27
0.0
 37
0.0
 40
79.41011853658796
 41
1.782762691853601
 42
50.0
 43
0.0
 44
0.0
 50
0.0
 51
0.0
 71
    16
 72
  2000
 73
     1
 74
     3
 75
     0
 76
     0
 77
     0
 78
     0
281
     0
 65
     1
110
0.0
120
0.0
130
0.0
111
1.0
121
0.0
131
0.0
112
0.0
122
1.0
132
0.0
 79
     0
146
0.0
  0
ENDTAB
  0
TABLE
  2
LTYPE
  5
5
330
0
100
AcDbSymbolTable
 70
     6
  0
LTYPE
  5
14
330
5
100
AcDbSymbolTableRecord
100
AcDbLinetypeTableRecord
  2
ByBlock
 70
     0
  3

 72
    65
 73
     0
 40
0.0
  0
LTYPE
  5
15
330
5
100
AcDbSymbolTableRecord
100
AcDbLinetypeTableRecord
  2
ByLayer
 70
     0
  3

 72
    65
 73
     0
 40
0.0
  0
LTYPE
  5
16
330
5
100
AcDbSymbolTableRecord
100
AcDbLinetypeTableRecord
  2
Continuous
 70
     0
  3
Solid line
 72
    65
 73
     0
 40
0.0
  0
LTYPE
  5
6A
330
5
100
AcDbSymbolTableRecord
100
AcDbLinetypeTableRecord
  2
HIDDEN
 70
     0
  3
Hidden __ __ __ __ __ __ __ __ __ __ __ __ __ __
 72
    65
 73
     2
 40
1.905
 49
1.27
 74
     0
 49
-0.635
 74
     0
  0
LTYPE
  5
6B
330
5
100
AcDbSymbolTableRecord
100
AcDbLinetypeTableRecord
  2
PHANTOM
 70
     0
  3
Phantom ______  __  __  ______  __  __  ______
 72
    65
 73
     6
 40
12.7
 49
6.35
 74
     0
 49
-1.27
 74
     0
 49
1.27
 74
     0
 49
-1.27
 74
     0
 49
1.27
 74
     0
 49
-1.27
 74
     0
  0
LTYPE
  5
6C
330
5
100
AcDbSymbolTableRecord
100
AcDbLinetypeTableRecord
  2
CENTER
 70
     0
  3
Center ____ _ ____ _ ____ _ ____ _ ____ _ ____
 72
    65
 73
     4
 40
10.16
 49
6.35
 74
     0
 49
-1.27
 74
     0
 49
1.27
 74
     0
 49
-1.27
 74
     0
  0
LTYPE
  5
6D
330
5
100
AcDbSymbolTableRecord
100
AcDbLinetypeTableRecord
  2
CENTERX2
 70
     0
  3
Center (2x) ________  __  ________  __  _____
 72
    65
 73
     4
 40
20.32
 49
12.7
 74
     0
 49
-2.54
 74
     0
 49
2.54
 74
     0
 49
-2.54
 74
     0
  0
LTYPE
  5
6E
330
5
100
AcDbSymbolTableRecord
100
AcDbLinetypeTableRecord
  2
DOT2
 70
     0
  3
Dot (.5x) ........................................
 72
    65
 73
     2
 40
0.635
 49
0.0
 74
     0
 49
-0.635
 74
     0
  0
ENDTAB
  0
TABLE
  2
LAYER
  5
2
330
0
100
AcDbSymbolTable
 70
    18
  0
LAYER
  5
10
330
2
100
AcDbSymbolTableRecord
100
AcDbLayerTableRecord
  2
0
 70
     0
 62
     7
  6
Continuous
370
    -3
390
F
  0
LAYER
  5
6F
330
2
100
AcDbSymbolTableRecord
100
AcDbLayerTableRecord
  2
FORMAT
 70
     0
 62
     2
  6
Continuous
370
    -3
390
F
  0
LAYER
  5
70
330
2
100
AcDbSymbolTableRecord
100
AcDbLayerTableRecord
  2
외형선
 70
     0
 62
     4
  6
Continuous
370
    30
390
F
  0
LAYER
  5
71
330
2
100
AcDbSymbolTableRecord
100
AcDbLayerTableRecord
  2
숨은선
 70
     0
 62
     2
  6
HIDDEN
370
    15
390
F
  0
LAYER
  5
72
330
2
100
AcDbSymbolTableRecord
100
AcDbLayerTableRecord
  2
중심선
 70
     0
 62
     1
  6
CENTERX2
370
    -3
390
F
  0
LAYER
  5
73
330
2
100
AcDbSymbolTableRecord
100
AcDbLayerTableRecord
  2
파단선
 70
     0
 62
     4
  6
Continuous
370
    -3
390
F
  0
LAYER
  5
74
330
2
100
AcDbSymbolTableRecord
100
AcDbLayerTableRecord
  2
해칭선
 70
     0
 62
   100
  6
Continuous
370
    -3
390
F
  0
LAYER
  5
75
330
2
100
AcDbSymbolTableRecord
100
AcDbLayerTableRecord
  2
가는실선
 70
     0
 62
     4
  6
Continuous
370
    -3
390
F
  0
LAYER
  5
76
330
2
100
AcDbSymbolTableRecord
100
AcDbLayerTableRecord
  2
치수_보조선
 70
     0
 62
     4
  6
Continuous
370
    -3
390
F
  0
LAYER
  5
77
330
2
100
AcDbSymbolTableRecord
100
AcDbLayerTableRecord
  2
치수문자_일반주서
 70
     0
 62
     7
  6
Continuous
370
    15
390
F
  0
LAYER
  5
78
330
2
100
AcDbSymbolTableRecord
100
AcDbLayerTableRecord
  2
개별주서
 70
     0
 62
   100
  6
Continuous
370
    30
390
F
  0
LAYER
  5
79
330
2
100
AcDbSymbolTableRecord
100
AcDbLayerTableRecord
  2
중간선
 70
     0
 62
     2
  6
Continuous
370
    15
390
F
  0
LAYER
  5
7A
330
2
100
AcDbSymbolTableRecord
100
AcDbLayerTableRecord
  2
윤곽선
 70
     0
 62
     3
  6
Continuous
370
    40
390
F
  0
LAYER
  5
7B
330
2
100
AcDbSymbolTableRecord
100
AcDbLayerTableRecord
  2
중심마크
 70
     0
 62
   100
  6
Continuous
370
    30
390
F
  0
LAYER
  5
7C
330
2
100
AcDbSymbolTableRecord
100
AcDbLayerTableRecord
  2
가상선
 70
     0
 62
     4
  6
PHANTOM
370
    -3
390
F
  0
LAYER
  5
7D
330
2
100
AcDbSymbolTableRecord
100
AcDbLayerTableRecord
  2
특수지정선
 70
     0
 62
     5
  6
CENTERX2
370
    60
390
F
  0
LAYER
  5
7E
330
2
100
AcDbSymbolTableRecord
100
AcDbLayerTableRecord
  2
참조1
 70
     0
 62
    -4
  6
Continuous
370
    -3
390
F
  0
LAYER
  5
155
330
2
100
AcDbSymbolTableRecord
100
AcDbLayerTableRecord
  2
Defpoints
 70
     0
 62
     7
  6
Continuous
290
     0
370
    -3
390
F
  0
ENDTAB
  0
TABLE
  2
STYLE
  5
3
330
0
100
AcDbSymbolTable
 70
     2
  0
STYLE
  5
11
330
3
100
AcDbSymbolTableRecord
100
AcDbTextStyleTableRecord
  2
Standard
 70
     0
 40
0.0
 41
1.0
 50
0.0
 71
     0
 42
3.5
  3
txt
  4

  0
STYLE
  5
94
330
3
100
AcDbSymbolTableRecord
100
AcDbTextStyleTableRecord
  2
SLDTEXTSTYLE0
 70
     0
 40
0.0
 41
0.75
 50
0.0
 71
     0
 42
3.5
  3
TXT
  4

  0
ENDTAB
  0
TABLE
  2
VIEW
  5
6
330
0
100
AcDbSymbolTable
 70
     0
  0
ENDTAB
  0
TABLE
  2
UCS
  5
7
330
0
100
AcDbSymbolTable
 70
     0
  0
ENDTAB
  0
TABLE
  2
APPID
  5
9
330
0
100
AcDbSymbolTable
 70
     2
  0
APPID
  5
12
330
9
100
AcDbSymbolTableRecord
100
AcDbRegAppTableRecord
  2
ACAD
 70
     0
  0
APPID
  5
15C
330
9
100
AcDbSymbolTableRecord
100
AcDbRegAppTableRecord
  2
PE_URL
 70
     0
  0
ENDTAB
  0
TABLE
  2
DIMSTYLE
  5
A
330
0
100
AcDbSymbolTable
 70
     3
100
AcDbDimStyleTable
  0
DIMSTYLE
105
27
330
A
100
AcDbSymbolTableRecord
100
AcDbDimStyleTableRecord
  2
ISO-25
 70
     0
 41
2.5
 42
0.625
 43
3.75
 44
1.25
 73
     0
 74
     0
 77
     1
 78
     8
140
2.5
141
2.5
143
0.03937007874016
147
0.625
171
     3
172
     1
178
     0
271
     2
272
     2
274
     3
278
    44
283
     0
284
     8
340
11
  0
DIMSTYLE
105
D3
102
{ACAD_REACTORS
330
D2
330
E7
330
FB
330
110
102
}
330
A
100
AcDbSymbolTableRecord
100
AcDbDimStyleTableRecord
  2
SLDDIMSTYLE0
 70
     0
 41
3.302
 44
0.0
 45
0.000000001
 73
     0
 74
     0
 77
     1
 78
    12
 79
     3
140
3.5
143
0.0393700787401575
147
0.875
148
0.000000001
170
     1
172
     1
173
     1
178
     0
271
     2
272
     2
276
     2
284
    12
289
     0
340
94
  0
DIMSTYLE
105
111
330
A
100
AcDbSymbolTableRecord
100
AcDbDimStyleTableRecord
  2
SLDDIMSTYLE1
 70
     0
 41
3.302
 44
0.0
 45
0.000000001
 73
     0
 74
     0
 77
     1
 78
     4
 79
     1
140
3.5
143
0.0393700787401575
147
0.875
148
0.000000001
170
     1
173
     1
178
     0
271
     2
272
     2
276
     2
284
    12
340
94
  0
ENDTAB
  0
TABLE
  2
BLOCK_RECORD
  5
1
330
0
100
AcDbSymbolTable
 70
     9
  0
BLOCK_RECORD
  5
1F
330
1
100
AcDbSymbolTableRecord
100
AcDbBlockTableRecord
  2
*Model_Space
340
22
  0
BLOCK_RECORD
  5
1B
330
1
100
AcDbSymbolTableRecord
100
AcDbBlockTableRecord
  2
*Paper_Space
340
1E
  0
BLOCK_RECORD
  5
23
330
1
100
AcDbSymbolTableRecord
100
AcDbBlockTableRecord
  2
*Paper_Space0
340
26
  0
BLOCK_RECORD
  5
7F
330
1
100
AcDbSymbolTableRecord
100
AcDbBlockTableRecord
  2
블럭10
340
0
102
{BLKREFS
331
CB
102
}
  0
BLOCK_RECORD
  5
D4
330
1
100
AcDbSymbolTableRecord
100
AcDbBlockTableRecord
  2
_D
340
0
  0
BLOCK_RECORD
  5
E8
330
1
100
AcDbSymbolTableRecord
100
AcDbBlockTableRecord
  2
_D_1
340
0
  0
BLOCK_RECORD
  5
FC
330
1
100
AcDbSymbolTableRecord
100
AcDbBlockTableRecord
  2
_D_2
340
0
  0
BLOCK_RECORD
  5
112
330
1
100
AcDbSymbolTableRecord
100
AcDbBlockTableRecord
  2
_D_3
340
0
  0
BLOCK_RECORD
  5
12B
330
1
100
AcDbSymbolTableRecord
100
AcDbBlockTableRecord
  2
SW_DOWELSYMBOL_0
340
0
102
{BLKREFS
331
131
102
}
  0
BLOCK_RECORD
  5
18E
330
1
100
AcDbSymbolTableRecord
100
AcDbBlockTableRecord
  2
*D7
340
0
  0
BLOCK_RECORD
  5
1A0
330
1
100
AcDbSymbolTableRecord
100
AcDbBlockTableRecord
  2
*D8
340
0
  0
ENDTAB
  0
ENDSEC
  0
SECTION
  2
BLOCKS
  0
BLOCK
  5
20
330
1F
100
AcDbEntity
  8
0
100
AcDbBlockBegin
  2
*Model_Space
 70
     0
 10
0.0
 20
0.0
 30
0.0
  3
*Model_Space
  1
*Model_Space
  0
ENDBLK
  5
21
330
1F
100
AcDbEntity
  8
0
100
AcDbBlockEnd
  0
BLOCK
  5
1C
330
1B
100
AcDbEntity
 67
     1
  8
0
100
AcDbBlockBegin
  2
*Paper_Space
 70
     0
 10
0.0
 20
0.0
 30
0.0
  3
*Paper_Space
  1
*Paper_Space
  0
ENDBLK
  5
1D
330
1B
100
AcDbEntity
 67
     1
  8
0
100
AcDbBlockEnd
  0
BLOCK
  5
24
330
23
100
AcDbEntity
  8
0
100
AcDbBlockBegin
  2
*Paper_Space0
 70
     0
 10
0.0
 20
0.0
 30
0.0
  3
*Paper_Space0
  1
*Paper_Space0
  0
ENDBLK
  5
25
330
23
100
AcDbEntity
  8
0
100
AcDbBlockEnd
  0
BLOCK
  5
80
330
7F
100
AcDbEntity
  8
0
100
AcDbBlockBegin
  2
블럭10
 70
     2
 10
0.0
 20
0.0
 30
0.0
  3
블럭10
  1
블럭10
  0
ELLIPSE
  5
82
330
7F
100
AcDbEntity
  8
중심선
100
AcDbEllipse
 10
20.54032771741204
 20
12.0471743016438
 30
0.0
 11
6.600054785286829
 21
-1.261213355974178E-13
 31
0.0
210
0.0
220
0.0
230
1.0
 40
0.636358354079598
 41
0.9219305317359503
 42
6.513795318482858
  0
ELLIPSE
  5
83
330
7F
100
AcDbEntity
  8
중심선
100
AcDbEllipse
 10
20.54032771746488
 20
12.04717430159265
 30
0.0
 11
3.960054785062283
 21
1.540847449632565E-10
 31
0.0
210
0.0
220
0.0
230
1.0
 40
0.3939339440162632
 41
1.131841032648279
 42
5.62031148352944
  0
LINE
  5
84
330
7F
100
AcDbEntity
  8
중심선
100
AcDbLine
 10
2.268634060543552
 20
16.24717430164393
 30
0.0
 11
5.714909304380834
 21
16.24717430164393
 31
0.0
  0
LINE
  5
85
330
7F
100
AcDbEntity
  8
중심선
100
AcDbLine
 10
5.245725140726316
 20
7.84717430164391
 30
0.0
 11
8.692000384563599
 21
7.84717430164391
 31
0.0
  0
LINE
  5
86
330
7F
100
AcDbEntity
  8
중심선
100
AcDbLine
 10
15.74043728645272
 20
16.24717430164393
 30
0.0
 11
8.692000384563599
 21
7.84717430164391
 31
0.0
  0
LINE
  5
87
330
7F
100
AcDbEntity
  8
중심선
100
AcDbLine
 10
0.1404042013395286
 20
13.71084872107135
 30
0.0
 11
3.58671253028996
 21
13.71088815037384
 31
0.0
  0
LINE
  5
88
330
7F
100
AcDbEntity
  8
중심선
100
AcDbLine
 10
2.750260043222114
 20
10.84717430164391
 30
0.0
 11
6.196535287059397
 21
10.84717430164391
 31
0.0
  0
LINE
  5
89
330
7F
100
AcDbEntity
  8
중심선
100
AcDbLine
 10
12.29416204261559
 20
16.24717430164393
 30
0.0
 11
5.245725140726316
 21
7.84717430164391
 31
0.0
  0
LINE
  5
8A
330
7F
100
AcDbEntity
  8
중심선
100
AcDbLine
 10
10.72767329541681
 20
16.24717430164393
 30
0.0
 11
6.196535287059397
 21
10.84717430164391
 31
0.0
  0
LINE
  5
8B
330
7F
100
AcDbEntity
  8
중심선
100
AcDbLine
 10
7.28139805157953
 20
16.24717430164393
 30
0.0
 11
2.750260043222114
 21
10.84717430164391
 31
0.0
  0
LINE
  5
8C
330
7F
100
AcDbEntity
  8
중심선
100
AcDbLine
 10
5.714909304380834
 20
16.24717430164393
 30
0.0
 11
3.58671253028996
 21
13.71088815037384
 31
0.0
  0
LINE
  5
8D
330
7F
100
AcDbEntity
  8
중심선
100
AcDbLine
 10
2.268634060543552
 20
16.24717430164393
 30
0.0
 11
0.1404042013395286
 21
13.71084872107135
 31
0.0
  0
LINE
  5
8E
330
7F
100
AcDbEntity
  8
중심선
100
AcDbLine
 10
7.28139805157953
 20
16.24717430164393
 30
0.0
 11
10.72767329541681
 21
16.24717430164393
 31
0.0
  0
LINE
  5
8F
330
7F
100
AcDbEntity
  8
중심선
100
AcDbLine
 10
12.29416204261559
 20
16.24717430164393
 30
0.0
 11
15.74043728645272
 21
16.24717430164393
 31
0.0
  0
LINE
  5
90
330
7F
100
AcDbEntity
  8
중심선
100
AcDbLine
 10
19.22036997980202
 20
11.08717430171403
 30
0.0
 11
23.66174974927406
 21
11.08717430171406
 31
0.0
  0
LINE
  5
91
330
7F
100
AcDbEntity
  8
중심선
100
AcDbLine
 10
19.22039502424796
 20
13.00717430171391
 30
0.0
 11
19.22036997980202
 21
11.08717430171403
 31
0.0
  0
LINE
  5
92
330
7F
100
AcDbEntity
  8
중심선
100
AcDbLine
 10
19.22039502424796
 20
13.00717430171391
 30
0.0
 11
26.96566020931264
 21
13.00717430171391
 31
0.0
  0
LINE
  5
93
330
7F
100
AcDbEntity
  8
중심선
100
AcDbLine
 10
22.22332737316547
 20
13.45928029700563
 30
0.0
 11
24.52862924686651
 21
15.39360700705356
 31
0.0
  0
ATTDEF
  5
95
330
7F
100
AcDbEntity
  8
FORMAT
 62
     2
100
AcDbText
 10
4.408487351596664
 20
2.075366912832191
 30
0.0
 40
4.233333333333333
  1
E1001003
 41
0.75
  7
SLDTEXTSTYLE0
 11
4.408487351596664
 21
-0.0412997538344756
 31
0.0
100
AcDbAttributeDefinition
  3

  2
AUTOATTR0
 70
     0
 74
     1
  0
ENDBLK
  5
81
330
7F
100
AcDbEntity
  8
0
100
AcDbBlockEnd
  0
BLOCK
  5
D5
330
D4
100
AcDbEntity
  8
0
100
AcDbBlockBegin
  2
_D
 70
     0
 10
0.0
 20
0.0
 30
0.0
  3
_D
  1
_D
  0
LINE
  5
D7
330
D4
100
AcDbEntity
  8
치수문자_일반주서
 62
     0
370
    -2
100
AcDbLine
 10
-16.40979051085746
 20
2.38125
 30
0.0
 11
-33.40000000000002
 21
2.381249999999936
 31
0.0
  0
LINE
  5
D8
330
D4
100
AcDbEntity
  8
치수문자_일반주서
 62
     0
370
    -2
100
AcDbLine
 10
-16.40979051085746
 20
-2.381250000000001
 30
0.0
 11
-33.40000000000001
 21
-2.381250000000065
 31
0.0
  0
LINE
  5
D9
330
D4
100
AcDbEntity
  8
치수문자_일반주서
 62
     0
370
    -2
100
AcDbLine
 10
-33.40000000000002
 20
2.381249999999936
 30
0.0
 11
-33.40000000000009
 21
27.88124999999997
 31
0.0
  0
LINE
  5
DA
330
D4
100
AcDbEntity
  8
치수문자_일반주서
 62
     0
370
    -2
100
AcDbLine
 10
-33.40000000000002
 20
2.381249999999936
 30
0.0
 11
-33.40000000000001
 21
-2.381250000000065
 31
0.0
  0
LINE
  5
DB
330
D4
100
AcDbEntity
  8
치수문자_일반주서
 62
     0
370
    -2
100
AcDbLine
 10
-33.40000000000003
 20
4.881249999999936
 30
0.0
 11
-33.40000000000003
 21
7.381249999999936
 31
0.0
  0
LINE
  5
DC
330
D4
100
AcDbEntity
  8
치수문자_일반주서
 62
     0
370
    -2
100
AcDbLine
 10
-33.4
 20
-4.881250000000065
 30
0.0
 11
-33.39999999999999
 21
-7.381250000000065
 31
0.0
  0
SOLID
  5
DD
330
D4
100
AcDbEntity
  8
치수문자_일반주서
 62
     0
100
AcDbTrace
 10
-33.81666666666669
 20
4.881249999999935
 30
0.0
 11
-32.98333333333336
 21
4.881249999999937
 31
0.0
 12
-33.40000000000002
 22
2.381249999999936
 32
0.0
 13
-33.40000000000002
 23
2.381249999999936
 33
0.0
  0
SOLID
  5
DE
330
D4
100
AcDbEntity
  8
치수문자_일반주서
 62
     0
100
AcDbTrace
 10
-32.98333333333333
 20
-4.881250000000064
 30
0.0
 11
-33.81666666666666
 21
-4.881250000000066
 31
0.0
 12
-33.40000000000001
 22
-2.381250000000065
 32
0.0
 13
-33.40000000000001
 23
-2.381250000000065
 33
0.0
  0
MTEXT
  5
DF
330
D4
100
AcDbEntity
  8
치수문자_일반주서
 62
     0
100
AcDbMText
 10
-36.77500000000006
 20
17.63124999999996
 30
0.0
 40
2.5
 41
0.0
 71
     2
 72
     1
  1
\A1;%%c4.76 [3/16]
  7
SLDTEXTSTYLE0
 11
-2.983906501879686E-15
 21
1.0
 31
0.0
 73
     1
 44
1.0
  0
POINT
  5
1B5
330
D4
100
AcDbEntity
  8
Defpoints
 62
     0
100
AcDbPoint
 10
-16.34729051085746
 20
2.38125
 30
0.0
  0
POINT
  5
1B6
330
D4
100
AcDbEntity
  8
Defpoints
 62
     0
100
AcDbPoint
 10
-16.34729051085746
 20
-2.381250000000001
 30
0.0
  0
POINT
  5
1B7
330
D4
100
AcDbEntity
  8
Defpoints
 62
     0
100
AcDbPoint
 10
-33.40000000000001
 20
-2.381250000000064
 30
0.0
  0
ENDBLK
  5
D6
330
D4
100
AcDbEntity
  8
0
100
AcDbBlockEnd
  0
BLOCK
  5
E9
330
E8
100
AcDbEntity
  8
0
100
AcDbBlockBegin
  2
_D_1
 70
     0
 10
0.0
 20
0.0
 30
0.0
  3
_D_1
  1
_D_1
  0
LINE
  5
EB
330
E8
100
AcDbEntity
  8
치수문자_일반주서
 62
     0
370
    -2
100
AcDbLine
 10
25.46249999999999
 20
-0.5948093509413962
 30
0.0
 11
52.87248467827773
 21
-0.5948093509412935
 31
0.0
  0
LINE
  5
EC
330
E8
100
AcDbEntity
  8
치수문자_일반주서
 62
     0
370
    -2
100
AcDbLine
 10
25.46249999999999
 20
0.5948093509413984
 30
0.0
 11
52.87248467827772
 21
0.5948093509415013
 31
0.0
  0
LINE
  5
ED
330
E8
100
AcDbEntity
  8
치수문자_일반주서
 62
     0
370
    -2
100
AcDbLine
 10
52.87248467827772
 20
0.5948093509415013
 30
0.0
 11
52.87248467827757
 21
25.4698093509415
 31
0.0
  0
LINE
  5
EE
330
E8
100
AcDbEntity
  8
치수문자_일반주서
 62
     0
370
    -2
100
AcDbLine
 10
52.87248467827773
 20
-0.5948093509412935
 30
0.0
 11
52.87248467827772
 21
0.5948093509415013
 31
0.0
  0
LINE
  5
EF
330
E8
100
AcDbEntity
  8
치수문자_일반주서
 62
     0
370
    -2
100
AcDbLine
 10
52.87248467827774
 20
-3.094809350941294
 30
0.0
 11
52.87248467827776
 21
-5.594809350941294
 31
0.0
  0
LINE
  5
F0
330
E8
100
AcDbEntity
  8
치수문자_일반주서
 62
     0
370
    -2
100
AcDbLine
 10
52.87248467827771
 20
3.094809350941501
 30
0.0
 11
52.87248467827769
 21
5.594809350941501
 31
0.0
  0
SOLID
  5
F1
330
E8
100
AcDbEntity
  8
치수문자_일반주서
 62
     0
100
AcDbTrace
 10
53.28915134494441
 20
-3.094809350941291
 30
0.0
 11
52.45581801161108
 21
-3.094809350941296
 31
0.0
 12
52.87248467827773
 22
-0.5948093509412935
 32
0.0
 13
52.87248467827773
 23
-0.5948093509412935
 33
0.0
  0
SOLID
  5
F2
330
E8
100
AcDbEntity
  8
치수문자_일반주서
 62
     0
100
AcDbTrace
 10
52.45581801161104
 20
3.094809350941499
 30
0.0
 11
53.28915134494437
 21
3.094809350941504
 31
0.0
 12
52.87248467827772
 22
0.5948093509415013
 32
0.0
 13
52.87248467827772
 23
0.5948093509415013
 33
0.0
  0
MTEXT
  5
F3
330
E8
100
AcDbEntity
  8
치수문자_일반주서
 62
     0
100
AcDbMText
 10
49.49748467827763
 20
15.53230935094148
 30
0.0
 40
2.5
 41
0.0
 71
     2
 72
     1
  1
\A1;%%c1.19 [3/64]
  7
SLDTEXTSTYLE0
 11
-5.972861175059983E-15
 21
1.0
 31
0.0
 73
     1
 44
1.0
  0
POINT
  5
F4
330
E8
100
AcDbEntity
  8
Defpoints
 62
     0
100
AcDbPoint
 10
25.39999999999999
 20
-0.5948093509413964
 30
0.0
  0
POINT
  5
F5
330
E8
100
AcDbEntity
  8
Defpoints
 62
     0
100
AcDbPoint
 10
25.39999999999999
 20
0.5948093509413982
 30
0.0
  0
POINT
  5
F6
330
E8
100
AcDbEntity
  8
Defpoints
 62
     0
100
AcDbPoint
 10
52.87248467827771
 20
0.5948093509415009
 30
0.0
  0
ENDBLK
  5
EA
330
E8
100
AcDbEntity
  8
0
100
AcDbBlockEnd
  0
BLOCK
  5
FD
330
FC
100
AcDbEntity
  8
0
100
AcDbBlockBegin
  2
_D_2
 70
     0
 10
0.0
 20
0.0
 30
0.0
  3
_D_2
  1
_D_2
  0
LINE
  5
FF
330
FC
100
AcDbEntity
  8
치수문자_일반주서
 62
     0
370
    -2
100
AcDbLine
 10
25.39999999999999
 20
0.6573093509413982
 30
0.0
 11
25.39999999999999
 21
10.38125
 31
0.0
  0
LINE
  5
100
330
FC
100
AcDbEntity
  8
치수문자_일반주서
 62
     0
370
    -2
100
AcDbLine
 10
23.81249999999999
 20
0.5385220739635217
 30
0.0
 11
23.81249999999999
 21
10.38125
 31
0.0
  0
LINE
  5
101
330
FC
100
AcDbEntity
  8
치수문자_일반주서
 62
     0
370
    -2
100
AcDbLine
 10
25.39999999999999
 20
10.38125
 30
0.0
 11
47.775
 21
10.38125
 31
0.0
  0
LINE
  5
102
330
FC
100
AcDbEntity
  8
치수문자_일반주서
 62
     0
370
    -2
100
AcDbLine
 10
25.39999999999999
 20
10.38125
 30
0.0
 11
23.81249999999999
 21
10.38125
 31
0.0
  0
LINE
  5
103
330
FC
100
AcDbEntity
  8
치수문자_일반주서
 62
     0
370
    -2
100
AcDbLine
 10
27.89999999999999
 20
10.38125
 30
0.0
 11
30.39999999999999
 21
10.38125
 31
0.0
  0
LINE
  5
104
330
FC
100
AcDbEntity
  8
치수문자_일반주서
 62
     0
370
    -2
100
AcDbLine
 10
21.31249999999999
 20
10.38125
 30
0.0
 11
18.81249999999999
 21
10.38125
 31
0.0
  0
SOLID
  5
105
330
FC
100
AcDbEntity
  8
치수문자_일반주서
 62
     0
100
AcDbTrace
 10
27.89999999999999
 20
10.79791666666666
 30
0.0
 11
27.89999999999999
 21
9.96458333333333
 31
0.0
 12
25.39999999999999
 22
10.38125
 32
0.0
 13
25.39999999999999
 23
10.38125
 33
0.0
  0
SOLID
  5
106
330
FC
100
AcDbEntity
  8
치수문자_일반주서
 62
     0
100
AcDbTrace
 10
21.31249999999999
 20
9.96458333333333
 30
0.0
 11
21.31249999999999
 21
10.79791666666666
 31
0.0
 12
23.81249999999999
 22
10.38125
 32
0.0
 13
23.81249999999999
 23
10.38125
 33
0.0
  0
MTEXT
  5
107
330
FC
100
AcDbEntity
  8
치수문자_일반주서
 62
     0
100
AcDbMText
 10
39.0875
 20
13.75625
 30
0.0
 40
2.5
 41
0.0
 71
     2
 72
     1
  1
\A1;1.59 [1/16]
  7
SLDTEXTSTYLE0
 73
     1
 44
1.0
  0
POINT
  5
108
330
FC
100
AcDbEntity
  8
Defpoints
 62
     0
100
AcDbPoint
 10
25.39999999999999
 20
0.5948093509413982
 30
0.0
  0
POINT
  5
109
330
FC
100
AcDbEntity
  8
Defpoints
 62
     0
100
AcDbPoint
 10
23.81249999999999
 20
0.4760220739635217
 30
0.0
  0
POINT
  5
10A
330
FC
100
AcDbEntity
  8
Defpoints
 62
     0
100
AcDbPoint
 10
23.81249999999999
 20
10.38125
 30
0.0
  0
ENDBLK
  5
FE
330
FC
100
AcDbEntity
  8
0
100
AcDbBlockEnd
  0
BLOCK
  5
113
330
112
100
AcDbEntity
  8
0
100
AcDbBlockBegin
  2
_D_3
 70
     0
 10
0.0
 20
0.0
 30
0.0
  3
_D_3
  1
_D_3
  0
LINE
  5
115
330
112
100
AcDbEntity
  8
치수문자_일반주서
 62
     0
370
    -2
100
AcDbLine
 10
-25.39999999999999
 20
0.6573093509413981
 30
0.0
 11
-25.4
 21
18.38125
 31
0.0
  0
LINE
  5
116
330
112
100
AcDbEntity
  8
치수문자_일반주서
 62
     0
370
    -2
100
AcDbLine
 10
25.39999999999999
 20
0.6573093509413982
 30
0.0
 11
25.39999999999998
 21
18.38125
 31
0.0
  0
LINE
  5
117
330
112
100
AcDbEntity
  8
치수문자_일반주서
 62
     0
370
    -2
100
AcDbLine
 10
-22.9
 20
18.38125
 30
0.0
 11
22.89999999999998
 21
18.38125
 31
0.0
  0
SOLID
  5
118
330
112
100
AcDbEntity
  8
치수문자_일반주서
 62
     0
100
AcDbTrace
 10
-22.9
 20
18.79791666666667
 30
0.0
 11
-22.9
 21
17.96458333333333
 31
0.0
 12
-25.4
 22
18.38125
 32
0.0
 13
-25.4
 23
18.38125
 33
0.0
  0
SOLID
  5
119
330
112
100
AcDbEntity
  8
치수문자_일반주서
 62
     0
100
AcDbTrace
 10
22.89999999999998
 20
17.96458333333333
 30
0.0
 11
22.89999999999998
 21
18.79791666666667
 31
0.0
 12
25.39999999999998
 22
18.38125
 32
0.0
 13
25.39999999999998
 23
18.38125
 33
0.0
  0
MTEXT
  5
11A
330
112
100
AcDbEntity
  8
치수문자_일반주서
 62
     0
100
AcDbMText
 10
-0.0000000000000018
 20
21.75625
 30
0.0
 40
2.5
 41
0.0
 71
     2
 72
     1
  1
\A1;50.8 [2]
  7
SLDTEXTSTYLE0
 73
     1
 44
1.0
  0
POINT
  5
11B
330
112
100
AcDbEntity
  8
Defpoints
 62
     0
100
AcDbPoint
 10
-25.39999999999999
 20
0.5948093509413981
 30
0.0
  0
POINT
  5
11C
330
112
100
AcDbEntity
  8
Defpoints
 62
     0
100
AcDbPoint
 10
25.39999999999999
 20
0.5948093509413982
 30
0.0
  0
POINT
  5
11D
330
112
100
AcDbEntity
  8
Defpoints
 62
     0
100
AcDbPoint
 10
25.39999999999999
 20
18.38125
 30
0.0
  0
ENDBLK
  5
114
330
112
100
AcDbEntity
  8
0
100
AcDbBlockEnd
  0
BLOCK
  5
12C
330
12B
100
AcDbEntity
  8
0
100
AcDbBlockBegin
  2
SW_DOWELSYMBOL_0
 70
     0
 10
0.0
 20
0.0
 30
0.0
  3
SW_DOWELSYMBOL_0
  1
SW_DOWELSYMBOL_0
  0
CIRCLE
  5
12E
330
12B
100
AcDbEntity
  8
해칭선
 62
     0
100
AcDbCircle
 10
0.0
 20
0.0
 30
0.0
 40
3.000000000000003
  0
HATCH
  5
12F
330
12B
100
AcDbEntity
  8
0
  6
Continuous
 62
     0
370
     0
100
AcDbHatch
 10
0.0
 20
0.0
 30
0.0
210
0.0
220
0.0
230
1.0
  2
SOLID
 70
     1
 71
     0
 91
        1
 92
        0
 93
        3
 72
     2
 10
0.0
 20
0.0
 40
3.000000000000003
 50
0.0
 51
90.0
 73
     1
 72
     1
 10
0.0
 20
3.000000000000003
 11
0.0
 21
0.0
 72
     1
 10
0.0
 20
0.0
 11
3.000000000000003
 21
0.0
 97
        0
 75
     0
 76
     1
 98
        1
 10
0.0
 20
0.0
  0
HATCH
  5
130
330
12B
100
AcDbEntity
  8
0
  6
Continuous
 62
     0
370
     0
100
AcDbHatch
 10
0.0
 20
0.0
 30
0.0
210
0.0
220
0.0
230
1.0
  2
SOLID
 70
     1
 71
     0
 91
        1
 92
        0
 93
        3
 72
     2
 10
0.0
 20
0.0
 40
3.000000000000003
 50
180.0
 51
270.0000000000007
 73
     1
 72
     1
 10
0.0
 20
-3.000000000000003
 11
0.0
 21
0.0
 72
     1
 10
0.0
 20
0.0
 11
-3.000000000000003
 21
0.0
 97
        0
 75
     0
 76
     1
 98
        1
 10
0.0
 20
0.0
  0
ENDBLK
  5
12D
330
12B
100
AcDbEntity
  8
0
100
AcDbBlockEnd
  0
BLOCK
  5
18F
330
18E
100
AcDbEntity
  8
0
100
AcDbBlockBegin
  2
*D7
 70
     1
 10
0.0
 20
0.0
 30
0.0
  3
*D7
  1
*D7
  0
LINE
  5
191
330
18E
100
AcDbEntity
  8
치수문자_일반주서
 62
     0
370
    -2
100
AcDbLine
 10
6.190624999999997
 20
0.8356504747706743
 30
0.0
 11
6.190624999999997
 21
10.75786090747641
 31
0.0
  0
LINE
  5
192
330
18E
100
AcDbEntity
  8
치수문자_일반주서
 62
     0
370
    -2
100
AcDbLine
 10
5.0
 20
0.7529116095363879
 30
0.0
 11
5.0
 21
10.75786090747641
 31
0.0
  0
LINE
  5
193
330
18E
100
AcDbEntity
  8
치수문자_일반주서
 62
     0
370
    -2
100
AcDbLine
 10
6.190624999999997
 20
10.75786090747641
 30
0.0
 11
29.190625
 21
10.75786090747641
 31
0.0
  0
LINE
  5
194
330
18E
100
AcDbEntity
  8
치수문자_일반주서
 62
     0
370
    -2
100
AcDbLine
 10
6.190624999999997
 20
10.75786090747641
 30
0.0
 11
5.0
 21
10.75786090747641
 31
0.0
  0
LINE
  5
195
330
18E
100
AcDbEntity
  8
치수문자_일반주서
 62
     0
370
    -2
100
AcDbLine
 10
8.690624999999997
 20
10.75786090747641
 30
0.0
 11
11.190625
 21
10.75786090747641
 31
0.0
  0
LINE
  5
196
330
18E
100
AcDbEntity
  8
치수문자_일반주서
 62
     0
370
    -2
100
AcDbLine
 10
2.5
 20
10.75786090747641
 30
0.0
 11
0.0
 21
10.75786090747641
 31
0.0
  0
SOLID
  5
197
330
18E
100
AcDbEntity
  8
치수문자_일반주서
 62
     0
100
AcDbTrace
 10
8.690624999999997
 20
11.17452757414308
 30
0.0
 11
8.690624999999997
 21
10.34119424080974
 31
0.0
 12
6.190624999999997
 22
10.75786090747641
 32
0.0
 13
6.190624999999997
 23
10.75786090747641
 33
0.0
  0
SOLID
  5
198
330
18E
100
AcDbEntity
  8
치수문자_일반주서
 62
     0
100
AcDbTrace
 10
2.5
 20
10.34119424080974
 30
0.0
 11
2.5
 21
11.17452757414308
 31
0.0
 12
5.0
 22
10.75786090747641
 32
0.0
 13
5.0
 23
10.75786090747641
 33
0.0
  0
MTEXT
  5
199
330
18E
100
AcDbEntity
  8
치수문자_일반주서
 62
     0
100
AcDbMText
 10
20.190625
 20
14.13286090747641
 30
0.0
 40
2.5
 41
0.0
 71
     2
 72
     1
  1
\A1;1.19 [3/64]
  7
SLDTEXTSTYLE0
 73
     1
 44
1.0
  0
POINT
  5
19A
330
18E
100
AcDbEntity
  8
Defpoints
 62
     0
100
AcDbPoint
 10
6.190624999999997
 20
0.7731504747706743
 30
0.0
  0
POINT
  5
19B
330
18E
100
AcDbEntity
  8
Defpoints
 62
     0
100
AcDbPoint
 10
5.0
 20
0.6904116095363879
 30
0.0
  0
POINT
  5
19C
330
18E
100
AcDbEntity
  8
Defpoints
 62
     0
100
AcDbPoint
 10
5.0
 20
10.75786090747641
 30
0.0
  0
ENDBLK
  5
190
330
18E
100
AcDbEntity
  8
0
100
AcDbBlockEnd
  0
BLOCK
  5
1A1
330
1A0
100
AcDbEntity
  8
0
100
AcDbBlockBegin
  2
*D8
 70
     1
 10
0.0
 20
0.0
 30
0.0
  3
*D8
  1
*D8
  0
LINE
  5
1A3
330
1A0
100
AcDbEntity
  8
치수문자_일반주서
 62
     0
370
    -2
100
AcDbLine
 10
53.17073402609715
 20
-16.6223420647031
 30
0.0
 11
53.17073402609715
 21
-6.700131631997362
 31
0.0
  0
LINE
  5
1A4
330
1A0
100
AcDbEntity
  8
치수문자_일반주서
 62
     0
370
    -2
100
AcDbLine
 10
51.98010902609715
 20
-16.70508092993738
 30
0.0
 11
51.98010902609715
 21
-6.700131631997362
 31
0.0
  0
LINE
  5
1A5
330
1A0
100
AcDbEntity
  8
치수문자_일반주서
 62
     0
370
    -2
100
AcDbLine
 10
53.17073402609715
 20
-6.700131631997362
 30
0.0
 11
76.17073402609715
 21
-6.700131631997362
 31
0.0
  0
LINE
  5
1A6
330
1A0
100
AcDbEntity
  8
치수문자_일반주서
 62
     0
370
    -2
100
AcDbLine
 10
53.17073402609715
 20
-6.700131631997362
 30
0.0
 11
51.98010902609715
 21
-6.700131631997362
 31
0.0
  0
LINE
  5
1A7
330
1A0
100
AcDbEntity
  8
치수문자_일반주서
 62
     0
370
    -2
100
AcDbLine
 10
55.67073402609715
 20
-6.700131631997362
 30
0.0
 11
58.17073402609715
 21
-6.700131631997362
 31
0.0
  0
LINE
  5
1A8
330
1A0
100
AcDbEntity
  8
치수문자_일반주서
 62
     0
370
    -2
100
AcDbLine
 10
49.48010902609715
 20
-6.700131631997362
 30
0.0
 11
46.98010902609715
 21
-6.700131631997362
 31
0.0
  0
SOLID
  5
1A9
330
1A0
100
AcDbEntity
  8
치수문자_일반주서
 62
     0
100
AcDbTrace
 10
55.67073402609715
 20
-6.283464965330695
 30
0.0
 11
55.67073402609715
 21
-7.116798298664029
 31
0.0
 12
53.17073402609715
 22
-6.700131631997362
 32
0.0
 13
53.17073402609715
 23
-6.700131631997362
 33
0.0
  0
SOLID
  5
1AA
330
1A0
100
AcDbEntity
  8
치수문자_일반주서
 62
     0
100
AcDbTrace
 10
49.48010902609715
 20
-7.116798298664029
 30
0.0
 11
49.48010902609715
 21
-6.283464965330695
 31
0.0
 12
51.98010902609715
 22
-6.700131631997362
 32
0.0
 13
51.98010902609715
 23
-6.700131631997362
 33
0.0
  0
MTEXT
  5
1AB
330
1A0
100
AcDbEntity
  8
치수문자_일반주서
 62
     0
100
AcDbMText
 10
67.17073402609715
 20
-3.325131631997362
 30
0.0
 40
2.5
 41
0.0
 71
     2
 72
     1
  1
\A1;1.19 [3/64]
  7
SLDTEXTSTYLE0
 73
     1
 44
1.0
  0
POINT
  5
1AC
330
1A0
100
AcDbEntity
  8
Defpoints
 62
     0
100
AcDbPoint
 10
53.17073402609715
 20
-16.6848420647031
 30
0.0
  0
POINT
  5
1AD
330
1A0
100
AcDbEntity
  8
Defpoints
 62
     0
100
AcDbPoint
 10
51.98010902609715
 20
-16.76758092993738
 30
0.0
  0
POINT
  5
1AE
330
1A0
100
AcDbEntity
  8
Defpoints
 62
     0
100
AcDbPoint
 10
51.98010902609715
 20
-6.700131631997362
 30
0.0
  0
ENDBLK
  5
1A2
330
1A0
100
AcDbEntity
  8
0
100
AcDbBlockEnd
  0
ENDSEC
  0
SECTION
  2
ENTITIES
  0
LINE
  5
96
330
1F
100
AcDbEntity
  8
외형선
  6
Continuous
370
    15
100
AcDbLine
 10
16.34729051085746
 20
-2.38125
 30
0.0
 11
23.01907809106689
 21
-0.5935499058108857
 31
0.0
  0
LINE
  5
97
330
1F
100
AcDbEntity
  8
외형선
  6
Continuous
370
    15
100
AcDbLine
 10
23.01907809106689
 20
0.5935499058108874
 30
0.0
 11
16.34729051085746
 21
2.38125
 31
0.0
  0
LINE
  5
98
330
1F
100
AcDbEntity
  8
외형선
  6
Continuous
370
    15
100
AcDbLine
 10
16.34729051085746
 20
2.381249999999999
 30
0.0
 11
-16.34729051085746
 21
2.381249999999997
 31
0.0
  0
LINE
  5
99
330
1F
100
AcDbEntity
  8
외형선
  6
Continuous
370
    15
100
AcDbLine
 10
-16.34729051085746
 20
-2.381250000000001
 30
0.0
 11
16.34729051085746
 21
-2.381249999999999
 31
0.0
  0
LINE
  5
9C
330
1F
100
AcDbEntity
  8
외형선
  6
Continuous
370
    15
100
AcDbLine
 10
23.68445405963819
 20
0.2394618465654607
 30
0.0
 11
23.65749527016571
 21
0.2532150287942891
 31
0.0
  0
LINE
  5
9D
330
1F
100
AcDbEntity
  8
외형선
  6
Continuous
370
    15
100
AcDbLine
 10
23.81249999999999
 20
0.1741384701855523
 30
0.0
 11
23.68445405963819
 21
0.2394618465654607
 31
0.0
  0
SPLINE
  5
9E
330
1F
100
AcDbEntity
  8
외형선
  6
Continuous
370
    15
100
AcDbSpline
210
0.0
220
0.0
230
1.0
 70
     8
 71
     3
 72
    10
 73
     6
 74
     0
 42
0.000000001
 43
0.00000001
 40
0.0
 40
0.0
 40
0.0
 40
0.0
 40
0.1638873047685493
 40
0.7611252891582325
 40
1.0
 40
1.0
 40
1.0
 40
1.0
 10
23.46239435949341
 20
0.4564646996320073
 30
0.0
 10
23.44865929234331
 20
0.4570877179217646
 30
0.0
 10
23.38487090451798
 20
0.4599811389625953
 30
0.0
 10
23.27723008821801
 20
0.4629277902867276
 30
0.0
 10
23.18536280099589
 20
0.4672182257787429
 30
0.0
 10
23.15911661217929
 20
0.4684439894148957
 30
0.0
  0
LINE
  5
9F
330
1F
100
AcDbEntity
  8
외형선
  6
Continuous
370
    15
100
AcDbLine
 10
23.01263893875741
 20
-0.4754736742093059
 30
0.0
 11
23.64076184636418
 21
-0.4719401916862144
 31
0.0
  0
LINE
  5
A0
330
1F
100
AcDbEntity
  8
0
  6
Continuous
 62
     1
370
    25
100
AcDbLine
 10
23.93143206168858
 20
0.1180263054662118
 30
0.0
 11
23.82117327399619
 21
0.1700464182004003
 31
0.0
1001
PE_URL
1000

  0
SPLINE
  5
A1
330
1F
100
AcDbEntity
  8
0
  6
Continuous
 62
     1
370
    25
100
AcDbSpline
210
0.0
220
0.0
230
1.0
 70
     8
 71
     3
 72
    10
 73
     6
 74
     0
 42
0.000000001
 43
0.00000001
 40
0.0
 40
0.0
 40
0.0
 40
0.0
 40
0.2604817444871663
 40
0.5970288346849748
 40
1.0
 40
1.0
 40
1.0
 40
1.0
 10
25.10318257304505
 20
0.3996299716957454
 30
0.0
 10
25.02285436328999
 20
0.3961041265509412
 30
0.0
 10
24.83874066443247
 20
0.3880228261810189
 30
0.0
 10
24.52676518786919
 20
0.3968367915968884
 30
0.0
 10
24.29199028632152
 20
0.4270746782751944
 30
0.0
 10
24.16405900814399
 20
0.4435516162555431
 30
0.0
1001
PE_URL
1000

  0
SPLINE
  5
A2
330
1F
100
AcDbEntity
  8
0
  6
Continuous
 62
     1
370
    25
100
AcDbSpline
210
0.0
220
0.0
230
1.0
 70
     8
 71
     3
 72
     9
 73
     5
 74
     0
 42
0.000000001
 43
0.00000001
 40
0.0
 40
0.0
 40
0.0
 40
0.0
 40
0.6113215758274311
 40
0.9999999999999999
 40
0.9999999999999999
 40
0.9999999999999999
 40
0.9999999999999999
 10
24.16405900814399
 20
-0.4435516162555413
 30
0.0
 10
24.25334221474049
 20
-0.4308367840167082
 30
0.0
 10
24.39939170837347
 20
-0.4100378579823645
 30
0.0
 10
24.54290372334313
 20
-0.4033715496224097
 30
0.0
 10
24.59868374717136
 20
-0.400780499394014
 30
0.0
1001
PE_URL
1000

  0
SPLINE
  5
A3
330
1F
100
AcDbEntity
  8
외형선
  6
Continuous
370
    15
100
AcDbSpline
210
0.0
220
0.0
230
1.0
 70
    24
 71
     3
 72
    10
 73
     6
 74
     0
 42
0.000000001
 43
0.00000001
 40
0.0
 40
0.0
 40
0.0
 40
0.0
 40
0.3056019140091517
 40
0.6528009570045761
 40
1.0
 40
1.0
 40
1.0
 40
1.0
 10
23.01249999999999
 20
0.5113021136898014
 30
0.0
 10
23.01249999999999
 20
0.5389640013159581
 30
0.0
 10
23.01249999999999
 20
0.5980529856682205
 30
0.0
 10
23.01249999999999
 20
0.6036170999052219
 30
0.0
 10
23.01249999999999
 20
0.5486015065656978
 30
0.0
 10
23.01249999999999
 20
0.5210937098959357
 30
0.0
  0
LINE
  5
A4
330
1F
100
AcDbEntity
  8
외형선
  6
Continuous
370
    15
100
AcDbLine
 10
23.01249999999999
 20
0.5210937098959358
 30
0.0
 11
23.01249999999999
 21
0.4214336871764306
 31
0.0
  0
SPLINE
  5
A5
330
1F
100
AcDbEntity
  8
외형선
  6
Continuous
370
    15
100
AcDbSpline
210
0.0
220
0.0
230
1.0
 70
    24
 71
     3
 72
    14
 73
    10
 74
     0
 42
0.000000001
 43
0.00000001
 40
0.0
 40
0.0
 40
0.0
 40
0.0
 40
0.1517525612516714
 40
0.3035051225033429
 40
0.455257683755014
 40
0.6070102450066854
 40
0.7587628062583566
 40
0.9105153675100285
 40
1.0
 40
1.0
 40
1.0
 40
1.0
 10
23.01249999999999
 20
0.4214336871764303
 30
0.0
 10
23.01249999999999
 20
0.3660550168596997
 30
0.0
 10
23.01249999999999
 20
0.2552976762262384
 30
0.0
 10
23.01249999999999
 20
0.0424751024218878
 30
0.0
 10
23.01249999999999
 20
-0.1716566287884742
 30
0.0
 10
23.01249999999999
 20
-0.3659706544254918
 30
0.0
 10
23.01249999999999
 20
-0.5103364513682217
 30
0.0
 10
23.01249999999999
 20
-0.5899673374977985
 30
0.0
 10
23.01249999999999
 20
-0.5871622089492771
 30
0.0
 10
23.01249999999999
 20
-0.586121673311475
 30
0.0
  0
LINE
  5
A6
330
1F
100
AcDbEntity
  8
외형선
  6
Continuous
370
    15
100
AcDbLine
 10
16.34729051085746
 20
2.38125
 30
0.0
 11
16.34729051085746
 21
-2.38125
 31
0.0
  0
SPLINE
  5
A9
330
1F
100
AcDbEntity
  8
외형선
  6
Continuous
370
    15
100
AcDbSpline
210
0.0
220
0.0
230
1.0
 70
     8
 71
     3
 72
    14
 73
    10
 74
     0
 42
0.000000001
 43
0.00000001
 40
0.0
 40
0.0
 40
0.0
 40
0.0
 40
0.2499999999999999
 40
0.2499999999999999
 40
0.4999999999999998
 40
0.4999999999999998
 40
0.7499999999999999
 40
0.7499999999999999
 40
1.0
 40
1.0
 40
1.0
 40
1.0
 10
23.81249999999678
 20
-0.012890968478353
 30
0.0
 10
23.74498915138948
 20
0.0141648089005116
 30
0.0
 10
23.67718021493232
 20
0.0413400485387245
 30
0.0
 10
23.5447560855592
 20
0.0944105970182731
 30
0.0
 10
23.47995966580095
 20
0.1203394328841993
 30
0.0
 10
23.34569199099354
 20
0.1709677656666481
 30
0.0
 10
23.27765570048606
 20
0.1954664817717954
 30
0.0
 10
23.14360983062738
 20
0.2414570394348284
 30
0.0
 10
23.07901578451916
 20
0.2628129629574103
 30
0.0
 10
23.01262587806669
 20
0.2825960234326619
 30
0.0
  0
SPLINE
  5
AA
330
1F
100
AcDbEntity
  8
외형선
  6
Continuous
370
    15
100
AcDbSpline
210
0.0
220
0.0
230
1.0
 70
     8
 71
     3
 72
    14
 73
    10
 74
     0
 42
0.000000001
 43
0.00000001
 40
0.0
 40
0.0
 40
0.0
 40
0.0
 40
0.25
 40
0.25
 40
0.5
 40
0.5
 40
0.75
 40
0.75
 40
1.0
 40
1.0
 40
1.0
 40
1.0
 10
23.81249999999218
 20
0.0060587519575287
 30
0.0
 10
23.74498700426972
 20
0.0447275962233894
 30
0.0
 10
23.67717590257443
 20
0.083410777505435
 30
0.0
 10
23.54474776306596
 20
0.1586495551544493
 30
0.0
 10
23.47994910469115
 20
0.1952556818608292
 30
0.0
 10
23.34567693057616
 20
0.2664135850541
 30
0.0
 10
23.27763845507741
 20
0.3006800576086379
 30
0.0
 10
23.14358870732635
 20
0.3646639200245813
 30
0.0
 10
23.07899293455965
 20
0.3941959306791455
 30
0.0
 10
23.01260054041398
 20
0.4213618573016815
 30
0.0
  0
SPLINE
  5
AB
330
1F
100
AcDbEntity
  8
외형선
  6
Continuous
370
    15
100
AcDbSpline
210
0.0
220
0.0
230
1.0
 70
     8
 71
     3
 72
    14
 73
    10
 74
     0
 42
0.000000001
 43
0.00000001
 40
0.0
 40
0.0
 40
0.0
 40
0.0
 40
0.25
 40
0.25
 40
0.5
 40
0.5
 40
0.75
 40
0.75
 40
1.0
 40
1.0
 40
1.0
 40
1.0
 10
23.81249999999223
 20
0.1702284535146172
 30
0.0
 10
23.74499590870204
 20
0.2072797165612819
 30
0.0
 10
23.67719378659526
 20
0.2432945742315726
 30
0.0
 10
23.54478227789557
 20
0.3112843875140496
 30
0.0
 10
23.47999290310085
 20
0.3433245271855122
 30
0.0
 10
23.34573938844256
 20
0.4034421051433499
 30
0.0
 10
23.27770997460229
 20
0.4312573588919618
 30
0.0
 10
23.14367630970111
 20
0.4808430884588448
 30
0.0
 10
23.07908769583866
 20
0.5024952792294494
 30
0.0
 10
23.01270561878421
 20
0.5210880230171819
 30
0.0
  0
LINE
  5
AC
330
1F
100
AcDbEntity
  8
외형선
  6
Continuous
370
    15
100
AcDbLine
 10
23.81249999999999
 20
0.1702284535103559
 30
0.0
 11
23.81249999999999
 21
0.0060587519530558
 31
0.0
  0
SPLINE
  5
AD
330
1F
100
AcDbEntity
  8
외형선
  6
Continuous
370
    15
100
AcDbSpline
210
0.0
220
0.0
230
1.0
 70
     8
 71
     3
 72
     9
 73
     5
 74
     0
 42
0.000000001
 43
0.00000001
 40
0.0
 40
0.0
 40
0.0
 40
0.0
 40
0.5863429208167552
 40
1.0
 40
1.0
 40
1.0
 40
1.0
 10
23.81249999999999
 20
0.4760220739635218
 30
0.0
 10
23.74423180345716
 20
0.4764026494465606
 30
0.0
 10
23.62780130840193
 20
0.477051715836769
 30
0.0
 10
23.51139403819734
 20
0.4558186701701354
 30
0.0
 10
23.46324134680881
 20
0.4470354705175115
 30
0.0
  0
SPLINE
  5
AE
330
1F
100
AcDbEntity
  8
외형선
  6
Continuous
370
    15
100
AcDbSpline
210
0.0
220
0.0
230
1.0
 70
    24
 71
     3
 72
    12
 73
     8
 74
     0
 42
0.000000001
 43
0.00000001
 40
0.0
 40
0.0
 40
0.0
 40
0.0
 40
0.2788198749642266
 40
0.4788238823662092
 40
0.6846280195322204
 40
0.8624509771440804
 40
0.9999999999999999
 40
0.9999999999999999
 40
0.9999999999999999
 40
0.9999999999999999
 10
23.81249999999999
 20
0.4760220739635217
 30
0.0
 10
23.81249999999999
 20
0.4653047694929444
 30
0.0
 10
23.81249999999999
 20
0.446899692251729
 30
0.0
 10
23.81249999999999
 20
0.3900805479332623
 30
0.0
 10
23.81249999999999
 20
0.3274529694288001
 30
0.0
 10
23.81249999999999
 20
0.2607994692446293
 30
0.0
 10
23.81249999999999
 20
0.2136637732103176
 30
0.0
 10
23.81249999999999
 20
0.1931056090971439
 30
0.0
  0
SPLINE
  5
AF
330
1F
100
AcDbEntity
  8
외형선
  6
Continuous
370
    15
100
AcDbSpline
210
0.0
220
0.0
230
1.0
 70
     8
 71
     3
 72
    14
 73
    10
 74
     0
 42
0.000000001
 43
0.00000001
 40
0.0
 40
0.0
 40
0.0
 40
0.0
 40
0.2500000000000001
 40
0.2500000000000001
 40
0.5000000000000001
 40
0.5000000000000001
 40
0.7500000000000002
 40
0.7500000000000002
 40
1.0
 40
1.0
 40
1.0
 40
1.0
 10
23.81249999999811
 20
-0.4760220739635465
 30
0.0
 10
23.74499025815985
 20
-0.4769790371808934
 30
0.0
 10
23.67718243781339
 20
-0.4748965120679792
 30
0.0
 10
23.54476037554437
 20
-0.4648841221901584
 30
0.0
 10
23.47996510970187
 20
-0.4570048551846237
 30
0.0
 10
23.34569975414949
 20
-0.4354202902237402
 30
0.0
 10
23.27766458994383
 20
-0.4217402536821793
 30
0.0
 10
23.14362071905063
 20
-0.389383900611081
 30
0.0
 10
23.07902756287019
 20
-0.3708750589800217
 30
0.0
 10
23.01263893875741
 20
-0.3500133246053957
 30
0.0
  0
SPLINE
  5
B0
330
1F
100
AcDbEntity
  8
외형선
  6
Continuous
370
    15
100
AcDbSpline
210
0.0
220
0.0
230
1.0
 70
    24
 71
     3
 72
    12
 73
     8
 74
     0
 42
0.000000001
 43
0.00000001
 40
0.0
 40
0.0
 40
0.0
 40
0.0
 40
0.1215040642221613
 40
0.3001941604467018
 40
0.4738482755667329
 40
0.6525383717930842
 40
1.0
 40
1.0
 40
1.0
 40
1.0
 10
23.81249999999999
 20
-0.0438033155334343
 30
0.0
 10
23.81249999999999
 20
-0.0680794651918322
 30
0.0
 10
23.81249999999999
 20
-0.1280573631513315
 30
0.0
 10
23.81249999999999
 20
-0.2149651411765432
 30
0.0
 10
23.81249999999999
 20
-0.3023423226683623
 30
0.0
 10
23.81249999999999
 20
-0.4026075914836576
 30
0.0
 10
23.81249999999999
 20
-0.4468229831536895
 30
0.0
 10
23.81249999999999
 20
-0.4760220739635199
 30
0.0
  0
LINE
  5
B1
330
1F
100
AcDbEntity
  8
외형선
  6
Continuous
370
    15
100
AcDbLine
 10
23.14158336846706
 20
-0.4747483020197052
 30
0.0
 11
23.01270561878421
 21
-0.5210880230171803
 31
0.0
  0
SPLINE
  5
B2
330
1F
100
AcDbEntity
  8
0
  6
Continuous
 62
     1
370
    25
100
AcDbSpline
210
0.0
220
0.0
230
1.0
 70
     8
 71
     3
 72
    18
 73
    14
 74
     0
 42
0.000000001
 43
0.00000001
 40
0.0
 40
0.0
 40
0.0
 40
0.0
 40
0.25
 40
0.25
 40
0.375
 40
0.375
 40
0.5
 40
0.5
 40
0.625
 40
0.625
 40
0.75
 40
0.75
 40
1.0
 40
1.0
 40
1.0
 40
1.0
 10
25.39999999999999
 20
-0.5649163612146147
 30
0.0
 10
25.27099301874438
 20
-0.541018163039804
 30
0.0
 10
25.13342579472988
 20
-0.5023793341692426
 30
0.0
 10
24.93629793330044
 20
-0.4281758226118097
 30
0.0
 10
24.8721015665553
 20
-0.4008716657793333
 30
0.0
 10
24.7390218051588
 20
-0.3410039173397394
 30
0.0
 10
24.67155264777529
 20
-0.308611609040462
 30
0.0
 10
24.53849397831758
 20
-0.2407054847218275
 30
0.0
 10
24.4743182307077
 20
-0.2054687451405214
 30
0.0
 10
24.34286505967346
 20
-0.1323710682025145
 30
0.0
 10
24.2756029985895
 20
-0.0944911598397468
 30
0.0
 10
24.0747616078951
 20
0.0200411807902548
 30
0.0
 10
23.94640833927118
 20
0.0967296031791845
 30
0.0
 10
23.81249999999223
 20
0.1702284535146122
 30
0.0
1001
PE_URL
1000

  0
SPLINE
  5
B3
330
1F
100
AcDbEntity
  8
0
  6
Continuous
 62
     1
370
    25
100
AcDbSpline
210
0.0
220
0.0
230
1.0
 70
     8
 71
     3
 72
    12
 73
     8
 74
     0
 42
0.000000001
 43
0.00000001
 40
0.0
 40
0.0
 40
0.0
 40
0.0
 40
0.2005350339943409
 40
0.3995688228379385
 40
0.6005973890149078
 40
0.800588774054713
 40
1.0
 40
1.0
 40
1.0
 40
1.0
 10
25.39999999999999
 20
-0.4696850511317027
 30
0.0
 10
25.30018264487723
 20
-0.4477523541191196
 30
0.0
 10
25.10129518720574
 20
-0.4040511526261857
 30
0.0
 10
24.80309972733447
 20
-0.2930958659055585
 30
0.0
 10
24.50415498926829
 20
-0.1625401979243721
 30
0.0
 10
24.2056943428348
 20
-0.0153231241473322
 30
0.0
 10
24.00696496066714
 20
0.0800860039641373
 30
0.0
 10
23.90774460346502
 20
0.1277212739393483
 30
0.0
1001
PE_URL
1000

  0
LINE
  5
B4
330
1F
100
AcDbEntity
  8
0
  6
Continuous
 62
     1
370
    25
100
AcDbLine
 10
25.39999999999997
 20
-0.5649163612146147
 30
0.0
 11
25.39999999999999
 21
-0.4696850511317027
 31
0.0
1001
PE_URL
1000

  0
SPLINE
  5
B5
330
1F
100
AcDbEntity
  8
0
  6
Continuous
 62
     1
370
    25
100
AcDbSpline
210
0.0
220
0.0
230
1.0
 70
     8
 71
     3
 72
    18
 73
    14
 74
     0
 42
0.000000001
 43
0.00000001
 40
0.0
 40
0.0
 40
0.0
 40
0.0
 40
0.25
 40
0.25
 40
0.375
 40
0.375
 40
0.5
 40
0.5
 40
0.625
 40
0.625
 40
0.75
 40
0.75
 40
1.0
 40
1.0
 40
1.0
 40
1.0
 10
25.39999999999999
 20
-0.5948093509413963
 30
0.0
 10
25.27099301874438
 20
-0.5916952824287178
 30
0.0
 10
25.13342579472987
 20
-0.5735271305154384
 30
0.0
 10
24.93629793330043
 20
-0.5262336949640395
 30
0.0
 10
24.87210156655529
 20
-0.507289320508879
 30
0.0
 10
24.73902180515879
 20
-0.4629222059217353
 30
0.0
 10
24.67155264777528
 20
-0.4376014112299443
 30
0.0
 10
24.53849397831757
 20
-0.382089146329272
 30
0.0
 10
24.47431823070768
 20
-0.3521463957099912
 30
0.0
 10
24.34286505967345
 20
-0.2878657336195267
 30
0.0
 10
24.27560299858948
 20
-0.2534907060965706
 30
0.0
 10
24.07476160789508
 20
-0.1464186987683579
 30
0.0
 10
23.94640833927116
 20
-0.0706387884503308
 30
0.0
 10
23.81249999999222
 20
0.0060587519575073
 30
0.0
1001
PE_URL
1000

  0
LINE
  5
B6
330
1F
100
AcDbEntity
  8
0
  6
Continuous
 62
     1
370
    25
100
AcDbLine
 10
23.92489516982705
 20
-0.0569990957978326
 30
0.0
 11
23.81249999999999
 21
-0.0128909684796372
 31
0.0
1001
PE_URL
1000

  0
LINE
  5
B7
330
1F
100
AcDbEntity
  8
0
  6
Continuous
 62
     1
370
    25
100
AcDbLine
 10
25.39999999999999
 20
-0.5948093509413964
 30
0.0
 11
25.40000000000002
 21
-0.5649163612146134
 31
0.0
1001
PE_URL
1000

  0
SPLINE
  5
B8
330
1F
100
AcDbEntity
  8
0
  6
Continuous
 62
     1
370
    25
100
AcDbSpline
210
0.0
220
0.0
230
1.0
 70
     8
 71
     3
 72
     8
 73
     4
 74
     0
 42
0.000000001
 43
0.00000001
 40
0.0
 40
0.0
 40
0.0
 40
0.0
 40
1.0
 40
1.0
 40
1.0
 40
1.0
 10
25.03215937932358
 20
0.1659924545281305
 30
0.0
 10
25.01083471749005
 20
0.1912257280778817
 30
0.0
 10
24.99178206378125
 20
0.2155299483163711
 30
0.0
 10
24.97557185925063
 20
0.2386718545682499
 30
0.0
1001
PE_URL
1000

  0
LINE
  5
B9
330
1F
100
AcDbEntity
  8
0
  6
Continuous
 62
     1
370
    25
100
AcDbLine
 10
24.98307079285187
 20
0.2449642069963698
 30
0.0
 11
25.39999999999999
 21
0.0000000000000012
 31
0.0
1001
PE_URL
1000

  0
LINE
  5
BA
330
1F
100
AcDbEntity
  8
0
  6
Continuous
 62
     1
370
    25
100
AcDbLine
 10
25.39999999999999
 20
0.0000000000000012
 30
0.0
 11
25.39999999999999
 21
-0.1590930663082718
 31
0.0
1001
PE_URL
1000

  0
SPLINE
  5
BB
330
1F
100
AcDbEntity
  8
0
  6
Continuous
 62
     1
370
    25
100
AcDbSpline
210
0.0
220
0.0
230
1.0
 70
     8
 71
     3
 72
    10
 73
     6
 74
     0
 42
0.000000001
 43
0.00000001
 40
0.0
 40
0.0
 40
0.0
 40
0.0
 40
0.5
 40
0.5
 40
1.0
 40
1.0
 40
1.0
 40
1.0
 10
25.39999999999999
 20
-0.1590930663082717
 30
0.0
 10
25.33633406132907
 20
-0.1090386594518439
 30
0.0
 10
25.27373104768476
 20
-0.056932128012898
 30
0.0
 10
25.15069539714853
 20
0.0514711490151286
 30
0.0
 10
25.08968536489288
 20
0.1083339026209385
 30
0.0
 10
25.0321593793231
 20
0.1659924545269204
 30
0.0
1001
PE_URL
1000

  0
SPLINE
  5
BC
330
1F
100
AcDbEntity
  8
0
  6
Continuous
 62
     1
370
    25
100
AcDbSpline
210
0.0
220
0.0
230
1.0
 70
     8
 71
     3
 72
    14
 73
    10
 74
     0
 42
0.000000001
 43
0.00000001
 40
0.0
 40
0.0
 40
0.0
 40
0.0
 40
0.25
 40
0.25
 40
0.5
 40
0.5
 40
0.75
 40
0.75
 40
1.0
 40
1.0
 40
1.0
 40
1.0
 10
25.03215937932364
 20
0.1659924545281065
 30
0.0
 10
24.93043551543569
 20
0.2100428013959774
 30
0.0
 10
24.83128913354673
 20
0.2513180376443624
 30
0.0
 10
24.62524701515916
 20
0.3263679725103434
 30
0.0
 10
24.52431605272864
 20
0.3593607302111063
 30
0.0
 10
24.32287203089305
 20
0.4140448375432011
 30
0.0
 10
24.21818470760792
 20
0.4360009456452722
 30
0.0
 10
24.01437301966577
 20
0.4661688071764489
 30
0.0
 10
23.91548299362196
 20
0.4745622707673462
 30
0.0
 10
23.81249999999811
 20
0.4760220739635483
 30
0.0
1001
PE_URL
1000

  0
SPLINE
  5
BD
330
1F
100
AcDbEntity
  8
0
  6
Continuous
 62
     1
370
    25
100
AcDbSpline
210
0.0
220
0.0
230
1.0
 70
    24
 71
     3
 72
     8
 73
     4
 74
     0
 42
0.000000001
 43
0.00000001
 40
0.0
 40
0.0
 40
0.0
 40
0.0
 40
1.0
 40
1.0
 40
1.0
 40
1.0
 10
25.39999999999999
 20
-0.4696850511317026
 30
0.0
 10
25.39999999999999
 20
-0.3976750089009508
 30
0.0
 10
25.39999999999999
 20
-0.2853761080746727
 30
0.0
 10
25.39999999999999
 20
-0.1590930663082909
 30
0.0
1001
PE_URL
1000

  0
SPLINE
  5
BE
330
1F
100
AcDbEntity
  8
외형선
  6
Continuous
370
    15
100
AcDbSpline
210
0.0
220
0.0
230
1.0
 70
    24
 71
     3
 72
    13
 73
     9
 74
     0
 42
0.000000001
 43
0.00000001
 40
0.0
 40
0.0
 40
0.0
 40
0.0
 40
0.138637744272894
 40
0.2791585150237352
 40
0.4790686077896684
 40
0.6847761067888227
 40
0.862515565182031
 40
1.0
 40
1.0
 40
1.0
 40
1.0
 10
23.81249999999999
 20
0.4760220739635217
 30
0.0
 10
23.81249999999999
 20
0.4715126027058625
 30
0.0
 10
23.81249999999999
 20
0.4624324109699641
 30
0.0
 10
23.81249999999999
 20
0.4344643186565886
 30
0.0
 10
23.81249999999999
 20
0.3903866411806308
 30
0.0
 10
23.81249999999999
 20
0.3273821215242886
 30
0.0
 10
23.81249999999999
 20
0.2608117601308518
 30
0.0
 10
23.81249999999999
 20
0.2136675058687227
 30
0.0
 10
23.81249999999999
 20
0.1931056090971439
 30
0.0
  0
SPLINE
  5
BF
330
1F
100
AcDbEntity
  8
0
  6
Continuous
 62
     1
370
    25
100
AcDbSpline
210
0.0
220
0.0
230
1.0
 70
    24
 71
     3
 72
     8
 73
     4
 74
     0
 42
0.000000001
 43
0.00000001
 40
0.0
 40
0.0
 40
0.0
 40
0.0
 40
1.0
 40
1.0
 40
1.0
 40
1.0
 10
25.03744708401942
 20
0.2905913328598057
 30
0.0
 10
25.01785925907034
 20
0.274155196169462
 30
0.0
 10
24.99716616974033
 20
0.2567916325447814
 30
0.0
 10
24.97557185924658
 20
0.2386718545739503
 30
0.0
1001
PE_URL
1000

  0
LINE
  5
C0
330
1F
100
AcDbEntity
  8
0
  6
Continuous
 62
     1
370
    25
100
AcDbLine
 10
25.39999999999999
 20
0.4167187500000008
 30
0.0
 11
25.10314926888374
 21
0.3994864125930161
 31
0.0
1001
PE_URL
1000

  0
SPLINE
  5
C1
330
1F
100
AcDbEntity
  8
0
  6
Continuous
 62
     1
370
    25
100
AcDbSpline
210
0.0
220
0.0
230
1.0
 70
     8
 71
     3
 72
    14
 73
    10
 74
     0
 42
0.000000001
 43
0.00000001
 40
0.0
 40
0.0
 40
0.0
 40
0.0
 40
0.000283652241095
 40
0.000283652241095
 40
0.000283652241095
 40
0.0004260012873325
 40
0.0004260012873325
 40
0.0004260012873325
 40
0.0004899499954576
 40
0.0004899499954576
 40
0.0004899499954576
 40
0.0004899499954576
 10
25.39999999999999
 20
0.4167187500000011
 30
0.0
 10
25.32909714699203
 20
0.3974048485100209
 30
0.0
 10
25.25856489278479
 20
0.37550687532584
 30
0.0
 10
25.18871239244238
 20
0.3505075974722426
 30
0.0
 10
25.1536452311575
 20
0.3379575283379924
 30
0.0
 10
25.11873683623609
 20
0.3246154814376866
 30
0.0
 10
25.08405301748821
 20
0.3103652524066136
 30
0.0
 10
25.06847130020091
 20
0.3039633322012411
 30
0.0
 10
25.05293328133053
 20
0.2973767323586553
 30
0.0
 10
25.03744708403498
 20
0.2905913328666569
 30
0.0
1001
PE_URL
1000

  0
LINE
  5
C2
330
1F
100
AcDbEntity
  8
0
  6
Continuous
 62
     1
370
    25
100
AcDbLine
 10
24.16548312152674
 20
-0.4403371828167953
 30
0.0
 11
23.81249999999999
 21
-0.4760220739635201
 31
0.0
1001
PE_URL
1000

  0
SPLINE
  5
C3
330
1F
100
AcDbEntity
  8
외형선
  6
Continuous
370
    15
100
AcDbSpline
210
0.0
220
0.0
230
1.0
 70
    24
 71
     3
 72
    12
 73
     8
 74
     0
 42
0.000000001
 43
0.00000001
 40
0.0
 40
0.0
 40
0.0
 40
0.0
 40
0.1215040642221609
 40
0.3001941604467013
 40
0.4738482755667324
 40
0.652538371793083
 40
1.0
 40
1.0
 40
1.0
 40
1.0
 10
23.81249999999999
 20
-0.0438033155334343
 30
0.0
 10
23.81249999999999
 20
-0.0680794651918321
 30
0.0
 10
23.81249999999999
 20
-0.1280573631513313
 30
0.0
 10
23.81249999999999
 20
-0.2149651411765428
 30
0.0
 10
23.81249999999999
 20
-0.3023423226683619
 30
0.0
 10
23.81249999999999
 20
-0.4026075914836575
 30
0.0
 10
23.81249999999999
 20
-0.4468229831536894
 30
0.0
 10
23.81249999999999
 20
-0.4760220739635198
 30
0.0
  0
LINE
  5
C4
330
1F
100
AcDbEntity
  8
0
  6
Continuous
 62
     1
370
    25
100
AcDbLine
 10
25.39999999999999
 20
0.0000000000000012
 30
0.0
 11
25.39999999999999
 21
0.4167187500000011
 31
0.0
1001
PE_URL
1000

  0
SPLINE
  5
C5
330
1F
100
AcDbEntity
  8
0
  6
Continuous
 62
     1
370
    25
100
AcDbSpline
210
0.0
220
0.0
230
1.0
 70
     8
 71
     3
 72
    10
 73
     6
 74
     0
 42
0.000000001
 43
0.00000001
 40
0.0
 40
0.0
 40
0.0
 40
0.0
 40
0.1305916801046275
 40
0.5641799088897166
 40
1.0
 40
1.0
 40
1.0
 40
1.0
 10
24.59624682206253
 20
0.3996574094356376
 30
0.0
 10
24.63126031749648
 20
0.4163085973389555
 30
0.0
 10
24.78252501252151
 20
0.488244770199837
 30
0.0
 10
25.05001430889133
 20
0.5643767833558887
 30
0.0
 10
25.28313861811454
 20
0.5846478157909201
 30
0.0
 10
25.39999999999999
 20
0.5948093509413981
 30
0.0
1001
PE_URL
1000

  0
SPLINE
  5
C6
330
1F
100
AcDbEntity
  8
0
  6
Continuous
 62
     1
370
    25
100
AcDbSpline
210
0.0
220
0.0
230
1.0
 70
    24
 71
     3
 72
     8
 73
     4
 74
     0
 42
0.000000001
 43
0.00000001
 40
0.0
 40
0.0
 40
0.0
 40
0.0
 40
1.0
 40
1.0
 40
1.0
 40
1.0
 10
25.39999999999999
 20
0.4167187500000009
 30
0.0
 10
25.39999999999999
 20
0.4672396557612088
 30
0.0
 10
25.39999999999999
 20
0.5351812085597314
 30
0.0
 10
25.39999999999999
 20
0.5948093509413981
 30
0.0
1001
PE_URL
1000

  0
LINE
  5
C7
330
1F
100
AcDbEntity
  8
중심선
 62
     1
100
AcDbLine
 10
-26.9
 20
-0.0000000000000033
 30
0.0
 11
26.9
 21
0.0000000000000033
 31
0.0
  0
LINE
  5
C8
330
1F
100
AcDbEntity
  8
참조1
100
AcDbLine
 10
-0.0000000000000213
 20
-0.0000000000000035
 30
0.0
 11
-0.0000000000000124
 21
-40.00000000000001
 31
0.0
  0
LINE
  5
C9
330
1F
100
AcDbEntity
  8
참조1
100
AcDbLine
 10
-0.0000000000000124
 20
-40.00000000000001
 30
0.0
 11
-15.85321559669923
 21
-39.99999999999999
 31
0.0
  0
CIRCLE
  5
CA
330
1F
100
AcDbEntity
  8
해칭선
100
AcDbCircle
 10
0.0
 20
0.0
 30
0.0
 40
3.000000000000003
  0
INSERT
  5
CB
330
1F
100
AcDbEntity
  8
0
  6
Continuous
 62
     7
100
AcDbBlockReference
 66
     1
  2
블럭10
 10
-13.94027293212522
 20
-52.04717430164393
 30
0.0
  0
ATTRIB
  5
CC
330
CB
100
AcDbEntity
  8
FORMAT
 62
     2
100
AcDbText
 10
-23.12156822086651
 20
-49.97180738881174
 30
0.0
 40
4.233333333333333
  1
E2001003 [ 2 FLUTE ]
 41
0.75
  7
SLDTEXTSTYLE0
 11
-23.12156822086651
 21
-52.08847405547841
 31
0.0
100
AcDbAttribute
  2
AUTOATTR0
 70
     0
 74
     1
  0
SEQEND
  5
CD
330
CB
100
AcDbEntity
  8
0
  6
Continuous
 62
     7
  0
HATCH
  5
CE
330
1F
100
AcDbEntity
  8
중심선
100
AcDbHatch
 10
0.0
 20
0.0
 30
0.0
210
0.0
220
0.0
230
1.0
  2
SOLID
 70
     1
 71
     0
 91
        1
 92
        0
 93
        4
 72
     1
 10
-8.225363627744382
 20
-35.8
 11
-11.67163887158167
 21
-35.8
 72
     1
 10
-11.67163887158167
 20
-35.8
 11
-13.79986873078569
 21
-38.3363255805726
 72
     1
 10
-13.79986873078569
 20
-38.3363255805726
 11
-10.35356040183523
 21
-38.3362861512701
 72
     1
 10
-10.35356040183523
 20
-38.3362861512701
 11
-8.225363627744382
 21
-35.8
 97
        0
 75
     0
 76
     1
 98
        1
 10
13.60671167873049
 20
-0.0010749287238927
  0
HATCH
  5
CF
330
1F
100
AcDbEntity
  8
중심선
100
AcDbHatch
 10
0.0
 20
0.0
 30
0.0
210
0.0
220
0.0
230
1.0
  2
SOLID
 70
     1
 71
     0
 91
        1
 92
        0
 93
        4
 72
     1
 10
-3.212599636708411
 20
-35.80000000000003
 11
-6.658874880545721
 21
-35.8
 72
     1
 10
-6.658874880545721
 20
-35.8
 11
-11.1900128889031
 21
-41.20000000000002
 72
     1
 10
-11.1900128889031
 20
-41.20000000000002
 11
-7.743737645065821
 21
-41.20000000000002
 72
     1
 10
-7.743737645065821
 20
-41.20000000000002
 11
-3.212599636708411
 21
-35.80000000000003
 97
        0
 75
     0
 76
     1
 98
        1
 10
13.60671167873049
 20
-0.0010749287238927
  0
HATCH
  5
D0
330
1F
100
AcDbEntity
  8
중심선
100
AcDbHatch
 10
0.0
 20
0.0
 30
0.0
210
0.0
220
0.0
230
1.0
  2
SOLID
 70
     1
 71
     0
 91
        1
 92
        0
 93
        4
 72
     1
 10
1.800164354327459
 20
-35.8
 11
-1.646110889509632
 21
-35.8
 72
     1
 10
-1.646110889509632
 20
-35.8
 11
-8.694547791398904
 21
-44.20000000000002
 72
     1
 10
-8.694547791398904
 20
-44.20000000000002
 11
-5.248272547561623
 21
-44.20000000000002
 72
     1
 10
-5.248272547561623
 20
-44.20000000000002
 11
1.800164354327459
 21
-35.8
 97
        0
 75
     0
 76
     1
 98
        1
 10
13.60671167873049
 20
-0.0010749287238927
  0
HATCH
  5
D1
330
1F
100
AcDbEntity
  8
중심선
100
AcDbHatch
 10
0.0
 20
0.0
 30
0.0
210
0.0
220
0.0
230
1.0
  2
SOLID
 70
     1
 71
     0
 91
        1
 92
        0
 93
        6
 72
     3
 10
6.60005478533966
 20
-40.00000000005127
 11
3.960054785062283
 21
1.540882976769353E-10
 40
0.3939339440162628
 50
17.09539180608439
 51
320.0019657685077
 73
     0
 72
     1
 10
8.283054441040228
 20
-38.58789400463831
 11
10.58835631474129
 21
-36.65356729459039
 72
     3
 10
6.600054785286813
 20
-40.00000000000014
 11
6.600054785286829
 21
-1.278976924368180E-13
 40
0.636358354079598
 50
39.99873849337411
 51
368.4976242363724
 73
     1
 72
     1
 10
13.02538727718742
 20
-39.03999999993002
 11
5.280122092122735
 21
-39.03999999993
 72
     1
 10
5.280122092122735
 20
-39.03999999993
 11
5.280097047676801
 21
-40.95999999992991
 72
     1
 10
5.280097047676801
 20
-40.95999999992991
 11
9.721476817148838
 21
-40.95999999992988
 97
        0
 75
     0
 76
     1
 98
        1
 10
13.60671167873049
 20
-0.0010749287238927
  0
DIMENSION
  5
D2
330
1F
100
AcDbEntity
  8
치수문자_일반주서
100
AcDbDimension
  2
_D
 10
-33.40000000000001
 20
-2.381250000000065
 30
0.0
 11
-33.40000000000006
 21
17.63124999999997
 31
0.0
 70
   160
  1
%%c<>
 71
     2
 42
4.762500000000001
 52
-270.0
  3
SLDDIMSTYLE0
100
AcDbAlignedDimension
 13
-16.34729051085746
 23
2.38125
 33
0.0
 14
-16.34729051085746
 24
-2.381250000000001
 34
0.0
 50
90.0000000000002
100
AcDbRotatedDimension
1001
PE_URL
1000

1001
ACAD
1000
DSTYLE
1002
{
1070
   171
1070
     8
1070
   273
1070
     7
1070
    41
1040
2.5
1070
   140
1040
2.5
1002
}
  0
DIMENSION
  5
E7
330
1F
100
AcDbEntity
  8
치수문자_일반주서
100
AcDbDimension
  2
_D_1
 10
52.87248467827772
 20
0.5948093509415013
 30
0.0
 11
52.87248467827763
 21
15.5323093509415
 31
0.0
 70
   160
  1
%%c<>
 71
     2
 42
1.189618701882795
 52
-270.0
  3
SLDDIMSTYLE0
100
AcDbAlignedDimension
 13
25.39999999999999
 23
-0.5948093509413964
 33
0.0
 14
25.39999999999999
 24
0.5948093509413982
 34
0.0
 50
90.0000000000002
100
AcDbRotatedDimension
1001
PE_URL
1000

1001
ACAD
1000
DSTYLE
1002
{
1070
   171
1070
     8
1070
   273
1070
     7
1070
    41
1040
2.5
1070
   140
1040
2.5
1002
}
  0
DIMENSION
  5
FB
330
1F
100
AcDbEntity
  8
치수문자_일반주서
100
AcDbDimension
  2
_D_2
 10
23.81249999999999
 20
10.38125
 30
0.0
 11
39.0875
 21
10.38125
 31
0.0
 70
   160
  1
<>
 71
     2
 42
1.587500000000002
  3
SLDDIMSTYLE0
100
AcDbAlignedDimension
 13
25.39999999999999
 23
0.5948093509413982
 33
0.0
 14
23.81249999999999
 24
0.4760220739635217
 34
0.0
100
AcDbRotatedDimension
1001
PE_URL
1000

1001
ACAD
1000
DSTYLE
1002
{
1070
   171
1070
     8
1070
   273
1070
     7
1070
    41
1040
2.5
1070
   140
1040
2.5
1002
}
  0
DIMENSION
  5
110
330
1F
100
AcDbEntity
  8
치수문자_일반주서
100
AcDbDimension
  2
_D_3
 10
25.39999999999998
 20
18.38125
 30
0.0
 11
-0.0000000000000018
 21
18.38125
 31
0.0
 70
   160
  1
<>
 71
     2
 42
50.79999999999998
  3
SLDDIMSTYLE0
100
AcDbAlignedDimension
 13
-25.39999999999999
 23
0.5948093509413981
 33
0.0
 14
25.39999999999999
 24
0.5948093509413982
 34
0.0
100
AcDbRotatedDimension
1001
PE_URL
1000

1001
ACAD
1000
DSTYLE
1002
{
1070
   171
1070
     8
1070
   273
1070
     7
1070
    41
1040
2.5
1070
   140
1040
2.5
1002
}
  0
LINE
  5
124
330
1F
100
AcDbEntity
  8
참조1
100
AcDbLine
 10
82.11912503295503
 20
7.440000000000004
 30
0.0
 11
82.11912503295503
 21
-7.440000000000001
 31
0.0
  0
LINE
  5
125
330
1F
100
AcDbEntity
  8
참조1
100
AcDbLine
 10
94.81912503295503
 20
5.440000000000004
 30
0.0
 11
82.11912503295503
 21
5.440000000000004
 31
0.0
  0
SOLID
  5
126
330
1F
100
AcDbEntity
  8
참조1
100
AcDbTrace
 10
82.11912503295503
 20
5.440000000000004
 30
0.0
 11
88.46912503295502
 21
4.424000000000004
 31
0.0
 12
88.46912503295502
 22
6.456000000000004
 32
0.0
 13
88.46912503295502
 23
6.456000000000004
 33
0.0
  0
LINE
  5
127
330
1F
100
AcDbEntity
  8
참조1
100
AcDbLine
 10
94.81912503295503
 20
-5.440000000000001
 30
0.0
 11
82.11912503295503
 21
-5.440000000000001
 31
0.0
  0
SOLID
  5
128
330
1F
100
AcDbEntity
  8
참조1
100
AcDbTrace
 10
82.11912503295503
 20
-5.440000000000001
 30
0.0
 11
88.46912503295502
 21
-6.456000000000001
 31
0.0
 12
88.46912503295502
 22
-4.424000000000001
 32
0.0
 13
88.46912503295502
 23
-4.424000000000001
 33
0.0
  0
MTEXT
  5
129
330
1F
100
AcDbEntity
  8
참조1
100
AcDbMText
 10
91.50347516558102
 20
11.01029177718833
 30
0.0
 40
3.5
 41
0.0
 71
     1
 72
     1
  1
A
  7
SLDTEXTSTYLE0
 73
     1
 44
1.0
  0
MTEXT
  5
12A
330
1F
100
AcDbEntity
  8
참조1
100
AcDbMText
 10
91.50347516558102
 20
0.1302917771883265
 30
0.0
 40
3.5
 41
0.0
 71
     1
 72
     1
  1
A
  7
SLDTEXTSTYLE0
 73
     1
 44
1.0
  0
INSERT
  5
131
330
1F
100
AcDbEntity
  8
해칭선
100
AcDbBlockReference
  2
SW_DOWELSYMBOL_0
 10
0.0
 20
0.0
 30
0.0
  0
LINE
  5
227
330
1F
100
AcDbEntity
  8
외형선
  6
Continuous
370
    15
100
AcDbLine
 10
-16.34729051085746
 20
2.381249999999996
 30
0.0
 11
-23.01907809106689
 21
0.5935499058108817
 31
0.0
  0
LINE
  5
228
330
1F
100
AcDbEntity
  8
외형선
  6
Continuous
370
    15
100
AcDbLine
 10
-23.01907809106689
 20
-0.5935499058108924
 30
0.0
 11
-16.34729051085746
 21
-2.381250000000005
 31
0.0
  0
LINE
  5
229
330
1F
100
AcDbEntity
  8
외형선
  6
Continuous
370
    15
100
AcDbLine
 10
-23.68445405963819
 20
-0.2394618465654652
 30
0.0
 11
-23.65749527016571
 21
-0.253215028794294
 31
0.0
  0
LINE
  5
22A
330
1F
100
AcDbEntity
  8
외형선
  6
Continuous
370
    15
100
AcDbLine
 10
-23.81249999999999
 20
-0.1741384701855573
 30
0.0
 11
-23.68445405963819
 21
-0.2394618465654652
 31
0.0
  0
SPLINE
  5
22B
330
1F
100
AcDbEntity
  8
외형선
  6
Continuous
370
    15
100
AcDbSpline
210
0.0
220
0.0
230
1.0
 70
     8
 71
     3
 72
    10
 73
     6
 74
     0
 42
0.000000001
 43
0.00000001
 40
0.0
 40
0.0
 40
0.0
 40
0.0
 40
0.1638873047685493
 40
0.7611252891582325
 40
1.0
 40
1.0
 40
1.0
 40
1.0
 10
-23.4623943594934
 20
-0.4564646996320114
 30
0.0
 10
-23.44865929234331
 20
-0.4570877179217696
 30
0.0
 10
-23.38487090451798
 20
-0.4599811389626005
 30
0.0
 10
-23.27723008821801
 20
-0.4629277902867308
 30
0.0
 10
-23.18536280099589
 20
-0.4672182257787476
 30
0.0
 10
-23.15911661217929
 20
-0.4684439894149008
 30
0.0
  0
LINE
  5
22C
330
1F
100
AcDbEntity
  8
외형선
  6
Continuous
370
    15
100
AcDbLine
 10
-23.01263893875741
 20
0.4754736742093009
 30
0.0
 11
-23.64076184636418
 21
0.4719401916862118
 31
0.0
  0
LINE
  5
22D
330
1F
100
AcDbEntity
  8
0
  6
Continuous
 62
     1
370
    25
100
AcDbLine
 10
-23.93143206168858
 20
-0.1180263054662163
 30
0.0
 11
-23.82117327399619
 21
-0.1700464182004033
 31
0.0
1001
PE_URL
1000

  0
SPLINE
  5
22E
330
1F
100
AcDbEntity
  8
0
  6
Continuous
 62
     1
370
    25
100
AcDbSpline
210
0.0
220
0.0
230
1.0
 70
     8
 71
     3
 72
    10
 73
     6
 74
     0
 42
0.000000001
 43
0.00000001
 40
0.0
 40
0.0
 40
0.0
 40
0.0
 40
0.2604817444871663
 40
0.5970288346849748
 40
1.0
 40
1.0
 40
1.0
 40
1.0
 10
-25.10318257304505
 20
-0.3996299716957488
 30
0.0
 10
-25.02285436328999
 20
-0.3961041265509451
 30
0.0
 10
-24.83874066443246
 20
-0.3880228261810217
 30
0.0
 10
-24.52676518786919
 20
-0.3968367915968933
 30
0.0
 10
-24.29199028632152
 20
-0.4270746782751971
 30
0.0
 10
-24.16405900814399
 20
-0.4435516162555473
 30
0.0
1001
PE_URL
1000

  0
SPLINE
  5
22F
330
1F
100
AcDbEntity
  8
0
  6
Continuous
 62
     1
370
    25
100
AcDbSpline
210
0.0
220
0.0
230
1.0
 70
     8
 71
     3
 72
     9
 73
     5
 74
     0
 42
0.000000001
 43
0.00000001
 40
0.0
 40
0.0
 40
0.0
 40
0.0
 40
0.6113215758274311
 40
0.9999999999999999
 40
0.9999999999999999
 40
0.9999999999999999
 40
0.9999999999999999
 10
-24.16405900814399
 20
0.4435516162555366
 30
0.0
 10
-24.25334221474049
 20
0.4308367840167051
 30
0.0
 10
-24.39939170837347
 20
0.4100378579823598
 30
0.0
 10
-24.54290372334313
 20
0.4033715496224062
 30
0.0
 10
-24.59868374717136
 20
0.4007804993940098
 30
0.0
1001
PE_URL
1000

  0
SPLINE
  5
230
330
1F
100
AcDbEntity
  8
외형선
  6
Continuous
370
    15
100
AcDbSpline
210
0.0
220
0.0
230
1.0
 70
    24
 71
     3
 72
    10
 73
     6
 74
     0
 42
0.000000001
 43
0.00000001
 40
0.0
 40
0.0
 40
0.0
 40
0.0
 40
0.3056019140091517
 40
0.6528009570045761
 40
1.0
 40
1.0
 40
1.0
 40
1.0
 10
-23.01249999999999
 20
-0.5113021136898048
 30
0.0
 10
-23.01249999999999
 20
-0.5389640013159607
 30
0.0
 10
-23.01249999999999
 20
-0.5980529856682253
 30
0.0
 10
-23.01249999999999
 20
-0.6036170999052253
 30
0.0
 10
-23.01249999999999
 20
-0.5486015065657028
 30
0.0
 10
-23.01249999999999
 20
-0.5210937098959398
 30
0.0
  0
LINE
  5
231
330
1F
100
AcDbEntity
  8
외형선
  6
Continuous
370
    15
100
AcDbLine
 10
-23.01249999999999
 20
-0.5210937098959398
 30
0.0
 11
-23.01249999999999
 21
-0.4214336871764353
 31
0.0
  0
SPLINE
  5
232
330
1F
100
AcDbEntity
  8
외형선
  6
Continuous
370
    15
100
AcDbSpline
210
0.0
220
0.0
230
1.0
 70
    24
 71
     3
 72
    14
 73
    10
 74
     0
 42
0.000000001
 43
0.00000001
 40
0.0
 40
0.0
 40
0.0
 40
0.0
 40
0.1517525612516714
 40
0.3035051225033429
 40
0.455257683755014
 40
0.6070102450066854
 40
0.7587628062583566
 40
0.9105153675100285
 40
1.0
 40
1.0
 40
1.0
 40
1.0
 10
-23.01249999999999
 20
-0.4214336871764353
 30
0.0
 10
-23.01249999999999
 20
-0.3660550168597041
 30
0.0
 10
-23.01249999999999
 20
-0.2552976762262418
 30
0.0
 10
-23.01249999999999
 20
-0.0424751024218928
 30
0.0
 10
-23.01249999999999
 20
0.1716566287884689
 30
0.0
 10
-23.01249999999999
 20
0.3659706544254888
 30
0.0
 10
-23.01249999999999
 20
0.510336451368218
 30
0.0
 10
-23.01249999999999
 20
0.5899673374977965
 30
0.0
 10
-23.01249999999999
 20
0.5871622089492732
 30
0.0
 10
-23.01249999999999
 20
0.5861216733114709
 30
0.0
  0
LINE
  5
233
330
1F
100
AcDbEntity
  8
외형선
  6
Continuous
370
    15
100
AcDbLine
 10
-16.34729051085746
 20
-2.381250000000005
 30
0.0
 11
-16.34729051085746
 21
2.381249999999996
 31
0.0
  0
SPLINE
  5
234
330
1F
100
AcDbEntity
  8
외형선
  6
Continuous
370
    15
100
AcDbSpline
210
0.0
220
0.0
230
1.0
 70
     8
 71
     3
 72
    14
 73
    10
 74
     0
 42
0.000000001
 43
0.00000001
 40
0.0
 40
0.0
 40
0.0
 40
0.0
 40
0.2499999999999999
 40
0.2499999999999999
 40
0.4999999999999998
 40
0.4999999999999998
 40
0.7499999999999999
 40
0.7499999999999999
 40
1.0
 40
1.0
 40
1.0
 40
1.0
 10
-23.81249999999679
 20
0.0128909684783487
 30
0.0
 10
-23.74498915138948
 20
-0.0141648089005137
 30
0.0
 10
-23.67718021493232
 20
-0.0413400485387285
 30
0.0
 10
-23.5447560855592
 20
-0.0944105970182783
 30
0.0
 10
-23.47995966580095
 20
-0.1203394328842045
 30
0.0
 10
-23.34569199099354
 20
-0.1709677656666528
 30
0.0
 10
-23.27765570048606
 20
-0.195466481771799
 30
0.0
 10
-23.14360983062738
 20
-0.241457039434831
 30
0.0
 10
-23.07901578451916
 20
-0.2628129629574154
 30
0.0
 10
-23.01262587806669
 20
-0.2825960234326672
 30
0.0
  0
SPLINE
  5
235
330
1F
100
AcDbEntity
  8
외형선
  6
Continuous
370
    15
100
AcDbSpline
210
0.0
220
0.0
230
1.0
 70
     8
 71
     3
 72
    14
 73
    10
 74
     0
 42
0.000000001
 43
0.00000001
 40
0.0
 40
0.0
 40
0.0
 40
0.0
 40
0.25
 40
0.25
 40
0.5
 40
0.5
 40
0.75
 40
0.75
 40
1.0
 40
1.0
 40
1.0
 40
1.0
 10
-23.81249999999218
 20
-0.0060587519575321
 30
0.0
 10
-23.74498700426972
 20
-0.0447275962233924
 30
0.0
 10
-23.67717590257443
 20
-0.0834107775054385
 30
0.0
 10
-23.54474776306596
 20
-0.1586495551544544
 30
0.0
 10
-23.47994910469115
 20
-0.1952556818608322
 30
0.0
 10
-23.34567693057616
 20
-0.266413585054103
 30
0.0
 10
-23.27763845507741
 20
-0.3006800576086412
 30
0.0
 10
-23.14358870732635
 20
-0.3646639200245865
 30
0.0
 10
-23.07899293455965
 20
-0.3941959306791496
 30
0.0
 10
-23.01260054041398
 20
-0.4213618573016866
 30
0.0
  0
SPLINE
  5
236
330
1F
100
AcDbEntity
  8
외형선
  6
Continuous
370
    15
100
AcDbSpline
210
0.0
220
0.0
230
1.0
 70
     8
 71
     3
 72
    14
 73
    10
 74
     0
 42
0.000000001
 43
0.00000001
 40
0.0
 40
0.0
 40
0.0
 40
0.0
 40
0.25
 40
0.25
 40
0.5
 40
0.5
 40
0.75
 40
0.75
 40
1.0
 40
1.0
 40
1.0
 40
1.0
 10
-23.81249999999223
 20
-0.1702284535146212
 30
0.0
 10
-23.74499590870204
 20
-0.2072797165612847
 30
0.0
 10
-23.67719378659526
 20
-0.2432945742315766
 30
0.0
 10
-23.54478227789557
 20
-0.3112843875140534
 30
0.0
 10
-23.47999290310085
 20
-0.3433245271855156
 30
0.0
 10
-23.34573938844256
 20
-0.4034421051433519
 30
0.0
 10
-23.27770997460229
 20
-0.4312573588919655
 30
0.0
 10
-23.14367630970111
 20
-0.4808430884588475
 30
0.0
 10
-23.07908769583865
 20
-0.5024952792294535
 30
0.0
 10
-23.01270561878421
 20
-0.5210880230171853
 30
0.0
  0
LINE
  5
237
330
1F
100
AcDbEntity
  8
외형선
  6
Continuous
370
    15
100
AcDbLine
 10
-23.81249999999999
 20
-0.170228453510358
 30
0.0
 11
-23.81249999999999
 21
-0.0060587519530593
 31
0.0
  0
SPLINE
  5
238
330
1F
100
AcDbEntity
  8
외형선
  6
Continuous
370
    15
100
AcDbSpline
210
0.0
220
0.0
230
1.0
 70
     8
 71
     3
 72
     9
 73
     5
 74
     0
 42
0.000000001
 43
0.00000001
 40
0.0
 40
0.0
 40
0.0
 40
0.0
 40
0.5863429208167552
 40
1.0
 40
1.0
 40
1.0
 40
1.0
 10
-23.81249999999999
 20
-0.4760220739635237
 30
0.0
 10
-23.74423180345716
 20
-0.4764026494465625
 30
0.0
 10
-23.62780130840193
 20
-0.4770517158367724
 30
0.0
 10
-23.51139403819734
 20
-0.4558186701701388
 30
0.0
 10
-23.46324134680881
 20
-0.4470354705175161
 30
0.0
  0
SPLINE
  5
239
330
1F
100
AcDbEntity
  8
외형선
  6
Continuous
370
    15
100
AcDbSpline
210
0.0
220
0.0
230
1.0
 70
    24
 71
     3
 72
    12
 73
     8
 74
     0
 42
0.000000001
 43
0.00000001
 40
0.0
 40
0.0
 40
0.0
 40
0.0
 40
0.2788198749642266
 40
0.4788238823662092
 40
0.6846280195322204
 40
0.8624509771440804
 40
0.9999999999999999
 40
0.9999999999999999
 40
0.9999999999999999
 40
0.9999999999999999
 10
-23.81249999999999
 20
-0.4760220739635237
 30
0.0
 10
-23.81249999999999
 20
-0.4653047694929491
 30
0.0
 10
-23.81249999999999
 20
-0.4468996922517334
 30
0.0
 10
-23.81249999999999
 20
-0.3900805479332661
 30
0.0
 10
-23.81249999999999
 20
-0.3274529694288049
 30
0.0
 10
-23.81249999999999
 20
-0.2607994692446312
 30
0.0
 10
-23.81249999999999
 20
-0.213663773210321
 30
0.0
 10
-23.81249999999999
 20
-0.1931056090971488
 30
0.0
  0
SPLINE
  5
23A
330
1F
100
AcDbEntity
  8
외형선
  6
Continuous
370
    15
100
AcDbSpline
210
0.0
220
0.0
230
1.0
 70
     8
 71
     3
 72
    14
 73
    10
 74
     0
 42
0.000000001
 43
0.00000001
 40
0.0
 40
0.0
 40
0.0
 40
0.0
 40
0.2500000000000001
 40
0.2500000000000001
 40
0.5000000000000001
 40
0.5000000000000001
 40
0.7500000000000002
 40
0.7500000000000002
 40
1.0
 40
1.0
 40
1.0
 40
1.0
 10
-23.81249999999811
 20
0.4760220739635415
 30
0.0
 10
-23.74499025815985
 20
0.4769790371808895
 30
0.0
 10
-23.67718243781339
 20
0.4748965120679749
 30
0.0
 10
-23.54476037554437
 20
0.4648841221901563
 30
0.0
 10
-23.47996510970187
 20
0.4570048551846213
 30
0.0
 10
-23.34569975414949
 20
0.4354202902237354
 30
0.0
 10
-23.27766458994383
 20
0.4217402536821773
 30
0.0
 10
-23.14362071905063
 20
0.389383900611076
 30
0.0
 10
-23.07902756287019
 20
0.3708750589800189
 30
0.0
 10
-23.01263893875741
 20
0.350013324605392
 30
0.0
  0
SPLINE
  5
23B
330
1F
100
AcDbEntity
  8
외형선
  6
Continuous
370
    15
100
AcDbSpline
210
0.0
220
0.0
230
1.0
 70
    24
 71
     3
 72
    12
 73
     8
 74
     0
 42
0.000000001
 43
0.00000001
 40
0.0
 40
0.0
 40
0.0
 40
0.0
 40
0.1215040642221613
 40
0.3001941604467018
 40
0.4738482755667329
 40
0.6525383717930842
 40
1.0
 40
1.0
 40
1.0
 40
1.0
 10
-23.81249999999999
 20
0.043803315533431
 30
0.0
 10
-23.81249999999999
 20
0.0680794651918291
 30
0.0
 10
-23.81249999999999
 20
0.1280573631513278
 30
0.0
 10
-23.81249999999999
 20
0.2149651411765383
 30
0.0
 10
-23.81249999999999
 20
0.302342322668359
 30
0.0
 10
-23.81249999999999
 20
0.4026075914836547
 30
0.0
 10
-23.81249999999999
 20
0.4468229831536874
 30
0.0
 10
-23.81249999999999
 20
0.4760220739635166
 30
0.0
  0
LINE
  5
23C
330
1F
100
AcDbEntity
  8
외형선
  6
Continuous
370
    15
100
AcDbLine
 10
-23.14158336846706
 20
0.4747483020197016
 30
0.0
 11
-23.01270561878421
 21
0.5210880230171782
 31
0.0
  0
SPLINE
  5
23D
330
1F
100
AcDbEntity
  8
0
  6
Continuous
 62
     1
370
    25
100
AcDbSpline
210
0.0
220
0.0
230
1.0
 70
     8
 71
     3
 72
    18
 73
    14
 74
     0
 42
0.000000001
 43
0.00000001
 40
0.0
 40
0.0
 40
0.0
 40
0.0
 40
0.25
 40
0.25
 40
0.375
 40
0.375
 40
0.5
 40
0.5
 40
0.625
 40
0.625
 40
0.75
 40
0.75
 40
1.0
 40
1.0
 40
1.0
 40
1.0
 10
-25.39999999999999
 20
0.5649163612146104
 30
0.0
 10
-25.27099301874438
 20
0.5410181630398014
 30
0.0
 10
-25.13342579472987
 20
0.5023793341692375
 30
0.0
 10
-24.93629793330044
 20
0.4281758226118058
 30
0.0
 10
-24.8721015665553
 20
0.4008716657793308
 30
0.0
 10
-24.7390218051588
 20
0.3410039173397372
 30
0.0
 10
-24.67155264777529
 20
0.308611609040458
 30
0.0
 10
-24.53849397831758
 20
0.2407054847218255
 30
0.0
 10
-24.47431823070769
 20
0.2054687451405179
 30
0.0
 10
-24.34286505967346
 20
0.1323710682025094
 30
0.0
 10
-24.2756029985895
 20
0.0944911598397447
 30
0.0
 10
-24.0747616078951
 20
-0.0200411807902583
 30
0.0
 10
-23.94640833927117
 20
-0.0967296031791882
 30
0.0
 10
-23.81249999999223
 20
-0.1702284535146141
 30
0.0
1001
PE_URL
1000

  0
SPLINE
  5
23E
330
1F
100
AcDbEntity
  8
0
  6
Continuous
 62
     1
370
    25
100
AcDbSpline
210
0.0
220
0.0
230
1.0
 70
     8
 71
     3
 72
    12
 73
     8
 74
     0
 42
0.000000001
 43
0.00000001
 40
0.0
 40
0.0
 40
0.0
 40
0.0
 40
0.2005350339943409
 40
0.3995688228379385
 40
0.6005973890149078
 40
0.800588774054713
 40
1.0
 40
1.0
 40
1.0
 40
1.0
 10
-25.39999999999999
 20
0.4696850511316981
 30
0.0
 10
-25.30018264487722
 20
0.4477523541191175
 30
0.0
 10
-25.10129518720574
 20
0.404051152626181
 30
0.0
 10
-24.80309972733447
 20
0.2930958659055563
 30
0.0
 10
-24.50415498926829
 20
0.1625401979243684
 30
0.0
 10
-24.2056943428348
 20
0.0153231241473293
 30
0.0
 10
-24.00696496066714
 20
-0.0800860039641407
 30
0.0
 10
-23.90774460346502
 20
-0.1277212739393505
 30
0.0
1001
PE_URL
1000

  0
LINE
  5
23F
330
1F
100
AcDbEntity
  8
0
  6
Continuous
 62
     1
370
    25
100
AcDbLine
 10
-25.39999999999997
 20
0.5649163612146104
 30
0.0
 11
-25.39999999999999
 21
0.4696850511316981
 31
0.0
1001
PE_URL
1000

  0
SPLINE
  5
240
330
1F
100
AcDbEntity
  8
0
  6
Continuous
 62
     1
370
    25
100
AcDbSpline
210
0.0
220
0.0
230
1.0
 70
     8
 71
     3
 72
    18
 73
    14
 74
     0
 42
0.000000001
 43
0.00000001
 40
0.0
 40
0.0
 40
0.0
 40
0.0
 40
0.25
 40
0.25
 40
0.375
 40
0.375
 40
0.5
 40
0.5
 40
0.625
 40
0.625
 40
0.75
 40
0.75
 40
1.0
 40
1.0
 40
1.0
 40
1.0
 10
-25.39999999999999
 20
0.594809350941393
 30
0.0
 10
-25.27099301874438
 20
0.5916952824287129
 30
0.0
 10
-25.13342579472987
 20
0.5735271305154335
 30
0.0
 10
-24.93629793330043
 20
0.5262336949640343
 30
0.0
 10
-24.87210156655529
 20
0.5072893205088747
 30
0.0
 10
-24.73902180515879
 20
0.4629222059217319
 30
0.0
 10
-24.67155264777528
 20
0.4376014112299416
 30
0.0
 10
-24.53849397831757
 20
0.3820891463292675
 30
0.0
 10
-24.47431823070768
 20
0.3521463957099868
 30
0.0
 10
-24.34286505967345
 20
0.2878657336195225
 30
0.0
 10
-24.27560299858948
 20
0.2534907060965672
 30
0.0
 10
-24.07476160789508
 20
0.146418698768354
 30
0.0
 10
-23.94640833927116
 20
0.0706387884503279
 30
0.0
 10
-23.81249999999221
 20
-0.0060587519575108
 30
0.0
1001
PE_URL
1000

  0
LINE
  5
241
330
1F
100
AcDbEntity
  8
0
  6
Continuous
 62
     1
370
    25
100
AcDbLine
 10
-23.92489516982705
 20
0.0569990957978277
 30
0.0
 11
-23.81249999999999
 21
0.0128909684796348
 31
0.0
1001
PE_URL
1000

  0
LINE
  5
242
330
1F
100
AcDbEntity
  8
0
  6
Continuous
 62
     1
370
    25
100
AcDbLine
 10
-25.39999999999999
 20
0.594809350941393
 30
0.0
 11
-25.40000000000002
 21
0.5649163612146104
 31
0.0
1001
PE_URL
1000

  0
SPLINE
  5
243
330
1F
100
AcDbEntity
  8
0
  6
Continuous
 62
     1
370
    25
100
AcDbSpline
210
0.0
220
0.0
230
1.0
 70
     8
 71
     3
 72
     8
 73
     4
 74
     0
 42
0.000000001
 43
0.00000001
 40
0.0
 40
0.0
 40
0.0
 40
0.0
 40
1.0
 40
1.0
 40
1.0
 40
1.0
 10
-25.03215937932358
 20
-0.1659924545281335
 30
0.0
 10
-25.01083471749005
 20
-0.1912257280778853
 30
0.0
 10
-24.99178206378124
 20
-0.2155299483163731
 30
0.0
 10
-24.97557185925063
 20
-0.2386718545682527
 30
0.0
1001
PE_URL
1000

  0
LINE
  5
244
330
1F
100
AcDbEntity
  8
0
  6
Continuous
 62
     1
370
    25
100
AcDbLine
 10
-24.98307079285187
 20
-0.2449642069963751
 30
0.0
 11
-25.39999999999999
 21
-0.0000000000000036
 31
0.0
1001
PE_URL
1000

  0
LINE
  5
245
330
1F
100
AcDbEntity
  8
0
  6
Continuous
 62
     1
370
    25
100
AcDbLine
 10
-25.39999999999999
 20
-0.0000000000000036
 30
0.0
 11
-25.39999999999999
 21
0.1590930663082695
 31
0.0
1001
PE_URL
1000

  0
SPLINE
  5
246
330
1F
100
AcDbEntity
  8
0
  6
Continuous
 62
     1
370
    25
100
AcDbSpline
210
0.0
220
0.0
230
1.0
 70
     8
 71
     3
 72
    10
 73
     6
 74
     0
 42
0.000000001
 43
0.00000001
 40
0.0
 40
0.0
 40
0.0
 40
0.0
 40
0.5
 40
0.5
 40
1.0
 40
1.0
 40
1.0
 40
1.0
 10
-25.39999999999999
 20
0.1590930663082695
 30
0.0
 10
-25.33633406132907
 20
0.1090386594518407
 30
0.0
 10
-25.27373104768476
 20
0.056932128012896
 30
0.0
 10
-25.15069539714852
 20
-0.0514711490151321
 30
0.0
 10
-25.08968536489288
 20
-0.1083339026209416
 30
0.0
 10
-25.0321593793231
 20
-0.1659924545269256
 30
0.0
1001
PE_URL
1000

  0
SPLINE
  5
247
330
1F
100
AcDbEntity
  8
0
  6
Continuous
 62
     1
370
    25
100
AcDbSpline
210
0.0
220
0.0
230
1.0
 70
     8
 71
     3
 72
    14
 73
    10
 74
     0
 42
0.000000001
 43
0.00000001
 40
0.0
 40
0.0
 40
0.0
 40
0.0
 40
0.25
 40
0.25
 40
0.5
 40
0.5
 40
0.75
 40
0.75
 40
1.0
 40
1.0
 40
1.0
 40
1.0
 10
-25.03215937932364
 20
-0.1659924545281086
 30
0.0
 10
-24.93043551543569
 20
-0.2100428013959821
 30
0.0
 10
-24.83128913354673
 20
-0.2513180376443671
 30
0.0
 10
-24.62524701515916
 20
-0.3263679725103472
 30
0.0
 10
-24.52431605272864
 20
-0.3593607302111081
 30
0.0
 10
-24.32287203089305
 20
-0.4140448375432051
 30
0.0
 10
-24.21818470760792
 20
-0.4360009456452758
 30
0.0
 10
-24.01437301966577
 20
-0.4661688071764516
 30
0.0
 10
-23.91548299362196
 20
-0.4745622707673505
 30
0.0
 10
-23.81249999999811
 20
-0.4760220739635521
 30
0.0
1001
PE_URL
1000

  0
SPLINE
  5
248
330
1F
100
AcDbEntity
  8
0
  6
Continuous
 62
     1
370
    25
100
AcDbSpline
210
0.0
220
0.0
230
1.0
 70
    24
 71
     3
 72
     8
 73
     4
 74
     0
 42
0.000000001
 43
0.00000001
 40
0.0
 40
0.0
 40
0.0
 40
0.0
 40
1.0
 40
1.0
 40
1.0
 40
1.0
 10
-25.39999999999999
 20
0.4696850511316981
 30
0.0
 10
-25.39999999999999
 20
0.3976750089009471
 30
0.0
 10
-25.39999999999999
 20
0.2853761080746686
 30
0.0
 10
-25.39999999999999
 20
0.1590930663082872
 30
0.0
1001
PE_URL
1000

  0
SPLINE
  5
249
330
1F
100
AcDbEntity
  8
외형선
  6
Continuous
370
    15
100
AcDbSpline
210
0.0
220
0.0
230
1.0
 70
    24
 71
     3
 72
    13
 73
     9
 74
     0
 42
0.000000001
 43
0.00000001
 40
0.0
 40
0.0
 40
0.0
 40
0.0
 40
0.138637744272894
 40
0.2791585150237352
 40
0.4790686077896684
 40
0.6847761067888227
 40
0.862515565182031
 40
1.0
 40
1.0
 40
1.0
 40
1.0
 10
-23.81249999999999
 20
-0.4760220739635237
 30
0.0
 10
-23.81249999999999
 20
-0.4715126027058645
 30
0.0
 10
-23.81249999999999
 20
-0.4624324109699671
 30
0.0
 10
-23.81249999999999
 20
-0.4344643186565911
 30
0.0
 10
-23.81249999999999
 20
-0.3903866411806334
 30
0.0
 10
-23.81249999999999
 20
-0.3273821215242911
 30
0.0
 10
-23.81249999999999
 20
-0.2608117601308564
 30
0.0
 10
-23.81249999999999
 20
-0.2136675058687274
 30
0.0
 10
-23.81249999999999
 20
-0.1931056090971488
 30
0.0
  0
SPLINE
  5
24A
330
1F
100
AcDbEntity
  8
0
  6
Continuous
 62
     1
370
    25
100
AcDbSpline
210
0.0
220
0.0
230
1.0
 70
    24
 71
     3
 72
     8
 73
     4
 74
     0
 42
0.000000001
 43
0.00000001
 40
0.0
 40
0.0
 40
0.0
 40
0.0
 40
1.0
 40
1.0
 40
1.0
 40
1.0
 10
-25.03744708401942
 20
-0.2905913328598082
 30
0.0
 10
-25.01785925907033
 20
-0.2741551961694668
 30
0.0
 10
-24.99716616974032
 20
-0.2567916325447861
 30
0.0
 10
-24.97557185924658
 20
-0.2386718545739548
 30
0.0
1001
PE_URL
1000

  0
LINE
  5
24B
330
1F
100
AcDbEntity
  8
0
  6
Continuous
 62
     1
370
    25
100
AcDbLine
 10
-25.39999999999999
 20
-0.4167187500000047
 30
0.0
 11
-25.10314926888374
 21
-0.3994864125930206
 31
0.0
1001
PE_URL
1000

  0
SPLINE
  5
24C
330
1F
100
AcDbEntity
  8
0
  6
Continuous
 62
     1
370
    25
100
AcDbSpline
210
0.0
220
0.0
230
1.0
 70
     8
 71
     3
 72
    14
 73
    10
 74
     0
 42
0.000000001
 43
0.00000001
 40
0.0
 40
0.0
 40
0.0
 40
0.0
 40
0.000283652241095
 40
0.000283652241095
 40
0.000283652241095
 40
0.0004260012873325
 40
0.0004260012873325
 40
0.0004260012873325
 40
0.0004899499954576
 40
0.0004899499954576
 40
0.0004899499954576
 40
0.0004899499954576
 10
-25.39999999999999
 20
-0.4167187500000047
 30
0.0
 10
-25.32909714699203
 20
-0.3974048485100248
 30
0.0
 10
-25.25856489278479
 20
-0.3755068753258435
 30
0.0
 10
-25.18871239244238
 20
-0.3505075974722445
 30
0.0
 10
-25.1536452311575
 20
-0.337957528337995
 30
0.0
 10
-25.11873683623609
 20
-0.3246154814376894
 30
0.0
 10
-25.08405301748821
 20
-0.3103652524066156
 30
0.0
 10
-25.06847130020091
 20
-0.3039633322012456
 30
0.0
 10
-25.05293328133052
 20
-0.2973767323586571
 30
0.0
 10
-25.03744708403498
 20
-0.2905913328666614
 30
0.0
1001
PE_URL
1000

  0
LINE
  5
24D
330
1F
100
AcDbEntity
  8
0
  6
Continuous
 62
     1
370
    25
100
AcDbLine
 10
-24.16548312152674
 20
0.4403371828167906
 30
0.0
 11
-23.81249999999999
 21
0.4760220739635166
 31
0.0
1001
PE_URL
1000

  0
SPLINE
  5
24E
330
1F
100
AcDbEntity
  8
외형선
  6
Continuous
370
    15
100
AcDbSpline
210
0.0
220
0.0
230
1.0
 70
    24
 71
     3
 72
    12
 73
     8
 74
     0
 42
0.000000001
 43
0.00000001
 40
0.0
 40
0.0
 40
0.0
 40
0.0
 40
0.1215040642221609
 40
0.3001941604467013
 40
0.4738482755667324
 40
0.652538371793083
 40
1.0
 40
1.0
 40
1.0
 40
1.0
 10
-23.81249999999999
 20
0.043803315533431
 30
0.0
 10
-23.81249999999999
 20
0.0680794651918291
 30
0.0
 10
-23.81249999999999
 20
0.1280573631513278
 30
0.0
 10
-23.81249999999999
 20
0.2149651411765383
 30
0.0
 10
-23.81249999999999
 20
0.302342322668359
 30
0.0
 10
-23.81249999999999
 20
0.4026075914836547
 30
0.0
 10
-23.81249999999999
 20
0.4468229831536874
 30
0.0
 10
-23.81249999999999
 20
0.4760220739635166
 30
0.0
  0
LINE
  5
24F
330
1F
100
AcDbEntity
  8
0
  6
Continuous
 62
     1
370
    25
100
AcDbLine
 10
-25.39999999999999
 20
-0.0000000000000036
 30
0.0
 11
-25.39999999999999
 21
-0.4167187500000047
 31
0.0
1001
PE_URL
1000

  0
SPLINE
  5
250
330
1F
100
AcDbEntity
  8
0
  6
Continuous
 62
     1
370
    25
100
AcDbSpline
210
0.0
220
0.0
230
1.0
 70
     8
 71
     3
 72
    10
 73
     6
 74
     0
 42
0.000000001
 43
0.00000001
 40
0.0
 40
0.0
 40
0.0
 40
0.0
 40
0.1305916801046275
 40
0.5641799088897166
 40
1.0
 40
1.0
 40
1.0
 40
1.0
 10
-24.59624682206253
 20
-0.3996574094356404
 30
0.0
 10
-24.63126031749648
 20
-0.4163085973389578
 30
0.0
 10
-24.78252501252151
 20
-0.4882447701998416
 30
0.0
 10
-25.05001430889133
 20
-0.5643767833558933
 30
0.0
 10
-25.28313861811453
 20
-0.5846478157909232
 30
0.0
 10
-25.39999999999999
 20
-0.5948093509414001
 30
0.0
1001
PE_URL
1000

  0
SPLINE
  5
251
330
1F
100
AcDbEntity
  8
0
  6
Continuous
 62
     1
370
    25
100
AcDbSpline
210
0.0
220
0.0
230
1.0
 70
    24
 71
     3
 72
     8
 73
     4
 74
     0
 42
0.000000001
 43
0.00000001
 40
0.0
 40
0.0
 40
0.0
 40
0.0
 40
1.0
 40
1.0
 40
1.0
 40
1.0
 10
-25.39999999999999
 20
-0.4167187500000047
 30
0.0
 10
-25.39999999999999
 20
-0.4672396557612117
 30
0.0
 10
-25.39999999999999
 20
-0.5351812085597345
 30
0.0
 10
-25.39999999999999
 20
-0.5948093509414001
 30
0.0
1001
PE_URL
1000

  0
ENDSEC
  0
SECTION
  2
OBJECTS
  0
DICTIONARY
  5
C
330
0
100
AcDbDictionary
281
     1
  3
ACAD_GROUP
350
D
  3
ACAD_IMAGE_VARS
350
275
  3
ACAD_LAYOUT
350
1A
  3
ACAD_MLINESTYLE
350
17
  3
ACAD_PLOTSETTINGS
350
19
  3
ACAD_PLOTSTYLENAME
350
E
  3
ACAD_SCALELIST
350
47
  3
APPDATA
350
153
  3
DWGPROPS
350
276
  0
DICTIONARY
  5
D
102
{ACAD_REACTORS
330
C
102
}
330
C
100
AcDbDictionary
281
     1
  0
RASTERVARIABLES
  5
275
102
{ACAD_REACTORS
330
C
102
}
330
C
100
AcDbRasterVariables
 90
        0
 70
     1
 71
     1
 72
     1
  0
DICTIONARY
  5
1A
102
{ACAD_REACTORS
330
C
102
}
330
C
100
AcDbDictionary
281
     1
  3
Layout1
350
1E
  3
Layout2
350
26
  3
Model
350
22
  0
DICTIONARY
  5
17
102
{ACAD_REACTORS
330
C
102
}
330
C
100
AcDbDictionary
281
     1
  3
Standard
350
18
  0
DICTIONARY
  5
19
102
{ACAD_REACTORS
330
C
102
}
330
C
100
AcDbDictionary
281
     1
  0
ACDBDICTIONARYWDFLT
  5
E
102
{ACAD_REACTORS
330
C
102
}
330
C
100
AcDbDictionary
281
     1
  3
Normal
350
F
100
AcDbDictionaryWithDefault
340
F
  0
DICTIONARY
  5
47
102
{ACAD_REACTORS
330
C
102
}
330
C
100
AcDbDictionary
281
     1
  3
A0
350
48
  3
A1
350
49
  3
A2
350
4A
  3
A3
350
4B
  3
A4
350
4C
  3
A5
350
4D
  3
A6
350
4E
  3
A7
350
4F
  3
A8
350
50
  3
A9
350
51
  3
B0
350
52
  3
B1
350
53
  3
B2
350
54
  3
B3
350
55
  3
B4
350
56
  3
B5
350
57
  3
B6
350
58
  3
B7
350
59
  3
B8
350
5A
  3
B9
350
5B
  3
C0
350
5C
  3
C1
350
5D
  3
C2
350
5E
  3
C3
350
5F
  3
C4
350
60
  3
C5
350
61
  3
C6
350
62
  3
C7
350
63
  3
C8
350
64
  3
C9
350
65
  3
D0
350
66
  3
D1
350
67
  3
D2
350
68
  0
DICTIONARY
  5
153
102
{ACAD_REACTORS
330
C
102
}
330
C
100
AcDbDictionary
281
     1
  0
XRECORD
  5
276
102
{ACAD_REACTORS
330
C
102
}
330
C
100
AcDbXrecord
280
     1
  1
DWGPROPS COOKIE
  2

  3

  4

  6

  7

  8
12016016
  9

300
=
301
=
302
=
303
=
304
=
305
=
306
=
307
=
308
=
309
=
 40
0.0
 41
2458313.012416528
 42
2458318.269605255
  1

 90
        0
  0
LAYOUT
  5
1E
102
{ACAD_REACTORS
330
1A
102
}
330
1A
100
AcDbPlotSettings
  1

  2
none_device
  4

  6

 40
0.0
 41
0.0
 42
0.0
 43
0.0
 44
0.0
 45
0.0
 46
0.0
 47
0.0
 48
0.0
 49
0.0
140
0.0
141
0.0
142
1.0
143
1.0
 70
   688
 72
     1
 73
     0
 74
     5
  7

 75
    16
147
1.0
148
0.0
149
0.0
100
AcDbLayout
  1
Layout1
 70
     1
 71
     1
 10
0.0
 20
0.0
 11
420.0
 21
297.0
 12
0.0
 22
0.0
 32
0.0
 14
1.000000000000000E+20
 24
1.000000000000000E+20
 34
1.000000000000000E+20
 15
-1.000000000000000E+20
 25
-1.000000000000000E+20
 35
-1.000000000000000E+20
146
0.0
 13
0.0
 23
0.0
 33
0.0
 16
1.0
 26
0.0
 36
0.0
 17
0.0
 27
1.0
 37
0.0
 76
     0
330
1B
  0
LAYOUT
  5
26
102
{ACAD_REACTORS
330
1A
102
}
330
1A
100
AcDbPlotSettings
  1

  2
none_device
  4

  6

 40
0.0
 41
0.0
 42
0.0
 43
0.0
 44
0.0
 45
0.0
 46
0.0
 47
0.0
 48
0.0
 49
0.0
140
0.0
141
0.0
142
1.0
143
1.0
 70
   688
 72
     1
 73
     0
 74
     5
  7

 75
    16
147
1.0
148
0.0
149
0.0
100
AcDbLayout
  1
Layout2
 70
     1
 71
     2
 10
0.0
 20
0.0
 11
0.0
 21
0.0
 12
0.0
 22
0.0
 32
0.0
 14
0.0
 24
0.0
 34
0.0
 15
0.0
 25
0.0
 35
0.0
146
0.0
 13
0.0
 23
0.0
 33
0.0
 16
1.0
 26
0.0
 36
0.0
 17
0.0
 27
1.0
 37
0.0
 76
     0
330
23
  0
LAYOUT
  5
22
102
{ACAD_REACTORS
330
1A
102
}
330
1A
100
AcDbPlotSettings
  1

  2
none_device
  4
ANSI_A_(11.00_x_8.50_Inches)
  6

 40
6.35
 41
19.05
 42
6.35000508
 43
19.05000254
 44
279.4
 45
215.9
 46
115.6671090929875
 47
92.29917572455966
 48
0.0
 49
0.0
140
0.0
141
0.0
142
0.0756186948979918
143
1.0
 70
  1696
 72
     0
 73
     0
 74
     0
  7

 75
     0
147
0.0235690232323232
148
0.0
149
0.0
100
AcDbLayout
  1
Model
 70
     1
 71
     0
 10
0.0
 20
0.0
 11
420.0
 21
297.0
 12
0.0
 22
0.0
 32
0.0
 14
-36.77500000000009
 24
-49.97180738881175
 34
0.0
 15
94.81912503295504
 25
27.88124999999997
 35
0.0
146
0.0
 13
0.0
 23
0.0
 33
0.0
 16
1.0
 26
0.0
 36
0.0
 17
0.0
 27
1.0
 37
0.0
 76
     0
330
1F
331
29
  0
MLINESTYLE
  5
18
102
{ACAD_REACTORS
330
17
102
}
330
17
100
AcDbMlineStyle
  2
Standard
 70
     0
  3

 62
   256
 51
90.0
 52
90.0
 71
     2
 49
0.5
 62
   256
  6
BYLAYER
 49
-0.5
 62
   256
  6
BYLAYER
  0
ACDBPLACEHOLDER
  5
F
102
{ACAD_REACTORS
330
E
102
}
330
E
  0
SCALE
  5
48
102
{ACAD_REACTORS
330
47
102
}
330
47
100
AcDbScale
 70
     0
300
1:1
140
1.0
141
1.0
290
     1
  0
SCALE
  5
49
102
{ACAD_REACTORS
330
47
102
}
330
47
100
AcDbScale
 70
     0
300
1:2
140
1.0
141
2.0
290
     0
  0
SCALE
  5
4A
102
{ACAD_REACTORS
330
47
102
}
330
47
100
AcDbScale
 70
     0
300
1:4
140
1.0
141
4.0
290
     0
  0
SCALE
  5
4B
102
{ACAD_REACTORS
330
47
102
}
330
47
100
AcDbScale
 70
     0
300
1:5
140
1.0
141
5.0
290
     0
  0
SCALE
  5
4C
102
{ACAD_REACTORS
330
47
102
}
330
47
100
AcDbScale
 70
     0
300
1:8
140
1.0
141
8.0
290
     0
  0
SCALE
  5
4D
102
{ACAD_REACTORS
330
47
102
}
330
47
100
AcDbScale
 70
     0
300
1:10
140
1.0
141
10.0
290
     0
  0
SCALE
  5
4E
102
{ACAD_REACTORS
330
47
102
}
330
47
100
AcDbScale
 70
     0
300
1:16
140
1.0
141
16.0
290
     0
  0
SCALE
  5
4F
102
{ACAD_REACTORS
330
47
102
}
330
47
100
AcDbScale
 70
     0
300
1:20
140
1.0
141
20.0
290
     0
  0
SCALE
  5
50
102
{ACAD_REACTORS
330
47
102
}
330
47
100
AcDbScale
 70
     0
300
1:30
140
1.0
141
30.0
290
     0
  0
SCALE
  5
51
102
{ACAD_REACTORS
330
47
102
}
330
47
100
AcDbScale
 70
     0
300
1:40
140
1.0
141
40.0
290
     0
  0
SCALE
  5
52
102
{ACAD_REACTORS
330
47
102
}
330
47
100
AcDbScale
 70
     0
300
1:50
140
1.0
141
50.0
290
     0
  0
SCALE
  5
53
102
{ACAD_REACTORS
330
47
102
}
330
47
100
AcDbScale
 70
     0
300
1:100
140
1.0
141
100.0
290
     0
  0
SCALE
  5
54
102
{ACAD_REACTORS
330
47
102
}
330
47
100
AcDbScale
 70
     0
300
2:1
140
2.0
141
1.0
290
     0
  0
SCALE
  5
55
102
{ACAD_REACTORS
330
47
102
}
330
47
100
AcDbScale
 70
     0
300
4:1
140
4.0
141
1.0
290
     0
  0
SCALE
  5
56
102
{ACAD_REACTORS
330
47
102
}
330
47
100
AcDbScale
 70
     0
300
8:1
140
8.0
141
1.0
290
     0
  0
SCALE
  5
57
102
{ACAD_REACTORS
330
47
102
}
330
47
100
AcDbScale
 70
     0
300
10:1
140
10.0
141
1.0
290
     0
  0
SCALE
  5
58
102
{ACAD_REACTORS
330
47
102
}
330
47
100
AcDbScale
 70
     0
300
100:1
140
100.0
141
1.0
290
     0
  0
SCALE
  5
59
102
{ACAD_REACTORS
330
47
102
}
330
47
100
AcDbScale
 70
     0
300
1/128" = 1'-0"
140
0.0078125
141
12.0
290
     0
  0
SCALE
  5
5A
102
{ACAD_REACTORS
330
47
102
}
330
47
100
AcDbScale
 70
     0
300
1/64" = 1'-0"
140
0.015625
141
12.0
290
     0
  0
SCALE
  5
5B
102
{ACAD_REACTORS
330
47
102
}
330
47
100
AcDbScale
 70
     0
300
1/32" = 1'-0"
140
0.03125
141
12.0
290
     0
  0
SCALE
  5
5C
102
{ACAD_REACTORS
330
47
102
}
330
47
100
AcDbScale
 70
     0
300
1/16" = 1'-0"
140
0.0625
141
12.0
290
     0
  0
SCALE
  5
5D
102
{ACAD_REACTORS
330
47
102
}
330
47
100
AcDbScale
 70
     0
300
3/32" = 1'-0"
140
0.09375
141
12.0
290
     0
  0
SCALE
  5
5E
102
{ACAD_REACTORS
330
47
102
}
330
47
100
AcDbScale
 70
     0
300
1/8" = 1'-0"
140
0.125
141
12.0
290
     0
  0
SCALE
  5
5F
102
{ACAD_REACTORS
330
47
102
}
330
47
100
AcDbScale
 70
     0
300
3/16" = 1'-0"
140
0.1875
141
12.0
290
     0
  0
SCALE
  5
60
102
{ACAD_REACTORS
330
47
102
}
330
47
100
AcDbScale
 70
     0
300
1/4" = 1'-0"
140
0.25
141
12.0
290
     0
  0
SCALE
  5
61
102
{ACAD_REACTORS
330
47
102
}
330
47
100
AcDbScale
 70
     0
300
3/8" = 1'-0"
140
0.375
141
12.0
290
     0
  0
SCALE
  5
62
102
{ACAD_REACTORS
330
47
102
}
330
47
100
AcDbScale
 70
     0
300
1/2" = 1'-0"
140
0.5
141
12.0
290
     0
  0
SCALE
  5
63
102
{ACAD_REACTORS
330
47
102
}
330
47
100
AcDbScale
 70
     0
300
3/4" = 1'-0"
140
0.75
141
12.0
290
     0
  0
SCALE
  5
64
102
{ACAD_REACTORS
330
47
102
}
330
47
100
AcDbScale
 70
     0
300
1" = 1'-0"
140
1.0
141
12.0
290
     0
  0
SCALE
  5
65
102
{ACAD_REACTORS
330
47
102
}
330
47
100
AcDbScale
 70
     0
300
1-1/2" = 1'-0"
140
1.5
141
12.0
290
     0
  0
SCALE
  5
66
102
{ACAD_REACTORS
330
47
102
}
330
47
100
AcDbScale
 70
     0
300
3" = 1'-0"
140
3.0
141
12.0
290
     0
  0
SCALE
  5
67
102
{ACAD_REACTORS
330
47
102
}
330
47
100
AcDbScale
 70
     0
300
6" = 1'-0"
140
6.0
141
12.0
290
     0
  0
SCALE
  5
68
102
{ACAD_REACTORS
330
47
102
}
330
47
100
AcDbScale
 70
     0
300
1'-0" = 1'-0"
140
12.0
141
12.0
290
     0
  0
ENDSEC
  0
EOF
