  0
SECTION
  2
HEADER
  9
$ACADVER
  1
AC1015
  9
$ACADMAINTVER
 70
     6
  9
$DWGCODEPAGE
  3
ANSI_949
  9
$INSBASE
 10
0.0
 20
0.0
 30
0.0
  9
$EXTMIN
 10
-36.77500000000008
 20
-49.97180738881175
 30
0.0
  9
$EXTMAX
 10
93.82537503295504
 20
27.88124999999997
 30
0.0
  9
$LIMMIN
 10
0.0
 20
0.0
  9
$LIMMAX
 10
420.0
 20
297.0
  9
$ORTHOMODE
 70
     1
  9
$REGENMODE
 70
     1
  9
$FILLMODE
 70
     1
  9
$QTEXTMODE
 70
     0
  9
$MIRRTEXT
 70
     1
  9
$LTSCALE
 40
1.0
  9
$ATTMODE
 70
     1
  9
$TEXTSIZE
 40
3.5
  9
$TRACEWID
 40
1.0
  9
$TEXTSTYLE
  7
Standard
  9
$CLAYER
  8
0
  9
$CELTYPE
  6
ByLayer
  9
$CECOLOR
 62
   256
  9
$CELTSCALE
 40
1.0
  9
$DISPSILH
 70
     0
  9
$DIMSCALE
 40
1.0
  9
$DIMASZ
 40
3.302
  9
$DIMEXO
 40
1.0
  9
$DIMDLI
 40
3.75
  9
$DIMRND
 40
0.0
  9
$DIMDLE
 40
0.0
  9
$DIMEXE
 40
1.0
  9
$DIMTP
 40
0.0
  9
$DIMTM
 40
0.0
  9
$DIMTXT
 40
3.5
  9
$DIMCEN
 40
2.5
  9
$DIMTSZ
 40
0.0
  9
$DIMTOL
 70
     0
  9
$DIMLIM
 70
     0
  9
$DIMTIH
 70
     1
  9
$DIMTOH
 70
     1
  9
$DIMSE1
 70
     0
  9
$DIMSE2
 70
     0
  9
$DIMTAD
 70
     1
  9
$DIMZIN
 70
     0
  9
$DIMBLK
  1

  9
$DIMASO
 70
     1
  9
$DIMSHO
 70
     1
  9
$DIMPOST
  1

  9
$DIMAPOST
  1

  9
$DIMALT
 70
     0
  9
$DIMALTD
 70
     3
  9
$DIMALTF
 40
0.0393700787401575
  9
$DIMLFAC
 40
1.0
  9
$DIMTOFL
 70
     1
  9
$DIMTVP
 40
0.0
  9
$DIMTIX
 70
     0
  9
$DIMSOXD
 70
     0
  9
$DIMSAH
 70
     0
  9
$DIMBLK1
  1

  9
$DIMBLK2
  1

  9
$DIMSTYLE
  2
ISO-25
  9
$DIMCLRD
 70
     0
  9
$DIMCLRE
 70
     0
  9
$DIMCLRT
 70
     0
  9
$DIMTFAC
 40
1.0
  9
$DIMGAP
 40
1.524
  9
$DIMJUST
 70
     0
  9
$DIMSD1
 70
     0
  9
$DIMSD2
 70
     0
  9
$DIMTOLJ
 70
     0
  9
$DIMTZIN
 70
     0
  9
$DIMALTZ
 70
     0
  9
$DIMALTTZ
 70
     0
  9
$DIMUPT
 70
     0
  9
$DIMDEC
 70
     2
  9
$DIMTDEC
 70
     2
  9
$DIMALTU
 70
     2
  9
$DIMALTTD
 70
     3
  9
$DIMTXSTY
  7
Standard
  9
$DIMAUNIT
 70
     0
  9
$DIMADEC
 70
     2
  9
$DIMALTRND
 40
0.0
  9
$DIMAZIN
 70
     0
  9
$DIMDSEP
 70
    44
  9
$DIMATFIT
 70
     3
  9
$DIMFRAC
 70
     0
  9
$DIMLDRBLK
  1

  9
$DIMLUNIT
 70
     2
  9
$DIMLWD
 70
    -2
  9
$DIMLWE
 70
    -2
  9
$DIMTMOVE
 70
     0
  9
$LUNITS
 70
     2
  9
$LUPREC
 70
     2
  9
$SKETCHINC
 40
1.0
  9
$FILLETRAD
 40
10.0
  9
$AUNITS
 70
     0
  9
$AUPREC
 70
     2
  9
$MENU
  1
.
  9
$ELEVATION
 40
0.0
  9
$PELEVATION
 40
0.0
  9
$THICKNESS
 40
0.0
  9
$LIMCHECK
 70
     0
  9
$CHAMFERA
 40
0.0
  9
$CHAMFERB
 40
0.0
  9
$CHAMFERC
 40
0.0
  9
$CHAMFERD
 40
0.0
  9
$SKPOLY
 70
     0
  9
$TDCREATE
 40
2458313.38762816
  9
$TDUCREATE
 40
2458313.01262816
  9
$TDUPDATE
 40
2458318.644544907
  9
$TDUUPDATE
 40
2458318.269544907
  9
$TDINDWG
 40
0.0026181944
  9
$TDUSRTIMER
 40
2458318.269482581
  9
$USRTIMER
 70
     1
  9
$ANGBASE
 50
0.0
  9
$ANGDIR
 70
     0
  9
$PDMODE
 70
     0
  9
$PDSIZE
 40
-1.0
  9
$PLINEWID
 40
0.0
  9
$SPLFRAME
 70
     0
  9
$SPLINETYPE
 70
     6
  9
$SPLINESEGS
 70
     8
  9
$HANDSEED
  5
2BD
  9
$SURFTAB1
 70
     6
  9
$SURFTAB2
 70
     6
  9
$SURFTYPE
 70
     6
  9
$SURFU
 70
     6
  9
$SURFV
 70
     6
  9
$UCSBASE
  2

  9
$UCSNAME
  2

  9
$UCSORG
 10
0.0
 20
0.0
 30
0.0
  9
$UCSXDIR
 10
1.0
 20
0.0
 30
0.0
  9
$UCSYDIR
 10
0.0
 20
1.0
 30
0.0
  9
$UCSORTHOREF
  2

  9
$UCSORTHOVIEW
 70
     0
  9
$UCSORGTOP
 10
0.0
 20
0.0
 30
0.0
  9
$UCSORGBOTTOM
 10
0.0
 20
0.0
 30
0.0
  9
$UCSORGLEFT
 10
0.0
 20
0.0
 30
0.0
  9
$UCSORGRIGHT
 10
0.0
 20
0.0
 30
0.0
  9
$UCSORGFRONT
 10
0.0
 20
0.0
 30
0.0
  9
$UCSORGBACK
 10
0.0
 20
0.0
 30
0.0
  9
$PUCSBASE
  2

  9
$PUCSNAME
  2

  9
$PUCSORG
 10
0.0
 20
0.0
 30
0.0
  9
$PUCSXDIR
 10
1.0
 20
0.0
 30
0.0
  9
$PUCSYDIR
 10
0.0
 20
1.0
 30
0.0
  9
$PUCSORTHOREF
  2

  9
$PUCSORTHOVIEW
 70
     0
  9
$PUCSORGTOP
 10
0.0
 20
0.0
 30
0.0
  9
$PUCSORGBOTTOM
 10
0.0
 20
0.0
 30
0.0
  9
$PUCSORGLEFT
 10
0.0
 20
0.0
 30
0.0
  9
$PUCSORGRIGHT
 10
0.0
 20
0.0
 30
0.0
  9
$PUCSORGFRONT
 10
0.0
 20
0.0
 30
0.0
  9
$PUCSORGBACK
 10
0.0
 20
0.0
 30
0.0
  9
$USERI1
 70
     0
  9
$USERI2
 70
     0
  9
$USERI3
 70
     0
  9
$USERI4
 70
     0
  9
$USERI5
 70
     0
  9
$USERR1
 40
0.0
  9
$USERR2
 40
0.0
  9
$USERR3
 40
0.0
  9
$USERR4
 40
0.0
  9
$USERR5
 40
0.0
  9
$WORLDVIEW
 70
     1
  9
$SHADEDGE
 70
     3
  9
$SHADEDIF
 70
    70
  9
$TILEMODE
 70
     1
  9
$MAXACTVP
 70
    64
  9
$PINSBASE
 10
0.0
 20
0.0
 30
0.0
  9
$PLIMCHECK
 70
     0
  9
$PEXTMIN
 10
1.000000000000000E+20
 20
1.000000000000000E+20
 30
1.000000000000000E+20
  9
$PEXTMAX
 10
-1.000000000000000E+20
 20
-1.000000000000000E+20
 30
-1.000000000000000E+20
  9
$PLIMMIN
 10
0.0
 20
0.0
  9
$PLIMMAX
 10
0.0
 20
0.0
  9
$UNITMODE
 70
     0
  9
$VISRETAIN
 70
     1
  9
$PLINEGEN
 70
     0
  9
$PSLTSCALE
 70
     1
  9
$TREEDEPTH
 70
  3020
  9
$CMLSTYLE
  2
Standard
  9
$CMLJUST
 70
     0
  9
$CMLSCALE
 40
20.0
  9
$PROXYGRAPHICS
 70
     1
  9
$MEASUREMENT
 70
     1
  9
$CELWEIGHT
370
    -1
  9
$ENDCAPS
280
     0
  9
$JOINSTYLE
280
     0
  9
$LWDISPLAY
290
     1
  9
$INSUNITS
 70
     4
  9
$HYPERLINKBASE
  1

  9
$STYLESHEET
  1

  9
$XEDIT
290
     1
  9
$CEPSNTYPE
380
     0
  9
$PSTYLEMODE
290
     1
  9
$FINGERPRINTGUID
  2
{E33F2E05-9AB9-4095-95C8-E8A34AC994F5}
  9
$VERSIONGUID
  2
{FAEB1C32-E019-11D5-929B-00C0DF256EC4}
  9
$EXTNAMES
290
     1
  9
$PSVPSCALE
 40
0.0
  9
$OLESTARTUP
290
     0
  0
ENDSEC
  0
SECTION
  2
CLASSES
  0
CLASS
  1
ACDBDICTIONARYWDFLT
  2
AcDbDictionaryWithDefault
  3
ObjectDBX Classes
 90
        0
280
     0
281
     0
  0
CLASS
  1
VISUALSTYLE
  2
AcDbVisualStyle
  3
ObjectDBX Classes
 90
     4095
280
     0
281
     0
  0
CLASS
  1
MATERIAL
  2
AcDbMaterial
  3
ObjectDBX Classes
 90
     1153
280
     0
281
     0
  0
CLASS
  1
SCALE
  2
AcDbScale
  3
ObjectDBX Classes
 90
     1153
280
     0
281
     0
  0
CLASS
  1
SUN
  2
AcDbSun
  3
SCENEOE
 90
     1153
280
     0
281
     0
  0
CLASS
  1
ACDBPLACEHOLDER
  2
AcDbPlaceHolder
  3
ObjectDBX Classes
 90
        0
280
     0
281
     0
  0
CLASS
  1
LAYOUT
  2
AcDbLayout
  3
ObjectDBX Classes
 90
        0
280
     0
281
     0
  0
CLASS
  1
TABLESTYLE
  2
AcDbTableStyle
  3
ObjectDBX Classes
 90
     4095
280
     0
281
     0
  0
CLASS
  1
MLEADERSTYLE
  2
AcDbMLeaderStyle
  3
ACDB_MLEADERSTYLE_CLASS
 90
     4095
280
     0
281
     0
  0
CLASS
  1
RASTERVARIABLES
  2
AcDbRasterVariables
  3
ISM
 90
        0
280
     0
281
     0
  0
ENDSEC
  0
SECTION
  2
TABLES
  0
TABLE
  2
VPORT
  5
8
330
0
100
AcDbSymbolTable
 70
     1
  0
VPORT
  5
29
330
8
100
AcDbSymbolTableRecord
100
AcDbViewportTableRecord
  2
*Active
 70
     0
 10
0.0
 20
0.0
 11
1.0
 21
1.0
 12
28.52518751647749
 22
-11.04527869440589
 13
0.0
 23
0.0
 14
10.0
 24
10.0
 15
10.0
 25
10.0
 16
0.0
 26
0.0
 36
1.0
 17
0.0
 27
0.0
 37
0.0
 40
79.41011853658796
 41
1.782762691853601
 42
50.0
 43
0.0
 44
0.0
 50
0.0
 51
0.0
 71
    16
 72
  2000
 73
     1
 74
     3
 75
     0
 76
     0
 77
     0
 78
     0
281
     0
 65
     1
110
0.0
120
0.0
130
0.0
111
1.0
121
0.0
131
0.0
112
0.0
122
1.0
132
0.0
 79
     0
146
0.0
  0
ENDTAB
  0
TABLE
  2
LTYPE
  5
5
330
0
100
AcDbSymbolTable
 70
     6
  0
LTYPE
  5
14
330
5
100
AcDbSymbolTableRecord
100
AcDbLinetypeTableRecord
  2
ByBlock
 70
     0
  3

 72
    65
 73
     0
 40
0.0
  0
LTYPE
  5
15
330
5
100
AcDbSymbolTableRecord
100
AcDbLinetypeTableRecord
  2
ByLayer
 70
     0
  3

 72
    65
 73
     0
 40
0.0
  0
LTYPE
  5
16
330
5
100
AcDbSymbolTableRecord
100
AcDbLinetypeTableRecord
  2
Continuous
 70
     0
  3
Solid line
 72
    65
 73
     0
 40
0.0
  0
LTYPE
  5
6A
330
5
100
AcDbSymbolTableRecord
100
AcDbLinetypeTableRecord
  2
HIDDEN
 70
     0
  3
Hidden __ __ __ __ __ __ __ __ __ __ __ __ __ __
 72
    65
 73
     2
 40
1.905
 49
1.27
 74
     0
 49
-0.635
 74
     0
  0
LTYPE
  5
6B
330
5
100
AcDbSymbolTableRecord
100
AcDbLinetypeTableRecord
  2
PHANTOM
 70
     0
  3
Phantom ______  __  __  ______  __  __  ______
 72
    65
 73
     6
 40
12.7
 49
6.35
 74
     0
 49
-1.27
 74
     0
 49
1.27
 74
     0
 49
-1.27
 74
     0
 49
1.27
 74
     0
 49
-1.27
 74
     0
  0
LTYPE
  5
6C
330
5
100
AcDbSymbolTableRecord
100
AcDbLinetypeTableRecord
  2
CENTER
 70
     0
  3
Center ____ _ ____ _ ____ _ ____ _ ____ _ ____
 72
    65
 73
     4
 40
10.16
 49
6.35
 74
     0
 49
-1.27
 74
     0
 49
1.27
 74
     0
 49
-1.27
 74
     0
  0
LTYPE
  5
6D
330
5
100
AcDbSymbolTableRecord
100
AcDbLinetypeTableRecord
  2
CENTERX2
 70
     0
  3
Center (2x) ________  __  ________  __  _____
 72
    65
 73
     4
 40
20.32
 49
12.7
 74
     0
 49
-2.54
 74
     0
 49
2.54
 74
     0
 49
-2.54
 74
     0
  0
LTYPE
  5
6E
330
5
100
AcDbSymbolTableRecord
100
AcDbLinetypeTableRecord
  2
DOT2
 70
     0
  3
Dot (.5x) ........................................
 72
    65
 73
     2
 40
0.635
 49
0.0
 74
     0
 49
-0.635
 74
     0
  0
ENDTAB
  0
TABLE
  2
LAYER
  5
2
330
0
100
AcDbSymbolTable
 70
    18
  0
LAYER
  5
10
330
2
100
AcDbSymbolTableRecord
100
AcDbLayerTableRecord
  2
0
 70
     0
 62
     7
  6
Continuous
370
    -3
390
F
  0
LAYER
  5
6F
330
2
100
AcDbSymbolTableRecord
100
AcDbLayerTableRecord
  2
FORMAT
 70
     0
 62
     2
  6
Continuous
370
    -3
390
F
  0
LAYER
  5
70
330
2
100
AcDbSymbolTableRecord
100
AcDbLayerTableRecord
  2
외형선
 70
     0
 62
     4
  6
Continuous
370
    30
390
F
  0
LAYER
  5
71
330
2
100
AcDbSymbolTableRecord
100
AcDbLayerTableRecord
  2
숨은선
 70
     0
 62
     2
  6
HIDDEN
370
    15
390
F
  0
LAYER
  5
72
330
2
100
AcDbSymbolTableRecord
100
AcDbLayerTableRecord
  2
중심선
 70
     0
 62
     1
  6
CENTERX2
370
    -3
390
F
  0
LAYER
  5
73
330
2
100
AcDbSymbolTableRecord
100
AcDbLayerTableRecord
  2
파단선
 70
     0
 62
     4
  6
Continuous
370
    -3
390
F
  0
LAYER
  5
74
330
2
100
AcDbSymbolTableRecord
100
AcDbLayerTableRecord
  2
해칭선
 70
     0
 62
   100
  6
Continuous
370
    -3
390
F
  0
LAYER
  5
75
330
2
100
AcDbSymbolTableRecord
100
AcDbLayerTableRecord
  2
가는실선
 70
     0
 62
     4
  6
Continuous
370
    -3
390
F
  0
LAYER
  5
76
330
2
100
AcDbSymbolTableRecord
100
AcDbLayerTableRecord
  2
치수_보조선
 70
     0
 62
     4
  6
Continuous
370
    -3
390
F
  0
LAYER
  5
77
330
2
100
AcDbSymbolTableRecord
100
AcDbLayerTableRecord
  2
치수문자_일반주서
 70
     0
 62
     7
  6
Continuous
370
    15
390
F
  0
LAYER
  5
78
330
2
100
AcDbSymbolTableRecord
100
AcDbLayerTableRecord
  2
개별주서
 70
     0
 62
   100
  6
Continuous
370
    30
390
F
  0
LAYER
  5
79
330
2
100
AcDbSymbolTableRecord
100
AcDbLayerTableRecord
  2
중간선
 70
     0
 62
     2
  6
Continuous
370
    15
390
F
  0
LAYER
  5
7A
330
2
100
AcDbSymbolTableRecord
100
AcDbLayerTableRecord
  2
윤곽선
 70
     0
 62
     3
  6
Continuous
370
    40
390
F
  0
LAYER
  5
7B
330
2
100
AcDbSymbolTableRecord
100
AcDbLayerTableRecord
  2
중심마크
 70
     0
 62
   100
  6
Continuous
370
    30
390
F
  0
LAYER
  5
7C
330
2
100
AcDbSymbolTableRecord
100
AcDbLayerTableRecord
  2
가상선
 70
     0
 62
     4
  6
PHANTOM
370
    -3
390
F
  0
LAYER
  5
7D
330
2
100
AcDbSymbolTableRecord
100
AcDbLayerTableRecord
  2
특수지정선
 70
     0
 62
     5
  6
CENTERX2
370
    60
390
F
  0
LAYER
  5
7E
330
2
100
AcDbSymbolTableRecord
100
AcDbLayerTableRecord
  2
참조1
 70
     0
 62
    -4
  6
Continuous
370
    -3
390
F
  0
LAYER
  5
160
330
2
100
AcDbSymbolTableRecord
100
AcDbLayerTableRecord
  2
Defpoints
 70
     0
 62
     7
  6
Continuous
290
     0
370
    -3
390
F
  0
ENDTAB
  0
TABLE
  2
STYLE
  5
3
330
0
100
AcDbSymbolTable
 70
     2
  0
STYLE
  5
11
330
3
100
AcDbSymbolTableRecord
100
AcDbTextStyleTableRecord
  2
Standard
 70
     0
 40
0.0
 41
1.0
 50
0.0
 71
     0
 42
3.5
  3
txt
  4

  0
STYLE
  5
94
330
3
100
AcDbSymbolTableRecord
100
AcDbTextStyleTableRecord
  2
SLDTEXTSTYLE0
 70
     0
 40
0.0
 41
0.75
 50
0.0
 71
     0
 42
3.5
  3
TXT
  4

  0
ENDTAB
  0
TABLE
  2
VIEW
  5
6
330
0
100
AcDbSymbolTable
 70
     0
  0
ENDTAB
  0
TABLE
  2
UCS
  5
7
330
0
100
AcDbSymbolTable
 70
     0
  0
ENDTAB
  0
TABLE
  2
APPID
  5
9
330
0
100
AcDbSymbolTable
 70
     2
  0
APPID
  5
12
330
9
100
AcDbSymbolTableRecord
100
AcDbRegAppTableRecord
  2
ACAD
 70
     0
  0
APPID
  5
167
330
9
100
AcDbSymbolTableRecord
100
AcDbRegAppTableRecord
  2
PE_URL
 70
     0
  0
ENDTAB
  0
TABLE
  2
DIMSTYLE
  5
A
330
0
100
AcDbSymbolTable
 70
     3
100
AcDbDimStyleTable
  0
DIMSTYLE
105
27
330
A
100
AcDbSymbolTableRecord
100
AcDbDimStyleTableRecord
  2
ISO-25
 70
     0
 41
2.5
 42
0.625
 43
3.75
 44
1.25
 73
     0
 74
     0
 77
     1
 78
     8
140
2.5
141
2.5
143
0.03937007874016
147
0.625
171
     3
172
     1
178
     0
271
     2
272
     2
274
     3
278
    44
283
     0
284
     8
340
11
  0
DIMSTYLE
105
DE
102
{ACAD_REACTORS
330
DD
330
F2
330
106
330
11B
102
}
330
A
100
AcDbSymbolTableRecord
100
AcDbDimStyleTableRecord
  2
SLDDIMSTYLE0
 70
     0
 41
3.302
 44
0.0
 45
0.000000001
 73
     0
 74
     0
 77
     1
 78
    12
 79
     3
140
3.5
143
0.0393700787401575
147
0.875
148
0.000000001
170
     1
172
     1
173
     1
178
     0
271
     2
272
     2
276
     2
284
    12
289
     0
340
94
  0
DIMSTYLE
105
11C
330
A
100
AcDbSymbolTableRecord
100
AcDbDimStyleTableRecord
  2
SLDDIMSTYLE1
 70
     0
 41
3.302
 44
0.0
 45
0.000000001
 73
     0
 74
     0
 77
     1
 78
     4
 79
     1
140
3.5
143
0.0393700787401575
147
0.875
148
0.000000001
170
     1
173
     1
178
     0
271
     2
272
     2
276
     2
284
    12
340
94
  0
ENDTAB
  0
TABLE
  2
BLOCK_RECORD
  5
1
330
0
100
AcDbSymbolTable
 70
    11
  0
BLOCK_RECORD
  5
1F
330
1
100
AcDbSymbolTableRecord
100
AcDbBlockTableRecord
  2
*Model_Space
340
22
  0
BLOCK_RECORD
  5
1B
330
1
100
AcDbSymbolTableRecord
100
AcDbBlockTableRecord
  2
*Paper_Space
340
1E
  0
BLOCK_RECORD
  5
23
330
1
100
AcDbSymbolTableRecord
100
AcDbBlockTableRecord
  2
*Paper_Space0
340
26
  0
BLOCK_RECORD
  5
7F
330
1
100
AcDbSymbolTableRecord
100
AcDbBlockTableRecord
  2
블럭10
340
0
102
{BLKREFS
331
D6
102
}
  0
BLOCK_RECORD
  5
DF
330
1
100
AcDbSymbolTableRecord
100
AcDbBlockTableRecord
  2
_D
340
0
  0
BLOCK_RECORD
  5
F3
330
1
100
AcDbSymbolTableRecord
100
AcDbBlockTableRecord
  2
_D_1
340
0
  0
BLOCK_RECORD
  5
107
330
1
100
AcDbSymbolTableRecord
100
AcDbBlockTableRecord
  2
_D_2
340
0
  0
BLOCK_RECORD
  5
11D
330
1
100
AcDbSymbolTableRecord
100
AcDbBlockTableRecord
  2
_D_3
340
0
  0
BLOCK_RECORD
  5
136
330
1
100
AcDbSymbolTableRecord
100
AcDbBlockTableRecord
  2
SW_DOWELSYMBOL_0
340
0
102
{BLKREFS
331
13C
102
}
  0
BLOCK_RECORD
  5
1A6
330
1
100
AcDbSymbolTableRecord
100
AcDbBlockTableRecord
  2
*D7
340
0
  0
BLOCK_RECORD
  5
1B5
330
1
100
AcDbSymbolTableRecord
100
AcDbBlockTableRecord
  2
*D8
340
0
  0
BLOCK_RECORD
  5
1C5
330
1
100
AcDbSymbolTableRecord
100
AcDbBlockTableRecord
  2
*D9
340
0
  0
BLOCK_RECORD
  5
1D4
330
1
100
AcDbSymbolTableRecord
100
AcDbBlockTableRecord
  2
*D10
340
0
  0
ENDTAB
  0
ENDSEC
  0
SECTION
  2
BLOCKS
  0
BLOCK
  5
20
330
1F
100
AcDbEntity
  8
0
100
AcDbBlockBegin
  2
*Model_Space
 70
     0
 10
0.0
 20
0.0
 30
0.0
  3
*Model_Space
  1
*Model_Space
  0
ENDBLK
  5
21
330
1F
100
AcDbEntity
  8
0
100
AcDbBlockEnd
  0
BLOCK
  5
1C
330
1B
100
AcDbEntity
 67
     1
  8
0
100
AcDbBlockBegin
  2
*Paper_Space
 70
     0
 10
0.0
 20
0.0
 30
0.0
  3
*Paper_Space
  1
*Paper_Space
  0
ENDBLK
  5
1D
330
1B
100
AcDbEntity
 67
     1
  8
0
100
AcDbBlockEnd
  0
BLOCK
  5
24
330
23
100
AcDbEntity
  8
0
100
AcDbBlockBegin
  2
*Paper_Space0
 70
     0
 10
0.0
 20
0.0
 30
0.0
  3
*Paper_Space0
  1
*Paper_Space0
  0
ENDBLK
  5
25
330
23
100
AcDbEntity
  8
0
100
AcDbBlockEnd
  0
BLOCK
  5
80
330
7F
100
AcDbEntity
  8
0
100
AcDbBlockBegin
  2
블럭10
 70
     2
 10
0.0
 20
0.0
 30
0.0
  3
블럭10
  1
블럭10
  0
ELLIPSE
  5
82
330
7F
100
AcDbEntity
  8
중심선
100
AcDbEllipse
 10
20.54032771741204
 20
12.0471743016438
 30
0.0
 11
6.600054785286829
 21
-1.261213355974178E-13
 31
0.0
210
0.0
220
0.0
230
1.0
 40
0.636358354079598
 41
0.9219305317359503
 42
6.513795318482858
  0
ELLIPSE
  5
83
330
7F
100
AcDbEntity
  8
중심선
100
AcDbEllipse
 10
20.54032771746488
 20
12.04717430159265
 30
0.0
 11
3.960054785062283
 21
1.540847449632565E-10
 31
0.0
210
0.0
220
0.0
230
1.0
 40
0.3939339440162632
 41
1.131841032648279
 42
5.62031148352944
  0
LINE
  5
84
330
7F
100
AcDbEntity
  8
중심선
100
AcDbLine
 10
2.268634060543552
 20
16.24717430164393
 30
0.0
 11
5.714909304380834
 21
16.24717430164393
 31
0.0
  0
LINE
  5
85
330
7F
100
AcDbEntity
  8
중심선
100
AcDbLine
 10
5.245725140726316
 20
7.84717430164391
 30
0.0
 11
8.692000384563599
 21
7.84717430164391
 31
0.0
  0
LINE
  5
86
330
7F
100
AcDbEntity
  8
중심선
100
AcDbLine
 10
15.74043728645272
 20
16.24717430164393
 30
0.0
 11
8.692000384563599
 21
7.84717430164391
 31
0.0
  0
LINE
  5
87
330
7F
100
AcDbEntity
  8
중심선
100
AcDbLine
 10
0.1404042013395286
 20
13.71084872107135
 30
0.0
 11
3.58671253028996
 21
13.71088815037384
 31
0.0
  0
LINE
  5
88
330
7F
100
AcDbEntity
  8
중심선
100
AcDbLine
 10
2.750260043222114
 20
10.84717430164391
 30
0.0
 11
6.196535287059397
 21
10.84717430164391
 31
0.0
  0
LINE
  5
89
330
7F
100
AcDbEntity
  8
중심선
100
AcDbLine
 10
12.29416204261559
 20
16.24717430164393
 30
0.0
 11
5.245725140726316
 21
7.84717430164391
 31
0.0
  0
LINE
  5
8A
330
7F
100
AcDbEntity
  8
중심선
100
AcDbLine
 10
10.72767329541681
 20
16.24717430164393
 30
0.0
 11
6.196535287059397
 21
10.84717430164391
 31
0.0
  0
LINE
  5
8B
330
7F
100
AcDbEntity
  8
중심선
100
AcDbLine
 10
7.28139805157953
 20
16.24717430164393
 30
0.0
 11
2.750260043222114
 21
10.84717430164391
 31
0.0
  0
LINE
  5
8C
330
7F
100
AcDbEntity
  8
중심선
100
AcDbLine
 10
5.714909304380834
 20
16.24717430164393
 30
0.0
 11
3.58671253028996
 21
13.71088815037384
 31
0.0
  0
LINE
  5
8D
330
7F
100
AcDbEntity
  8
중심선
100
AcDbLine
 10
2.268634060543552
 20
16.24717430164393
 30
0.0
 11
0.1404042013395286
 21
13.71084872107135
 31
0.0
  0
LINE
  5
8E
330
7F
100
AcDbEntity
  8
중심선
100
AcDbLine
 10
7.28139805157953
 20
16.24717430164393
 30
0.0
 11
10.72767329541681
 21
16.24717430164393
 31
0.0
  0
LINE
  5
8F
330
7F
100
AcDbEntity
  8
중심선
100
AcDbLine
 10
12.29416204261559
 20
16.24717430164393
 30
0.0
 11
15.74043728645272
 21
16.24717430164393
 31
0.0
  0
LINE
  5
90
330
7F
100
AcDbEntity
  8
중심선
100
AcDbLine
 10
19.22036997980202
 20
11.08717430171403
 30
0.0
 11
23.66174974927406
 21
11.08717430171406
 31
0.0
  0
LINE
  5
91
330
7F
100
AcDbEntity
  8
중심선
100
AcDbLine
 10
19.22039502424796
 20
13.00717430171391
 30
0.0
 11
19.22036997980202
 21
11.08717430171403
 31
0.0
  0
LINE
  5
92
330
7F
100
AcDbEntity
  8
중심선
100
AcDbLine
 10
19.22039502424796
 20
13.00717430171391
 30
0.0
 11
26.96566020931264
 21
13.00717430171391
 31
0.0
  0
LINE
  5
93
330
7F
100
AcDbEntity
  8
중심선
100
AcDbLine
 10
22.22332737316547
 20
13.45928029700563
 30
0.0
 11
24.52862924686651
 21
15.39360700705356
 31
0.0
  0
ATTDEF
  5
95
330
7F
100
AcDbEntity
  8
FORMAT
 62
     2
100
AcDbText
 10
4.408487351596664
 20
2.075366912832191
 30
0.0
 40
4.233333333333333
  1
E1001004
 41
0.75
  7
SLDTEXTSTYLE0
 11
4.408487351596664
 21
-0.0412997538344756
 31
0.0
100
AcDbAttributeDefinition
  3

  2
AUTOATTR0
 70
     0
 74
     1
  0
ENDBLK
  5
81
330
7F
100
AcDbEntity
  8
0
100
AcDbBlockEnd
  0
BLOCK
  5
E0
330
DF
100
AcDbEntity
  8
0
100
AcDbBlockBegin
  2
_D
 70
     0
 10
0.0
 20
0.0
 30
0.0
  3
_D
  1
_D
  0
LINE
  5
E2
330
DF
100
AcDbEntity
  8
치수문자_일반주서
 62
     0
370
    -2
100
AcDbLine
 10
-16.15661934298441
 20
2.381249999999997
 30
0.0
 11
-33.40000000000001
 21
2.381249999999932
 31
0.0
  0
LINE
  5
E3
330
DF
100
AcDbEntity
  8
치수문자_일반주서
 62
     0
370
    -2
100
AcDbLine
 10
-16.15661934298442
 20
-2.381250000000001
 30
0.0
 11
-33.39999999999999
 21
-2.381250000000065
 31
0.0
  0
LINE
  5
E4
330
DF
100
AcDbEntity
  8
치수문자_일반주서
 62
     0
370
    -2
100
AcDbLine
 10
-33.40000000000001
 20
2.381249999999932
 30
0.0
 11
-33.40000000000008
 21
27.88124999999997
 31
0.0
  0
LINE
  5
E5
330
DF
100
AcDbEntity
  8
치수문자_일반주서
 62
     0
370
    -2
100
AcDbLine
 10
-33.40000000000001
 20
2.381249999999932
 30
0.0
 11
-33.39999999999999
 21
-2.381250000000065
 31
0.0
  0
LINE
  5
E6
330
DF
100
AcDbEntity
  8
치수문자_일반주서
 62
     0
370
    -2
100
AcDbLine
 10
-33.40000000000001
 20
4.881249999999932
 30
0.0
 11
-33.40000000000002
 21
7.381249999999932
 31
0.0
  0
LINE
  5
E7
330
DF
100
AcDbEntity
  8
치수문자_일반주서
 62
     0
370
    -2
100
AcDbLine
 10
-33.39999999999998
 20
-4.881250000000065
 30
0.0
 11
-33.39999999999998
 21
-7.381250000000065
 31
0.0
  0
SOLID
  5
E8
330
DF
100
AcDbEntity
  8
치수문자_일반주서
 62
     0
100
AcDbTrace
 10
-33.81666666666668
 20
4.881249999999931
 30
0.0
 11
-32.98333333333335
 21
4.881249999999933
 31
0.0
 12
-33.40000000000001
 22
2.381249999999932
 32
0.0
 13
-33.40000000000001
 23
2.381249999999932
 33
0.0
  0
SOLID
  5
E9
330
DF
100
AcDbEntity
  8
치수문자_일반주서
 62
     0
100
AcDbTrace
 10
-32.98333333333332
 20
-4.881250000000064
 30
0.0
 11
-33.81666666666665
 21
-4.881250000000066
 31
0.0
 12
-33.39999999999999
 22
-2.381250000000065
 32
0.0
 13
-33.39999999999999
 23
-2.381250000000065
 33
0.0
  0
MTEXT
  5
EA
330
DF
100
AcDbEntity
  8
치수문자_일반주서
 62
     0
100
AcDbMText
 10
-36.77500000000005
 20
17.63124999999996
 30
0.0
 40
2.5
 41
0.0
 71
     2
 72
     1
  1
\A1;%%c4.76 [3/16]
  7
SLDTEXTSTYLE0
 11
-2.983906501879687E-15
 21
1.0
 31
0.0
 73
     1
 44
1.0
  0
POINT
  5
1E5
330
DF
100
AcDbEntity
  8
Defpoints
 62
     0
100
AcDbPoint
 10
-16.09411934298441
 20
2.381249999999997
 30
0.0
  0
POINT
  5
1E6
330
DF
100
AcDbEntity
  8
Defpoints
 62
     0
100
AcDbPoint
 10
-16.09411934298442
 20
-2.381250000000001
 30
0.0
  0
POINT
  5
1E7
330
DF
100
AcDbEntity
  8
Defpoints
 62
     0
100
AcDbPoint
 10
-33.39999999999999
 20
-2.381250000000065
 30
0.0
  0
ENDBLK
  5
E1
330
DF
100
AcDbEntity
  8
0
100
AcDbBlockEnd
  0
BLOCK
  5
F4
330
F3
100
AcDbEntity
  8
0
100
AcDbBlockBegin
  2
_D_1
 70
     0
 10
0.0
 20
0.0
 30
0.0
  3
_D_1
  1
_D_1
  0
LINE
  5
F6
330
F3
100
AcDbEntity
  8
치수문자_일반주서
 62
     0
370
    -2
100
AcDbLine
 10
25.46249999999999
 20
-0.7930791345885286
 30
0.0
 11
54.86862956814261
 21
-0.7930791345884192
 31
0.0
  0
LINE
  5
F7
330
F3
100
AcDbEntity
  8
치수문자_일반주서
 62
     0
370
    -2
100
AcDbLine
 10
25.46249999999999
 20
0.7930791345885307
 30
0.0
 11
54.8686295681426
 21
0.7930791345886412
 31
0.0
  0
LINE
  5
F8
330
F3
100
AcDbEntity
  8
치수문자_일반주서
 62
     0
370
    -2
100
AcDbLine
 10
54.8686295681426
 20
0.7930791345886412
 30
0.0
 11
54.8686295681425
 21
25.04307913458864
 31
0.0
  0
LINE
  5
F9
330
F3
100
AcDbEntity
  8
치수문자_일반주서
 62
     0
370
    -2
100
AcDbLine
 10
54.86862956814261
 20
-0.7930791345884192
 30
0.0
 11
54.8686295681426
 21
0.7930791345886412
 31
0.0
  0
LINE
  5
FA
330
F3
100
AcDbEntity
  8
치수문자_일반주서
 62
     0
370
    -2
100
AcDbLine
 10
54.86862956814262
 20
-3.293079134588419
 30
0.0
 11
54.86862956814264
 21
-5.793079134588419
 31
0.0
  0
LINE
  5
FB
330
F3
100
AcDbEntity
  8
치수문자_일반주서
 62
     0
370
    -2
100
AcDbLine
 10
54.86862956814259
 20
3.293079134588641
 30
0.0
 11
54.86862956814257
 21
5.793079134588641
 31
0.0
  0
SOLID
  5
FC
330
F3
100
AcDbEntity
  8
치수문자_일반주서
 62
     0
100
AcDbTrace
 10
55.28529623480929
 20
-3.293079134588417
 30
0.0
 11
54.45196290147596
 21
-3.293079134588421
 31
0.0
 12
54.86862956814261
 22
-0.7930791345884192
 32
0.0
 13
54.86862956814261
 23
-0.7930791345884192
 33
0.0
  0
SOLID
  5
FD
330
F3
100
AcDbEntity
  8
치수문자_일반주서
 62
     0
100
AcDbTrace
 10
54.45196290147592
 20
3.293079134588639
 30
0.0
 11
55.28529623480925
 21
3.293079134588643
 31
0.0
 12
54.8686295681426
 22
0.7930791345886412
 32
0.0
 13
54.8686295681426
 23
0.7930791345886412
 33
0.0
  0
MTEXT
  5
FE
330
F3
100
AcDbEntity
  8
치수문자_일반주서
 62
     0
100
AcDbMText
 10
51.49362956814254
 20
15.41807913458863
 30
0.0
 40
2.5
 41
0.0
 71
     2
 72
     1
  1
\A1;%%c1.59 [1/16]
  7
SLDTEXTSTYLE0
 11
-4.479645881294989E-15
 21
1.0
 31
0.0
 73
     1
 44
1.0
  0
POINT
  5
FF
330
F3
100
AcDbEntity
  8
Defpoints
 62
     0
100
AcDbPoint
 10
25.39999999999999
 20
-0.7930791345885289
 30
0.0
  0
POINT
  5
100
330
F3
100
AcDbEntity
  8
Defpoints
 62
     0
100
AcDbPoint
 10
25.39999999999999
 20
0.7930791345885305
 30
0.0
  0
POINT
  5
101
330
F3
100
AcDbEntity
  8
Defpoints
 62
     0
100
AcDbPoint
 10
54.86862956814261
 20
0.7930791345886407
 30
0.0
  0
ENDBLK
  5
F5
330
F3
100
AcDbEntity
  8
0
100
AcDbBlockEnd
  0
BLOCK
  5
108
330
107
100
AcDbEntity
  8
0
100
AcDbBlockBegin
  2
_D_2
 70
     0
 10
0.0
 20
0.0
 30
0.0
  3
_D_2
  1
_D_2
  0
LINE
  5
10A
330
107
100
AcDbEntity
  8
치수문자_일반주서
 62
     0
370
    -2
100
AcDbLine
 10
25.39999999999999
 20
0.8555791345885305
 30
0.0
 11
25.39999999999999
 21
10.38125
 31
0.0
  0
LINE
  5
10B
330
107
100
AcDbEntity
  8
치수문자_일반주서
 62
     0
370
    -2
100
AcDbLine
 10
23.01874999999999
 20
0.6901487843680987
 30
0.0
 11
23.01874999999999
 21
10.38125
 31
0.0
  0
LINE
  5
10C
330
107
100
AcDbEntity
  8
치수문자_일반주서
 62
     0
370
    -2
100
AcDbLine
 10
25.39999999999999
 20
10.38125
 30
0.0
 11
49.64999999999999
 21
10.38125
 31
0.0
  0
LINE
  5
10D
330
107
100
AcDbEntity
  8
치수문자_일반주서
 62
     0
370
    -2
100
AcDbLine
 10
25.39999999999999
 20
10.38125
 30
0.0
 11
23.01874999999999
 21
10.38125
 31
0.0
  0
LINE
  5
10E
330
107
100
AcDbEntity
  8
치수문자_일반주서
 62
     0
370
    -2
100
AcDbLine
 10
27.89999999999999
 20
10.38125
 30
0.0
 11
30.39999999999999
 21
10.38125
 31
0.0
  0
LINE
  5
10F
330
107
100
AcDbEntity
  8
치수문자_일반주서
 62
     0
370
    -2
100
AcDbLine
 10
20.51874999999999
 20
10.38125
 30
0.0
 11
18.01874999999999
 21
10.38125
 31
0.0
  0
SOLID
  5
110
330
107
100
AcDbEntity
  8
치수문자_일반주서
 62
     0
100
AcDbTrace
 10
27.89999999999999
 20
10.79791666666666
 30
0.0
 11
27.89999999999999
 21
9.96458333333333
 31
0.0
 12
25.39999999999999
 22
10.38125
 32
0.0
 13
25.39999999999999
 23
10.38125
 33
0.0
  0
SOLID
  5
111
330
107
100
AcDbEntity
  8
치수문자_일반주서
 62
     0
100
AcDbTrace
 10
20.51874999999999
 20
9.96458333333333
 30
0.0
 11
20.51874999999999
 21
10.79791666666666
 31
0.0
 12
23.01874999999999
 22
10.38125
 32
0.0
 13
23.01874999999999
 23
10.38125
 33
0.0
  0
MTEXT
  5
112
330
107
100
AcDbEntity
  8
치수문자_일반주서
 62
     0
100
AcDbMText
 10
40.02499999999999
 20
13.75625
 30
0.0
 40
2.5
 41
0.0
 71
     2
 72
     1
  1
\A1;2.38 [3/32]
  7
SLDTEXTSTYLE0
 73
     1
 44
1.0
  0
POINT
  5
113
330
107
100
AcDbEntity
  8
Defpoints
 62
     0
100
AcDbPoint
 10
25.39999999999999
 20
0.7930791345885305
 30
0.0
  0
POINT
  5
114
330
107
100
AcDbEntity
  8
Defpoints
 62
     0
100
AcDbPoint
 10
23.01874999999999
 20
0.6276487843680987
 30
0.0
  0
POINT
  5
115
330
107
100
AcDbEntity
  8
Defpoints
 62
     0
100
AcDbPoint
 10
23.01874999999999
 20
10.38125
 30
0.0
  0
ENDBLK
  5
109
330
107
100
AcDbEntity
  8
0
100
AcDbBlockEnd
  0
BLOCK
  5
11E
330
11D
100
AcDbEntity
  8
0
100
AcDbBlockBegin
  2
_D_3
 70
     0
 10
0.0
 20
0.0
 30
0.0
  3
_D_3
  1
_D_3
  0
LINE
  5
120
330
11D
100
AcDbEntity
  8
치수문자_일반주서
 62
     0
370
    -2
100
AcDbLine
 10
-25.4
 20
0.8555791345885515
 30
0.0
 11
-25.39999999999999
 21
18.38125
 31
0.0
  0
LINE
  5
121
330
11D
100
AcDbEntity
  8
치수문자_일반주서
 62
     0
370
    -2
100
AcDbLine
 10
25.39999999999999
 20
0.8555791345885305
 30
0.0
 11
25.4
 21
18.38125
 31
0.0
  0
LINE
  5
122
330
11D
100
AcDbEntity
  8
치수문자_일반주서
 62
     0
370
    -2
100
AcDbLine
 10
-22.89999999999999
 20
18.38125
 30
0.0
 11
22.9
 21
18.38125
 31
0.0
  0
SOLID
  5
123
330
11D
100
AcDbEntity
  8
치수문자_일반주서
 62
     0
100
AcDbTrace
 10
-22.89999999999999
 20
18.79791666666667
 30
0.0
 11
-22.89999999999999
 21
17.96458333333333
 31
0.0
 12
-25.39999999999999
 22
18.38125
 32
0.0
 13
-25.39999999999999
 23
18.38125
 33
0.0
  0
SOLID
  5
124
330
11D
100
AcDbEntity
  8
치수문자_일반주서
 62
     0
100
AcDbTrace
 10
22.9
 20
17.96458333333333
 30
0.0
 11
22.9
 21
18.79791666666667
 31
0.0
 12
25.4
 22
18.38125
 32
0.0
 13
25.4
 23
18.38125
 33
0.0
  0
MTEXT
  5
125
330
11D
100
AcDbEntity
  8
치수문자_일반주서
 62
     0
100
AcDbMText
 10
0.0000000000000036
 20
21.75625
 30
0.0
 40
2.5
 41
0.0
 71
     2
 72
     1
  1
\A1;50.8 [2]
  7
SLDTEXTSTYLE0
 73
     1
 44
1.0
  0
POINT
  5
126
330
11D
100
AcDbEntity
  8
Defpoints
 62
     0
100
AcDbPoint
 10
-25.4
 20
0.7930791345885515
 30
0.0
  0
POINT
  5
127
330
11D
100
AcDbEntity
  8
Defpoints
 62
     0
100
AcDbPoint
 10
25.39999999999999
 20
0.7930791345885305
 30
0.0
  0
POINT
  5
128
330
11D
100
AcDbEntity
  8
Defpoints
 62
     0
100
AcDbPoint
 10
25.39999999999999
 20
18.38125
 30
0.0
  0
ENDBLK
  5
11F
330
11D
100
AcDbEntity
  8
0
100
AcDbBlockEnd
  0
BLOCK
  5
137
330
136
100
AcDbEntity
  8
0
100
AcDbBlockBegin
  2
SW_DOWELSYMBOL_0
 70
     0
 10
0.0
 20
0.0
 30
0.0
  3
SW_DOWELSYMBOL_0
  1
SW_DOWELSYMBOL_0
  0
CIRCLE
  5
139
330
136
100
AcDbEntity
  8
해칭선
 62
     0
100
AcDbCircle
 10
0.0
 20
0.0
 30
0.0
 40
3.000000000000001
  0
HATCH
  5
13A
330
136
100
AcDbEntity
  8
0
  6
Continuous
 62
     0
370
     0
100
AcDbHatch
 10
0.0
 20
0.0
 30
0.0
210
0.0
220
0.0
230
1.0
  2
SOLID
 70
     1
 71
     0
 91
        1
 92
        0
 93
        3
 72
     2
 10
0.0
 20
0.0
 40
3.000000000000001
 50
0.0
 51
90.0
 73
     1
 72
     1
 10
0.0
 20
3.000000000000001
 11
0.0
 21
0.0
 72
     1
 10
0.0
 20
0.0
 11
3.000000000000001
 21
0.0
 97
        0
 75
     0
 76
     1
 98
        1
 10
0.0
 20
0.0
  0
HATCH
  5
13B
330
136
100
AcDbEntity
  8
0
  6
Continuous
 62
     0
370
     0
100
AcDbHatch
 10
0.0
 20
0.0
 30
0.0
210
0.0
220
0.0
230
1.0
  2
SOLID
 70
     1
 71
     0
 91
        1
 92
        0
 93
        3
 72
     2
 10
0.0
 20
0.0
 40
3.000000000000001
 50
180.0
 51
270.0000000000007
 73
     1
 72
     1
 10
0.0
 20
-3.000000000000001
 11
0.0
 21
0.0
 72
     1
 10
0.0
 20
0.0
 11
-3.000000000000001
 21
0.0
 97
        0
 75
     0
 76
     1
 98
        1
 10
0.0
 20
0.0
  0
ENDBLK
  5
138
330
136
100
AcDbEntity
  8
0
100
AcDbBlockEnd
  0
BLOCK
  5
1A7
330
1A6
100
AcDbEntity
  8
0
100
AcDbBlockBegin
  2
*D7
 70
     1
 10
0.0
 20
0.0
 30
0.0
  3
*D7
  1
*D7
  0
LINE
  5
1A9
330
1A6
100
AcDbEntity
  8
치수문자_일반주서
 62
     0
370
    -2
100
AcDbLine
 10
50.8
 20
0.3484871582727809
 30
0.0
 11
50.8
 21
10.27069759097852
 31
0.0
  0
LINE
  5
1AA
330
1A6
100
AcDbEntity
  8
치수문자_일반주서
 62
     0
370
    -2
100
AcDbLine
 10
49.609375
 20
0.2657482930384945
 30
0.0
 11
49.609375
 21
10.27069759097852
 31
0.0
  0
LINE
  5
1AB
330
1A6
100
AcDbEntity
  8
치수문자_일반주서
 62
     0
370
    -2
100
AcDbLine
 10
50.8
 20
10.27069759097852
 30
0.0
 11
73.8
 21
10.27069759097852
 31
0.0
  0
LINE
  5
1AC
330
1A6
100
AcDbEntity
  8
치수문자_일반주서
 62
     0
370
    -2
100
AcDbLine
 10
50.8
 20
10.27069759097852
 30
0.0
 11
49.609375
 21
10.27069759097852
 31
0.0
  0
LINE
  5
1AD
330
1A6
100
AcDbEntity
  8
치수문자_일반주서
 62
     0
370
    -2
100
AcDbLine
 10
53.3
 20
10.27069759097852
 30
0.0
 11
55.8
 21
10.27069759097852
 31
0.0
  0
LINE
  5
1AE
330
1A6
100
AcDbEntity
  8
치수문자_일반주서
 62
     0
370
    -2
100
AcDbLine
 10
47.109375
 20
10.27069759097852
 30
0.0
 11
44.609375
 21
10.27069759097852
 31
0.0
  0
SOLID
  5
1AF
330
1A6
100
AcDbEntity
  8
치수문자_일반주서
 62
     0
100
AcDbTrace
 10
53.3
 20
10.68736425764518
 30
0.0
 11
53.3
 21
9.85403092431185
 31
0.0
 12
50.8
 22
10.27069759097852
 32
0.0
 13
50.8
 23
10.27069759097852
 33
0.0
  0
SOLID
  5
1B0
330
1A6
100
AcDbEntity
  8
치수문자_일반주서
 62
     0
100
AcDbTrace
 10
47.109375
 20
9.85403092431185
 30
0.0
 11
47.109375
 21
10.68736425764518
 31
0.0
 12
49.609375
 22
10.27069759097852
 32
0.0
 13
49.609375
 23
10.27069759097852
 33
0.0
  0
MTEXT
  5
1B1
330
1A6
100
AcDbEntity
  8
치수문자_일반주서
 62
     0
100
AcDbMText
 10
64.8
 20
13.64569759097852
 30
0.0
 40
2.5
 41
0.0
 71
     2
 72
     1
  1
\A1;1.19 [3/64]
  7
SLDTEXTSTYLE0
 73
     1
 44
1.0
  0
POINT
  5
1B2
330
1A6
100
AcDbEntity
  8
Defpoints
 62
     0
100
AcDbPoint
 10
50.8
 20
0.2859871582727809
 30
0.0
  0
POINT
  5
1B3
330
1A6
100
AcDbEntity
  8
Defpoints
 62
     0
100
AcDbPoint
 10
49.609375
 20
0.2032482930384945
 30
0.0
  0
POINT
  5
1B4
330
1A6
100
AcDbEntity
  8
Defpoints
 62
     0
100
AcDbPoint
 10
49.609375
 20
10.27069759097852
 30
0.0
  0
ENDBLK
  5
1A8
330
1A6
100
AcDbEntity
  8
0
100
AcDbBlockEnd
  0
BLOCK
  5
1B6
330
1B5
100
AcDbEntity
  8
0
100
AcDbBlockBegin
  2
*D8
 70
     1
 10
0.0
 20
0.0
 30
0.0
  3
*D8
  1
*D8
  0
LINE
  5
1B8
330
1B5
100
AcDbEntity
  8
치수문자_일반주서
 62
     0
370
    -2
100
AcDbLine
 10
0.0
 20
1.90319759097851
 30
0.0
 11
0.0
 21
18.30959237462566
 31
0.0
  0
LINE
  5
1B9
330
1B5
100
AcDbEntity
  8
치수문자_일반주서
 62
     0
370
    -2
100
AcDbLine
 10
50.8
 20
0.3484871582727809
 30
0.0
 11
50.8
 21
18.30959237462566
 31
0.0
  0
LINE
  5
1BA
330
1B5
100
AcDbEntity
  8
치수문자_일반주서
 62
     0
370
    -2
100
AcDbLine
 10
2.5
 20
18.30959237462566
 30
0.0
 11
48.3
 21
18.30959237462566
 31
0.0
  0
SOLID
  5
1BB
330
1B5
100
AcDbEntity
  8
치수문자_일반주서
 62
     0
100
AcDbTrace
 10
2.5
 20
18.72625904129232
 30
0.0
 11
2.5
 21
17.89292570795899
 31
0.0
 12
0.0
 22
18.30959237462566
 32
0.0
 13
0.0
 23
18.30959237462566
 33
0.0
  0
SOLID
  5
1BC
330
1B5
100
AcDbEntity
  8
치수문자_일반주서
 62
     0
100
AcDbTrace
 10
48.3
 20
17.89292570795899
 30
0.0
 11
48.3
 21
18.72625904129232
 31
0.0
 12
50.8
 22
18.30959237462566
 32
0.0
 13
50.8
 23
18.30959237462566
 33
0.0
  0
MTEXT
  5
1BD
330
1B5
100
AcDbEntity
  8
치수문자_일반주서
 62
     0
100
AcDbMText
 10
25.4
 20
21.68459237462566
 30
0.0
 40
2.5
 41
0.0
 71
     2
 72
     1
  1
\A1;50.8 [2]
  7
SLDTEXTSTYLE0
 73
     1
 44
1.0
  0
POINT
  5
1BE
330
1B5
100
AcDbEntity
  8
Defpoints
 62
     0
100
AcDbPoint
 10
0.0
 20
1.84069759097851
 30
0.0
  0
POINT
  5
1BF
330
1B5
100
AcDbEntity
  8
Defpoints
 62
     0
100
AcDbPoint
 10
50.8
 20
0.2859871582727809
 30
0.0
  0
POINT
  5
1C0
330
1B5
100
AcDbEntity
  8
Defpoints
 62
     0
100
AcDbPoint
 10
50.8
 20
18.30959237462566
 30
0.0
  0
ENDBLK
  5
1B7
330
1B5
100
AcDbEntity
  8
0
100
AcDbBlockEnd
  0
BLOCK
  5
1C6
330
1C5
100
AcDbEntity
  8
0
100
AcDbBlockBegin
  2
*D9
 70
     1
 10
0.0
 20
0.0
 30
0.0
  3
*D9
  1
*D9
  0
LINE
  5
1C8
330
1C5
100
AcDbEntity
  8
치수문자_일반주서
 62
     0
370
    -2
100
AcDbLine
 10
49.9840270174449
 20
-28.22644845497489
 30
0.0
 11
49.9840270174449
 21
-18.30423802226916
 31
0.0
  0
LINE
  5
1C9
330
1C5
100
AcDbEntity
  8
치수문자_일반주서
 62
     0
370
    -2
100
AcDbLine
 10
48.7934020174449
 20
-28.30918732020918
 30
0.0
 11
48.7934020174449
 21
-18.30423802226916
 31
0.0
  0
LINE
  5
1CA
330
1C5
100
AcDbEntity
  8
치수문자_일반주서
 62
     0
370
    -2
100
AcDbLine
 10
49.9840270174449
 20
-18.30423802226916
 30
0.0
 11
72.9840270174449
 21
-18.30423802226916
 31
0.0
  0
LINE
  5
1CB
330
1C5
100
AcDbEntity
  8
치수문자_일반주서
 62
     0
370
    -2
100
AcDbLine
 10
49.9840270174449
 20
-18.30423802226916
 30
0.0
 11
48.7934020174449
 21
-18.30423802226916
 31
0.0
  0
LINE
  5
1CC
330
1C5
100
AcDbEntity
  8
치수문자_일반주서
 62
     0
370
    -2
100
AcDbLine
 10
52.4840270174449
 20
-18.30423802226916
 30
0.0
 11
54.9840270174449
 21
-18.30423802226916
 31
0.0
  0
LINE
  5
1CD
330
1C5
100
AcDbEntity
  8
치수문자_일반주서
 62
     0
370
    -2
100
AcDbLine
 10
46.2934020174449
 20
-18.30423802226916
 30
0.0
 11
43.7934020174449
 21
-18.30423802226916
 31
0.0
  0
SOLID
  5
1CE
330
1C5
100
AcDbEntity
  8
치수문자_일반주서
 62
     0
100
AcDbTrace
 10
52.4840270174449
 20
-17.88757135560249
 30
0.0
 11
52.4840270174449
 21
-18.72090468893583
 31
0.0
 12
49.9840270174449
 22
-18.30423802226916
 32
0.0
 13
49.9840270174449
 23
-18.30423802226916
 33
0.0
  0
SOLID
  5
1CF
330
1C5
100
AcDbEntity
  8
치수문자_일반주서
 62
     0
100
AcDbTrace
 10
46.2934020174449
 20
-18.72090468893583
 30
0.0
 11
46.2934020174449
 21
-17.88757135560249
 31
0.0
 12
48.7934020174449
 22
-18.30423802226916
 32
0.0
 13
48.7934020174449
 23
-18.30423802226916
 33
0.0
  0
MTEXT
  5
1D0
330
1C5
100
AcDbEntity
  8
치수문자_일반주서
 62
     0
100
AcDbMText
 10
63.9840270174449
 20
-14.92923802226916
 30
0.0
 40
2.5
 41
0.0
 71
     2
 72
     1
  1
\A1;1.19 [3/64]
  7
SLDTEXTSTYLE0
 73
     1
 44
1.0
  0
POINT
  5
1D1
330
1C5
100
AcDbEntity
  8
Defpoints
 62
     0
100
AcDbPoint
 10
49.9840270174449
 20
-28.28894845497489
 30
0.0
  0
POINT
  5
1D2
330
1C5
100
AcDbEntity
  8
Defpoints
 62
     0
100
AcDbPoint
 10
48.7934020174449
 20
-28.37168732020918
 30
0.0
  0
POINT
  5
1D3
330
1C5
100
AcDbEntity
  8
Defpoints
 62
     0
100
AcDbPoint
 10
48.7934020174449
 20
-18.30423802226916
 30
0.0
  0
ENDBLK
  5
1C7
330
1C5
100
AcDbEntity
  8
0
100
AcDbBlockEnd
  0
BLOCK
  5
1D5
330
1D4
100
AcDbEntity
  8
0
100
AcDbBlockBegin
  2
*D10
 70
     1
 10
0.0
 20
0.0
 30
0.0
  3
*D10
  1
*D10
  0
LINE
  5
1D7
330
1D4
100
AcDbEntity
  8
치수문자_일반주서
 62
     0
370
    -2
100
AcDbLine
 10
38.87031842059477
 20
-13.88127663631424
 30
0.0
 11
38.87031842059477
 21
2.525118147332908
 31
0.0
  0
LINE
  5
1D8
330
1D4
100
AcDbEntity
  8
치수문자_일반주서
 62
     0
370
    -2
100
AcDbLine
 10
89.67031842059477
 20
-15.43598706901997
 30
0.0
 11
89.67031842059477
 21
2.525118147332908
 31
0.0
  0
LINE
  5
1D9
330
1D4
100
AcDbEntity
  8
치수문자_일반주서
 62
     0
370
    -2
100
AcDbLine
 10
41.37031842059477
 20
2.525118147332908
 30
0.0
 11
87.17031842059477
 21
2.525118147332908
 31
0.0
  0
SOLID
  5
1DA
330
1D4
100
AcDbEntity
  8
치수문자_일반주서
 62
     0
100
AcDbTrace
 10
41.37031842059477
 20
2.941784813999574
 30
0.0
 11
41.37031842059477
 21
2.108451480666241
 31
0.0
 12
38.87031842059477
 22
2.525118147332908
 32
0.0
 13
38.87031842059477
 23
2.525118147332908
 33
0.0
  0
SOLID
  5
1DB
330
1D4
100
AcDbEntity
  8
치수문자_일반주서
 62
     0
100
AcDbTrace
 10
87.17031842059477
 20
2.108451480666241
 30
0.0
 11
87.17031842059477
 21
2.941784813999574
 31
0.0
 12
89.67031842059477
 22
2.525118147332908
 32
0.0
 13
89.67031842059477
 23
2.525118147332908
 33
0.0
  0
MTEXT
  5
1DC
330
1D4
100
AcDbEntity
  8
치수문자_일반주서
 62
     0
100
AcDbMText
 10
64.27031842059478
 20
5.900118147332908
 30
0.0
 40
2.5
 41
0.0
 71
     2
 72
     1
  1
\A1;50.8 [2]
  7
SLDTEXTSTYLE0
 73
     1
 44
1.0
  0
POINT
  5
1DD
330
1D4
100
AcDbEntity
  8
Defpoints
 62
     0
100
AcDbPoint
 10
38.87031842059477
 20
-13.94377663631424
 30
0.0
  0
POINT
  5
1DE
330
1D4
100
AcDbEntity
  8
Defpoints
 62
     0
100
AcDbPoint
 10
89.67031842059477
 20
-15.49848706901997
 30
0.0
  0
POINT
  5
1DF
330
1D4
100
AcDbEntity
  8
Defpoints
 62
     0
100
AcDbPoint
 10
89.67031842059477
 20
2.525118147332908
 30
0.0
  0
ENDBLK
  5
1D6
330
1D4
100
AcDbEntity
  8
0
100
AcDbBlockEnd
  0
ENDSEC
  0
SECTION
  2
ENTITIES
  0
LINE
  5
96
330
1F
100
AcDbEntity
  8
외형선
  6
Continuous
370
    15
100
AcDbLine
 10
16.09411934298441
 20
2.381249999999999
 30
0.0
 11
-16.09411934298441
 21
2.381249999999997
 31
0.0
  0
LINE
  5
97
330
1F
100
AcDbEntity
  8
외형선
  6
Continuous
370
    15
100
AcDbLine
 10
-16.09411934298442
 20
-2.381250000000001
 30
0.0
 11
16.09411934298442
 21
-2.381249999999999
 31
0.0
  0
LINE
  5
98
330
1F
100
AcDbEntity
  8
외형선
  6
Continuous
370
    15
100
AcDbLine
 10
16.09411934298441
 20
-2.38125
 30
0.0
 11
22.01874999999999
 21
-0.7937499999999991
 31
0.0
  0
LINE
  5
99
330
1F
100
AcDbEntity
  8
외형선
  6
Continuous
370
    15
100
AcDbLine
 10
22.01874999999999
 20
0.7937500000000008
 30
0.0
 11
16.09411934298441
 21
2.38125
 31
0.0
  0
LINE
  5
9C
330
1F
100
AcDbEntity
  8
외형선
  6
Continuous
370
    15
100
AcDbLine
 10
22.21860408525558
 20
0.7937500000000008
 30
0.0
 11
22.01874999999999
 21
0.7937500000000008
 31
0.0
  0
LINE
  5
9D
330
1F
100
AcDbEntity
  8
외형선
  6
Continuous
370
    15
100
AcDbLine
 10
22.01874999999999
 20
-0.7937499999999991
 30
0.0
 11
22.21860408525558
 21
-0.7937499999999991
 31
0.0
  0
SPLINE
  5
9E
330
1F
100
AcDbEntity
  8
외형선
  6
Continuous
370
    15
100
AcDbSpline
210
0.0
220
0.0
230
1.0
 70
     8
 71
     3
 72
     9
 73
     5
 74
     0
 42
0.000000001
 43
0.00000001
 40
0.0
 40
0.0
 40
0.0
 40
0.0
 40
0.5551503211247245
 40
1.0
 40
1.0
 40
1.0
 40
1.0
 10
22.97098922010863
 20
0.624294461806147
 30
0.0
 10
22.87082620614693
 20
0.6213643685085657
 30
0.0
 10
22.69040117503324
 20
0.6160863506707216
 30
0.0
 10
22.4993136306098
 20
0.6238375396677291
 30
0.0
 10
22.41430839783597
 20
0.6272856536039496
 30
0.0
  0
SPLINE
  5
9F
330
1F
100
AcDbEntity
  8
외형선
  6
Continuous
370
    15
100
AcDbSpline
210
0.0
220
0.0
230
1.0
 70
     8
 71
     3
 72
    10
 73
     6
 74
     0
 42
0.000000001
 43
0.00000001
 40
0.0
 40
0.0
 40
0.0
 40
0.0
 40
0.4385656140108667
 40
0.6162019338437457
 40
1.0
 40
1.0
 40
1.0
 40
1.0
 10
22.21864729642372
 20
-0.6337883525746978
 30
0.0
 10
22.33510962187709
 20
-0.6282441267451562
 30
0.0
 10
22.49874376890469
 20
-0.6204542714334595
 30
0.0
 10
22.76451853076727
 20
-0.6191047185143141
 30
0.0
 10
22.91552296200937
 20
-0.6239900399410733
 30
0.0
 10
23.01874999999999
 20
-0.6273296588937645
 30
0.0
  0
LINE
  5
A0
330
1F
100
AcDbEntity
  8
0
  6
Continuous
 62
     1
370
    25
100
AcDbLine
 10
23.33455820417956
 20
0.2073047172229674
 30
0.0
 11
23.21238726493497
 21
0.2658791594731743
 31
0.0
1001
PE_URL
1000

  0
LINE
  5
A1
330
1F
100
AcDbEntity
  8
0
  6
Continuous
 62
     1
370
    25
100
AcDbLine
 10
23.19390084185684
 20
0.6346289521497314
 30
0.0
 11
23.0187499999551
 21
0.6273296588921496
 31
0.0
1001
PE_URL
1000

  0
SPLINE
  5
A2
330
1F
100
AcDbEntity
  8
0
  6
Continuous
 62
     1
370
    25
100
AcDbSpline
210
0.0
220
0.0
230
1.0
 70
     8
 71
     3
 72
    16
 73
    12
 74
     0
 42
0.000000001
 43
0.00000001
 40
0.0
 40
0.0
 40
0.0
 40
0.0
 40
0.1608537158319782
 40
0.2595074244963852
 40
0.345754778717228
 40
0.4525249885784787
 40
0.5533295483293668
 40
0.6552273873589394
 40
0.7392928982021264
 40
0.8389626844587011
 40
1.0
 40
1.0
 40
1.0
 40
1.0
 10
25.10394393296257
 20
0.5428062102217843
 30
0.0
 10
25.0295456870937
 20
0.5372383678929155
 30
0.0
 10
24.90951801429411
 20
0.5282556943171556
 30
0.0
 10
24.75047325955253
 20
0.5231477008492322
 30
0.0
 10
24.61569681380621
 20
0.5218088723503871
 30
0.0
 10
24.47996174205565
 20
0.5238351608378051
 30
0.0
 10
24.33724689214598
 20
0.5297574460202173
 30
0.0
 10
24.20505520081614
 20
0.538710905628714
 30
0.0
 10
24.0731164340941
 20
0.5505458175771806
 30
0.0
 10
23.91407905253157
 20
0.5678783697603298
 30
0.0
 10
23.7936326283747
 20
0.585859275190435
 30
0.0
 10
23.71923354726409
 20
0.5969659796932951
 30
0.0
1001
PE_URL
1000

  0
SPLINE
  5
A3
330
1F
100
AcDbEntity
  8
0
  6
Continuous
 62
     1
370
    25
100
AcDbSpline
210
0.0
220
0.0
230
1.0
 70
     8
 71
     3
 72
    11
 73
     7
 74
     0
 42
0.000000001
 43
0.00000001
 40
0.0
 40
0.0
 40
0.0
 40
0.0
 40
0.3723478804917132
 40
0.6028027507617048
 40
0.7971776674057065
 40
1.0
 40
1.0
 40
1.0
 40
1.0
 10
23.71923354726409
 20
-0.5969659796932932
 30
0.0
 10
23.79363269216804
 20
-0.5858498626390202
 30
0.0
 10
23.91407921960145
 20
-0.5678537190078118
 30
0.0
 10
24.07311607441295
 20
-0.5505988876512597
 30
0.0
 10
24.19850688236154
 20
-0.5391285478474569
 30
0.0
 10
24.27770315950836
 20
-0.534186976103513
 30
0.0
 10
24.31814345383192
 20
-0.5316636426471238
 30
0.0
1001
PE_URL
1000

  0
LINE
  5
A4
330
1F
100
AcDbEntity
  8
0
  6
Continuous
 62
     1
370
    25
100
AcDbLine
 10
23.0187499999551
 20
-0.6273296588921479
 30
0.0
 11
23.19390084185684
 21
-0.6346289521497296
 31
0.0
1001
PE_URL
1000

  0
LINE
  5
A5
330
1F
100
AcDbEntity
  8
외형선
  6
Continuous
370
    15
100
AcDbLine
 10
16.09411934298441
 20
2.38125
 30
0.0
 11
16.09411934298441
 21
-2.381249999999999
 31
0.0
  0
LINE
  5
A7
330
1F
100
AcDbEntity
  8
외형선
  6
Continuous
370
    15
100
AcDbLine
 10
22.01874999999999
 20
0.7937500000000008
 30
0.0
 11
22.01874999999999
 21
-0.7937499999999991
 31
0.0
  0
ELLIPSE
  5
A9
330
1F
100
AcDbEntity
  8
외형선
  6
Continuous
370
    15
100
AcDbEllipse
 10
22.21865344111494
 20
0.0000000000000009
 30
0.0
 11
4.935585938525833E-5
 21
0.7937499999999995
 31
0.0
210
0.0
220
0.0
230
1.0
 40
0.0000225456525087
 41
0.7865161235133421
 42
3.648532770361253
  0
SPLINE
  5
AA
330
1F
100
AcDbEntity
  8
외형선
  6
Continuous
370
    15
100
AcDbSpline
210
0.0
220
0.0
230
1.0
 70
    24
 71
     3
 72
     8
 73
     4
 74
     0
 42
0.000000001
 43
0.00000001
 40
0.0
 40
0.0
 40
0.0
 40
0.0
 40
1.0
 40
1.0
 40
1.0
 40
1.0
 10
22.2186756627865
 20
0.5604277911131688
 30
0.0
 10
22.2186756627865
 20
0.5216341943116889
 30
0.0
 10
22.2186756627865
 20
0.4500024258722893
 30
0.0
 10
22.2186756627865
 20
0.3758074487630998
 30
0.0
  0
SPLINE
  5
AB
330
1F
100
AcDbEntity
  8
외형선
  6
Continuous
370
    15
100
AcDbSpline
210
0.0
220
0.0
230
1.0
 70
    24
 71
     3
 72
    10
 73
     6
 74
     0
 42
0.000000001
 43
0.00000001
 40
0.0
 40
0.0
 40
0.0
 40
0.0
 40
0.5
 40
0.5
 40
1.0
 40
1.0
 40
1.0
 40
1.0
 10
22.21865694342978
 20
0.3758130514570058
 30
0.0
 10
22.21865694342978
 20
0.2543574290393163
 30
0.0
 10
22.21865694342978
 20
0.1065782276167471
 30
0.0
 10
22.21865694342978
 20
-0.1932590987987071
 30
0.0
 10
22.21865694342978
 20
-0.3429940583247387
 30
0.0
 10
22.21865694342978
 20
-0.4677116725359574
 30
0.0
  0
SPLINE
  5
AC
330
1F
100
AcDbEntity
  8
외형선
  6
Continuous
370
    15
100
AcDbSpline
210
0.0
220
0.0
230
1.0
 70
     8
 71
     3
 72
    10
 73
     6
 74
     0
 42
0.000000001
 43
0.00000001
 40
0.0
 40
0.0
 40
0.0
 40
0.0
 40
0.3472277753056688
 40
0.6924223283132972
 40
1.0
 40
1.0
 40
1.0
 40
1.0
 10
22.2186146752599
 20
-0.4677086402767557
 30
0.0
 10
22.21861377379718
 20
-0.5016350851516275
 30
0.0
 10
22.21861197615031
 20
-0.5692893156663715
 30
0.0
 10
22.2186125568387
 20
-0.6240754637379525
 30
0.0
 10
22.21861491425918
 20
-0.6293328344632562
 30
0.0
 10
22.21861602504465
 20
-0.6318100382806214
 30
0.0
  0
SPLINE
  5
AD
330
1F
100
AcDbEntity
  8
외형선
  6
Continuous
370
    15
100
AcDbSpline
210
0.0
220
0.0
230
1.0
 70
    24
 71
     3
 72
     8
 73
     4
 74
     0
 42
0.000000001
 43
0.00000001
 40
0.0
 40
0.0
 40
0.0
 40
0.0
 40
1.0
 40
1.0
 40
1.0
 40
1.0
 10
22.2185980694905
 20
-0.6084929705386685
 30
0.0
 10
22.2185980694905
 20
-0.6393081365368148
 30
0.0
 10
22.2185980694905
 20
-0.6679714336128546
 30
0.0
 10
22.2185980694905
 20
-0.6939027677974934
 30
0.0
  0
SPLINE
  5
AE
330
1F
100
AcDbEntity
  8
외형선
  6
Continuous
370
    15
100
AcDbSpline
210
0.0
220
0.0
230
1.0
 70
     8
 71
     3
 72
    12
 73
     8
 74
     0
 42
0.000000001
 43
0.00000001
 40
0.0
 40
0.0
 40
0.0
 40
0.0
 40
0.2500000000000001
 40
0.2500000000000001
 40
0.5000000000000001
 40
0.5000000000000001
 40
1.0
 40
1.0
 40
1.0
 40
1.0
 10
23.01874999999997
 20
0.3682311802811528
 30
0.0
 10
22.9515893881614
 20
0.402381851244928
 30
0.0
 10
22.8841742492704
 20
0.435264971756353
 30
0.0
 10
22.75096341742428
 20
0.497480755328788
 30
0.0
 10
22.6860562939568
 20
0.5266972242561809
 30
0.0
 10
22.48722182870588
 20
0.609130697944726
 30
0.0
 10
22.35066991863518
 20
0.6566813228045295
 30
0.0
 10
22.2185980694905
 20
0.6939068694142481
 30
0.0
  0
LINE
  5
AF
330
1F
100
AcDbEntity
  8
외형선
  6
Continuous
370
    15
100
AcDbLine
 10
23.01874999999999
 20
0.3682311802811434
 30
0.0
 11
23.01874999999999
 21
0.1597076793301301
 31
0.0
  0
SPLINE
  5
B0
330
1F
100
AcDbEntity
  8
외형선
  6
Continuous
370
    15
100
AcDbSpline
210
0.0
220
0.0
230
1.0
 70
     8
 71
     3
 72
    12
 73
     8
 74
     0
 42
0.000000001
 43
0.00000001
 40
0.0
 40
0.0
 40
0.0
 40
0.0
 40
0.5
 40
0.5
 40
0.75
 40
0.75
 40
1.0
 40
1.0
 40
1.0
 40
1.0
 10
22.2186756627865
 20
0.5604461870256431
 30
0.0
 10
22.35073631899047
 20
0.5061597065578842
 30
0.0
 10
22.48727452516603
 20
0.4432698497892205
 30
0.0
 10
22.6860883536012
 20
0.341849234376865
 30
0.0
 10
22.75098934686965
 20
0.306968031890156
 30
0.0
 10
22.88418745082242
 20
0.2347021216786251
 30
0.0
 10
22.9515959643408
 20
0.1974655604068381
 30
0.0
 10
23.01874999998642
 20
0.1597076793377603
 30
0.0
  0
LINE
  5
B1
330
1F
100
AcDbEntity
  8
외형선
  6
Continuous
370
    15
100
AcDbLine
 10
22.41706996256566
 20
-0.6263455969325095
 30
0.0
 11
22.2185980694905
 21
-0.6939068694142463
 31
0.0
  0
ELLIPSE
  5
B2
330
1F
100
AcDbEntity
  8
외형선
  6
Continuous
370
    15
100
AcDbEllipse
 10
22.21865344111494
 20
0.0000000000000009
 30
0.0
 11
-4.935585938525833E-5
 21
0.7937499999999995
 31
0.0
210
0.0
220
0.0
230
1.0
 40
0.0000225456525109
 41
5.776245191401284
 42
6.283185307179586
  0
SPLINE
  5
B3
330
1F
100
AcDbEntity
  8
외형선
  6
Continuous
370
    15
100
AcDbSpline
210
0.0
220
0.0
230
1.0
 70
    24
 71
     3
 72
     9
 73
     5
 74
     0
 42
0.000000001
 43
0.00000001
 40
0.0
 40
0.0
 40
0.0
 40
0.0
 40
0.6427800608538724
 40
1.0
 40
1.0
 40
1.0
 40
1.0
 10
23.01874999999999
 20
0.1597076793301299
 30
0.0
 10
23.01874999999999
 20
0.160492169872867
 30
0.0
 10
23.01875
 20
0.1617126348351669
 30
0.0
 10
23.01874999999999
 20
0.1602720334870761
 30
0.0
 10
23.01874999999999
 20
0.1597574219611772
 30
0.0
  0
SPLINE
  5
B4
330
1F
100
AcDbEntity
  8
외형선
  6
Continuous
370
    15
100
AcDbSpline
210
0.0
220
0.0
230
1.0
 70
    24
 71
     3
 72
    10
 73
     6
 74
     0
 42
0.000000001
 43
0.00000001
 40
0.0
 40
0.0
 40
0.0
 40
0.0
 40
0.1209227481758753
 40
0.5586549834174062
 40
1.0
 40
1.0
 40
1.0
 40
1.0
 10
23.01874999999999
 20
0.1247198054789216
 30
0.0
 10
23.01874999999999
 20
0.1236792271164409
 30
0.0
 10
23.01874999999999
 20
0.1188718248980372
 30
0.0
 10
23.01874999999999
 20
0.10675377029643
 30
0.0
 10
23.01874999999999
 20
0.0951530016070766
 30
0.0
 10
23.01874999999999
 20
0.0893287791750329
 30
0.0
  0
SPLINE
  5
B5
330
1F
100
AcDbEntity
  8
외형선
  6
Continuous
370
    15
100
AcDbSpline
210
0.0
220
0.0
230
1.0
 70
     8
 71
     3
 72
    12
 73
     8
 74
     0
 42
0.000000001
 43
0.00000001
 40
0.0
 40
0.0
 40
0.0
 40
0.0
 40
0.25
 40
0.25
 40
0.5
 40
0.5
 40
1.0
 40
1.0
 40
1.0
 40
1.0
 10
23.01874999994306
 20
0.089328779196894
 30
0.0
 10
22.95159437780479
 20
0.1159607486473285
 30
0.0
 10
22.88418426592991
 20
0.1423079212581526
 30
0.0
 10
22.75098309139143
 20
0.1936072463890546
 30
0.0
 10
22.68608061925586
 20
0.2184530590602665
 30
0.0
 10
22.48726181223089
 20
0.2909568049644469
 30
0.0
 10
22.35072029999364
 20
0.3362867627952
 30
0.0
 10
22.21865694342978
 20
0.3758130514570058
 30
0.0
  0
SPLINE
  5
B6
330
1F
100
AcDbEntity
  8
외형선
  6
Continuous
370
    15
100
AcDbSpline
210
0.0
220
0.0
230
1.0
 70
     8
 71
     3
 72
    12
 73
     8
 74
     0
 42
0.000000001
 43
0.00000001
 40
0.0
 40
0.0
 40
0.0
 40
0.0
 40
0.2500000000000001
 40
0.2500000000000001
 40
0.5000000000000002
 40
0.5000000000000002
 40
1.0
 40
1.0
 40
1.0
 40
1.0
 10
23.0187499999551
 20
-0.6267396788843499
 30
0.0
 10
22.95159356021431
 20
-0.6217817913225663
 30
0.0
 10
22.88418262462258
 20
-0.6145888945122617
 30
0.0
 10
22.75097986765253
 20
-0.5959964205490011
 30
0.0
 10
22.68607663337173
 20
-0.5846677299248776
 30
0.0
 10
22.48725526062034
 20
-0.544447369581008
 30
0.0
 10
22.35071204460315
 20
-0.5091918155024239
 30
0.0
 10
22.21864729642372
 20
-0.4677086423051592
 30
0.0
  0
SPLINE
  5
B7
330
1F
100
AcDbEntity
  8
외형선
  6
Continuous
370
    15
100
AcDbSpline
210
0.0
220
0.0
230
1.0
 70
    24
 71
     3
 72
    10
 73
     6
 74
     0
 42
0.000000001
 43
0.00000001
 40
0.0
 40
0.0
 40
0.0
 40
0.0
 40
0.5
 40
0.5
 40
1.0
 40
1.0
 40
1.0
 40
1.0
 10
23.01874999999999
 20
0.0893287791743189
 30
0.0
 10
23.01874999999999
 20
-0.0511012437046506
 30
0.0
 10
23.01874999999999
 20
-0.1989304002201367
 30
0.0
 10
23.01874999999999
 20
-0.4534624203124524
 30
0.0
 10
23.01874999999999
 20
-0.5581931478435261
 30
0.0
 10
23.01874999999999
 20
-0.6267396788876645
 30
0.0
  0
SPLINE
  5
B8
330
1F
100
AcDbEntity
  8
외형선
  6
Continuous
370
    15
100
AcDbSpline
210
0.0
220
0.0
230
1.0
 70
     8
 71
     3
 72
     9
 73
     5
 74
     0
 42
0.000000001
 43
0.00000001
 40
0.0
 40
0.0
 40
0.0
 40
0.0
 40
0.0793014434859704
 40
1.0
 40
1.0
 40
1.0
 40
1.0
 10
23.0187499999551
 20
0.6267396788843517
 30
0.0
 10
23.01749806489616
 20
0.6266508789420229
 30
0.0
 10
23.00171102491413
 20
0.6255311018178589
 30
0.0
 10
22.98592071544831
 20
0.622316170194061
 30
0.0
 10
22.97138260031621
 20
0.6193561872887393
 30
0.0
  0
SPLINE
  5
B9
330
1F
100
AcDbEntity
  8
외형선
  6
Continuous
370
    15
100
AcDbSpline
210
0.0
220
0.0
230
1.0
 70
    24
 71
     3
 72
    10
 73
     6
 74
     0
 42
0.000000001
 43
0.00000001
 40
0.0
 40
0.0
 40
0.0
 40
0.0
 40
0.5
 40
0.5
 40
1.0
 40
1.0
 40
1.0
 40
1.0
 10
23.01874999999999
 20
0.626739678887666
 30
0.0
 10
23.01874999999999
 20
0.6323251709181306
 30
0.0
 10
23.01874999999999
 20
0.6112066355817893
 30
0.0
 10
23.01874999999999
 20
0.5139311500390908
 30
0.0
 10
23.01874999999999
 20
0.4381929115501654
 30
0.0
 10
23.01874999999999
 20
0.3484515654104302
 30
0.0
  0
LINE
  5
BA
330
1F
100
AcDbEntity
  8
외형선
  6
Continuous
370
    15
100
AcDbLine
 10
23.01874999999999
 20
-0.6267396788876642
 30
0.0
 11
23.01874999999999
 21
-0.6260016362397834
 31
0.0
  0
SPLINE
  5
BB
330
1F
100
AcDbEntity
  8
0
  6
Continuous
 62
     1
370
    25
100
AcDbSpline
210
0.0
220
0.0
230
1.0
 70
     8
 71
     3
 72
    22
 73
    18
 74
     0
 42
0.000000001
 43
0.00000001
 40
0.0
 40
0.0
 40
0.0
 40
0.0
 40
0.1250000000000001
 40
0.1250000000000001
 40
0.2500000000000002
 40
0.2500000000000002
 40
0.3750000000000002
 40
0.3750000000000002
 40
0.5000000000000003
 40
0.5000000000000003
 40
0.6250000000000004
 40
0.6250000000000004
 40
0.7500000000000002
 40
0.7500000000000002
 40
0.8750000000000001
 40
0.8750000000000001
 40
1.0
 40
1.0
 40
1.0
 40
1.0
 10
25.39999999999999
 20
-0.7532218149528194
 30
0.0
 10
25.30266936107093
 20
-0.7352638597802478
 30
0.0
 10
25.20219040335036
 20
-0.7112336595769055
 30
0.0
 10
25.00185186814644
 20
-0.6523771588125715
 30
0.0
 10
24.9037174698972
 20
-0.6177961303364602
 30
0.0
 10
24.70695920691832
 20
-0.5395913393181538
 30
0.0
 10
24.60605525425202
 20
-0.4956079059748256
 30
0.0
 10
24.40620955767869
 20
-0.4008184099511368
 30
0.0
 10
24.30935017056647
 20
-0.3504190921928589
 30
0.0
 10
24.1109587345111
 20
-0.2441853575249518
 30
0.0
 10
24.00988213366161
 20
-0.1883878173751724
 30
0.0
 10
23.81101808074417
 20
-0.0753160047420976
 30
0.0
 10
23.71435386809732
 20
-0.0182797873637149
 30
0.0
 10
23.51480623236526
 20
0.096377151908557
 30
0.0
 10
23.41381078719309
 20
0.1536226320151799
 30
0.0
 10
23.21640918488437
 20
0.263977930695362
 30
0.0
 10
23.11885873197967
 20
0.317326635595694
 30
0.0
 10
23.01875
 20
0.3682311802811393
 30
0.0
1001
PE_URL
1000

  0
SPLINE
  5
BC
330
1F
100
AcDbEntity
  8
0
  6
Continuous
 62
     1
370
    25
100
AcDbSpline
210
0.0
220
0.0
230
1.0
 70
     8
 71
     3
 72
    13
 73
     9
 74
     0
 42
0.000000001
 43
0.00000001
 40
0.0
 40
0.0
 40
0.0
 40
0.0
 40
0.1923597154121954
 40
0.383853175004864
 40
0.5754469397481161
 40
0.7680260755363677
 40
0.9592182071047518
 40
1.0
 40
1.0
 40
1.0
 40
1.0
 10
25.39999999999999
 20
-0.6262467348422704
 30
0.0
 10
25.26713216663588
 20
-0.5969759923409865
 30
0.0
 10
25.00199484521935
 20
-0.5385663226251032
 30
0.0
 10
24.60492309516443
 20
-0.3920415493513483
 30
0.0
 10
24.20767969020007
 20
-0.2160633086004915
 30
0.0
 10
23.81013428767993
 20
-0.0239403295458766
 30
0.0
 10
23.51697433970701
 20
0.1240705296330404
 30
0.0
 10
23.35689428323741
 20
0.1958339449161081
 30
0.0
 10
23.32875167313716
 20
0.2084501936875883
 30
0.0
1001
PE_URL
1000

  0
LINE
  5
BD
330
1F
100
AcDbEntity
  8
0
  6
Continuous
 62
     1
370
    25
100
AcDbLine
 10
25.39999999999997
 20
-0.7532218149528196
 30
0.0
 11
25.39999999999999
 21
-0.6262467348422704
 31
0.0
1001
PE_URL
1000

  0
SPLINE
  5
BE
330
1F
100
AcDbEntity
  8
0
  6
Continuous
 62
     1
370
    25
100
AcDbSpline
210
0.0
220
0.0
230
1.0
 70
     8
 71
     3
 72
    22
 73
    18
 74
     0
 42
0.000000001
 43
0.00000001
 40
0.0
 40
0.0
 40
0.0
 40
0.0
 40
0.1250000000000002
 40
0.1250000000000002
 40
0.2500000000000004
 40
0.2500000000000004
 40
0.3750000000000007
 40
0.3750000000000007
 40
0.5000000000000009
 40
0.5000000000000009
 40
0.6250000000000007
 40
0.6250000000000007
 40
0.7500000000000004
 40
0.7500000000000004
 40
0.8750000000000002
 40
0.8750000000000002
 40
1.0
 40
1.0
 40
1.0
 40
1.0
 10
23.01874999998647
 20
0.1597076793377595
 30
0.0
 10
23.11885873196675
 20
0.1034207628517047
 30
0.0
 10
23.21640918487232
 20
0.0463679665495716
 30
0.0
 10
23.41381078718179
 20
-0.0680052238334245
 30
0.0
 10
23.5148062323545
 20
-0.1255445734119571
 30
0.0
 10
23.71435386808785
 20
-0.2373017175576629
 30
0.0
 10
23.8110180807353
 20
-0.2911897294204087
 30
0.0
 10
24.00988213365368
 20
-0.3946031996575535
 30
0.0
 10
24.11095873450376
 20
-0.4438744835538506
 30
0.0
 10
24.30935017056041
 20
-0.5341242542490251
 30
0.0
 10
24.4062095576731
 20
-0.5751082093546989
 30
0.0
 10
24.60605525424748
 20
-0.6482992383458568
 30
0.0
 10
24.70695920691439
 20
-0.680150966291906
 30
0.0
 10
24.90371746989448
 20
-0.7323074468457865
 30
0.0
 10
25.00185186814419
 20
-0.7528843919193657
 30
0.0
 10
25.20219040334923
 20
-0.7821827235624009
 30
0.0
 10
25.30266936107038
 20
-0.7907391128700237
 30
0.0
 10
25.39999999999999
 20
-0.793079134588246
 30
0.0
1001
PE_URL
1000

  0
SPLINE
  5
BF
330
1F
100
AcDbEntity
  8
0
  6
Continuous
 62
     1
370
    25
100
AcDbSpline
210
0.0
220
0.0
230
1.0
 70
     8
 71
     3
 72
     9
 73
     5
 74
     0
 42
0.000000001
 43
0.00000001
 40
0.0
 40
0.0
 40
0.0
 40
0.0
 40
0.0395426010387279
 40
1.0
 40
1.0
 40
1.0
 40
1.0
 10
23.42944336540089
 20
-0.0761538421810113
 30
0.0
 10
23.4240280562975
 20
-0.0740547122575658
 30
0.0
 10
23.2870793235094
 20
-0.020969435409196
 30
0.0
 10
23.15020854850123
 20
0.0352920343195165
 30
0.0
 10
23.01874999994306
 20
0.089328779196894
 30
0.0
1001
PE_URL
1000

  0
SPLINE
  5
C0
330
1F
100
AcDbEntity
  8
외형선
  6
Continuous
370
    15
100
AcDbSpline
210
0.0
220
0.0
230
1.0
 70
    24
 71
     3
 72
     9
 73
     5
 74
     0
 42
0.000000001
 43
0.00000001
 40
0.0
 40
0.0
 40
0.0
 40
0.0
 40
0.6194592180891099
 40
1.0
 40
1.0
 40
1.0
 40
1.0
 10
23.01874999999999
 20
0.1597076793301301
 30
0.0
 10
23.01874999999999
 20
0.1604788732583196
 30
0.0
 10
23.01875
 20
0.1617238203116033
 30
0.0
 10
23.01874999999999
 20
0.1602075196265686
 30
0.0
 10
23.01874999999999
 20
0.1596305053782736
 30
0.0
  0
SPLINE
  5
C1
330
1F
100
AcDbEntity
  8
외형선
  6
Continuous
370
    15
100
AcDbSpline
210
0.0
220
0.0
230
1.0
 70
    24
 71
     3
 72
    10
 73
     6
 74
     0
 42
0.000000001
 43
0.00000001
 40
0.0
 40
0.0
 40
0.0
 40
0.0
 40
0.1212533987695581
 40
0.5588209881586848
 40
1.0
 40
1.0
 40
1.0
 40
1.0
 10
23.01874999999999
 20
0.1247298054789215
 30
0.0
 10
23.01874999999999
 20
0.1236860618134941
 30
0.0
 10
23.01874999999999
 20
0.1188757565155202
 30
0.0
 10
23.01874999999999
 20
0.1067539970916773
 30
0.0
 10
23.01874999999999
 20
0.0951530774123359
 30
0.0
 10
23.01874999999999
 20
0.089328779175033
 30
0.0
  0
LINE
  5
C2
330
1F
100
AcDbEntity
  8
0
  6
Continuous
 62
     1
370
    25
100
AcDbLine
 10
25.39999999999999
 20
-0.7930791345885289
 30
0.0
 11
25.39999999999993
 21
-0.7532218149528185
 31
0.0
1001
PE_URL
1000

  0
SPLINE
  5
C3
330
1F
100
AcDbEntity
  8
0
  6
Continuous
 62
     1
370
    25
100
AcDbSpline
210
0.0
220
0.0
230
1.0
 70
     8
 71
     3
 72
     8
 73
     4
 74
     0
 42
0.000000001
 43
0.00000001
 40
0.0
 40
0.0
 40
0.0
 40
0.0
 40
1.0
 40
1.0
 40
1.0
 40
1.0
 10
24.90916518402693
 20
0.2217164472896028
 30
0.0
 10
24.88086283303623
 20
0.2552055529186494
 30
0.0
 10
24.85555695231339
 20
0.2874688336123002
 30
0.0
 10
24.83403983627201
 20
0.3181821699361861
 30
0.0
1001
PE_URL
1000

  0
LINE
  5
C4
330
1F
100
AcDbEntity
  8
0
  6
Continuous
 62
     1
370
    25
100
AcDbLine
 10
24.84409439046916
 20
0.3266189426618263
 30
0.0
 11
25.39999999999999
 21
0.0000000000000013
 31
0.0
1001
PE_URL
1000

  0
LINE
  5
C5
330
1F
100
AcDbEntity
  8
0
  6
Continuous
 62
     1
370
    25
100
AcDbLine
 10
25.39999999999999
 20
0.0000000000000013
 30
0.0
 11
25.39999999999999
 21
-0.2121240884110294
 31
0.0
1001
PE_URL
1000

  0
SPLINE
  5
C6
330
1F
100
AcDbEntity
  8
0
  6
Continuous
 62
     1
370
    25
100
AcDbSpline
210
0.0
220
0.0
230
1.0
 70
     8
 71
     3
 72
    10
 73
     6
 74
     0
 42
0.000000001
 43
0.00000001
 40
0.0
 40
0.0
 40
0.0
 40
0.0
 40
0.5
 40
0.5
 40
1.0
 40
1.0
 40
1.0
 40
1.0
 10
25.39999999999999
 20
-0.2121240884110297
 30
0.0
 10
25.31503968058412
 20
-0.1453288991865651
 30
0.0
 10
25.23149867432914
 20
-0.0757943889780214
 30
0.0
 10
25.06731817387943
 20
0.0688746449464604
 30
0.0
 10
24.98590546063869
 20
0.1447670400822726
 30
0.0
 10
24.90916518402627
 20
0.2217164472879014
 30
0.0
1001
PE_URL
1000

  0
SPLINE
  5
C7
330
1F
100
AcDbEntity
  8
0
  6
Continuous
 62
     1
370
    25
100
AcDbSpline
210
0.0
220
0.0
230
1.0
 70
     8
 71
     3
 72
    12
 73
     8
 74
     0
 42
0.000000001
 43
0.00000001
 40
0.0
 40
0.0
 40
0.0
 40
0.0
 40
0.1771286392487638
 40
0.4080749722144553
 40
0.6402258172700045
 40
0.8707069287221056
 40
1.0
 40
1.0
 40
1.0
 40
1.0
 10
24.90916518402681
 20
0.2217164472896581
 30
0.0
 10
24.80778030230803
 20
0.2645811796776009
 30
0.0
 10
24.57420637001886
 20
0.3633344053128047
 30
0.0
 10
24.2076784105035
 20
0.4915846920489841
 30
0.0
 10
23.81015814212482
 20
0.5877533010994322
 30
0.0
 10
23.47110753484963
 20
0.6361936007053827
 30
0.0
 10
23.26514683140929
 20
0.6302749588345674
 30
0.0
 10
23.19113014764313
 20
0.6281479596723012
 30
0.0
1001
PE_URL
1000

  0
SPLINE
  5
C8
330
1F
100
AcDbEntity
  8
0
  6
Continuous
 62
     1
370
    25
100
AcDbSpline
210
0.0
220
0.0
230
1.0
 70
    24
 71
     3
 72
     8
 73
     4
 74
     0
 42
0.000000001
 43
0.00000001
 40
0.0
 40
0.0
 40
0.0
 40
0.0
 40
1.0
 40
1.0
 40
1.0
 40
1.0
 10
25.39999999999999
 20
-0.6262467348422703
 30
0.0
 10
25.39999999999999
 20
-0.530233345201268
 30
0.0
 10
25.39999999999999
 20
-0.3805014774328975
 30
0.0
 10
25.39999999999999
 20
-0.2121240884110552
 30
0.0
1001
PE_URL
1000

  0
SPLINE
  5
C9
330
1F
100
AcDbEntity
  8
외형선
  6
Continuous
370
    15
100
AcDbSpline
210
0.0
220
0.0
230
1.0
 70
    24
 71
     3
 72
    13
 73
     9
 74
     0
 42
0.000000001
 43
0.00000001
 40
0.0
 40
0.0
 40
0.0
 40
0.0
 40
0.0514549208762409
 40
0.1975920573768013
 40
0.4067797116533318
 40
0.6220338220753903
 40
0.8088780038105984
 40
0.9999999999999999
 40
0.9999999999999999
 40
0.9999999999999999
 40
0.9999999999999999
 10
23.01874999999999
 20
0.6259916179913658
 30
0.0
 10
23.01874999999999
 20
0.6260078992087709
 30
0.0
 10
23.01874999999999
 20
0.6260704207167019
 30
0.0
 10
23.01874999999999
 20
0.6121173248348742
 30
0.0
 10
23.01874999999999
 20
0.5780294171208826
 30
0.0
 10
23.01874999999999
 20
0.5174567657630849
 30
0.0
 10
23.01874999999999
 20
0.4410135452874557
 30
0.0
 10
23.01874999999999
 20
0.3795374870127938
 30
0.0
 10
23.01874999999999
 20
0.3484515654104303
 30
0.0
  0
SPLINE
  5
CA
330
1F
100
AcDbEntity
  8
0
  6
Continuous
 62
     1
370
    25
100
AcDbSpline
210
0.0
220
0.0
230
1.0
 70
    24
 71
     3
 72
     8
 73
     4
 74
     0
 42
0.000000001
 43
0.00000001
 40
0.0
 40
0.0
 40
0.0
 40
0.0
 40
1.0
 40
1.0
 40
1.0
 40
1.0
 10
24.91672898750671
 20
0.3875666062467478
 30
0.0
 10
24.89053382861936
 20
0.3655862580857431
 30
0.0
 10
24.8628916382837
 20
0.3423917063701527
 30
0.0
 10
24.83403983626884
 20
0.3181821699406915
 30
0.0
1001
PE_URL
1000

  0
LINE
  5
CB
330
1F
100
AcDbEntity
  8
0
  6
Continuous
 62
     1
370
    25
100
AcDbLine
 10
25.39999999999999
 20
0.5556250000000008
 30
0.0
 11
25.10261314534355
 21
0.5383819343967153
 31
0.0
1001
PE_URL
1000

  0
SPLINE
  5
CC
330
1F
100
AcDbEntity
  8
0
  6
Continuous
 62
     1
370
    25
100
AcDbSpline
210
0.0
220
0.0
230
1.0
 70
     8
 71
     3
 72
     8
 73
     4
 74
     0
 42
0.000000001
 43
0.00000001
 40
0.0
 40
0.0
 40
0.0
 40
0.0
 40
1.0
 40
1.0
 40
1.0
 40
1.0
 10
25.39999999999999
 20
0.5556250000000013
 30
0.0
 10
25.23667374258707
 20
0.5111936580935004
 30
0.0
 10
25.07490442684246
 20
0.4567198980990607
 30
0.0
 10
24.91672898751496
 20
0.3875666062503563
 30
0.0
1001
PE_URL
1000

  0
SPLINE
  5
CD
330
1F
100
AcDbEntity
  8
0
  6
Continuous
 62
     1
370
    25
100
AcDbSpline
210
0.0
220
0.0
230
1.0
 70
     8
 71
     3
 72
     9
 73
     5
 74
     0
 42
0.000000001
 43
0.00000001
 40
0.0
 40
0.0
 40
0.0
 40
0.0
 40
0.4379429064871869
 40
1.0
 40
1.0
 40
1.0
 40
1.0
 10
23.72068450303377
 20
-0.5922319215358457
 30
0.0
 10
23.61817737144855
 20
-0.607745880882336
 30
0.0
 10
23.38411231395638
 20
-0.6431704970062285
 30
0.0
 10
23.15021413218145
 20
-0.6326517917744444
 30
0.0
 10
23.0187499999551
 20
-0.6267396788843499
 30
0.0
1001
PE_URL
1000

  0
SPLINE
  5
CE
330
1F
100
AcDbEntity
  8
외형선
  6
Continuous
370
    15
100
AcDbSpline
210
0.0
220
0.0
230
1.0
 70
    24
 71
     3
 72
    10
 73
     6
 74
     0
 42
0.000000001
 43
0.00000001
 40
0.0
 40
0.0
 40
0.0
 40
0.0
 40
0.5
 40
0.5
 40
1.0
 40
1.0
 40
1.0
 40
1.0
 10
23.01874999999999
 20
0.0893287791743189
 30
0.0
 10
23.01874999999999
 20
-0.0511012437046506
 30
0.0
 10
23.01874999999999
 20
-0.1989304002201367
 30
0.0
 10
23.01874999999999
 20
-0.4534624203124524
 30
0.0
 10
23.01874999999999
 20
-0.5581931478435261
 30
0.0
 10
23.01874999999999
 20
-0.6267396788876645
 30
0.0
  0
LINE
  5
CF
330
1F
100
AcDbEntity
  8
0
  6
Continuous
 62
     1
370
    25
100
AcDbLine
 10
25.39999999999999
 20
0.0000000000000013
 30
0.0
 11
25.39999999999999
 21
0.5556250000000011
 31
0.0
1001
PE_URL
1000

  0
SPLINE
  5
D0
330
1F
100
AcDbEntity
  8
0
  6
Continuous
 62
     1
370
    25
100
AcDbSpline
210
0.0
220
0.0
230
1.0
 70
    24
 71
     3
 72
     8
 73
     4
 74
     0
 42
0.000000001
 43
0.00000001
 40
0.0
 40
0.0
 40
0.0
 40
0.0
 40
1.0
 40
1.0
 40
1.0
 40
1.0
 10
25.39999999999999
 20
0.5556250000000008
 30
0.0
 10
25.39999999999999
 20
0.6229862076816114
 30
0.0
 10
25.39999999999999
 20
0.7135749447463081
 30
0.0
 10
25.39999999999999
 20
0.7930791345885304
 30
0.0
1001
PE_URL
1000

  0
SPLINE
  5
D1
330
1F
100
AcDbEntity
  8
0
  6
Continuous
 62
     1
370
    25
100
AcDbSpline
210
0.0
220
0.0
230
1.0
 70
     8
 71
     3
 72
    16
 73
    12
 74
     0
 42
0.000000001
 43
0.00000001
 40
0.0
 40
0.0
 40
0.0
 40
0.0
 40
0.118372279091851
 40
0.22642137444259
 40
0.3348684324355092
 40
0.4435146025259923
 40
0.5525687295930559
 40
0.6638777723807974
 40
0.7754046365238025
 40
0.8875904635326423
 40
1.0
 40
1.0
 40
1.0
 40
1.0
 10
24.30950032252668
 20
0.532245794882082
 30
0.0
 10
24.3524318909888
 20
0.5506757059941069
 30
0.0
 10
24.43455098857437
 20
0.5859282654349997
 30
0.0
 10
24.55647033896359
 20
0.6303788214579061
 30
0.0
 10
24.67485871130421
 20
0.6695433204951466
 30
0.0
 10
24.79350622006039
 20
0.7038547464083629
 30
0.0
 10
24.9126726172648
 20
0.733573588342561
 30
0.0
 10
25.03336112969593
 20
0.7575555911788329
 30
0.0
 10
25.15534920447363
 20
0.7756873199962016
 30
0.0
 10
25.2777334873084
 20
0.7883028797176157
 30
0.0
 10
25.3592174415878
 20
0.7914859927790808
 30
0.0
 10
25.39999999999999
 20
0.7930791345885305
 30
0.0
1001
PE_URL
1000

  0
LINE
  5
D2
330
1F
100
AcDbEntity
  8
중심선
 62
     1
100
AcDbLine
 10
-26.9
 20
-0.0000000000000033
 30
0.0
 11
26.89999999999999
 21
0.0000000000000033
 31
0.0
  0
LINE
  5
D3
330
1F
100
AcDbEntity
  8
참조1
100
AcDbLine
 10
-0.0000000000000178
 20
-0.0000000000000035
 30
0.0
 11
-0.0000000000000071
 21
-40.00000000000001
 31
0.0
  0
LINE
  5
D4
330
1F
100
AcDbEntity
  8
참조1
100
AcDbLine
 10
-0.0000000000000071
 20
-40.00000000000001
 30
0.0
 11
-16.84696559669924
 21
-39.99999999999999
 31
0.0
  0
CIRCLE
  5
D5
330
1F
100
AcDbEntity
  8
해칭선
100
AcDbCircle
 10
0.0
 20
0.0
 30
0.0
 40
3.000000000000001
  0
INSERT
  5
D6
330
1F
100
AcDbEntity
  8
0
  6
Continuous
 62
     7
100
AcDbBlockReference
 66
     1
  2
블럭10
 10
-13.94027293212522
 20
-52.04717430164393
 30
0.0
  0
ATTRIB
  5
D7
330
D6
100
AcDbEntity
  8
FORMAT
 62
     2
100
AcDbText
 10
-23.1215682208665
 20
-49.97180738881174
 30
0.0
 40
4.233333333333333
  1
E2001004 [ 2 FLUTE ]
 41
0.75
  7
SLDTEXTSTYLE0
 11
-23.1215682208665
 21
-52.08847405547841
 31
0.0
100
AcDbAttribute
  2
AUTOATTR0
 70
     0
 74
     1
  0
SEQEND
  5
D8
330
D6
100
AcDbEntity
  8
0
  6
Continuous
 62
     7
  0
HATCH
  5
D9
330
1F
100
AcDbEntity
  8
중심선
100
AcDbHatch
 10
0.0
 20
0.0
 30
0.0
210
0.0
220
0.0
230
1.0
  2
SOLID
 70
     1
 71
     0
 91
        1
 92
        0
 93
        4
 72
     1
 10
-8.225363627744368
 20
-35.8
 11
-11.67163887158165
 21
-35.8
 72
     1
 10
-11.67163887158165
 20
-35.8
 11
-13.79986873078567
 21
-38.3363255805726
 72
     1
 10
-13.79986873078567
 20
-38.3363255805726
 11
-10.35356040183525
 21
-38.3362861512701
 72
     1
 10
-10.35356040183525
 20
-38.3362861512701
 11
-8.225363627744368
 21
-35.8
 97
        0
 75
     0
 76
     1
 98
        1
 10
12.6129616787305
 20
-0.0010749287238927
  0
HATCH
  5
DA
330
1F
100
AcDbEntity
  8
중심선
100
AcDbHatch
 10
0.0
 20
0.0
 30
0.0
210
0.0
220
0.0
230
1.0
  2
SOLID
 70
     1
 71
     0
 91
        1
 92
        0
 93
        4
 72
     1
 10
-3.212599636708386
 20
-35.79999999999998
 11
-6.658874880545667
 21
-35.80000000000003
 72
     1
 10
-6.658874880545667
 20
-35.80000000000003
 11
-11.19001288890309
 21
-41.20000000000002
 72
     1
 10
-11.19001288890309
 20
-41.20000000000002
 11
-7.743737645065806
 21
-41.20000000000002
 72
     1
 10
-7.743737645065806
 20
-41.20000000000002
 11
-3.212599636708386
 21
-35.79999999999998
 97
        0
 75
     0
 76
     1
 98
        1
 10
12.6129616787305
 20
-0.0010749287238927
  0
HATCH
  5
DB
330
1F
100
AcDbEntity
  8
중심선
100
AcDbHatch
 10
0.0
 20
0.0
 30
0.0
210
0.0
220
0.0
230
1.0
  2
SOLID
 70
     1
 71
     0
 91
        1
 92
        0
 93
        4
 72
     1
 10
1.800164354327453
 20
-35.8
 11
-1.646110889509638
 21
-35.8
 72
     1
 10
-1.646110889509638
 20
-35.8
 11
-8.694547791398886
 21
-44.20000000000002
 72
     1
 10
-8.694547791398886
 20
-44.20000000000002
 11
-5.248272547561609
 21
-44.20000000000002
 72
     1
 10
-5.248272547561609
 20
-44.20000000000002
 11
1.800164354327453
 21
-35.8
 97
        0
 75
     0
 76
     1
 98
        1
 10
12.6129616787305
 20
-0.0010749287238927
  0
HATCH
  5
DC
330
1F
100
AcDbEntity
  8
중심선
100
AcDbHatch
 10
0.0
 20
0.0
 30
0.0
210
0.0
220
0.0
230
1.0
  2
SOLID
 70
     1
 71
     0
 91
        1
 92
        0
 93
        6
 72
     3
 10
6.600054785339679
 20
-40.00000000005127
 11
3.960054785062284
 21
1.540882976769353E-10
 40
0.3939339440162627
 50
17.09539180608441
 51
320.0019657685082
 73
     0
 72
     1
 10
8.283054441040274
 20
-38.58789400463831
 11
10.58835631474134
 21
-36.65356729459035
 72
     3
 10
6.600054785286832
 20
-40.00000000000014
 11
6.60005478528683
 21
-1.278976924368180E-13
 40
0.636358354079598
 50
39.99873849337413
 51
368.4976242363724
 73
     1
 72
     1
 10
13.02538727718744
 20
-39.03999999993002
 11
5.280122092122754
 21
-39.03999999993002
 72
     1
 10
5.280122092122756
 20
-39.03999999993002
 11
5.280097047676822
 21
-40.95999999992991
 72
     1
 10
5.280097047676822
 20
-40.95999999992991
 11
9.721476817148858
 21
-40.95999999992988
 97
        0
 75
     0
 76
     1
 98
        1
 10
12.6129616787305
 20
-0.0010749287238927
  0
DIMENSION
  5
DD
330
1F
100
AcDbEntity
  8
치수문자_일반주서
100
AcDbDimension
  2
_D
 10
-33.39999999999999
 20
-2.381250000000065
 30
0.0
 11
-33.40000000000005
 21
17.63124999999997
 31
0.0
 70
   160
  1
%%c<>
 71
     2
 42
4.762499999999998
 52
-270.0
  3
SLDDIMSTYLE0
100
AcDbAlignedDimension
 13
-16.09411934298441
 23
2.381249999999997
 33
0.0
 14
-16.09411934298442
 24
-2.381250000000001
 34
0.0
 50
90.0000000000002
100
AcDbRotatedDimension
1001
PE_URL
1000

1001
ACAD
1000
DSTYLE
1002
{
1070
   171
1070
     8
1070
   273
1070
     7
1070
    41
1040
2.5
1070
   140
1040
2.5
1002
}
  0
DIMENSION
  5
F2
330
1F
100
AcDbEntity
  8
치수문자_일반주서
100
AcDbDimension
  2
_D_1
 10
54.8686295681426
 20
0.7930791345886412
 30
0.0
 11
54.86862956814254
 21
15.41807913458864
 31
0.0
 70
   160
  1
%%c<>
 71
     2
 42
1.586158269177059
 52
-270.0
  3
SLDDIMSTYLE0
100
AcDbAlignedDimension
 13
25.39999999999999
 23
-0.7930791345885289
 33
0.0
 14
25.39999999999999
 24
0.7930791345885305
 34
0.0
 50
90.0000000000002
100
AcDbRotatedDimension
1001
PE_URL
1000

1001
ACAD
1000
DSTYLE
1002
{
1070
   171
1070
     8
1070
   273
1070
     7
1070
    41
1040
2.5
1070
   140
1040
2.5
1002
}
  0
DIMENSION
  5
106
330
1F
100
AcDbEntity
  8
치수문자_일반주서
100
AcDbDimension
  2
_D_2
 10
23.01874999999999
 20
10.38125
 30
0.0
 11
40.02499999999999
 21
10.38125
 31
0.0
 70
   160
  1
<>
 71
     2
 42
2.381249999999998
  3
SLDDIMSTYLE0
100
AcDbAlignedDimension
 13
25.39999999999999
 23
0.7930791345885305
 33
0.0
 14
23.01874999999999
 24
0.6276487843680987
 34
0.0
100
AcDbRotatedDimension
1001
PE_URL
1000

1001
ACAD
1000
DSTYLE
1002
{
1070
   171
1070
     8
1070
   273
1070
     7
1070
    41
1040
2.5
1070
   140
1040
2.5
1002
}
  0
DIMENSION
  5
11B
330
1F
100
AcDbEntity
  8
치수문자_일반주서
100
AcDbDimension
  2
_D_3
 10
25.4
 20
18.38125
 30
0.0
 11
0.0000000000000036
 21
18.38125
 31
0.0
 70
   160
  1
<>
 71
     2
 42
50.79999999999998
  3
SLDDIMSTYLE0
100
AcDbAlignedDimension
 13
-25.4
 23
0.7930791345885515
 33
0.0
 14
25.39999999999999
 24
0.7930791345885305
 34
0.0
100
AcDbRotatedDimension
1001
PE_URL
1000

1001
ACAD
1000
DSTYLE
1002
{
1070
   171
1070
     8
1070
   273
1070
     7
1070
    41
1040
2.5
1070
   140
1040
2.5
1002
}
  0
LINE
  5
12F
330
1F
100
AcDbEntity
  8
참조1
100
AcDbLine
 10
81.12537503295503
 20
7.440000000000004
 30
0.0
 11
81.12537503295503
 21
-7.440000000000001
 31
0.0
  0
LINE
  5
130
330
1F
100
AcDbEntity
  8
참조1
100
AcDbLine
 10
93.82537503295504
 20
5.440000000000004
 30
0.0
 11
81.12537503295503
 21
5.440000000000004
 31
0.0
  0
SOLID
  5
131
330
1F
100
AcDbEntity
  8
참조1
100
AcDbTrace
 10
81.12537503295503
 20
5.440000000000004
 30
0.0
 11
87.47537503295503
 21
4.424000000000004
 31
0.0
 12
87.47537503295503
 22
6.456000000000004
 32
0.0
 13
87.47537503295503
 23
6.456000000000004
 33
0.0
  0
LINE
  5
132
330
1F
100
AcDbEntity
  8
참조1
100
AcDbLine
 10
93.82537503295504
 20
-5.440000000000001
 30
0.0
 11
81.12537503295503
 21
-5.440000000000001
 31
0.0
  0
SOLID
  5
133
330
1F
100
AcDbEntity
  8
참조1
100
AcDbTrace
 10
81.12537503295503
 20
-5.440000000000001
 30
0.0
 11
87.47537503295503
 21
-6.456000000000001
 31
0.0
 12
87.47537503295503
 22
-4.424000000000001
 32
0.0
 13
87.47537503295503
 23
-4.424000000000001
 33
0.0
  0
MTEXT
  5
134
330
1F
100
AcDbEntity
  8
참조1
100
AcDbMText
 10
90.50972516558103
 20
11.01029177718833
 30
0.0
 40
3.5
 41
0.0
 71
     1
 72
     1
  1
A
  7
SLDTEXTSTYLE0
 73
     1
 44
1.0
  0
MTEXT
  5
135
330
1F
100
AcDbEntity
  8
참조1
100
AcDbMText
 10
90.50972516558103
 20
0.1302917771883265
 30
0.0
 40
3.5
 41
0.0
 71
     1
 72
     1
  1
A
  7
SLDTEXTSTYLE0
 73
     1
 44
1.0
  0
INSERT
  5
13C
330
1F
100
AcDbEntity
  8
해칭선
100
AcDbBlockReference
  2
SW_DOWELSYMBOL_0
 10
0.0
 20
0.0
 30
0.0
  0
LINE
  5
262
330
1F
100
AcDbEntity
  8
외형선
  6
Continuous
370
    15
100
AcDbLine
 10
-16.09411934298441
 20
2.381249999999998
 30
0.0
 11
-22.01874999999998
 21
0.7937499999999922
 31
0.0
  0
LINE
  5
263
330
1F
100
AcDbEntity
  8
외형선
  6
Continuous
370
    15
100
AcDbLine
 10
-22.01874999999998
 20
-0.7937500000000082
 30
0.0
 11
-16.0941193429844
 21
-2.381250000000001
 31
0.0
  0
LINE
  5
264
330
1F
100
AcDbEntity
  8
외형선
  6
Continuous
370
    15
100
AcDbLine
 10
-22.21860408525556
 20
-0.7937500000000082
 30
0.0
 11
-22.01874999999998
 21
-0.7937500000000082
 31
0.0
  0
LINE
  5
265
330
1F
100
AcDbEntity
  8
외형선
  6
Continuous
370
    15
100
AcDbLine
 10
-22.01874999999998
 20
0.7937499999999922
 30
0.0
 11
-22.21860408525556
 21
0.7937499999999922
 31
0.0
  0
SPLINE
  5
266
330
1F
100
AcDbEntity
  8
외형선
  6
Continuous
370
    15
100
AcDbSpline
210
0.0
220
0.0
230
1.0
 70
     8
 71
     3
 72
     9
 73
     5
 74
     0
 42
0.000000001
 43
0.00000001
 40
0.0
 40
0.0
 40
0.0
 40
0.0
 40
0.5551503211247245
 40
1.0
 40
1.0
 40
1.0
 40
1.0
 10
-22.97098922010862
 20
-0.624294461806155
 30
0.0
 10
-22.87082620614692
 20
-0.6213643685085746
 30
0.0
 10
-22.69040117503323
 20
-0.616086350670729
 30
0.0
 10
-22.49931363060979
 20
-0.6238375396677363
 30
0.0
 10
-22.41430839783596
 20
-0.6272856536039573
 30
0.0
  0
SPLINE
  5
267
330
1F
100
AcDbEntity
  8
외형선
  6
Continuous
370
    15
100
AcDbSpline
210
0.0
220
0.0
230
1.0
 70
     8
 71
     3
 72
    10
 73
     6
 74
     0
 42
0.000000001
 43
0.00000001
 40
0.0
 40
0.0
 40
0.0
 40
0.0
 40
0.4385656140108667
 40
0.6162019338437457
 40
1.0
 40
1.0
 40
1.0
 40
1.0
 10
-22.21864729642371
 20
0.6337883525746904
 30
0.0
 10
-22.33510962187708
 20
0.6282441267451482
 30
0.0
 10
-22.49874376890468
 20
0.6204542714334522
 30
0.0
 10
-22.76451853076726
 20
0.6191047185143059
 30
0.0
 10
-22.91552296200936
 20
0.6239900399410647
 30
0.0
 10
-23.01874999999998
 20
0.6273296588937569
 30
0.0
  0
LINE
  5
268
330
1F
100
AcDbEntity
  8
0
  6
Continuous
 62
     1
370
    25
100
AcDbLine
 10
-23.33455820417954
 20
-0.2073047172229767
 30
0.0
 11
-23.21238726493496
 21
-0.2658791594731831
 31
0.0
1001
PE_URL
1000

  0
LINE
  5
269
330
1F
100
AcDbEntity
  8
0
  6
Continuous
 62
     1
370
    25
100
AcDbLine
 10
-23.19390084185683
 20
-0.6346289521497397
 30
0.0
 11
-23.01874999995509
 21
-0.6273296588921582
 31
0.0
1001
PE_URL
1000

  0
SPLINE
  5
26A
330
1F
100
AcDbEntity
  8
0
  6
Continuous
 62
     1
370
    25
100
AcDbSpline
210
0.0
220
0.0
230
1.0
 70
     8
 71
     3
 72
    16
 73
    12
 74
     0
 42
0.000000001
 43
0.00000001
 40
0.0
 40
0.0
 40
0.0
 40
0.0
 40
0.1608537158319782
 40
0.2595074244963852
 40
0.345754778717228
 40
0.4525249885784787
 40
0.5533295483293668
 40
0.6552273873589394
 40
0.7392928982021264
 40
0.8389626844587011
 40
1.0
 40
1.0
 40
1.0
 40
1.0
 10
-25.10394393296257
 20
-0.5428062102217943
 30
0.0
 10
-25.0295456870937
 20
-0.5372383678929253
 30
0.0
 10
-24.9095180142941
 20
-0.5282556943171652
 30
0.0
 10
-24.75047325955252
 20
-0.5231477008492416
 30
0.0
 10
-24.6156968138062
 20
-0.5218088723503964
 30
0.0
 10
-24.47996174205564
 20
-0.5238351608378142
 30
0.0
 10
-24.33724689214597
 20
-0.529757446020227
 30
0.0
 10
-24.20505520081613
 20
-0.538710905628724
 30
0.0
 10
-24.07311643409409
 20
-0.5505458175771896
 30
0.0
 10
-23.91407905253156
 20
-0.5678783697603382
 30
0.0
 10
-23.79363262837468
 20
-0.5858592751904439
 30
0.0
 10
-23.71923354726408
 20
-0.5969659796933033
 30
0.0
1001
PE_URL
1000

  0
SPLINE
  5
26B
330
1F
100
AcDbEntity
  8
0
  6
Continuous
 62
     1
370
    25
100
AcDbSpline
210
0.0
220
0.0
230
1.0
 70
     8
 71
     3
 72
    11
 73
     7
 74
     0
 42
0.000000001
 43
0.00000001
 40
0.0
 40
0.0
 40
0.0
 40
0.0
 40
0.3723478804917132
 40
0.6028027507617048
 40
0.7971776674057065
 40
1.0
 40
1.0
 40
1.0
 40
1.0
 10
-23.71923354726408
 20
0.5969659796932838
 30
0.0
 10
-23.79363269216803
 20
0.5858498626390105
 30
0.0
 10
-23.91407921960143
 20
0.5678537190078021
 30
0.0
 10
-24.07311607441294
 20
0.5505988876512511
 30
0.0
 10
-24.19850688236152
 20
0.5391285478474472
 30
0.0
 10
-24.27770315950835
 20
0.5341869761035039
 30
0.0
 10
-24.31814345383191
 20
0.5316636426471142
 30
0.0
1001
PE_URL
1000

  0
LINE
  5
26C
330
1F
100
AcDbEntity
  8
0
  6
Continuous
 62
     1
370
    25
100
AcDbLine
 10
-23.01874999995509
 20
0.6273296588921404
 30
0.0
 11
-23.19390084185683
 21
0.6346289521497219
 31
0.0
1001
PE_URL
1000

  0
LINE
  5
26D
330
1F
100
AcDbEntity
  8
외형선
  6
Continuous
370
    15
100
AcDbLine
 10
-16.0941193429844
 20
-2.381250000000001
 30
0.0
 11
-16.09411934298441
 21
2.381249999999996
 31
0.0
  0
LINE
  5
26E
330
1F
100
AcDbEntity
  8
외형선
  6
Continuous
370
    15
100
AcDbLine
 10
-22.01874999999998
 20
-0.7937500000000082
 30
0.0
 11
-22.01874999999998
 21
0.7937499999999922
 31
0.0
  0
ELLIPSE
  5
26F
330
1F
100
AcDbEntity
  8
외형선
  6
Continuous
370
    15
100
AcDbEllipse
 10
-22.21865344111493
 20
-0.0000000000000089
 30
0.0
 11
-4.935585938460186E-5
 21
-0.7937499999999995
 31
0.0
210
0.0
220
0.0
230
1.0
 40
0.0000225456525087
 41
0.7865161235133421
 42
3.648532770361253
  0
SPLINE
  5
270
330
1F
100
AcDbEntity
  8
외형선
  6
Continuous
370
    15
100
AcDbSpline
210
0.0
220
0.0
230
1.0
 70
    24
 71
     3
 72
     8
 73
     4
 74
     0
 42
0.000000001
 43
0.00000001
 40
0.0
 40
0.0
 40
0.0
 40
0.0
 40
1.0
 40
1.0
 40
1.0
 40
1.0
 10
-22.21867566278649
 20
-0.5604277911131774
 30
0.0
 10
-22.21867566278649
 20
-0.5216341943116962
 30
0.0
 10
-22.21867566278649
 20
-0.450002425872297
 30
0.0
 10
-22.21867566278649
 20
-0.3758074487631085
 30
0.0
  0
SPLINE
  5
271
330
1F
100
AcDbEntity
  8
외형선
  6
Continuous
370
    15
100
AcDbSpline
210
0.0
220
0.0
230
1.0
 70
    24
 71
     3
 72
    10
 73
     6
 74
     0
 42
0.000000001
 43
0.00000001
 40
0.0
 40
0.0
 40
0.0
 40
0.0
 40
0.5
 40
0.5
 40
1.0
 40
1.0
 40
1.0
 40
1.0
 10
-22.21865694342977
 20
-0.3758130514570137
 30
0.0
 10
-22.21865694342977
 20
-0.2543574290393238
 30
0.0
 10
-22.21865694342977
 20
-0.1065782276167546
 30
0.0
 10
-22.21865694342977
 20
0.1932590987987002
 30
0.0
 10
-22.21865694342977
 20
0.3429940583247308
 30
0.0
 10
-22.21865694342977
 20
0.46771167253595
 30
0.0
  0
SPLINE
  5
272
330
1F
100
AcDbEntity
  8
외형선
  6
Continuous
370
    15
100
AcDbSpline
210
0.0
220
0.0
230
1.0
 70
     8
 71
     3
 72
    10
 73
     6
 74
     0
 42
0.000000001
 43
0.00000001
 40
0.0
 40
0.0
 40
0.0
 40
0.0
 40
0.3472277753056688
 40
0.6924223283132972
 40
1.0
 40
1.0
 40
1.0
 40
1.0
 10
-22.21861467525989
 20
0.4677086402767472
 30
0.0
 10
-22.21861377379717
 20
0.5016350851516194
 30
0.0
 10
-22.2186119761503
 20
0.5692893156663636
 30
0.0
 10
-22.21861255683869
 20
0.6240754637379453
 30
0.0
 10
-22.21861491425916
 20
0.6293328344632485
 30
0.0
 10
-22.21861602504464
 20
0.631810038280614
 30
0.0
  0
SPLINE
  5
273
330
1F
100
AcDbEntity
  8
외형선
  6
Continuous
370
    15
100
AcDbSpline
210
0.0
220
0.0
230
1.0
 70
    24
 71
     3
 72
     8
 73
     4
 74
     0
 42
0.000000001
 43
0.00000001
 40
0.0
 40
0.0
 40
0.0
 40
0.0
 40
1.0
 40
1.0
 40
1.0
 40
1.0
 10
-22.2185980694905
 20
0.608492970538661
 30
0.0
 10
-22.2185980694905
 20
0.6393081365368065
 30
0.0
 10
-22.2185980694905
 20
0.6679714336128466
 30
0.0
 10
-22.2185980694905
 20
0.6939027677974856
 30
0.0
  0
SPLINE
  5
274
330
1F
100
AcDbEntity
  8
외형선
  6
Continuous
370
    15
100
AcDbSpline
210
0.0
220
0.0
230
1.0
 70
     8
 71
     3
 72
    12
 73
     8
 74
     0
 42
0.000000001
 43
0.00000001
 40
0.0
 40
0.0
 40
0.0
 40
0.0
 40
0.2500000000000001
 40
0.2500000000000001
 40
0.5000000000000001
 40
0.5000000000000001
 40
1.0
 40
1.0
 40
1.0
 40
1.0
 10
-23.01874999999996
 20
-0.3682311802811604
 30
0.0
 10
-22.95158938816139
 20
-0.402381851244936
 30
0.0
 10
-22.88417424927039
 20
-0.4352649717563608
 30
0.0
 10
-22.75096341742427
 20
-0.4974807553287963
 30
0.0
 10
-22.6860562939568
 20
-0.5266972242561891
 30
0.0
 10
-22.48722182870587
 20
-0.6091306979447335
 30
0.0
 10
-22.35066991863517
 20
-0.6566813228045376
 30
0.0
 10
-22.2185980694905
 20
-0.6939068694142563
 30
0.0
  0
LINE
  5
275
330
1F
100
AcDbEntity
  8
외형선
  6
Continuous
370
    15
100
AcDbLine
 10
-23.01874999999998
 20
-0.3682311802811515
 30
0.0
 11
-23.01874999999998
 21
-0.159707679330138
 31
0.0
  0
SPLINE
  5
276
330
1F
100
AcDbEntity
  8
외형선
  6
Continuous
370
    15
100
AcDbSpline
210
0.0
220
0.0
230
1.0
 70
     8
 71
     3
 72
    12
 73
     8
 74
     0
 42
0.000000001
 43
0.00000001
 40
0.0
 40
0.0
 40
0.0
 40
0.0
 40
0.5
 40
0.5
 40
0.75
 40
0.75
 40
1.0
 40
1.0
 40
1.0
 40
1.0
 10
-22.21867566278649
 20
-0.5604461870256507
 30
0.0
 10
-22.35073631899046
 20
-0.5061597065578916
 30
0.0
 10
-22.48727452516602
 20
-0.4432698497892282
 30
0.0
 10
-22.68608835360119
 20
-0.3418492343768733
 30
0.0
 10
-22.75098934686965
 20
-0.3069680318901646
 30
0.0
 10
-22.88418745082241
 20
-0.2347021216786338
 30
0.0
 10
-22.9515959643408
 20
-0.1974655604068456
 30
0.0
 10
-23.01874999998641
 20
-0.1597076793377692
 30
0.0
  0
LINE
  5
277
330
1F
100
AcDbEntity
  8
외형선
  6
Continuous
370
    15
100
AcDbLine
 10
-22.41706996256565
 20
0.6263455969325022
 30
0.0
 11
-22.2185980694905
 21
0.6939068694142385
 31
0.0
  0
ELLIPSE
  5
278
330
1F
100
AcDbEntity
  8
외형선
  6
Continuous
370
    15
100
AcDbEllipse
 10
-22.21865344111493
 20
-0.0000000000000089
 30
0.0
 11
4.935585938591479E-5
 21
-0.7937499999999995
 31
0.0
210
0.0
220
0.0
230
1.0
 40
0.0000225456525109
 41
5.776245191401284
 42
6.283185307179586
  0
SPLINE
  5
279
330
1F
100
AcDbEntity
  8
외형선
  6
Continuous
370
    15
100
AcDbSpline
210
0.0
220
0.0
230
1.0
 70
    24
 71
     3
 72
     9
 73
     5
 74
     0
 42
0.000000001
 43
0.00000001
 40
0.0
 40
0.0
 40
0.0
 40
0.0
 40
0.6427800608538724
 40
1.0
 40
1.0
 40
1.0
 40
1.0
 10
-23.01874999999998
 20
-0.159707679330138
 30
0.0
 10
-23.01874999999998
 20
-0.1604921698728745
 30
0.0
 10
-23.01874999999998
 20
-0.1617126348351761
 30
0.0
 10
-23.01874999999998
 20
-0.1602720334870842
 30
0.0
 10
-23.01874999999998
 20
-0.159757421961185
 30
0.0
  0
SPLINE
  5
27A
330
1F
100
AcDbEntity
  8
외형선
  6
Continuous
370
    15
100
AcDbSpline
210
0.0
220
0.0
230
1.0
 70
    24
 71
     3
 72
    10
 73
     6
 74
     0
 42
0.000000001
 43
0.00000001
 40
0.0
 40
0.0
 40
0.0
 40
0.0
 40
0.1209227481758753
 40
0.5586549834174062
 40
1.0
 40
1.0
 40
1.0
 40
1.0
 10
-23.01874999999998
 20
-0.1247198054789305
 30
0.0
 10
-23.01874999999998
 20
-0.1236792271164493
 30
0.0
 10
-23.01874999999998
 20
-0.1188718248980454
 30
0.0
 10
-23.01874999999998
 20
-0.1067537702964376
 30
0.0
 10
-23.01874999999998
 20
-0.0951530016070841
 30
0.0
 10
-23.01874999999998
 20
-0.089328779175041
 30
0.0
  0
SPLINE
  5
27B
330
1F
100
AcDbEntity
  8
외형선
  6
Continuous
370
    15
100
AcDbSpline
210
0.0
220
0.0
230
1.0
 70
     8
 71
     3
 72
    12
 73
     8
 74
     0
 42
0.000000001
 43
0.00000001
 40
0.0
 40
0.0
 40
0.0
 40
0.0
 40
0.25
 40
0.25
 40
0.5
 40
0.5
 40
1.0
 40
1.0
 40
1.0
 40
1.0
 10
-23.01874999994305
 20
-0.0893287791969026
 30
0.0
 10
-22.95159437780478
 20
-0.1159607486473373
 30
0.0
 10
-22.8841842659299
 20
-0.1423079212581602
 30
0.0
 10
-22.75098309139142
 20
-0.1936072463890621
 30
0.0
 10
-22.68608061925585
 20
-0.2184530590602751
 30
0.0
 10
-22.48726181223088
 20
-0.2909568049644555
 30
0.0
 10
-22.35072029999363
 20
-0.3362867627952077
 30
0.0
 10
-22.21865694342977
 20
-0.3758130514570137
 30
0.0
  0
SPLINE
  5
27C
330
1F
100
AcDbEntity
  8
외형선
  6
Continuous
370
    15
100
AcDbSpline
210
0.0
220
0.0
230
1.0
 70
     8
 71
     3
 72
    12
 73
     8
 74
     0
 42
0.000000001
 43
0.00000001
 40
0.0
 40
0.0
 40
0.0
 40
0.0
 40
0.2500000000000001
 40
0.2500000000000001
 40
0.5000000000000002
 40
0.5000000000000002
 40
1.0
 40
1.0
 40
1.0
 40
1.0
 10
-23.01874999995509
 20
0.6267396788843413
 30
0.0
 10
-22.95159356021429
 20
0.6217817913225581
 30
0.0
 10
-22.88418262462257
 20
0.614588894512254
 30
0.0
 10
-22.75097986765252
 20
0.5959964205489925
 30
0.0
 10
-22.68607663337171
 20
0.5846677299248704
 30
0.0
 10
-22.48725526062033
 20
0.5444473695810004
 30
0.0
 10
-22.35071204460314
 20
0.5091918155024153
 30
0.0
 10
-22.21864729642371
 20
0.4677086423051513
 30
0.0
  0
SPLINE
  5
27D
330
1F
100
AcDbEntity
  8
외형선
  6
Continuous
370
    15
100
AcDbSpline
210
0.0
220
0.0
230
1.0
 70
    24
 71
     3
 72
    10
 73
     6
 74
     0
 42
0.000000001
 43
0.00000001
 40
0.0
 40
0.0
 40
0.0
 40
0.0
 40
0.5
 40
0.5
 40
1.0
 40
1.0
 40
1.0
 40
1.0
 10
-23.01874999999998
 20
-0.0893287791743269
 30
0.0
 10
-23.01874999999998
 20
0.0511012437046414
 30
0.0
 10
-23.01874999999998
 20
0.198930400220128
 30
0.0
 10
-23.01874999999998
 20
0.4534624203124444
 30
0.0
 10
-23.01874999999998
 20
0.558193147843518
 30
0.0
 10
-23.01874999999998
 20
0.626739678887656
 30
0.0
  0
SPLINE
  5
27E
330
1F
100
AcDbEntity
  8
외형선
  6
Continuous
370
    15
100
AcDbSpline
210
0.0
220
0.0
230
1.0
 70
     8
 71
     3
 72
     9
 73
     5
 74
     0
 42
0.000000001
 43
0.00000001
 40
0.0
 40
0.0
 40
0.0
 40
0.0
 40
0.0793014434859704
 40
1.0
 40
1.0
 40
1.0
 40
1.0
 10
-23.01874999995509
 20
-0.6267396788843591
 30
0.0
 10
-23.01749806489615
 20
-0.6266508789420318
 30
0.0
 10
-23.00171102491412
 20
-0.6255311018178666
 30
0.0
 10
-22.9859207154483
 20
-0.62231617019407
 30
0.0
 10
-22.9713826003162
 20
-0.6193561872887479
 30
0.0
  0
SPLINE
  5
27F
330
1F
100
AcDbEntity
  8
외형선
  6
Continuous
370
    15
100
AcDbSpline
210
0.0
220
0.0
230
1.0
 70
    24
 71
     3
 72
    10
 73
     6
 74
     0
 42
0.000000001
 43
0.00000001
 40
0.0
 40
0.0
 40
0.0
 40
0.0
 40
0.5
 40
0.5
 40
1.0
 40
1.0
 40
1.0
 40
1.0
 10
-23.01874999999998
 20
-0.6267396788876738
 30
0.0
 10
-23.01874999999998
 20
-0.6323251709181381
 30
0.0
 10
-23.01874999999998
 20
-0.611206635581798
 30
0.0
 10
-23.01874999999998
 20
-0.5139311500390988
 30
0.0
 10
-23.01874999999998
 20
-0.438192911550173
 30
0.0
 10
-23.01874999999998
 20
-0.3484515654104392
 30
0.0
  0
LINE
  5
280
330
1F
100
AcDbEntity
  8
외형선
  6
Continuous
370
    15
100
AcDbLine
 10
-23.01874999999998
 20
0.626739678887656
 30
0.0
 11
-23.01874999999998
 21
0.6260016362397742
 31
0.0
  0
SPLINE
  5
281
330
1F
100
AcDbEntity
  8
0
  6
Continuous
 62
     1
370
    25
100
AcDbSpline
210
0.0
220
0.0
230
1.0
 70
     8
 71
     3
 72
    22
 73
    18
 74
     0
 42
0.000000001
 43
0.00000001
 40
0.0
 40
0.0
 40
0.0
 40
0.0
 40
0.1250000000000001
 40
0.1250000000000001
 40
0.2500000000000002
 40
0.2500000000000002
 40
0.3750000000000002
 40
0.3750000000000002
 40
0.5000000000000003
 40
0.5000000000000003
 40
0.6250000000000004
 40
0.6250000000000004
 40
0.7500000000000002
 40
0.7500000000000002
 40
0.8750000000000001
 40
0.8750000000000001
 40
1.0
 40
1.0
 40
1.0
 40
1.0
 10
-25.39999999999999
 20
0.7532218149528092
 30
0.0
 10
-25.30266936107093
 20
0.7352638597802379
 30
0.0
 10
-25.20219040335035
 20
0.7112336595768944
 30
0.0
 10
-25.00185186814643
 20
0.6523771588125609
 30
0.0
 10
-24.90371746989719
 20
0.6177961303364494
 30
0.0
 10
-24.70695920691831
 20
0.5395913393181448
 30
0.0
 10
-24.60605525425201
 20
0.4956079059748166
 30
0.0
 10
-24.40620955767868
 20
0.4008184099511265
 30
0.0
 10
-24.30935017056646
 20
0.3504190921928494
 30
0.0
 10
-24.11095873451109
 20
0.2441853575249429
 30
0.0
 10
-24.00988213366161
 20
0.1883878173751636
 30
0.0
 10
-23.81101808074416
 20
0.0753160047420884
 30
0.0
 10
-23.71435386809731
 20
0.0182797873637064
 30
0.0
 10
-23.51480623236525
 20
-0.0963771519085661
 30
0.0
 10
-23.41381078719308
 20
-0.153622632015189
 30
0.0
 10
-23.21640918488436
 20
-0.2639779306953702
 30
0.0
 10
-23.11885873197966
 20
-0.3173266355957018
 30
0.0
 10
-23.01874999999999
 20
-0.368231180281148
 30
0.0
1001
PE_URL
1000

  0
SPLINE
  5
282
330
1F
100
AcDbEntity
  8
0
  6
Continuous
 62
     1
370
    25
100
AcDbSpline
210
0.0
220
0.0
230
1.0
 70
     8
 71
     3
 72
    13
 73
     9
 74
     0
 42
0.000000001
 43
0.00000001
 40
0.0
 40
0.0
 40
0.0
 40
0.0
 40
0.1923597154121954
 40
0.383853175004864
 40
0.5754469397481161
 40
0.7680260755363677
 40
0.9592182071047518
 40
1.0
 40
1.0
 40
1.0
 40
1.0
 10
-25.39999999999999
 20
0.62624673484226
 30
0.0
 10
-25.26713216663586
 20
0.5969759923409761
 30
0.0
 10
-25.00199484521934
 20
0.5385663226250941
 30
0.0
 10
-24.60492309516442
 20
0.3920415493513385
 30
0.0
 10
-24.20767969020006
 20
0.2160633086004822
 30
0.0
 10
-23.81013428767992
 20
0.0239403295458676
 30
0.0
 10
-23.516974339707
 20
-0.12407052963305
 30
0.0
 10
-23.3568942832374
 20
-0.1958339449161173
 30
0.0
 10
-23.32875167313715
 20
-0.2084501936875967
 30
0.0
1001
PE_URL
1000

  0
LINE
  5
283
330
1F
100
AcDbEntity
  8
0
  6
Continuous
 62
     1
370
    25
100
AcDbLine
 10
-25.39999999999996
 20
0.7532218149528092
 30
0.0
 11
-25.39999999999999
 21
0.62624673484226
 31
0.0
1001
PE_URL
1000

  0
SPLINE
  5
284
330
1F
100
AcDbEntity
  8
0
  6
Continuous
 62
     1
370
    25
100
AcDbSpline
210
0.0
220
0.0
230
1.0
 70
     8
 71
     3
 72
    22
 73
    18
 74
     0
 42
0.000000001
 43
0.00000001
 40
0.0
 40
0.0
 40
0.0
 40
0.0
 40
0.1250000000000002
 40
0.1250000000000002
 40
0.2500000000000004
 40
0.2500000000000004
 40
0.3750000000000007
 40
0.3750000000000007
 40
0.5000000000000009
 40
0.5000000000000009
 40
0.6250000000000007
 40
0.6250000000000007
 40
0.7500000000000004
 40
0.7500000000000004
 40
0.8750000000000002
 40
0.8750000000000002
 40
1.0
 40
1.0
 40
1.0
 40
1.0
 10
-23.01874999998645
 20
-0.1597076793377674
 30
0.0
 10
-23.11885873196674
 20
-0.1034207628517123
 30
0.0
 10
-23.21640918487231
 20
-0.04636796654958
 30
0.0
 10
-23.41381078718177
 20
0.0680052238334152
 30
0.0
 10
-23.51480623235449
 20
0.1255445734119487
 30
0.0
 10
-23.71435386808784
 20
0.2373017175576546
 30
0.0
 10
-23.8110180807353
 20
0.2911897294203989
 30
0.0
 10
-24.00988213365367
 20
0.3946031996575439
 30
0.0
 10
-24.11095873450375
 20
0.4438744835538415
 30
0.0
 10
-24.3093501705604
 20
0.534124254249015
 30
0.0
 10
-24.40620955767309
 20
0.5751082093546884
 30
0.0
 10
-24.60605525424747
 20
0.6482992383458477
 30
0.0
 10
-24.70695920691438
 20
0.6801509662918956
 30
0.0
 10
-24.90371746989447
 20
0.7323074468457769
 30
0.0
 10
-25.00185186814419
 20
0.7528843919193555
 30
0.0
 10
-25.20219040334922
 20
0.782182723562391
 30
0.0
 10
-25.30266936107037
 20
0.7907391128700141
 30
0.0
 10
-25.39999999999999
 20
0.7930791345882362
 30
0.0
1001
PE_URL
1000

  0
SPLINE
  5
285
330
1F
100
AcDbEntity
  8
0
  6
Continuous
 62
     1
370
    25
100
AcDbSpline
210
0.0
220
0.0
230
1.0
 70
     8
 71
     3
 72
     9
 73
     5
 74
     0
 42
0.000000001
 43
0.00000001
 40
0.0
 40
0.0
 40
0.0
 40
0.0
 40
0.0395426010387279
 40
1.0
 40
1.0
 40
1.0
 40
1.0
 10
-23.42944336540089
 20
0.076153842181002
 30
0.0
 10
-23.42402805629749
 20
0.0740547122575563
 30
0.0
 10
-23.28707932350939
 20
0.0209694354091869
 30
0.0
 10
-23.15020854850122
 20
-0.0352920343195251
 30
0.0
 10
-23.01874999994305
 20
-0.0893287791969026
 30
0.0
1001
PE_URL
1000

  0
SPLINE
  5
286
330
1F
100
AcDbEntity
  8
외형선
  6
Continuous
370
    15
100
AcDbSpline
210
0.0
220
0.0
230
1.0
 70
    24
 71
     3
 72
     9
 73
     5
 74
     0
 42
0.000000001
 43
0.00000001
 40
0.0
 40
0.0
 40
0.0
 40
0.0
 40
0.6194592180891099
 40
1.0
 40
1.0
 40
1.0
 40
1.0
 10
-23.01874999999998
 20
-0.159707679330138
 30
0.0
 10
-23.01874999999998
 20
-0.1604788732583273
 30
0.0
 10
-23.01874999999998
 20
-0.1617238203116109
 30
0.0
 10
-23.01874999999998
 20
-0.1602075196265762
 30
0.0
 10
-23.01874999999998
 20
-0.1596305053782814
 30
0.0
  0
SPLINE
  5
287
330
1F
100
AcDbEntity
  8
외형선
  6
Continuous
370
    15
100
AcDbSpline
210
0.0
220
0.0
230
1.0
 70
    24
 71
     3
 72
    10
 73
     6
 74
     0
 42
0.000000001
 43
0.00000001
 40
0.0
 40
0.0
 40
0.0
 40
0.0
 40
0.1212533987695581
 40
0.5588209881586848
 40
1.0
 40
1.0
 40
1.0
 40
1.0
 10
-23.01874999999998
 20
-0.1247298054789301
 30
0.0
 10
-23.01874999999998
 20
-0.1236860618135029
 30
0.0
 10
-23.01874999999998
 20
-0.1188757565155285
 30
0.0
 10
-23.01874999999998
 20
-0.1067539970916851
 30
0.0
 10
-23.01874999999998
 20
-0.0951530774123448
 30
0.0
 10
-23.01874999999998
 20
-0.089328779175041
 30
0.0
  0
LINE
  5
288
330
1F
100
AcDbEntity
  8
0
  6
Continuous
 62
     1
370
    25
100
AcDbLine
 10
-25.39999999999999
 20
0.7930791345885186
 30
0.0
 11
-25.39999999999992
 21
0.7532218149528074
 31
0.0
1001
PE_URL
1000

  0
SPLINE
  5
289
330
1F
100
AcDbEntity
  8
0
  6
Continuous
 62
     1
370
    25
100
AcDbSpline
210
0.0
220
0.0
230
1.0
 70
     8
 71
     3
 72
     8
 73
     4
 74
     0
 42
0.000000001
 43
0.00000001
 40
0.0
 40
0.0
 40
0.0
 40
0.0
 40
1.0
 40
1.0
 40
1.0
 40
1.0
 10
-24.90916518402692
 20
-0.2217164472896123
 30
0.0
 10
-24.88086283303621
 20
-0.2552055529186585
 30
0.0
 10
-24.85555695231338
 20
-0.2874688336123103
 30
0.0
 10
-24.834039836272
 20
-0.3181821699361969
 30
0.0
1001
PE_URL
1000

  0
LINE
  5
28A
330
1F
100
AcDbEntity
  8
0
  6
Continuous
 62
     1
370
    25
100
AcDbLine
 10
-24.84409439046915
 20
-0.3266189426618364
 30
0.0
 11
-25.39999999999999
 21
-0.0000000000000124
 31
0.0
1001
PE_URL
1000

  0
LINE
  5
28B
330
1F
100
AcDbEntity
  8
0
  6
Continuous
 62
     1
370
    25
100
AcDbLine
 10
-25.39999999999999
 20
-0.0000000000000124
 30
0.0
 11
-25.39999999999999
 21
0.2121240884110183
 31
0.0
1001
PE_URL
1000

  0
SPLINE
  5
28C
330
1F
100
AcDbEntity
  8
0
  6
Continuous
 62
     1
370
    25
100
AcDbSpline
210
0.0
220
0.0
230
1.0
 70
     8
 71
     3
 72
    10
 73
     6
 74
     0
 42
0.000000001
 43
0.00000001
 40
0.0
 40
0.0
 40
0.0
 40
0.0
 40
0.5
 40
0.5
 40
1.0
 40
1.0
 40
1.0
 40
1.0
 10
-25.39999999999999
 20
0.21212408841102
 30
0.0
 10
-25.31503968058411
 20
0.1453288991865556
 30
0.0
 10
-25.23149867432913
 20
0.0757943889780108
 30
0.0
 10
-25.06731817387942
 20
-0.0688746449464706
 30
0.0
 10
-24.98590546063868
 20
-0.1447670400822823
 30
0.0
 10
-24.90916518402626
 20
-0.2217164472879105
 30
0.0
1001
PE_URL
1000

  0
SPLINE
  5
28D
330
1F
100
AcDbEntity
  8
0
  6
Continuous
 62
     1
370
    25
100
AcDbSpline
210
0.0
220
0.0
230
1.0
 70
     8
 71
     3
 72
    12
 73
     8
 74
     0
 42
0.000000001
 43
0.00000001
 40
0.0
 40
0.0
 40
0.0
 40
0.0
 40
0.1771286392487638
 40
0.4080749722144553
 40
0.6402258172700045
 40
0.8707069287221056
 40
1.0
 40
1.0
 40
1.0
 40
1.0
 10
-24.9091651840268
 20
-0.2217164472896673
 30
0.0
 10
-24.80778030230801
 20
-0.2645811796776112
 30
0.0
 10
-24.57420637001885
 20
-0.3633344053128145
 30
0.0
 10
-24.20767841050349
 20
-0.4915846920489937
 30
0.0
 10
-23.81015814212481
 20
-0.5877533010994416
 30
0.0
 10
-23.47110753484962
 20
-0.6361936007053917
 30
0.0
 10
-23.26514683140928
 20
-0.6302749588345762
 30
0.0
 10
-23.19113014764312
 20
-0.6281479596723099
 30
0.0
1001
PE_URL
1000

  0
SPLINE
  5
28E
330
1F
100
AcDbEntity
  8
0
  6
Continuous
 62
     1
370
    25
100
AcDbSpline
210
0.0
220
0.0
230
1.0
 70
    24
 71
     3
 72
     8
 73
     4
 74
     0
 42
0.000000001
 43
0.00000001
 40
0.0
 40
0.0
 40
0.0
 40
0.0
 40
1.0
 40
1.0
 40
1.0
 40
1.0
 10
-25.39999999999999
 20
0.62624673484226
 30
0.0
 10
-25.39999999999999
 20
0.5302333452012569
 30
0.0
 10
-25.39999999999999
 20
0.3805014774328868
 30
0.0
 10
-25.39999999999999
 20
0.2121240884110449
 30
0.0
1001
PE_URL
1000

  0
SPLINE
  5
28F
330
1F
100
AcDbEntity
  8
외형선
  6
Continuous
370
    15
100
AcDbSpline
210
0.0
220
0.0
230
1.0
 70
    24
 71
     3
 72
    13
 73
     9
 74
     0
 42
0.000000001
 43
0.00000001
 40
0.0
 40
0.0
 40
0.0
 40
0.0
 40
0.0514549208762409
 40
0.1975920573768013
 40
0.4067797116533318
 40
0.6220338220753903
 40
0.8088780038105984
 40
0.9999999999999999
 40
0.9999999999999999
 40
0.9999999999999999
 40
0.9999999999999999
 10
-23.01874999999998
 20
-0.6259916179913745
 30
0.0
 10
-23.01874999999998
 20
-0.6260078992087799
 30
0.0
 10
-23.01874999999998
 20
-0.6260704207167098
 30
0.0
 10
-23.01874999999998
 20
-0.6121173248348821
 30
0.0
 10
-23.01874999999998
 20
-0.5780294171208915
 30
0.0
 10
-23.01874999999998
 20
-0.5174567657630931
 30
0.0
 10
-23.01874999999998
 20
-0.4410135452874648
 30
0.0
 10
-23.01874999999998
 20
-0.3795374870128025
 30
0.0
 10
-23.01874999999998
 20
-0.3484515654104392
 30
0.0
  0
SPLINE
  5
290
330
1F
100
AcDbEntity
  8
0
  6
Continuous
 62
     1
370
    25
100
AcDbSpline
210
0.0
220
0.0
230
1.0
 70
    24
 71
     3
 72
     8
 73
     4
 74
     0
 42
0.000000001
 43
0.00000001
 40
0.0
 40
0.0
 40
0.0
 40
0.0
 40
1.0
 40
1.0
 40
1.0
 40
1.0
 10
-24.9167289875067
 20
-0.3875666062467573
 30
0.0
 10
-24.89053382861935
 20
-0.3655862580857523
 30
0.0
 10
-24.86289163828369
 20
-0.3423917063701634
 30
0.0
 10
-24.83403983626883
 20
-0.3181821699407017
 30
0.0
1001
PE_URL
1000

  0
LINE
  5
291
330
1F
100
AcDbEntity
  8
0
  6
Continuous
 62
     1
370
    25
100
AcDbLine
 10
-25.39999999999999
 20
-0.5556250000000116
 30
0.0
 11
-25.10261314534354
 21
-0.5383819343967247
 31
0.0
1001
PE_URL
1000

  0
SPLINE
  5
292
330
1F
100
AcDbEntity
  8
0
  6
Continuous
 62
     1
370
    25
100
AcDbSpline
210
0.0
220
0.0
230
1.0
 70
     8
 71
     3
 72
     8
 73
     4
 74
     0
 42
0.000000001
 43
0.00000001
 40
0.0
 40
0.0
 40
0.0
 40
0.0
 40
1.0
 40
1.0
 40
1.0
 40
1.0
 10
-25.39999999999999
 20
-0.5556250000000116
 30
0.0
 10
-25.23667374258705
 20
-0.5111936580935108
 30
0.0
 10
-25.07490442684245
 20
-0.4567198980990703
 30
0.0
 10
-24.91672898751495
 20
-0.3875666062503669
 30
0.0
1001
PE_URL
1000

  0
SPLINE
  5
293
330
1F
100
AcDbEntity
  8
0
  6
Continuous
 62
     1
370
    25
100
AcDbSpline
210
0.0
220
0.0
230
1.0
 70
     8
 71
     3
 72
     9
 73
     5
 74
     0
 42
0.000000001
 43
0.00000001
 40
0.0
 40
0.0
 40
0.0
 40
0.0
 40
0.4379429064871869
 40
1.0
 40
1.0
 40
1.0
 40
1.0
 10
-23.72068450303375
 20
0.592231921535836
 30
0.0
 10
-23.61817737144854
 20
0.6077458808823266
 30
0.0
 10
-23.38411231395637
 20
0.6431704970062206
 30
0.0
 10
-23.15021413218143
 20
0.6326517917744354
 30
0.0
 10
-23.01874999995509
 20
0.6267396788843413
 30
0.0
1001
PE_URL
1000

  0
SPLINE
  5
294
330
1F
100
AcDbEntity
  8
외형선
  6
Continuous
370
    15
100
AcDbSpline
210
0.0
220
0.0
230
1.0
 70
    24
 71
     3
 72
    10
 73
     6
 74
     0
 42
0.000000001
 43
0.00000001
 40
0.0
 40
0.0
 40
0.0
 40
0.0
 40
0.5
 40
0.5
 40
1.0
 40
1.0
 40
1.0
 40
1.0
 10
-23.01874999999998
 20
-0.0893287791743269
 30
0.0
 10
-23.01874999999998
 20
0.0511012437046414
 30
0.0
 10
-23.01874999999998
 20
0.198930400220128
 30
0.0
 10
-23.01874999999998
 20
0.4534624203124444
 30
0.0
 10
-23.01874999999998
 20
0.558193147843518
 30
0.0
 10
-23.01874999999998
 20
0.626739678887656
 30
0.0
  0
LINE
  5
295
330
1F
100
AcDbEntity
  8
0
  6
Continuous
 62
     1
370
    25
100
AcDbLine
 10
-25.39999999999999
 20
-0.0000000000000124
 30
0.0
 11
-25.39999999999999
 21
-0.5556250000000116
 31
0.0
1001
PE_URL
1000

  0
SPLINE
  5
296
330
1F
100
AcDbEntity
  8
0
  6
Continuous
 62
     1
370
    25
100
AcDbSpline
210
0.0
220
0.0
230
1.0
 70
    24
 71
     3
 72
     8
 73
     4
 74
     0
 42
0.000000001
 43
0.00000001
 40
0.0
 40
0.0
 40
0.0
 40
0.0
 40
1.0
 40
1.0
 40
1.0
 40
1.0
 10
-25.39999999999999
 20
-0.5556250000000116
 30
0.0
 10
-25.39999999999999
 20
-0.6229862076816222
 30
0.0
 10
-25.39999999999999
 20
-0.713574944746318
 30
0.0
 10
-25.39999999999999
 20
-0.79307913458854
 30
0.0
1001
PE_URL
1000

  0
SPLINE
  5
297
330
1F
100
AcDbEntity
  8
0
  6
Continuous
 62
     1
370
    25
100
AcDbSpline
210
0.0
220
0.0
230
1.0
 70
     8
 71
     3
 72
    16
 73
    12
 74
     0
 42
0.000000001
 43
0.00000001
 40
0.0
 40
0.0
 40
0.0
 40
0.0
 40
0.118372279091851
 40
0.22642137444259
 40
0.3348684324355092
 40
0.4435146025259923
 40
0.5525687295930559
 40
0.6638777723807974
 40
0.7754046365238025
 40
0.8875904635326423
 40
1.0
 40
1.0
 40
1.0
 40
1.0
 10
-24.30950032252667
 20
-0.5322457948820922
 30
0.0
 10
-24.35243189098879
 20
-0.5506757059941165
 30
0.0
 10
-24.43455098857435
 20
-0.58592826543501
 30
0.0
 10
-24.55647033896358
 20
-0.6303788214579154
 30
0.0
 10
-24.6748587113042
 20
-0.6695433204951566
 30
0.0
 10
-24.79350622006038
 20
-0.7038547464083731
 30
0.0
 10
-24.91267261726479
 20
-0.7335735883425709
 30
0.0
 10
-25.03336112969592
 20
-0.7575555911788427
 30
0.0
 10
-25.15534920447362
 20
-0.7756873199962122
 30
0.0
 10
-25.2777334873084
 20
-0.7883028797176266
 30
0.0
 10
-25.35921744158779
 20
-0.7914859927790907
 30
0.0
 10
-25.39999999999999
 20
-0.7930791345885417
 30
0.0
1001
PE_URL
1000

  0
ENDSEC
  0
SECTION
  2
OBJECTS
  0
DICTIONARY
  5
C
330
0
100
AcDbDictionary
281
     1
  3
ACAD_GROUP
350
D
  3
ACAD_IMAGE_VARS
350
2BB
  3
ACAD_LAYOUT
350
1A
  3
ACAD_MLINESTYLE
350
17
  3
ACAD_PLOTSETTINGS
350
19
  3
ACAD_PLOTSTYLENAME
350
E
  3
ACAD_SCALELIST
350
47
  3
APPDATA
350
15E
  3
DWGPROPS
350
2BC
  0
DICTIONARY
  5
D
102
{ACAD_REACTORS
330
C
102
}
330
C
100
AcDbDictionary
281
     1
  0
RASTERVARIABLES
  5
2BB
102
{ACAD_REACTORS
330
C
102
}
330
C
100
AcDbRasterVariables
 90
        0
 70
     1
 71
     1
 72
     1
  0
DICTIONARY
  5
1A
102
{ACAD_REACTORS
330
C
102
}
330
C
100
AcDbDictionary
281
     1
  3
Layout1
350
1E
  3
Layout2
350
26
  3
Model
350
22
  0
DICTIONARY
  5
17
102
{ACAD_REACTORS
330
C
102
}
330
C
100
AcDbDictionary
281
     1
  3
Standard
350
18
  0
DICTIONARY
  5
19
102
{ACAD_REACTORS
330
C
102
}
330
C
100
AcDbDictionary
281
     1
  0
ACDBDICTIONARYWDFLT
  5
E
102
{ACAD_REACTORS
330
C
102
}
330
C
100
AcDbDictionary
281
     1
  3
Normal
350
F
100
AcDbDictionaryWithDefault
340
F
  0
DICTIONARY
  5
47
102
{ACAD_REACTORS
330
C
102
}
330
C
100
AcDbDictionary
281
     1
  3
A0
350
48
  3
A1
350
49
  3
A2
350
4A
  3
A3
350
4B
  3
A4
350
4C
  3
A5
350
4D
  3
A6
350
4E
  3
A7
350
4F
  3
A8
350
50
  3
A9
350
51
  3
B0
350
52
  3
B1
350
53
  3
B2
350
54
  3
B3
350
55
  3
B4
350
56
  3
B5
350
57
  3
B6
350
58
  3
B7
350
59
  3
B8
350
5A
  3
B9
350
5B
  3
C0
350
5C
  3
C1
350
5D
  3
C2
350
5E
  3
C3
350
5F
  3
C4
350
60
  3
C5
350
61
  3
C6
350
62
  3
C7
350
63
  3
C8
350
64
  3
C9
350
65
  3
D0
350
66
  3
D1
350
67
  3
D2
350
68
  0
DICTIONARY
  5
15E
102
{ACAD_REACTORS
330
C
102
}
330
C
100
AcDbDictionary
281
     1
  0
XRECORD
  5
2BC
102
{ACAD_REACTORS
330
C
102
}
330
C
100
AcDbXrecord
280
     1
  1
DWGPROPS COOKIE
  2

  3

  4

  6

  7

  8
12016016
  9

300
=
301
=
302
=
303
=
304
=
305
=
306
=
307
=
308
=
309
=
 40
0.0
 41
2458313.01262816
 42
2458318.269544907
  1

 90
        0
  0
LAYOUT
  5
1E
102
{ACAD_REACTORS
330
1A
102
}
330
1A
100
AcDbPlotSettings
  1

  2
none_device
  4

  6

 40
0.0
 41
0.0
 42
0.0
 43
0.0
 44
0.0
 45
0.0
 46
0.0
 47
0.0
 48
0.0
 49
0.0
140
0.0
141
0.0
142
1.0
143
1.0
 70
   688
 72
     1
 73
     0
 74
     5
  7

 75
    16
147
1.0
148
0.0
149
0.0
100
AcDbLayout
  1
Layout1
 70
     1
 71
     1
 10
0.0
 20
0.0
 11
420.0
 21
297.0
 12
0.0
 22
0.0
 32
0.0
 14
1.000000000000000E+20
 24
1.000000000000000E+20
 34
1.000000000000000E+20
 15
-1.000000000000000E+20
 25
-1.000000000000000E+20
 35
-1.000000000000000E+20
146
0.0
 13
0.0
 23
0.0
 33
0.0
 16
1.0
 26
0.0
 36
0.0
 17
0.0
 27
1.0
 37
0.0
 76
     0
330
1B
  0
LAYOUT
  5
26
102
{ACAD_REACTORS
330
1A
102
}
330
1A
100
AcDbPlotSettings
  1

  2
none_device
  4

  6

 40
0.0
 41
0.0
 42
0.0
 43
0.0
 44
0.0
 45
0.0
 46
0.0
 47
0.0
 48
0.0
 49
0.0
140
0.0
141
0.0
142
1.0
143
1.0
 70
   688
 72
     1
 73
     0
 74
     5
  7

 75
    16
147
1.0
148
0.0
149
0.0
100
AcDbLayout
  1
Layout2
 70
     1
 71
     2
 10
0.0
 20
0.0
 11
0.0
 21
0.0
 12
0.0
 22
0.0
 32
0.0
 14
0.0
 24
0.0
 34
0.0
 15
0.0
 25
0.0
 35
0.0
146
0.0
 13
0.0
 23
0.0
 33
0.0
 16
1.0
 26
0.0
 36
0.0
 17
0.0
 27
1.0
 37
0.0
 76
     0
330
23
  0
LAYOUT
  5
22
102
{ACAD_REACTORS
330
1A
102
}
330
1A
100
AcDbPlotSettings
  1

  2
none_device
  4
ANSI_A_(11.00_x_8.50_Inches)
  6

 40
6.35
 41
19.05
 42
6.35000508
 43
19.05000254
 44
279.4
 45
215.9
 46
114.5832546251151
 47
92.32279461221168
 48
0.0
 49
0.0
140
0.0
141
0.0
142
0.0761441248659067
143
1.0
 70
  1696
 72
     0
 73
     0
 74
     0
  7

 75
     0
147
0.0235690232323232
148
0.0
149
0.0
100
AcDbLayout
  1
Model
 70
     1
 71
     0
 10
0.0
 20
0.0
 11
420.0
 21
297.0
 12
0.0
 22
0.0
 32
0.0
 14
-36.77500000000008
 24
-49.97180738881175
 34
0.0
 15
93.82537503295504
 25
27.88124999999997
 35
0.0
146
0.0
 13
0.0
 23
0.0
 33
0.0
 16
1.0
 26
0.0
 36
0.0
 17
0.0
 27
1.0
 37
0.0
 76
     0
330
1F
331
29
  0
MLINESTYLE
  5
18
102
{ACAD_REACTORS
330
17
102
}
330
17
100
AcDbMlineStyle
  2
Standard
 70
     0
  3

 62
   256
 51
90.0
 52
90.0
 71
     2
 49
0.5
 62
   256
  6
BYLAYER
 49
-0.5
 62
   256
  6
BYLAYER
  0
ACDBPLACEHOLDER
  5
F
102
{ACAD_REACTORS
330
E
102
}
330
E
  0
SCALE
  5
48
102
{ACAD_REACTORS
330
47
102
}
330
47
100
AcDbScale
 70
     0
300
1:1
140
1.0
141
1.0
290
     1
  0
SCALE
  5
49
102
{ACAD_REACTORS
330
47
102
}
330
47
100
AcDbScale
 70
     0
300
1:2
140
1.0
141
2.0
290
     0
  0
SCALE
  5
4A
102
{ACAD_REACTORS
330
47
102
}
330
47
100
AcDbScale
 70
     0
300
1:4
140
1.0
141
4.0
290
     0
  0
SCALE
  5
4B
102
{ACAD_REACTORS
330
47
102
}
330
47
100
AcDbScale
 70
     0
300
1:5
140
1.0
141
5.0
290
     0
  0
SCALE
  5
4C
102
{ACAD_REACTORS
330
47
102
}
330
47
100
AcDbScale
 70
     0
300
1:8
140
1.0
141
8.0
290
     0
  0
SCALE
  5
4D
102
{ACAD_REACTORS
330
47
102
}
330
47
100
AcDbScale
 70
     0
300
1:10
140
1.0
141
10.0
290
     0
  0
SCALE
  5
4E
102
{ACAD_REACTORS
330
47
102
}
330
47
100
AcDbScale
 70
     0
300
1:16
140
1.0
141
16.0
290
     0
  0
SCALE
  5
4F
102
{ACAD_REACTORS
330
47
102
}
330
47
100
AcDbScale
 70
     0
300
1:20
140
1.0
141
20.0
290
     0
  0
SCALE
  5
50
102
{ACAD_REACTORS
330
47
102
}
330
47
100
AcDbScale
 70
     0
300
1:30
140
1.0
141
30.0
290
     0
  0
SCALE
  5
51
102
{ACAD_REACTORS
330
47
102
}
330
47
100
AcDbScale
 70
     0
300
1:40
140
1.0
141
40.0
290
     0
  0
SCALE
  5
52
102
{ACAD_REACTORS
330
47
102
}
330
47
100
AcDbScale
 70
     0
300
1:50
140
1.0
141
50.0
290
     0
  0
SCALE
  5
53
102
{ACAD_REACTORS
330
47
102
}
330
47
100
AcDbScale
 70
     0
300
1:100
140
1.0
141
100.0
290
     0
  0
SCALE
  5
54
102
{ACAD_REACTORS
330
47
102
}
330
47
100
AcDbScale
 70
     0
300
2:1
140
2.0
141
1.0
290
     0
  0
SCALE
  5
55
102
{ACAD_REACTORS
330
47
102
}
330
47
100
AcDbScale
 70
     0
300
4:1
140
4.0
141
1.0
290
     0
  0
SCALE
  5
56
102
{ACAD_REACTORS
330
47
102
}
330
47
100
AcDbScale
 70
     0
300
8:1
140
8.0
141
1.0
290
     0
  0
SCALE
  5
57
102
{ACAD_REACTORS
330
47
102
}
330
47
100
AcDbScale
 70
     0
300
10:1
140
10.0
141
1.0
290
     0
  0
SCALE
  5
58
102
{ACAD_REACTORS
330
47
102
}
330
47
100
AcDbScale
 70
     0
300
100:1
140
100.0
141
1.0
290
     0
  0
SCALE
  5
59
102
{ACAD_REACTORS
330
47
102
}
330
47
100
AcDbScale
 70
     0
300
1/128" = 1'-0"
140
0.0078125
141
12.0
290
     0
  0
SCALE
  5
5A
102
{ACAD_REACTORS
330
47
102
}
330
47
100
AcDbScale
 70
     0
300
1/64" = 1'-0"
140
0.015625
141
12.0
290
     0
  0
SCALE
  5
5B
102
{ACAD_REACTORS
330
47
102
}
330
47
100
AcDbScale
 70
     0
300
1/32" = 1'-0"
140
0.03125
141
12.0
290
     0
  0
SCALE
  5
5C
102
{ACAD_REACTORS
330
47
102
}
330
47
100
AcDbScale
 70
     0
300
1/16" = 1'-0"
140
0.0625
141
12.0
290
     0
  0
SCALE
  5
5D
102
{ACAD_REACTORS
330
47
102
}
330
47
100
AcDbScale
 70
     0
300
3/32" = 1'-0"
140
0.09375
141
12.0
290
     0
  0
SCALE
  5
5E
102
{ACAD_REACTORS
330
47
102
}
330
47
100
AcDbScale
 70
     0
300
1/8" = 1'-0"
140
0.125
141
12.0
290
     0
  0
SCALE
  5
5F
102
{ACAD_REACTORS
330
47
102
}
330
47
100
AcDbScale
 70
     0
300
3/16" = 1'-0"
140
0.1875
141
12.0
290
     0
  0
SCALE
  5
60
102
{ACAD_REACTORS
330
47
102
}
330
47
100
AcDbScale
 70
     0
300
1/4" = 1'-0"
140
0.25
141
12.0
290
     0
  0
SCALE
  5
61
102
{ACAD_REACTORS
330
47
102
}
330
47
100
AcDbScale
 70
     0
300
3/8" = 1'-0"
140
0.375
141
12.0
290
     0
  0
SCALE
  5
62
102
{ACAD_REACTORS
330
47
102
}
330
47
100
AcDbScale
 70
     0
300
1/2" = 1'-0"
140
0.5
141
12.0
290
     0
  0
SCALE
  5
63
102
{ACAD_REACTORS
330
47
102
}
330
47
100
AcDbScale
 70
     0
300
3/4" = 1'-0"
140
0.75
141
12.0
290
     0
  0
SCALE
  5
64
102
{ACAD_REACTORS
330
47
102
}
330
47
100
AcDbScale
 70
     0
300
1" = 1'-0"
140
1.0
141
12.0
290
     0
  0
SCALE
  5
65
102
{ACAD_REACTORS
330
47
102
}
330
47
100
AcDbScale
 70
     0
300
1-1/2" = 1'-0"
140
1.5
141
12.0
290
     0
  0
SCALE
  5
66
102
{ACAD_REACTORS
330
47
102
}
330
47
100
AcDbScale
 70
     0
300
3" = 1'-0"
140
3.0
141
12.0
290
     0
  0
SCALE
  5
67
102
{ACAD_REACTORS
330
47
102
}
330
47
100
AcDbScale
 70
     0
300
6" = 1'-0"
140
6.0
141
12.0
290
     0
  0
SCALE
  5
68
102
{ACAD_REACTORS
330
47
102
}
330
47
100
AcDbScale
 70
     0
300
1'-0" = 1'-0"
140
12.0
141
12.0
290
     0
  0
ENDSEC
  0
EOF
