  0
SECTION
  2
HEADER
  9
$ACADVER
  1
AC1015
  9
$ACADMAINTVER
 70
     6
  9
$DWGCODEPAGE
  3
ANSI_949
  9
$INSBASE
 10
0.0
 20
0.0
 30
0.0
  9
$EXTMIN
 10
-36.77500000000013
 20
-49.97180738881175
 30
0.0
  9
$EXTMAX
 10
93.03162503295503
 20
27.88124999999997
 30
0.0
  9
$LIMMIN
 10
0.0
 20
0.0
  9
$LIMMAX
 10
420.0
 20
297.0
  9
$ORTHOMODE
 70
     1
  9
$REGENMODE
 70
     1
  9
$FILLMODE
 70
     1
  9
$QTEXTMODE
 70
     0
  9
$MIRRTEXT
 70
     1
  9
$LTSCALE
 40
1.0
  9
$ATTMODE
 70
     1
  9
$TEXTSIZE
 40
3.5
  9
$TRACEWID
 40
1.0
  9
$TEXTSTYLE
  7
Standard
  9
$CLAYER
  8
0
  9
$CELTYPE
  6
ByLayer
  9
$CECOLOR
 62
   256
  9
$CELTSCALE
 40
1.0
  9
$DISPSILH
 70
     0
  9
$DIMSCALE
 40
1.0
  9
$DIMASZ
 40
3.302
  9
$DIMEXO
 40
1.0
  9
$DIMDLI
 40
3.75
  9
$DIMRND
 40
0.0
  9
$DIMDLE
 40
0.0
  9
$DIMEXE
 40
1.0
  9
$DIMTP
 40
0.0
  9
$DIMTM
 40
0.0
  9
$DIMTXT
 40
3.5
  9
$DIMCEN
 40
2.5
  9
$DIMTSZ
 40
0.0
  9
$DIMTOL
 70
     0
  9
$DIMLIM
 70
     0
  9
$DIMTIH
 70
     1
  9
$DIMTOH
 70
     1
  9
$DIMSE1
 70
     0
  9
$DIMSE2
 70
     0
  9
$DIMTAD
 70
     1
  9
$DIMZIN
 70
     0
  9
$DIMBLK
  1

  9
$DIMASO
 70
     1
  9
$DIMSHO
 70
     1
  9
$DIMPOST
  1

  9
$DIMAPOST
  1

  9
$DIMALT
 70
     0
  9
$DIMALTD
 70
     3
  9
$DIMALTF
 40
0.0393700787401575
  9
$DIMLFAC
 40
1.0
  9
$DIMTOFL
 70
     1
  9
$DIMTVP
 40
0.0
  9
$DIMTIX
 70
     0
  9
$DIMSOXD
 70
     0
  9
$DIMSAH
 70
     0
  9
$DIMBLK1
  1

  9
$DIMBLK2
  1

  9
$DIMSTYLE
  2
ISO-25
  9
$DIMCLRD
 70
     0
  9
$DIMCLRE
 70
     0
  9
$DIMCLRT
 70
     0
  9
$DIMTFAC
 40
1.0
  9
$DIMGAP
 40
1.524
  9
$DIMJUST
 70
     0
  9
$DIMSD1
 70
     0
  9
$DIMSD2
 70
     0
  9
$DIMTOLJ
 70
     0
  9
$DIMTZIN
 70
     0
  9
$DIMALTZ
 70
     0
  9
$DIMALTTZ
 70
     0
  9
$DIMUPT
 70
     0
  9
$DIMDEC
 70
     2
  9
$DIMTDEC
 70
     2
  9
$DIMALTU
 70
     2
  9
$DIMALTTD
 70
     3
  9
$DIMTXSTY
  7
Standard
  9
$DIMAUNIT
 70
     0
  9
$DIMADEC
 70
     2
  9
$DIMALTRND
 40
0.0
  9
$DIMAZIN
 70
     0
  9
$DIMDSEP
 70
    44
  9
$DIMATFIT
 70
     3
  9
$DIMFRAC
 70
     0
  9
$DIMLDRBLK
  1

  9
$DIMLUNIT
 70
     2
  9
$DIMLWD
 70
    -2
  9
$DIMLWE
 70
    -2
  9
$DIMTMOVE
 70
     0
  9
$LUNITS
 70
     2
  9
$LUPREC
 70
     2
  9
$SKETCHINC
 40
1.0
  9
$FILLETRAD
 40
10.0
  9
$AUNITS
 70
     0
  9
$AUPREC
 70
     2
  9
$MENU
  1
.
  9
$ELEVATION
 40
0.0
  9
$PELEVATION
 40
0.0
  9
$THICKNESS
 40
0.0
  9
$LIMCHECK
 70
     0
  9
$CHAMFERA
 40
0.0
  9
$CHAMFERB
 40
0.0
  9
$CHAMFERC
 40
0.0
  9
$CHAMFERD
 40
0.0
  9
$SKPOLY
 70
     0
  9
$TDCREATE
 40
2458313.387840116
  9
$TDUCREATE
 40
2458313.012840116
  9
$TDUPDATE
 40
2458318.645093356
  9
$TDUUPDATE
 40
2458318.270093356
  9
$TDINDWG
 40
0.0036466782
  9
$TDUSRTIMER
 40
2458318.270037673
  9
$USRTIMER
 70
     1
  9
$ANGBASE
 50
0.0
  9
$ANGDIR
 70
     0
  9
$PDMODE
 70
     0
  9
$PDSIZE
 40
-1.0
  9
$PLINEWID
 40
0.0
  9
$SPLFRAME
 70
     0
  9
$SPLINETYPE
 70
     6
  9
$SPLINESEGS
 70
     8
  9
$HANDSEED
  5
32F
  9
$SURFTAB1
 70
     6
  9
$SURFTAB2
 70
     6
  9
$SURFTYPE
 70
     6
  9
$SURFU
 70
     6
  9
$SURFV
 70
     6
  9
$UCSBASE
  2

  9
$UCSNAME
  2

  9
$UCSORG
 10
0.0
 20
0.0
 30
0.0
  9
$UCSXDIR
 10
1.0
 20
0.0
 30
0.0
  9
$UCSYDIR
 10
0.0
 20
1.0
 30
0.0
  9
$UCSORTHOREF
  2

  9
$UCSORTHOVIEW
 70
     0
  9
$UCSORGTOP
 10
0.0
 20
0.0
 30
0.0
  9
$UCSORGBOTTOM
 10
0.0
 20
0.0
 30
0.0
  9
$UCSORGLEFT
 10
0.0
 20
0.0
 30
0.0
  9
$UCSORGRIGHT
 10
0.0
 20
0.0
 30
0.0
  9
$UCSORGFRONT
 10
0.0
 20
0.0
 30
0.0
  9
$UCSORGBACK
 10
0.0
 20
0.0
 30
0.0
  9
$PUCSBASE
  2

  9
$PUCSNAME
  2

  9
$PUCSORG
 10
0.0
 20
0.0
 30
0.0
  9
$PUCSXDIR
 10
1.0
 20
0.0
 30
0.0
  9
$PUCSYDIR
 10
0.0
 20
1.0
 30
0.0
  9
$PUCSORTHOREF
  2

  9
$PUCSORTHOVIEW
 70
     0
  9
$PUCSORGTOP
 10
0.0
 20
0.0
 30
0.0
  9
$PUCSORGBOTTOM
 10
0.0
 20
0.0
 30
0.0
  9
$PUCSORGLEFT
 10
0.0
 20
0.0
 30
0.0
  9
$PUCSORGRIGHT
 10
0.0
 20
0.0
 30
0.0
  9
$PUCSORGFRONT
 10
0.0
 20
0.0
 30
0.0
  9
$PUCSORGBACK
 10
0.0
 20
0.0
 30
0.0
  9
$USERI1
 70
     0
  9
$USERI2
 70
     0
  9
$USERI3
 70
     0
  9
$USERI4
 70
     0
  9
$USERI5
 70
     0
  9
$USERR1
 40
0.0
  9
$USERR2
 40
0.0
  9
$USERR3
 40
0.0
  9
$USERR4
 40
0.0
  9
$USERR5
 40
0.0
  9
$WORLDVIEW
 70
     1
  9
$SHADEDGE
 70
     3
  9
$SHADEDIF
 70
    70
  9
$TILEMODE
 70
     1
  9
$MAXACTVP
 70
    64
  9
$PINSBASE
 10
0.0
 20
0.0
 30
0.0
  9
$PLIMCHECK
 70
     0
  9
$PEXTMIN
 10
1.000000000000000E+20
 20
1.000000000000000E+20
 30
1.000000000000000E+20
  9
$PEXTMAX
 10
-1.000000000000000E+20
 20
-1.000000000000000E+20
 30
-1.000000000000000E+20
  9
$PLIMMIN
 10
0.0
 20
0.0
  9
$PLIMMAX
 10
0.0
 20
0.0
  9
$UNITMODE
 70
     0
  9
$VISRETAIN
 70
     1
  9
$PLINEGEN
 70
     0
  9
$PSLTSCALE
 70
     1
  9
$TREEDEPTH
 70
  3020
  9
$CMLSTYLE
  2
Standard
  9
$CMLJUST
 70
     0
  9
$CMLSCALE
 40
20.0
  9
$PROXYGRAPHICS
 70
     1
  9
$MEASUREMENT
 70
     1
  9
$CELWEIGHT
370
    -1
  9
$ENDCAPS
280
     0
  9
$JOINSTYLE
280
     0
  9
$LWDISPLAY
290
     1
  9
$INSUNITS
 70
     4
  9
$HYPERLINKBASE
  1

  9
$STYLESHEET
  1

  9
$XEDIT
290
     1
  9
$CEPSNTYPE
380
     0
  9
$PSTYLEMODE
290
     1
  9
$FINGERPRINTGUID
  2
{EA7328B1-EEC5-4B8A-A25F-82435DFF9550}
  9
$VERSIONGUID
  2
{FAEB1C32-E019-11D5-929B-00C0DF256EC4}
  9
$EXTNAMES
290
     1
  9
$PSVPSCALE
 40
0.0
  9
$OLESTARTUP
290
     0
  0
ENDSEC
  0
SECTION
  2
CLASSES
  0
CLASS
  1
ACDBDICTIONARYWDFLT
  2
AcDbDictionaryWithDefault
  3
ObjectDBX Classes
 90
        0
280
     0
281
     0
  0
CLASS
  1
VISUALSTYLE
  2
AcDbVisualStyle
  3
ObjectDBX Classes
 90
     4095
280
     0
281
     0
  0
CLASS
  1
MATERIAL
  2
AcDbMaterial
  3
ObjectDBX Classes
 90
     1153
280
     0
281
     0
  0
CLASS
  1
SCALE
  2
AcDbScale
  3
ObjectDBX Classes
 90
     1153
280
     0
281
     0
  0
CLASS
  1
SUN
  2
AcDbSun
  3
SCENEOE
 90
     1153
280
     0
281
     0
  0
CLASS
  1
ACDBPLACEHOLDER
  2
AcDbPlaceHolder
  3
ObjectDBX Classes
 90
        0
280
     0
281
     0
  0
CLASS
  1
LAYOUT
  2
AcDbLayout
  3
ObjectDBX Classes
 90
        0
280
     0
281
     0
  0
CLASS
  1
TABLESTYLE
  2
AcDbTableStyle
  3
ObjectDBX Classes
 90
     4095
280
     0
281
     0
  0
CLASS
  1
MLEADERSTYLE
  2
AcDbMLeaderStyle
  3
ACDB_MLEADERSTYLE_CLASS
 90
     4095
280
     0
281
     0
  0
CLASS
  1
DICTIONARYVAR
  2
AcDbDictionaryVar
  3
ObjectDBX Classes
 90
        0
280
     0
281
     0
  0
CLASS
  1
RASTERVARIABLES
  2
AcDbRasterVariables
  3
ISM
 90
        0
280
     0
281
     0
  0
ENDSEC
  0
SECTION
  2
TABLES
  0
TABLE
  2
VPORT
  5
8
330
0
100
AcDbSymbolTable
 70
     1
  0
VPORT
  5
29
330
8
100
AcDbSymbolTableRecord
100
AcDbViewportTableRecord
  2
*Active
 70
     0
 10
0.0
 20
0.0
 11
1.0
 21
1.0
 12
28.12831251647745
 22
-11.04527869440589
 13
0.0
 23
0.0
 14
10.0
 24
10.0
 15
10.0
 25
10.0
 16
0.0
 26
0.0
 36
1.0
 17
0.0
 27
0.0
 37
0.0
 40
79.41011853658796
 41
1.782762691853601
 42
50.0
 43
0.0
 44
0.0
 50
0.0
 51
0.0
 71
    16
 72
  2000
 73
     1
 74
     3
 75
     0
 76
     0
 77
     0
 78
     0
281
     0
 65
     1
110
0.0
120
0.0
130
0.0
111
1.0
121
0.0
131
0.0
112
0.0
122
1.0
132
0.0
 79
     0
146
0.0
  0
ENDTAB
  0
TABLE
  2
LTYPE
  5
5
330
0
100
AcDbSymbolTable
 70
     6
  0
LTYPE
  5
14
330
5
100
AcDbSymbolTableRecord
100
AcDbLinetypeTableRecord
  2
ByBlock
 70
     0
  3

 72
    65
 73
     0
 40
0.0
  0
LTYPE
  5
15
330
5
100
AcDbSymbolTableRecord
100
AcDbLinetypeTableRecord
  2
ByLayer
 70
     0
  3

 72
    65
 73
     0
 40
0.0
  0
LTYPE
  5
16
330
5
100
AcDbSymbolTableRecord
100
AcDbLinetypeTableRecord
  2
Continuous
 70
     0
  3
Solid line
 72
    65
 73
     0
 40
0.0
  0
LTYPE
  5
6A
330
5
100
AcDbSymbolTableRecord
100
AcDbLinetypeTableRecord
  2
HIDDEN
 70
     0
  3
Hidden __ __ __ __ __ __ __ __ __ __ __ __ __ __
 72
    65
 73
     2
 40
1.905
 49
1.27
 74
     0
 49
-0.635
 74
     0
  0
LTYPE
  5
6B
330
5
100
AcDbSymbolTableRecord
100
AcDbLinetypeTableRecord
  2
PHANTOM
 70
     0
  3
Phantom ______  __  __  ______  __  __  ______
 72
    65
 73
     6
 40
12.7
 49
6.35
 74
     0
 49
-1.27
 74
     0
 49
1.27
 74
     0
 49
-1.27
 74
     0
 49
1.27
 74
     0
 49
-1.27
 74
     0
  0
LTYPE
  5
6C
330
5
100
AcDbSymbolTableRecord
100
AcDbLinetypeTableRecord
  2
CENTER
 70
     0
  3
Center ____ _ ____ _ ____ _ ____ _ ____ _ ____
 72
    65
 73
     4
 40
10.16
 49
6.35
 74
     0
 49
-1.27
 74
     0
 49
1.27
 74
     0
 49
-1.27
 74
     0
  0
LTYPE
  5
6D
330
5
100
AcDbSymbolTableRecord
100
AcDbLinetypeTableRecord
  2
CENTERX2
 70
     0
  3
Center (2x) ________  __  ________  __  _____
 72
    65
 73
     4
 40
20.32
 49
12.7
 74
     0
 49
-2.54
 74
     0
 49
2.54
 74
     0
 49
-2.54
 74
     0
  0
LTYPE
  5
6E
330
5
100
AcDbSymbolTableRecord
100
AcDbLinetypeTableRecord
  2
DOT2
 70
     0
  3
Dot (.5x) ........................................
 72
    65
 73
     2
 40
0.635
 49
0.0
 74
     0
 49
-0.635
 74
     0
  0
ENDTAB
  0
TABLE
  2
LAYER
  5
2
102
{ACAD_XDICTIONARY
360
1D8
102
}
330
0
100
AcDbSymbolTable
 70
    18
  0
LAYER
  5
10
330
2
100
AcDbSymbolTableRecord
100
AcDbLayerTableRecord
  2
0
 70
     0
 62
     7
  6
Continuous
370
    -3
390
F
  0
LAYER
  5
6F
330
2
100
AcDbSymbolTableRecord
100
AcDbLayerTableRecord
  2
FORMAT
 70
     0
 62
     2
  6
Continuous
370
    -3
390
F
  0
LAYER
  5
70
330
2
100
AcDbSymbolTableRecord
100
AcDbLayerTableRecord
  2
외형선
 70
     0
 62
     4
  6
Continuous
370
    30
390
F
  0
LAYER
  5
71
330
2
100
AcDbSymbolTableRecord
100
AcDbLayerTableRecord
  2
숨은선
 70
     0
 62
     2
  6
HIDDEN
370
    15
390
F
  0
LAYER
  5
72
330
2
100
AcDbSymbolTableRecord
100
AcDbLayerTableRecord
  2
중심선
 70
     0
 62
     1
  6
CENTERX2
370
    -3
390
F
  0
LAYER
  5
73
330
2
100
AcDbSymbolTableRecord
100
AcDbLayerTableRecord
  2
파단선
 70
     0
 62
     4
  6
Continuous
370
    -3
390
F
  0
LAYER
  5
74
330
2
100
AcDbSymbolTableRecord
100
AcDbLayerTableRecord
  2
해칭선
 70
     0
 62
   100
  6
Continuous
370
    -3
390
F
  0
LAYER
  5
75
330
2
100
AcDbSymbolTableRecord
100
AcDbLayerTableRecord
  2
가는실선
 70
     0
 62
     4
  6
Continuous
370
    -3
390
F
  0
LAYER
  5
76
330
2
100
AcDbSymbolTableRecord
100
AcDbLayerTableRecord
  2
치수_보조선
 70
     0
 62
     4
  6
Continuous
370
    -3
390
F
  0
LAYER
  5
77
330
2
100
AcDbSymbolTableRecord
100
AcDbLayerTableRecord
  2
치수문자_일반주서
 70
     0
 62
     7
  6
Continuous
370
    15
390
F
  0
LAYER
  5
78
330
2
100
AcDbSymbolTableRecord
100
AcDbLayerTableRecord
  2
개별주서
 70
     0
 62
   100
  6
Continuous
370
    30
390
F
  0
LAYER
  5
79
330
2
100
AcDbSymbolTableRecord
100
AcDbLayerTableRecord
  2
중간선
 70
     0
 62
     2
  6
Continuous
370
    15
390
F
  0
LAYER
  5
7A
330
2
100
AcDbSymbolTableRecord
100
AcDbLayerTableRecord
  2
윤곽선
 70
     0
 62
     3
  6
Continuous
370
    40
390
F
  0
LAYER
  5
7B
330
2
100
AcDbSymbolTableRecord
100
AcDbLayerTableRecord
  2
중심마크
 70
     0
 62
   100
  6
Continuous
370
    30
390
F
  0
LAYER
  5
7C
330
2
100
AcDbSymbolTableRecord
100
AcDbLayerTableRecord
  2
가상선
 70
     0
 62
     4
  6
PHANTOM
370
    -3
390
F
  0
LAYER
  5
7D
330
2
100
AcDbSymbolTableRecord
100
AcDbLayerTableRecord
  2
특수지정선
 70
     0
 62
     5
  6
CENTERX2
370
    60
390
F
  0
LAYER
  5
7E
330
2
100
AcDbSymbolTableRecord
100
AcDbLayerTableRecord
  2
참조1
 70
     0
 62
    -4
  6
Continuous
370
    -3
390
F
  0
LAYER
  5
15D
330
2
100
AcDbSymbolTableRecord
100
AcDbLayerTableRecord
  2
Defpoints
 70
     0
 62
     7
  6
Continuous
290
     0
370
    -3
390
F
  0
ENDTAB
  0
TABLE
  2
STYLE
  5
3
330
0
100
AcDbSymbolTable
 70
     2
  0
STYLE
  5
11
330
3
100
AcDbSymbolTableRecord
100
AcDbTextStyleTableRecord
  2
Standard
 70
     0
 40
0.0
 41
1.0
 50
0.0
 71
     0
 42
3.5
  3
txt
  4

  0
STYLE
  5
94
330
3
100
AcDbSymbolTableRecord
100
AcDbTextStyleTableRecord
  2
SLDTEXTSTYLE0
 70
     0
 40
0.0
 41
0.75
 50
0.0
 71
     0
 42
3.5
  3
TXT
  4

  0
ENDTAB
  0
TABLE
  2
VIEW
  5
6
330
0
100
AcDbSymbolTable
 70
     0
  0
ENDTAB
  0
TABLE
  2
UCS
  5
7
330
0
100
AcDbSymbolTable
 70
     0
  0
ENDTAB
  0
TABLE
  2
APPID
  5
9
330
0
100
AcDbSymbolTable
 70
     2
  0
APPID
  5
12
330
9
100
AcDbSymbolTableRecord
100
AcDbRegAppTableRecord
  2
ACAD
 70
     0
  0
APPID
  5
164
330
9
100
AcDbSymbolTableRecord
100
AcDbRegAppTableRecord
  2
PE_URL
 70
     0
  0
ENDTAB
  0
TABLE
  2
DIMSTYLE
  5
A
330
0
100
AcDbSymbolTable
 70
     3
100
AcDbDimStyleTable
  0
DIMSTYLE
105
27
330
A
100
AcDbSymbolTableRecord
100
AcDbDimStyleTableRecord
  2
ISO-25
 70
     0
 41
2.5
 42
0.625
 43
3.75
 44
1.25
 73
     0
 74
     0
 77
     1
 78
     8
140
2.5
141
2.5
143
0.03937007874016
147
0.625
171
     3
172
     1
178
     0
271
     2
272
     2
274
     3
278
    44
283
     0
284
     8
340
11
  0
DIMSTYLE
105
DB
102
{ACAD_REACTORS
330
DA
330
EF
330
103
330
118
102
}
330
A
100
AcDbSymbolTableRecord
100
AcDbDimStyleTableRecord
  2
SLDDIMSTYLE0
 70
     0
 41
3.302
 44
0.0
 45
0.000000001
 73
     0
 74
     0
 77
     1
 78
    12
 79
     3
140
3.5
143
0.0393700787401575
147
0.875
148
0.000000001
170
     1
172
     1
173
     1
178
     0
271
     2
272
     2
276
     2
284
    12
289
     0
340
94
  0
DIMSTYLE
105
119
330
A
100
AcDbSymbolTableRecord
100
AcDbDimStyleTableRecord
  2
SLDDIMSTYLE1
 70
     0
 41
3.302
 44
0.0
 45
0.000000001
 73
     0
 74
     0
 77
     1
 78
     4
 79
     1
140
3.5
143
0.0393700787401575
147
0.875
148
0.000000001
170
     1
173
     1
178
     0
271
     2
272
     2
276
     2
284
    12
340
94
  0
ENDTAB
  0
TABLE
  2
BLOCK_RECORD
  5
1
330
0
100
AcDbSymbolTable
 70
    12
  0
BLOCK_RECORD
  5
1F
330
1
100
AcDbSymbolTableRecord
100
AcDbBlockTableRecord
  2
*Model_Space
340
22
  0
BLOCK_RECORD
  5
1B
330
1
100
AcDbSymbolTableRecord
100
AcDbBlockTableRecord
  2
*Paper_Space
340
1E
  0
BLOCK_RECORD
  5
23
330
1
100
AcDbSymbolTableRecord
100
AcDbBlockTableRecord
  2
*Paper_Space0
340
26
  0
BLOCK_RECORD
  5
7F
330
1
100
AcDbSymbolTableRecord
100
AcDbBlockTableRecord
  2
블럭10
340
0
102
{BLKREFS
331
D3
102
}
  0
BLOCK_RECORD
  5
DC
330
1
100
AcDbSymbolTableRecord
100
AcDbBlockTableRecord
  2
_D
340
0
  0
BLOCK_RECORD
  5
F0
330
1
100
AcDbSymbolTableRecord
100
AcDbBlockTableRecord
  2
_D_1
340
0
  0
BLOCK_RECORD
  5
104
330
1
100
AcDbSymbolTableRecord
100
AcDbBlockTableRecord
  2
_D_2
340
0
  0
BLOCK_RECORD
  5
11A
330
1
100
AcDbSymbolTableRecord
100
AcDbBlockTableRecord
  2
_D_3
340
0
  0
BLOCK_RECORD
  5
133
330
1
100
AcDbSymbolTableRecord
100
AcDbBlockTableRecord
  2
SW_DOWELSYMBOL_0
340
0
102
{BLKREFS
331
139
102
}
  0
BLOCK_RECORD
  5
196
330
1
100
AcDbSymbolTableRecord
100
AcDbBlockTableRecord
  2
*D7
340
0
  0
BLOCK_RECORD
  5
1DC
330
1
100
AcDbSymbolTableRecord
100
AcDbBlockTableRecord
  2
*D8
340
0
  0
BLOCK_RECORD
  5
1EB
330
1
100
AcDbSymbolTableRecord
100
AcDbBlockTableRecord
  2
*D9
340
0
  0
BLOCK_RECORD
  5
236
330
1
100
AcDbSymbolTableRecord
100
AcDbBlockTableRecord
  2
*D10
340
0
  0
BLOCK_RECORD
  5
248
330
1
100
AcDbSymbolTableRecord
100
AcDbBlockTableRecord
  2
*D11
340
0
  0
ENDTAB
  0
ENDSEC
  0
SECTION
  2
BLOCKS
  0
BLOCK
  5
20
330
1F
100
AcDbEntity
  8
0
100
AcDbBlockBegin
  2
*Model_Space
 70
     0
 10
0.0
 20
0.0
 30
0.0
  3
*Model_Space
  1
*Model_Space
  0
ENDBLK
  5
21
330
1F
100
AcDbEntity
  8
0
100
AcDbBlockEnd
  0
BLOCK
  5
1C
330
1B
100
AcDbEntity
 67
     1
  8
0
100
AcDbBlockBegin
  2
*Paper_Space
 70
     0
 10
0.0
 20
0.0
 30
0.0
  3
*Paper_Space
  1
*Paper_Space
  0
ENDBLK
  5
1D
330
1B
100
AcDbEntity
 67
     1
  8
0
100
AcDbBlockEnd
  0
BLOCK
  5
24
330
23
100
AcDbEntity
  8
0
100
AcDbBlockBegin
  2
*Paper_Space0
 70
     0
 10
0.0
 20
0.0
 30
0.0
  3
*Paper_Space0
  1
*Paper_Space0
  0
ENDBLK
  5
25
330
23
100
AcDbEntity
  8
0
100
AcDbBlockEnd
  0
BLOCK
  5
80
330
7F
100
AcDbEntity
  8
0
100
AcDbBlockBegin
  2
블럭10
 70
     2
 10
0.0
 20
0.0
 30
0.0
  3
블럭10
  1
블럭10
  0
ELLIPSE
  5
82
330
7F
100
AcDbEntity
  8
중심선
100
AcDbEllipse
 10
20.54032771741204
 20
12.0471743016438
 30
0.0
 11
6.600054785286829
 21
-1.261213355974178E-13
 31
0.0
210
0.0
220
0.0
230
1.0
 40
0.636358354079598
 41
0.9219305317359503
 42
6.513795318482858
  0
ELLIPSE
  5
83
330
7F
100
AcDbEntity
  8
중심선
100
AcDbEllipse
 10
20.54032771746488
 20
12.04717430159265
 30
0.0
 11
3.960054785062283
 21
1.540847449632565E-10
 31
0.0
210
0.0
220
0.0
230
1.0
 40
0.3939339440162632
 41
1.131841032648279
 42
5.62031148352944
  0
LINE
  5
84
330
7F
100
AcDbEntity
  8
중심선
100
AcDbLine
 10
2.268634060543552
 20
16.24717430164393
 30
0.0
 11
5.714909304380834
 21
16.24717430164393
 31
0.0
  0
LINE
  5
85
330
7F
100
AcDbEntity
  8
중심선
100
AcDbLine
 10
5.245725140726316
 20
7.84717430164391
 30
0.0
 11
8.692000384563599
 21
7.84717430164391
 31
0.0
  0
LINE
  5
86
330
7F
100
AcDbEntity
  8
중심선
100
AcDbLine
 10
15.74043728645272
 20
16.24717430164393
 30
0.0
 11
8.692000384563599
 21
7.84717430164391
 31
0.0
  0
LINE
  5
87
330
7F
100
AcDbEntity
  8
중심선
100
AcDbLine
 10
0.1404042013395286
 20
13.71084872107135
 30
0.0
 11
3.58671253028996
 21
13.71088815037384
 31
0.0
  0
LINE
  5
88
330
7F
100
AcDbEntity
  8
중심선
100
AcDbLine
 10
2.750260043222114
 20
10.84717430164391
 30
0.0
 11
6.196535287059397
 21
10.84717430164391
 31
0.0
  0
LINE
  5
89
330
7F
100
AcDbEntity
  8
중심선
100
AcDbLine
 10
12.29416204261559
 20
16.24717430164393
 30
0.0
 11
5.245725140726316
 21
7.84717430164391
 31
0.0
  0
LINE
  5
8A
330
7F
100
AcDbEntity
  8
중심선
100
AcDbLine
 10
10.72767329541681
 20
16.24717430164393
 30
0.0
 11
6.196535287059397
 21
10.84717430164391
 31
0.0
  0
LINE
  5
8B
330
7F
100
AcDbEntity
  8
중심선
100
AcDbLine
 10
7.28139805157953
 20
16.24717430164393
 30
0.0
 11
2.750260043222114
 21
10.84717430164391
 31
0.0
  0
LINE
  5
8C
330
7F
100
AcDbEntity
  8
중심선
100
AcDbLine
 10
5.714909304380834
 20
16.24717430164393
 30
0.0
 11
3.58671253028996
 21
13.71088815037384
 31
0.0
  0
LINE
  5
8D
330
7F
100
AcDbEntity
  8
중심선
100
AcDbLine
 10
2.268634060543552
 20
16.24717430164393
 30
0.0
 11
0.1404042013395286
 21
13.71084872107135
 31
0.0
  0
LINE
  5
8E
330
7F
100
AcDbEntity
  8
중심선
100
AcDbLine
 10
7.28139805157953
 20
16.24717430164393
 30
0.0
 11
10.72767329541681
 21
16.24717430164393
 31
0.0
  0
LINE
  5
8F
330
7F
100
AcDbEntity
  8
중심선
100
AcDbLine
 10
12.29416204261559
 20
16.24717430164393
 30
0.0
 11
15.74043728645272
 21
16.24717430164393
 31
0.0
  0
LINE
  5
90
330
7F
100
AcDbEntity
  8
중심선
100
AcDbLine
 10
19.22036997980202
 20
11.08717430171403
 30
0.0
 11
23.66174974927406
 21
11.08717430171406
 31
0.0
  0
LINE
  5
91
330
7F
100
AcDbEntity
  8
중심선
100
AcDbLine
 10
19.22039502424796
 20
13.00717430171391
 30
0.0
 11
19.22036997980202
 21
11.08717430171403
 31
0.0
  0
LINE
  5
92
330
7F
100
AcDbEntity
  8
중심선
100
AcDbLine
 10
19.22039502424796
 20
13.00717430171391
 30
0.0
 11
26.96566020931264
 21
13.00717430171391
 31
0.0
  0
LINE
  5
93
330
7F
100
AcDbEntity
  8
중심선
100
AcDbLine
 10
22.22332737316547
 20
13.45928029700563
 30
0.0
 11
24.52862924686651
 21
15.39360700705356
 31
0.0
  0
ATTDEF
  5
95
330
7F
100
AcDbEntity
  8
FORMAT
 62
     2
100
AcDbText
 10
4.408487351596664
 20
2.075366912832191
 30
0.0
 40
4.233333333333333
  1
E1001005
 41
0.75
  7
SLDTEXTSTYLE0
 11
4.408487351596664
 21
-0.0412997538344756
 31
0.0
100
AcDbAttributeDefinition
  3

  2
AUTOATTR0
 70
     0
 74
     1
  0
ENDBLK
  5
81
330
7F
100
AcDbEntity
  8
0
100
AcDbBlockEnd
  0
BLOCK
  5
DD
330
DC
100
AcDbEntity
  8
0
100
AcDbBlockBegin
  2
_D
 70
     0
 10
0.0
 20
0.0
 30
0.0
  3
_D
  1
_D
  0
LINE
  5
DF
330
DC
100
AcDbEntity
  8
치수문자_일반주서
 62
     0
370
    -2
100
AcDbLine
 10
-16.10344817511136
 20
2.381249999999997
 30
0.0
 11
-33.40000000000006
 21
2.381249999999932
 31
0.0
  0
LINE
  5
E0
330
DC
100
AcDbEntity
  8
치수문자_일반주서
 62
     0
370
    -2
100
AcDbLine
 10
-16.10344817511136
 20
-2.381250000000017
 30
0.0
 11
-33.40000000000005
 21
-2.38125000000008
 31
0.0
  0
LINE
  5
E1
330
DC
100
AcDbEntity
  8
치수문자_일반주서
 62
     0
370
    -2
100
AcDbLine
 10
-33.40000000000006
 20
2.381249999999932
 30
0.0
 11
-33.40000000000013
 21
27.88124999999997
 31
0.0
  0
LINE
  5
E2
330
DC
100
AcDbEntity
  8
치수문자_일반주서
 62
     0
370
    -2
100
AcDbLine
 10
-33.40000000000006
 20
2.381249999999932
 30
0.0
 11
-33.40000000000005
 21
-2.38125000000008
 31
0.0
  0
LINE
  5
E3
330
DC
100
AcDbEntity
  8
치수문자_일반주서
 62
     0
370
    -2
100
AcDbLine
 10
-33.40000000000007
 20
4.881249999999932
 30
0.0
 11
-33.40000000000008
 21
7.381249999999932
 31
0.0
  0
LINE
  5
E4
330
DC
100
AcDbEntity
  8
치수문자_일반주서
 62
     0
370
    -2
100
AcDbLine
 10
-33.40000000000004
 20
-4.88125000000008
 30
0.0
 11
-33.40000000000003
 21
-7.38125000000008
 31
0.0
  0
SOLID
  5
E5
330
DC
100
AcDbEntity
  8
치수문자_일반주서
 62
     0
100
AcDbTrace
 10
-33.81666666666673
 20
4.881249999999931
 30
0.0
 11
-32.98333333333341
 21
4.881249999999933
 31
0.0
 12
-33.40000000000006
 22
2.381249999999932
 32
0.0
 13
-33.40000000000006
 23
2.381249999999932
 33
0.0
  0
SOLID
  5
E6
330
DC
100
AcDbEntity
  8
치수문자_일반주서
 62
     0
100
AcDbTrace
 10
-32.98333333333338
 20
-4.881250000000079
 30
0.0
 11
-33.81666666666671
 21
-4.88125000000008
 31
0.0
 12
-33.40000000000005
 22
-2.38125000000008
 32
0.0
 13
-33.40000000000005
 23
-2.38125000000008
 33
0.0
  0
MTEXT
  5
E7
330
DC
100
AcDbEntity
  8
치수문자_일반주서
 62
     0
100
AcDbMText
 10
-36.77500000000011
 20
17.63124999999996
 30
0.0
 40
2.5
 41
0.0
 71
     2
 72
     1
  1
\A1;%%c4.76 [3/16]
  7
SLDTEXTSTYLE0
 11
-2.983906501879677E-15
 21
1.0
 31
0.0
 73
     1
 44
1.0
  0
POINT
  5
1FA
330
DC
100
AcDbEntity
  8
Defpoints
 62
     0
100
AcDbPoint
 10
-16.04094817511136
 20
2.381249999999997
 30
0.0
  0
POINT
  5
1FB
330
DC
100
AcDbEntity
  8
Defpoints
 62
     0
100
AcDbPoint
 10
-16.04094817511136
 20
-2.381250000000017
 30
0.0
  0
POINT
  5
1FC
330
DC
100
AcDbEntity
  8
Defpoints
 62
     0
100
AcDbPoint
 10
-33.40000000000005
 20
-2.381250000000081
 30
0.0
  0
ENDBLK
  5
DE
330
DC
100
AcDbEntity
  8
0
100
AcDbBlockEnd
  0
BLOCK
  5
F1
330
F0
100
AcDbEntity
  8
0
100
AcDbBlockBegin
  2
_D_1
 70
     0
 10
0.0
 20
0.0
 30
0.0
  3
_D_1
  1
_D_1
  0
LINE
  5
F3
330
F0
100
AcDbEntity
  8
치수문자_일반주서
 62
     0
370
    -2
100
AcDbLine
 10
25.46249999999999
 20
-0.9913489182356611
 30
0.0
 11
56.00126815548492
 21
-0.9913489182355484
 31
0.0
  0
LINE
  5
F4
330
F0
100
AcDbEntity
  8
치수문자_일반주서
 62
     0
370
    -2
100
AcDbLine
 10
25.46249999999999
 20
0.9913489182356633
 30
0.0
 11
56.00126815548491
 21
0.9913489182357775
 31
0.0
  0
LINE
  5
F5
330
F0
100
AcDbEntity
  8
치수문자_일반주서
 62
     0
370
    -2
100
AcDbLine
 10
56.00126815548491
 20
0.9913489182357775
 30
0.0
 11
56.00126815548482
 21
26.49134891823578
 31
0.0
  0
LINE
  5
F6
330
F0
100
AcDbEntity
  8
치수문자_일반주서
 62
     0
370
    -2
100
AcDbLine
 10
56.00126815548492
 20
-0.9913489182355484
 30
0.0
 11
56.00126815548491
 21
0.9913489182357775
 31
0.0
  0
LINE
  5
F7
330
F0
100
AcDbEntity
  8
치수문자_일반주서
 62
     0
370
    -2
100
AcDbLine
 10
56.00126815548492
 20
-3.491348918235548
 30
0.0
 11
56.00126815548493
 21
-5.991348918235548
 31
0.0
  0
LINE
  5
F8
330
F0
100
AcDbEntity
  8
치수문자_일반주서
 62
     0
370
    -2
100
AcDbLine
 10
56.0012681554849
 20
3.491348918235778
 30
0.0
 11
56.00126815548489
 21
5.991348918235778
 31
0.0
  0
SOLID
  5
F9
330
F0
100
AcDbEntity
  8
치수문자_일반주서
 62
     0
100
AcDbTrace
 10
56.41793482215159
 20
-3.491348918235547
 30
0.0
 11
55.58460148881826
 21
-3.49134891823555
 31
0.0
 12
56.00126815548492
 22
-0.9913489182355484
 32
0.0
 13
56.00126815548492
 23
-0.9913489182355484
 33
0.0
  0
SOLID
  5
FA
330
F0
100
AcDbEntity
  8
치수문자_일반주서
 62
     0
100
AcDbTrace
 10
55.58460148881824
 20
3.491348918235776
 30
0.0
 11
56.41793482215157
 21
3.491348918235779
 31
0.0
 12
56.00126815548491
 22
0.9913489182357775
 32
0.0
 13
56.00126815548491
 23
0.9913489182357775
 33
0.0
  0
MTEXT
  5
FB
330
F0
100
AcDbEntity
  8
치수문자_일반주서
 62
     0
100
AcDbMText
 10
52.62626815548485
 20
16.24134891823577
 30
0.0
 40
2.5
 41
0.0
 71
     2
 72
     1
  1
\A1;%%c1.98 [5/64]
  7
SLDTEXTSTYLE0
 11
-3.583716705035991E-15
 21
1.0
 31
0.0
 73
     1
 44
1.0
  0
POINT
  5
FC
330
F0
100
AcDbEntity
  8
Defpoints
 62
     0
100
AcDbPoint
 10
25.39999999999999
 20
-0.9913489182356613
 30
0.0
  0
POINT
  5
FD
330
F0
100
AcDbEntity
  8
Defpoints
 62
     0
100
AcDbPoint
 10
25.39999999999999
 20
0.9913489182356631
 30
0.0
  0
POINT
  5
FE
330
F0
100
AcDbEntity
  8
Defpoints
 62
     0
100
AcDbPoint
 10
56.00126815548491
 20
0.9913489182357774
 30
0.0
  0
ENDBLK
  5
F2
330
F0
100
AcDbEntity
  8
0
100
AcDbBlockEnd
  0
BLOCK
  5
105
330
104
100
AcDbEntity
  8
0
100
AcDbBlockBegin
  2
_D_2
 70
     0
 10
0.0
 20
0.0
 30
0.0
  3
_D_2
  1
_D_2
  0
LINE
  5
107
330
104
100
AcDbEntity
  8
치수문자_일반주서
 62
     0
370
    -2
100
AcDbLine
 10
25.39999999999999
 20
1.053848918235663
 30
0.0
 11
25.39999999999999
 21
10.38124999999999
 31
0.0
  0
LINE
  5
108
330
104
100
AcDbEntity
  8
치수문자_일반주서
 62
     0
370
    -2
100
AcDbLine
 10
22.22499999999999
 20
0.8401655899133755
 30
0.0
 11
22.22499999999999
 21
10.38124999999999
 31
0.0
  0
LINE
  5
109
330
104
100
AcDbEntity
  8
치수문자_일반주서
 62
     0
370
    -2
100
AcDbLine
 10
25.39999999999999
 20
10.38124999999999
 30
0.0
 11
51.00399999999998
 21
10.38124999999999
 31
0.0
  0
LINE
  5
10A
330
104
100
AcDbEntity
  8
치수문자_일반주서
 62
     0
370
    -2
100
AcDbLine
 10
25.39999999999999
 20
10.38124999999999
 30
0.0
 11
22.22499999999999
 21
10.38124999999999
 31
0.0
  0
LINE
  5
10B
330
104
100
AcDbEntity
  8
치수문자_일반주서
 62
     0
370
    -2
100
AcDbLine
 10
27.89999999999999
 20
10.38124999999999
 30
0.0
 11
30.39999999999999
 21
10.38124999999999
 31
0.0
  0
LINE
  5
10C
330
104
100
AcDbEntity
  8
치수문자_일반주서
 62
     0
370
    -2
100
AcDbLine
 10
19.72499999999999
 20
10.38124999999999
 30
0.0
 11
17.22499999999999
 21
10.38124999999999
 31
0.0
  0
SOLID
  5
10D
330
104
100
AcDbEntity
  8
치수문자_일반주서
 62
     0
100
AcDbTrace
 10
27.89999999999999
 20
10.79791666666665
 30
0.0
 11
27.89999999999999
 21
9.964583333333321
 31
0.0
 12
25.39999999999999
 22
10.38124999999999
 32
0.0
 13
25.39999999999999
 23
10.38124999999999
 33
0.0
  0
SOLID
  5
10E
330
104
100
AcDbEntity
  8
치수문자_일반주서
 62
     0
100
AcDbTrace
 10
19.72499999999999
 20
9.964583333333321
 30
0.0
 11
19.72499999999999
 21
10.79791666666665
 31
0.0
 12
22.22499999999999
 22
10.38124999999999
 32
0.0
 13
22.22499999999999
 23
10.38124999999999
 33
0.0
  0
MTEXT
  5
10F
330
104
100
AcDbEntity
  8
치수문자_일반주서
 62
     0
100
AcDbMText
 10
42.94149999999998
 20
13.75624999999999
 30
0.0
 40
2.5
 41
0.0
 71
     2
 72
     1
  1
\A1;3.18 [1/8]
  7
SLDTEXTSTYLE0
 73
     1
 44
1.0
  0
POINT
  5
110
330
104
100
AcDbEntity
  8
Defpoints
 62
     0
100
AcDbPoint
 10
25.39999999999999
 20
0.9913489182356631
 30
0.0
  0
POINT
  5
111
330
104
100
AcDbEntity
  8
Defpoints
 62
     0
100
AcDbPoint
 10
22.22499999999999
 20
0.7776655899133755
 30
0.0
  0
POINT
  5
112
330
104
100
AcDbEntity
  8
Defpoints
 62
     0
100
AcDbPoint
 10
22.22499999999999
 20
10.38124999999999
 30
0.0
  0
ENDBLK
  5
106
330
104
100
AcDbEntity
  8
0
100
AcDbBlockEnd
  0
BLOCK
  5
11B
330
11A
100
AcDbEntity
  8
0
100
AcDbBlockBegin
  2
_D_3
 70
     0
 10
0.0
 20
0.0
 30
0.0
  3
_D_3
  1
_D_3
  0
LINE
  5
11D
330
11A
100
AcDbEntity
  8
치수문자_일반주서
 62
     0
370
    -2
100
AcDbLine
 10
-25.4
 20
1.053848918235637
 30
0.0
 11
-25.39999999999999
 21
18.38124999999999
 31
0.0
  0
LINE
  5
11E
330
11A
100
AcDbEntity
  8
치수문자_일반주서
 62
     0
370
    -2
100
AcDbLine
 10
25.39999999999999
 20
1.053848918235663
 30
0.0
 11
25.4
 21
18.38124999999999
 31
0.0
  0
LINE
  5
11F
330
11A
100
AcDbEntity
  8
치수문자_일반주서
 62
     0
370
    -2
100
AcDbLine
 10
-22.89999999999999
 20
18.38124999999999
 30
0.0
 11
22.9
 21
18.38124999999999
 31
0.0
  0
SOLID
  5
120
330
11A
100
AcDbEntity
  8
치수문자_일반주서
 62
     0
100
AcDbTrace
 10
-22.89999999999999
 20
18.79791666666666
 30
0.0
 11
-22.89999999999999
 21
17.96458333333332
 31
0.0
 12
-25.39999999999999
 22
18.38124999999999
 32
0.0
 13
-25.39999999999999
 23
18.38124999999999
 33
0.0
  0
SOLID
  5
121
330
11A
100
AcDbEntity
  8
치수문자_일반주서
 62
     0
100
AcDbTrace
 10
22.9
 20
17.96458333333332
 30
0.0
 11
22.9
 21
18.79791666666666
 31
0.0
 12
25.4
 22
18.38124999999999
 32
0.0
 13
25.4
 23
18.38124999999999
 33
0.0
  0
MTEXT
  5
122
330
11A
100
AcDbEntity
  8
치수문자_일반주서
 62
     0
100
AcDbMText
 10
4.000000000000002
 20
21.75624999999999
 30
0.0
 40
2.5
 41
0.0
 71
     2
 72
     1
  1
\A1;50.8 [2]
  7
SLDTEXTSTYLE0
 73
     1
 44
1.0
  0
POINT
  5
123
330
11A
100
AcDbEntity
  8
Defpoints
 62
     0
100
AcDbPoint
 10
-25.4
 20
0.9913489182356365
 30
0.0
  0
POINT
  5
124
330
11A
100
AcDbEntity
  8
Defpoints
 62
     0
100
AcDbPoint
 10
25.39999999999999
 20
0.9913489182356631
 30
0.0
  0
POINT
  5
125
330
11A
100
AcDbEntity
  8
Defpoints
 62
     0
100
AcDbPoint
 10
25.39999999999999
 20
18.38124999999999
 30
0.0
  0
ENDBLK
  5
11C
330
11A
100
AcDbEntity
  8
0
100
AcDbBlockEnd
  0
BLOCK
  5
134
330
133
100
AcDbEntity
  8
0
100
AcDbBlockBegin
  2
SW_DOWELSYMBOL_0
 70
     0
 10
0.0
 20
0.0
 30
0.0
  3
SW_DOWELSYMBOL_0
  1
SW_DOWELSYMBOL_0
  0
CIRCLE
  5
136
330
133
100
AcDbEntity
  8
해칭선
 62
     0
100
AcDbCircle
 10
0.0
 20
0.0
 30
0.0
 40
3.000000000000001
  0
HATCH
  5
137
330
133
100
AcDbEntity
  8
0
  6
Continuous
 62
     0
370
     0
100
AcDbHatch
 10
0.0
 20
0.0
 30
0.0
210
0.0
220
0.0
230
1.0
  2
SOLID
 70
     1
 71
     0
 91
        1
 92
        0
 93
        3
 72
     2
 10
0.0
 20
0.0
 40
3.000000000000001
 50
0.0
 51
90.0
 73
     1
 72
     1
 10
0.0
 20
3.000000000000001
 11
0.0
 21
0.0
 72
     1
 10
0.0
 20
0.0
 11
3.000000000000001
 21
0.0
 97
        0
 75
     0
 76
     1
 98
        1
 10
0.0
 20
0.0
  0
HATCH
  5
138
330
133
100
AcDbEntity
  8
0
  6
Continuous
 62
     0
370
     0
100
AcDbHatch
 10
0.0
 20
0.0
 30
0.0
210
0.0
220
0.0
230
1.0
  2
SOLID
 70
     1
 71
     0
 91
        1
 92
        0
 93
        3
 72
     2
 10
0.0
 20
0.0
 40
3.000000000000001
 50
180.0
 51
270.0000000000007
 73
     1
 72
     1
 10
0.0
 20
-3.000000000000001
 11
0.0
 21
0.0
 72
     1
 10
0.0
 20
0.0
 11
-3.000000000000001
 21
0.0
 97
        0
 75
     0
 76
     1
 98
        1
 10
0.0
 20
0.0
  0
ENDBLK
  5
135
330
133
100
AcDbEntity
  8
0
100
AcDbBlockEnd
  0
BLOCK
  5
197
330
196
100
AcDbEntity
  8
0
100
AcDbBlockBegin
  2
*D7
 70
     1
 10
0.0
 20
0.0
 30
0.0
  3
*D7
  1
*D7
  0
LINE
  5
199
330
196
100
AcDbEntity
  8
치수문자_일반주서
 62
     0
370
    -2
100
AcDbLine
 10
6.190624999999997
 20
0.7721629347154007
 30
0.0
 11
6.190624999999997
 21
10.69437336742114
 31
0.0
  0
LINE
  5
19A
330
196
100
AcDbEntity
  8
치수문자_일반주서
 62
     0
370
    -2
100
AcDbLine
 10
5.0
 20
0.6894240694811142
 30
0.0
 11
5.0
 21
10.69437336742114
 31
0.0
  0
LINE
  5
19B
330
196
100
AcDbEntity
  8
치수문자_일반주서
 62
     0
370
    -2
100
AcDbLine
 10
6.190624999999997
 20
10.69437336742114
 30
0.0
 11
29.190625
 21
10.69437336742114
 31
0.0
  0
LINE
  5
19C
330
196
100
AcDbEntity
  8
치수문자_일반주서
 62
     0
370
    -2
100
AcDbLine
 10
6.190624999999997
 20
10.69437336742114
 30
0.0
 11
5.0
 21
10.69437336742114
 31
0.0
  0
LINE
  5
19D
330
196
100
AcDbEntity
  8
치수문자_일반주서
 62
     0
370
    -2
100
AcDbLine
 10
8.690624999999997
 20
10.69437336742114
 30
0.0
 11
11.190625
 21
10.69437336742114
 31
0.0
  0
LINE
  5
19E
330
196
100
AcDbEntity
  8
치수문자_일반주서
 62
     0
370
    -2
100
AcDbLine
 10
2.5
 20
10.69437336742114
 30
0.0
 11
0.0
 21
10.69437336742114
 31
0.0
  0
SOLID
  5
19F
330
196
100
AcDbEntity
  8
치수문자_일반주서
 62
     0
100
AcDbTrace
 10
8.690624999999997
 20
11.1110400340878
 30
0.0
 11
8.690624999999997
 21
10.27770670075447
 31
0.0
 12
6.190624999999997
 22
10.69437336742114
 32
0.0
 13
6.190624999999997
 23
10.69437336742114
 33
0.0
  0
SOLID
  5
1A0
330
196
100
AcDbEntity
  8
치수문자_일반주서
 62
     0
100
AcDbTrace
 10
2.5
 20
10.27770670075447
 30
0.0
 11
2.5
 21
11.1110400340878
 31
0.0
 12
5.0
 22
10.69437336742114
 32
0.0
 13
5.0
 23
10.69437336742114
 33
0.0
  0
MTEXT
  5
1A1
330
196
100
AcDbEntity
  8
치수문자_일반주서
 62
     0
100
AcDbMText
 10
20.190625
 20
14.06937336742114
 30
0.0
 40
2.5
 41
0.0
 71
     2
 72
     1
  1
\A1;1.19 [3/64]
  7
SLDTEXTSTYLE0
 73
     1
 44
1.0
  0
POINT
  5
1A2
330
196
100
AcDbEntity
  8
Defpoints
 62
     0
100
AcDbPoint
 10
6.190624999999997
 20
0.7096629347154007
 30
0.0
  0
POINT
  5
1A3
330
196
100
AcDbEntity
  8
Defpoints
 62
     0
100
AcDbPoint
 10
5.0
 20
0.6269240694811142
 30
0.0
  0
POINT
  5
1A4
330
196
100
AcDbEntity
  8
Defpoints
 62
     0
100
AcDbPoint
 10
5.0
 20
10.69437336742114
 30
0.0
  0
ENDBLK
  5
198
330
196
100
AcDbEntity
  8
0
100
AcDbBlockEnd
  0
BLOCK
  5
1DD
330
1DC
100
AcDbEntity
  8
0
100
AcDbBlockBegin
  2
*D8
 70
     1
 10
0.0
 20
0.0
 30
0.0
  3
*D8
  1
*D8
  0
LINE
  5
1DF
330
1DC
100
AcDbEntity
  8
치수문자_일반주서
 62
     0
370
    -2
100
AcDbLine
 10
0.0
 20
5.682232522623006
 30
0.0
 11
0.0
 21
38.96275959566984
 31
0.0
  0
LINE
  5
1E0
330
1DC
100
AcDbEntity
  8
치수문자_일반주서
 62
     0
370
    -2
100
AcDbLine
 10
25.99995813577124
 20
13.34578000640788
 30
0.0
 11
25.99995813577124
 21
38.96275959566984
 31
0.0
  0
LINE
  5
1E1
330
1DC
100
AcDbEntity
  8
치수문자_일반주서
 62
     0
370
    -2
100
AcDbLine
 10
3.302
 20
38.96275959566984
 30
0.0
 11
22.69795813577124
 21
38.96275959566984
 31
0.0
  0
SOLID
  5
1E2
330
1DC
100
AcDbEntity
  8
치수문자_일반주서
 62
     0
100
AcDbTrace
 10
3.302
 20
39.51309292900317
 30
0.0
 11
3.302
 21
38.4124262623365
 31
0.0
 12
0.0
 22
38.96275959566984
 32
0.0
 13
0.0
 23
38.96275959566984
 33
0.0
  0
SOLID
  5
1E3
330
1DC
100
AcDbEntity
  8
치수문자_일반주서
 62
     0
100
AcDbTrace
 10
22.69795813577124
 20
38.4124262623365
 30
0.0
 11
22.69795813577124
 21
39.51309292900317
 31
0.0
 12
25.99995813577124
 22
38.96275959566984
 32
0.0
 13
25.99995813577124
 23
38.96275959566984
 33
0.0
  0
MTEXT
  5
1E4
330
1DC
100
AcDbEntity
  8
치수문자_일반주서
 62
     0
100
AcDbMText
 10
13.04655386270326
 20
43.33775959566984
 30
0.0
 40
3.5
 41
0.0
 71
     2
 72
     1
  1
\A1;26 [1.02]
  7
SLDTEXTSTYLE0
 73
     1
 44
1.0
  0
POINT
  5
1E5
330
1DC
100
AcDbEntity
  8
Defpoints
 62
     0
100
AcDbPoint
 10
0.0
 20
5.619732522623006
 30
0.0
  0
POINT
  5
1E6
330
1DC
100
AcDbEntity
  8
Defpoints
 62
     0
100
AcDbPoint
 10
25.99995813577124
 20
13.28328000640788
 30
0.0
  0
POINT
  5
1E7
330
1DC
100
AcDbEntity
  8
Defpoints
 62
     0
100
AcDbPoint
 10
25.99995813577124
 20
38.96275959566984
 30
0.0
  0
ENDBLK
  5
1DE
330
1DC
100
AcDbEntity
  8
0
100
AcDbBlockEnd
  0
BLOCK
  5
1EC
330
1EB
100
AcDbEntity
  8
0
100
AcDbBlockBegin
  2
*D9
 70
     1
 10
0.0
 20
0.0
 30
0.0
  3
*D9
  1
*D9
  0
LINE
  5
1EE
330
1EB
100
AcDbEntity
  8
치수문자_일반주서
 62
     0
370
    -2
100
AcDbLine
 10
57.07820974309277
 20
-17.39400006488703
 30
0.0
 11
57.07820974309277
 21
15.8865270081598
 31
0.0
  0
LINE
  5
1EF
330
1EB
100
AcDbEntity
  8
치수문자_일반주서
 62
     0
370
    -2
100
AcDbLine
 10
83.07816787886401
 20
-9.730452581102163
 30
0.0
 11
83.07816787886401
 21
15.8865270081598
 31
0.0
  0
LINE
  5
1F0
330
1EB
100
AcDbEntity
  8
치수문자_일반주서
 62
     0
370
    -2
100
AcDbLine
 10
60.38020974309277
 20
15.8865270081598
 30
0.0
 11
79.77616787886402
 21
15.8865270081598
 31
0.0
  0
SOLID
  5
1F1
330
1EB
100
AcDbEntity
  8
치수문자_일반주서
 62
     0
100
AcDbTrace
 10
60.38020974309277
 20
16.43686034149313
 30
0.0
 11
60.38020974309277
 21
15.33619367482646
 31
0.0
 12
57.07820974309277
 22
15.8865270081598
 32
0.0
 13
57.07820974309277
 23
15.8865270081598
 33
0.0
  0
SOLID
  5
1F2
330
1EB
100
AcDbEntity
  8
치수문자_일반주서
 62
     0
100
AcDbTrace
 10
79.77616787886402
 20
15.33619367482646
 30
0.0
 11
79.77616787886402
 21
16.43686034149313
 31
0.0
 12
83.07816787886401
 22
15.8865270081598
 32
0.0
 13
83.07816787886401
 23
15.8865270081598
 33
0.0
  0
MTEXT
  5
1F3
330
1EB
100
AcDbEntity
  8
치수문자_일반주서
 62
     0
100
AcDbMText
 10
70.12476360579603
 20
20.2615270081598
 30
0.0
 40
3.5
 41
0.0
 71
     2
 72
     1
  1
\A1;26 [1.02]
  7
SLDTEXTSTYLE0
 73
     1
 44
1.0
  0
POINT
  5
1F4
330
1EB
100
AcDbEntity
  8
Defpoints
 62
     0
100
AcDbPoint
 10
57.07820974309277
 20
-17.45650006488703
 30
0.0
  0
POINT
  5
1F5
330
1EB
100
AcDbEntity
  8
Defpoints
 62
     0
100
AcDbPoint
 10
83.07816787886401
 20
-9.792952581102163
 30
0.0
  0
POINT
  5
1F6
330
1EB
100
AcDbEntity
  8
Defpoints
 62
     0
100
AcDbPoint
 10
83.07816787886401
 20
15.8865270081598
 30
0.0
  0
ENDBLK
  5
1ED
330
1EB
100
AcDbEntity
  8
0
100
AcDbBlockEnd
  0
BLOCK
  5
237
330
236
100
AcDbEntity
  8
0
100
AcDbBlockBegin
  2
*D10
 70
     1
 10
0.0
 20
0.0
 30
0.0
  3
*D10
  1
*D10
  0
LINE
  5
239
330
236
100
AcDbEntity
  8
치수문자_일반주서
 62
     0
370
    -2
100
AcDbLine
 10
6.190624999999997
 20
0.3484871582727809
 30
0.0
 11
6.190624999999997
 21
10.27069759097852
 31
0.0
  0
LINE
  5
23A
330
236
100
AcDbEntity
  8
치수문자_일반주서
 62
     0
370
    -2
100
AcDbLine
 10
5.0
 20
0.2657482930384945
 30
0.0
 11
5.0
 21
10.27069759097852
 31
0.0
  0
LINE
  5
23B
330
236
100
AcDbEntity
  8
치수문자_일반주서
 62
     0
370
    -2
100
AcDbLine
 10
6.190624999999997
 20
10.27069759097852
 30
0.0
 11
29.190625
 21
10.27069759097852
 31
0.0
  0
LINE
  5
23C
330
236
100
AcDbEntity
  8
치수문자_일반주서
 62
     0
370
    -2
100
AcDbLine
 10
6.190624999999997
 20
10.27069759097852
 30
0.0
 11
5.0
 21
10.27069759097852
 31
0.0
  0
LINE
  5
23D
330
236
100
AcDbEntity
  8
치수문자_일반주서
 62
     0
370
    -2
100
AcDbLine
 10
8.690624999999997
 20
10.27069759097852
 30
0.0
 11
11.190625
 21
10.27069759097852
 31
0.0
  0
LINE
  5
23E
330
236
100
AcDbEntity
  8
치수문자_일반주서
 62
     0
370
    -2
100
AcDbLine
 10
2.5
 20
10.27069759097852
 30
0.0
 11
0.0
 21
10.27069759097852
 31
0.0
  0
SOLID
  5
23F
330
236
100
AcDbEntity
  8
치수문자_일반주서
 62
     0
100
AcDbTrace
 10
8.690624999999997
 20
10.68736425764518
 30
0.0
 11
8.690624999999997
 21
9.85403092431185
 31
0.0
 12
6.190624999999997
 22
10.27069759097852
 32
0.0
 13
6.190624999999997
 23
10.27069759097852
 33
0.0
  0
SOLID
  5
240
330
236
100
AcDbEntity
  8
치수문자_일반주서
 62
     0
100
AcDbTrace
 10
2.5
 20
9.85403092431185
 30
0.0
 11
2.5
 21
10.68736425764518
 31
0.0
 12
5.0
 22
10.27069759097852
 32
0.0
 13
5.0
 23
10.27069759097852
 33
0.0
  0
MTEXT
  5
241
330
236
100
AcDbEntity
  8
치수문자_일반주서
 62
     0
100
AcDbMText
 10
20.190625
 20
13.64569759097852
 30
0.0
 40
2.5
 41
0.0
 71
     2
 72
     1
  1
\A1;1.19 [3/64]
  7
SLDTEXTSTYLE0
 73
     1
 44
1.0
  0
POINT
  5
242
330
236
100
AcDbEntity
  8
Defpoints
 62
     0
100
AcDbPoint
 10
6.190624999999997
 20
0.2859871582727809
 30
0.0
  0
POINT
  5
243
330
236
100
AcDbEntity
  8
Defpoints
 62
     0
100
AcDbPoint
 10
5.0
 20
0.2032482930384945
 30
0.0
  0
POINT
  5
244
330
236
100
AcDbEntity
  8
Defpoints
 62
     0
100
AcDbPoint
 10
5.0
 20
10.27069759097852
 30
0.0
  0
ENDBLK
  5
238
330
236
100
AcDbEntity
  8
0
100
AcDbBlockEnd
  0
BLOCK
  5
249
330
248
100
AcDbEntity
  8
0
100
AcDbBlockBegin
  2
*D11
 70
     1
 10
0.0
 20
0.0
 30
0.0
  3
*D11
  1
*D11
  0
LINE
  5
24B
330
248
100
AcDbEntity
  8
치수문자_일반주서
 62
     0
370
    -2
100
AcDbLine
 10
61.92183089635341
 20
-15.20182897271602
 30
0.0
 11
61.92183089635341
 21
-5.279618540010288
 31
0.0
  0
LINE
  5
24C
330
248
100
AcDbEntity
  8
치수문자_일반주서
 62
     0
370
    -2
100
AcDbLine
 10
60.73120589635341
 20
-15.28456783795031
 30
0.0
 11
60.73120589635341
 21
-5.279618540010288
 31
0.0
  0
LINE
  5
24D
330
248
100
AcDbEntity
  8
치수문자_일반주서
 62
     0
370
    -2
100
AcDbLine
 10
61.92183089635341
 20
-5.279618540010288
 30
0.0
 11
84.92183089635341
 21
-5.279618540010288
 31
0.0
  0
LINE
  5
24E
330
248
100
AcDbEntity
  8
치수문자_일반주서
 62
     0
370
    -2
100
AcDbLine
 10
61.92183089635341
 20
-5.279618540010288
 30
0.0
 11
60.73120589635341
 21
-5.279618540010288
 31
0.0
  0
LINE
  5
24F
330
248
100
AcDbEntity
  8
치수문자_일반주서
 62
     0
370
    -2
100
AcDbLine
 10
64.42183089635341
 20
-5.279618540010288
 30
0.0
 11
66.92183089635341
 21
-5.279618540010288
 31
0.0
  0
LINE
  5
250
330
248
100
AcDbEntity
  8
치수문자_일반주서
 62
     0
370
    -2
100
AcDbLine
 10
58.23120589635341
 20
-5.279618540010288
 30
0.0
 11
55.73120589635341
 21
-5.279618540010288
 31
0.0
  0
SOLID
  5
251
330
248
100
AcDbEntity
  8
치수문자_일반주서
 62
     0
100
AcDbTrace
 10
64.42183089635341
 20
-4.862951873343621
 30
0.0
 11
64.42183089635341
 21
-5.696285206676955
 31
0.0
 12
61.92183089635341
 22
-5.279618540010288
 32
0.0
 13
61.92183089635341
 23
-5.279618540010288
 33
0.0
  0
SOLID
  5
252
330
248
100
AcDbEntity
  8
치수문자_일반주서
 62
     0
100
AcDbTrace
 10
58.23120589635341
 20
-5.696285206676955
 30
0.0
 11
58.23120589635341
 21
-4.862951873343621
 31
0.0
 12
60.73120589635341
 22
-5.279618540010288
 32
0.0
 13
60.73120589635341
 23
-5.279618540010288
 33
0.0
  0
MTEXT
  5
253
330
248
100
AcDbEntity
  8
치수문자_일반주서
 62
     0
100
AcDbMText
 10
75.92183089635341
 20
-1.904618540010288
 30
0.0
 40
2.5
 41
0.0
 71
     2
 72
     1
  1
\A1;1.19 [3/64]
  7
SLDTEXTSTYLE0
 73
     1
 44
1.0
  0
POINT
  5
254
330
248
100
AcDbEntity
  8
Defpoints
 62
     0
100
AcDbPoint
 10
61.92183089635341
 20
-15.26432897271602
 30
0.0
  0
POINT
  5
255
330
248
100
AcDbEntity
  8
Defpoints
 62
     0
100
AcDbPoint
 10
60.73120589635341
 20
-15.34706783795031
 30
0.0
  0
POINT
  5
256
330
248
100
AcDbEntity
  8
Defpoints
 62
     0
100
AcDbPoint
 10
60.73120589635341
 20
-5.279618540010288
 30
0.0
  0
ENDBLK
  5
24A
330
248
100
AcDbEntity
  8
0
100
AcDbBlockEnd
  0
ENDSEC
  0
SECTION
  2
ENTITIES
  0
LINE
  5
96
330
1F
100
AcDbEntity
  8
외형선
  6
Continuous
370
    15
100
AcDbLine
 10
16.04094817511136
 20
2.381249999999999
 30
0.0
 11
-16.04094817511136
 21
2.381249999999997
 31
0.0
  0
LINE
  5
97
330
1F
100
AcDbEntity
  8
외형선
  6
Continuous
370
    15
100
AcDbLine
 10
-16.04094817511136
 20
-2.381250000000001
 30
0.0
 11
16.04094817511136
 21
-2.381249999999999
 31
0.0
  0
LINE
  5
98
330
1F
100
AcDbEntity
  8
외형선
  6
Continuous
370
    15
100
AcDbLine
 10
16.04094817511136
 20
-2.38125
 30
0.0
 11
21.22499999999999
 21
-0.9921874999999991
 31
0.0
  0
LINE
  5
99
330
1F
100
AcDbEntity
  8
외형선
  6
Continuous
370
    15
100
AcDbLine
 10
21.22499999999999
 20
0.9921875000000009
 30
0.0
 11
16.04094817511136
 21
2.38125
 31
0.0
  0
LINE
  5
9C
330
1F
100
AcDbEntity
  8
외형선
  6
Continuous
370
    15
100
AcDbLine
 10
21.42481527530835
 20
0.9921875000000009
 30
0.0
 11
21.22499999999999
 21
0.9921875000000009
 31
0.0
  0
LINE
  5
9D
330
1F
100
AcDbEntity
  8
외형선
  6
Continuous
370
    15
100
AcDbLine
 10
21.22499999999999
 20
-0.9921874999999991
 30
0.0
 11
21.42481527530835
 21
-0.9921874999999991
 31
0.0
  0
SPLINE
  5
9E
330
1F
100
AcDbEntity
  8
외형선
  6
Continuous
370
    15
100
AcDbSpline
210
0.0
220
0.0
230
1.0
 70
     8
 71
     3
 72
     9
 73
     5
 74
     0
 42
0.000000001
 43
0.00000001
 40
0.0
 40
0.0
 40
0.0
 40
0.0
 40
0.6868038195834413
 40
1.0
 40
1.0
 40
1.0
 40
1.0
 10
22.22500000000001
 20
0.7775992562859729
 30
0.0
 10
22.10150366770526
 20
0.775258805428194
 30
0.0
 10
21.92169055546943
 20
0.7718510625021303
 30
0.0
 10
21.73953020424732
 20
0.7796527026064739
 30
0.0
 10
21.68247827802122
 20
0.7820961464881391
 30
0.0
  0
SPLINE
  5
9F
330
1F
100
AcDbEntity
  8
외형선
  6
Continuous
370
    15
100
AcDbSpline
210
0.0
220
0.0
230
1.0
 70
     8
 71
     3
 72
     9
 73
     5
 74
     0
 42
0.000000001
 43
0.00000001
 40
0.0
 40
0.0
 40
0.0
 40
0.0
 40
0.4372504308365384
 40
1.0
 40
1.0
 40
1.0
 40
1.0
 10
21.42486999741459
 20
-0.7921410770885564
 30
0.0
 10
21.54130733813764
 20
-0.7861801020765316
 30
0.0
 10
21.8076017372084
 20
-0.7725472395528276
 30
0.0
 10
22.07469396428546
 20
-0.7758224445945908
 30
0.0
 10
22.22499999999998
 20
-0.7776655648207651
 30
0.0
  0
LINE
  5
A0
330
1F
100
AcDbEntity
  8
0
  6
Continuous
 62
     1
370
    15
100
AcDbLine
 10
22.82863411168771
 20
0.2542458219801436
 30
0.0
 11
22.55524219800845
 21
0.3918340894808014
 31
0.0
1001
PE_URL
1000

  0
LINE
  5
A1
330
1F
100
AcDbEntity
  8
0
  6
Continuous
 62
     1
370
    15
100
AcDbLine
 10
22.38103398595587
 20
0.2242841520152863
 30
0.0
 11
22.3434317364961
 21
0.2443685760398453
 31
0.0
1001
PE_URL
1000

  0
LINE
  5
A2
330
1F
100
AcDbEntity
  8
0
  6
Continuous
 62
     1
370
    15
100
AcDbLine
 10
22.55161981422109
 20
0.7907374412731234
 30
0.0
 11
22.22499999999998
 21
0.7776655648207669
 31
0.0
1001
PE_URL
1000

  0
SPLINE
  5
A3
330
1F
100
AcDbEntity
  8
0
  6
Continuous
 62
     1
370
    15
100
AcDbSpline
210
0.0
220
0.0
230
1.0
 70
     8
 71
     3
 72
    16
 73
    12
 74
     0
 42
0.000000001
 43
0.00000001
 40
0.0
 40
0.0
 40
0.0
 40
0.0
 40
0.1620720847852864
 40
0.2829381144443453
 40
0.3920363406194857
 40
0.5055642952894881
 40
0.5758564644214635
 40
0.6277376397254752
 40
0.7062569346885328
 40
0.8314458385722836
 40
1.0
 40
1.0
 40
1.0
 40
1.0
 10
25.02124589736088
 20
0.6777543203430769
 30
0.0
 10
24.9283238681845
 20
0.6709243258701421
 30
0.0
 10
24.76610479288638
 20
0.6590008304674784
 30
0.0
 10
24.54190364099121
 20
0.6527749302601763
 30
0.0
 10
24.34430142963195
 20
0.6526921406876734
 30
0.0
 10
24.17592718861935
 20
0.6574211940799942
 30
0.0
 10
24.04077613062328
 20
0.6644577126546906
 30
0.0
 10
23.92555222125949
 20
0.672209235088056
 30
0.0
 10
23.77899535226575
 20
0.6843765248935076
 30
0.0
 10
23.5651724932961
 20
0.7066303980555234
 30
0.0
 10
23.39612317762307
 20
0.7317697560099373
 30
0.0
 10
23.29912015352451
 20
0.7461950953599726
 30
0.0
1001
PE_URL
1000

  0
SPLINE
  5
A4
330
1F
100
AcDbEntity
  8
0
  6
Continuous
 62
     1
370
    15
100
AcDbSpline
210
0.0
220
0.0
230
1.0
 70
     8
 71
     3
 72
    10
 73
     6
 74
     0
 42
0.000000001
 43
0.00000001
 40
0.0
 40
0.0
 40
0.0
 40
0.0
 40
0.5199903601810241
 40
0.9299818533957663
 40
1.0
 40
1.0
 40
1.0
 40
1.0
 10
23.29912015352451
 20
-0.7461950953599709
 30
0.0
 10
23.42791203714295
 20
-0.7277414925372665
 30
0.0
 10
23.65825114302197
 20
-0.6947379658008987
 30
0.0
 10
23.90568620059847
 20
-0.6719384196043799
 30
0.0
 10
24.02434083589507
 20
-0.666144611541201
 30
0.0
 10
24.04164877507022
 20
-0.6652994791340321
 30
0.0
1001
PE_URL
1000

  0
LINE
  5
A5
330
1F
100
AcDbEntity
  8
0
  6
Continuous
 62
     1
370
    15
100
AcDbLine
 10
22.22499999999998
 20
-0.7776655648207651
 30
0.0
 11
22.55161981422109
 21
-0.7907374412731216
 31
0.0
1001
PE_URL
1000

  0
LINE
  5
A6
330
1F
100
AcDbEntity
  8
외형선
  6
Continuous
370
    15
100
AcDbLine
 10
16.04094817511136
 20
2.38125
 30
0.0
 11
16.04094817511136
 21
-2.381249999999999
 31
0.0
  0
LINE
  5
A8
330
1F
100
AcDbEntity
  8
외형선
  6
Continuous
370
    15
100
AcDbLine
 10
21.22499999999999
 20
0.9921875000000009
 30
0.0
 11
21.22499999999999
 21
-0.9921874999999991
 31
0.0
  0
ELLIPSE
  5
AA
330
1F
100
AcDbEntity
  8
외형선
  6
Continuous
370
    15
100
AcDbEllipse
 10
21.42487777497974
 20
0.0000000000000009
 30
0.0
 11
6.249967141336299E-5
 21
0.9921875000000001
 31
0.0
210
0.0
220
0.0
230
1.0
 40
0.0000227746938854
 41
0.7874295416470215
 42
3.649445471206307
  0
SPLINE
  5
AB
330
1F
100
AcDbEntity
  8
외형선
  6
Continuous
370
    15
100
AcDbSpline
210
0.0
220
0.0
230
1.0
 70
    24
 71
     3
 72
    10
 73
     6
 74
     0
 42
0.000000001
 43
0.00000001
 40
0.0
 40
0.0
 40
0.0
 40
0.0
 40
0.5
 40
0.5
 40
1.0
 40
1.0
 40
1.0
 40
1.0
 10
21.42490590513383
 20
0.6998927130650685
 30
0.0
 10
21.42490590513383
 20
0.6756880026170191
 30
0.0
 10
21.42490590513383
 20
0.641791871086413
 30
0.0
 10
21.42490590513383
 20
0.561642026250802
 30
0.0
 10
21.42490590513383
 20
0.5156503768139058
 30
0.0
 10
21.42490590513383
 20
0.4692918413528957
 30
0.0
  0
SPLINE
  5
AC
330
1F
100
AcDbEntity
  8
외형선
  6
Continuous
370
    15
100
AcDbSpline
210
0.0
220
0.0
230
1.0
 70
    24
 71
     3
 72
    10
 73
     6
 74
     0
 42
0.000000001
 43
0.00000001
 40
0.0
 40
0.0
 40
0.0
 40
0.0
 40
0.5
 40
0.5
 40
1.0
 40
1.0
 40
1.0
 40
1.0
 10
21.42488220904028
 20
0.4692989385251249
 30
0.0
 10
21.42488220904028
 20
0.3173985538906547
 30
0.0
 10
21.42488220904028
 20
0.1326240583033162
 30
0.0
 10
21.42488220904028
 20
-0.2421806615586728
 30
0.0
 10
21.42488220904028
 20
-0.4293068665359039
 30
0.0
 10
21.42488220904028
 20
-0.5851296466430116
 30
0.0
  0
SPLINE
  5
AD
330
1F
100
AcDbEntity
  8
외형선
  6
Continuous
370
    15
100
AcDbSpline
210
0.0
220
0.0
230
1.0
 70
     8
 71
     3
 72
    10
 73
     6
 74
     0
 42
0.000000001
 43
0.00000001
 40
0.0
 40
0.0
 40
0.0
 40
0.0
 40
0.3477331159952223
 40
0.693430050626734
 40
1.0
 40
1.0
 40
1.0
 40
1.0
 10
21.42482870174264
 20
-0.5851258125925232
 30
0.0
 10
21.42482756073084
 20
-0.6274705448510896
 30
0.0
 10
21.42482528538851
 20
-0.7119120561227302
 30
0.0
 10
21.42482601738743
 20
-0.7801243030504791
 30
0.0
 10
21.42482899405114
 20
-0.7865598099946516
 30
0.0
 10
21.42483039310368
 20
-0.7895845427941353
 30
0.0
  0
SPLINE
  5
AE
330
1F
100
AcDbEntity
  8
외형선
  6
Continuous
370
    15
100
AcDbSpline
210
0.0
220
0.0
230
1.0
 70
    24
 71
     3
 72
     8
 73
     4
 74
     0
 42
0.000000001
 43
0.00000001
 40
0.0
 40
0.0
 40
0.0
 40
0.0
 40
1.0
 40
1.0
 40
1.0
 40
1.0
 10
21.42480768062088
 20
-0.760283393620875
 30
0.0
 10
21.42480768062088
 20
-0.798769390667238
 30
0.0
 10
21.42480768062088
 20
-0.8345625502905875
 30
0.0
 10
21.42480768062088
 20
-0.8669384071305037
 30
0.0
  0
SPLINE
  5
AF
330
1F
100
AcDbEntity
  8
외형선
  6
Continuous
370
    15
100
AcDbSpline
210
0.0
220
0.0
230
1.0
 70
     8
 71
     3
 72
    10
 73
     6
 74
     0
 42
0.000000001
 43
0.00000001
 40
0.0
 40
0.0
 40
0.0
 40
0.0
 40
0.5
 40
0.5
 40
1.0
 40
1.0
 40
1.0
 40
1.0
 10
22.22499999999999
 20
0.5579601252137847
 30
0.0
 10
22.09096717955794
 20
0.6217419652288122
 30
0.0
 10
21.96109581582712
 20
0.6798537118518397
 30
0.0
 10
21.69304287341471
 20
0.7840040997861856
 30
0.0
 10
21.5571368646088
 20
0.8295894464361256
 30
0.0
 10
21.42480768062088
 20
0.8669435312308402
 30
0.0
  0
LINE
  5
B0
330
1F
100
AcDbEntity
  8
외형선
  6
Continuous
370
    15
100
AcDbLine
 10
22.22499999999999
 20
0.5579601252137848
 30
0.0
 11
22.22499999999999
 21
0.3096697906588887
 31
0.0
  0
SPLINE
  5
B1
330
1F
100
AcDbEntity
  8
외형선
  6
Continuous
370
    15
100
AcDbSpline
210
0.0
220
0.0
230
1.0
 70
     8
 71
     3
 72
    10
 73
     6
 74
     0
 42
0.000000001
 43
0.00000001
 40
0.0
 40
0.0
 40
0.0
 40
0.0
 40
0.5
 40
0.5
 40
1.0
 40
1.0
 40
1.0
 40
1.0
 10
21.42490590513383
 20
0.6999156687927747
 30
0.0
 10
21.55722047231607
 20
0.645482982164015
 30
0.0
 10
21.69310966257069
 20
0.5841908896645763
 30
0.0
 10
21.9611285102027
 20
0.4526759612326667
 30
0.0
 10
22.09098376096027
 20
0.3829415865458397
 30
0.0
 10
22.22499999999906
 20
0.3096697906574106
 30
0.0
  0
LINE
  5
B2
330
1F
100
AcDbEntity
  8
외형선
  6
Continuous
370
    15
100
AcDbLine
 10
21.68510408623808
 20
-0.7812315039472946
 30
0.0
 11
21.42480768062088
 21
-0.8669435312308386
 31
0.0
  0
ELLIPSE
  5
B3
330
1F
100
AcDbEntity
  8
외형선
  6
Continuous
370
    15
100
AcDbEllipse
 10
21.42487777497974
 20
0.0000000000000009
 30
0.0
 11
-6.249967141513936E-5
 21
0.9921875000000001
 31
0.0
210
0.0
220
0.0
230
1.0
 40
0.0000227746938872
 41
5.775332490462543
 42
6.283185307179586
  0
SPLINE
  5
B4
330
1F
100
AcDbEntity
  8
외형선
  6
Continuous
370
    15
100
AcDbSpline
210
0.0
220
0.0
230
1.0
 70
    24
 71
     3
 72
    10
 73
     6
 74
     0
 42
0.000000001
 43
0.00000001
 40
0.0
 40
0.0
 40
0.0
 40
0.0
 40
0.5
 40
0.5
 40
1.0
 40
1.0
 40
1.0
 40
1.0
 10
22.22500000000013
 20
0.3096697906568232
 30
0.0
 10
22.22500000000013
 20
0.308346856360955
 30
0.0
 10
22.22500000000013
 20
0.2966655507607114
 30
0.0
 10
22.22500000000013
 20
0.2545670856131694
 30
0.0
 10
22.22500000000013
 20
0.224332522856431
 30
0.0
 10
22.22500000000013
 20
0.1894627678106566
 30
0.0
  0
SPLINE
  5
B5
330
1F
100
AcDbEntity
  8
외형선
  6
Continuous
370
    15
100
AcDbSpline
210
0.0
220
0.0
230
1.0
 70
     8
 71
     3
 72
    10
 73
     6
 74
     0
 42
0.000000001
 43
0.00000001
 40
0.0
 40
0.0
 40
0.0
 40
0.0
 40
0.5
 40
0.5
 40
1.0
 40
1.0
 40
1.0
 40
1.0
 10
22.225
 20
0.1894627678107082
 30
0.0
 10
22.09097976081392
 20
0.2414038440267608
 30
0.0
 10
21.961120622935
 20
0.2911070911214002
 30
0.0
 10
21.69309355016703
 20
0.3854112622692777
 30
0.0
 10
21.55720030252235
 20
0.4296688056683731
 30
0.0
 10
21.42488220904028
 20
0.4692989385251253
 30
0.0
  0
SPLINE
  5
B6
330
1F
100
AcDbEntity
  8
외형선
  6
Continuous
370
    15
100
AcDbSpline
210
0.0
220
0.0
230
1.0
 70
     8
 71
     3
 72
    10
 73
     6
 74
     0
 42
0.000000001
 43
0.00000001
 40
0.0
 40
0.0
 40
0.0
 40
0.0
 40
0.5
 40
0.5
 40
1.0
 40
1.0
 40
1.0
 40
1.0
 10
22.22499999999999
 20
-0.763645407050599
 30
0.0
 10
22.09097769935946
 20
-0.7468134873156883
 30
0.0
 10
21.96111655826829
 20
-0.7232978417670086
 30
0.0
 10
21.69308524672289
 20
-0.6631963874954294
 30
0.0
 10
21.55718990813205
 20
-0.6266419313437134
 30
0.0
 10
21.42486999741459
 20
-0.5851258151938113
 30
0.0
  0
SPLINE
  5
B7
330
1F
100
AcDbEntity
  8
외형선
  6
Continuous
370
    15
100
AcDbSpline
210
0.0
220
0.0
230
1.0
 70
    24
 71
     3
 72
    10
 73
     6
 74
     0
 42
0.000000001
 43
0.00000001
 40
0.0
 40
0.0
 40
0.0
 40
0.0
 40
0.5
 40
0.5
 40
1.0
 40
1.0
 40
1.0
 40
1.0
 10
22.2249999999999
 20
0.1894627678107447
 30
0.0
 10
22.2249999999999
 20
0.0140129141872164
 30
0.0
 10
22.2249999999999
 20
-0.1758771097355493
 30
0.0
 10
22.2249999999999
 20
-0.514666713414693
 30
0.0
 10
22.2249999999999
 20
-0.6609413221002385
 30
0.0
 10
22.2249999999999
 20
-0.7636454070505876
 30
0.0
  0
SPLINE
  5
B8
330
1F
100
AcDbEntity
  8
외형선
  6
Continuous
370
    15
100
AcDbSpline
210
0.0
220
0.0
230
1.0
 70
    24
 71
     3
 72
    12
 73
     8
 74
     0
 42
0.000000001
 43
0.00000001
 40
0.0
 40
0.0
 40
0.0
 40
0.0
 40
0.1244354581052347
 40
0.3790581442049695
 40
0.6410649054511208
 40
0.8684911730292274
 40
1.0
 40
1.0
 40
1.0
 40
1.0
 10
22.22499999999999
 20
0.7760540119560647
 30
0.0
 10
22.22499999999999
 20
0.776255823442308
 30
0.0
 10
22.22499999999999
 20
0.776870586216677
 30
0.0
 10
22.22499999999999
 20
0.7515470213455309
 30
0.0
 10
22.22499999999999
 20
0.6952473542288217
 30
0.0
 10
22.22499999999999
 20
0.628989911963009
 30
0.0
 10
22.22499999999999
 20
0.5770062251357314
 30
0.0
 10
22.22499999999999
 20
0.5579601252137851
 30
0.0
  0
SPLINE
  5
B9
330
1F
100
AcDbEntity
  8
0
  6
Continuous
 62
     1
370
    15
100
AcDbSpline
210
0.0
220
0.0
230
1.0
 70
     8
 71
     3
 72
    22
 73
    18
 74
     0
 42
0.000000001
 43
0.00000001
 40
0.0
 40
0.0
 40
0.0
 40
0.0
 40
0.125
 40
0.125
 40
0.2499999999999999
 40
0.2499999999999999
 40
0.3749999999999999
 40
0.3749999999999999
 40
0.4999999999999999
 40
0.4999999999999999
 40
0.6249999999999999
 40
0.6249999999999999
 40
0.7499999999999998
 40
0.7499999999999998
 40
0.8749999999999999
 40
0.8749999999999999
 40
1.0
 40
1.0
 40
1.0
 40
1.0
 10
25.39999999999999
 20
-0.9415272686910249
 30
0.0
 10
25.27029556907649
 20
-0.9175961984562384
 30
0.0
 10
25.13611453150486
 20
-0.8850250958667552
 30
0.0
 10
24.86929779697849
 20
-0.8047270212748562
 30
0.0
 10
24.73965731901864
 20
-0.7574531548872792
 30
0.0
 10
24.47584682195737
 20
-0.6498891657709575
 30
0.0
 10
24.34100069694387
 20
-0.5893909090365471
 30
0.0
 10
24.07609502236672
 20
-0.4597040641642285
 30
0.0
 10
23.94712581657711
 20
-0.390800418948707
 30
0.0
 10
23.68075354762003
 20
-0.2458259178275727
 30
0.0
 10
23.54623190332205
 20
-0.1702309998877413
 30
0.0
 10
23.28510297535895
 20
-0.0188656587513517
 30
0.0
 10
23.1529199382476
 20
0.0579677302857372
 30
0.0
 10
22.88588636922252
 20
0.2097590897569735
 30
0.0
 10
22.75511375035902
 20
0.2839303502545568
 30
0.0
 10
22.49261756534936
 20
0.4261649643806394
 30
0.0
 10
22.35788931794656
 20
0.4947224406748769
 30
0.0
 10
22.22500000000002
 20
0.5579601252137689
 30
0.0
1001
PE_URL
1000

  0
SPLINE
  5
BA
330
1F
100
AcDbEntity
  8
0
  6
Continuous
 62
     1
370
    15
100
AcDbSpline
210
0.0
220
0.0
230
1.0
 70
     8
 71
     3
 72
    13
 73
     9
 74
     0
 42
0.000000001
 43
0.00000001
 40
0.0
 40
0.0
 40
0.0
 40
0.0
 40
0.1924196359439871
 40
0.3839715504837345
 40
0.5756262171348426
 40
0.768269112970913
 40
0.9604269023238314
 40
1.0
 40
1.0
 40
1.0
 40
1.0
 10
25.39999999999999
 20
-0.7828084185528384
 30
0.0
 10
25.2339808970666
 20
-0.7462369551717801
 30
0.0
 10
24.90269135870677
 20
-0.6732589483847193
 30
0.0
 10
24.40654900355858
 20
-0.4902084194390307
 30
0.0
 10
23.91018751473987
 20
-0.2703468609249067
 30
0.0
 10
23.41266455839234
 20
-0.0299618761642377
 30
0.0
 10
23.04662764222979
 20
0.1549526753653802
 30
0.0
 10
22.84687535163123
 20
0.2444532044270834
 30
0.0
 10
22.81276329601258
 20
0.2597373697105096
 30
0.0
1001
PE_URL
1000

  0
LINE
  5
BB
330
1F
100
AcDbEntity
  8
0
  6
Continuous
 62
     1
370
    15
100
AcDbLine
 10
25.39999999999999
 20
-0.9415272686910251
 30
0.0
 11
25.39999999999999
 21
-0.7828084185528384
 31
0.0
1001
PE_URL
1000

  0
SPLINE
  5
BC
330
1F
100
AcDbEntity
  8
0
  6
Continuous
 62
     1
370
    15
100
AcDbSpline
210
0.0
220
0.0
230
1.0
 70
     8
 71
     3
 72
    22
 73
    18
 74
     0
 42
0.000000001
 43
0.00000001
 40
0.0
 40
0.0
 40
0.0
 40
0.0
 40
0.1249999999999999
 40
0.1249999999999999
 40
0.2499999999999999
 40
0.2499999999999999
 40
0.3749999999999998
 40
0.3749999999999998
 40
0.4999999999999998
 40
0.4999999999999998
 40
0.6249999999999998
 40
0.6249999999999998
 40
0.7499999999999998
 40
0.7499999999999998
 40
0.8749999999999997
 40
0.8749999999999997
 40
1.0
 40
1.0
 40
1.0
 40
1.0
 10
22.22499999999927
 20
0.3096697906572816
 30
0.0
 10
22.35788931794583
 20
0.2370141255664931
 30
0.0
 10
22.49261756534867
 20
0.1612387282397251
 30
0.0
 10
22.75511375035842
 20
0.0094824231300318
 30
0.0
 10
22.88588636922192
 20
-0.0670629275296115
 30
0.0
 10
23.15291993824706
 20
-0.2186586500741966
 30
0.0
 10
23.28510297535847
 20
-0.2929089295234447
 30
0.0
 10
23.54623190332161
 20
-0.4343851722246934
 30
0.0
 10
23.68075354761962
 20
-0.5025841562361159
 30
0.0
 10
23.94712581657677
 20
-0.6283577313905431
 30
0.0
 10
24.0760950223664
 20
-0.6855752834030748
 30
0.0
 10
24.34100069694361
 20
-0.7879099032577191
 30
0.0
 10
24.47584682195715
 20
-0.8327396095173449
 30
0.0
 10
24.73965731901849
 20
-0.9062351933345946
 30
0.0
 10
24.86929779697836
 20
-0.9351089281000465
 30
0.0
 10
25.13611453150479
 20
-0.9762665579070781
 30
0.0
 10
25.27029556907647
 20
-0.9882305663098251
 30
0.0
 10
25.39999999999999
 20
-0.9913489182352684
 30
0.0
1001
PE_URL
1000

  0
SPLINE
  5
BD
330
1F
100
AcDbEntity
  8
0
  6
Continuous
 62
     1
370
    15
100
AcDbSpline
210
0.0
220
0.0
230
1.0
 70
     8
 71
     3
 72
    10
 73
     6
 74
     0
 42
0.000000001
 43
0.00000001
 40
0.0
 40
0.0
 40
0.0
 40
0.0
 40
0.0341198756538555
 40
0.7273040103689058
 40
0.9999999999999999
 40
0.9999999999999999
 40
0.9999999999999999
 40
0.9999999999999999
 10
22.93953447737014
 20
-0.0962362598966833
 30
0.0
 10
22.9314062749836
 20
-0.0930874890828668
 30
0.0
 10
22.75814438350441
 20
-0.0259678528961952
 30
0.0
 10
22.52018339104064
 20
0.0747042894965041
 30
0.0
 10
22.28999021419362
 20
0.1641965153298989
 30
0.0
 10
22.22499999999999
 20
0.18946276781071
 30
0.0
1001
PE_URL
1000

  0
SPLINE
  5
BE
330
1F
100
AcDbEntity
  8
외형선
  6
Continuous
370
    15
100
AcDbSpline
210
0.0
220
0.0
230
1.0
 70
    24
 71
     3
 72
    10
 73
     6
 74
     0
 42
0.000000001
 43
0.00000001
 40
0.0
 40
0.0
 40
0.0
 40
0.0
 40
0.5
 40
0.5
 40
1.0
 40
1.0
 40
1.0
 40
1.0
 10
22.22500000000013
 20
0.3096697906568232
 30
0.0
 10
22.22500000000013
 20
0.3083468563609551
 30
0.0
 10
22.22500000000013
 20
0.2966655507607116
 30
0.0
 10
22.22500000000013
 20
0.2545670856131696
 30
0.0
 10
22.22500000000013
 20
0.224332522856431
 30
0.0
 10
22.22500000000013
 20
0.1894627678106566
 30
0.0
  0
LINE
  5
BF
330
1F
100
AcDbEntity
  8
0
  6
Continuous
 62
     1
370
    15
100
AcDbLine
 10
25.39999999999999
 20
-0.9913489182356613
 30
0.0
 11
25.39999999999999
 21
-0.9415272686910248
 31
0.0
1001
PE_URL
1000

  0
SPLINE
  5
C0
330
1F
100
AcDbEntity
  8
0
  6
Continuous
 62
     1
370
    15
100
AcDbSpline
210
0.0
220
0.0
230
1.0
 70
     8
 71
     3
 72
     8
 73
     4
 74
     0
 42
0.000000001
 43
0.00000001
 40
0.0
 40
0.0
 40
0.0
 40
0.0
 40
1.0
 40
1.0
 40
1.0
 40
1.0
 10
24.78645648003366
 20
0.277145559112004
 30
0.0
 10
24.75107854129512
 20
0.3190069411483705
 30
0.0
 10
24.71944619039174
 20
0.3593360420153689
 30
0.0
 10
24.69254979534001
 20
0.3977277124202288
 30
0.0
1001
PE_URL
1000

  0
LINE
  5
C1
330
1F
100
AcDbEntity
  8
0
  6
Continuous
 62
     1
370
    15
100
AcDbLine
 10
24.70511798808645
 20
0.4082736783272827
 30
0.0
 11
25.39999999999999
 21
0.0000000000000014
 31
0.0
1001
PE_URL
1000

  0
LINE
  5
C2
330
1F
100
AcDbEntity
  8
0
  6
Continuous
 62
     1
370
    15
100
AcDbLine
 10
25.39999999999999
 20
0.0000000000000014
 30
0.0
 11
25.39999999999999
 21
-0.265155110513787
 31
0.0
1001
PE_URL
1000

  0
SPLINE
  5
C3
330
1F
100
AcDbEntity
  8
0
  6
Continuous
 62
     1
370
    15
100
AcDbSpline
210
0.0
220
0.0
230
1.0
 70
     8
 71
     3
 72
    10
 73
     6
 74
     0
 42
0.000000001
 43
0.00000001
 40
0.0
 40
0.0
 40
0.0
 40
0.0
 40
0.5000000000000006
 40
0.5000000000000006
 40
1.0
 40
1.0
 40
1.0
 40
1.0
 10
25.39999999999999
 20
-0.265155110513787
 30
0.0
 10
25.29379960073015
 20
-0.1816611239832063
 30
0.0
 10
25.18937334291142
 20
-0.0947429862225269
 30
0.0
 10
24.98414771734928
 20
0.0860933061830754
 30
0.0
 10
24.88238182579837
 20
0.1809588001028416
 30
0.0
 10
24.78645648003284
 20
0.2771455591098776
 30
0.0
1001
PE_URL
1000

  0
SPLINE
  5
C4
330
1F
100
AcDbEntity
  8
0
  6
Continuous
 62
     1
370
    15
100
AcDbSpline
210
0.0
220
0.0
230
1.0
 70
     8
 71
     3
 72
    12
 73
     8
 74
     0
 42
0.000000001
 43
0.00000001
 40
0.0
 40
0.0
 40
0.0
 40
0.0
 40
0.1698961981872603
 40
0.3915574783025173
 40
0.6143778271539185
 40
0.836628852315094
 40
1.0
 40
1.0
 40
1.0
 40
1.0
 10
24.7864564800335
 20
0.2771455591120732
 30
0.0
 10
24.65985779384748
 20
0.3306802719655895
 30
0.0
 10
24.36808750794164
 20
0.454061003201658
 30
0.0
 10
23.91018659679025
 20
0.6141540992020414
 30
0.0
 10
23.41270084555942
 20
0.7352542056056551
 30
0.0
 10
22.95899637771729
 20
0.797789387656832
 30
0.0
 10
22.67160099015637
 20
0.7883210513313348
 30
0.0
 10
22.54984420952665
 20
0.7843097338265693
 30
0.0
1001
PE_URL
1000

  0
SPLINE
  5
C5
330
1F
100
AcDbEntity
  8
0
  6
Continuous
 62
     1
370
    15
100
AcDbSpline
210
0.0
220
0.0
230
1.0
 70
    24
 71
     3
 72
    10
 73
     6
 74
     0
 42
0.000000001
 43
0.00000001
 40
0.0
 40
0.0
 40
0.0
 40
0.0
 40
0.5
 40
0.5
 40
1.0
 40
1.0
 40
1.0
 40
1.0
 10
25.39999999999999
 20
-0.7828084185528383
 30
0.0
 10
25.39999999999999
 20
-0.7228000500272119
 30
0.0
 10
25.39999999999999
 20
-0.6469771754384486
 30
0.0
 10
25.39999999999999
 20
-0.4706962891573142
 30
0.0
 10
25.39999999999999
 20
-0.3703909786524703
 30
0.0
 10
25.39999999999999
 20
-0.2651551105138187
 30
0.0
1001
PE_URL
1000

  0
SPLINE
  5
C6
330
1F
100
AcDbEntity
  8
외형선
  6
Continuous
370
    15
100
AcDbSpline
210
0.0
220
0.0
230
1.0
 70
    24
 71
     3
 72
    12
 73
     8
 74
     0
 42
0.000000001
 43
0.00000001
 40
0.0
 40
0.0
 40
0.0
 40
0.0
 40
0.1107510526886621
 40
0.369353297002695
 40
0.6354550239209558
 40
0.8664357904525964
 40
1.0
 40
1.0
 40
1.0
 40
1.0
 10
22.22499999999999
 20
0.7759211365043794
 30
0.0
 10
22.22499999999999
 20
0.7760573691547756
 30
0.0
 10
22.22499999999999
 20
0.7765117032433625
 30
0.0
 10
22.22499999999999
 20
0.7514557386732733
 30
0.0
 10
22.22499999999999
 20
0.6952688121515072
 30
0.0
 10
22.22499999999999
 20
0.6289872630650293
 30
0.0
 10
22.22499999999999
 20
0.5770055148537792
 30
0.0
 10
22.22499999999999
 20
0.557960125213785
 30
0.0
  0
SPLINE
  5
C7
330
1F
100
AcDbEntity
  8
0
  6
Continuous
 62
     1
370
    15
100
AcDbSpline
210
0.0
220
0.0
230
1.0
 70
    24
 71
     3
 72
     8
 73
     4
 74
     0
 42
0.000000001
 43
0.00000001
 40
0.0
 40
0.0
 40
0.0
 40
0.0
 40
1.0
 40
1.0
 40
1.0
 40
1.0
 10
24.79591123438479
 20
0.4844582578096122
 30
0.0
 10
24.76315221982468
 20
0.4569701807744951
 30
0.0
 10
24.728598927961
 20
0.4279765263157089
 30
0.0
 10
24.69254979533606
 20
0.3977277124258648
 30
0.0
1001
PE_URL
1000

  0
LINE
  5
C8
330
1F
100
AcDbEntity
  8
0
  6
Continuous
 62
     1
370
    15
100
AcDbLine
 10
25.39999999999999
 20
0.6945312500000007
 30
0.0
 11
25.01972022682271
 21
0.6724904957716284
 31
0.0
1001
PE_URL
1000

  0
SPLINE
  5
C9
330
1F
100
AcDbEntity
  8
0
  6
Continuous
 62
     1
370
    15
100
AcDbSpline
210
0.0
220
0.0
230
1.0
 70
     8
 71
     3
 72
     8
 73
     4
 74
     0
 42
0.000000001
 43
0.00000001
 40
0.0
 40
0.0
 40
0.0
 40
0.0
 40
1.0
 40
1.0
 40
1.0
 40
1.0
 10
25.39999999999999
 20
0.6945312500000013
 30
0.0
 10
25.19584217823384
 20
0.638992072616878
 30
0.0
 10
24.99363053355309
 20
0.570899872623832
 30
0.0
 10
24.79591123439372
 20
0.4844582578129577
 30
0.0
1001
PE_URL
1000

  0
SPLINE
  5
CA
330
1F
100
AcDbEntity
  8
0
  6
Continuous
 62
     1
370
    15
100
AcDbSpline
210
0.0
220
0.0
230
1.0
 70
     8
 71
     3
 72
    10
 73
     6
 74
     0
 42
0.000000001
 43
0.00000001
 40
0.0
 40
0.0
 40
0.0
 40
0.0
 40
0.3584625282032931
 40
0.818903851643724
 40
1.0
 40
1.0
 40
1.0
 40
1.0
 10
23.30085282460728
 20
-0.7402314863869651
 30
0.0
 10
23.17225873671106
 20
-0.7590855876292689
 30
0.0
 10
22.87848690397684
 20
-0.8021575823618596
 30
0.0
 10
22.52020783824706
 20
-0.7957202035389606
 30
0.0
 10
22.28998762165978
 20
-0.7707064144797309
 30
0.0
 10
22.22499999999999
 20
-0.763645407050599
 30
0.0
1001
PE_URL
1000

  0
SPLINE
  5
CB
330
1F
100
AcDbEntity
  8
외형선
  6
Continuous
370
    15
100
AcDbSpline
210
0.0
220
0.0
230
1.0
 70
    24
 71
     3
 72
    10
 73
     6
 74
     0
 42
0.000000001
 43
0.00000001
 40
0.0
 40
0.0
 40
0.0
 40
0.0
 40
0.5
 40
0.5
 40
1.0
 40
1.0
 40
1.0
 40
1.0
 10
22.2249999999999
 20
0.1894627678107447
 30
0.0
 10
22.2249999999999
 20
0.0140129141872164
 30
0.0
 10
22.2249999999999
 20
-0.1758771097355493
 30
0.0
 10
22.2249999999999
 20
-0.514666713414693
 30
0.0
 10
22.2249999999999
 20
-0.6609413221002385
 30
0.0
 10
22.2249999999999
 20
-0.7636454070505876
 30
0.0
  0
LINE
  5
CC
330
1F
100
AcDbEntity
  8
0
  6
Continuous
 62
     1
370
    15
100
AcDbLine
 10
25.39999999999999
 20
0.0000000000000014
 30
0.0
 11
25.39999999999999
 21
0.6945312500000013
 31
0.0
1001
PE_URL
1000

  0
SPLINE
  5
CD
330
1F
100
AcDbEntity
  8
0
  6
Continuous
 62
     1
370
    15
100
AcDbSpline
210
0.0
220
0.0
230
1.0
 70
    24
 71
     3
 72
    10
 73
     6
 74
     0
 42
0.000000001
 43
0.00000001
 40
0.0
 40
0.0
 40
0.0
 40
0.0
 40
0.5
 40
0.5
 40
1.0
 40
1.0
 40
1.0
 40
1.0
 10
25.39999999999999
 20
0.6945312500000008
 30
0.0
 10
25.39999999999999
 20
0.7366320048010074
 30
0.0
 10
25.39999999999999
 20
0.7855569808290936
 30
0.0
 10
25.39999999999999
 20
0.8882014487658495
 30
0.0
 10
25.39999999999999
 20
0.9416587995842741
 30
0.0
 10
25.39999999999999
 20
0.9913489182356631
 30
0.0
1001
PE_URL
1000

  0
SPLINE
  5
CE
330
1F
100
AcDbEntity
  8
0
  6
Continuous
 62
     1
370
    15
100
AcDbSpline
210
0.0
220
0.0
230
1.0
 70
     8
 71
     3
 72
    14
 73
    10
 74
     0
 42
0.000000001
 43
0.00000001
 40
0.0
 40
0.0
 40
0.0
 40
0.0
 40
0.179426510885065
 40
0.284183975150008
 40
0.3893582624356888
 40
0.4649801059656798
 40
0.6165503273770003
 40
0.8988932615619446
 40
1.0
 40
1.0
 40
1.0
 40
1.0
 10
24.03666975630083
 20
0.6650255874538165
 30
0.0
 10
24.11807378119697
 20
0.699350760924468
 30
0.0
 10
24.2470052265786
 20
0.7537165522252414
 30
0.0
 10
24.424288990028
 20
0.8146015854268351
 30
0.0
 10
24.55421639810737
 20
0.8548843670072893
 30
0.0
 10
24.70512736894311
 20
0.8964942495527134
 30
0.0
 10
24.93595426844036
 20
0.949548698271759
 30
0.0
 10
25.18029455121747
 20
0.9828767781117037
 30
0.0
 10
25.35415662482964
 20
0.9895811355049625
 30
0.0
 10
25.39999999999999
 20
0.9913489182356626
 30
0.0
1001
PE_URL
1000

  0
LINE
  5
CF
330
1F
100
AcDbEntity
  8
중심선
 62
     1
100
AcDbLine
 10
-26.9
 20
-0.0000000000000033
 30
0.0
 11
26.89999999999999
 21
0.0000000000000033
 31
0.0
  0
LINE
  5
D0
330
1F
100
AcDbEntity
  8
참조1
100
AcDbLine
 10
-0.0000000000000178
 20
-0.0000000000000035
 30
0.0
 11
-0.0000000000000178
 21
-40.00000000000001
 31
0.0
  0
LINE
  5
D1
330
1F
100
AcDbEntity
  8
참조1
100
AcDbLine
 10
-0.0000000000000178
 20
-40.00000000000001
 30
0.0
 11
-17.64071559669924
 21
-39.99999999999999
 31
0.0
  0
CIRCLE
  5
D2
330
1F
100
AcDbEntity
  8
해칭선
100
AcDbCircle
 10
0.0
 20
0.0
 30
0.0
 40
3.000000000000001
  0
INSERT
  5
D3
330
1F
100
AcDbEntity
  8
0
  6
Continuous
 62
     7
100
AcDbBlockReference
 66
     1
  2
블럭10
 10
-13.94027293212523
 20
-52.04717430164393
 30
0.0
  0
ATTRIB
  5
D4
330
D3
100
AcDbEntity
  8
FORMAT
 62
     2
100
AcDbText
 10
-23.12156822086651
 20
-49.97180738881174
 30
0.0
 40
4.233333333333333
  1
E2001005 [ 2 FLUTE ]
 41
0.75
  7
SLDTEXTSTYLE0
 11
-23.12156822086651
 21
-52.08847405547841
 31
0.0
100
AcDbAttribute
  2
AUTOATTR0
 70
     0
 74
     1
  0
SEQEND
  5
D5
330
D3
100
AcDbEntity
  8
0
  6
Continuous
 62
     7
  0
HATCH
  5
D6
330
1F
100
AcDbEntity
  8
중심선
100
AcDbHatch
 10
0.0
 20
0.0
 30
0.0
210
0.0
220
0.0
230
1.0
  2
SOLID
 70
     1
 71
     0
 91
        1
 92
        0
 93
        4
 72
     1
 10
-8.225363627744386
 20
-35.8
 11
-11.67163887158167
 21
-35.8
 72
     1
 10
-11.67163887158167
 20
-35.8
 11
-13.7998687307857
 21
-38.33632558057256
 72
     1
 10
-13.7998687307857
 20
-38.33632558057256
 11
-10.35356040183524
 21
-38.33628615127009
 72
     1
 10
-10.35356040183524
 20
-38.33628615127009
 11
-8.225363627744386
 21
-35.8
 97
        0
 75
     0
 76
     1
 98
        1
 10
11.8192116787305
 20
-0.0010749287238927
  0
HATCH
  5
D7
330
1F
100
AcDbEntity
  8
중심선
100
AcDbHatch
 10
0.0
 20
0.0
 30
0.0
210
0.0
220
0.0
230
1.0
  2
SOLID
 70
     1
 71
     0
 91
        1
 92
        0
 93
        4
 72
     1
 10
-3.212599636708386
 20
-35.8
 11
-6.658874880545689
 21
-35.8
 72
     1
 10
-6.658874880545689
 20
-35.8
 11
-11.19001288890311
 21
-41.20000000000002
 72
     1
 10
-11.19001288890311
 20
-41.20000000000002
 11
-7.743737645065828
 21
-41.20000000000002
 72
     1
 10
-7.743737645065828
 20
-41.20000000000002
 11
-3.212599636708386
 21
-35.8
 97
        0
 75
     0
 76
     1
 98
        1
 10
11.8192116787305
 20
-0.0010749287238927
  0
HATCH
  5
D8
330
1F
100
AcDbEntity
  8
중심선
100
AcDbHatch
 10
0.0
 20
0.0
 30
0.0
210
0.0
220
0.0
230
1.0
  2
SOLID
 70
     1
 71
     0
 91
        1
 92
        0
 93
        4
 72
     1
 10
1.800164354327482
 20
-35.8
 11
-1.646110889509657
 21
-35.80000000000003
 72
     1
 10
-1.646110889509657
 20
-35.80000000000003
 11
-8.694547791398907
 21
-44.20000000000002
 72
     1
 10
-8.694547791398907
 20
-44.20000000000002
 11
-5.248272547561626
 21
-44.20000000000002
 72
     1
 10
-5.248272547561626
 20
-44.20000000000002
 11
1.800164354327482
 21
-35.8
 97
        0
 75
     0
 76
     1
 98
        1
 10
11.8192116787305
 20
-0.0010749287238927
  0
HATCH
  5
D9
330
1F
100
AcDbEntity
  8
중심선
100
AcDbHatch
 10
0.0
 20
0.0
 30
0.0
210
0.0
220
0.0
230
1.0
  2
SOLID
 70
     1
 71
     0
 91
        1
 92
        0
 93
        6
 72
     3
 10
6.600054785339658
 20
-40.00000000005127
 11
3.960054785062283
 21
1.540882976769353E-10
 40
0.3939339440162628
 50
17.09539180608439
 51
320.0019657685081
 73
     0
 72
     1
 10
8.283054441040253
 20
-38.58789400463831
 11
10.58835631474129
 21
-36.65356729459039
 72
     3
 10
6.600054785286812
 20
-40.00000000000014
 11
6.600054785286829
 21
-1.278976924368180E-13
 40
0.636358354079598
 50
39.99873849337411
 51
368.4976242363724
 73
     1
 72
     1
 10
13.02538727718742
 20
-39.03999999993002
 11
5.280122092122735
 21
-39.03999999993002
 72
     1
 10
5.280122092122735
 20
-39.03999999993002
 11
5.280097047676801
 21
-40.95999999992991
 72
     1
 10
5.280097047676801
 20
-40.95999999992991
 11
9.721476817148838
 21
-40.95999999992988
 97
        0
 75
     0
 76
     1
 98
        1
 10
11.8192116787305
 20
-0.0010749287238927
  0
DIMENSION
  5
DA
330
1F
100
AcDbEntity
  8
치수문자_일반주서
100
AcDbDimension
  2
_D
 10
-33.40000000000005
 20
-2.38125000000008
 30
0.0
 11
-33.40000000000011
 21
17.63124999999997
 31
0.0
 70
   160
  1
%%c<>
 71
     2
 42
4.762500000000014
 52
-270.0
  3
SLDDIMSTYLE0
100
AcDbAlignedDimension
 13
-16.04094817511136
 23
2.381249999999997
 33
0.0
 14
-16.04094817511136
 24
-2.381250000000017
 34
0.0
 50
90.0000000000002
100
AcDbRotatedDimension
1001
PE_URL
1000

1001
ACAD
1000
DSTYLE
1002
{
1070
   171
1070
     8
1070
   273
1070
     7
1070
    41
1040
2.5
1070
   140
1040
2.5
1002
}
  0
DIMENSION
  5
EF
330
1F
100
AcDbEntity
  8
치수문자_일반주서
100
AcDbDimension
  2
_D_1
 10
56.00126815548491
 20
0.9913489182357775
 30
0.0
 11
56.00126815548485
 21
16.24134891823578
 31
0.0
 70
   160
  1
%%c<>
 71
     2
 42
1.982697836471324
 52
-270.0
  3
SLDDIMSTYLE0
100
AcDbAlignedDimension
 13
25.39999999999999
 23
-0.9913489182356613
 33
0.0
 14
25.39999999999999
 24
0.9913489182356631
 34
0.0
 50
90.0000000000002
100
AcDbRotatedDimension
1001
PE_URL
1000

1001
ACAD
1000
DSTYLE
1002
{
1070
   171
1070
     8
1070
   273
1070
     7
1070
    41
1040
2.5
1070
   140
1040
2.5
1002
}
  0
DIMENSION
  5
103
330
1F
100
AcDbEntity
  8
치수문자_일반주서
100
AcDbDimension
  2
_D_2
 10
22.22499999999999
 20
10.38124999999999
 30
0.0
 11
42.94149999999998
 21
10.38124999999999
 31
0.0
 70
   160
  1
<>
 71
     2
 42
3.175000000000001
  3
SLDDIMSTYLE0
100
AcDbAlignedDimension
 13
25.39999999999999
 23
0.9913489182356631
 33
0.0
 14
22.22499999999999
 24
0.7776655899133755
 34
0.0
100
AcDbRotatedDimension
1001
PE_URL
1000

1001
ACAD
1000
DSTYLE
1002
{
1070
   171
1070
     8
1070
   273
1070
     7
1070
    41
1040
2.5
1070
   140
1040
2.5
1002
}
  0
DIMENSION
  5
118
330
1F
100
AcDbEntity
  8
치수문자_일반주서
100
AcDbDimension
  2
_D_3
 10
25.4
 20
18.38124999999999
 30
0.0
 11
4.000000000000002
 21
18.38124999999999
 31
0.0
 70
   160
  1
<>
 71
     2
 42
50.79999999999998
  3
SLDDIMSTYLE0
100
AcDbAlignedDimension
 13
-25.4
 23
0.9913489182356365
 33
0.0
 14
25.39999999999999
 24
0.9913489182356631
 34
0.0
100
AcDbRotatedDimension
1001
PE_URL
1000

1001
ACAD
1000
DSTYLE
1002
{
1070
   171
1070
     8
1070
   273
1070
     7
1070
    41
1040
2.5
1070
   140
1040
2.5
1002
}
  0
LINE
  5
12C
330
1F
100
AcDbEntity
  8
참조1
100
AcDbLine
 10
80.33162503295503
 20
7.440000000000004
 30
0.0
 11
80.33162503295503
 21
-7.440000000000001
 31
0.0
  0
LINE
  5
12D
330
1F
100
AcDbEntity
  8
참조1
100
AcDbLine
 10
93.03162503295503
 20
5.440000000000004
 30
0.0
 11
80.33162503295503
 21
5.440000000000004
 31
0.0
  0
SOLID
  5
12E
330
1F
100
AcDbEntity
  8
참조1
100
AcDbTrace
 10
80.33162503295503
 20
5.440000000000004
 30
0.0
 11
86.68162503295503
 21
4.424000000000004
 31
0.0
 12
86.68162503295503
 22
6.456000000000004
 32
0.0
 13
86.68162503295503
 23
6.456000000000004
 33
0.0
  0
LINE
  5
12F
330
1F
100
AcDbEntity
  8
참조1
100
AcDbLine
 10
93.03162503295503
 20
-5.440000000000001
 30
0.0
 11
80.33162503295503
 21
-5.440000000000001
 31
0.0
  0
SOLID
  5
130
330
1F
100
AcDbEntity
  8
참조1
100
AcDbTrace
 10
80.33162503295503
 20
-5.440000000000001
 30
0.0
 11
86.68162503295503
 21
-6.456000000000001
 31
0.0
 12
86.68162503295503
 22
-4.424000000000001
 32
0.0
 13
86.68162503295503
 23
-4.424000000000001
 33
0.0
  0
MTEXT
  5
131
330
1F
100
AcDbEntity
  8
참조1
100
AcDbMText
 10
89.71597516558103
 20
11.01029177718833
 30
0.0
 40
3.5
 41
0.0
 71
     1
 72
     1
  1
A
  7
SLDTEXTSTYLE0
 73
     1
 44
1.0
  0
MTEXT
  5
132
330
1F
100
AcDbEntity
  8
참조1
100
AcDbMText
 10
89.71597516558103
 20
0.1302917771883265
 30
0.0
 40
3.5
 41
0.0
 71
     1
 72
     1
  1
A
  7
SLDTEXTSTYLE0
 73
     1
 44
1.0
  0
INSERT
  5
139
330
1F
100
AcDbEntity
  8
해칭선
100
AcDbBlockReference
  2
SW_DOWELSYMBOL_0
 10
0.0
 20
0.0
 30
0.0
  0
LINE
  5
2D7
330
1F
100
AcDbEntity
  8
외형선
  6
Continuous
370
    15
100
AcDbLine
 10
-16.04094817511136
 20
2.381249999999996
 30
0.0
 11
-21.22499999999999
 21
0.9921875
 31
0.0
  0
LINE
  5
2D8
330
1F
100
AcDbEntity
  8
외형선
  6
Continuous
370
    15
100
AcDbLine
 10
-21.22499999999999
 20
-0.9921875
 30
0.0
 11
-16.04094817511136
 21
-2.381250000000005
 31
0.0
  0
LINE
  5
2D9
330
1F
100
AcDbEntity
  8
외형선
  6
Continuous
370
    15
100
AcDbLine
 10
-21.42481527530836
 20
-0.9921875
 30
0.0
 11
-21.22499999999999
 21
-0.9921875
 31
0.0
  0
LINE
  5
2DA
330
1F
100
AcDbEntity
  8
외형선
  6
Continuous
370
    15
100
AcDbLine
 10
-21.22499999999999
 20
0.9921875
 30
0.0
 11
-21.42481527530836
 21
0.9921875
 31
0.0
  0
SPLINE
  5
2DB
330
1F
100
AcDbEntity
  8
외형선
  6
Continuous
370
    15
100
AcDbSpline
210
0.0
220
0.0
230
1.0
 70
     8
 71
     3
 72
     9
 73
     5
 74
     0
 42
0.000000001
 43
0.00000001
 40
0.0
 40
0.0
 40
0.0
 40
0.0
 40
0.6868038195834413
 40
1.0
 40
1.0
 40
1.0
 40
1.0
 10
-22.22500000000001
 20
-0.7775992562859706
 30
0.0
 10
-22.10150366770526
 20
-0.7752588054281926
 30
0.0
 10
-21.92169055546942
 20
-0.7718510625021295
 30
0.0
 10
-21.73953020424732
 20
-0.779652702606473
 30
0.0
 10
-21.68247827802122
 20
-0.7820961464881382
 30
0.0
  0
SPLINE
  5
2DC
330
1F
100
AcDbEntity
  8
외형선
  6
Continuous
370
    15
100
AcDbSpline
210
0.0
220
0.0
230
1.0
 70
     8
 71
     3
 72
     9
 73
     5
 74
     0
 42
0.000000001
 43
0.00000001
 40
0.0
 40
0.0
 40
0.0
 40
0.0
 40
0.4372504308365384
 40
1.0
 40
1.0
 40
1.0
 40
1.0
 10
-21.42486999741459
 20
0.7921410770885569
 30
0.0
 10
-21.54130733813764
 20
0.786180102076532
 30
0.0
 10
-21.8076017372084
 20
0.7725472395528286
 30
0.0
 10
-22.07469396428546
 20
0.775822444594592
 30
0.0
 10
-22.22499999999998
 20
0.7776655648207669
 30
0.0
  0
LINE
  5
2DD
330
1F
100
AcDbEntity
  8
0
  6
Continuous
 62
     1
370
    15
100
AcDbLine
 10
-22.82863411168771
 20
-0.2542458219801418
 30
0.0
 11
-22.55524219800845
 21
-0.391834089480799
 31
0.0
1001
PE_URL
1000

  0
LINE
  5
2DE
330
1F
100
AcDbEntity
  8
0
  6
Continuous
 62
     1
370
    15
100
AcDbLine
 10
-22.38103398595587
 20
-0.2242841520152847
 30
0.0
 11
-22.3434317364961
 21
-0.2443685760398431
 31
0.0
1001
PE_URL
1000

  0
LINE
  5
2DF
330
1F
100
AcDbEntity
  8
0
  6
Continuous
 62
     1
370
    15
100
AcDbLine
 10
-22.55161981422109
 20
-0.7907374412731212
 30
0.0
 11
-22.22499999999998
 21
-0.7776655648207651
 31
0.0
1001
PE_URL
1000

  0
SPLINE
  5
2E0
330
1F
100
AcDbEntity
  8
0
  6
Continuous
 62
     1
370
    15
100
AcDbSpline
210
0.0
220
0.0
230
1.0
 70
     8
 71
     3
 72
    16
 73
    12
 74
     0
 42
0.000000001
 43
0.00000001
 40
0.0
 40
0.0
 40
0.0
 40
0.0
 40
0.1620720847852864
 40
0.2829381144443453
 40
0.3920363406194857
 40
0.5055642952894881
 40
0.5758564644214635
 40
0.6277376397254752
 40
0.7062569346885328
 40
0.8314458385722836
 40
1.0
 40
1.0
 40
1.0
 40
1.0
 10
-25.02124589736088
 20
-0.6777543203430731
 30
0.0
 10
-24.9283238681845
 20
-0.6709243258701374
 30
0.0
 10
-24.76610479288638
 20
-0.659000830467475
 30
0.0
 10
-24.54190364099121
 20
-0.652774930260172
 30
0.0
 10
-24.34430142963195
 20
-0.6526921406876696
 30
0.0
 10
-24.17592718861935
 20
-0.6574211940799906
 30
0.0
 10
-24.04077613062328
 20
-0.6644577126546878
 30
0.0
 10
-23.9255522212595
 20
-0.6722092350880526
 30
0.0
 10
-23.77899535226575
 20
-0.684376524893505
 30
0.0
 10
-23.5651724932961
 20
-0.7066303980555197
 30
0.0
 10
-23.39612317762308
 20
-0.7317697560099354
 30
0.0
 10
-23.29912015352451
 20
-0.7461950953599708
 30
0.0
1001
PE_URL
1000

  0
SPLINE
  5
2E1
330
1F
100
AcDbEntity
  8
0
  6
Continuous
 62
     1
370
    15
100
AcDbSpline
210
0.0
220
0.0
230
1.0
 70
     8
 71
     3
 72
    10
 73
     6
 74
     0
 42
0.000000001
 43
0.00000001
 40
0.0
 40
0.0
 40
0.0
 40
0.0
 40
0.5199903601810241
 40
0.9299818533957663
 40
1.0
 40
1.0
 40
1.0
 40
1.0
 10
-23.29912015352451
 20
0.7461950953599725
 30
0.0
 10
-23.42791203714295
 20
0.7277414925372696
 30
0.0
 10
-23.65825114302197
 20
0.6947379658009023
 30
0.0
 10
-23.90568620059848
 20
0.671938419604384
 30
0.0
 10
-24.02434083589507
 20
0.6661446115412044
 30
0.0
 10
-24.04164877507023
 20
0.6652994791340348
 30
0.0
1001
PE_URL
1000

  0
LINE
  5
2E2
330
1F
100
AcDbEntity
  8
0
  6
Continuous
 62
     1
370
    15
100
AcDbLine
 10
-22.22499999999998
 20
0.7776655648207669
 30
0.0
 11
-22.55161981422109
 21
0.790737441273123
 31
0.0
1001
PE_URL
1000

  0
LINE
  5
2E3
330
1F
100
AcDbEntity
  8
외형선
  6
Continuous
370
    15
100
AcDbLine
 10
-16.04094817511136
 20
-2.381250000000005
 30
0.0
 11
-16.04094817511136
 21
2.381249999999994
 31
0.0
  0
LINE
  5
2E4
330
1F
100
AcDbEntity
  8
외형선
  6
Continuous
370
    15
100
AcDbLine
 10
-21.22499999999999
 20
-0.9921875
 30
0.0
 11
-21.22499999999999
 21
0.9921875
 31
0.0
  0
ELLIPSE
  5
2E5
330
1F
100
AcDbEntity
  8
외형선
  6
Continuous
370
    15
100
AcDbEllipse
 10
-21.42487777497974
 20
0.0
 30
0.0
 11
-6.249967141437951E-5
 21
-0.9921875000000001
 31
0.0
210
0.0
220
0.0
230
1.0
 40
0.0000227746938854
 41
0.7874295416470215
 42
3.649445471206307
  0
SPLINE
  5
2E6
330
1F
100
AcDbEntity
  8
외형선
  6
Continuous
370
    15
100
AcDbSpline
210
0.0
220
0.0
230
1.0
 70
    24
 71
     3
 72
    10
 73
     6
 74
     0
 42
0.000000001
 43
0.00000001
 40
0.0
 40
0.0
 40
0.0
 40
0.0
 40
0.5
 40
0.5
 40
1.0
 40
1.0
 40
1.0
 40
1.0
 10
-21.42490590513383
 20
-0.6998927130650685
 30
0.0
 10
-21.42490590513383
 20
-0.6756880026170187
 30
0.0
 10
-21.42490590513383
 20
-0.6417918710864114
 30
0.0
 10
-21.42490590513383
 20
-0.5616420262508015
 30
0.0
 10
-21.42490590513383
 20
-0.5156503768139054
 30
0.0
 10
-21.42490590513383
 20
-0.469291841352895
 30
0.0
  0
SPLINE
  5
2E7
330
1F
100
AcDbEntity
  8
외형선
  6
Continuous
370
    15
100
AcDbSpline
210
0.0
220
0.0
230
1.0
 70
    24
 71
     3
 72
    10
 73
     6
 74
     0
 42
0.000000001
 43
0.00000001
 40
0.0
 40
0.0
 40
0.0
 40
0.0
 40
0.5
 40
0.5
 40
1.0
 40
1.0
 40
1.0
 40
1.0
 10
-21.42488220904028
 20
-0.4692989385251245
 30
0.0
 10
-21.42488220904028
 20
-0.317398553890655
 30
0.0
 10
-21.42488220904028
 20
-0.1326240583033158
 30
0.0
 10
-21.42488220904028
 20
0.2421806615586739
 30
0.0
 10
-21.42488220904028
 20
0.4293068665359048
 30
0.0
 10
-21.42488220904028
 20
0.5851296466430114
 30
0.0
  0
SPLINE
  5
2E8
330
1F
100
AcDbEntity
  8
외형선
  6
Continuous
370
    15
100
AcDbSpline
210
0.0
220
0.0
230
1.0
 70
     8
 71
     3
 72
    10
 73
     6
 74
     0
 42
0.000000001
 43
0.00000001
 40
0.0
 40
0.0
 40
0.0
 40
0.0
 40
0.3477331159952223
 40
0.693430050626734
 40
1.0
 40
1.0
 40
1.0
 40
1.0
 10
-21.42482870174264
 20
0.5851258125925245
 30
0.0
 10
-21.42482756073084
 20
0.6274705448510893
 30
0.0
 10
-21.42482528538851
 20
0.7119120561227312
 30
0.0
 10
-21.42482601738743
 20
0.7801243030504796
 30
0.0
 10
-21.42482899405114
 20
0.7865598099946531
 30
0.0
 10
-21.42483039310368
 20
0.7895845427941364
 30
0.0
  0
SPLINE
  5
2E9
330
1F
100
AcDbEntity
  8
외형선
  6
Continuous
370
    15
100
AcDbSpline
210
0.0
220
0.0
230
1.0
 70
    24
 71
     3
 72
     8
 73
     4
 74
     0
 42
0.000000001
 43
0.00000001
 40
0.0
 40
0.0
 40
0.0
 40
0.0
 40
1.0
 40
1.0
 40
1.0
 40
1.0
 10
-21.42480768062088
 20
0.7602833936208757
 30
0.0
 10
-21.42480768062088
 20
0.7987693906672391
 30
0.0
 10
-21.42480768062088
 20
0.8345625502905882
 30
0.0
 10
-21.42480768062088
 20
0.8669384071305046
 30
0.0
  0
SPLINE
  5
2EA
330
1F
100
AcDbEntity
  8
외형선
  6
Continuous
370
    15
100
AcDbSpline
210
0.0
220
0.0
230
1.0
 70
     8
 71
     3
 72
    10
 73
     6
 74
     0
 42
0.000000001
 43
0.00000001
 40
0.0
 40
0.0
 40
0.0
 40
0.0
 40
0.5
 40
0.5
 40
1.0
 40
1.0
 40
1.0
 40
1.0
 10
-22.22499999999999
 20
-0.5579601252137838
 30
0.0
 10
-22.09096717955795
 20
-0.6217419652288108
 30
0.0
 10
-21.96109581582713
 20
-0.6798537118518393
 30
0.0
 10
-21.69304287341471
 20
-0.7840040997861841
 30
0.0
 10
-21.5571368646088
 20
-0.829589446436124
 30
0.0
 10
-21.42480768062088
 20
-0.8669435312308398
 30
0.0
  0
LINE
  5
2EB
330
1F
100
AcDbEntity
  8
외형선
  6
Continuous
370
    15
100
AcDbLine
 10
-22.22499999999999
 20
-0.5579601252137838
 30
0.0
 11
-22.22499999999999
 21
-0.3096697906588872
 31
0.0
  0
SPLINE
  5
2EC
330
1F
100
AcDbEntity
  8
외형선
  6
Continuous
370
    15
100
AcDbSpline
210
0.0
220
0.0
230
1.0
 70
     8
 71
     3
 72
    10
 73
     6
 74
     0
 42
0.000000001
 43
0.00000001
 40
0.0
 40
0.0
 40
0.0
 40
0.0
 40
0.5
 40
0.5
 40
1.0
 40
1.0
 40
1.0
 40
1.0
 10
-21.42490590513383
 20
-0.6999156687927748
 30
0.0
 10
-21.55722047231606
 20
-0.6454829821640136
 30
0.0
 10
-21.69310966257069
 20
-0.5841908896645762
 30
0.0
 10
-21.9611285102027
 20
-0.4526759612326661
 30
0.0
 10
-22.09098376096027
 20
-0.3829415865458383
 30
0.0
 10
-22.22499999999905
 20
-0.3096697906574093
 30
0.0
  0
LINE
  5
2ED
330
1F
100
AcDbEntity
  8
외형선
  6
Continuous
370
    15
100
AcDbLine
 10
-21.68510408623808
 20
0.7812315039472963
 30
0.0
 11
-21.42480768062088
 21
0.8669435312308398
 31
0.0
  0
ELLIPSE
  5
2EE
330
1F
100
AcDbEntity
  8
외형선
  6
Continuous
370
    15
100
AcDbEllipse
 10
-21.42487777497974
 20
0.0
 30
0.0
 11
6.249967141412284E-5
 21
-0.9921875000000001
 31
0.0
210
0.0
220
0.0
230
1.0
 40
0.0000227746938872
 41
5.775332490462543
 42
6.283185307179586
  0
SPLINE
  5
2EF
330
1F
100
AcDbEntity
  8
외형선
  6
Continuous
370
    15
100
AcDbSpline
210
0.0
220
0.0
230
1.0
 70
    24
 71
     3
 72
    10
 73
     6
 74
     0
 42
0.000000001
 43
0.00000001
 40
0.0
 40
0.0
 40
0.0
 40
0.0
 40
0.5
 40
0.5
 40
1.0
 40
1.0
 40
1.0
 40
1.0
 10
-22.22500000000013
 20
-0.3096697906568213
 30
0.0
 10
-22.22500000000013
 20
-0.3083468563609539
 30
0.0
 10
-22.22500000000013
 20
-0.2966655507607108
 30
0.0
 10
-22.22500000000013
 20
-0.2545670856131679
 30
0.0
 10
-22.22500000000013
 20
-0.2243325228564288
 30
0.0
 10
-22.22500000000013
 20
-0.1894627678106549
 30
0.0
  0
SPLINE
  5
2F0
330
1F
100
AcDbEntity
  8
외형선
  6
Continuous
370
    15
100
AcDbSpline
210
0.0
220
0.0
230
1.0
 70
     8
 71
     3
 72
    10
 73
     6
 74
     0
 42
0.000000001
 43
0.00000001
 40
0.0
 40
0.0
 40
0.0
 40
0.0
 40
0.5
 40
0.5
 40
1.0
 40
1.0
 40
1.0
 40
1.0
 10
-22.225
 20
-0.1894627678107064
 30
0.0
 10
-22.09097976081392
 20
-0.2414038440267596
 30
0.0
 10
-21.961120622935
 20
-0.2911070911213987
 30
0.0
 10
-21.69309355016703
 20
-0.385411262269276
 30
0.0
 10
-21.55720030252236
 20
-0.4296688056683724
 30
0.0
 10
-21.42488220904028
 20
-0.4692989385251245
 30
0.0
  0
SPLINE
  5
2F1
330
1F
100
AcDbEntity
  8
외형선
  6
Continuous
370
    15
100
AcDbSpline
210
0.0
220
0.0
230
1.0
 70
     8
 71
     3
 72
    10
 73
     6
 74
     0
 42
0.000000001
 43
0.00000001
 40
0.0
 40
0.0
 40
0.0
 40
0.0
 40
0.5
 40
0.5
 40
1.0
 40
1.0
 40
1.0
 40
1.0
 10
-22.22499999999999
 20
0.7636454070505998
 30
0.0
 10
-22.09097769935945
 20
0.7468134873156895
 30
0.0
 10
-21.9611165582683
 20
0.7232978417670104
 30
0.0
 10
-21.69308524672288
 20
0.6631963874954305
 30
0.0
 10
-21.55718990813205
 20
0.6266419313437144
 30
0.0
 10
-21.42486999741459
 20
0.5851258151938126
 30
0.0
  0
SPLINE
  5
2F2
330
1F
100
AcDbEntity
  8
외형선
  6
Continuous
370
    15
100
AcDbSpline
210
0.0
220
0.0
230
1.0
 70
    24
 71
     3
 72
    10
 73
     6
 74
     0
 42
0.000000001
 43
0.00000001
 40
0.0
 40
0.0
 40
0.0
 40
0.0
 40
0.5
 40
0.5
 40
1.0
 40
1.0
 40
1.0
 40
1.0
 10
-22.22499999999991
 20
-0.1894627678107437
 30
0.0
 10
-22.22499999999991
 20
-0.0140129141872141
 30
0.0
 10
-22.22499999999991
 20
0.1758771097355503
 30
0.0
 10
-22.22499999999991
 20
0.5146667134146945
 30
0.0
 10
-22.22499999999991
 20
0.6609413221002391
 30
0.0
 10
-22.22499999999991
 20
0.7636454070505891
 30
0.0
  0
SPLINE
  5
2F3
330
1F
100
AcDbEntity
  8
외형선
  6
Continuous
370
    15
100
AcDbSpline
210
0.0
220
0.0
230
1.0
 70
    24
 71
     3
 72
    12
 73
     8
 74
     0
 42
0.000000001
 43
0.00000001
 40
0.0
 40
0.0
 40
0.0
 40
0.0
 40
0.1244354581052347
 40
0.3790581442049695
 40
0.6410649054511208
 40
0.8684911730292274
 40
1.0
 40
1.0
 40
1.0
 40
1.0
 10
-22.22499999999999
 20
-0.776054011956063
 30
0.0
 10
-22.22499999999999
 20
-0.7762558234423071
 30
0.0
 10
-22.22499999999999
 20
-0.7768705862166758
 30
0.0
 10
-22.22499999999999
 20
-0.7515470213455302
 30
0.0
 10
-22.22499999999999
 20
-0.6952473542288207
 30
0.0
 10
-22.22499999999999
 20
-0.6289899119630071
 30
0.0
 10
-22.22499999999999
 20
-0.5770062251357295
 30
0.0
 10
-22.22499999999999
 20
-0.5579601252137838
 30
0.0
  0
SPLINE
  5
2F4
330
1F
100
AcDbEntity
  8
0
  6
Continuous
 62
     1
370
    15
100
AcDbSpline
210
0.0
220
0.0
230
1.0
 70
     8
 71
     3
 72
    22
 73
    18
 74
     0
 42
0.000000001
 43
0.00000001
 40
0.0
 40
0.0
 40
0.0
 40
0.0
 40
0.125
 40
0.125
 40
0.2499999999999999
 40
0.2499999999999999
 40
0.3749999999999999
 40
0.3749999999999999
 40
0.4999999999999999
 40
0.4999999999999999
 40
0.6249999999999999
 40
0.6249999999999999
 40
0.7499999999999998
 40
0.7499999999999998
 40
0.8749999999999999
 40
0.8749999999999999
 40
1.0
 40
1.0
 40
1.0
 40
1.0
 10
-25.39999999999999
 20
0.9415272686910292
 30
0.0
 10
-25.27029556907649
 20
0.9175961984562431
 30
0.0
 10
-25.13611453150486
 20
0.8850250958667587
 30
0.0
 10
-24.8692977969785
 20
0.8047270212748607
 30
0.0
 10
-24.73965731901864
 20
0.7574531548872834
 30
0.0
 10
-24.47584682195737
 20
0.6498891657709613
 30
0.0
 10
-24.34100069694388
 20
0.5893909090365508
 30
0.0
 10
-24.07609502236671
 20
0.4597040641642316
 30
0.0
 10
-23.94712581657711
 20
0.3908004189487109
 30
0.0
 10
-23.68075354762003
 20
0.2458259178275757
 30
0.0
 10
-23.54623190332206
 20
0.1702309998877443
 30
0.0
 10
-23.28510297535896
 20
0.0188656587513538
 30
0.0
 10
-23.1529199382476
 20
-0.0579677302857355
 30
0.0
 10
-22.88588636922252
 20
-0.2097590897569717
 30
0.0
 10
-22.75511375035903
 20
-0.283930350254554
 30
0.0
 10
-22.49261756534937
 20
-0.4261649643806376
 30
0.0
 10
-22.35788931794655
 20
-0.4947224406748756
 30
0.0
 10
-22.22500000000002
 20
-0.5579601252137678
 30
0.0
1001
PE_URL
1000

  0
SPLINE
  5
2F5
330
1F
100
AcDbEntity
  8
0
  6
Continuous
 62
     1
370
    15
100
AcDbSpline
210
0.0
220
0.0
230
1.0
 70
     8
 71
     3
 72
    13
 73
     9
 74
     0
 42
0.000000001
 43
0.00000001
 40
0.0
 40
0.0
 40
0.0
 40
0.0
 40
0.1924196359439871
 40
0.3839715504837345
 40
0.5756262171348426
 40
0.768269112970913
 40
0.9604269023238314
 40
1.0
 40
1.0
 40
1.0
 40
1.0
 10
-25.4
 20
0.7828084185528432
 30
0.0
 10
-25.2339808970666
 20
0.7462369551717849
 30
0.0
 10
-24.90269135870677
 20
0.6732589483847242
 30
0.0
 10
-24.40654900355858
 20
0.4902084194390337
 30
0.0
 10
-23.91018751473987
 20
0.27034686092491
 30
0.0
 10
-23.41266455839233
 20
0.02996187616424
 30
0.0
 10
-23.04662764222979
 20
-0.1549526753653776
 30
0.0
 10
-22.84687535163124
 20
-0.2444532044270815
 30
0.0
 10
-22.81276329601258
 20
-0.259737369710507
 30
0.0
1001
PE_URL
1000

  0
LINE
  5
2F6
330
1F
100
AcDbEntity
  8
0
  6
Continuous
 62
     1
370
    15
100
AcDbLine
 10
-25.39999999999999
 20
0.9415272686910292
 30
0.0
 11
-25.4
 21
0.7828084185528432
 31
0.0
1001
PE_URL
1000

  0
SPLINE
  5
2F7
330
1F
100
AcDbEntity
  8
0
  6
Continuous
 62
     1
370
    15
100
AcDbSpline
210
0.0
220
0.0
230
1.0
 70
     8
 71
     3
 72
    22
 73
    18
 74
     0
 42
0.000000001
 43
0.00000001
 40
0.0
 40
0.0
 40
0.0
 40
0.0
 40
0.1249999999999999
 40
0.1249999999999999
 40
0.2499999999999999
 40
0.2499999999999999
 40
0.3749999999999998
 40
0.3749999999999998
 40
0.4999999999999998
 40
0.4999999999999998
 40
0.6249999999999998
 40
0.6249999999999998
 40
0.7499999999999998
 40
0.7499999999999998
 40
0.8749999999999997
 40
0.8749999999999997
 40
1.0
 40
1.0
 40
1.0
 40
1.0
 10
-22.22499999999927
 20
-0.3096697906572796
 30
0.0
 10
-22.35788931794583
 20
-0.2370141255664908
 30
0.0
 10
-22.49261756534868
 20
-0.1612387282397236
 30
0.0
 10
-22.75511375035842
 20
-0.009482423130029
 30
0.0
 10
-22.88588636922192
 20
0.067062927529614
 30
0.0
 10
-23.15291993824706
 20
0.2186586500741985
 30
0.0
 10
-23.28510297535847
 20
0.2929089295234473
 30
0.0
 10
-23.54623190332162
 20
0.4343851722246956
 30
0.0
 10
-23.68075354761962
 20
0.502584156236118
 30
0.0
 10
-23.94712581657677
 20
0.6283577313905457
 30
0.0
 10
-24.0760950223664
 20
0.6855752834030788
 30
0.0
 10
-24.34100069694361
 20
0.7879099032577237
 30
0.0
 10
-24.47584682195715
 20
0.8327396095173487
 30
0.0
 10
-24.73965731901849
 20
0.9062351933345987
 30
0.0
 10
-24.86929779697836
 20
0.9351089281000515
 30
0.0
 10
-25.13611453150479
 20
0.976266557907083
 30
0.0
 10
-25.27029556907647
 20
0.988230566309829
 30
0.0
 10
-25.39999999999999
 20
0.991348918235273
 30
0.0
1001
PE_URL
1000

  0
SPLINE
  5
2F8
330
1F
100
AcDbEntity
  8
0
  6
Continuous
 62
     1
370
    15
100
AcDbSpline
210
0.0
220
0.0
230
1.0
 70
     8
 71
     3
 72
    10
 73
     6
 74
     0
 42
0.000000001
 43
0.00000001
 40
0.0
 40
0.0
 40
0.0
 40
0.0
 40
0.0341198756538555
 40
0.7273040103689058
 40
0.9999999999999999
 40
0.9999999999999999
 40
0.9999999999999999
 40
0.9999999999999999
 10
-22.93953447737014
 20
0.0962362598966848
 30
0.0
 10
-22.9314062749836
 20
0.093087489082869
 30
0.0
 10
-22.75814438350441
 20
0.0259678528961977
 30
0.0
 10
-22.52018339104064
 20
-0.074704289496502
 30
0.0
 10
-22.28999021419362
 20
-0.1641965153298983
 30
0.0
 10
-22.22499999999999
 20
-0.1894627678107081
 30
0.0
1001
PE_URL
1000

  0
SPLINE
  5
2F9
330
1F
100
AcDbEntity
  8
외형선
  6
Continuous
370
    15
100
AcDbSpline
210
0.0
220
0.0
230
1.0
 70
    24
 71
     3
 72
    10
 73
     6
 74
     0
 42
0.000000001
 43
0.00000001
 40
0.0
 40
0.0
 40
0.0
 40
0.0
 40
0.5
 40
0.5
 40
1.0
 40
1.0
 40
1.0
 40
1.0
 10
-22.22500000000013
 20
-0.3096697906568213
 30
0.0
 10
-22.22500000000013
 20
-0.3083468563609539
 30
0.0
 10
-22.22500000000013
 20
-0.2966655507607108
 30
0.0
 10
-22.22500000000013
 20
-0.2545670856131679
 30
0.0
 10
-22.22500000000013
 20
-0.2243325228564288
 30
0.0
 10
-22.22500000000013
 20
-0.1894627678106549
 30
0.0
  0
LINE
  5
2FA
330
1F
100
AcDbEntity
  8
0
  6
Continuous
 62
     1
370
    15
100
AcDbLine
 10
-25.39999999999999
 20
0.9913489182356656
 30
0.0
 11
-25.39999999999999
 21
0.9415272686910292
 31
0.0
1001
PE_URL
1000

  0
SPLINE
  5
2FB
330
1F
100
AcDbEntity
  8
0
  6
Continuous
 62
     1
370
    15
100
AcDbSpline
210
0.0
220
0.0
230
1.0
 70
     8
 71
     3
 72
     8
 73
     4
 74
     0
 42
0.000000001
 43
0.00000001
 40
0.0
 40
0.0
 40
0.0
 40
0.0
 40
1.0
 40
1.0
 40
1.0
 40
1.0
 10
-24.78645648003366
 20
-0.2771455591120002
 30
0.0
 10
-24.75107854129513
 20
-0.3190069411483663
 30
0.0
 10
-24.71944619039175
 20
-0.3593360420153644
 30
0.0
 10
-24.69254979534001
 20
-0.3977277124202256
 30
0.0
1001
PE_URL
1000

  0
LINE
  5
2FC
330
1F
100
AcDbEntity
  8
0
  6
Continuous
 62
     1
370
    15
100
AcDbLine
 10
-24.70511798808645
 20
-0.4082736783272782
 30
0.0
 11
-25.4
 21
0.0000000000000036
 31
0.0
1001
PE_URL
1000

  0
LINE
  5
2FD
330
1F
100
AcDbEntity
  8
0
  6
Continuous
 62
     1
370
    15
100
AcDbLine
 10
-25.4
 20
0.0000000000000036
 30
0.0
 11
-25.4
 21
0.2651551105137919
 31
0.0
1001
PE_URL
1000

  0
SPLINE
  5
2FE
330
1F
100
AcDbEntity
  8
0
  6
Continuous
 62
     1
370
    15
100
AcDbSpline
210
0.0
220
0.0
230
1.0
 70
     8
 71
     3
 72
    10
 73
     6
 74
     0
 42
0.000000001
 43
0.00000001
 40
0.0
 40
0.0
 40
0.0
 40
0.0
 40
0.5000000000000006
 40
0.5000000000000006
 40
1.0
 40
1.0
 40
1.0
 40
1.0
 10
-25.4
 20
0.2651551105137919
 30
0.0
 10
-25.29379960073015
 20
0.1816611239832113
 30
0.0
 10
-25.18937334291142
 20
0.0947429862225313
 30
0.0
 10
-24.98414771734928
 20
-0.0860933061830718
 30
0.0
 10
-24.88238182579837
 20
-0.1809588001028377
 30
0.0
 10
-24.78645648003284
 20
-0.2771455591098739
 30
0.0
1001
PE_URL
1000

  0
SPLINE
  5
2FF
330
1F
100
AcDbEntity
  8
0
  6
Continuous
 62
     1
370
    15
100
AcDbSpline
210
0.0
220
0.0
230
1.0
 70
     8
 71
     3
 72
    12
 73
     8
 74
     0
 42
0.000000001
 43
0.00000001
 40
0.0
 40
0.0
 40
0.0
 40
0.0
 40
0.1698961981872603
 40
0.3915574783025173
 40
0.6143778271539185
 40
0.836628852315094
 40
1.0
 40
1.0
 40
1.0
 40
1.0
 10
-24.7864564800335
 20
-0.2771455591120695
 30
0.0
 10
-24.65985779384748
 20
-0.3306802719655852
 30
0.0
 10
-24.36808750794164
 20
-0.4540610032016552
 30
0.0
 10
-23.91018659679025
 20
-0.6141540992020378
 30
0.0
 10
-23.41270084555942
 20
-0.7352542056056528
 30
0.0
 10
-22.95899637771729
 20
-0.7977893876568292
 30
0.0
 10
-22.67160099015637
 20
-0.7883210513313337
 30
0.0
 10
-22.54984420952664
 20
-0.7843097338265679
 30
0.0
1001
PE_URL
1000

  0
SPLINE
  5
300
330
1F
100
AcDbEntity
  8
0
  6
Continuous
 62
     1
370
    15
100
AcDbSpline
210
0.0
220
0.0
230
1.0
 70
    24
 71
     3
 72
    10
 73
     6
 74
     0
 42
0.000000001
 43
0.00000001
 40
0.0
 40
0.0
 40
0.0
 40
0.0
 40
0.5
 40
0.5
 40
1.0
 40
1.0
 40
1.0
 40
1.0
 10
-25.4
 20
0.7828084185528432
 30
0.0
 10
-25.4
 20
0.7228000500272174
 30
0.0
 10
-25.4
 20
0.6469771754384528
 30
0.0
 10
-25.4
 20
0.4706962891573188
 30
0.0
 10
-25.4
 20
0.3703909786524751
 30
0.0
 10
-25.4
 20
0.2651551105138239
 30
0.0
1001
PE_URL
1000

  0
SPLINE
  5
301
330
1F
100
AcDbEntity
  8
외형선
  6
Continuous
370
    15
100
AcDbSpline
210
0.0
220
0.0
230
1.0
 70
    24
 71
     3
 72
    12
 73
     8
 74
     0
 42
0.000000001
 43
0.00000001
 40
0.0
 40
0.0
 40
0.0
 40
0.0
 40
0.1107510526886621
 40
0.369353297002695
 40
0.6354550239209558
 40
0.8664357904525964
 40
1.0
 40
1.0
 40
1.0
 40
1.0
 10
-22.22499999999999
 20
-0.7759211365043779
 30
0.0
 10
-22.22499999999999
 20
-0.7760573691547741
 30
0.0
 10
-22.22499999999999
 20
-0.7765117032433615
 30
0.0
 10
-22.22499999999999
 20
-0.7514557386732719
 30
0.0
 10
-22.22499999999999
 20
-0.6952688121515056
 30
0.0
 10
-22.22499999999999
 20
-0.628987263065028
 30
0.0
 10
-22.22499999999999
 20
-0.5770055148537772
 30
0.0
 10
-22.22499999999999
 20
-0.5579601252137838
 30
0.0
  0
SPLINE
  5
302
330
1F
100
AcDbEntity
  8
0
  6
Continuous
 62
     1
370
    15
100
AcDbSpline
210
0.0
220
0.0
230
1.0
 70
    24
 71
     3
 72
     8
 73
     4
 74
     0
 42
0.000000001
 43
0.00000001
 40
0.0
 40
0.0
 40
0.0
 40
0.0
 40
1.0
 40
1.0
 40
1.0
 40
1.0
 10
-24.79591123438479
 20
-0.4844582578096084
 30
0.0
 10
-24.76315221982469
 20
-0.4569701807744906
 30
0.0
 10
-24.728598927961
 20
-0.4279765263157049
 30
0.0
 10
-24.69254979533606
 20
-0.3977277124258602
 30
0.0
1001
PE_URL
1000

  0
LINE
  5
303
330
1F
100
AcDbEntity
  8
0
  6
Continuous
 62
     1
370
    15
100
AcDbLine
 10
-25.4
 20
-0.6945312499999954
 30
0.0
 11
-25.01972022682271
 21
-0.6724904957716245
 31
0.0
1001
PE_URL
1000

  0
SPLINE
  5
304
330
1F
100
AcDbEntity
  8
0
  6
Continuous
 62
     1
370
    15
100
AcDbSpline
210
0.0
220
0.0
230
1.0
 70
     8
 71
     3
 72
     8
 73
     4
 74
     0
 42
0.000000001
 43
0.00000001
 40
0.0
 40
0.0
 40
0.0
 40
0.0
 40
1.0
 40
1.0
 40
1.0
 40
1.0
 10
-25.4
 20
-0.6945312499999972
 30
0.0
 10
-25.19584217823384
 20
-0.6389920726168725
 30
0.0
 10
-24.99363053355309
 20
-0.5708998726238281
 30
0.0
 10
-24.79591123439372
 20
-0.4844582578129533
 30
0.0
1001
PE_URL
1000

  0
SPLINE
  5
305
330
1F
100
AcDbEntity
  8
0
  6
Continuous
 62
     1
370
    15
100
AcDbSpline
210
0.0
220
0.0
230
1.0
 70
     8
 71
     3
 72
    10
 73
     6
 74
     0
 42
0.000000001
 43
0.00000001
 40
0.0
 40
0.0
 40
0.0
 40
0.0
 40
0.3584625282032931
 40
0.818903851643724
 40
1.0
 40
1.0
 40
1.0
 40
1.0
 10
-23.30085282460728
 20
0.7402314863869677
 30
0.0
 10
-23.17225873671106
 20
0.7590855876292721
 30
0.0
 10
-22.87848690397685
 20
0.8021575823618612
 30
0.0
 10
-22.52020783824706
 20
0.7957202035389628
 30
0.0
 10
-22.28998762165978
 20
0.7707064144797329
 30
0.0
 10
-22.22499999999999
 20
0.7636454070505998
 30
0.0
1001
PE_URL
1000

  0
SPLINE
  5
306
330
1F
100
AcDbEntity
  8
외형선
  6
Continuous
370
    15
100
AcDbSpline
210
0.0
220
0.0
230
1.0
 70
    24
 71
     3
 72
    10
 73
     6
 74
     0
 42
0.000000001
 43
0.00000001
 40
0.0
 40
0.0
 40
0.0
 40
0.0
 40
0.5
 40
0.5
 40
1.0
 40
1.0
 40
1.0
 40
1.0
 10
-22.22499999999991
 20
-0.1894627678107437
 30
0.0
 10
-22.22499999999991
 20
-0.0140129141872141
 30
0.0
 10
-22.22499999999991
 20
0.1758771097355503
 30
0.0
 10
-22.22499999999991
 20
0.5146667134146945
 30
0.0
 10
-22.22499999999991
 20
0.6609413221002391
 30
0.0
 10
-22.22499999999991
 20
0.7636454070505891
 30
0.0
  0
LINE
  5
307
330
1F
100
AcDbEntity
  8
0
  6
Continuous
 62
     1
370
    15
100
AcDbLine
 10
-25.4
 20
0.0000000000000036
 30
0.0
 11
-25.4
 21
-0.6945312499999972
 31
0.0
1001
PE_URL
1000

  0
SPLINE
  5
308
330
1F
100
AcDbEntity
  8
0
  6
Continuous
 62
     1
370
    15
100
AcDbSpline
210
0.0
220
0.0
230
1.0
 70
    24
 71
     3
 72
    10
 73
     6
 74
     0
 42
0.000000001
 43
0.00000001
 40
0.0
 40
0.0
 40
0.0
 40
0.0
 40
0.5
 40
0.5
 40
1.0
 40
1.0
 40
1.0
 40
1.0
 10
-25.4
 20
-0.6945312499999954
 30
0.0
 10
-25.4
 20
-0.7366320048010024
 30
0.0
 10
-25.4
 20
-0.7855569808290888
 30
0.0
 10
-25.4
 20
-0.8882014487658445
 30
0.0
 10
-25.4
 20
-0.9416587995842693
 30
0.0
 10
-25.4
 20
-0.9913489182356585
 30
0.0
1001
PE_URL
1000

  0
SPLINE
  5
309
330
1F
100
AcDbEntity
  8
0
  6
Continuous
 62
     1
370
    15
100
AcDbSpline
210
0.0
220
0.0
230
1.0
 70
     8
 71
     3
 72
    14
 73
    10
 74
     0
 42
0.000000001
 43
0.00000001
 40
0.0
 40
0.0
 40
0.0
 40
0.0
 40
0.179426510885065
 40
0.284183975150008
 40
0.3893582624356888
 40
0.4649801059656798
 40
0.6165503273770003
 40
0.8988932615619446
 40
1.0
 40
1.0
 40
1.0
 40
1.0
 10
-24.03666975630084
 20
-0.6650255874538136
 30
0.0
 10
-24.11807378119697
 20
-0.6993507609244638
 30
0.0
 10
-24.2470052265786
 20
-0.7537165522252387
 30
0.0
 10
-24.424288990028
 20
-0.814601585426832
 30
0.0
 10
-24.55421639810737
 20
-0.8548843670072852
 30
0.0
 10
-24.70512736894311
 20
-0.8964942495527097
 30
0.0
 10
-24.93595426844037
 20
-0.9495486982717551
 30
0.0
 10
-25.18029455121748
 20
-0.9828767781116987
 30
0.0
 10
-25.35415662482965
 20
-0.9895811355049577
 30
0.0
 10
-25.4
 20
-0.9913489182356585
 30
0.0
1001
PE_URL
1000

  0
ENDSEC
  0
SECTION
  2
OBJECTS
  0
DICTIONARY
  5
C
330
0
100
AcDbDictionary
281
     1
  3
ACAD_DETAILVIEWSTYLE
350
25E
  3
ACAD_GROUP
350
D
  3
ACAD_IMAGE_VARS
350
32D
  3
ACAD_LAYOUT
350
1A
  3
ACAD_MLINESTYLE
350
17
  3
ACAD_PLOTSETTINGS
350
19
  3
ACAD_PLOTSTYLENAME
350
E
  3
ACAD_SCALELIST
350
47
  3
ACAD_SECTIONVIEWSTYLE
350
25F
  3
AcDbVariableDictionary
350
259
  3
APPDATA
350
15B
  3
DWGPROPS
350
32E
  0
DICTIONARY
  5
1D8
330
2
100
AcDbDictionary
280
     1
281
     1
  3
ACAD_LAYERSTATES
360
1D9
  0
DICTIONARY
  5
25E
102
{ACAD_REACTORS
330
C
102
}
330
C
100
AcDbDictionary
281
     1
  0
DICTIONARY
  5
D
102
{ACAD_REACTORS
330
C
102
}
330
C
100
AcDbDictionary
281
     1
  0
RASTERVARIABLES
  5
32D
102
{ACAD_REACTORS
330
C
102
}
330
C
100
AcDbRasterVariables
 90
        0
 70
     1
 71
     1
 72
     1
  0
DICTIONARY
  5
1A
102
{ACAD_REACTORS
330
C
102
}
330
C
100
AcDbDictionary
281
     1
  3
Layout1
350
1E
  3
Layout2
350
26
  3
Model
350
22
  0
DICTIONARY
  5
17
102
{ACAD_REACTORS
330
C
102
}
330
C
100
AcDbDictionary
281
     1
  3
Standard
350
18
  0
DICTIONARY
  5
19
102
{ACAD_REACTORS
330
C
102
}
330
C
100
AcDbDictionary
281
     1
  0
ACDBDICTIONARYWDFLT
  5
E
102
{ACAD_REACTORS
330
C
102
}
330
C
100
AcDbDictionary
281
     1
  3
Normal
350
F
100
AcDbDictionaryWithDefault
340
F
  0
DICTIONARY
  5
47
102
{ACAD_REACTORS
330
C
102
}
330
C
100
AcDbDictionary
281
     1
  3
A0
350
48
  3
A1
350
49
  3
A2
350
4A
  3
A3
350
4B
  3
A4
350
4C
  3
A5
350
4D
  3
A6
350
4E
  3
A7
350
4F
  3
A8
350
50
  3
A9
350
51
  3
B0
350
52
  3
B1
350
53
  3
B2
350
54
  3
B3
350
55
  3
B4
350
56
  3
B5
350
57
  3
B6
350
58
  3
B7
350
59
  3
B8
350
5A
  3
B9
350
5B
  3
C0
350
5C
  3
C1
350
5D
  3
C2
350
5E
  3
C3
350
5F
  3
C4
350
60
  3
C5
350
61
  3
C6
350
62
  3
C7
350
63
  3
C8
350
64
  3
C9
350
65
  3
D0
350
66
  3
D1
350
67
  3
D2
350
68
  0
DICTIONARY
  5
25F
102
{ACAD_REACTORS
330
C
102
}
330
C
100
AcDbDictionary
281
     1
  0
DICTIONARY
  5
259
102
{ACAD_REACTORS
330
C
102
}
330
C
100
AcDbDictionary
281
     1
  0
DICTIONARY
  5
15B
102
{ACAD_REACTORS
330
C
102
}
330
C
100
AcDbDictionary
281
     1
  0
XRECORD
  5
32E
102
{ACAD_REACTORS
330
C
102
}
330
C
100
AcDbXrecord
280
     1
  1
DWGPROPS COOKIE
  2

  3

  4

  6

  7

  8
12016016
  9

300
=
301
=
302
=
303
=
304
=
305
=
306
=
307
=
308
=
309
=
 40
0.0
 41
2458313.012840116
 42
2458318.270093356
  1

 90
        0
  0
DICTIONARY
  5
1D9
102
{ACAD_REACTORS
330
1D8
102
}
330
1D8
100
AcDbDictionary
281
     1
  0
LAYOUT
  5
1E
102
{ACAD_REACTORS
330
1A
102
}
330
1A
100
AcDbPlotSettings
  1

  2
none_device
  4

  6

 40
0.0
 41
0.0
 42
0.0
 43
0.0
 44
0.0
 45
0.0
 46
0.0
 47
0.0
 48
0.0
 49
0.0
140
0.0
141
0.0
142
1.0
143
1.0
 70
   688
 72
     1
 73
     0
 74
     5
  7

 75
    16
147
1.0
148
0.0
149
0.0
100
AcDbLayout
  1
Layout1
 70
     1
 71
     1
 10
0.0
 20
0.0
 11
420.0
 21
297.0
 12
0.0
 22
0.0
 32
0.0
 14
1.000000000000000E+20
 24
1.000000000000000E+20
 34
1.000000000000000E+20
 15
-1.000000000000000E+20
 25
-1.000000000000000E+20
 35
-1.000000000000000E+20
146
0.0
 13
0.0
 23
0.0
 33
0.0
 16
1.0
 26
0.0
 36
0.0
 17
0.0
 27
1.0
 37
0.0
 76
     0
330
1B
  0
LAYOUT
  5
26
102
{ACAD_REACTORS
330
1A
102
}
330
1A
100
AcDbPlotSettings
  1

  2
none_device
  4

  6

 40
0.0
 41
0.0
 42
0.0
 43
0.0
 44
0.0
 45
0.0
 46
0.0
 47
0.0
 48
0.0
 49
0.0
140
0.0
141
0.0
142
1.0
143
1.0
 70
   688
 72
     1
 73
     0
 74
     5
  7

 75
    16
147
1.0
148
0.0
149
0.0
100
AcDbLayout
  1
Layout2
 70
     1
 71
     2
 10
0.0
 20
0.0
 11
0.0
 21
0.0
 12
0.0
 22
0.0
 32
0.0
 14
0.0
 24
0.0
 34
0.0
 15
0.0
 25
0.0
 35
0.0
146
0.0
 13
0.0
 23
0.0
 33
0.0
 16
1.0
 26
0.0
 36
0.0
 17
0.0
 27
1.0
 37
0.0
 76
     0
330
23
  0
LAYOUT
  5
22
102
{ACAD_REACTORS
330
1A
102
}
330
1A
100
AcDbPlotSettings
  1

  2
none_device
  4
ANSI_A_(11.00_x_8.50_Inches)
  6

 40
6.35
 41
19.05
 42
6.35000508
 43
19.05000254
 44
279.4
 45
215.9
 46
113.706653881509
 47
92.34189711636944
 48
0.0
 49
0.0
140
0.0
141
0.0
142
0.0765690825647861
143
1.0
 70
  1696
 72
     0
 73
     0
 74
     0
  7

 75
     0
147
0.0235690232323232
148
0.0
149
0.0
100
AcDbLayout
  1
Model
 70
     1
 71
     0
 10
0.0
 20
0.0
 11
420.0
 21
297.0
 12
0.0
 22
0.0
 32
0.0
 14
-36.77500000000013
 24
-49.97180738881175
 34
0.0
 15
93.03162503295503
 25
27.88124999999997
 35
0.0
146
0.0
 13
0.0
 23
0.0
 33
0.0
 16
1.0
 26
0.0
 36
0.0
 17
0.0
 27
1.0
 37
0.0
 76
     0
330
1F
331
29
  0
MLINESTYLE
  5
18
102
{ACAD_REACTORS
330
17
102
}
330
17
100
AcDbMlineStyle
  2
Standard
 70
     0
  3

 62
   256
 51
90.0
 52
90.0
 71
     2
 49
0.5
 62
   256
  6
BYLAYER
 49
-0.5
 62
   256
  6
BYLAYER
  0
ACDBPLACEHOLDER
  5
F
102
{ACAD_REACTORS
330
E
102
}
330
E
  0
SCALE
  5
48
102
{ACAD_REACTORS
330
47
102
}
330
47
100
AcDbScale
 70
     0
300
1:1
140
1.0
141
1.0
290
     1
  0
SCALE
  5
49
102
{ACAD_REACTORS
330
47
102
}
330
47
100
AcDbScale
 70
     0
300
1:2
140
1.0
141
2.0
290
     0
  0
SCALE
  5
4A
102
{ACAD_REACTORS
330
47
102
}
330
47
100
AcDbScale
 70
     0
300
1:4
140
1.0
141
4.0
290
     0
  0
SCALE
  5
4B
102
{ACAD_REACTORS
330
47
102
}
330
47
100
AcDbScale
 70
     0
300
1:5
140
1.0
141
5.0
290
     0
  0
SCALE
  5
4C
102
{ACAD_REACTORS
330
47
102
}
330
47
100
AcDbScale
 70
     0
300
1:8
140
1.0
141
8.0
290
     0
  0
SCALE
  5
4D
102
{ACAD_REACTORS
330
47
102
}
330
47
100
AcDbScale
 70
     0
300
1:10
140
1.0
141
10.0
290
     0
  0
SCALE
  5
4E
102
{ACAD_REACTORS
330
47
102
}
330
47
100
AcDbScale
 70
     0
300
1:16
140
1.0
141
16.0
290
     0
  0
SCALE
  5
4F
102
{ACAD_REACTORS
330
47
102
}
330
47
100
AcDbScale
 70
     0
300
1:20
140
1.0
141
20.0
290
     0
  0
SCALE
  5
50
102
{ACAD_REACTORS
330
47
102
}
330
47
100
AcDbScale
 70
     0
300
1:30
140
1.0
141
30.0
290
     0
  0
SCALE
  5
51
102
{ACAD_REACTORS
330
47
102
}
330
47
100
AcDbScale
 70
     0
300
1:40
140
1.0
141
40.0
290
     0
  0
SCALE
  5
52
102
{ACAD_REACTORS
330
47
102
}
330
47
100
AcDbScale
 70
     0
300
1:50
140
1.0
141
50.0
290
     0
  0
SCALE
  5
53
102
{ACAD_REACTORS
330
47
102
}
330
47
100
AcDbScale
 70
     0
300
1:100
140
1.0
141
100.0
290
     0
  0
SCALE
  5
54
102
{ACAD_REACTORS
330
47
102
}
330
47
100
AcDbScale
 70
     0
300
2:1
140
2.0
141
1.0
290
     0
  0
SCALE
  5
55
102
{ACAD_REACTORS
330
47
102
}
330
47
100
AcDbScale
 70
     0
300
4:1
140
4.0
141
1.0
290
     0
  0
SCALE
  5
56
102
{ACAD_REACTORS
330
47
102
}
330
47
100
AcDbScale
 70
     0
300
8:1
140
8.0
141
1.0
290
     0
  0
SCALE
  5
57
102
{ACAD_REACTORS
330
47
102
}
330
47
100
AcDbScale
 70
     0
300
10:1
140
10.0
141
1.0
290
     0
  0
SCALE
  5
58
102
{ACAD_REACTORS
330
47
102
}
330
47
100
AcDbScale
 70
     0
300
100:1
140
100.0
141
1.0
290
     0
  0
SCALE
  5
59
102
{ACAD_REACTORS
330
47
102
}
330
47
100
AcDbScale
 70
     0
300
1/128" = 1'-0"
140
0.0078125
141
12.0
290
     0
  0
SCALE
  5
5A
102
{ACAD_REACTORS
330
47
102
}
330
47
100
AcDbScale
 70
     0
300
1/64" = 1'-0"
140
0.015625
141
12.0
290
     0
  0
SCALE
  5
5B
102
{ACAD_REACTORS
330
47
102
}
330
47
100
AcDbScale
 70
     0
300
1/32" = 1'-0"
140
0.03125
141
12.0
290
     0
  0
SCALE
  5
5C
102
{ACAD_REACTORS
330
47
102
}
330
47
100
AcDbScale
 70
     0
300
1/16" = 1'-0"
140
0.0625
141
12.0
290
     0
  0
SCALE
  5
5D
102
{ACAD_REACTORS
330
47
102
}
330
47
100
AcDbScale
 70
     0
300
3/32" = 1'-0"
140
0.09375
141
12.0
290
     0
  0
SCALE
  5
5E
102
{ACAD_REACTORS
330
47
102
}
330
47
100
AcDbScale
 70
     0
300
1/8" = 1'-0"
140
0.125
141
12.0
290
     0
  0
SCALE
  5
5F
102
{ACAD_REACTORS
330
47
102
}
330
47
100
AcDbScale
 70
     0
300
3/16" = 1'-0"
140
0.1875
141
12.0
290
     0
  0
SCALE
  5
60
102
{ACAD_REACTORS
330
47
102
}
330
47
100
AcDbScale
 70
     0
300
1/4" = 1'-0"
140
0.25
141
12.0
290
     0
  0
SCALE
  5
61
102
{ACAD_REACTORS
330
47
102
}
330
47
100
AcDbScale
 70
     0
300
3/8" = 1'-0"
140
0.375
141
12.0
290
     0
  0
SCALE
  5
62
102
{ACAD_REACTORS
330
47
102
}
330
47
100
AcDbScale
 70
     0
300
1/2" = 1'-0"
140
0.5
141
12.0
290
     0
  0
SCALE
  5
63
102
{ACAD_REACTORS
330
47
102
}
330
47
100
AcDbScale
 70
     0
300
3/4" = 1'-0"
140
0.75
141
12.0
290
     0
  0
SCALE
  5
64
102
{ACAD_REACTORS
330
47
102
}
330
47
100
AcDbScale
 70
     0
300
1" = 1'-0"
140
1.0
141
12.0
290
     0
  0
SCALE
  5
65
102
{ACAD_REACTORS
330
47
102
}
330
47
100
AcDbScale
 70
     0
300
1-1/2" = 1'-0"
140
1.5
141
12.0
290
     0
  0
SCALE
  5
66
102
{ACAD_REACTORS
330
47
102
}
330
47
100
AcDbScale
 70
     0
300
3" = 1'-0"
140
3.0
141
12.0
290
     0
  0
SCALE
  5
67
102
{ACAD_REACTORS
330
47
102
}
330
47
100
AcDbScale
 70
     0
300
6" = 1'-0"
140
6.0
141
12.0
290
     0
  0
SCALE
  5
68
102
{ACAD_REACTORS
330
47
102
}
330
47
100
AcDbScale
 70
     0
300
1'-0" = 1'-0"
140
12.0
141
12.0
290
     0
  0
ENDSEC
  0
EOF
