  0
SECTION
  2
HEADER
  9
$ACADVER
  1
AC1015
  9
$ACADMAINTVER
 70
     6
  9
$DWGCODEPAGE
  3
ANSI_949
  9
$INSBASE
 10
0.0
 20
0.0
 30
0.0
  9
$EXTMIN
 10
-36.77500000000008
 20
-49.97180738881175
 30
0.0
  9
$EXTMAX
 10
92.63475003295503
 20
27.88124999999997
 30
0.0
  9
$LIMMIN
 10
0.0
 20
0.0
  9
$LIMMAX
 10
420.0
 20
297.0
  9
$ORTHOMODE
 70
     1
  9
$REGENMODE
 70
     1
  9
$FILLMODE
 70
     1
  9
$QTEXTMODE
 70
     0
  9
$MIRRTEXT
 70
     1
  9
$LTSCALE
 40
1.0
  9
$ATTMODE
 70
     1
  9
$TEXTSIZE
 40
3.5
  9
$TRACEWID
 40
1.0
  9
$TEXTSTYLE
  7
Standard
  9
$CLAYER
  8
0
  9
$CELTYPE
  6
ByLayer
  9
$CECOLOR
 62
   256
  9
$CELTSCALE
 40
1.0
  9
$DISPSILH
 70
     0
  9
$DIMSCALE
 40
1.0
  9
$DIMASZ
 40
3.302
  9
$DIMEXO
 40
1.0
  9
$DIMDLI
 40
3.75
  9
$DIMRND
 40
0.0
  9
$DIMDLE
 40
0.0
  9
$DIMEXE
 40
1.0
  9
$DIMTP
 40
0.0
  9
$DIMTM
 40
0.0
  9
$DIMTXT
 40
3.5
  9
$DIMCEN
 40
2.5
  9
$DIMTSZ
 40
0.0
  9
$DIMTOL
 70
     0
  9
$DIMLIM
 70
     0
  9
$DIMTIH
 70
     1
  9
$DIMTOH
 70
     1
  9
$DIMSE1
 70
     0
  9
$DIMSE2
 70
     0
  9
$DIMTAD
 70
     1
  9
$DIMZIN
 70
     0
  9
$DIMBLK
  1

  9
$DIMASO
 70
     1
  9
$DIMSHO
 70
     1
  9
$DIMPOST
  1

  9
$DIMAPOST
  1

  9
$DIMALT
 70
     0
  9
$DIMALTD
 70
     3
  9
$DIMALTF
 40
0.0393700787401575
  9
$DIMLFAC
 40
1.0
  9
$DIMTOFL
 70
     1
  9
$DIMTVP
 40
0.0
  9
$DIMTIX
 70
     0
  9
$DIMSOXD
 70
     0
  9
$DIMSAH
 70
     0
  9
$DIMBLK1
  1

  9
$DIMBLK2
  1

  9
$DIMSTYLE
  2
ISO-25
  9
$DIMCLRD
 70
     0
  9
$DIMCLRE
 70
     0
  9
$DIMCLRT
 70
     0
  9
$DIMTFAC
 40
1.0
  9
$DIMGAP
 40
1.524
  9
$DIMJUST
 70
     0
  9
$DIMSD1
 70
     0
  9
$DIMSD2
 70
     0
  9
$DIMTOLJ
 70
     0
  9
$DIMTZIN
 70
     0
  9
$DIMALTZ
 70
     0
  9
$DIMALTTZ
 70
     0
  9
$DIMUPT
 70
     0
  9
$DIMDEC
 70
     2
  9
$DIMTDEC
 70
     2
  9
$DIMALTU
 70
     2
  9
$DIMALTTD
 70
     3
  9
$DIMTXSTY
  7
Standard
  9
$DIMAUNIT
 70
     0
  9
$DIMADEC
 70
     2
  9
$DIMALTRND
 40
0.0
  9
$DIMAZIN
 70
     0
  9
$DIMDSEP
 70
    44
  9
$DIMATFIT
 70
     3
  9
$DIMFRAC
 70
     0
  9
$DIMLDRBLK
  1

  9
$DIMLUNIT
 70
     2
  9
$DIMLWD
 70
    -2
  9
$DIMLWE
 70
    -2
  9
$DIMTMOVE
 70
     0
  9
$LUNITS
 70
     2
  9
$LUPREC
 70
     2
  9
$SKETCHINC
 40
1.0
  9
$FILLETRAD
 40
10.0
  9
$AUNITS
 70
     0
  9
$AUPREC
 70
     2
  9
$MENU
  1
.
  9
$ELEVATION
 40
0.0
  9
$PELEVATION
 40
0.0
  9
$THICKNESS
 40
0.0
  9
$LIMCHECK
 70
     0
  9
$CHAMFERA
 40
0.0
  9
$CHAMFERB
 40
0.0
  9
$CHAMFERC
 40
0.0
  9
$CHAMFERD
 40
0.0
  9
$SKPOLY
 70
     0
  9
$TDCREATE
 40
2458313.388051922
  9
$TDUCREATE
 40
2458313.013051922
  9
$TDUPDATE
 40
2458318.645025613
  9
$TDUUPDATE
 40
2458318.270025613
  9
$TDINDWG
 40
0.0020075579
  9
$TDUSRTIMER
 40
2458318.269953762
  9
$USRTIMER
 70
     1
  9
$ANGBASE
 50
0.0
  9
$ANGDIR
 70
     0
  9
$PDMODE
 70
     0
  9
$PDSIZE
 40
-1.0
  9
$PLINEWID
 40
0.0
  9
$SPLFRAME
 70
     0
  9
$SPLINETYPE
 70
     6
  9
$SPLINESEGS
 70
     8
  9
$HANDSEED
  5
282
  9
$SURFTAB1
 70
     6
  9
$SURFTAB2
 70
     6
  9
$SURFTYPE
 70
     6
  9
$SURFU
 70
     6
  9
$SURFV
 70
     6
  9
$UCSBASE
  2

  9
$UCSNAME
  2

  9
$UCSORG
 10
0.0
 20
0.0
 30
0.0
  9
$UCSXDIR
 10
1.0
 20
0.0
 30
0.0
  9
$UCSYDIR
 10
0.0
 20
1.0
 30
0.0
  9
$UCSORTHOREF
  2

  9
$UCSORTHOVIEW
 70
     0
  9
$UCSORGTOP
 10
0.0
 20
0.0
 30
0.0
  9
$UCSORGBOTTOM
 10
0.0
 20
0.0
 30
0.0
  9
$UCSORGLEFT
 10
0.0
 20
0.0
 30
0.0
  9
$UCSORGRIGHT
 10
0.0
 20
0.0
 30
0.0
  9
$UCSORGFRONT
 10
0.0
 20
0.0
 30
0.0
  9
$UCSORGBACK
 10
0.0
 20
0.0
 30
0.0
  9
$PUCSBASE
  2

  9
$PUCSNAME
  2

  9
$PUCSORG
 10
0.0
 20
0.0
 30
0.0
  9
$PUCSXDIR
 10
1.0
 20
0.0
 30
0.0
  9
$PUCSYDIR
 10
0.0
 20
1.0
 30
0.0
  9
$PUCSORTHOREF
  2

  9
$PUCSORTHOVIEW
 70
     0
  9
$PUCSORGTOP
 10
0.0
 20
0.0
 30
0.0
  9
$PUCSORGBOTTOM
 10
0.0
 20
0.0
 30
0.0
  9
$PUCSORGLEFT
 10
0.0
 20
0.0
 30
0.0
  9
$PUCSORGRIGHT
 10
0.0
 20
0.0
 30
0.0
  9
$PUCSORGFRONT
 10
0.0
 20
0.0
 30
0.0
  9
$PUCSORGBACK
 10
0.0
 20
0.0
 30
0.0
  9
$USERI1
 70
     0
  9
$USERI2
 70
     0
  9
$USERI3
 70
     0
  9
$USERI4
 70
     0
  9
$USERI5
 70
     0
  9
$USERR1
 40
0.0
  9
$USERR2
 40
0.0
  9
$USERR3
 40
0.0
  9
$USERR4
 40
0.0
  9
$USERR5
 40
0.0
  9
$WORLDVIEW
 70
     1
  9
$SHADEDGE
 70
     3
  9
$SHADEDIF
 70
    70
  9
$TILEMODE
 70
     1
  9
$MAXACTVP
 70
    64
  9
$PINSBASE
 10
0.0
 20
0.0
 30
0.0
  9
$PLIMCHECK
 70
     0
  9
$PEXTMIN
 10
1.000000000000000E+20
 20
1.000000000000000E+20
 30
1.000000000000000E+20
  9
$PEXTMAX
 10
-1.000000000000000E+20
 20
-1.000000000000000E+20
 30
-1.000000000000000E+20
  9
$PLIMMIN
 10
0.0
 20
0.0
  9
$PLIMMAX
 10
0.0
 20
0.0
  9
$UNITMODE
 70
     0
  9
$VISRETAIN
 70
     1
  9
$PLINEGEN
 70
     0
  9
$PSLTSCALE
 70
     1
  9
$TREEDEPTH
 70
  3020
  9
$CMLSTYLE
  2
Standard
  9
$CMLJUST
 70
     0
  9
$CMLSCALE
 40
20.0
  9
$PROXYGRAPHICS
 70
     1
  9
$MEASUREMENT
 70
     1
  9
$CELWEIGHT
370
    -1
  9
$ENDCAPS
280
     0
  9
$JOINSTYLE
280
     0
  9
$LWDISPLAY
290
     1
  9
$INSUNITS
 70
     4
  9
$HYPERLINKBASE
  1

  9
$STYLESHEET
  1

  9
$XEDIT
290
     1
  9
$CEPSNTYPE
380
     0
  9
$PSTYLEMODE
290
     1
  9
$FINGERPRINTGUID
  2
{5CFB937B-EEE4-4E45-B1E1-634D75E21D5F}
  9
$VERSIONGUID
  2
{FAEB1C32-E019-11D5-929B-00C0DF256EC4}
  9
$EXTNAMES
290
     1
  9
$PSVPSCALE
 40
0.0
  9
$OLESTARTUP
290
     0
  0
ENDSEC
  0
SECTION
  2
CLASSES
  0
CLASS
  1
ACDBDICTIONARYWDFLT
  2
AcDbDictionaryWithDefault
  3
ObjectDBX Classes
 90
        0
280
     0
281
     0
  0
CLASS
  1
VISUALSTYLE
  2
AcDbVisualStyle
  3
ObjectDBX Classes
 90
     4095
280
     0
281
     0
  0
CLASS
  1
MATERIAL
  2
AcDbMaterial
  3
ObjectDBX Classes
 90
     1153
280
     0
281
     0
  0
CLASS
  1
SCALE
  2
AcDbScale
  3
ObjectDBX Classes
 90
     1153
280
     0
281
     0
  0
CLASS
  1
SUN
  2
AcDbSun
  3
SCENEOE
 90
     1153
280
     0
281
     0
  0
CLASS
  1
ACDBPLACEHOLDER
  2
AcDbPlaceHolder
  3
ObjectDBX Classes
 90
        0
280
     0
281
     0
  0
CLASS
  1
LAYOUT
  2
AcDbLayout
  3
ObjectDBX Classes
 90
        0
280
     0
281
     0
  0
CLASS
  1
TABLESTYLE
  2
AcDbTableStyle
  3
ObjectDBX Classes
 90
     4095
280
     0
281
     0
  0
CLASS
  1
MLEADERSTYLE
  2
AcDbMLeaderStyle
  3
ACDB_MLEADERSTYLE_CLASS
 90
     4095
280
     0
281
     0
  0
CLASS
  1
RASTERVARIABLES
  2
AcDbRasterVariables
  3
ISM
 90
        0
280
     0
281
     0
  0
ENDSEC
  0
SECTION
  2
TABLES
  0
TABLE
  2
VPORT
  5
8
330
0
100
AcDbSymbolTable
 70
     1
  0
VPORT
  5
29
330
8
100
AcDbSymbolTableRecord
100
AcDbViewportTableRecord
  2
*Active
 70
     0
 10
0.0
 20
0.0
 11
1.0
 21
1.0
 12
27.92987501647747
 22
-11.04527869440589
 13
0.0
 23
0.0
 14
10.0
 24
10.0
 15
10.0
 25
10.0
 16
0.0
 26
0.0
 36
1.0
 17
0.0
 27
0.0
 37
0.0
 40
79.41011853658796
 41
1.782762691853601
 42
50.0
 43
0.0
 44
0.0
 50
0.0
 51
0.0
 71
    16
 72
  2000
 73
     1
 74
     3
 75
     0
 76
     0
 77
     0
 78
     0
281
     0
 65
     1
110
0.0
120
0.0
130
0.0
111
1.0
121
0.0
131
0.0
112
0.0
122
1.0
132
0.0
 79
     0
146
0.0
  0
ENDTAB
  0
TABLE
  2
LTYPE
  5
5
330
0
100
AcDbSymbolTable
 70
     6
  0
LTYPE
  5
14
330
5
100
AcDbSymbolTableRecord
100
AcDbLinetypeTableRecord
  2
ByBlock
 70
     0
  3

 72
    65
 73
     0
 40
0.0
  0
LTYPE
  5
15
330
5
100
AcDbSymbolTableRecord
100
AcDbLinetypeTableRecord
  2
ByLayer
 70
     0
  3

 72
    65
 73
     0
 40
0.0
  0
LTYPE
  5
16
330
5
100
AcDbSymbolTableRecord
100
AcDbLinetypeTableRecord
  2
Continuous
 70
     0
  3
Solid line
 72
    65
 73
     0
 40
0.0
  0
LTYPE
  5
6A
330
5
100
AcDbSymbolTableRecord
100
AcDbLinetypeTableRecord
  2
HIDDEN
 70
     0
  3
Hidden __ __ __ __ __ __ __ __ __ __ __ __ __ __
 72
    65
 73
     2
 40
1.905
 49
1.27
 74
     0
 49
-0.635
 74
     0
  0
LTYPE
  5
6B
330
5
100
AcDbSymbolTableRecord
100
AcDbLinetypeTableRecord
  2
PHANTOM
 70
     0
  3
Phantom ______  __  __  ______  __  __  ______
 72
    65
 73
     6
 40
12.7
 49
6.35
 74
     0
 49
-1.27
 74
     0
 49
1.27
 74
     0
 49
-1.27
 74
     0
 49
1.27
 74
     0
 49
-1.27
 74
     0
  0
LTYPE
  5
6C
330
5
100
AcDbSymbolTableRecord
100
AcDbLinetypeTableRecord
  2
CENTER
 70
     0
  3
Center ____ _ ____ _ ____ _ ____ _ ____ _ ____
 72
    65
 73
     4
 40
10.16
 49
6.35
 74
     0
 49
-1.27
 74
     0
 49
1.27
 74
     0
 49
-1.27
 74
     0
  0
LTYPE
  5
6D
330
5
100
AcDbSymbolTableRecord
100
AcDbLinetypeTableRecord
  2
CENTERX2
 70
     0
  3
Center (2x) ________  __  ________  __  _____
 72
    65
 73
     4
 40
20.32
 49
12.7
 74
     0
 49
-2.54
 74
     0
 49
2.54
 74
     0
 49
-2.54
 74
     0
  0
LTYPE
  5
6E
330
5
100
AcDbSymbolTableRecord
100
AcDbLinetypeTableRecord
  2
DOT2
 70
     0
  3
Dot (.5x) ........................................
 72
    65
 73
     2
 40
0.635
 49
0.0
 74
     0
 49
-0.635
 74
     0
  0
ENDTAB
  0
TABLE
  2
LAYER
  5
2
330
0
100
AcDbSymbolTable
 70
    18
  0
LAYER
  5
10
330
2
100
AcDbSymbolTableRecord
100
AcDbLayerTableRecord
  2
0
 70
     0
 62
     7
  6
Continuous
370
    -3
390
F
  0
LAYER
  5
6F
330
2
100
AcDbSymbolTableRecord
100
AcDbLayerTableRecord
  2
FORMAT
 70
     0
 62
     2
  6
Continuous
370
    -3
390
F
  0
LAYER
  5
70
330
2
100
AcDbSymbolTableRecord
100
AcDbLayerTableRecord
  2
외형선
 70
     0
 62
     4
  6
Continuous
370
    30
390
F
  0
LAYER
  5
71
330
2
100
AcDbSymbolTableRecord
100
AcDbLayerTableRecord
  2
숨은선
 70
     0
 62
     2
  6
HIDDEN
370
    15
390
F
  0
LAYER
  5
72
330
2
100
AcDbSymbolTableRecord
100
AcDbLayerTableRecord
  2
중심선
 70
     0
 62
     1
  6
CENTERX2
370
    -3
390
F
  0
LAYER
  5
73
330
2
100
AcDbSymbolTableRecord
100
AcDbLayerTableRecord
  2
파단선
 70
     0
 62
     4
  6
Continuous
370
    -3
390
F
  0
LAYER
  5
74
330
2
100
AcDbSymbolTableRecord
100
AcDbLayerTableRecord
  2
해칭선
 70
     0
 62
   100
  6
Continuous
370
    -3
390
F
  0
LAYER
  5
75
330
2
100
AcDbSymbolTableRecord
100
AcDbLayerTableRecord
  2
가는실선
 70
     0
 62
     4
  6
Continuous
370
    -3
390
F
  0
LAYER
  5
76
330
2
100
AcDbSymbolTableRecord
100
AcDbLayerTableRecord
  2
치수_보조선
 70
     0
 62
     4
  6
Continuous
370
    -3
390
F
  0
LAYER
  5
77
330
2
100
AcDbSymbolTableRecord
100
AcDbLayerTableRecord
  2
치수문자_일반주서
 70
     0
 62
     7
  6
Continuous
370
    15
390
F
  0
LAYER
  5
78
330
2
100
AcDbSymbolTableRecord
100
AcDbLayerTableRecord
  2
개별주서
 70
     0
 62
   100
  6
Continuous
370
    30
390
F
  0
LAYER
  5
79
330
2
100
AcDbSymbolTableRecord
100
AcDbLayerTableRecord
  2
중간선
 70
     0
 62
     2
  6
Continuous
370
    15
390
F
  0
LAYER
  5
7A
330
2
100
AcDbSymbolTableRecord
100
AcDbLayerTableRecord
  2
윤곽선
 70
     0
 62
     3
  6
Continuous
370
    40
390
F
  0
LAYER
  5
7B
330
2
100
AcDbSymbolTableRecord
100
AcDbLayerTableRecord
  2
중심마크
 70
     0
 62
   100
  6
Continuous
370
    30
390
F
  0
LAYER
  5
7C
330
2
100
AcDbSymbolTableRecord
100
AcDbLayerTableRecord
  2
가상선
 70
     0
 62
     4
  6
PHANTOM
370
    -3
390
F
  0
LAYER
  5
7D
330
2
100
AcDbSymbolTableRecord
100
AcDbLayerTableRecord
  2
특수지정선
 70
     0
 62
     5
  6
CENTERX2
370
    60
390
F
  0
LAYER
  5
7E
330
2
100
AcDbSymbolTableRecord
100
AcDbLayerTableRecord
  2
참조1
 70
     0
 62
    -4
  6
Continuous
370
    -3
390
F
  0
LAYER
  5
159
330
2
100
AcDbSymbolTableRecord
100
AcDbLayerTableRecord
  2
Defpoints
 70
     0
 62
     7
  6
Continuous
290
     0
370
    -3
390
F
  0
ENDTAB
  0
TABLE
  2
STYLE
  5
3
330
0
100
AcDbSymbolTable
 70
     2
  0
STYLE
  5
11
330
3
100
AcDbSymbolTableRecord
100
AcDbTextStyleTableRecord
  2
Standard
 70
     0
 40
0.0
 41
1.0
 50
0.0
 71
     0
 42
3.5
  3
txt
  4

  0
STYLE
  5
94
330
3
100
AcDbSymbolTableRecord
100
AcDbTextStyleTableRecord
  2
SLDTEXTSTYLE0
 70
     0
 40
0.0
 41
0.75
 50
0.0
 71
     0
 42
3.5
  3
TXT
  4

  0
ENDTAB
  0
TABLE
  2
VIEW
  5
6
330
0
100
AcDbSymbolTable
 70
     0
  0
ENDTAB
  0
TABLE
  2
UCS
  5
7
330
0
100
AcDbSymbolTable
 70
     0
  0
ENDTAB
  0
TABLE
  2
APPID
  5
9
330
0
100
AcDbSymbolTable
 70
     2
  0
APPID
  5
12
330
9
100
AcDbSymbolTableRecord
100
AcDbRegAppTableRecord
  2
ACAD
 70
     0
  0
APPID
  5
160
330
9
100
AcDbSymbolTableRecord
100
AcDbRegAppTableRecord
  2
PE_URL
 70
     0
  0
ENDTAB
  0
TABLE
  2
DIMSTYLE
  5
A
330
0
100
AcDbSymbolTable
 70
     3
100
AcDbDimStyleTable
  0
DIMSTYLE
105
27
330
A
100
AcDbSymbolTableRecord
100
AcDbDimStyleTableRecord
  2
ISO-25
 70
     0
 41
2.5
 42
0.625
 43
3.75
 44
1.25
 73
     0
 74
     0
 77
     1
 78
     8
140
2.5
141
2.5
143
0.03937007874016
147
0.625
171
     3
172
     1
178
     0
271
     2
272
     2
274
     3
278
    44
283
     0
284
     8
340
11
  0
DIMSTYLE
105
D7
102
{ACAD_REACTORS
330
D6
330
EB
330
FF
330
114
102
}
330
A
100
AcDbSymbolTableRecord
100
AcDbDimStyleTableRecord
  2
SLDDIMSTYLE0
 70
     0
 41
3.302
 44
0.0
 45
0.000000001
 73
     0
 74
     0
 77
     1
 78
    12
 79
     3
140
3.5
143
0.0393700787401575
147
0.875
148
0.000000001
170
     1
172
     1
173
     1
178
     0
271
     2
272
     2
276
     2
284
    12
289
     0
340
94
  0
DIMSTYLE
105
115
330
A
100
AcDbSymbolTableRecord
100
AcDbDimStyleTableRecord
  2
SLDDIMSTYLE1
 70
     0
 41
3.302
 44
0.0
 45
0.000000001
 73
     0
 74
     0
 77
     1
 78
     4
 79
     1
140
3.5
143
0.0393700787401575
147
0.875
148
0.000000001
170
     1
173
     1
178
     0
271
     2
272
     2
276
     2
284
    12
340
94
  0
ENDTAB
  0
TABLE
  2
BLOCK_RECORD
  5
1
330
0
100
AcDbSymbolTable
 70
     9
  0
BLOCK_RECORD
  5
1F
330
1
100
AcDbSymbolTableRecord
100
AcDbBlockTableRecord
  2
*Model_Space
340
22
  0
BLOCK_RECORD
  5
1B
330
1
100
AcDbSymbolTableRecord
100
AcDbBlockTableRecord
  2
*Paper_Space
340
1E
  0
BLOCK_RECORD
  5
23
330
1
100
AcDbSymbolTableRecord
100
AcDbBlockTableRecord
  2
*Paper_Space0
340
26
  0
BLOCK_RECORD
  5
7F
330
1
100
AcDbSymbolTableRecord
100
AcDbBlockTableRecord
  2
블럭10
340
0
102
{BLKREFS
331
CF
102
}
  0
BLOCK_RECORD
  5
D8
330
1
100
AcDbSymbolTableRecord
100
AcDbBlockTableRecord
  2
_D
340
0
  0
BLOCK_RECORD
  5
EC
330
1
100
AcDbSymbolTableRecord
100
AcDbBlockTableRecord
  2
_D_1
340
0
  0
BLOCK_RECORD
  5
100
330
1
100
AcDbSymbolTableRecord
100
AcDbBlockTableRecord
  2
_D_2
340
0
  0
BLOCK_RECORD
  5
116
330
1
100
AcDbSymbolTableRecord
100
AcDbBlockTableRecord
  2
_D_3
340
0
  0
BLOCK_RECORD
  5
12F
330
1
100
AcDbSymbolTableRecord
100
AcDbBlockTableRecord
  2
SW_DOWELSYMBOL_0
340
0
102
{BLKREFS
331
135
102
}
  0
BLOCK_RECORD
  5
192
330
1
100
AcDbSymbolTableRecord
100
AcDbBlockTableRecord
  2
*D7
340
0
  0
BLOCK_RECORD
  5
1A4
330
1
100
AcDbSymbolTableRecord
100
AcDbBlockTableRecord
  2
*D8
340
0
  0
ENDTAB
  0
ENDSEC
  0
SECTION
  2
BLOCKS
  0
BLOCK
  5
20
330
1F
100
AcDbEntity
  8
0
100
AcDbBlockBegin
  2
*Model_Space
 70
     0
 10
0.0
 20
0.0
 30
0.0
  3
*Model_Space
  1
*Model_Space
  0
ENDBLK
  5
21
330
1F
100
AcDbEntity
  8
0
100
AcDbBlockEnd
  0
BLOCK
  5
1C
330
1B
100
AcDbEntity
 67
     1
  8
0
100
AcDbBlockBegin
  2
*Paper_Space
 70
     0
 10
0.0
 20
0.0
 30
0.0
  3
*Paper_Space
  1
*Paper_Space
  0
ENDBLK
  5
1D
330
1B
100
AcDbEntity
 67
     1
  8
0
100
AcDbBlockEnd
  0
BLOCK
  5
24
330
23
100
AcDbEntity
  8
0
100
AcDbBlockBegin
  2
*Paper_Space0
 70
     0
 10
0.0
 20
0.0
 30
0.0
  3
*Paper_Space0
  1
*Paper_Space0
  0
ENDBLK
  5
25
330
23
100
AcDbEntity
  8
0
100
AcDbBlockEnd
  0
BLOCK
  5
80
330
7F
100
AcDbEntity
  8
0
100
AcDbBlockBegin
  2
블럭10
 70
     2
 10
0.0
 20
0.0
 30
0.0
  3
블럭10
  1
블럭10
  0
ELLIPSE
  5
82
330
7F
100
AcDbEntity
  8
중심선
100
AcDbEllipse
 10
20.54032771741204
 20
12.0471743016438
 30
0.0
 11
6.600054785286829
 21
-1.261213355974178E-13
 31
0.0
210
0.0
220
0.0
230
1.0
 40
0.636358354079598
 41
0.9219305317359503
 42
6.513795318482858
  0
ELLIPSE
  5
83
330
7F
100
AcDbEntity
  8
중심선
100
AcDbEllipse
 10
20.54032771746488
 20
12.04717430159265
 30
0.0
 11
3.960054785062283
 21
1.540847449632565E-10
 31
0.0
210
0.0
220
0.0
230
1.0
 40
0.3939339440162632
 41
1.131841032648279
 42
5.62031148352944
  0
LINE
  5
84
330
7F
100
AcDbEntity
  8
중심선
100
AcDbLine
 10
2.268634060543552
 20
16.24717430164393
 30
0.0
 11
5.714909304380834
 21
16.24717430164393
 31
0.0
  0
LINE
  5
85
330
7F
100
AcDbEntity
  8
중심선
100
AcDbLine
 10
5.245725140726316
 20
7.84717430164391
 30
0.0
 11
8.692000384563599
 21
7.84717430164391
 31
0.0
  0
LINE
  5
86
330
7F
100
AcDbEntity
  8
중심선
100
AcDbLine
 10
15.74043728645272
 20
16.24717430164393
 30
0.0
 11
8.692000384563599
 21
7.84717430164391
 31
0.0
  0
LINE
  5
87
330
7F
100
AcDbEntity
  8
중심선
100
AcDbLine
 10
0.1404042013395286
 20
13.71084872107135
 30
0.0
 11
3.58671253028996
 21
13.71088815037384
 31
0.0
  0
LINE
  5
88
330
7F
100
AcDbEntity
  8
중심선
100
AcDbLine
 10
2.750260043222114
 20
10.84717430164391
 30
0.0
 11
6.196535287059397
 21
10.84717430164391
 31
0.0
  0
LINE
  5
89
330
7F
100
AcDbEntity
  8
중심선
100
AcDbLine
 10
12.29416204261559
 20
16.24717430164393
 30
0.0
 11
5.245725140726316
 21
7.84717430164391
 31
0.0
  0
LINE
  5
8A
330
7F
100
AcDbEntity
  8
중심선
100
AcDbLine
 10
10.72767329541681
 20
16.24717430164393
 30
0.0
 11
6.196535287059397
 21
10.84717430164391
 31
0.0
  0
LINE
  5
8B
330
7F
100
AcDbEntity
  8
중심선
100
AcDbLine
 10
7.28139805157953
 20
16.24717430164393
 30
0.0
 11
2.750260043222114
 21
10.84717430164391
 31
0.0
  0
LINE
  5
8C
330
7F
100
AcDbEntity
  8
중심선
100
AcDbLine
 10
5.714909304380834
 20
16.24717430164393
 30
0.0
 11
3.58671253028996
 21
13.71088815037384
 31
0.0
  0
LINE
  5
8D
330
7F
100
AcDbEntity
  8
중심선
100
AcDbLine
 10
2.268634060543552
 20
16.24717430164393
 30
0.0
 11
0.1404042013395286
 21
13.71084872107135
 31
0.0
  0
LINE
  5
8E
330
7F
100
AcDbEntity
  8
중심선
100
AcDbLine
 10
7.28139805157953
 20
16.24717430164393
 30
0.0
 11
10.72767329541681
 21
16.24717430164393
 31
0.0
  0
LINE
  5
8F
330
7F
100
AcDbEntity
  8
중심선
100
AcDbLine
 10
12.29416204261559
 20
16.24717430164393
 30
0.0
 11
15.74043728645272
 21
16.24717430164393
 31
0.0
  0
LINE
  5
90
330
7F
100
AcDbEntity
  8
중심선
100
AcDbLine
 10
19.22036997980202
 20
11.08717430171403
 30
0.0
 11
23.66174974927406
 21
11.08717430171406
 31
0.0
  0
LINE
  5
91
330
7F
100
AcDbEntity
  8
중심선
100
AcDbLine
 10
19.22039502424796
 20
13.00717430171391
 30
0.0
 11
19.22036997980202
 21
11.08717430171403
 31
0.0
  0
LINE
  5
92
330
7F
100
AcDbEntity
  8
중심선
100
AcDbLine
 10
19.22039502424796
 20
13.00717430171391
 30
0.0
 11
26.96566020931264
 21
13.00717430171391
 31
0.0
  0
LINE
  5
93
330
7F
100
AcDbEntity
  8
중심선
100
AcDbLine
 10
22.22332737316547
 20
13.45928029700563
 30
0.0
 11
24.52862924686651
 21
15.39360700705356
 31
0.0
  0
ATTDEF
  5
95
330
7F
100
AcDbEntity
  8
FORMAT
 62
     2
100
AcDbText
 10
4.408487351596664
 20
2.075366912832191
 30
0.0
 40
4.233333333333333
  1
E1001006
 41
0.75
  7
SLDTEXTSTYLE0
 11
4.408487351596664
 21
-0.0412997538344756
 31
0.0
100
AcDbAttributeDefinition
  3

  2
AUTOATTR0
 70
     0
 74
     1
  0
ENDBLK
  5
81
330
7F
100
AcDbEntity
  8
0
100
AcDbBlockEnd
  0
BLOCK
  5
D9
330
D8
100
AcDbEntity
  8
0
100
AcDbBlockBegin
  2
_D
 70
     0
 10
0.0
 20
0.0
 30
0.0
  3
_D
  1
_D
  0
LINE
  5
DB
330
D8
100
AcDbEntity
  8
치수문자_일반주서
 62
     0
370
    -2
100
AcDbLine
 10
-16.44715200723831
 20
2.381249999999997
 30
0.0
 11
-33.40000000000001
 21
2.381249999999934
 31
0.0
  0
LINE
  5
DC
330
D8
100
AcDbEntity
  8
치수문자_일반주서
 62
     0
370
    -2
100
AcDbLine
 10
-16.44715200723831
 20
-2.381250000000001
 30
0.0
 11
-33.4
 21
-2.381250000000065
 31
0.0
  0
LINE
  5
DD
330
D8
100
AcDbEntity
  8
치수문자_일반주서
 62
     0
370
    -2
100
AcDbLine
 10
-33.40000000000001
 20
2.381249999999934
 30
0.0
 11
-33.40000000000008
 21
27.88124999999997
 31
0.0
  0
LINE
  5
DE
330
D8
100
AcDbEntity
  8
치수문자_일반주서
 62
     0
370
    -2
100
AcDbLine
 10
-33.40000000000001
 20
2.381249999999934
 30
0.0
 11
-33.4
 21
-2.381250000000065
 31
0.0
  0
LINE
  5
DF
330
D8
100
AcDbEntity
  8
치수문자_일반주서
 62
     0
370
    -2
100
AcDbLine
 10
-33.40000000000002
 20
4.881249999999934
 30
0.0
 11
-33.40000000000003
 21
7.381249999999934
 31
0.0
  0
LINE
  5
E0
330
D8
100
AcDbEntity
  8
치수문자_일반주서
 62
     0
370
    -2
100
AcDbLine
 10
-33.39999999999999
 20
-4.881250000000065
 30
0.0
 11
-33.39999999999998
 21
-7.381250000000065
 31
0.0
  0
SOLID
  5
E1
330
D8
100
AcDbEntity
  8
치수문자_일반주서
 62
     0
100
AcDbTrace
 10
-33.81666666666668
 20
4.881249999999933
 30
0.0
 11
-32.98333333333336
 21
4.881249999999935
 31
0.0
 12
-33.40000000000001
 22
2.381249999999934
 32
0.0
 13
-33.40000000000001
 23
2.381249999999934
 33
0.0
  0
SOLID
  5
E2
330
D8
100
AcDbEntity
  8
치수문자_일반주서
 62
     0
100
AcDbTrace
 10
-32.98333333333333
 20
-4.881250000000064
 30
0.0
 11
-33.81666666666666
 21
-4.881250000000066
 31
0.0
 12
-33.4
 22
-2.381250000000065
 32
0.0
 13
-33.4
 23
-2.381250000000065
 33
0.0
  0
MTEXT
  5
E3
330
D8
100
AcDbEntity
  8
치수문자_일반주서
 62
     0
100
AcDbMText
 10
-36.77500000000006
 20
17.63124999999996
 30
0.0
 40
2.5
 41
0.0
 71
     2
 72
     1
  1
\A1;%%c4.76 [3/16]
  7
SLDTEXTSTYLE0
 11
-2.983906501879687E-15
 21
1.0
 31
0.0
 73
     1
 44
1.0
  0
POINT
  5
1B8
330
D8
100
AcDbEntity
  8
Defpoints
 62
     0
100
AcDbPoint
 10
-16.38465200723831
 20
2.381249999999997
 30
0.0
  0
POINT
  5
1B9
330
D8
100
AcDbEntity
  8
Defpoints
 62
     0
100
AcDbPoint
 10
-16.38465200723831
 20
-2.381250000000001
 30
0.0
  0
POINT
  5
1BA
330
D8
100
AcDbEntity
  8
Defpoints
 62
     0
100
AcDbPoint
 10
-33.4
 20
-2.381250000000064
 30
0.0
  0
ENDBLK
  5
DA
330
D8
100
AcDbEntity
  8
0
100
AcDbBlockEnd
  0
BLOCK
  5
ED
330
EC
100
AcDbEntity
  8
0
100
AcDbBlockBegin
  2
_D_1
 70
     0
 10
0.0
 20
0.0
 30
0.0
  3
_D_1
  1
_D_1
  0
LINE
  5
EF
330
EC
100
AcDbEntity
  8
치수문자_일반주서
 62
     0
370
    -2
100
AcDbLine
 10
25.4625
 20
-1.189618701882794
 30
0.0
 11
54.42902799190887
 21
-1.189618701882683
 31
0.0
  0
LINE
  5
F0
330
EC
100
AcDbEntity
  8
치수문자_일반주서
 62
     0
370
    -2
100
AcDbLine
 10
25.4625
 20
1.189618701882796
 30
0.0
 11
54.42902799190887
 21
1.189618701882903
 31
0.0
  0
LINE
  5
F1
330
EC
100
AcDbEntity
  8
치수문자_일반주서
 62
     0
370
    -2
100
AcDbLine
 10
54.42902799190887
 20
1.189618701882903
 30
0.0
 11
54.42902799190879
 21
27.3146187018829
 31
0.0
  0
LINE
  5
F2
330
EC
100
AcDbEntity
  8
치수문자_일반주서
 62
     0
370
    -2
100
AcDbLine
 10
54.42902799190887
 20
-1.189618701882683
 30
0.0
 11
54.42902799190887
 21
1.189618701882903
 31
0.0
  0
LINE
  5
F3
330
EC
100
AcDbEntity
  8
치수문자_일반주서
 62
     0
370
    -2
100
AcDbLine
 10
54.42902799190888
 20
-3.689618701882683
 30
0.0
 11
54.42902799190889
 21
-6.189618701882683
 31
0.0
  0
LINE
  5
F4
330
EC
100
AcDbEntity
  8
치수문자_일반주서
 62
     0
370
    -2
100
AcDbLine
 10
54.42902799190886
 20
3.689618701882903
 30
0.0
 11
54.42902799190885
 21
6.189618701882903
 31
0.0
  0
SOLID
  5
F5
330
EC
100
AcDbEntity
  8
치수문자_일반주서
 62
     0
100
AcDbTrace
 10
54.84569465857555
 20
-3.689618701882682
 30
0.0
 11
54.01236132524222
 21
-3.689618701882684
 31
0.0
 12
54.42902799190887
 22
-1.189618701882683
 32
0.0
 13
54.42902799190887
 23
-1.189618701882683
 33
0.0
  0
SOLID
  5
F6
330
EC
100
AcDbEntity
  8
치수문자_일반주서
 62
     0
100
AcDbTrace
 10
54.0123613252422
 20
3.689618701882902
 30
0.0
 11
54.84569465857552
 21
3.689618701882905
 31
0.0
 12
54.42902799190887
 22
1.189618701882903
 32
0.0
 13
54.42902799190887
 23
1.189618701882903
 33
0.0
  0
MTEXT
  5
F7
330
EC
100
AcDbEntity
  8
치수문자_일반주서
 62
     0
100
AcDbMText
 10
51.05402799190882
 20
16.75211870188289
 30
0.0
 40
2.5
 41
0.0
 71
     2
 72
     1
  1
\A1;%%c2.38 [3/32]
  7
SLDTEXTSTYLE0
 11
-2.986430587529993E-15
 21
1.0
 31
0.0
 73
     1
 44
1.0
  0
POINT
  5
F8
330
EC
100
AcDbEntity
  8
Defpoints
 62
     0
100
AcDbPoint
 10
25.4
 20
-1.189618701882794
 30
0.0
  0
POINT
  5
F9
330
EC
100
AcDbEntity
  8
Defpoints
 62
     0
100
AcDbPoint
 10
25.4
 20
1.189618701882795
 30
0.0
  0
POINT
  5
FA
330
EC
100
AcDbEntity
  8
Defpoints
 62
     0
100
AcDbPoint
 10
54.42902799190887
 20
1.189618701882904
 30
0.0
  0
ENDBLK
  5
EE
330
EC
100
AcDbEntity
  8
0
100
AcDbBlockEnd
  0
BLOCK
  5
101
330
100
100
AcDbEntity
  8
0
100
AcDbBlockBegin
  2
_D_2
 70
     0
 10
0.0
 20
0.0
 30
0.0
  3
_D_2
  1
_D_2
  0
LINE
  5
103
330
100
100
AcDbEntity
  8
치수문자_일반주서
 62
     0
370
    -2
100
AcDbLine
 10
25.4
 20
1.252118701882795
 30
0.0
 11
25.4
 21
10.38125
 31
0.0
  0
LINE
  5
104
330
100
100
AcDbEntity
  8
치수문자_일반주서
 62
     0
370
    -2
100
AcDbLine
 10
21.82812499999999
 20
1.004004861079428
 30
0.0
 11
21.82812499999999
 21
10.38125
 31
0.0
  0
LINE
  5
105
330
100
100
AcDbEntity
  8
치수문자_일반주서
 62
     0
370
    -2
100
AcDbLine
 10
25.4
 20
10.38125
 30
0.0
 11
49.64999999999999
 21
10.38125
 31
0.0
  0
LINE
  5
106
330
100
100
AcDbEntity
  8
치수문자_일반주서
 62
     0
370
    -2
100
AcDbLine
 10
25.4
 20
10.38125
 30
0.0
 11
21.82812499999999
 21
10.38125
 31
0.0
  0
LINE
  5
107
330
100
100
AcDbEntity
  8
치수문자_일반주서
 62
     0
370
    -2
100
AcDbLine
 10
27.9
 20
10.38125
 30
0.0
 11
30.4
 21
10.38125
 31
0.0
  0
LINE
  5
108
330
100
100
AcDbEntity
  8
치수문자_일반주서
 62
     0
370
    -2
100
AcDbLine
 10
19.32812499999999
 20
10.38125
 30
0.0
 11
16.82812499999999
 21
10.38125
 31
0.0
  0
SOLID
  5
109
330
100
100
AcDbEntity
  8
치수문자_일반주서
 62
     0
100
AcDbTrace
 10
27.9
 20
10.79791666666666
 30
0.0
 11
27.9
 21
9.96458333333333
 31
0.0
 12
25.4
 22
10.38125
 32
0.0
 13
25.4
 23
10.38125
 33
0.0
  0
SOLID
  5
10A
330
100
100
AcDbEntity
  8
치수문자_일반주서
 62
     0
100
AcDbTrace
 10
19.32812499999999
 20
9.96458333333333
 30
0.0
 11
19.32812499999999
 21
10.79791666666666
 31
0.0
 12
21.82812499999999
 22
10.38125
 32
0.0
 13
21.82812499999999
 23
10.38125
 33
0.0
  0
MTEXT
  5
10B
330
100
100
AcDbEntity
  8
치수문자_일반주서
 62
     0
100
AcDbMText
 10
40.02499999999999
 20
13.75625
 30
0.0
 40
2.5
 41
0.0
 71
     2
 72
     1
  1
\A1;3.57 [9/64]
  7
SLDTEXTSTYLE0
 73
     1
 44
1.0
  0
POINT
  5
10C
330
100
100
AcDbEntity
  8
Defpoints
 62
     0
100
AcDbPoint
 10
25.4
 20
1.189618701882795
 30
0.0
  0
POINT
  5
10D
330
100
100
AcDbEntity
  8
Defpoints
 62
     0
100
AcDbPoint
 10
21.82812499999999
 20
0.941504861079428
 30
0.0
  0
POINT
  5
10E
330
100
100
AcDbEntity
  8
Defpoints
 62
     0
100
AcDbPoint
 10
21.82812499999999
 20
10.38125
 30
0.0
  0
ENDBLK
  5
102
330
100
100
AcDbEntity
  8
0
100
AcDbBlockEnd
  0
BLOCK
  5
117
330
116
100
AcDbEntity
  8
0
100
AcDbBlockBegin
  2
_D_3
 70
     0
 10
0.0
 20
0.0
 30
0.0
  3
_D_3
  1
_D_3
  0
LINE
  5
119
330
116
100
AcDbEntity
  8
치수문자_일반주서
 62
     0
370
    -2
100
AcDbLine
 10
-25.4
 20
1.252118701882795
 30
0.0
 11
-25.4
 21
18.38125
 31
0.0
  0
LINE
  5
11A
330
116
100
AcDbEntity
  8
치수문자_일반주서
 62
     0
370
    -2
100
AcDbLine
 10
25.4
 20
1.252118701882795
 30
0.0
 11
25.39999999999999
 21
18.38125
 31
0.0
  0
LINE
  5
11B
330
116
100
AcDbEntity
  8
치수문자_일반주서
 62
     0
370
    -2
100
AcDbLine
 10
-22.9
 20
18.38125
 30
0.0
 11
22.89999999999999
 21
18.38125
 31
0.0
  0
SOLID
  5
11C
330
116
100
AcDbEntity
  8
치수문자_일반주서
 62
     0
100
AcDbTrace
 10
-22.9
 20
18.79791666666667
 30
0.0
 11
-22.9
 21
17.96458333333333
 31
0.0
 12
-25.4
 22
18.38125
 32
0.0
 13
-25.4
 23
18.38125
 33
0.0
  0
SOLID
  5
11D
330
116
100
AcDbEntity
  8
치수문자_일반주서
 62
     0
100
AcDbTrace
 10
22.89999999999999
 20
17.96458333333333
 30
0.0
 11
22.89999999999999
 21
18.79791666666667
 31
0.0
 12
25.39999999999999
 22
18.38125
 32
0.0
 13
25.39999999999999
 23
18.38125
 33
0.0
  0
MTEXT
  5
11E
330
116
100
AcDbEntity
  8
치수문자_일반주서
 62
     0
100
AcDbMText
 10
0.0000000000000036
 20
21.75625
 30
0.0
 40
2.5
 41
0.0
 71
     2
 72
     1
  1
\A1;50.8 [2]
  7
SLDTEXTSTYLE0
 73
     1
 44
1.0
  0
POINT
  5
11F
330
116
100
AcDbEntity
  8
Defpoints
 62
     0
100
AcDbPoint
 10
-25.4
 20
1.189618701882795
 30
0.0
  0
POINT
  5
120
330
116
100
AcDbEntity
  8
Defpoints
 62
     0
100
AcDbPoint
 10
25.4
 20
1.189618701882795
 30
0.0
  0
POINT
  5
121
330
116
100
AcDbEntity
  8
Defpoints
 62
     0
100
AcDbPoint
 10
25.4
 20
18.38125
 30
0.0
  0
ENDBLK
  5
118
330
116
100
AcDbEntity
  8
0
100
AcDbBlockEnd
  0
BLOCK
  5
130
330
12F
100
AcDbEntity
  8
0
100
AcDbBlockBegin
  2
SW_DOWELSYMBOL_0
 70
     0
 10
0.0
 20
0.0
 30
0.0
  3
SW_DOWELSYMBOL_0
  1
SW_DOWELSYMBOL_0
  0
CIRCLE
  5
132
330
12F
100
AcDbEntity
  8
해칭선
 62
     0
100
AcDbCircle
 10
0.0
 20
0.0
 30
0.0
 40
3.000000000000001
  0
HATCH
  5
133
330
12F
100
AcDbEntity
  8
0
  6
Continuous
 62
     0
370
     0
100
AcDbHatch
 10
0.0
 20
0.0
 30
0.0
210
0.0
220
0.0
230
1.0
  2
SOLID
 70
     1
 71
     0
 91
        1
 92
        0
 93
        3
 72
     2
 10
0.0
 20
0.0
 40
3.000000000000001
 50
0.0
 51
90.0
 73
     1
 72
     1
 10
0.0
 20
3.000000000000001
 11
0.0
 21
0.0
 72
     1
 10
0.0
 20
0.0
 11
3.000000000000001
 21
0.0
 97
        0
 75
     0
 76
     1
 98
        1
 10
0.0
 20
0.0
  0
HATCH
  5
134
330
12F
100
AcDbEntity
  8
0
  6
Continuous
 62
     0
370
     0
100
AcDbHatch
 10
0.0
 20
0.0
 30
0.0
210
0.0
220
0.0
230
1.0
  2
SOLID
 70
     1
 71
     0
 91
        1
 92
        0
 93
        3
 72
     2
 10
0.0
 20
0.0
 40
3.000000000000001
 50
180.0
 51
270.0000000000007
 73
     1
 72
     1
 10
0.0
 20
-3.000000000000001
 11
0.0
 21
0.0
 72
     1
 10
0.0
 20
0.0
 11
-3.000000000000001
 21
0.0
 97
        0
 75
     0
 76
     1
 98
        1
 10
0.0
 20
0.0
  0
ENDBLK
  5
131
330
12F
100
AcDbEntity
  8
0
100
AcDbBlockEnd
  0
BLOCK
  5
193
330
192
100
AcDbEntity
  8
0
100
AcDbBlockBegin
  2
*D7
 70
     1
 10
0.0
 20
0.0
 30
0.0
  3
*D7
  1
*D7
  0
LINE
  5
195
330
192
100
AcDbEntity
  8
치수문자_일반주서
 62
     0
370
    -2
100
AcDbLine
 10
6.190624999999997
 20
0.1925400622504146
 30
0.0
 11
6.190624999999997
 21
10.11475049495615
 31
0.0
  0
LINE
  5
196
330
192
100
AcDbEntity
  8
치수문자_일반주서
 62
     0
370
    -2
100
AcDbLine
 10
5.0
 20
0.1098011970161281
 30
0.0
 11
5.0
 21
10.11475049495615
 31
0.0
  0
LINE
  5
197
330
192
100
AcDbEntity
  8
치수문자_일반주서
 62
     0
370
    -2
100
AcDbLine
 10
6.190624999999997
 20
10.11475049495615
 30
0.0
 11
29.190625
 21
10.11475049495615
 31
0.0
  0
LINE
  5
198
330
192
100
AcDbEntity
  8
치수문자_일반주서
 62
     0
370
    -2
100
AcDbLine
 10
6.190624999999997
 20
10.11475049495615
 30
0.0
 11
5.0
 21
10.11475049495615
 31
0.0
  0
LINE
  5
199
330
192
100
AcDbEntity
  8
치수문자_일반주서
 62
     0
370
    -2
100
AcDbLine
 10
8.690624999999997
 20
10.11475049495615
 30
0.0
 11
11.190625
 21
10.11475049495615
 31
0.0
  0
LINE
  5
19A
330
192
100
AcDbEntity
  8
치수문자_일반주서
 62
     0
370
    -2
100
AcDbLine
 10
2.5
 20
10.11475049495615
 30
0.0
 11
0.0
 21
10.11475049495615
 31
0.0
  0
SOLID
  5
19B
330
192
100
AcDbEntity
  8
치수문자_일반주서
 62
     0
100
AcDbTrace
 10
8.690624999999997
 20
10.53141716162282
 30
0.0
 11
8.690624999999997
 21
9.698083828289484
 31
0.0
 12
6.190624999999997
 22
10.11475049495615
 32
0.0
 13
6.190624999999997
 23
10.11475049495615
 33
0.0
  0
SOLID
  5
19C
330
192
100
AcDbEntity
  8
치수문자_일반주서
 62
     0
100
AcDbTrace
 10
2.5
 20
9.698083828289484
 30
0.0
 11
2.5
 21
10.53141716162282
 31
0.0
 12
5.0
 22
10.11475049495615
 32
0.0
 13
5.0
 23
10.11475049495615
 33
0.0
  0
MTEXT
  5
19D
330
192
100
AcDbEntity
  8
치수문자_일반주서
 62
     0
100
AcDbMText
 10
20.190625
 20
13.48975049495615
 30
0.0
 40
2.5
 41
0.0
 71
     2
 72
     1
  1
\A1;1.19 [3/64]
  7
SLDTEXTSTYLE0
 73
     1
 44
1.0
  0
POINT
  5
19E
330
192
100
AcDbEntity
  8
Defpoints
 62
     0
100
AcDbPoint
 10
6.190624999999997
 20
0.1300400622504146
 30
0.0
  0
POINT
  5
19F
330
192
100
AcDbEntity
  8
Defpoints
 62
     0
100
AcDbPoint
 10
5.0
 20
0.0473011970161281
 30
0.0
  0
POINT
  5
1A0
330
192
100
AcDbEntity
  8
Defpoints
 62
     0
100
AcDbPoint
 10
5.0
 20
10.11475049495615
 30
0.0
  0
ENDBLK
  5
194
330
192
100
AcDbEntity
  8
0
100
AcDbBlockEnd
  0
BLOCK
  5
1A5
330
1A4
100
AcDbEntity
  8
0
100
AcDbBlockBegin
  2
*D8
 70
     1
 10
0.0
 20
0.0
 30
0.0
  3
*D8
  1
*D8
  0
LINE
  5
1A7
330
1A4
100
AcDbEntity
  8
치수문자_일반주서
 62
     0
370
    -2
100
AcDbLine
 10
58.44671730654973
 20
-15.11378607584776
 30
0.0
 11
58.44671730654973
 21
-5.191575643142022
 31
0.0
  0
LINE
  5
1A8
330
1A4
100
AcDbEntity
  8
치수문자_일반주서
 62
     0
370
    -2
100
AcDbLine
 10
57.25609230654973
 20
-15.19652494108204
 30
0.0
 11
57.25609230654973
 21
-5.191575643142022
 31
0.0
  0
LINE
  5
1A9
330
1A4
100
AcDbEntity
  8
치수문자_일반주서
 62
     0
370
    -2
100
AcDbLine
 10
58.44671730654973
 20
-5.191575643142022
 30
0.0
 11
81.44671730654973
 21
-5.191575643142022
 31
0.0
  0
LINE
  5
1AA
330
1A4
100
AcDbEntity
  8
치수문자_일반주서
 62
     0
370
    -2
100
AcDbLine
 10
58.44671730654973
 20
-5.191575643142022
 30
0.0
 11
57.25609230654973
 21
-5.191575643142022
 31
0.0
  0
LINE
  5
1AB
330
1A4
100
AcDbEntity
  8
치수문자_일반주서
 62
     0
370
    -2
100
AcDbLine
 10
60.94671730654973
 20
-5.191575643142022
 30
0.0
 11
63.44671730654973
 21
-5.191575643142022
 31
0.0
  0
LINE
  5
1AC
330
1A4
100
AcDbEntity
  8
치수문자_일반주서
 62
     0
370
    -2
100
AcDbLine
 10
54.75609230654973
 20
-5.191575643142022
 30
0.0
 11
52.25609230654973
 21
-5.191575643142022
 31
0.0
  0
SOLID
  5
1AD
330
1A4
100
AcDbEntity
  8
치수문자_일반주서
 62
     0
100
AcDbTrace
 10
60.94671730654973
 20
-4.774908976475355
 30
0.0
 11
60.94671730654973
 21
-5.608242309808689
 31
0.0
 12
58.44671730654973
 22
-5.191575643142022
 32
0.0
 13
58.44671730654973
 23
-5.191575643142022
 33
0.0
  0
SOLID
  5
1AE
330
1A4
100
AcDbEntity
  8
치수문자_일반주서
 62
     0
100
AcDbTrace
 10
54.75609230654973
 20
-5.608242309808689
 30
0.0
 11
54.75609230654973
 21
-4.774908976475355
 31
0.0
 12
57.25609230654973
 22
-5.191575643142022
 32
0.0
 13
57.25609230654973
 23
-5.191575643142022
 33
0.0
  0
MTEXT
  5
1AF
330
1A4
100
AcDbEntity
  8
치수문자_일반주서
 62
     0
100
AcDbMText
 10
72.44671730654973
 20
-1.816575643142022
 30
0.0
 40
2.5
 41
0.0
 71
     2
 72
     1
  1
\A1;1.19 [3/64]
  7
SLDTEXTSTYLE0
 73
     1
 44
1.0
  0
POINT
  5
1B0
330
1A4
100
AcDbEntity
  8
Defpoints
 62
     0
100
AcDbPoint
 10
58.44671730654973
 20
-15.17628607584776
 30
0.0
  0
POINT
  5
1B1
330
1A4
100
AcDbEntity
  8
Defpoints
 62
     0
100
AcDbPoint
 10
57.25609230654973
 20
-15.25902494108204
 30
0.0
  0
POINT
  5
1B2
330
1A4
100
AcDbEntity
  8
Defpoints
 62
     0
100
AcDbPoint
 10
57.25609230654973
 20
-5.191575643142022
 30
0.0
  0
ENDBLK
  5
1A6
330
1A4
100
AcDbEntity
  8
0
100
AcDbBlockEnd
  0
ENDSEC
  0
SECTION
  2
ENTITIES
  0
LINE
  5
96
330
1F
100
AcDbEntity
  8
외형선
  6
Continuous
370
    15
100
AcDbLine
 10
16.38465200723831
 20
2.381249999999999
 30
0.0
 11
-16.38465200723831
 21
2.381249999999997
 31
0.0
  0
LINE
  5
97
330
1F
100
AcDbEntity
  8
외형선
  6
Continuous
370
    15
100
AcDbLine
 10
-16.38465200723831
 20
-2.381250000000001
 30
0.0
 11
16.38465200723831
 21
-2.381249999999999
 31
0.0
  0
LINE
  5
98
330
1F
100
AcDbEntity
  8
외형선
  6
Continuous
370
    15
100
AcDbLine
 10
16.38465200723831
 20
-2.38125
 30
0.0
 11
20.82812499999999
 21
-1.190624999999999
 31
0.0
  0
LINE
  5
99
330
1F
100
AcDbEntity
  8
외형선
  6
Continuous
370
    15
100
AcDbLine
 10
20.82812499999999
 20
1.190625000000001
 30
0.0
 11
16.38465200723831
 21
2.38125
 31
0.0
  0
LINE
  5
9C
330
1F
100
AcDbEntity
  8
외형선
  6
Continuous
370
    15
100
AcDbLine
 10
20.93822381721849
 20
1.190625000000001
 30
0.0
 11
20.82812499999999
 21
1.190625000000001
 31
0.0
  0
LINE
  5
9D
330
1F
100
AcDbEntity
  8
외형선
  6
Continuous
370
    15
100
AcDbLine
 10
20.82812499999999
 20
-1.190624999999999
 30
0.0
 11
20.93822381721849
 21
-1.190624999999999
 31
0.0
  0
SPLINE
  5
9E
330
1F
100
AcDbEntity
  8
외형선
  6
Continuous
370
    15
100
AcDbSpline
210
0.0
220
0.0
230
1.0
 70
     8
 71
     3
 72
     9
 73
     5
 74
     0
 42
0.000000001
 43
0.00000001
 40
0.0
 40
0.0
 40
0.0
 40
0.0
 40
0.4223754255560326
 40
1.0
 40
1.0
 40
1.0
 40
1.0
 10
21.79509184389835
 20
0.9382369648747182
 30
0.0
 10
21.67609054376707
 20
0.9347389311819163
 30
0.0
 10
21.3943475896768
 20
0.9264571195964125
 30
0.0
 10
21.10183932318609
 20
0.9326372864607889
 30
0.0
 10
20.93287936023304
 20
0.9362071027158174
 30
0.0
  0
SPLINE
  5
9F
330
1F
100
AcDbEntity
  8
외형선
  6
Continuous
370
    15
100
AcDbSpline
210
0.0
220
0.0
230
1.0
 70
     8
 71
     3
 72
     9
 73
     5
 74
     0
 42
0.000000001
 43
0.00000001
 40
0.0
 40
0.0
 40
0.0
 40
0.0
 40
0.4515038314500787
 40
1.0
 40
1.0
 40
1.0
 40
1.0
 10
20.93826159835668
 20
-0.9361761166665995
 30
0.0
 10
21.06738899575391
 20
-0.9330571938734968
 30
0.0
 10
21.35338301928747
 20
-0.926149339330855
 30
0.0
 10
21.6429134724773
 20
-0.93310777884165
 30
0.0
 10
21.80171981673045
 20
-0.9369244562524074
 30
0.0
  0
LINE
  5
A0
330
1F
100
AcDbEntity
  8
0
  6
Continuous
 62
     1
370
    25
100
AcDbLine
 10
22.31611843011665
 20
0.3050401178375939
 30
0.0
 11
22.01112601591721
 21
0.4561229078880223
 31
0.0
1001
PE_URL
1000

  0
LINE
  5
A1
330
1F
100
AcDbEntity
  8
0
  6
Continuous
 62
     1
370
    25
100
AcDbLine
 10
21.97937715984911
 20
0.9488496649574172
 30
0.0
 11
21.82812500000001
 21
0.9373287583862127
 31
0.0
1001
PE_URL
1000

  0
SPLINE
  5
A2
330
1F
100
AcDbEntity
  8
0
  6
Continuous
 62
     1
370
    25
100
AcDbSpline
210
0.0
220
0.0
230
1.0
 70
     8
 71
     3
 72
    13
 73
     9
 74
     0
 42
0.000000001
 43
0.00000001
 40
0.0
 40
0.0
 40
0.0
 40
0.0
 40
0.2068020957043147
 40
0.3197544607178106
 40
0.4845238165729454
 40
0.6501843953314222
 40
0.7713528923666305
 40
1.0
 40
1.0
 40
1.0
 40
1.0
 10
24.95718673744202
 20
0.8143316958676617
 30
0.0
 10
24.81298362046854
 20
0.8039208612828902
 30
0.0
 10
24.59001881082942
 20
0.78782377683634
 30
0.0
 10
24.255066684711
 20
0.7819499363410083
 30
0.0
 10
23.94857445082115
 20
0.7865820978283278
 30
0.0
 10
23.63804707650085
 20
0.8047932937151585
 30
0.0
 10
23.28157291318893
 20
0.8370017426040186
 30
0.0
 10
23.0372537681808
 20
0.8723904031824593
 30
0.0
 10
22.87756144714071
 20
0.8955212034563511
 30
0.0
1001
PE_URL
1000

  0
SPLINE
  5
A3
330
1F
100
AcDbEntity
  8
0
  6
Continuous
 62
     1
370
    25
100
AcDbSpline
210
0.0
220
0.0
230
1.0
 70
     8
 71
     3
 72
    12
 73
     8
 74
     0
 42
0.000000001
 43
0.00000001
 40
0.0
 40
0.0
 40
0.0
 40
0.0
 40
0.3495957095277336
 40
0.6068741142081597
 40
0.7939267940327039
 40
0.962577614315199
 40
1.0
 40
1.0
 40
1.0
 40
1.0
 10
22.87756144714071
 20
-0.8955212034563493
 30
0.0
 10
22.98030946743432
 20
-0.8802615865837489
 30
0.0
 10
23.15867296590677
 20
-0.8537719409149686
 30
0.0
 10
23.39313326003447
 20
-0.827086657611017
 30
0.0
 10
23.57807767895826
 20
-0.8106831014234722
 30
0.0
 10
23.69586645612621
 20
-0.801811311096514
 30
0.0
 10
23.7570194220653
 20
-0.7985413111228963
 30
0.0
 10
23.76812464977503
 20
-0.7979474871969394
 30
0.0
1001
PE_URL
1000

  0
LINE
  5
A4
330
1F
100
AcDbEntity
  8
0
  6
Continuous
 62
     1
370
    25
100
AcDbLine
 10
21.82812500000001
 20
-0.937328758386211
 30
0.0
 11
21.97937715984911
 21
-0.9488496649574152
 31
0.0
1001
PE_URL
1000

  0
LINE
  5
A5
330
1F
100
AcDbEntity
  8
외형선
  6
Continuous
370
    15
100
AcDbLine
 10
16.38465200723831
 20
2.38125
 30
0.0
 11
16.38465200723831
 21
-2.381249999999999
 31
0.0
  0
LINE
  5
A7
330
1F
100
AcDbEntity
  8
외형선
  6
Continuous
370
    15
100
AcDbLine
 10
20.82812499999999
 20
1.190625000000001
 30
0.0
 11
20.82812499999999
 21
-1.190625
 31
0.0
  0
SPLINE
  5
A9
330
1F
100
AcDbEntity
  8
외형선
  6
Continuous
370
    15
100
AcDbSpline
210
0.0
220
0.0
230
1.0
 70
     8
 71
     3
 72
    10
 73
     6
 74
     0
 42
0.000000001
 43
0.00000001
 40
0.0
 40
0.0
 40
0.0
 40
0.0
 40
0.5
 40
0.5
 40
1.0
 40
1.0
 40
1.0
 40
1.0
 10
21.82812499999999
 20
0.5519891117086603
 30
0.0
 10
21.68134595683121
 20
0.6276743421178034
 30
0.0
 10
21.53203999717638
 20
0.6994990024924826
 30
0.0
 10
21.23286840747367
 20
0.8311935737610578
 30
0.0
 10
21.08676641099484
 20
0.8905716709490556
 30
0.0
 10
20.93832726014166
 20
0.9429224717085237
 30
0.0
  0
LINE
  5
AA
330
1F
100
AcDbEntity
  8
외형선
  6
Continuous
370
    15
100
AcDbLine
 10
21.82812499999999
 20
0.5519891117086602
 30
0.0
 11
21.82812499999999
 21
0.2391660647167766
 31
0.0
  0
SPLINE
  5
AB
330
1F
100
AcDbEntity
  8
외형선
  6
Continuous
370
    15
100
AcDbSpline
210
0.0
220
0.0
230
1.0
 70
     8
 71
     3
 72
    10
 73
     6
 74
     0
 42
0.000000001
 43
0.00000001
 40
0.0
 40
0.0
 40
0.0
 40
0.0
 40
0.5
 40
0.5
 40
1.0
 40
1.0
 40
1.0
 40
1.0
 10
21.82812499999999
 20
0.2391660647167766
 30
0.0
 10
21.68132890922506
 20
0.3228545323602227
 30
0.0
 10
21.5320050909403
 20
0.4051607130690008
 30
0.0
 10
21.23279907219244
 20
0.5622707239646294
 30
0.0
 10
21.08668138552459
 20
0.6364476629412267
 30
0.0
 10
20.93822381721849
 20
0.7055212136860916
 30
0.0
  0
LINE
  5
AC
330
1F
100
AcDbEntity
  8
외형선
  6
Continuous
370
    15
100
AcDbLine
 10
21.18913387978611
 20
-0.8438772715276162
 30
0.0
 11
20.93832726014166
 21
-0.942922471708522
 31
0.0
  0
LINE
  5
AD
330
1F
100
AcDbEntity
  8
외형선
  6
Continuous
370
    15
100
AcDbLine
 10
20.93822381721849
 20
0.9429536267233843
 30
0.0
 11
20.93822381721849
 21
1.190625000000001
 31
0.0
  0
LINE
  5
AE
330
1F
100
AcDbEntity
  8
외형선
  6
Continuous
370
    15
100
AcDbLine
 10
20.93822381721849
 20
-1.190624999999999
 30
0.0
 11
20.93822381721849
 21
0.7058488310932469
 31
0.0
  0
SPLINE
  5
AF
330
1F
100
AcDbEntity
  8
외형선
  6
Continuous
370
    15
100
AcDbSpline
210
0.0
220
0.0
230
1.0
 70
    24
 71
     3
 72
    11
 73
     7
 74
     0
 42
0.000000001
 43
0.00000001
 40
0.0
 40
0.0
 40
0.0
 40
0.0
 40
0.192571627184389
 40
0.4515656188640235
 40
0.7180704538478813
 40
1.0
 40
1.0
 40
1.0
 40
1.0
 10
21.82812499999999
 20
0.2392391410413001
 30
0.0
 10
21.82812499999999
 20
0.2382639256911327
 30
0.0
 10
21.82812499999999
 20
0.2359771208821232
 30
0.0
 10
21.82812499999999
 20
0.2164276177528761
 30
0.0
 10
21.82812499999999
 20
0.1839084952125506
 30
0.0
 10
21.82812499999999
 20
0.1507564648836137
 30
0.0
 10
21.82812499999999
 20
0.1337142494679812
 30
0.0
  0
SPLINE
  5
B0
330
1F
100
AcDbEntity
  8
외형선
  6
Continuous
370
    15
100
AcDbSpline
210
0.0
220
0.0
230
1.0
 70
     8
 71
     3
 72
    10
 73
     6
 74
     0
 42
0.000000001
 43
0.00000001
 40
0.0
 40
0.0
 40
0.0
 40
0.0
 40
0.5
 40
0.5
 40
1.0
 40
1.0
 40
1.0
 40
1.0
 10
21.82812500000001
 20
0.1337142494669119
 30
0.0
 10
21.68133301732899
 20
0.1927387895104256
 30
0.0
 10
21.53201350259859
 20
0.2510604708124544
 30
0.0
 10
21.23281578047234
 20
0.3629516343467416
 30
0.0
 10
21.08670187492226
 20
0.4160711562600167
 30
0.0
 10
20.93824874479791
 20
0.4658428187317558
 30
0.0
  0
LINE
  5
B1
330
1F
100
AcDbEntity
  8
외형선
  6
Continuous
370
    15
100
AcDbLine
 10
21.82812500000001
 20
0.9401613866814017
 30
0.0
 11
21.79528432371895
 21
0.9356239255494825
 31
0.0
  0
SPLINE
  5
B2
330
1F
100
AcDbEntity
  8
외형선
  6
Continuous
370
    15
100
AcDbSpline
210
0.0
220
0.0
230
1.0
 70
    24
 71
     3
 72
    10
 73
     6
 74
     0
 42
0.000000001
 43
0.00000001
 40
0.0
 40
0.0
 40
0.0
 40
0.0
 40
0.5000000000000001
 40
0.5000000000000001
 40
1.0
 40
1.0
 40
1.0
 40
1.0
 10
21.82812500000016
 20
0.9401613866814128
 30
0.0
 10
21.82812500000016
 20
0.948477421509979
 30
0.0
 10
21.82812500000016
 20
0.9167337649432892
 30
0.0
 10
21.82812500000016
 20
0.7706996854328176
 30
0.0
 10
21.82812500000016
 20
0.6570378502559828
 30
0.0
 10
21.82812500000016
 20
0.5223834823756499
 30
0.0
  0
SPLINE
  5
B3
330
1F
100
AcDbEntity
  8
외형선
  6
Continuous
370
    15
100
AcDbSpline
210
0.0
220
0.0
230
1.0
 70
     8
 71
     3
 72
    10
 73
     6
 74
     0
 42
0.000000001
 43
0.00000001
 40
0.0
 40
0.0
 40
0.0
 40
0.0
 40
0.5
 40
0.5
 40
1.0
 40
1.0
 40
1.0
 40
1.0
 10
21.82812500000001
 20
-0.9401613866814003
 30
0.0
 10
21.68133513561856
 20
-0.9291969703224315
 30
0.0
 10
21.53201783995638
 20
-0.9108569481762591
 30
0.0
 10
21.2328243958817
 20
-0.8601908814378075
 30
0.0
 10
21.08671243998484
 20
-0.8281643819026562
 30
0.0
 10
20.93826159835668
 20
-0.7898230643574569
 30
0.0
  0
SPLINE
  5
B4
330
1F
100
AcDbEntity
  8
외형선
  6
Continuous
370
    15
100
AcDbSpline
210
0.0
220
0.0
230
1.0
 70
    24
 71
     3
 72
    10
 73
     6
 74
     0
 42
0.000000001
 43
0.00000001
 40
0.0
 40
0.0
 40
0.0
 40
0.0
 40
0.5
 40
0.5
 40
1.0
 40
1.0
 40
1.0
 40
1.0
 10
21.82812499999999
 20
0.1337142494669192
 30
0.0
 10
21.82812499999999
 20
-0.0769269792038987
 30
0.0
 10
21.82812499999999
 20
-0.2986482555155117
 30
0.0
 10
21.82812499999999
 20
-0.6803655786559926
 30
0.0
 10
21.82812499999999
 20
-0.8374040467410082
 30
0.0
 10
21.82812499999999
 20
-0.9401613866813987
 30
0.0
  0
SPLINE
  5
B5
330
1F
100
AcDbEntity
  8
0
  6
Continuous
 62
     1
370
    25
100
AcDbSpline
210
0.0
220
0.0
230
1.0
 70
     8
 71
     3
 72
    22
 73
    18
 74
     0
 42
0.000000001
 43
0.00000001
 40
0.0
 40
0.0
 40
0.0
 40
0.0
 40
0.125
 40
0.125
 40
0.25
 40
0.25
 40
0.375
 40
0.375
 40
0.5
 40
0.5
 40
0.625
 40
0.625
 40
0.75
 40
0.75
 40
0.875
 40
0.875
 40
1.0
 40
1.0
 40
1.0
 40
1.0
 10
25.4
 20
-1.12983272242923
 30
0.0
 10
25.25344827964022
 20
-1.10286726840492
 30
0.0
 10
25.10269158174371
 20
-1.066807360887058
 30
0.0
 10
24.80318601338328
 20
-0.9786422253256454
 30
0.0
 10
24.65719384075263
 20
-0.9269575117520473
 30
0.0
 10
24.35914132496846
 20
-0.8093036210463492
 30
0.0
 10
24.20791050516702
 20
-0.7433264642967184
 30
0.0
 10
23.91156448742786
 20
-0.6017332400014701
 30
0.0
 10
23.76430231857497
 20
-0.5258480320978703
 30
0.0
 10
23.46440942308541
 20
-0.3661207209805025
 30
0.0
 10
23.3163818089374
 20
-0.2830992949743223
 30
0.0
 10
23.02083088095099
 20
-0.1140652544040261
 30
0.0
 10
22.8696762358482
 20
-0.0273495681583994
 30
0.0
 10
22.57111611794799
 20
0.1444563071534156
 30
0.0
 10
22.42532797776597
 20
0.2292364854287521
 30
0.0
 10
22.12611808005312
 20
0.3953482431923003
 30
0.0
 10
21.9751754567638
 20
0.4761639294369568
 30
0.0
 10
21.82812500000004
 20
0.5519891117086368
 30
0.0
1001
PE_URL
1000

  0
SPLINE
  5
B6
330
1F
100
AcDbEntity
  8
0
  6
Continuous
 62
     1
370
    25
100
AcDbSpline
210
0.0
220
0.0
230
1.0
 70
     8
 71
     3
 72
    13
 73
     9
 74
     0
 42
0.000000001
 43
0.00000001
 40
0.0
 40
0.0
 40
0.0
 40
0.0
 40
0.1805778673467823
 40
0.3606388337246683
 40
0.5406053631330016
 40
0.7209026786174183
 40
0.9016593602340981
 40
1.0
 40
1.0
 40
1.0
 40
1.0
 10
25.4
 20
-0.9393701022634066
 30
0.0
 10
25.21368182961523
 20
-0.8987600341547334
 30
0.0
 10
24.84157882133104
 20
-0.8176561435430123
 30
0.0
 10
24.28414218321831
 20
-0.6180265705748086
 30
0.0
 10
23.7270023290172
 20
-0.3780985617395824
 30
0.0
 10
23.16902317521914
 20
-0.1103120408991912
 30
0.0
 10
22.6948592373591
 20
0.1262208271474246
 30
0.0
 10
22.40702864949515
 20
0.2596526893012583
 30
0.0
 10
22.30561082142528
 20
0.3066677399092738
 30
0.0
1001
PE_URL
1000

  0
LINE
  5
B7
330
1F
100
AcDbEntity
  8
0
  6
Continuous
 62
     1
370
    25
100
AcDbLine
 10
25.4
 20
-1.12983272242923
 30
0.0
 11
25.4
 21
-0.9393701022634066
 31
0.0
1001
PE_URL
1000

  0
SPLINE
  5
B8
330
1F
100
AcDbEntity
  8
0
  6
Continuous
 62
     1
370
    25
100
AcDbSpline
210
0.0
220
0.0
230
1.0
 70
     8
 71
     3
 72
    22
 73
    18
 74
     0
 42
0.000000001
 43
0.00000001
 40
0.0
 40
0.0
 40
0.0
 40
0.0
 40
0.1249999999999999
 40
0.1249999999999999
 40
0.2499999999999999
 40
0.2499999999999999
 40
0.3749999999999998
 40
0.3749999999999998
 40
0.4999999999999998
 40
0.4999999999999998
 40
0.6249999999999998
 40
0.6249999999999998
 40
0.7499999999999997
 40
0.7499999999999997
 40
0.8749999999999998
 40
0.8749999999999998
 40
1.0
 40
1.0
 40
1.0
 40
1.0
 10
25.4
 20
-1.189618701882794
 30
0.0
 10
25.25344827964022
 20
-1.186104952825523
 30
0.0
 10
25.10269158174371
 20
-1.173251345472001
 30
0.0
 10
24.80318601338328
 20
-1.129365932950558
 30
0.0
 10
24.65719384075261
 20
-1.09863294936555
 30
0.0
 10
24.35914132496845
 20
-1.020174662606621
 30
0.0
 10
24.207910505167
 20
-0.9723767720711651
 30
0.0
 10
23.91156448742784
 20
-0.8630588591604678
 30
0.0
 10
23.76430231857495
 20
-0.8013720436076824
 30
0.0
 10
23.46440942308539
 20
-0.6656788009752236
 30
0.0
 10
23.31638180893738
 20
-0.5923616314318836
 30
0.0
 10
23.02083088095096
 20
-0.4377990003556088
 30
0.0
 10
22.86967623584817
 20
-0.355883843586339
 30
0.0
 10
22.57111611794796
 20
-0.1884239064814493
 30
0.0
 10
22.42532797776593
 20
-0.1032293149813987
 30
0.0
 10
22.12611808005309
 20
0.0688914041529969
 30
0.0
 10
21.97517545676376
 20
0.1553325829948645
 30
0.0
 10
21.82812499999999
 20
0.2391660647167761
 30
0.0
1001
PE_URL
1000

  0
SPLINE
  5
B9
330
1F
100
AcDbEntity
  8
0
  6
Continuous
 62
     1
370
    25
100
AcDbSpline
210
0.0
220
0.0
230
1.0
 70
     8
 71
     3
 72
     9
 73
     5
 74
     0
 42
0.000000001
 43
0.00000001
 40
0.0
 40
0.0
 40
0.0
 40
0.0
 40
0.6341369689330163
 40
1.0
 40
1.0
 40
1.0
 40
1.0
 10
22.44062103330048
 20
-0.1123769025145788
 30
0.0
 10
22.31110889977167
 20
-0.0603845357094541
 30
0.0
 10
22.10687520914373
 20
0.0216046391096798
 30
0.0
 10
21.90279163501993
 20
0.1036843263164229
 30
0.0
 10
21.82812500000001
 20
0.1337142494669119
 30
0.0
1001
PE_URL
1000

  0
SPLINE
  5
BA
330
1F
100
AcDbEntity
  8
외형선
  6
Continuous
370
    15
100
AcDbSpline
210
0.0
220
0.0
230
1.0
 70
    24
 71
     3
 72
    11
 73
     7
 74
     0
 42
0.000000001
 43
0.00000001
 40
0.0
 40
0.0
 40
0.0
 40
0.0
 40
0.1870320795747528
 40
0.4478029589583908
 40
0.7161362115100416
 40
1.0
 40
1.0
 40
1.0
 40
1.0
 10
21.82812499999999
 20
0.2390712235225928
 30
0.0
 10
21.82812499999999
 20
0.2381191736226971
 30
0.0
 10
21.82812499999999
 20
0.2358397210110452
 30
0.0
 10
21.82812499999999
 20
0.2164126102402881
 30
0.0
 10
21.82812499999999
 20
0.183912548783342
 30
0.0
 10
21.82812499999999
 20
0.1507578411733776
 30
0.0
 10
21.82812499999999
 20
0.133714249467981
 30
0.0
  0
LINE
  5
BB
330
1F
100
AcDbEntity
  8
0
  6
Continuous
 62
     1
370
    25
100
AcDbLine
 10
25.4
 20
-1.189618701882794
 30
0.0
 11
25.4
 21
-1.12983272242923
 31
0.0
1001
PE_URL
1000

  0
SPLINE
  5
BC
330
1F
100
AcDbEntity
  8
0
  6
Continuous
 62
     1
370
    25
100
AcDbSpline
210
0.0
220
0.0
230
1.0
 70
     8
 71
     3
 72
     8
 73
     4
 74
     0
 42
0.000000001
 43
0.00000001
 40
0.0
 40
0.0
 40
0.0
 40
0.0
 40
1.0
 40
1.0
 40
1.0
 40
1.0
 10
24.66311867067986
 20
0.3332246836425589
 30
0.0
 10
24.62085961301169
 20
0.3832476977117842
 30
0.0
 10
24.58314615656603
 20
0.4314055764532038
 30
0.0
 10
24.55104480894121
 20
0.4772607141681026
 30
0.0
1001
PE_URL
1000

  0
LINE
  5
BD
330
1F
100
AcDbEntity
  8
0
  6
Continuous
 62
     1
370
    25
100
AcDbLine
 10
24.56614158570375
 20
0.4899284139927388
 30
0.0
 11
25.4
 21
0.0000000000000014
 31
0.0
1001
PE_URL
1000

  0
LINE
  5
BE
330
1F
100
AcDbEntity
  8
0
  6
Continuous
 62
     1
370
    25
100
AcDbLine
 10
25.4
 20
0.0000000000000014
 30
0.0
 11
25.4
 21
-0.3181861326165445
 31
0.0
1001
PE_URL
1000

  0
SPLINE
  5
BF
330
1F
100
AcDbEntity
  8
0
  6
Continuous
 62
     1
370
    25
100
AcDbSpline
210
0.0
220
0.0
230
1.0
 70
     8
 71
     3
 72
    10
 73
     6
 74
     0
 42
0.000000001
 43
0.00000001
 40
0.0
 40
0.0
 40
0.0
 40
0.0
 40
0.5
 40
0.5
 40
1.0
 40
1.0
 40
1.0
 40
1.0
 10
25.4
 20
-0.3181861326165444
 30
0.0
 10
25.27244037202743
 20
-0.2179006366655506
 30
0.0
 10
25.14701330534631
 20
-0.1135000420721155
 30
0.0
 10
24.90052308936824
 20
0.1037219838688965
 30
0.0
 10
24.77830137272724
 20
0.2176860461589318
 30
0.0
 10
24.66311867067876
 20
0.3332246836399438
 30
0.0
1001
PE_URL
1000

  0
SPLINE
  5
C0
330
1F
100
AcDbEntity
  8
0
  6
Continuous
 62
     1
370
    25
100
AcDbSpline
210
0.0
220
0.0
230
1.0
 70
     8
 71
     3
 72
    13
 73
     9
 74
     0
 42
0.000000001
 43
0.00000001
 40
0.0
 40
0.0
 40
0.0
 40
0.0
 40
0.1412708559627071
 40
0.3487635817757765
 40
0.5566429171671813
 40
0.7650593969054589
 40
0.9728703208415745
 40
1.0
 40
1.0
 40
1.0
 40
1.0
 10
24.66311867057333
 20
0.3332246836890662
 30
0.0
 10
24.53675156362858
 20
0.3867202599394396
 30
0.0
 10
24.22478173420866
 20
0.5187879015991219
 30
0.0
 10
23.72698162240979
 20
0.6991249993834238
 30
0.0
 10
23.16895948882546
 20
0.8518396722560647
 30
0.0
 10
22.61036377440905
 20
0.9397677250468575
 30
0.0
 10
22.21367831379365
 20
0.9600912594084675
 30
0.0
 10
22.00364541190542
 20
0.94890258100461
 30
0.0
 10
21.97939194032202
 20
0.9476105725083976
 30
0.0
1001
PE_URL
1000

  0
SPLINE
  5
C1
330
1F
100
AcDbEntity
  8
0
  6
Continuous
 62
     1
370
    25
100
AcDbSpline
210
0.0
220
0.0
230
1.0
 70
    24
 71
     3
 72
    10
 73
     6
 74
     0
 42
0.000000001
 43
0.00000001
 40
0.0
 40
0.0
 40
0.0
 40
0.0
 40
0.5
 40
0.5
 40
1.0
 40
1.0
 40
1.0
 40
1.0
 10
25.4
 20
-0.9393701022634062
 30
0.0
 10
25.4
 20
-0.8673600600326542
 30
0.0
 10
25.4
 20
-0.7763726105261383
 30
0.0
 10
25.39999999999998
 20
-0.5648355469887772
 30
0.0
 10
25.4
 20
-0.4444691743829645
 30
0.0
 10
25.4
 20
-0.3181861326165825
 30
0.0
1001
PE_URL
1000

  0
SPLINE
  5
C2
330
1F
100
AcDbEntity
  8
외형선
  6
Continuous
370
    15
100
AcDbSpline
210
0.0
220
0.0
230
1.0
 70
    24
 71
     3
 72
    12
 73
     8
 74
     0
 42
0.000000001
 43
0.00000001
 40
0.0
 40
0.0
 40
0.0
 40
0.0
 40
0.1406803347632656
 40
0.3643690878391922
 40
0.5945448299080732
 40
0.794963219886256
 40
1.0
 40
1.0
 40
1.0
 40
1.0
 10
21.82812499999999
 20
0.9365757713074826
 30
0.0
 10
21.82812499999999
 20
0.9318198189043431
 30
0.0
 10
21.82812499999999
 20
0.9195016648293283
 30
0.0
 10
21.82812499999999
 20
0.8665558492734674
 30
0.0
 10
21.82812499999999
 20
0.7767170049494175
 30
0.0
 10
21.82812499999999
 20
0.6616569941415917
 30
0.0
 10
21.82812499999999
 20
0.5691591890791211
 30
0.0
 10
21.82812499999999
 20
0.5223834823757199
 30
0.0
  0
SPLINE
  5
C3
330
1F
100
AcDbEntity
  8
0
  6
Continuous
 62
     1
370
    25
100
AcDbSpline
210
0.0
220
0.0
230
1.0
 70
    24
 71
     3
 72
     8
 73
     4
 74
     0
 42
0.000000001
 43
0.00000001
 40
0.0
 40
0.0
 40
0.0
 40
0.0
 40
1.0
 40
1.0
 40
1.0
 40
1.0
 10
24.67532161587649
 20
0.5815413370426155
 30
0.0
 10
24.63600547470794
 20
0.5485511774887699
 30
0.0
 10
24.59439779872906
 20
0.5136381919207434
 30
0.0
 10
24.55104480893628
 20
0.4772607141751747
 30
0.0
1001
PE_URL
1000

  0
LINE
  5
C4
330
1F
100
AcDbEntity
  8
0
  6
Continuous
 62
     1
370
    25
100
AcDbLine
 10
25.4
 20
0.8334375000000007
 30
0.0
 11
24.95583324264847
 21
0.809321293983226
 31
0.0
1001
PE_URL
1000

  0
SPLINE
  5
C5
330
1F
100
AcDbEntity
  8
0
  6
Continuous
 62
     1
370
    25
100
AcDbSpline
210
0.0
220
0.0
230
1.0
 70
     8
 71
     3
 72
     8
 73
     4
 74
     0
 42
0.000000001
 43
0.00000001
 40
0.0
 40
0.0
 40
0.0
 40
0.0
 40
1.0
 40
1.0
 40
1.0
 40
1.0
 10
25.4
 20
0.8334375000000013
 30
0.0
 10
25.15504228035489
 20
0.7668589216073751
 30
0.0
 10
24.91249971255387
 20
0.685040911070115
 30
0.0
 10
24.67532161587607
 20
0.5815413370428697
 30
0.0
1001
PE_URL
1000

  0
SPLINE
  5
C6
330
1F
100
AcDbEntity
  8
0
  6
Continuous
 62
     1
370
    25
100
AcDbSpline
210
0.0
220
0.0
230
1.0
 70
     8
 71
     3
 72
    10
 73
     6
 74
     0
 42
0.000000001
 43
0.00000001
 40
0.0
 40
0.0
 40
0.0
 40
0.0
 40
0.2575373741951635
 40
0.7871299331898622
 40
1.0
 40
1.0
 40
1.0
 40
1.0
 10
22.88116261756301
 20
-0.8867726134869528
 30
0.0
 10
22.79072335896129
 20
-0.9026701914235072
 30
0.0
 10
22.51430737155991
 20
-0.9512590981722334
 30
0.0
 10
22.16323709341617
 20
-0.9592121777125777
 30
0.0
 10
21.90279567155331
 20
-0.9444063404979517
 30
0.0
 10
21.82812500000001
 20
-0.9401613866814
 30
0.0
1001
PE_URL
1000

  0
SPLINE
  5
C7
330
1F
100
AcDbEntity
  8
외형선
  6
Continuous
370
    15
100
AcDbSpline
210
0.0
220
0.0
230
1.0
 70
    24
 71
     3
 72
    10
 73
     6
 74
     0
 42
0.000000001
 43
0.00000001
 40
0.0
 40
0.0
 40
0.0
 40
0.0
 40
0.5
 40
0.5
 40
1.0
 40
1.0
 40
1.0
 40
1.0
 10
21.82812499999999
 20
0.1337142494669192
 30
0.0
 10
21.82812499999999
 20
-0.0769269792038987
 30
0.0
 10
21.82812499999999
 20
-0.2986482555155117
 30
0.0
 10
21.82812499999999
 20
-0.6803655786559926
 30
0.0
 10
21.82812499999999
 20
-0.8374040467410082
 30
0.0
 10
21.82812499999999
 20
-0.9401613866813987
 30
0.0
  0
LINE
  5
C8
330
1F
100
AcDbEntity
  8
0
  6
Continuous
 62
     1
370
    25
100
AcDbLine
 10
25.4
 20
0.0000000000000014
 30
0.0
 11
25.4
 21
0.8334375000000014
 31
0.0
1001
PE_URL
1000

  0
SPLINE
  5
C9
330
1F
100
AcDbEntity
  8
0
  6
Continuous
 62
     1
370
    25
100
AcDbSpline
210
0.0
220
0.0
230
1.0
 70
     8
 71
     3
 72
    11
 73
     7
 74
     0
 42
0.000000001
 43
0.00000001
 40
0.0
 40
0.0
 40
0.0
 40
0.0
 40
0.0359631142785707
 40
0.3570783540510447
 40
0.6779688931802172
 40
0.9999999999999999
 40
0.9999999999999999
 40
0.9999999999999999
 40
0.9999999999999999
 10
23.770963380808
 20
0.7992882937396383
 30
0.0
 10
23.79050337463275
 20
0.8086157049087905
 30
0.0
 10
23.98451629517852
 20
0.901227724047046
 30
0.0
 10
24.35248088787096
 20
1.021754856929426
 30
0.0
 10
24.87571390761812
 20
1.155963527643115
 30
0.0
 10
25.22503140165619
 20
1.178387050406058
 30
0.0
 10
25.4
 20
1.189618701882795
 30
0.0
1001
PE_URL
1000

  0
SPLINE
  5
CA
330
1F
100
AcDbEntity
  8
0
  6
Continuous
 62
     1
370
    25
100
AcDbSpline
210
0.0
220
0.0
230
1.0
 70
    24
 71
     3
 72
    10
 73
     6
 74
     0
 42
0.000000001
 43
0.00000001
 40
0.0
 40
0.0
 40
0.0
 40
0.0
 40
0.5
 40
0.5
 40
1.0
 40
1.0
 40
1.0
 40
1.0
 10
25.4
 20
0.8334375000000008
 30
0.0
 10
25.4
 20
0.8839584057612089
 30
0.0
 10
25.39999999999998
 20
0.9426683769949121
 30
0.0
 10
25.4
 20
1.065841738519019
 30
0.0
 10
25.4
 20
1.129990559501129
 30
0.0
 10
25.4
 20
1.189618701882795
 30
0.0
1001
PE_URL
1000

  0
LINE
  5
CB
330
1F
100
AcDbEntity
  8
중심선
 62
     1
100
AcDbLine
 10
-26.9
 20
-0.0000000000000033
 30
0.0
 11
26.9
 21
0.0000000000000033
 31
0.0
  0
LINE
  5
CC
330
1F
100
AcDbEntity
  8
참조1
100
AcDbLine
 10
-0.000000000000016
 20
-0.0000000000000035
 30
0.0
 11
-0.0000000000000053
 21
-40.00000000000001
 31
0.0
  0
LINE
  5
CD
330
1F
100
AcDbEntity
  8
참조1
100
AcDbLine
 10
-0.0000000000000053
 20
-40.00000000000001
 30
0.0
 11
-18.03759059669924
 21
-39.99999999999999
 31
0.0
  0
CIRCLE
  5
CE
330
1F
100
AcDbEntity
  8
해칭선
100
AcDbCircle
 10
0.0
 20
0.0
 30
0.0
 40
3.000000000000002
  0
INSERT
  5
CF
330
1F
100
AcDbEntity
  8
0
  6
Continuous
 62
     7
100
AcDbBlockReference
 66
     1
  2
블럭10
 10
-13.94027293212521
 20
-52.04717430164393
 30
0.0
  0
ATTRIB
  5
D0
330
CF
100
AcDbEntity
  8
FORMAT
 62
     2
100
AcDbText
 10
-23.12156822086649
 20
-49.97180738881174
 30
0.0
 40
4.233333333333333
  1
E2001006 [ 2 FLUTE ]
 41
0.75
  7
SLDTEXTSTYLE0
 11
-23.12156822086649
 21
-52.08847405547841
 31
0.0
100
AcDbAttribute
  2
AUTOATTR0
 70
     0
 74
     1
  0
SEQEND
  5
D1
330
CF
100
AcDbEntity
  8
0
  6
Continuous
 62
     7
  0
HATCH
  5
D2
330
1F
100
AcDbEntity
  8
중심선
100
AcDbHatch
 10
0.0
 20
0.0
 30
0.0
210
0.0
220
0.0
230
1.0
  2
SOLID
 70
     1
 71
     0
 91
        1
 92
        0
 93
        4
 72
     1
 10
-8.225363627744365
 20
-35.8
 11
-11.67163887158165
 21
-35.8
 72
     1
 10
-11.67163887158165
 20
-35.8
 11
-13.79986873078568
 21
-38.3363255805726
 72
     1
 10
-13.79986873078566
 20
-38.3363255805726
 11
-10.35356040183524
 21
-38.3362861512701
 72
     1
 10
-10.35356040183524
 20
-38.3362861512701
 11
-8.225363627744365
 21
-35.8
 97
        0
 75
     0
 76
     1
 98
        1
 10
11.4223366787305
 20
-0.0010749287238927
  0
HATCH
  5
D3
330
1F
100
AcDbEntity
  8
중심선
100
AcDbHatch
 10
0.0
 20
0.0
 30
0.0
210
0.0
220
0.0
230
1.0
  2
SOLID
 70
     1
 71
     0
 91
        1
 92
        0
 93
        4
 72
     1
 10
-3.212599636708415
 20
-35.8
 11
-6.658874880545696
 21
-35.8
 72
     1
 10
-6.658874880545696
 20
-35.8
 11
-11.19001288890308
 21
-41.20000000000002
 72
     1
 10
-11.19001288890308
 20
-41.20000000000002
 11
-7.743737645065806
 21
-41.20000000000002
 72
     1
 10
-7.743737645065806
 20
-41.20000000000002
 11
-3.212599636708415
 21
-35.8
 97
        0
 75
     0
 76
     1
 98
        1
 10
11.4223366787305
 20
-0.0010749287238927
  0
HATCH
  5
D4
330
1F
100
AcDbEntity
  8
중심선
100
AcDbHatch
 10
0.0
 20
0.0
 30
0.0
210
0.0
220
0.0
230
1.0
  2
SOLID
 70
     1
 71
     0
 91
        1
 92
        0
 93
        4
 72
     1
 10
1.800164354327485
 20
-35.8
 11
-1.646110889509636
 21
-35.8
 72
     1
 10
-1.646110889509636
 20
-35.8
 11
-8.694547791398886
 21
-44.20000000000002
 72
     1
 10
-8.694547791398886
 20
-44.20000000000002
 11
-5.248272547561605
 21
-44.20000000000002
 72
     1
 10
-5.248272547561605
 20
-44.20000000000002
 11
1.800164354327475
 21
-35.8
 97
        0
 75
     0
 76
     1
 98
        1
 10
11.4223366787305
 20
-0.0010749287238927
  0
HATCH
  5
D5
330
1F
100
AcDbEntity
  8
중심선
100
AcDbHatch
 10
0.0
 20
0.0
 30
0.0
210
0.0
220
0.0
230
1.0
  2
SOLID
 70
     1
 71
     0
 91
        1
 92
        0
 93
        6
 72
     3
 10
6.60005478533968
 20
-40.00000000005127
 11
3.960054785062283
 21
1.540882976769353E-10
 40
0.3939339440162628
 50
17.09539180608439
 51
320.0019657685075
 73
     0
 72
     1
 10
8.283054441040274
 20
-38.58789400463827
 11
10.58835631474134
 21
-36.65356729459032
 72
     3
 10
6.600054785286833
 20
-40.00000000000014
 11
6.600054785286829
 21
-1.278976924368180E-13
 40
0.636358354079598
 50
39.99873849337431
 51
368.4976242363724
 73
     1
 72
     1
 10
13.02538727718744
 20
-39.03999999993002
 11
5.280122092122757
 21
-39.03999999993002
 72
     1
 10
5.280122092122756
 20
-39.03999999993002
 11
5.280097047676822
 21
-40.95999999992991
 72
     1
 10
5.280097047676822
 20
-40.95999999992991
 11
9.721476817148858
 21
-40.95999999992988
 97
        0
 75
     0
 76
     1
 98
        1
 10
11.4223366787305
 20
-0.0010749287238927
  0
DIMENSION
  5
D6
330
1F
100
AcDbEntity
  8
치수문자_일반주서
100
AcDbDimension
  2
_D
 10
-33.4
 20
-2.381250000000065
 30
0.0
 11
-33.40000000000006
 21
17.63124999999997
 31
0.0
 70
   160
  1
%%c<>
 71
     2
 42
4.762499999999998
 52
-270.0
  3
SLDDIMSTYLE0
100
AcDbAlignedDimension
 13
-16.38465200723831
 23
2.381249999999997
 33
0.0
 14
-16.38465200723831
 24
-2.381250000000001
 34
0.0
 50
90.0000000000002
100
AcDbRotatedDimension
1001
PE_URL
1000

1001
ACAD
1000
DSTYLE
1002
{
1070
   171
1070
     8
1070
   273
1070
     7
1070
    41
1040
2.5
1070
   140
1040
2.5
1002
}
  0
DIMENSION
  5
EB
330
1F
100
AcDbEntity
  8
치수문자_일반주서
100
AcDbDimension
  2
_D_1
 10
54.42902799190887
 20
1.189618701882903
 30
0.0
 11
54.42902799190882
 21
16.7521187018829
 31
0.0
 70
   160
  1
%%c<>
 71
     2
 42
2.379237403765589
 52
-270.0
  3
SLDDIMSTYLE0
100
AcDbAlignedDimension
 13
25.4
 23
-1.189618701882794
 33
0.0
 14
25.4
 24
1.189618701882795
 34
0.0
 50
90.0000000000002
100
AcDbRotatedDimension
1001
PE_URL
1000

1001
ACAD
1000
DSTYLE
1002
{
1070
   171
1070
     8
1070
   273
1070
     7
1070
    41
1040
2.5
1070
   140
1040
2.5
1002
}
  0
DIMENSION
  5
FF
330
1F
100
AcDbEntity
  8
치수문자_일반주서
100
AcDbDimension
  2
_D_2
 10
21.82812499999999
 20
10.38125
 30
0.0
 11
40.02499999999999
 21
10.38125
 31
0.0
 70
   160
  1
<>
 71
     2
 42
3.571875000000002
  3
SLDDIMSTYLE0
100
AcDbAlignedDimension
 13
25.4
 23
1.189618701882795
 33
0.0
 14
21.82812499999999
 24
0.941504861079428
 34
0.0
100
AcDbRotatedDimension
1001
PE_URL
1000

1001
ACAD
1000
DSTYLE
1002
{
1070
   171
1070
     8
1070
   273
1070
     7
1070
    41
1040
2.5
1070
   140
1040
2.5
1002
}
  0
DIMENSION
  5
114
330
1F
100
AcDbEntity
  8
치수문자_일반주서
100
AcDbDimension
  2
_D_3
 10
25.39999999999999
 20
18.38125
 30
0.0
 11
0.0000000000000036
 21
18.38125
 31
0.0
 70
   160
  1
<>
 71
     2
 42
50.8
  3
SLDDIMSTYLE0
100
AcDbAlignedDimension
 13
-25.4
 23
1.189618701882795
 33
0.0
 14
25.4
 24
1.189618701882795
 34
0.0
100
AcDbRotatedDimension
1001
PE_URL
1000

1001
ACAD
1000
DSTYLE
1002
{
1070
   171
1070
     8
1070
   273
1070
     7
1070
    41
1040
2.5
1070
   140
1040
2.5
1002
}
  0
LINE
  5
128
330
1F
100
AcDbEntity
  8
참조1
100
AcDbLine
 10
79.93475003295504
 20
7.440000000000004
 30
0.0
 11
79.93475003295504
 21
-7.440000000000001
 31
0.0
  0
LINE
  5
129
330
1F
100
AcDbEntity
  8
참조1
100
AcDbLine
 10
92.63475003295503
 20
5.440000000000004
 30
0.0
 11
79.93475003295504
 21
5.440000000000004
 31
0.0
  0
SOLID
  5
12A
330
1F
100
AcDbEntity
  8
참조1
100
AcDbTrace
 10
79.93475003295504
 20
5.440000000000004
 30
0.0
 11
86.28475003295503
 21
4.424000000000004
 31
0.0
 12
86.28475003295503
 22
6.456000000000004
 32
0.0
 13
86.28475003295503
 23
6.456000000000004
 33
0.0
  0
LINE
  5
12B
330
1F
100
AcDbEntity
  8
참조1
100
AcDbLine
 10
92.63475003295503
 20
-5.440000000000001
 30
0.0
 11
79.93475003295504
 21
-5.440000000000001
 31
0.0
  0
SOLID
  5
12C
330
1F
100
AcDbEntity
  8
참조1
100
AcDbTrace
 10
79.93475003295504
 20
-5.440000000000001
 30
0.0
 11
86.28475003295503
 21
-6.456000000000001
 31
0.0
 12
86.28475003295503
 22
-4.424000000000001
 32
0.0
 13
86.28475003295503
 23
-4.424000000000001
 33
0.0
  0
MTEXT
  5
12D
330
1F
100
AcDbEntity
  8
참조1
100
AcDbMText
 10
89.31910016558103
 20
11.01029177718833
 30
0.0
 40
3.5
 41
0.0
 71
     1
 72
     1
  1
A
  7
SLDTEXTSTYLE0
 73
     1
 44
1.0
  0
MTEXT
  5
12E
330
1F
100
AcDbEntity
  8
참조1
100
AcDbMText
 10
89.31910016558103
 20
0.1302917771883265
 30
0.0
 40
3.5
 41
0.0
 71
     1
 72
     1
  1
A
  7
SLDTEXTSTYLE0
 73
     1
 44
1.0
  0
INSERT
  5
135
330
1F
100
AcDbEntity
  8
해칭선
100
AcDbBlockReference
  2
SW_DOWELSYMBOL_0
 10
0.0
 20
0.0
 30
0.0
  0
LINE
  5
22E
330
1F
100
AcDbEntity
  8
외형선
  6
Continuous
370
    15
100
AcDbLine
 10
-20.93822381721849
 20
-1.190625000000002
 30
0.0
 11
-20.82812499999999
 21
-1.190625000000002
 31
0.0
  0
LINE
  5
22F
330
1F
100
AcDbEntity
  8
외형선
  6
Continuous
370
    15
100
AcDbLine
 10
-20.82812499999999
 20
1.190624999999998
 30
0.0
 11
-20.93822381721849
 21
1.190624999999998
 31
0.0
  0
SPLINE
  5
230
330
1F
100
AcDbEntity
  8
외형선
  6
Continuous
370
    15
100
AcDbSpline
210
0.0
220
0.0
230
1.0
 70
     8
 71
     3
 72
     9
 73
     5
 74
     0
 42
0.000000001
 43
0.00000001
 40
0.0
 40
0.0
 40
0.0
 40
0.0
 40
0.4223754255560326
 40
1.0
 40
1.0
 40
1.0
 40
1.0
 10
-21.79509184389835
 20
-0.93823696487472
 30
0.0
 10
-21.67609054376707
 20
-0.9347389311819181
 30
0.0
 10
-21.3943475896768
 20
-0.9264571195964133
 30
0.0
 10
-21.10183932318608
 20
-0.9326372864607904
 30
0.0
 10
-20.93287936023304
 20
-0.936207102715819
 30
0.0
  0
SPLINE
  5
231
330
1F
100
AcDbEntity
  8
외형선
  6
Continuous
370
    15
100
AcDbSpline
210
0.0
220
0.0
230
1.0
 70
     8
 71
     3
 72
     9
 73
     5
 74
     0
 42
0.000000001
 43
0.00000001
 40
0.0
 40
0.0
 40
0.0
 40
0.0
 40
0.4515038314500787
 40
1.0
 40
1.0
 40
1.0
 40
1.0
 10
-20.93826159835668
 20
0.9361761166665983
 30
0.0
 10
-21.06738899575391
 20
0.9330571938734953
 30
0.0
 10
-21.35338301928747
 20
0.9261493393308542
 30
0.0
 10
-21.6429134724773
 20
0.9331077788416491
 30
0.0
 10
-21.80171981673045
 20
0.9369244562524064
 30
0.0
  0
LINE
  5
232
330
1F
100
AcDbEntity
  8
0
  6
Continuous
 62
     1
370
    25
100
AcDbLine
 10
-22.31611843011665
 20
-0.3050401178375952
 30
0.0
 11
-22.01112601591721
 21
-0.4561229078880245
 31
0.0
1001
PE_URL
1000

  0
LINE
  5
233
330
1F
100
AcDbEntity
  8
0
  6
Continuous
 62
     1
370
    25
100
AcDbLine
 10
-21.97937715984911
 20
-0.9488496649574194
 30
0.0
 11
-21.82812500000001
 21
-0.9373287583862147
 31
0.0
1001
PE_URL
1000

  0
SPLINE
  5
234
330
1F
100
AcDbEntity
  8
0
  6
Continuous
 62
     1
370
    25
100
AcDbSpline
210
0.0
220
0.0
230
1.0
 70
     8
 71
     3
 72
    13
 73
     9
 74
     0
 42
0.000000001
 43
0.00000001
 40
0.0
 40
0.0
 40
0.0
 40
0.0
 40
0.2068020957043147
 40
0.3197544607178106
 40
0.4845238165729454
 40
0.6501843953314222
 40
0.7713528923666305
 40
1.0
 40
1.0
 40
1.0
 40
1.0
 10
-24.95718673744202
 20
-0.8143316958676627
 30
0.0
 10
-24.81298362046854
 20
-0.8039208612828914
 30
0.0
 10
-24.59001881082943
 20
-0.7878237768363419
 30
0.0
 10
-24.255066684711
 20
-0.7819499363410087
 30
0.0
 10
-23.94857445082115
 20
-0.7865820978283291
 30
0.0
 10
-23.63804707650085
 20
-0.8047932937151603
 30
0.0
 10
-23.28157291318893
 20
-0.8370017426040195
 30
0.0
 10
-23.0372537681808
 20
-0.8723904031824605
 30
0.0
 10
-22.87756144714071
 20
-0.8955212034563522
 30
0.0
1001
PE_URL
1000

  0
SPLINE
  5
235
330
1F
100
AcDbEntity
  8
0
  6
Continuous
 62
     1
370
    25
100
AcDbSpline
210
0.0
220
0.0
230
1.0
 70
     8
 71
     3
 72
    12
 73
     8
 74
     0
 42
0.000000001
 43
0.00000001
 40
0.0
 40
0.0
 40
0.0
 40
0.0
 40
0.3495957095277336
 40
0.6068741142081597
 40
0.7939267940327039
 40
0.962577614315199
 40
1.0
 40
1.0
 40
1.0
 40
1.0
 10
-22.87756144714071
 20
0.8955212034563478
 30
0.0
 10
-22.98030946743432
 20
0.8802615865837482
 30
0.0
 10
-23.15867296590677
 20
0.8537719409149678
 30
0.0
 10
-23.39313326003447
 20
0.8270866576110163
 30
0.0
 10
-23.57807767895826
 20
0.8106831014234701
 30
0.0
 10
-23.69586645612621
 20
0.8018113110965133
 30
0.0
 10
-23.7570194220653
 20
0.7985413111228952
 30
0.0
 10
-23.76812464977503
 20
0.7979474871969381
 30
0.0
1001
PE_URL
1000

  0
LINE
  5
236
330
1F
100
AcDbEntity
  8
0
  6
Continuous
 62
     1
370
    25
100
AcDbLine
 10
-21.82812500000001
 20
0.9373287583862102
 30
0.0
 11
-21.97937715984911
 21
0.9488496649574132
 31
0.0
1001
PE_URL
1000

  0
LINE
  5
237
330
1F
100
AcDbEntity
  8
외형선
  6
Continuous
370
    15
100
AcDbLine
 10
-20.82812499999999
 20
-1.190625000000002
 30
0.0
 11
-20.82812499999999
 21
1.190624999999999
 31
0.0
  0
SPLINE
  5
238
330
1F
100
AcDbEntity
  8
외형선
  6
Continuous
370
    15
100
AcDbSpline
210
0.0
220
0.0
230
1.0
 70
     8
 71
     3
 72
    10
 73
     6
 74
     0
 42
0.000000001
 43
0.00000001
 40
0.0
 40
0.0
 40
0.0
 40
0.0
 40
0.5
 40
0.5
 40
1.0
 40
1.0
 40
1.0
 40
1.0
 10
-21.82812499999999
 20
-0.5519891117086622
 30
0.0
 10
-21.68134595683122
 20
-0.6276743421178046
 30
0.0
 10
-21.53203999717638
 20
-0.6994990024924834
 30
0.0
 10
-21.23286840747367
 20
-0.8311935737610585
 30
0.0
 10
-21.08676641099484
 20
-0.8905716709490572
 30
0.0
 10
-20.93832726014166
 20
-0.9429224717085254
 30
0.0
  0
LINE
  5
239
330
1F
100
AcDbEntity
  8
외형선
  6
Continuous
370
    15
100
AcDbLine
 10
-21.82812499999999
 20
-0.5519891117086622
 30
0.0
 11
-21.82812499999999
 21
-0.2391660647167781
 31
0.0
  0
SPLINE
  5
23A
330
1F
100
AcDbEntity
  8
외형선
  6
Continuous
370
    15
100
AcDbSpline
210
0.0
220
0.0
230
1.0
 70
     8
 71
     3
 72
    10
 73
     6
 74
     0
 42
0.000000001
 43
0.00000001
 40
0.0
 40
0.0
 40
0.0
 40
0.0
 40
0.5
 40
0.5
 40
1.0
 40
1.0
 40
1.0
 40
1.0
 10
-21.82812499999999
 20
-0.2391660647167781
 30
0.0
 10
-21.68132890922506
 20
-0.3228545323602243
 30
0.0
 10
-21.5320050909403
 20
-0.4051607130690029
 30
0.0
 10
-21.23279907219244
 20
-0.5622707239646316
 30
0.0
 10
-21.08668138552459
 20
-0.6364476629412272
 30
0.0
 10
-20.93822381721849
 20
-0.7055212136860933
 30
0.0
  0
LINE
  5
23B
330
1F
100
AcDbEntity
  8
외형선
  6
Continuous
370
    15
100
AcDbLine
 10
-21.18913387978611
 20
0.8438772715276142
 30
0.0
 11
-20.93832726014166
 21
0.942922471708521
 31
0.0
  0
LINE
  5
23C
330
1F
100
AcDbEntity
  8
외형선
  6
Continuous
370
    15
100
AcDbLine
 10
-20.93822381721849
 20
-0.9429536267233849
 30
0.0
 11
-20.93822381721849
 21
-1.190625000000002
 31
0.0
  0
LINE
  5
23D
330
1F
100
AcDbEntity
  8
외형선
  6
Continuous
370
    15
100
AcDbLine
 10
-20.93822381721849
 20
1.190624999999998
 30
0.0
 11
-20.93822381721849
 21
-0.7058488310932485
 31
0.0
  0
SPLINE
  5
23E
330
1F
100
AcDbEntity
  8
외형선
  6
Continuous
370
    15
100
AcDbSpline
210
0.0
220
0.0
230
1.0
 70
    24
 71
     3
 72
    11
 73
     7
 74
     0
 42
0.000000001
 43
0.00000001
 40
0.0
 40
0.0
 40
0.0
 40
0.0
 40
0.192571627184389
 40
0.4515656188640235
 40
0.7180704538478813
 40
1.0
 40
1.0
 40
1.0
 40
1.0
 10
-21.82812499999999
 20
-0.2392391410413022
 30
0.0
 10
-21.82812499999999
 20
-0.2382639256911339
 30
0.0
 10
-21.82812499999999
 20
-0.2359771208821253
 30
0.0
 10
-21.82812499999999
 20
-0.2164276177528772
 30
0.0
 10
-21.82812499999999
 20
-0.183908495212552
 30
0.0
 10
-21.82812499999999
 20
-0.150756464883615
 30
0.0
 10
-21.82812499999999
 20
-0.133714249467983
 30
0.0
  0
SPLINE
  5
23F
330
1F
100
AcDbEntity
  8
외형선
  6
Continuous
370
    15
100
AcDbSpline
210
0.0
220
0.0
230
1.0
 70
     8
 71
     3
 72
    10
 73
     6
 74
     0
 42
0.000000001
 43
0.00000001
 40
0.0
 40
0.0
 40
0.0
 40
0.0
 40
0.5
 40
0.5
 40
1.0
 40
1.0
 40
1.0
 40
1.0
 10
-21.82812500000001
 20
-0.1337142494669137
 30
0.0
 10
-21.68133301732899
 20
-0.1927387895104267
 30
0.0
 10
-21.53201350259859
 20
-0.251060470812456
 30
0.0
 10
-21.23281578047234
 20
-0.3629516343467425
 30
0.0
 10
-21.08670187492226
 20
-0.4160711562600183
 30
0.0
 10
-20.93824874479791
 20
-0.4658428187317578
 30
0.0
  0
LINE
  5
240
330
1F
100
AcDbEntity
  8
외형선
  6
Continuous
370
    15
100
AcDbLine
 10
-21.82812500000001
 20
-0.9401613866814027
 30
0.0
 11
-21.79528432371895
 21
-0.9356239255494834
 31
0.0
  0
SPLINE
  5
241
330
1F
100
AcDbEntity
  8
외형선
  6
Continuous
370
    15
100
AcDbSpline
210
0.0
220
0.0
230
1.0
 70
    24
 71
     3
 72
    10
 73
     6
 74
     0
 42
0.000000001
 43
0.00000001
 40
0.0
 40
0.0
 40
0.0
 40
0.0
 40
0.5000000000000001
 40
0.5000000000000001
 40
1.0
 40
1.0
 40
1.0
 40
1.0
 10
-21.82812500000016
 20
-0.9401613866814134
 30
0.0
 10
-21.82812500000016
 20
-0.9484774215099807
 30
0.0
 10
-21.82812500000016
 20
-0.9167337649432912
 30
0.0
 10
-21.82812500000016
 20
-0.7706996854328181
 30
0.0
 10
-21.82812500000016
 20
-0.6570378502559833
 30
0.0
 10
-21.82812500000016
 20
-0.5223834823756515
 30
0.0
  0
SPLINE
  5
242
330
1F
100
AcDbEntity
  8
외형선
  6
Continuous
370
    15
100
AcDbSpline
210
0.0
220
0.0
230
1.0
 70
     8
 71
     3
 72
    10
 73
     6
 74
     0
 42
0.000000001
 43
0.00000001
 40
0.0
 40
0.0
 40
0.0
 40
0.0
 40
0.5
 40
0.5
 40
1.0
 40
1.0
 40
1.0
 40
1.0
 10
-21.82812500000001
 20
0.9401613866813983
 30
0.0
 10
-21.68133513561856
 20
0.9291969703224301
 30
0.0
 10
-21.53201783995638
 20
0.910856948176257
 30
0.0
 10
-21.2328243958817
 20
0.8601908814378061
 30
0.0
 10
-21.08671243998484
 20
0.828164381902655
 30
0.0
 10
-20.93826159835668
 20
0.7898230643574551
 30
0.0
  0
SPLINE
  5
243
330
1F
100
AcDbEntity
  8
외형선
  6
Continuous
370
    15
100
AcDbSpline
210
0.0
220
0.0
230
1.0
 70
    24
 71
     3
 72
    10
 73
     6
 74
     0
 42
0.000000001
 43
0.00000001
 40
0.0
 40
0.0
 40
0.0
 40
0.0
 40
0.5
 40
0.5
 40
1.0
 40
1.0
 40
1.0
 40
1.0
 10
-21.82812499999999
 20
-0.1337142494669208
 30
0.0
 10
-21.82812499999999
 20
0.0769269792038973
 30
0.0
 10
-21.82812499999999
 20
0.2986482555155097
 30
0.0
 10
-21.82812499999999
 20
0.6803655786559912
 30
0.0
 10
-21.82812499999999
 20
0.8374040467410073
 30
0.0
 10
-21.82812499999999
 20
0.9401613866813983
 30
0.0
  0
SPLINE
  5
244
330
1F
100
AcDbEntity
  8
0
  6
Continuous
 62
     1
370
    25
100
AcDbSpline
210
0.0
220
0.0
230
1.0
 70
     8
 71
     3
 72
    22
 73
    18
 74
     0
 42
0.000000001
 43
0.00000001
 40
0.0
 40
0.0
 40
0.0
 40
0.0
 40
0.125
 40
0.125
 40
0.25
 40
0.25
 40
0.375
 40
0.375
 40
0.5
 40
0.5
 40
0.625
 40
0.625
 40
0.75
 40
0.75
 40
0.875
 40
0.875
 40
1.0
 40
1.0
 40
1.0
 40
1.0
 10
-25.4
 20
1.129832722429228
 30
0.0
 10
-25.25344827964022
 20
1.102867268404918
 30
0.0
 10
-25.10269158174371
 20
1.066807360887057
 30
0.0
 10
-24.80318601338328
 20
0.9786422253256437
 30
0.0
 10
-24.65719384075263
 20
0.9269575117520454
 30
0.0
 10
-24.35914132496846
 20
0.8093036210463471
 30
0.0
 10
-24.20791050516702
 20
0.7433264642967168
 30
0.0
 10
-23.91156448742786
 20
0.6017332400014692
 30
0.0
 10
-23.76430231857497
 20
0.5258480320978696
 30
0.0
 10
-23.46440942308541
 20
0.3661207209805011
 30
0.0
 10
-23.3163818089374
 20
0.283099294974321
 30
0.0
 10
-23.02083088095099
 20
0.1140652544040255
 30
0.0
 10
-22.8696762358482
 20
0.0273495681583982
 30
0.0
 10
-22.57111611794799
 20
-0.1444563071534168
 30
0.0
 10
-22.42532797776597
 20
-0.229236485428753
 30
0.0
 10
-22.12611808005312
 20
-0.3953482431923017
 30
0.0
 10
-21.9751754567638
 20
-0.4761639294369586
 30
0.0
 10
-21.82812500000004
 20
-0.5519891117086373
 30
0.0
1001
PE_URL
1000

  0
SPLINE
  5
245
330
1F
100
AcDbEntity
  8
0
  6
Continuous
 62
     1
370
    25
100
AcDbSpline
210
0.0
220
0.0
230
1.0
 70
     8
 71
     3
 72
    13
 73
     9
 74
     0
 42
0.000000001
 43
0.00000001
 40
0.0
 40
0.0
 40
0.0
 40
0.0
 40
0.1805778673467823
 40
0.3606388337246683
 40
0.5406053631330016
 40
0.7209026786174183
 40
0.9016593602340981
 40
1.0
 40
1.0
 40
1.0
 40
1.0
 10
-25.4
 20
0.9393701022634056
 30
0.0
 10
-25.21368182961523
 20
0.8987600341547322
 30
0.0
 10
-24.84157882133105
 20
0.8176561435430103
 30
0.0
 10
-24.28414218321831
 20
0.6180265705748078
 30
0.0
 10
-23.7270023290172
 20
0.3780985617395811
 30
0.0
 10
-23.16902317521915
 20
0.1103120408991907
 30
0.0
 10
-22.6948592373591
 20
-0.1262208271474257
 30
0.0
 10
-22.40702864949515
 20
-0.2596526893012601
 30
0.0
 10
-22.30561082142528
 20
-0.3066677399092756
 30
0.0
1001
PE_URL
1000

  0
LINE
  5
246
330
1F
100
AcDbEntity
  8
0
  6
Continuous
 62
     1
370
    25
100
AcDbLine
 10
-25.4
 20
1.129832722429228
 30
0.0
 11
-25.4
 21
0.9393701022634056
 31
0.0
1001
PE_URL
1000

  0
SPLINE
  5
247
330
1F
100
AcDbEntity
  8
0
  6
Continuous
 62
     1
370
    25
100
AcDbSpline
210
0.0
220
0.0
230
1.0
 70
     8
 71
     3
 72
    22
 73
    18
 74
     0
 42
0.000000001
 43
0.00000001
 40
0.0
 40
0.0
 40
0.0
 40
0.0
 40
0.1249999999999999
 40
0.1249999999999999
 40
0.2499999999999999
 40
0.2499999999999999
 40
0.3749999999999998
 40
0.3749999999999998
 40
0.4999999999999998
 40
0.4999999999999998
 40
0.6249999999999998
 40
0.6249999999999998
 40
0.7499999999999997
 40
0.7499999999999997
 40
0.8749999999999998
 40
0.8749999999999998
 40
1.0
 40
1.0
 40
1.0
 40
1.0
 10
-25.4
 20
1.189618701882792
 30
0.0
 10
-25.25344827964022
 20
1.186104952825522
 30
0.0
 10
-25.10269158174371
 20
1.173251345472
 30
0.0
 10
-24.80318601338328
 20
1.129365932950556
 30
0.0
 10
-24.65719384075261
 20
1.098632949365549
 30
0.0
 10
-24.35914132496845
 20
1.02017466260662
 30
0.0
 10
-24.207910505167
 20
0.9723767720711636
 30
0.0
 10
-23.91156448742784
 20
0.8630588591604664
 30
0.0
 10
-23.76430231857495
 20
0.8013720436076803
 30
0.0
 10
-23.46440942308539
 20
0.6656788009752224
 30
0.0
 10
-23.31638180893737
 20
0.5923616314318818
 30
0.0
 10
-23.02083088095096
 20
0.4377990003556076
 30
0.0
 10
-22.86967623584817
 20
0.3558838435863376
 30
0.0
 10
-22.57111611794796
 20
0.1884239064814488
 30
0.0
 10
-22.42532797776593
 20
0.1032293149813968
 30
0.0
 10
-22.12611808005308
 20
-0.0688914041529975
 30
0.0
 10
-21.97517545676376
 20
-0.1553325829948657
 30
0.0
 10
-21.82812499999999
 20
-0.2391660647167781
 30
0.0
1001
PE_URL
1000

  0
SPLINE
  5
248
330
1F
100
AcDbEntity
  8
0
  6
Continuous
 62
     1
370
    25
100
AcDbSpline
210
0.0
220
0.0
230
1.0
 70
     8
 71
     3
 72
     9
 73
     5
 74
     0
 42
0.000000001
 43
0.00000001
 40
0.0
 40
0.0
 40
0.0
 40
0.0
 40
0.6341369689330163
 40
1.0
 40
1.0
 40
1.0
 40
1.0
 10
-22.44062103330048
 20
0.1123769025145767
 30
0.0
 10
-22.31110889977167
 20
0.0603845357094532
 30
0.0
 10
-22.10687520914373
 20
-0.0216046391096802
 30
0.0
 10
-21.90279163501993
 20
-0.1036843263164235
 30
0.0
 10
-21.82812500000001
 20
-0.1337142494669137
 30
0.0
1001
PE_URL
1000

  0
SPLINE
  5
249
330
1F
100
AcDbEntity
  8
외형선
  6
Continuous
370
    15
100
AcDbSpline
210
0.0
220
0.0
230
1.0
 70
    24
 71
     3
 72
    11
 73
     7
 74
     0
 42
0.000000001
 43
0.00000001
 40
0.0
 40
0.0
 40
0.0
 40
0.0
 40
0.1870320795747528
 40
0.4478029589583908
 40
0.7161362115100416
 40
1.0
 40
1.0
 40
1.0
 40
1.0
 10
-21.82812499999999
 20
-0.2390712235225947
 30
0.0
 10
-21.82812499999999
 20
-0.2381191736226991
 30
0.0
 10
-21.82812499999999
 20
-0.2358397210110463
 30
0.0
 10
-21.82812499999999
 20
-0.2164126102402899
 30
0.0
 10
-21.82812499999999
 20
-0.1839125487833431
 30
0.0
 10
-21.82812499999999
 20
-0.1507578411733781
 30
0.0
 10
-21.82812499999999
 20
-0.133714249467983
 30
0.0
  0
LINE
  5
24A
330
1F
100
AcDbEntity
  8
0
  6
Continuous
 62
     1
370
    25
100
AcDbLine
 10
-25.4
 20
1.189618701882792
 30
0.0
 11
-25.4
 21
1.129832722429228
 31
0.0
1001
PE_URL
1000

  0
SPLINE
  5
24B
330
1F
100
AcDbEntity
  8
0
  6
Continuous
 62
     1
370
    25
100
AcDbSpline
210
0.0
220
0.0
230
1.0
 70
     8
 71
     3
 72
     8
 73
     4
 74
     0
 42
0.000000001
 43
0.00000001
 40
0.0
 40
0.0
 40
0.0
 40
0.0
 40
1.0
 40
1.0
 40
1.0
 40
1.0
 10
-24.66311867067986
 20
-0.3332246836425603
 30
0.0
 10
-24.62085961301168
 20
-0.3832476977117856
 30
0.0
 10
-24.58314615656604
 20
-0.4314055764532045
 30
0.0
 10
-24.55104480894121
 20
-0.4772607141681031
 30
0.0
1001
PE_URL
1000

  0
LINE
  5
24C
330
1F
100
AcDbEntity
  8
0
  6
Continuous
 62
     1
370
    25
100
AcDbLine
 10
-24.56614158570375
 20
-0.4899284139927409
 30
0.0
 11
-25.4
 21
-0.0000000000000031
 31
0.0
1001
PE_URL
1000

  0
LINE
  5
24D
330
1F
100
AcDbEntity
  8
0
  6
Continuous
 62
     1
370
    25
100
AcDbLine
 10
-25.4
 20
-0.0000000000000031
 30
0.0
 11
-25.4
 21
0.3181861326165429
 31
0.0
1001
PE_URL
1000

  0
SPLINE
  5
24E
330
1F
100
AcDbEntity
  8
0
  6
Continuous
 62
     1
370
    25
100
AcDbSpline
210
0.0
220
0.0
230
1.0
 70
     8
 71
     3
 72
    10
 73
     6
 74
     0
 42
0.000000001
 43
0.00000001
 40
0.0
 40
0.0
 40
0.0
 40
0.0
 40
0.5
 40
0.5
 40
1.0
 40
1.0
 40
1.0
 40
1.0
 10
-25.4
 20
0.3181861326165429
 30
0.0
 10
-25.27244037202743
 20
0.2179006366655494
 30
0.0
 10
-25.14701330534631
 20
0.1135000420721135
 30
0.0
 10
-24.90052308936824
 20
-0.1037219838688972
 30
0.0
 10
-24.77830137272724
 20
-0.2176860461589327
 30
0.0
 10
-24.66311867067876
 20
-0.3332246836399455
 30
0.0
1001
PE_URL
1000

  0
SPLINE
  5
24F
330
1F
100
AcDbEntity
  8
0
  6
Continuous
 62
     1
370
    25
100
AcDbSpline
210
0.0
220
0.0
230
1.0
 70
     8
 71
     3
 72
    13
 73
     9
 74
     0
 42
0.000000001
 43
0.00000001
 40
0.0
 40
0.0
 40
0.0
 40
0.0
 40
0.1412708559627071
 40
0.3487635817757765
 40
0.5566429171671813
 40
0.7650593969054589
 40
0.9728703208415745
 40
1.0
 40
1.0
 40
1.0
 40
1.0
 10
-24.66311867057333
 20
-0.3332246836890671
 30
0.0
 10
-24.53675156362858
 20
-0.3867202599394406
 30
0.0
 10
-24.22478173420866
 20
-0.5187879015991235
 30
0.0
 10
-23.72698162240979
 20
-0.6991249993834248
 30
0.0
 10
-23.16895948882546
 20
-0.8518396722560655
 30
0.0
 10
-22.61036377440905
 20
-0.9397677250468592
 30
0.0
 10
-22.21367831379365
 20
-0.9600912594084696
 30
0.0
 10
-22.00364541190542
 20
-0.9489025810046114
 30
0.0
 10
-21.97939194032202
 20
-0.9476105725083985
 30
0.0
1001
PE_URL
1000

  0
SPLINE
  5
250
330
1F
100
AcDbEntity
  8
0
  6
Continuous
 62
     1
370
    25
100
AcDbSpline
210
0.0
220
0.0
230
1.0
 70
    24
 71
     3
 72
    10
 73
     6
 74
     0
 42
0.000000001
 43
0.00000001
 40
0.0
 40
0.0
 40
0.0
 40
0.0
 40
0.5
 40
0.5
 40
1.0
 40
1.0
 40
1.0
 40
1.0
 10
-25.4
 20
0.9393701022634056
 30
0.0
 10
-25.4
 20
0.8673600600326528
 30
0.0
 10
-25.4
 20
0.776372610526137
 30
0.0
 10
-25.39999999999998
 20
0.5648355469887751
 30
0.0
 10
-25.4
 20
0.4444691743829634
 30
0.0
 10
-25.4
 20
0.318186132616582
 30
0.0
1001
PE_URL
1000

  0
SPLINE
  5
251
330
1F
100
AcDbEntity
  8
외형선
  6
Continuous
370
    15
100
AcDbSpline
210
0.0
220
0.0
230
1.0
 70
    24
 71
     3
 72
    12
 73
     8
 74
     0
 42
0.000000001
 43
0.00000001
 40
0.0
 40
0.0
 40
0.0
 40
0.0
 40
0.1406803347632656
 40
0.3643690878391922
 40
0.5945448299080732
 40
0.794963219886256
 40
1.0
 40
1.0
 40
1.0
 40
1.0
 10
-21.82812499999999
 20
-0.9365757713074845
 30
0.0
 10
-21.82812499999999
 20
-0.9318198189043438
 30
0.0
 10
-21.82812499999999
 20
-0.9195016648293293
 30
0.0
 10
-21.82812499999999
 20
-0.8665558492734688
 30
0.0
 10
-21.82812499999999
 20
-0.7767170049494196
 30
0.0
 10
-21.82812499999999
 20
-0.6616569941415924
 30
0.0
 10
-21.82812499999999
 20
-0.5691591890791226
 30
0.0
 10
-21.82812499999999
 20
-0.5223834823757207
 30
0.0
  0
SPLINE
  5
252
330
1F
100
AcDbEntity
  8
0
  6
Continuous
 62
     1
370
    25
100
AcDbSpline
210
0.0
220
0.0
230
1.0
 70
    24
 71
     3
 72
     8
 73
     4
 74
     0
 42
0.000000001
 43
0.00000001
 40
0.0
 40
0.0
 40
0.0
 40
0.0
 40
1.0
 40
1.0
 40
1.0
 40
1.0
 10
-24.67532161587649
 20
-0.581541337042617
 30
0.0
 10
-24.63600547470794
 20
-0.5485511774887715
 30
0.0
 10
-24.59439779872906
 20
-0.513638191920744
 30
0.0
 10
-24.55104480893628
 20
-0.4772607141751766
 30
0.0
1001
PE_URL
1000

  0
LINE
  5
253
330
1F
100
AcDbEntity
  8
0
  6
Continuous
 62
     1
370
    25
100
AcDbLine
 10
-25.4
 20
-0.8334375000000018
 30
0.0
 11
-24.95583324264847
 21
-0.8093212939832273
 31
0.0
1001
PE_URL
1000

  0
SPLINE
  5
254
330
1F
100
AcDbEntity
  8
0
  6
Continuous
 62
     1
370
    25
100
AcDbSpline
210
0.0
220
0.0
230
1.0
 70
     8
 71
     3
 72
     8
 73
     4
 74
     0
 42
0.000000001
 43
0.00000001
 40
0.0
 40
0.0
 40
0.0
 40
0.0
 40
1.0
 40
1.0
 40
1.0
 40
1.0
 10
-25.4
 20
-0.8334375000000018
 30
0.0
 10
-25.1550422803549
 20
-0.7668589216073758
 30
0.0
 10
-24.91249971255387
 20
-0.6850409110701157
 30
0.0
 10
-24.67532161587607
 20
-0.581541337042871
 30
0.0
1001
PE_URL
1000

  0
SPLINE
  5
255
330
1F
100
AcDbEntity
  8
0
  6
Continuous
 62
     1
370
    25
100
AcDbSpline
210
0.0
220
0.0
230
1.0
 70
     8
 71
     3
 72
    10
 73
     6
 74
     0
 42
0.000000001
 43
0.00000001
 40
0.0
 40
0.0
 40
0.0
 40
0.0
 40
0.2575373741951635
 40
0.7871299331898622
 40
1.0
 40
1.0
 40
1.0
 40
1.0
 10
-22.88116261756301
 20
0.8867726134869511
 30
0.0
 10
-22.79072335896129
 20
0.9026701914235056
 30
0.0
 10
-22.51430737155991
 20
0.951259098172232
 30
0.0
 10
-22.16323709341617
 20
0.9592121777125766
 30
0.0
 10
-21.90279567155331
 20
0.944406340497951
 30
0.0
 10
-21.82812500000001
 20
0.9401613866813983
 30
0.0
1001
PE_URL
1000

  0
SPLINE
  5
256
330
1F
100
AcDbEntity
  8
외형선
  6
Continuous
370
    15
100
AcDbSpline
210
0.0
220
0.0
230
1.0
 70
    24
 71
     3
 72
    10
 73
     6
 74
     0
 42
0.000000001
 43
0.00000001
 40
0.0
 40
0.0
 40
0.0
 40
0.0
 40
0.5
 40
0.5
 40
1.0
 40
1.0
 40
1.0
 40
1.0
 10
-21.82812499999999
 20
-0.1337142494669208
 30
0.0
 10
-21.82812499999999
 20
0.0769269792038973
 30
0.0
 10
-21.82812499999999
 20
0.2986482555155097
 30
0.0
 10
-21.82812499999999
 20
0.6803655786559912
 30
0.0
 10
-21.82812499999999
 20
0.8374040467410073
 30
0.0
 10
-21.82812499999999
 20
0.9401613866813983
 30
0.0
  0
LINE
  5
257
330
1F
100
AcDbEntity
  8
0
  6
Continuous
 62
     1
370
    25
100
AcDbLine
 10
-25.4
 20
-0.0000000000000031
 30
0.0
 11
-25.4
 21
-0.8334375000000036
 31
0.0
1001
PE_URL
1000

  0
SPLINE
  5
258
330
1F
100
AcDbEntity
  8
0
  6
Continuous
 62
     1
370
    25
100
AcDbSpline
210
0.0
220
0.0
230
1.0
 70
     8
 71
     3
 72
    11
 73
     7
 74
     0
 42
0.000000001
 43
0.00000001
 40
0.0
 40
0.0
 40
0.0
 40
0.0
 40
0.0359631142785707
 40
0.3570783540510447
 40
0.6779688931802172
 40
0.9999999999999999
 40
0.9999999999999999
 40
0.9999999999999999
 40
0.9999999999999999
 10
-23.77096338080801
 20
-0.799288293739639
 30
0.0
 10
-23.79050337463274
 20
-0.8086157049087919
 30
0.0
 10
-23.98451629517852
 20
-0.9012277240470481
 30
0.0
 10
-24.35248088787096
 20
-1.021754856929428
 30
0.0
 10
-24.87571390761813
 20
-1.155963527643116
 30
0.0
 10
-25.22503140165619
 20
-1.17838705040606
 30
0.0
 10
-25.4
 20
-1.189618701882796
 30
0.0
1001
PE_URL
1000

  0
SPLINE
  5
259
330
1F
100
AcDbEntity
  8
0
  6
Continuous
 62
     1
370
    25
100
AcDbSpline
210
0.0
220
0.0
230
1.0
 70
    24
 71
     3
 72
    10
 73
     6
 74
     0
 42
0.000000001
 43
0.00000001
 40
0.0
 40
0.0
 40
0.0
 40
0.0
 40
0.5
 40
0.5
 40
1.0
 40
1.0
 40
1.0
 40
1.0
 10
-25.4
 20
-0.8334375000000018
 30
0.0
 10
-25.4
 20
-0.8839584057612107
 30
0.0
 10
-25.39999999999998
 20
-0.9426683769949142
 30
0.0
 10
-25.4
 20
-1.06584173851902
 30
0.0
 10
-25.4
 20
-1.129990559501131
 30
0.0
 10
-25.4
 20
-1.189618701882796
 30
0.0
1001
PE_URL
1000

  0
LINE
  5
25A
330
1F
100
AcDbEntity
  8
외형선
  6
Continuous
370
    15
100
AcDbLine
 10
-16.38465200723831
 20
2.381249999999998
 30
0.0
 11
-20.82812499999999
 21
1.190624999999998
 31
0.0
  0
LINE
  5
25B
330
1F
100
AcDbEntity
  8
외형선
  6
Continuous
370
    15
100
AcDbLine
 10
-20.82812499999999
 20
-1.190625000000002
 30
0.0
 11
-16.38465200723831
 21
-2.381250000000001
 31
0.0
  0
LINE
  5
25C
330
1F
100
AcDbEntity
  8
외형선
  6
Continuous
370
    15
100
AcDbLine
 10
-16.38465200723831
 20
-2.381250000000001
 30
0.0
 11
-16.38465200723831
 21
2.381249999999998
 31
0.0
  0
ENDSEC
  0
SECTION
  2
OBJECTS
  0
DICTIONARY
  5
C
330
0
100
AcDbDictionary
281
     1
  3
ACAD_GROUP
350
D
  3
ACAD_IMAGE_VARS
350
280
  3
ACAD_LAYOUT
350
1A
  3
ACAD_MLINESTYLE
350
17
  3
ACAD_PLOTSETTINGS
350
19
  3
ACAD_PLOTSTYLENAME
350
E
  3
ACAD_SCALELIST
350
47
  3
APPDATA
350
157
  3
DWGPROPS
350
281
  0
DICTIONARY
  5
D
102
{ACAD_REACTORS
330
C
102
}
330
C
100
AcDbDictionary
281
     1
  0
RASTERVARIABLES
  5
280
102
{ACAD_REACTORS
330
C
102
}
330
C
100
AcDbRasterVariables
 90
        0
 70
     1
 71
     1
 72
     1
  0
DICTIONARY
  5
1A
102
{ACAD_REACTORS
330
C
102
}
330
C
100
AcDbDictionary
281
     1
  3
Layout1
350
1E
  3
Layout2
350
26
  3
Model
350
22
  0
DICTIONARY
  5
17
102
{ACAD_REACTORS
330
C
102
}
330
C
100
AcDbDictionary
281
     1
  3
Standard
350
18
  0
DICTIONARY
  5
19
102
{ACAD_REACTORS
330
C
102
}
330
C
100
AcDbDictionary
281
     1
  0
ACDBDICTIONARYWDFLT
  5
E
102
{ACAD_REACTORS
330
C
102
}
330
C
100
AcDbDictionary
281
     1
  3
Normal
350
F
100
AcDbDictionaryWithDefault
340
F
  0
DICTIONARY
  5
47
102
{ACAD_REACTORS
330
C
102
}
330
C
100
AcDbDictionary
281
     1
  3
A0
350
48
  3
A1
350
49
  3
A2
350
4A
  3
A3
350
4B
  3
A4
350
4C
  3
A5
350
4D
  3
A6
350
4E
  3
A7
350
4F
  3
A8
350
50
  3
A9
350
51
  3
B0
350
52
  3
B1
350
53
  3
B2
350
54
  3
B3
350
55
  3
B4
350
56
  3
B5
350
57
  3
B6
350
58
  3
B7
350
59
  3
B8
350
5A
  3
B9
350
5B
  3
C0
350
5C
  3
C1
350
5D
  3
C2
350
5E
  3
C3
350
5F
  3
C4
350
60
  3
C5
350
61
  3
C6
350
62
  3
C7
350
63
  3
C8
350
64
  3
C9
350
65
  3
D0
350
66
  3
D1
350
67
  3
D2
350
68
  0
DICTIONARY
  5
157
102
{ACAD_REACTORS
330
C
102
}
330
C
100
AcDbDictionary
281
     1
  0
XRECORD
  5
281
102
{ACAD_REACTORS
330
C
102
}
330
C
100
AcDbXrecord
280
     1
  1
DWGPROPS COOKIE
  2

  3

  4

  6

  7

  8
12016016
  9

300
=
301
=
302
=
303
=
304
=
305
=
306
=
307
=
308
=
309
=
 40
0.0
 41
2458313.013051922
 42
2458318.270025613
  1

 90
        0
  0
LAYOUT
  5
1E
102
{ACAD_REACTORS
330
1A
102
}
330
1A
100
AcDbPlotSettings
  1

  2
none_device
  4

  6

 40
0.0
 41
0.0
 42
0.0
 43
0.0
 44
0.0
 45
0.0
 46
0.0
 47
0.0
 48
0.0
 49
0.0
140
0.0
141
0.0
142
1.0
143
1.0
 70
   688
 72
     1
 73
     0
 74
     5
  7

 75
    16
147
1.0
148
0.0
149
0.0
100
AcDbLayout
  1
Layout1
 70
     1
 71
     1
 10
0.0
 20
0.0
 11
420.0
 21
297.0
 12
0.0
 22
0.0
 32
0.0
 14
1.000000000000000E+20
 24
1.000000000000000E+20
 34
1.000000000000000E+20
 15
-1.000000000000000E+20
 25
-1.000000000000000E+20
 35
-1.000000000000000E+20
146
0.0
 13
0.0
 23
0.0
 33
0.0
 16
1.0
 26
0.0
 36
0.0
 17
0.0
 27
1.0
 37
0.0
 76
     0
330
1B
  0
LAYOUT
  5
26
102
{ACAD_REACTORS
330
1A
102
}
330
1A
100
AcDbPlotSettings
  1

  2
none_device
  4

  6

 40
0.0
 41
0.0
 42
0.0
 43
0.0
 44
0.0
 45
0.0
 46
0.0
 47
0.0
 48
0.0
 49
0.0
140
0.0
141
0.0
142
1.0
143
1.0
 70
   688
 72
     1
 73
     0
 74
     5
  7

 75
    16
147
1.0
148
0.0
149
0.0
100
AcDbLayout
  1
Layout2
 70
     1
 71
     2
 10
0.0
 20
0.0
 11
0.0
 21
0.0
 12
0.0
 22
0.0
 32
0.0
 14
0.0
 24
0.0
 34
0.0
 15
0.0
 25
0.0
 35
0.0
146
0.0
 13
0.0
 23
0.0
 33
0.0
 16
1.0
 26
0.0
 36
0.0
 17
0.0
 27
1.0
 37
0.0
 76
     0
330
23
  0
LAYOUT
  5
22
102
{ACAD_REACTORS
330
1A
102
}
330
1A
100
AcDbPlotSettings
  1

  2
none_device
  4
ANSI_A_(11.00_x_8.50_Inches)
  6

 40
6.35
 41
19.05
 42
6.35000508
 43
19.05000254
 44
279.4
 45
215.9
 46
113.2646740336141
 47
92.35152854999943
 48
0.0
 49
0.0
140
0.0
141
0.0
142
0.0767833451472474
143
1.0
 70
  1696
 72
     0
 73
     0
 74
     0
  7

 75
     0
147
0.0235690232323232
148
0.0
149
0.0
100
AcDbLayout
  1
Model
 70
     1
 71
     0
 10
0.0
 20
0.0
 11
420.0
 21
297.0
 12
0.0
 22
0.0
 32
0.0
 14
-36.77500000000008
 24
-49.97180738881175
 34
0.0
 15
92.63475003295503
 25
27.88124999999997
 35
0.0
146
0.0
 13
0.0
 23
0.0
 33
0.0
 16
1.0
 26
0.0
 36
0.0
 17
0.0
 27
1.0
 37
0.0
 76
     0
330
1F
331
29
  0
MLINESTYLE
  5
18
102
{ACAD_REACTORS
330
17
102
}
330
17
100
AcDbMlineStyle
  2
Standard
 70
     0
  3

 62
   256
 51
90.0
 52
90.0
 71
     2
 49
0.5
 62
   256
  6
BYLAYER
 49
-0.5
 62
   256
  6
BYLAYER
  0
ACDBPLACEHOLDER
  5
F
102
{ACAD_REACTORS
330
E
102
}
330
E
  0
SCALE
  5
48
102
{ACAD_REACTORS
330
47
102
}
330
47
100
AcDbScale
 70
     0
300
1:1
140
1.0
141
1.0
290
     1
  0
SCALE
  5
49
102
{ACAD_REACTORS
330
47
102
}
330
47
100
AcDbScale
 70
     0
300
1:2
140
1.0
141
2.0
290
     0
  0
SCALE
  5
4A
102
{ACAD_REACTORS
330
47
102
}
330
47
100
AcDbScale
 70
     0
300
1:4
140
1.0
141
4.0
290
     0
  0
SCALE
  5
4B
102
{ACAD_REACTORS
330
47
102
}
330
47
100
AcDbScale
 70
     0
300
1:5
140
1.0
141
5.0
290
     0
  0
SCALE
  5
4C
102
{ACAD_REACTORS
330
47
102
}
330
47
100
AcDbScale
 70
     0
300
1:8
140
1.0
141
8.0
290
     0
  0
SCALE
  5
4D
102
{ACAD_REACTORS
330
47
102
}
330
47
100
AcDbScale
 70
     0
300
1:10
140
1.0
141
10.0
290
     0
  0
SCALE
  5
4E
102
{ACAD_REACTORS
330
47
102
}
330
47
100
AcDbScale
 70
     0
300
1:16
140
1.0
141
16.0
290
     0
  0
SCALE
  5
4F
102
{ACAD_REACTORS
330
47
102
}
330
47
100
AcDbScale
 70
     0
300
1:20
140
1.0
141
20.0
290
     0
  0
SCALE
  5
50
102
{ACAD_REACTORS
330
47
102
}
330
47
100
AcDbScale
 70
     0
300
1:30
140
1.0
141
30.0
290
     0
  0
SCALE
  5
51
102
{ACAD_REACTORS
330
47
102
}
330
47
100
AcDbScale
 70
     0
300
1:40
140
1.0
141
40.0
290
     0
  0
SCALE
  5
52
102
{ACAD_REACTORS
330
47
102
}
330
47
100
AcDbScale
 70
     0
300
1:50
140
1.0
141
50.0
290
     0
  0
SCALE
  5
53
102
{ACAD_REACTORS
330
47
102
}
330
47
100
AcDbScale
 70
     0
300
1:100
140
1.0
141
100.0
290
     0
  0
SCALE
  5
54
102
{ACAD_REACTORS
330
47
102
}
330
47
100
AcDbScale
 70
     0
300
2:1
140
2.0
141
1.0
290
     0
  0
SCALE
  5
55
102
{ACAD_REACTORS
330
47
102
}
330
47
100
AcDbScale
 70
     0
300
4:1
140
4.0
141
1.0
290
     0
  0
SCALE
  5
56
102
{ACAD_REACTORS
330
47
102
}
330
47
100
AcDbScale
 70
     0
300
8:1
140
8.0
141
1.0
290
     0
  0
SCALE
  5
57
102
{ACAD_REACTORS
330
47
102
}
330
47
100
AcDbScale
 70
     0
300
10:1
140
10.0
141
1.0
290
     0
  0
SCALE
  5
58
102
{ACAD_REACTORS
330
47
102
}
330
47
100
AcDbScale
 70
     0
300
100:1
140
100.0
141
1.0
290
     0
  0
SCALE
  5
59
102
{ACAD_REACTORS
330
47
102
}
330
47
100
AcDbScale
 70
     0
300
1/128" = 1'-0"
140
0.0078125
141
12.0
290
     0
  0
SCALE
  5
5A
102
{ACAD_REACTORS
330
47
102
}
330
47
100
AcDbScale
 70
     0
300
1/64" = 1'-0"
140
0.015625
141
12.0
290
     0
  0
SCALE
  5
5B
102
{ACAD_REACTORS
330
47
102
}
330
47
100
AcDbScale
 70
     0
300
1/32" = 1'-0"
140
0.03125
141
12.0
290
     0
  0
SCALE
  5
5C
102
{ACAD_REACTORS
330
47
102
}
330
47
100
AcDbScale
 70
     0
300
1/16" = 1'-0"
140
0.0625
141
12.0
290
     0
  0
SCALE
  5
5D
102
{ACAD_REACTORS
330
47
102
}
330
47
100
AcDbScale
 70
     0
300
3/32" = 1'-0"
140
0.09375
141
12.0
290
     0
  0
SCALE
  5
5E
102
{ACAD_REACTORS
330
47
102
}
330
47
100
AcDbScale
 70
     0
300
1/8" = 1'-0"
140
0.125
141
12.0
290
     0
  0
SCALE
  5
5F
102
{ACAD_REACTORS
330
47
102
}
330
47
100
AcDbScale
 70
     0
300
3/16" = 1'-0"
140
0.1875
141
12.0
290
     0
  0
SCALE
  5
60
102
{ACAD_REACTORS
330
47
102
}
330
47
100
AcDbScale
 70
     0
300
1/4" = 1'-0"
140
0.25
141
12.0
290
     0
  0
SCALE
  5
61
102
{ACAD_REACTORS
330
47
102
}
330
47
100
AcDbScale
 70
     0
300
3/8" = 1'-0"
140
0.375
141
12.0
290
     0
  0
SCALE
  5
62
102
{ACAD_REACTORS
330
47
102
}
330
47
100
AcDbScale
 70
     0
300
1/2" = 1'-0"
140
0.5
141
12.0
290
     0
  0
SCALE
  5
63
102
{ACAD_REACTORS
330
47
102
}
330
47
100
AcDbScale
 70
     0
300
3/4" = 1'-0"
140
0.75
141
12.0
290
     0
  0
SCALE
  5
64
102
{ACAD_REACTORS
330
47
102
}
330
47
100
AcDbScale
 70
     0
300
1" = 1'-0"
140
1.0
141
12.0
290
     0
  0
SCALE
  5
65
102
{ACAD_REACTORS
330
47
102
}
330
47
100
AcDbScale
 70
     0
300
1-1/2" = 1'-0"
140
1.5
141
12.0
290
     0
  0
SCALE
  5
66
102
{ACAD_REACTORS
330
47
102
}
330
47
100
AcDbScale
 70
     0
300
3" = 1'-0"
140
3.0
141
12.0
290
     0
  0
SCALE
  5
67
102
{ACAD_REACTORS
330
47
102
}
330
47
100
AcDbScale
 70
     0
300
6" = 1'-0"
140
6.0
141
12.0
290
     0
  0
SCALE
  5
68
102
{ACAD_REACTORS
330
47
102
}
330
47
100
AcDbScale
 70
     0
300
1'-0" = 1'-0"
140
12.0
141
12.0
290
     0
  0
ENDSEC
  0
EOF
