  0
SECTION
  2
HEADER
  9
$ACADVER
  1
AC1015
  9
$ACADMAINTVER
 70
     6
  9
$DWGCODEPAGE
  3
ANSI_949
  9
$INSBASE
 10
0.0
 20
0.0
 30
0.0
  9
$EXTMIN
 10
-36.77500000000008
 20
-49.97180738881175
 30
0.0
  9
$EXTMAX
 10
92.23787503295506
 20
27.88124999999997
 30
0.0
  9
$LIMMIN
 10
0.0
 20
0.0
  9
$LIMMAX
 10
420.0
 20
297.0
  9
$ORTHOMODE
 70
     1
  9
$REGENMODE
 70
     1
  9
$FILLMODE
 70
     1
  9
$QTEXTMODE
 70
     0
  9
$MIRRTEXT
 70
     1
  9
$LTSCALE
 40
1.0
  9
$ATTMODE
 70
     1
  9
$TEXTSIZE
 40
3.5
  9
$TRACEWID
 40
1.0
  9
$TEXTSTYLE
  7
Standard
  9
$CLAYER
  8
0
  9
$CELTYPE
  6
ByLayer
  9
$CECOLOR
 62
   256
  9
$CELTSCALE
 40
1.0
  9
$DISPSILH
 70
     0
  9
$DIMSCALE
 40
1.0
  9
$DIMASZ
 40
3.302
  9
$DIMEXO
 40
1.0
  9
$DIMDLI
 40
3.75
  9
$DIMRND
 40
0.0
  9
$DIMDLE
 40
0.0
  9
$DIMEXE
 40
1.0
  9
$DIMTP
 40
0.0
  9
$DIMTM
 40
0.0
  9
$DIMTXT
 40
3.5
  9
$DIMCEN
 40
2.5
  9
$DIMTSZ
 40
0.0
  9
$DIMTOL
 70
     0
  9
$DIMLIM
 70
     0
  9
$DIMTIH
 70
     1
  9
$DIMTOH
 70
     1
  9
$DIMSE1
 70
     0
  9
$DIMSE2
 70
     0
  9
$DIMTAD
 70
     1
  9
$DIMZIN
 70
     0
  9
$DIMBLK
  1

  9
$DIMASO
 70
     1
  9
$DIMSHO
 70
     1
  9
$DIMPOST
  1

  9
$DIMAPOST
  1

  9
$DIMALT
 70
     0
  9
$DIMALTD
 70
     3
  9
$DIMALTF
 40
0.0393700787401575
  9
$DIMLFAC
 40
1.0
  9
$DIMTOFL
 70
     1
  9
$DIMTVP
 40
0.0
  9
$DIMTIX
 70
     0
  9
$DIMSOXD
 70
     0
  9
$DIMSAH
 70
     0
  9
$DIMBLK1
  1

  9
$DIMBLK2
  1

  9
$DIMSTYLE
  2
ISO-25
  9
$DIMCLRD
 70
     0
  9
$DIMCLRE
 70
     0
  9
$DIMCLRT
 70
     0
  9
$DIMTFAC
 40
1.0
  9
$DIMGAP
 40
1.524
  9
$DIMJUST
 70
     0
  9
$DIMSD1
 70
     0
  9
$DIMSD2
 70
     0
  9
$DIMTOLJ
 70
     0
  9
$DIMTZIN
 70
     0
  9
$DIMALTZ
 70
     0
  9
$DIMALTTZ
 70
     0
  9
$DIMUPT
 70
     0
  9
$DIMDEC
 70
     2
  9
$DIMTDEC
 70
     2
  9
$DIMALTU
 70
     2
  9
$DIMALTTD
 70
     3
  9
$DIMTXSTY
  7
Standard
  9
$DIMAUNIT
 70
     0
  9
$DIMADEC
 70
     2
  9
$DIMALTRND
 40
0.0
  9
$DIMAZIN
 70
     0
  9
$DIMDSEP
 70
    44
  9
$DIMATFIT
 70
     3
  9
$DIMFRAC
 70
     0
  9
$DIMLDRBLK
  1

  9
$DIMLUNIT
 70
     2
  9
$DIMLWD
 70
    -2
  9
$DIMLWE
 70
    -2
  9
$DIMTMOVE
 70
     0
  9
$LUNITS
 70
     2
  9
$LUPREC
 70
     2
  9
$SKETCHINC
 40
1.0
  9
$FILLETRAD
 40
10.0
  9
$AUNITS
 70
     0
  9
$AUPREC
 70
     2
  9
$MENU
  1
.
  9
$ELEVATION
 40
0.0
  9
$PELEVATION
 40
0.0
  9
$THICKNESS
 40
0.0
  9
$LIMCHECK
 70
     0
  9
$CHAMFERA
 40
0.0
  9
$CHAMFERB
 40
0.0
  9
$CHAMFERC
 40
0.0
  9
$CHAMFERD
 40
0.0
  9
$SKPOLY
 70
     0
  9
$TDCREATE
 40
2458313.388263704
  9
$TDUCREATE
 40
2458313.013263704
  9
$TDUPDATE
 40
2458318.644944942
  9
$TDUUPDATE
 40
2458318.269944942
  9
$TDINDWG
 40
0.002102338
  9
$TDUSRTIMER
 40
2458318.26990706
  9
$USRTIMER
 70
     1
  9
$ANGBASE
 50
0.0
  9
$ANGDIR
 70
     0
  9
$PDMODE
 70
     0
  9
$PDSIZE
 40
-1.0
  9
$PLINEWID
 40
0.0
  9
$SPLFRAME
 70
     0
  9
$SPLINETYPE
 70
     6
  9
$SPLINESEGS
 70
     8
  9
$HANDSEED
  5
280
  9
$SURFTAB1
 70
     6
  9
$SURFTAB2
 70
     6
  9
$SURFTYPE
 70
     6
  9
$SURFU
 70
     6
  9
$SURFV
 70
     6
  9
$UCSBASE
  2

  9
$UCSNAME
  2

  9
$UCSORG
 10
0.0
 20
0.0
 30
0.0
  9
$UCSXDIR
 10
1.0
 20
0.0
 30
0.0
  9
$UCSYDIR
 10
0.0
 20
1.0
 30
0.0
  9
$UCSORTHOREF
  2

  9
$UCSORTHOVIEW
 70
     0
  9
$UCSORGTOP
 10
0.0
 20
0.0
 30
0.0
  9
$UCSORGBOTTOM
 10
0.0
 20
0.0
 30
0.0
  9
$UCSORGLEFT
 10
0.0
 20
0.0
 30
0.0
  9
$UCSORGRIGHT
 10
0.0
 20
0.0
 30
0.0
  9
$UCSORGFRONT
 10
0.0
 20
0.0
 30
0.0
  9
$UCSORGBACK
 10
0.0
 20
0.0
 30
0.0
  9
$PUCSBASE
  2

  9
$PUCSNAME
  2

  9
$PUCSORG
 10
0.0
 20
0.0
 30
0.0
  9
$PUCSXDIR
 10
1.0
 20
0.0
 30
0.0
  9
$PUCSYDIR
 10
0.0
 20
1.0
 30
0.0
  9
$PUCSORTHOREF
  2

  9
$PUCSORTHOVIEW
 70
     0
  9
$PUCSORGTOP
 10
0.0
 20
0.0
 30
0.0
  9
$PUCSORGBOTTOM
 10
0.0
 20
0.0
 30
0.0
  9
$PUCSORGLEFT
 10
0.0
 20
0.0
 30
0.0
  9
$PUCSORGRIGHT
 10
0.0
 20
0.0
 30
0.0
  9
$PUCSORGFRONT
 10
0.0
 20
0.0
 30
0.0
  9
$PUCSORGBACK
 10
0.0
 20
0.0
 30
0.0
  9
$USERI1
 70
     0
  9
$USERI2
 70
     0
  9
$USERI3
 70
     0
  9
$USERI4
 70
     0
  9
$USERI5
 70
     0
  9
$USERR1
 40
0.0
  9
$USERR2
 40
0.0
  9
$USERR3
 40
0.0
  9
$USERR4
 40
0.0
  9
$USERR5
 40
0.0
  9
$WORLDVIEW
 70
     1
  9
$SHADEDGE
 70
     3
  9
$SHADEDIF
 70
    70
  9
$TILEMODE
 70
     1
  9
$MAXACTVP
 70
    64
  9
$PINSBASE
 10
0.0
 20
0.0
 30
0.0
  9
$PLIMCHECK
 70
     0
  9
$PEXTMIN
 10
1.000000000000000E+20
 20
1.000000000000000E+20
 30
1.000000000000000E+20
  9
$PEXTMAX
 10
-1.000000000000000E+20
 20
-1.000000000000000E+20
 30
-1.000000000000000E+20
  9
$PLIMMIN
 10
0.0
 20
0.0
  9
$PLIMMAX
 10
0.0
 20
0.0
  9
$UNITMODE
 70
     0
  9
$VISRETAIN
 70
     1
  9
$PLINEGEN
 70
     0
  9
$PSLTSCALE
 70
     1
  9
$TREEDEPTH
 70
  3020
  9
$CMLSTYLE
  2
Standard
  9
$CMLJUST
 70
     0
  9
$CMLSCALE
 40
20.0
  9
$PROXYGRAPHICS
 70
     1
  9
$MEASUREMENT
 70
     1
  9
$CELWEIGHT
370
    -1
  9
$ENDCAPS
280
     0
  9
$JOINSTYLE
280
     0
  9
$LWDISPLAY
290
     1
  9
$INSUNITS
 70
     4
  9
$HYPERLINKBASE
  1

  9
$STYLESHEET
  1

  9
$XEDIT
290
     1
  9
$CEPSNTYPE
380
     0
  9
$PSTYLEMODE
290
     1
  9
$FINGERPRINTGUID
  2
{ADC879E3-839E-4809-9EDB-0EF270D6C0F5}
  9
$VERSIONGUID
  2
{FAEB1C32-E019-11D5-929B-00C0DF256EC4}
  9
$EXTNAMES
290
     1
  9
$PSVPSCALE
 40
0.0
  9
$OLESTARTUP
290
     0
  0
ENDSEC
  0
SECTION
  2
CLASSES
  0
CLASS
  1
ACDBDICTIONARYWDFLT
  2
AcDbDictionaryWithDefault
  3
ObjectDBX Classes
 90
        0
280
     0
281
     0
  0
CLASS
  1
VISUALSTYLE
  2
AcDbVisualStyle
  3
ObjectDBX Classes
 90
     4095
280
     0
281
     0
  0
CLASS
  1
MATERIAL
  2
AcDbMaterial
  3
ObjectDBX Classes
 90
     1153
280
     0
281
     0
  0
CLASS
  1
SCALE
  2
AcDbScale
  3
ObjectDBX Classes
 90
     1153
280
     0
281
     0
  0
CLASS
  1
SUN
  2
AcDbSun
  3
SCENEOE
 90
     1153
280
     0
281
     0
  0
CLASS
  1
ACDBPLACEHOLDER
  2
AcDbPlaceHolder
  3
ObjectDBX Classes
 90
        0
280
     0
281
     0
  0
CLASS
  1
LAYOUT
  2
AcDbLayout
  3
ObjectDBX Classes
 90
        0
280
     0
281
     0
  0
CLASS
  1
TABLESTYLE
  2
AcDbTableStyle
  3
ObjectDBX Classes
 90
     4095
280
     0
281
     0
  0
CLASS
  1
MLEADERSTYLE
  2
AcDbMLeaderStyle
  3
ACDB_MLEADERSTYLE_CLASS
 90
     4095
280
     0
281
     0
  0
CLASS
  1
RASTERVARIABLES
  2
AcDbRasterVariables
  3
ISM
 90
        0
280
     0
281
     0
  0
ENDSEC
  0
SECTION
  2
TABLES
  0
TABLE
  2
VPORT
  5
8
330
0
100
AcDbSymbolTable
 70
     1
  0
VPORT
  5
29
330
8
100
AcDbSymbolTableRecord
100
AcDbViewportTableRecord
  2
*Active
 70
     0
 10
0.0
 20
0.0
 11
1.0
 21
1.0
 12
27.73143751647749
 22
-11.04527869440589
 13
0.0
 23
0.0
 14
10.0
 24
10.0
 15
10.0
 25
10.0
 16
0.0
 26
0.0
 36
1.0
 17
0.0
 27
0.0
 37
0.0
 40
79.41011853658796
 41
1.782762691853601
 42
50.0
 43
0.0
 44
0.0
 50
0.0
 51
0.0
 71
    16
 72
  2000
 73
     1
 74
     3
 75
     0
 76
     0
 77
     0
 78
     0
281
     0
 65
     1
110
0.0
120
0.0
130
0.0
111
1.0
121
0.0
131
0.0
112
0.0
122
1.0
132
0.0
 79
     0
146
0.0
  0
ENDTAB
  0
TABLE
  2
LTYPE
  5
5
330
0
100
AcDbSymbolTable
 70
     6
  0
LTYPE
  5
14
330
5
100
AcDbSymbolTableRecord
100
AcDbLinetypeTableRecord
  2
ByBlock
 70
     0
  3

 72
    65
 73
     0
 40
0.0
  0
LTYPE
  5
15
330
5
100
AcDbSymbolTableRecord
100
AcDbLinetypeTableRecord
  2
ByLayer
 70
     0
  3

 72
    65
 73
     0
 40
0.0
  0
LTYPE
  5
16
330
5
100
AcDbSymbolTableRecord
100
AcDbLinetypeTableRecord
  2
Continuous
 70
     0
  3
Solid line
 72
    65
 73
     0
 40
0.0
  0
LTYPE
  5
6A
330
5
100
AcDbSymbolTableRecord
100
AcDbLinetypeTableRecord
  2
HIDDEN
 70
     0
  3
Hidden __ __ __ __ __ __ __ __ __ __ __ __ __ __
 72
    65
 73
     2
 40
1.905
 49
1.27
 74
     0
 49
-0.635
 74
     0
  0
LTYPE
  5
6B
330
5
100
AcDbSymbolTableRecord
100
AcDbLinetypeTableRecord
  2
PHANTOM
 70
     0
  3
Phantom ______  __  __  ______  __  __  ______
 72
    65
 73
     6
 40
12.7
 49
6.35
 74
     0
 49
-1.27
 74
     0
 49
1.27
 74
     0
 49
-1.27
 74
     0
 49
1.27
 74
     0
 49
-1.27
 74
     0
  0
LTYPE
  5
6C
330
5
100
AcDbSymbolTableRecord
100
AcDbLinetypeTableRecord
  2
CENTER
 70
     0
  3
Center ____ _ ____ _ ____ _ ____ _ ____ _ ____
 72
    65
 73
     4
 40
10.16
 49
6.35
 74
     0
 49
-1.27
 74
     0
 49
1.27
 74
     0
 49
-1.27
 74
     0
  0
LTYPE
  5
6D
330
5
100
AcDbSymbolTableRecord
100
AcDbLinetypeTableRecord
  2
CENTERX2
 70
     0
  3
Center (2x) ________  __  ________  __  _____
 72
    65
 73
     4
 40
20.32
 49
12.7
 74
     0
 49
-2.54
 74
     0
 49
2.54
 74
     0
 49
-2.54
 74
     0
  0
LTYPE
  5
6E
330
5
100
AcDbSymbolTableRecord
100
AcDbLinetypeTableRecord
  2
DOT2
 70
     0
  3
Dot (.5x) ........................................
 72
    65
 73
     2
 40
0.635
 49
0.0
 74
     0
 49
-0.635
 74
     0
  0
ENDTAB
  0
TABLE
  2
LAYER
  5
2
330
0
100
AcDbSymbolTable
 70
    18
  0
LAYER
  5
10
330
2
100
AcDbSymbolTableRecord
100
AcDbLayerTableRecord
  2
0
 70
     0
 62
     7
  6
Continuous
370
    -3
390
F
  0
LAYER
  5
6F
330
2
100
AcDbSymbolTableRecord
100
AcDbLayerTableRecord
  2
FORMAT
 70
     0
 62
     2
  6
Continuous
370
    -3
390
F
  0
LAYER
  5
70
330
2
100
AcDbSymbolTableRecord
100
AcDbLayerTableRecord
  2
외형선
 70
     0
 62
     4
  6
Continuous
370
    30
390
F
  0
LAYER
  5
71
330
2
100
AcDbSymbolTableRecord
100
AcDbLayerTableRecord
  2
숨은선
 70
     0
 62
     2
  6
HIDDEN
370
    15
390
F
  0
LAYER
  5
72
330
2
100
AcDbSymbolTableRecord
100
AcDbLayerTableRecord
  2
중심선
 70
     0
 62
     1
  6
CENTERX2
370
    -3
390
F
  0
LAYER
  5
73
330
2
100
AcDbSymbolTableRecord
100
AcDbLayerTableRecord
  2
파단선
 70
     0
 62
     4
  6
Continuous
370
    -3
390
F
  0
LAYER
  5
74
330
2
100
AcDbSymbolTableRecord
100
AcDbLayerTableRecord
  2
해칭선
 70
     0
 62
   100
  6
Continuous
370
    -3
390
F
  0
LAYER
  5
75
330
2
100
AcDbSymbolTableRecord
100
AcDbLayerTableRecord
  2
가는실선
 70
     0
 62
     4
  6
Continuous
370
    -3
390
F
  0
LAYER
  5
76
330
2
100
AcDbSymbolTableRecord
100
AcDbLayerTableRecord
  2
치수_보조선
 70
     0
 62
     4
  6
Continuous
370
    -3
390
F
  0
LAYER
  5
77
330
2
100
AcDbSymbolTableRecord
100
AcDbLayerTableRecord
  2
치수문자_일반주서
 70
     0
 62
     7
  6
Continuous
370
    15
390
F
  0
LAYER
  5
78
330
2
100
AcDbSymbolTableRecord
100
AcDbLayerTableRecord
  2
개별주서
 70
     0
 62
   100
  6
Continuous
370
    30
390
F
  0
LAYER
  5
79
330
2
100
AcDbSymbolTableRecord
100
AcDbLayerTableRecord
  2
중간선
 70
     0
 62
     2
  6
Continuous
370
    15
390
F
  0
LAYER
  5
7A
330
2
100
AcDbSymbolTableRecord
100
AcDbLayerTableRecord
  2
윤곽선
 70
     0
 62
     3
  6
Continuous
370
    40
390
F
  0
LAYER
  5
7B
330
2
100
AcDbSymbolTableRecord
100
AcDbLayerTableRecord
  2
중심마크
 70
     0
 62
   100
  6
Continuous
370
    30
390
F
  0
LAYER
  5
7C
330
2
100
AcDbSymbolTableRecord
100
AcDbLayerTableRecord
  2
가상선
 70
     0
 62
     4
  6
PHANTOM
370
    -3
390
F
  0
LAYER
  5
7D
330
2
100
AcDbSymbolTableRecord
100
AcDbLayerTableRecord
  2
특수지정선
 70
     0
 62
     5
  6
CENTERX2
370
    60
390
F
  0
LAYER
  5
7E
330
2
100
AcDbSymbolTableRecord
100
AcDbLayerTableRecord
  2
참조1
 70
     0
 62
    -4
  6
Continuous
370
    -3
390
F
  0
LAYER
  5
158
330
2
100
AcDbSymbolTableRecord
100
AcDbLayerTableRecord
  2
Defpoints
 70
     0
 62
     7
  6
Continuous
290
     0
370
    -3
390
F
  0
ENDTAB
  0
TABLE
  2
STYLE
  5
3
330
0
100
AcDbSymbolTable
 70
     2
  0
STYLE
  5
11
330
3
100
AcDbSymbolTableRecord
100
AcDbTextStyleTableRecord
  2
Standard
 70
     0
 40
0.0
 41
1.0
 50
0.0
 71
     0
 42
3.5
  3
txt
  4

  0
STYLE
  5
94
330
3
100
AcDbSymbolTableRecord
100
AcDbTextStyleTableRecord
  2
SLDTEXTSTYLE0
 70
     0
 40
0.0
 41
0.75
 50
0.0
 71
     0
 42
3.5
  3
TXT
  4

  0
ENDTAB
  0
TABLE
  2
VIEW
  5
6
330
0
100
AcDbSymbolTable
 70
     0
  0
ENDTAB
  0
TABLE
  2
UCS
  5
7
330
0
100
AcDbSymbolTable
 70
     0
  0
ENDTAB
  0
TABLE
  2
APPID
  5
9
330
0
100
AcDbSymbolTable
 70
     2
  0
APPID
  5
12
330
9
100
AcDbSymbolTableRecord
100
AcDbRegAppTableRecord
  2
ACAD
 70
     0
  0
APPID
  5
15F
330
9
100
AcDbSymbolTableRecord
100
AcDbRegAppTableRecord
  2
PE_URL
 70
     0
  0
ENDTAB
  0
TABLE
  2
DIMSTYLE
  5
A
330
0
100
AcDbSymbolTable
 70
     3
100
AcDbDimStyleTable
  0
DIMSTYLE
105
27
330
A
100
AcDbSymbolTableRecord
100
AcDbDimStyleTableRecord
  2
ISO-25
 70
     0
 41
2.5
 42
0.625
 43
3.75
 44
1.25
 73
     0
 74
     0
 77
     1
 78
     8
140
2.5
141
2.5
143
0.03937007874016
147
0.625
171
     3
172
     1
178
     0
271
     2
272
     2
274
     3
278
    44
283
     0
284
     8
340
11
  0
DIMSTYLE
105
D6
102
{ACAD_REACTORS
330
D5
330
EA
330
FE
330
113
102
}
330
A
100
AcDbSymbolTableRecord
100
AcDbDimStyleTableRecord
  2
SLDDIMSTYLE0
 70
     0
 41
3.302
 44
0.0
 45
0.000000001
 73
     0
 74
     0
 77
     1
 78
    12
 79
     3
140
3.5
143
0.0393700787401575
147
0.875
148
0.000000001
170
     1
172
     1
173
     1
178
     0
271
     2
272
     2
276
     2
284
    12
289
     0
340
94
  0
DIMSTYLE
105
114
330
A
100
AcDbSymbolTableRecord
100
AcDbDimStyleTableRecord
  2
SLDDIMSTYLE1
 70
     0
 41
3.302
 44
0.0
 45
0.000000001
 73
     0
 74
     0
 77
     1
 78
     4
 79
     1
140
3.5
143
0.0393700787401575
147
0.875
148
0.000000001
170
     1
173
     1
178
     0
271
     2
272
     2
276
     2
284
    12
340
94
  0
ENDTAB
  0
TABLE
  2
BLOCK_RECORD
  5
1
330
0
100
AcDbSymbolTable
 70
     9
  0
BLOCK_RECORD
  5
1F
330
1
100
AcDbSymbolTableRecord
100
AcDbBlockTableRecord
  2
*Model_Space
340
22
  0
BLOCK_RECORD
  5
1B
330
1
100
AcDbSymbolTableRecord
100
AcDbBlockTableRecord
  2
*Paper_Space
340
1E
  0
BLOCK_RECORD
  5
23
330
1
100
AcDbSymbolTableRecord
100
AcDbBlockTableRecord
  2
*Paper_Space0
340
26
  0
BLOCK_RECORD
  5
7F
330
1
100
AcDbSymbolTableRecord
100
AcDbBlockTableRecord
  2
블럭10
340
0
102
{BLKREFS
331
CE
102
}
  0
BLOCK_RECORD
  5
D7
330
1
100
AcDbSymbolTableRecord
100
AcDbBlockTableRecord
  2
_D
340
0
  0
BLOCK_RECORD
  5
EB
330
1
100
AcDbSymbolTableRecord
100
AcDbBlockTableRecord
  2
_D_1
340
0
  0
BLOCK_RECORD
  5
FF
330
1
100
AcDbSymbolTableRecord
100
AcDbBlockTableRecord
  2
_D_2
340
0
  0
BLOCK_RECORD
  5
115
330
1
100
AcDbSymbolTableRecord
100
AcDbBlockTableRecord
  2
_D_3
340
0
  0
BLOCK_RECORD
  5
12E
330
1
100
AcDbSymbolTableRecord
100
AcDbBlockTableRecord
  2
SW_DOWELSYMBOL_0
340
0
102
{BLKREFS
331
134
102
}
  0
BLOCK_RECORD
  5
191
330
1
100
AcDbSymbolTableRecord
100
AcDbBlockTableRecord
  2
*D7
340
0
  0
BLOCK_RECORD
  5
1A3
330
1
100
AcDbSymbolTableRecord
100
AcDbBlockTableRecord
  2
*D8
340
0
  0
ENDTAB
  0
ENDSEC
  0
SECTION
  2
BLOCKS
  0
BLOCK
  5
20
330
1F
100
AcDbEntity
  8
0
100
AcDbBlockBegin
  2
*Model_Space
 70
     0
 10
0.0
 20
0.0
 30
0.0
  3
*Model_Space
  1
*Model_Space
  0
ENDBLK
  5
21
330
1F
100
AcDbEntity
  8
0
100
AcDbBlockEnd
  0
BLOCK
  5
1C
330
1B
100
AcDbEntity
 67
     1
  8
0
100
AcDbBlockBegin
  2
*Paper_Space
 70
     0
 10
0.0
 20
0.0
 30
0.0
  3
*Paper_Space
  1
*Paper_Space
  0
ENDBLK
  5
1D
330
1B
100
AcDbEntity
 67
     1
  8
0
100
AcDbBlockEnd
  0
BLOCK
  5
24
330
23
100
AcDbEntity
  8
0
100
AcDbBlockBegin
  2
*Paper_Space0
 70
     0
 10
0.0
 20
0.0
 30
0.0
  3
*Paper_Space0
  1
*Paper_Space0
  0
ENDBLK
  5
25
330
23
100
AcDbEntity
  8
0
100
AcDbBlockEnd
  0
BLOCK
  5
80
330
7F
100
AcDbEntity
  8
0
100
AcDbBlockBegin
  2
블럭10
 70
     2
 10
0.0
 20
0.0
 30
0.0
  3
블럭10
  1
블럭10
  0
ELLIPSE
  5
82
330
7F
100
AcDbEntity
  8
중심선
100
AcDbEllipse
 10
20.54032771741204
 20
12.0471743016438
 30
0.0
 11
6.600054785286829
 21
-1.261213355974178E-13
 31
0.0
210
0.0
220
0.0
230
1.0
 40
0.636358354079598
 41
0.9219305317359503
 42
6.513795318482858
  0
ELLIPSE
  5
83
330
7F
100
AcDbEntity
  8
중심선
100
AcDbEllipse
 10
20.54032771746488
 20
12.04717430159265
 30
0.0
 11
3.960054785062283
 21
1.540847449632565E-10
 31
0.0
210
0.0
220
0.0
230
1.0
 40
0.3939339440162632
 41
1.131841032648279
 42
5.62031148352944
  0
LINE
  5
84
330
7F
100
AcDbEntity
  8
중심선
100
AcDbLine
 10
2.268634060543552
 20
16.24717430164393
 30
0.0
 11
5.714909304380834
 21
16.24717430164393
 31
0.0
  0
LINE
  5
85
330
7F
100
AcDbEntity
  8
중심선
100
AcDbLine
 10
5.245725140726316
 20
7.84717430164391
 30
0.0
 11
8.692000384563599
 21
7.84717430164391
 31
0.0
  0
LINE
  5
86
330
7F
100
AcDbEntity
  8
중심선
100
AcDbLine
 10
15.74043728645272
 20
16.24717430164393
 30
0.0
 11
8.692000384563599
 21
7.84717430164391
 31
0.0
  0
LINE
  5
87
330
7F
100
AcDbEntity
  8
중심선
100
AcDbLine
 10
0.1404042013395286
 20
13.71084872107135
 30
0.0
 11
3.58671253028996
 21
13.71088815037384
 31
0.0
  0
LINE
  5
88
330
7F
100
AcDbEntity
  8
중심선
100
AcDbLine
 10
2.750260043222114
 20
10.84717430164391
 30
0.0
 11
6.196535287059397
 21
10.84717430164391
 31
0.0
  0
LINE
  5
89
330
7F
100
AcDbEntity
  8
중심선
100
AcDbLine
 10
12.29416204261559
 20
16.24717430164393
 30
0.0
 11
5.245725140726316
 21
7.84717430164391
 31
0.0
  0
LINE
  5
8A
330
7F
100
AcDbEntity
  8
중심선
100
AcDbLine
 10
10.72767329541681
 20
16.24717430164393
 30
0.0
 11
6.196535287059397
 21
10.84717430164391
 31
0.0
  0
LINE
  5
8B
330
7F
100
AcDbEntity
  8
중심선
100
AcDbLine
 10
7.28139805157953
 20
16.24717430164393
 30
0.0
 11
2.750260043222114
 21
10.84717430164391
 31
0.0
  0
LINE
  5
8C
330
7F
100
AcDbEntity
  8
중심선
100
AcDbLine
 10
5.714909304380834
 20
16.24717430164393
 30
0.0
 11
3.58671253028996
 21
13.71088815037384
 31
0.0
  0
LINE
  5
8D
330
7F
100
AcDbEntity
  8
중심선
100
AcDbLine
 10
2.268634060543552
 20
16.24717430164393
 30
0.0
 11
0.1404042013395286
 21
13.71084872107135
 31
0.0
  0
LINE
  5
8E
330
7F
100
AcDbEntity
  8
중심선
100
AcDbLine
 10
7.28139805157953
 20
16.24717430164393
 30
0.0
 11
10.72767329541681
 21
16.24717430164393
 31
0.0
  0
LINE
  5
8F
330
7F
100
AcDbEntity
  8
중심선
100
AcDbLine
 10
12.29416204261559
 20
16.24717430164393
 30
0.0
 11
15.74043728645272
 21
16.24717430164393
 31
0.0
  0
LINE
  5
90
330
7F
100
AcDbEntity
  8
중심선
100
AcDbLine
 10
19.22036997980202
 20
11.08717430171403
 30
0.0
 11
23.66174974927406
 21
11.08717430171406
 31
0.0
  0
LINE
  5
91
330
7F
100
AcDbEntity
  8
중심선
100
AcDbLine
 10
19.22039502424796
 20
13.00717430171391
 30
0.0
 11
19.22036997980202
 21
11.08717430171403
 31
0.0
  0
LINE
  5
92
330
7F
100
AcDbEntity
  8
중심선
100
AcDbLine
 10
19.22039502424796
 20
13.00717430171391
 30
0.0
 11
26.96566020931264
 21
13.00717430171391
 31
0.0
  0
LINE
  5
93
330
7F
100
AcDbEntity
  8
중심선
100
AcDbLine
 10
22.22332737316547
 20
13.45928029700563
 30
0.0
 11
24.52862924686651
 21
15.39360700705356
 31
0.0
  0
ATTDEF
  5
95
330
7F
100
AcDbEntity
  8
FORMAT
 62
     2
100
AcDbText
 10
4.408487351596664
 20
2.075366912832191
 30
0.0
 40
4.233333333333333
  1
E1001007
 41
0.75
  7
SLDTEXTSTYLE0
 11
4.408487351596664
 21
-0.0412997538344756
 31
0.0
100
AcDbAttributeDefinition
  3

  2
AUTOATTR0
 70
     0
 74
     1
  0
ENDBLK
  5
81
330
7F
100
AcDbEntity
  8
0
100
AcDbBlockEnd
  0
BLOCK
  5
D8
330
D7
100
AcDbEntity
  8
0
100
AcDbBlockBegin
  2
_D
 70
     0
 10
0.0
 20
0.0
 30
0.0
  3
_D
  1
_D
  0
LINE
  5
DA
330
D7
100
AcDbEntity
  8
치수문자_일반주서
 62
     0
370
    -2
100
AcDbLine
 10
-16.79085583936527
 20
2.381249999999997
 30
0.0
 11
-33.40000000000001
 21
2.381249999999936
 31
0.0
  0
LINE
  5
DB
330
D7
100
AcDbEntity
  8
치수문자_일반주서
 62
     0
370
    -2
100
AcDbLine
 10
-16.79085583936527
 20
-2.381250000000013
 30
0.0
 11
-33.4
 21
-2.381250000000072
 31
0.0
  0
LINE
  5
DC
330
D7
100
AcDbEntity
  8
치수문자_일반주서
 62
     0
370
    -2
100
AcDbLine
 10
-33.40000000000001
 20
2.381249999999936
 30
0.0
 11
-33.40000000000008
 21
27.88124999999997
 31
0.0
  0
LINE
  5
DD
330
D7
100
AcDbEntity
  8
치수문자_일반주서
 62
     0
370
    -2
100
AcDbLine
 10
-33.40000000000001
 20
2.381249999999936
 30
0.0
 11
-33.4
 21
-2.381250000000072
 31
0.0
  0
LINE
  5
DE
330
D7
100
AcDbEntity
  8
치수문자_일반주서
 62
     0
370
    -2
100
AcDbLine
 10
-33.40000000000002
 20
4.881249999999936
 30
0.0
 11
-33.40000000000003
 21
7.381249999999936
 31
0.0
  0
LINE
  5
DF
330
D7
100
AcDbEntity
  8
치수문자_일반주서
 62
     0
370
    -2
100
AcDbLine
 10
-33.39999999999999
 20
-4.881250000000072
 30
0.0
 11
-33.39999999999998
 21
-7.381250000000072
 31
0.0
  0
SOLID
  5
E0
330
D7
100
AcDbEntity
  8
치수문자_일반주서
 62
     0
100
AcDbTrace
 10
-33.81666666666668
 20
4.881249999999935
 30
0.0
 11
-32.98333333333336
 21
4.881249999999937
 31
0.0
 12
-33.40000000000001
 22
2.381249999999936
 32
0.0
 13
-33.40000000000001
 23
2.381249999999936
 33
0.0
  0
SOLID
  5
E1
330
D7
100
AcDbEntity
  8
치수문자_일반주서
 62
     0
100
AcDbTrace
 10
-32.98333333333333
 20
-4.881250000000072
 30
0.0
 11
-33.81666666666666
 21
-4.881250000000073
 31
0.0
 12
-33.4
 22
-2.381250000000072
 32
0.0
 13
-33.4
 23
-2.381250000000072
 33
0.0
  0
MTEXT
  5
E2
330
D7
100
AcDbEntity
  8
치수문자_일반주서
 62
     0
100
AcDbMText
 10
-36.77500000000006
 20
17.63124999999996
 30
0.0
 40
2.5
 41
0.0
 71
     2
 72
     1
  1
\A1;%%c4.76 [3/16]
  7
SLDTEXTSTYLE0
 11
-2.983906501879679E-15
 21
1.0
 31
0.0
 73
     1
 44
1.0
  0
POINT
  5
1B8
330
D7
100
AcDbEntity
  8
Defpoints
 62
     0
100
AcDbPoint
 10
-16.72835583936527
 20
2.381249999999997
 30
0.0
  0
POINT
  5
1B9
330
D7
100
AcDbEntity
  8
Defpoints
 62
     0
100
AcDbPoint
 10
-16.72835583936527
 20
-2.381250000000012
 30
0.0
  0
POINT
  5
1BA
330
D7
100
AcDbEntity
  8
Defpoints
 62
     0
100
AcDbPoint
 10
-33.4
 20
-2.381250000000074
 30
0.0
  0
ENDBLK
  5
D9
330
D7
100
AcDbEntity
  8
0
100
AcDbBlockEnd
  0
BLOCK
  5
EC
330
EB
100
AcDbEntity
  8
0
100
AcDbBlockBegin
  2
_D_1
 70
     0
 10
0.0
 20
0.0
 30
0.0
  3
_D_1
  1
_D_1
  0
LINE
  5
EE
330
EB
100
AcDbEntity
  8
치수문자_일반주서
 62
     0
370
    -2
100
AcDbLine
 10
25.46250000000001
 20
-1.387888485529925
 30
0.0
 11
54.77516787415998
 21
-1.387888485529814
 31
0.0
  0
LINE
  5
EF
330
EB
100
AcDbEntity
  8
치수문자_일반주서
 62
     0
370
    -2
100
AcDbLine
 10
25.46250000000001
 20
1.387888485529928
 30
0.0
 11
54.77516787415998
 21
1.387888485530038
 31
0.0
  0
LINE
  5
F0
330
EB
100
AcDbEntity
  8
치수문자_일반주서
 62
     0
370
    -2
100
AcDbLine
 10
54.77516787415998
 20
1.387888485530038
 30
0.0
 11
54.77516787415991
 21
27.51288848553004
 31
0.0
  0
LINE
  5
F1
330
EB
100
AcDbEntity
  8
치수문자_일반주서
 62
     0
370
    -2
100
AcDbLine
 10
54.77516787415998
 20
-1.387888485529814
 30
0.0
 11
54.77516787415998
 21
1.387888485530038
 31
0.0
  0
LINE
  5
F2
330
EB
100
AcDbEntity
  8
치수문자_일반주서
 62
     0
370
    -2
100
AcDbLine
 10
54.77516787415999
 20
-3.887888485529814
 30
0.0
 11
54.77516787416
 21
-6.387888485529814
 31
0.0
  0
LINE
  5
F3
330
EB
100
AcDbEntity
  8
치수문자_일반주서
 62
     0
370
    -2
100
AcDbLine
 10
54.77516787415997
 20
3.887888485530038
 30
0.0
 11
54.77516787415996
 21
6.387888485530038
 31
0.0
  0
SOLID
  5
F4
330
EB
100
AcDbEntity
  8
치수문자_일반주서
 62
     0
100
AcDbTrace
 10
55.19183454082665
 20
-3.887888485529813
 30
0.0
 11
54.35850120749333
 21
-3.887888485529815
 31
0.0
 12
54.77516787415998
 22
-1.387888485529814
 32
0.0
 13
54.77516787415998
 23
-1.387888485529814
 33
0.0
  0
SOLID
  5
F5
330
EB
100
AcDbEntity
  8
치수문자_일반주서
 62
     0
100
AcDbTrace
 10
54.3585012074933
 20
3.887888485530037
 30
0.0
 11
55.19183454082663
 21
3.887888485530039
 31
0.0
 12
54.77516787415998
 22
1.387888485530038
 32
0.0
 13
54.77516787415998
 23
1.387888485530038
 33
0.0
  0
MTEXT
  5
F6
330
EB
100
AcDbEntity
  8
치수문자_일반주서
 62
     0
100
AcDbMText
 10
51.40016787415993
 20
16.95038848553003
 30
0.0
 40
2.5
 41
0.0
 71
     2
 72
     1
  1
\A1;%%c2.78 [7/64]
  7
SLDTEXTSTYLE0
 11
-2.559797646454280E-15
 21
1.0
 31
0.0
 73
     1
 44
1.0
  0
POINT
  5
F7
330
EB
100
AcDbEntity
  8
Defpoints
 62
     0
100
AcDbPoint
 10
25.40000000000001
 20
-1.387888485529926
 30
0.0
  0
POINT
  5
F8
330
EB
100
AcDbEntity
  8
Defpoints
 62
     0
100
AcDbPoint
 10
25.40000000000001
 20
1.387888485529927
 30
0.0
  0
POINT
  5
F9
330
EB
100
AcDbEntity
  8
Defpoints
 62
     0
100
AcDbPoint
 10
54.77516787415998
 20
1.387888485530037
 30
0.0
  0
ENDBLK
  5
ED
330
EB
100
AcDbEntity
  8
0
100
AcDbBlockEnd
  0
BLOCK
  5
100
330
FF
100
AcDbEntity
  8
0
100
AcDbBlockBegin
  2
_D_2
 70
     0
 10
0.0
 20
0.0
 30
0.0
  3
_D_2
  1
_D_2
  0
LINE
  5
102
330
FF
100
AcDbEntity
  8
치수문자_일반주서
 62
     0
370
    -2
100
AcDbLine
 10
25.40000000000001
 20
1.450388485529927
 30
0.0
 11
25.40000000000001
 21
10.38125000000002
 31
0.0
  0
LINE
  5
103
330
FF
100
AcDbEntity
  8
치수문자_일반주서
 62
     0
370
    -2
100
AcDbLine
 10
21.43125000000001
 20
1.170331603572362
 30
0.0
 11
21.43125000000001
 21
10.38125000000002
 31
0.0
  0
LINE
  5
104
330
FF
100
AcDbEntity
  8
치수문자_일반주서
 62
     0
370
    -2
100
AcDbLine
 10
25.40000000000001
 20
10.38125000000002
 30
0.0
 11
49.65000000000001
 21
10.38125000000002
 31
0.0
  0
LINE
  5
105
330
FF
100
AcDbEntity
  8
치수문자_일반주서
 62
     0
370
    -2
100
AcDbLine
 10
25.40000000000001
 20
10.38125000000002
 30
0.0
 11
21.43125000000001
 21
10.38125000000002
 31
0.0
  0
LINE
  5
106
330
FF
100
AcDbEntity
  8
치수문자_일반주서
 62
     0
370
    -2
100
AcDbLine
 10
27.90000000000001
 20
10.38125000000002
 30
0.0
 11
30.40000000000001
 21
10.38125000000002
 31
0.0
  0
LINE
  5
107
330
FF
100
AcDbEntity
  8
치수문자_일반주서
 62
     0
370
    -2
100
AcDbLine
 10
18.93125000000001
 20
10.38125000000002
 30
0.0
 11
16.43125000000001
 21
10.38125000000002
 31
0.0
  0
SOLID
  5
108
330
FF
100
AcDbEntity
  8
치수문자_일반주서
 62
     0
100
AcDbTrace
 10
27.90000000000001
 20
10.79791666666668
 30
0.0
 11
27.90000000000001
 21
9.964583333333351
 31
0.0
 12
25.40000000000001
 22
10.38125000000002
 32
0.0
 13
25.40000000000001
 23
10.38125000000002
 33
0.0
  0
SOLID
  5
109
330
FF
100
AcDbEntity
  8
치수문자_일반주서
 62
     0
100
AcDbTrace
 10
18.93125000000001
 20
9.964583333333351
 30
0.0
 11
18.93125000000001
 21
10.79791666666668
 31
0.0
 12
21.43125000000001
 22
10.38125000000002
 32
0.0
 13
21.43125000000001
 23
10.38125000000002
 33
0.0
  0
MTEXT
  5
10A
330
FF
100
AcDbEntity
  8
치수문자_일반주서
 62
     0
100
AcDbMText
 10
40.02500000000001
 20
13.75625000000002
 30
0.0
 40
2.5
 41
0.0
 71
     2
 72
     1
  1
\A1;3.97 [5/32]
  7
SLDTEXTSTYLE0
 73
     1
 44
1.0
  0
POINT
  5
10B
330
FF
100
AcDbEntity
  8
Defpoints
 62
     0
100
AcDbPoint
 10
25.40000000000001
 20
1.387888485529927
 30
0.0
  0
POINT
  5
10C
330
FF
100
AcDbEntity
  8
Defpoints
 62
     0
100
AcDbPoint
 10
21.43125000000001
 20
1.107831603572362
 30
0.0
  0
POINT
  5
10D
330
FF
100
AcDbEntity
  8
Defpoints
 62
     0
100
AcDbPoint
 10
21.43125000000001
 20
10.38125000000002
 30
0.0
  0
ENDBLK
  5
101
330
FF
100
AcDbEntity
  8
0
100
AcDbBlockEnd
  0
BLOCK
  5
116
330
115
100
AcDbEntity
  8
0
100
AcDbBlockBegin
  2
_D_3
 70
     0
 10
0.0
 20
0.0
 30
0.0
  3
_D_3
  1
_D_3
  0
LINE
  5
118
330
115
100
AcDbEntity
  8
치수문자_일반주서
 62
     0
370
    -2
100
AcDbLine
 10
-25.40000000000001
 20
1.450388485529909
 30
0.0
 11
-25.40000000000001
 21
18.38125000000001
 31
0.0
  0
LINE
  5
119
330
115
100
AcDbEntity
  8
치수문자_일반주서
 62
     0
370
    -2
100
AcDbLine
 10
25.40000000000001
 20
1.450388485529927
 30
0.0
 11
25.40000000000001
 21
18.38125000000001
 31
0.0
  0
LINE
  5
11A
330
115
100
AcDbEntity
  8
치수문자_일반주서
 62
     0
370
    -2
100
AcDbLine
 10
-22.90000000000001
 20
18.38125000000001
 30
0.0
 11
22.90000000000001
 21
18.38125000000001
 31
0.0
  0
SOLID
  5
11B
330
115
100
AcDbEntity
  8
치수문자_일반주서
 62
     0
100
AcDbTrace
 10
-22.90000000000001
 20
18.79791666666668
 30
0.0
 11
-22.90000000000001
 21
17.96458333333334
 31
0.0
 12
-25.40000000000001
 22
18.38125000000001
 32
0.0
 13
-25.40000000000001
 23
18.38125000000001
 33
0.0
  0
SOLID
  5
11C
330
115
100
AcDbEntity
  8
치수문자_일반주서
 62
     0
100
AcDbTrace
 10
22.90000000000001
 20
17.96458333333334
 30
0.0
 11
22.90000000000001
 21
18.79791666666668
 31
0.0
 12
25.40000000000001
 22
18.38125000000001
 32
0.0
 13
25.40000000000001
 23
18.38125000000001
 33
0.0
  0
MTEXT
  5
11D
330
115
100
AcDbEntity
  8
치수문자_일반주서
 62
     0
100
AcDbMText
 10
0.0000000000000071
 20
21.75625000000001
 30
0.0
 40
2.5
 41
0.0
 71
     2
 72
     1
  1
\A1;50.8 [2]
  7
SLDTEXTSTYLE0
 73
     1
 44
1.0
  0
POINT
  5
11E
330
115
100
AcDbEntity
  8
Defpoints
 62
     0
100
AcDbPoint
 10
-25.40000000000001
 20
1.387888485529909
 30
0.0
  0
POINT
  5
11F
330
115
100
AcDbEntity
  8
Defpoints
 62
     0
100
AcDbPoint
 10
25.40000000000001
 20
1.387888485529927
 30
0.0
  0
POINT
  5
120
330
115
100
AcDbEntity
  8
Defpoints
 62
     0
100
AcDbPoint
 10
25.40000000000001
 20
18.38125000000001
 30
0.0
  0
ENDBLK
  5
117
330
115
100
AcDbEntity
  8
0
100
AcDbBlockEnd
  0
BLOCK
  5
12F
330
12E
100
AcDbEntity
  8
0
100
AcDbBlockBegin
  2
SW_DOWELSYMBOL_0
 70
     0
 10
0.0
 20
0.0
 30
0.0
  3
SW_DOWELSYMBOL_0
  1
SW_DOWELSYMBOL_0
  0
CIRCLE
  5
131
330
12E
100
AcDbEntity
  8
해칭선
 62
     0
100
AcDbCircle
 10
0.0
 20
0.0
 30
0.0
 40
3.000000000000001
  0
HATCH
  5
132
330
12E
100
AcDbEntity
  8
0
  6
Continuous
 62
     0
370
     0
100
AcDbHatch
 10
0.0
 20
0.0
 30
0.0
210
0.0
220
0.0
230
1.0
  2
SOLID
 70
     1
 71
     0
 91
        1
 92
        0
 93
        3
 72
     2
 10
0.0
 20
0.0
 40
3.000000000000001
 50
0.0
 51
90.0
 73
     1
 72
     1
 10
0.0
 20
3.000000000000001
 11
0.0
 21
0.0
 72
     1
 10
0.0
 20
0.0
 11
3.000000000000001
 21
0.0
 97
        0
 75
     0
 76
     1
 98
        1
 10
0.0
 20
0.0
  0
HATCH
  5
133
330
12E
100
AcDbEntity
  8
0
  6
Continuous
 62
     0
370
     0
100
AcDbHatch
 10
0.0
 20
0.0
 30
0.0
210
0.0
220
0.0
230
1.0
  2
SOLID
 70
     1
 71
     0
 91
        1
 92
        0
 93
        3
 72
     2
 10
0.0
 20
0.0
 40
3.000000000000001
 50
180.0
 51
270.0000000000007
 73
     1
 72
     1
 10
0.0
 20
-3.000000000000001
 11
0.0
 21
0.0
 72
     1
 10
0.0
 20
0.0
 11
-3.000000000000001
 21
0.0
 97
        0
 75
     0
 76
     1
 98
        1
 10
0.0
 20
0.0
  0
ENDBLK
  5
130
330
12E
100
AcDbEntity
  8
0
100
AcDbBlockEnd
  0
BLOCK
  5
192
330
191
100
AcDbEntity
  8
0
100
AcDbBlockBegin
  2
*D7
 70
     1
 10
0.0
 20
0.0
 30
0.0
  3
*D7
  1
*D7
  0
LINE
  5
194
330
191
100
AcDbEntity
  8
치수문자_일반주서
 62
     0
370
    -2
100
AcDbLine
 10
6.190624999999997
 20
0.3484871582727809
 30
0.0
 11
6.190624999999997
 21
10.27069759097852
 31
0.0
  0
LINE
  5
195
330
191
100
AcDbEntity
  8
치수문자_일반주서
 62
     0
370
    -2
100
AcDbLine
 10
5.0
 20
0.2657482930384945
 30
0.0
 11
5.0
 21
10.27069759097852
 31
0.0
  0
LINE
  5
196
330
191
100
AcDbEntity
  8
치수문자_일반주서
 62
     0
370
    -2
100
AcDbLine
 10
6.190624999999997
 20
10.27069759097852
 30
0.0
 11
29.190625
 21
10.27069759097852
 31
0.0
  0
LINE
  5
197
330
191
100
AcDbEntity
  8
치수문자_일반주서
 62
     0
370
    -2
100
AcDbLine
 10
6.190624999999997
 20
10.27069759097852
 30
0.0
 11
5.0
 21
10.27069759097852
 31
0.0
  0
LINE
  5
198
330
191
100
AcDbEntity
  8
치수문자_일반주서
 62
     0
370
    -2
100
AcDbLine
 10
8.690624999999997
 20
10.27069759097852
 30
0.0
 11
11.190625
 21
10.27069759097852
 31
0.0
  0
LINE
  5
199
330
191
100
AcDbEntity
  8
치수문자_일반주서
 62
     0
370
    -2
100
AcDbLine
 10
2.5
 20
10.27069759097852
 30
0.0
 11
0.0
 21
10.27069759097852
 31
0.0
  0
SOLID
  5
19A
330
191
100
AcDbEntity
  8
치수문자_일반주서
 62
     0
100
AcDbTrace
 10
8.690624999999997
 20
10.68736425764518
 30
0.0
 11
8.690624999999997
 21
9.85403092431185
 31
0.0
 12
6.190624999999997
 22
10.27069759097852
 32
0.0
 13
6.190624999999997
 23
10.27069759097852
 33
0.0
  0
SOLID
  5
19B
330
191
100
AcDbEntity
  8
치수문자_일반주서
 62
     0
100
AcDbTrace
 10
2.5
 20
9.85403092431185
 30
0.0
 11
2.5
 21
10.68736425764518
 31
0.0
 12
5.0
 22
10.27069759097852
 32
0.0
 13
5.0
 23
10.27069759097852
 33
0.0
  0
MTEXT
  5
19C
330
191
100
AcDbEntity
  8
치수문자_일반주서
 62
     0
100
AcDbMText
 10
20.190625
 20
13.64569759097852
 30
0.0
 40
2.5
 41
0.0
 71
     2
 72
     1
  1
\A1;1.19 [3/64]
  7
SLDTEXTSTYLE0
 73
     1
 44
1.0
  0
POINT
  5
19D
330
191
100
AcDbEntity
  8
Defpoints
 62
     0
100
AcDbPoint
 10
6.190624999999997
 20
0.2859871582727809
 30
0.0
  0
POINT
  5
19E
330
191
100
AcDbEntity
  8
Defpoints
 62
     0
100
AcDbPoint
 10
5.0
 20
0.2032482930384945
 30
0.0
  0
POINT
  5
19F
330
191
100
AcDbEntity
  8
Defpoints
 62
     0
100
AcDbPoint
 10
5.0
 20
10.27069759097852
 30
0.0
  0
ENDBLK
  5
193
330
191
100
AcDbEntity
  8
0
100
AcDbBlockEnd
  0
BLOCK
  5
1A4
330
1A3
100
AcDbEntity
  8
0
100
AcDbBlockBegin
  2
*D8
 70
     1
 10
0.0
 20
0.0
 30
0.0
  3
*D8
  1
*D8
  0
LINE
  5
1A6
330
1A3
100
AcDbEntity
  8
치수문자_일반주서
 62
     0
370
    -2
100
AcDbLine
 10
60.67728418562665
 20
-16.75089431430506
 30
0.0
 11
60.67728418562665
 21
-6.828683881599323
 31
0.0
  0
LINE
  5
1A7
330
1A3
100
AcDbEntity
  8
치수문자_일반주서
 62
     0
370
    -2
100
AcDbLine
 10
59.48665918562665
 20
-16.83363317953934
 30
0.0
 11
59.48665918562665
 21
-6.828683881599323
 31
0.0
  0
LINE
  5
1A8
330
1A3
100
AcDbEntity
  8
치수문자_일반주서
 62
     0
370
    -2
100
AcDbLine
 10
60.67728418562665
 20
-6.828683881599323
 30
0.0
 11
83.67728418562665
 21
-6.828683881599323
 31
0.0
  0
LINE
  5
1A9
330
1A3
100
AcDbEntity
  8
치수문자_일반주서
 62
     0
370
    -2
100
AcDbLine
 10
60.67728418562665
 20
-6.828683881599323
 30
0.0
 11
59.48665918562665
 21
-6.828683881599323
 31
0.0
  0
LINE
  5
1AA
330
1A3
100
AcDbEntity
  8
치수문자_일반주서
 62
     0
370
    -2
100
AcDbLine
 10
63.17728418562665
 20
-6.828683881599323
 30
0.0
 11
65.67728418562665
 21
-6.828683881599323
 31
0.0
  0
LINE
  5
1AB
330
1A3
100
AcDbEntity
  8
치수문자_일반주서
 62
     0
370
    -2
100
AcDbLine
 10
56.98665918562665
 20
-6.828683881599323
 30
0.0
 11
54.48665918562665
 21
-6.828683881599323
 31
0.0
  0
SOLID
  5
1AC
330
1A3
100
AcDbEntity
  8
치수문자_일반주서
 62
     0
100
AcDbTrace
 10
63.17728418562665
 20
-6.412017214932656
 30
0.0
 11
63.17728418562665
 21
-7.24535054826599
 31
0.0
 12
60.67728418562665
 22
-6.828683881599323
 32
0.0
 13
60.67728418562665
 23
-6.828683881599323
 33
0.0
  0
SOLID
  5
1AD
330
1A3
100
AcDbEntity
  8
치수문자_일반주서
 62
     0
100
AcDbTrace
 10
56.98665918562665
 20
-7.24535054826599
 30
0.0
 11
56.98665918562665
 21
-6.412017214932656
 31
0.0
 12
59.48665918562665
 22
-6.828683881599323
 32
0.0
 13
59.48665918562665
 23
-6.828683881599323
 33
0.0
  0
MTEXT
  5
1AE
330
1A3
100
AcDbEntity
  8
치수문자_일반주서
 62
     0
100
AcDbMText
 10
74.67728418562665
 20
-3.453683881599323
 30
0.0
 40
2.5
 41
0.0
 71
     2
 72
     1
  1
\A1;1.19 [3/64]
  7
SLDTEXTSTYLE0
 73
     1
 44
1.0
  0
POINT
  5
1AF
330
1A3
100
AcDbEntity
  8
Defpoints
 62
     0
100
AcDbPoint
 10
60.67728418562665
 20
-16.81339431430506
 30
0.0
  0
POINT
  5
1B0
330
1A3
100
AcDbEntity
  8
Defpoints
 62
     0
100
AcDbPoint
 10
59.48665918562665
 20
-16.89613317953934
 30
0.0
  0
POINT
  5
1B1
330
1A3
100
AcDbEntity
  8
Defpoints
 62
     0
100
AcDbPoint
 10
59.48665918562665
 20
-6.828683881599323
 30
0.0
  0
ENDBLK
  5
1A5
330
1A3
100
AcDbEntity
  8
0
100
AcDbBlockEnd
  0
ENDSEC
  0
SECTION
  2
ENTITIES
  0
LINE
  5
96
330
1F
100
AcDbEntity
  8
외형선
  6
Continuous
370
    15
100
AcDbLine
 10
16.72835583936527
 20
2.381249999999999
 30
0.0
 11
-16.72835583936527
 21
2.381249999999997
 31
0.0
  0
LINE
  5
97
330
1F
100
AcDbEntity
  8
외형선
  6
Continuous
370
    15
100
AcDbLine
 10
-16.72835583936527
 20
-2.381250000000001
 30
0.0
 11
16.72835583936527
 21
-2.381249999999999
 31
0.0
  0
LINE
  5
98
330
1F
100
AcDbEntity
  8
외형선
  6
Continuous
370
    15
100
AcDbLine
 10
16.72835583936527
 20
-2.38125
 30
0.0
 11
20.43125000000001
 21
-1.3890625
 31
0.0
  0
LINE
  5
99
330
1F
100
AcDbEntity
  8
외형선
  6
Continuous
370
    15
100
AcDbLine
 10
20.43125000000001
 20
1.389062500000001
 30
0.0
 11
16.72835583936527
 21
2.38125
 31
0.0
  0
LINE
  5
9C
330
1F
100
AcDbEntity
  8
외형선
  6
Continuous
370
    15
100
AcDbLine
 10
20.54113448704076
 20
1.389062500000001
 30
0.0
 11
20.43125000000001
 21
1.389062500000001
 31
0.0
  0
LINE
  5
9D
330
1F
100
AcDbEntity
  8
외형선
  6
Continuous
370
    15
100
AcDbLine
 10
20.43125000000001
 20
-1.3890625
 30
0.0
 11
20.54113448704076
 21
-1.3890625
 31
0.0
  0
LINE
  5
9E
330
1F
100
AcDbEntity
  8
외형선
  6
Continuous
370
    15
100
AcDbLine
 10
21.42421032366474
 20
0.5437137578351875
 30
0.0
 11
21.31350593360398
 21
0.6021261060796054
 31
0.0
  0
SPLINE
  5
9F
330
1F
100
AcDbEntity
  8
외형선
  6
Continuous
370
    15
100
AcDbSpline
210
0.0
220
0.0
230
1.0
 70
     8
 71
     3
 72
    10
 73
     6
 74
     0
 42
0.000000001
 43
0.00000001
 40
0.0
 40
0.0
 40
0.0
 40
0.0
 40
0.0709073756862631
 40
0.5319547100256409
 40
1.0
 40
1.0
 40
1.0
 40
1.0
 10
21.00819074692281
 20
1.077208301879749
 30
0.0
 10
21.00002775492134
 20
1.077594918994405
 30
0.0
 10
20.93878811657543
 20
1.080495361904995
 30
0.0
 10
20.78041384419533
 20
1.085793795501691
 30
0.0
 10
20.61766088457846
 20
1.085359763203604
 30
0.0
 10
20.53567147449748
 20
1.08514111248192
 30
0.0
  0
LINE
  5
A0
330
1F
100
AcDbEntity
  8
외형선
  6
Continuous
370
    15
100
AcDbLine
 10
20.53567147449748
 20
-1.085156903743651
 30
0.0
 11
21.28087136765133
 21
-1.100217200501522
 31
0.0
  0
LINE
  5
A1
330
1F
100
AcDbEntity
  8
0
  6
Continuous
 62
     1
370
    25
100
AcDbLine
 10
21.79926837087989
 20
0.3572196409600163
 30
0.0
 11
21.43125000000001
 21
0.5399993249622216
 31
0.0
1001
PE_URL
1000

  0
SPLINE
  5
A2
330
1F
100
AcDbEntity
  8
0
  6
Continuous
 62
     1
370
    25
100
AcDbSpline
210
0.0
220
0.0
230
1.0
 70
     8
 71
     3
 72
    19
 73
    15
 74
     0
 42
0.000000001
 43
0.00000001
 40
0.0
 40
0.0
 40
0.0
 40
0.0
 40
0.1303452426303972
 40
0.2361040174511947
 40
0.3230306444672141
 40
0.3912381329045712
 40
0.4534152218827378
 40
0.5242608132282488
 40
0.6039527847290441
 40
0.6696920866194188
 40
0.7167602940624741
 40
0.7866436453702883
 40
0.880431230277298
 40
1.0
 40
1.0
 40
1.0
 40
1.0
 10
24.88782697385908
 20
0.950432615968136
 30
0.0
 10
24.78830075480131
 20
0.942233114285211
 30
0.0
 10
24.60802152337668
 20
0.9273807479896039
 30
0.0
 10
24.3415092739373
 20
0.9164995410557417
 30
0.0
 10
24.12168939344517
 20
0.9138174835721128
 30
0.0
 10
23.9407692129396
 20
0.9142651298640911
 30
0.0
 10
23.78063236239312
 20
0.9176662508554593
 30
0.0
 10
23.60794921202175
 20
0.9241757721949285
 30
0.0
 10
23.43210565059244
 20
0.9341538176521017
 30
0.0
 10
23.27523131965437
 20
0.945833989508744
 30
0.0
 10
23.1262683834743
 20
0.9589716777467997
 30
0.0
 10
22.95496525629341
 20
0.9765853996941903
 30
0.0
 10
22.72486801324474
 20
1.004649038595801
 30
0.0
 10
22.55069999365605
 20
1.030770334971188
 30
0.0
 10
22.4530930774552
 20
1.045409183092621
 30
0.0
1001
PE_URL
1000

  0
SPLINE
  5
A3
330
1F
100
AcDbEntity
  8
0
  6
Continuous
 62
     1
370
    25
100
AcDbSpline
210
0.0
220
0.0
230
1.0
 70
     8
 71
     3
 72
    12
 73
     8
 74
     0
 42
0.000000001
 43
0.00000001
 40
0.0
 40
0.0
 40
0.0
 40
0.0
 40
0.2921597567903648
 40
0.5357368958568804
 40
0.739858863139261
 40
0.9012489142650028
 40
0.9999999999999999
 40
0.9999999999999999
 40
0.9999999999999999
 40
0.9999999999999999
 10
22.4530930774552
 20
-1.04540918309262
 30
0.0
 10
22.55038368818066
 20
-1.030578576190432
 30
0.0
 10
22.72878666317859
 20
-1.003383512117482
 30
0.0
 10
22.98754745292295
 20
-0.9722216676231753
 30
0.0
 10
23.2047237951512
 20
-0.9516475012872596
 30
0.0
 10
23.36836605780176
 20
-0.9384712177616317
 30
0.0
 10
23.45699275926862
 20
-0.9332516593131621
 30
0.0
 10
23.49063596964502
 20
-0.931270284625315
 30
0.0
1001
PE_URL
1000

  0
SPLINE
  5
A4
330
1F
100
AcDbEntity
  8
0
  6
Continuous
 62
     1
370
    25
100
AcDbSpline
210
0.0
220
0.0
230
1.0
 70
     8
 71
     3
 72
    11
 73
     7
 74
     0
 42
0.000000001
 43
0.00000001
 40
0.0
 40
0.0
 40
0.0
 40
0.0
 40
0.0584660960376582
 40
0.2884209561197003
 40
0.6009500971561437
 40
1.0
 40
1.0
 40
1.0
 40
1.0
 10
24.14387418528185
 20
-0.9146585968102201
 30
0.0
 10
24.15835774543869
 20
-0.9147551347579964
 30
0.0
 10
24.22980705626259
 20
-0.9152313691756592
 30
0.0
 10
24.3786027486264
 20
-0.9190085126425788
 30
0.0
 10
24.6115909689689
 20
-0.9288419524471666
 30
0.0
 10
24.78857514791079
 20
-0.9426750726357827
 30
0.0
 10
24.88782697385908
 20
-0.9504326159681342
 30
0.0
1001
PE_URL
1000

  0
LINE
  5
A5
330
1F
100
AcDbEntity
  8
외형선
  6
Continuous
370
    15
100
AcDbLine
 10
16.72835583936527
 20
2.38125
 30
0.0
 11
16.72835583936527
 21
-2.381249999999999
 31
0.0
  0
LINE
  5
A7
330
1F
100
AcDbEntity
  8
외형선
  6
Continuous
370
    15
100
AcDbLine
 10
20.43125000000001
 20
1.389062500000001
 30
0.0
 11
20.43125000000001
 21
-1.3890625
 31
0.0
  0
SPLINE
  5
A9
330
1F
100
AcDbEntity
  8
외형선
  6
Continuous
370
    15
100
AcDbSpline
210
0.0
220
0.0
230
1.0
 70
     8
 71
     3
 72
    10
 73
     6
 74
     0
 42
0.000000001
 43
0.00000001
 40
0.0
 40
0.0
 40
0.0
 40
0.0
 40
0.5
 40
0.5
 40
1.0
 40
1.0
 40
1.0
 40
1.0
 10
21.43125
 20
0.540148496329047
 30
0.0
 10
21.28244472300154
 20
0.6191414799267576
 30
0.0
 10
21.13718720767781
 20
0.6944437098695341
 30
0.0
 10
20.83985164631937
 20
0.8374553449967566
 30
0.0
 10
20.68940314931431
 20
0.9048302443319354
 30
0.0
 10
20.54101352657178
 20
0.9663638825543839
 30
0.0
  0
LINE
  5
AA
330
1F
100
AcDbEntity
  8
외형선
  6
Continuous
370
    15
100
AcDbLine
 10
21.43125000000001
 20
0.5401484963290469
 30
0.0
 11
21.43125000000001
 21
0.165700242764561
 31
0.0
  0
SPLINE
  5
AB
330
1F
100
AcDbEntity
  8
외형선
  6
Continuous
370
    15
100
AcDbSpline
210
0.0
220
0.0
230
1.0
 70
     8
 71
     3
 72
    10
 73
     6
 74
     0
 42
0.000000001
 43
0.00000001
 40
0.0
 40
0.0
 40
0.0
 40
0.0
 40
0.5
 40
0.5
 40
1.0
 40
1.0
 40
1.0
 40
1.0
 10
20.54113448704076
 20
0.6531387995866198
 30
0.0
 10
20.68950506414978
 20
0.5775477874641561
 30
0.0
 10
20.83993292029553
 20
0.4978546152604357
 30
0.0
 10
21.13722712026051
 20
0.3343194374359811
 30
0.0
 10
21.28246493947432
 20
0.2508174565524711
 30
0.0
 10
21.43125000000017
 20
0.1657002427644648
 30
0.0
  0
LINE
  5
AC
330
1F
100
AcDbEntity
  8
외형선
  6
Continuous
370
    15
100
AcDbLine
 10
20.54113448704076
 20
0.9664066452256944
 30
0.0
 11
20.54113448704076
 21
1.389062500000001
 31
0.0
  0
LINE
  5
AD
330
1F
100
AcDbEntity
  8
외형선
  6
Continuous
370
    15
100
AcDbLine
 10
20.54113448704076
 20
-1.3890625
 30
0.0
 11
20.54113448704076
 21
0.6535575877947712
 31
0.0
  0
SPLINE
  5
AE
330
1F
100
AcDbEntity
  8
외형선
  6
Continuous
370
    15
100
AcDbSpline
210
0.0
220
0.0
230
1.0
 70
    24
 71
     3
 72
    10
 73
     6
 74
     0
 42
0.000000001
 43
0.00000001
 40
0.0
 40
0.0
 40
0.0
 40
0.0
 40
0.3062304652360651
 40
0.6521626237785026
 40
1.0
 40
1.0
 40
1.0
 40
1.0
 10
21.43125000000001
 20
0.1307223170886559
 30
0.0
 10
21.43125000000001
 20
0.1266523775323673
 30
0.0
 10
21.43125000000001
 20
0.1179848451965398
 30
0.0
 10
21.43125000000001
 20
0.0986392990952001
 30
0.0
 10
21.43125000000001
 20
0.0836994001006544
 30
0.0
 10
21.43125000000001
 20
0.0762089367596183
 30
0.0
  0
SPLINE
  5
AF
330
1F
100
AcDbEntity
  8
외형선
  6
Continuous
370
    15
100
AcDbSpline
210
0.0
220
0.0
230
1.0
 70
     8
 71
     3
 72
    10
 73
     6
 74
     0
 42
0.000000001
 43
0.00000001
 40
0.0
 40
0.0
 40
0.0
 40
0.0
 40
0.5
 40
0.5
 40
1.0
 40
1.0
 40
1.0
 40
1.0
 10
21.43125000000003
 20
0.0762089367594262
 30
0.0
 10
21.28246006834772
 20
0.1360368450626045
 30
0.0
 10
21.13721750340678
 20
0.1949576875244875
 30
0.0
 10
20.83991333747922
 20
0.3108165490558075
 30
0.0
 10
20.68948050792992
 20
0.3675174990196899
 30
0.0
 10
20.54110534172774
 20
0.4215467033052516
 30
0.0
  0
LINE
  5
B0
330
1F
100
AcDbEntity
  8
외형선
  6
Continuous
370
    15
100
AcDbLine
 10
21.43125000000001
 20
1.107831603572362
 30
0.0
 11
21.00867015253276
 21
1.068670071470388
 31
0.0
  0
SPLINE
  5
B1
330
1F
100
AcDbEntity
  8
외형선
  6
Continuous
370
    15
100
AcDbSpline
210
0.0
220
0.0
230
1.0
 70
    24
 71
     3
 72
    13
 73
     9
 74
     0
 42
0.000000001
 43
0.00000001
 40
0.0
 40
0.0
 40
0.0
 40
0.0
 40
0.1336291221602605
 40
0.2690360319484769
 40
0.4636830604101675
 40
0.6639748658835739
 40
0.8383727447303883
 40
1.0
 40
1.0
 40
1.0
 40
1.0
 10
21.43124999999999
 20
1.10783160357236
 30
0.0
 10
21.43125
 20
1.103741436923781
 30
0.0
 10
21.43125000000001
 20
1.095506688484573
 30
0.0
 10
21.43125
 20
1.052298155336232
 30
0.0
 10
21.43125000000001
 20
0.9734644198032636
 30
0.0
 10
21.43125000000001
 20
0.8495259871752745
 30
0.0
 10
21.43125000000001
 20
0.7042362600732269
 30
0.0
 10
21.43125000000001
 20
0.5933401017816283
 30
0.0
 10
21.43125000000001
 20
0.5399993249622216
 30
0.0
  0
SPLINE
  5
B2
330
1F
100
AcDbEntity
  8
외형선
  6
Continuous
370
    15
100
AcDbSpline
210
0.0
220
0.0
230
1.0
 70
     8
 71
     3
 72
    10
 73
     6
 74
     0
 42
0.000000001
 43
0.00000001
 40
0.0
 40
0.0
 40
0.0
 40
0.0
 40
0.5
 40
0.5
 40
1.0
 40
1.0
 40
1.0
 40
1.0
 10
21.43125000000006
 20
-1.107831603572363
 30
0.0
 10
21.28245755655918
 20
-1.102456000456228
 30
0.0
 10
21.13721254448699
 20
-1.090840524946701
 30
0.0
 10
20.83990323962717
 20
-1.055174963558549
 30
0.0
 10
20.68946784555569
 20
-1.031091963427505
 30
0.0
 10
20.54109031301445
 20
-1.001384270441335
 30
0.0
  0
SPLINE
  5
B3
330
1F
100
AcDbEntity
  8
외형선
  6
Continuous
370
    15
100
AcDbSpline
210
0.0
220
0.0
230
1.0
 70
    24
 71
     3
 72
    10
 73
     6
 74
     0
 42
0.000000001
 43
0.00000001
 40
0.0
 40
0.0
 40
0.0
 40
0.0
 40
0.5
 40
0.5
 40
1.0
 40
1.0
 40
1.0
 40
1.0
 10
21.43125000000001
 20
0.0762089367594361
 30
0.0
 10
21.43125000000001
 20
-0.1676149198600657
 30
0.0
 10
21.43125
 20
-0.4190208951542614
 30
0.0
 10
21.43125000000001
 20
-0.8398971775945105
 30
0.0
 10
21.43125000000001
 20
-1.006106499002491
 30
0.0
 10
21.43125000000001
 20
-1.107831603572361
 30
0.0
  0
SPLINE
  5
B4
330
1F
100
AcDbEntity
  8
0
  6
Continuous
 62
     1
370
    25
100
AcDbSpline
210
0.0
220
0.0
230
1.0
 70
     8
 71
     3
 72
    22
 73
    18
 74
     0
 42
0.000000001
 43
0.00000001
 40
0.0
 40
0.0
 40
0.0
 40
0.0
 40
0.125
 40
0.125
 40
0.25
 40
0.25
 40
0.375
 40
0.375
 40
0.5
 40
0.5
 40
0.625
 40
0.625
 40
0.75
 40
0.75
 40
0.875
 40
0.875
 40
1.0
 40
1.0
 40
1.0
 40
1.0
 10
25.40000000000001
 20
-1.318138176167435
 30
0.0
 10
25.23719486259927
 20
-1.28818210034162
 30
0.0
 10
25.06994388913527
 20
-1.248615844704218
 30
0.0
 10
24.73703053719824
 20
-1.15236344306357
 30
0.0
 10
24.57434606121093
 20
-1.096101897662219
 30
0.0
 10
24.24427842597346
 20
-0.9684426799784945
 30
0.0
 10
24.0763794594188
 20
-0.896868708820199
 30
0.0
 10
23.74546451362192
 20
-0.7427233222518942
 30
0.0
 10
23.58330984636518
 20
-0.6603885874905419
 30
0.0
 10
23.25072666893848
 20
-0.4861715451113038
 30
0.0
 10
23.08320758287687
 20
-0.3947399632783155
 30
0.0
 10
22.75624964862422
 20
-0.2091027975124623
 30
0.0
 10
22.59057760948894
 20
-0.1137358225507519
 30
0.0
 10
22.25747070005879
 20
0.0776143520795034
 30
0.0
 10
22.09398045988386
 20
0.1728248140427064
 30
0.0
 10
21.76489287716031
 20
0.3598826941351048
 30
0.0
 10
21.59706418242938
 20
0.4521263693110217
 30
0.0
 10
21.43125000000003
 20
0.5401484963290306
 30
0.0
1001
PE_URL
1000

  0
SPLINE
  5
B5
330
1F
100
AcDbEntity
  8
0
  6
Continuous
 62
     1
370
    25
100
AcDbSpline
210
0.0
220
0.0
230
1.0
 70
     8
 71
     3
 72
    13
 73
     9
 74
     0
 42
0.000000001
 43
0.00000001
 40
0.0
 40
0.0
 40
0.0
 40
0.0
 40
0.167936692389245
 40
0.3352396457462631
 40
0.5026965654907462
 40
0.6708763194350901
 40
0.8384735204935679
 40
1.0
 40
1.0
 40
1.0
 40
1.0
 10
25.40000000000001
 20
-1.095931785973974
 30
0.0
 10
25.19718178941446
 20
-1.052231337131338
 30
0.0
 10
24.79231073889984
 20
-0.9649953508764567
 30
0.0
 10
24.18573177586671
 20
-0.7539285504686694
 30
0.0
 10
23.57878083217906
 20
-0.4997582543399789
 30
0.0
 10
22.9707579535066
 20
-0.2142799770804571
 30
0.0
 10
22.3705122654122
 20
0.0838204983789079
 30
0.0
 10
21.97333270679508
 20
0.2735047296574309
 30
0.0
 10
21.77840593724382
 20
0.3665974723118478
 30
0.0
1001
PE_URL
1000

  0
LINE
  5
B6
330
1F
100
AcDbEntity
  8
0
  6
Continuous
 62
     1
370
    25
100
AcDbLine
 10
25.39999999999997
 20
-1.318138176167435
 30
0.0
 11
25.40000000000001
 21
-1.095931785973974
 31
0.0
1001
PE_URL
1000

  0
SPLINE
  5
B7
330
1F
100
AcDbEntity
  8
0
  6
Continuous
 62
     1
370
    25
100
AcDbSpline
210
0.0
220
0.0
230
1.0
 70
     8
 71
     3
 72
    22
 73
    18
 74
     0
 42
0.000000001
 43
0.00000001
 40
0.0
 40
0.0
 40
0.0
 40
0.0
 40
0.1249999999999998
 40
0.1249999999999998
 40
0.2499999999999996
 40
0.2499999999999996
 40
0.3749999999999993
 40
0.3749999999999993
 40
0.4999999999999992
 40
0.4999999999999992
 40
0.6249999999999992
 40
0.6249999999999992
 40
0.7499999999999991
 40
0.7499999999999991
 40
0.8749999999999996
 40
0.8749999999999996
 40
1.0
 40
1.0
 40
1.0
 40
1.0
 10
21.43125000000017
 20
0.1657002427644643
 30
0.0
 10
21.59706418242951
 20
0.0708409795760797
 30
0.0
 10
21.76489287716043
 20
-0.0255814917895187
 30
0.0
 10
22.09398045988397
 20
-0.2154573721855502
 30
0.0
 10
22.2574707000589
 20
-0.3093479240570366
 30
0.0
 10
22.59057760948904
 20
-0.4925684854770317
 30
0.0
 10
22.7562496486243
 20
-0.5811388372144035
 30
0.0
 10
23.08320758287695
 20
-0.7481391040181575
 30
0.0
 10
23.25072666893855
 20
-0.8275990547480663
 30
0.0
 10
23.58330984636524
 20
-0.9732390524084423
 30
0.0
 10
23.74546451362198
 20
-1.039093077311795
 30
0.0
 10
24.07637945941884
 20
-1.156119617276847
 30
0.0
 10
24.2442784259735
 20
-1.207054996771044
 30
0.0
 10
24.57434606121096
 20
-1.290592306462956
 30
0.0
 10
24.73703053719827
 20
-1.323371747970053
 30
0.0
 10
25.06994388913528
 20
-1.370212530471383
 30
0.0
 10
25.23719486259929
 20
-1.383985041771939
 30
0.0
 10
25.40000000000001
 20
-1.387888485529925
 30
0.0
1001
PE_URL
1000

  0
SPLINE
  5
B8
330
1F
100
AcDbEntity
  8
0
  6
Continuous
 62
     1
370
    25
100
AcDbSpline
210
0.0
220
0.0
230
1.0
 70
     8
 71
     3
 72
     9
 73
     5
 74
     0
 42
0.000000001
 43
0.00000001
 40
0.0
 40
0.0
 40
0.0
 40
0.0
 40
0.3669543043238307
 40
1.0
 40
1.0
 40
1.0
 40
1.0
 10
21.94679793780249
 20
-0.1301419418093549
 30
0.0
 10
21.88376706857608
 20
-0.1051718771984458
 30
0.0
 10
21.71199944387811
 20
-0.0371250814075633
 30
0.0
 10
21.54008175374767
 20
0.0322753147155055
 30
0.0
 10
21.43125000000001
 20
0.0762089367594353
 30
0.0
1001
PE_URL
1000

  0
SPLINE
  5
B9
330
1F
100
AcDbEntity
  8
외형선
  6
Continuous
370
    15
100
AcDbSpline
210
0.0
220
0.0
230
1.0
 70
    24
 71
     3
 72
    10
 73
     6
 74
     0
 42
0.000000001
 43
0.00000001
 40
0.0
 40
0.0
 40
0.0
 40
0.0
 40
0.3060680073631475
 40
0.6520811717725712
 40
1.0
 40
1.0
 40
1.0
 40
1.0
 10
21.43125000000001
 20
0.1307123170886559
 30
0.0
 10
21.43125000000001
 20
0.1266453787121669
 30
0.0
 10
21.43125000000001
 20
0.1179807228897069
 30
0.0
 10
21.43125000000001
 20
0.0986391915935637
 30
0.0
 10
21.43125000000001
 20
0.0836993642012313
 30
0.0
 10
21.43125000000001
 20
0.0762089367596182
 30
0.0
  0
LINE
  5
BA
330
1F
100
AcDbEntity
  8
0
  6
Continuous
 62
     1
370
    25
100
AcDbLine
 10
25.40000000000001
 20
-1.387888485529926
 30
0.0
 11
25.4
 21
-1.318138176167432
 31
0.0
1001
PE_URL
1000

  0
SPLINE
  5
BB
330
1F
100
AcDbEntity
  8
0
  6
Continuous
 62
     1
370
    25
100
AcDbSpline
210
0.0
220
0.0
230
1.0
 70
     8
 71
     3
 72
     8
 73
     4
 74
     0
 42
0.000000001
 43
0.00000001
 40
0.0
 40
0.0
 40
0.0
 40
0.0
 40
1.0
 40
1.0
 40
1.0
 40
1.0
 10
24.5403051157932
 20
0.3887621309163175
 30
0.0
 10
24.49100288184699
 20
0.447122313997081
 30
0.0
 10
24.44700384932705
 20
0.5033065058620705
 30
0.0
 10
24.4095522770981
 20
0.556804166529453
 30
0.0
1001
PE_URL
1000

  0
LINE
  5
BC
330
1F
100
AcDbEntity
  8
0
  6
Continuous
 62
     1
370
    25
100
AcDbLine
 10
24.42716518332105
 20
0.5715831496581951
 30
0.0
 11
25.40000000000001
 21
0.0000000000000015
 31
0.0
1001
PE_URL
1000

  0
LINE
  5
BD
330
1F
100
AcDbEntity
  8
0
  6
Continuous
 62
     1
370
    25
100
AcDbLine
 10
25.40000000000001
 20
0.0000000000000015
 30
0.0
 11
25.40000000000001
 21
-0.3712171547193022
 31
0.0
1001
PE_URL
1000

  0
SPLINE
  5
BE
330
1F
100
AcDbEntity
  8
0
  6
Continuous
 62
     1
370
    25
100
AcDbSpline
210
0.0
220
0.0
230
1.0
 70
     8
 71
     3
 72
    10
 73
     6
 74
     0
 42
0.000000001
 43
0.00000001
 40
0.0
 40
0.0
 40
0.0
 40
0.0
 40
0.5
 40
0.5
 40
1.0
 40
1.0
 40
1.0
 40
1.0
 10
25.40000000000001
 20
-0.371217154719302
 30
0.0
 10
25.25118043403184
 20
-0.2542174094430061
 30
0.0
 10
25.10484885623703
 20
-0.1324167157505176
 30
0.0
 10
24.81727693759563
 20
0.121008981180982
 30
0.0
 10
24.67468493484974
 20
0.2539670538550277
 30
0.0
 10
24.5403051157932
 20
0.3887621309163179
 30
0.0
1001
PE_URL
1000

  0
SPLINE
  5
BF
330
1F
100
AcDbEntity
  8
0
  6
Continuous
 62
     1
370
    25
100
AcDbSpline
210
0.0
220
0.0
230
1.0
 70
     8
 71
     3
 72
    18
 73
    14
 74
     0
 42
0.000000001
 43
0.00000001
 40
0.0
 40
0.0
 40
0.0
 40
0.0
 40
0.2500000000000003
 40
0.2500000000000003
 40
0.5000000000000006
 40
0.5000000000000006
 40
0.6250000000000004
 40
0.6250000000000004
 40
0.7500000000000003
 40
0.7500000000000003
 40
0.8750000000000002
 40
0.8750000000000002
 40
1.0
 40
1.0
 40
1.0
 40
1.0
 10
24.54030511578259
 20
0.3887621309209474
 30
0.0
 10
24.2847231429247
 20
0.500327397030124
 30
0.0
 10
24.01872685233545
 20
0.6064799354134228
 30
0.0
 10
23.50639442470758
 20
0.7917590336324912
 30
0.0
 10
23.24277540098573
 20
0.8729575960157142
 30
0.0
 10
22.85634681182153
 20
0.9692147935404056
 30
0.0
 10
22.72885077280127
 20
0.9971542234517647
 30
0.0
 10
22.46853855983657
 20
1.04449744670231
 30
0.0
 10
22.33748095734575
 20
1.063743282011021
 30
0.0
 10
22.07866670856138
 20
1.092685942604707
 30
0.0
 10
21.95183130434508
 20
1.102413332560031
 30
0.0
 10
21.69223711217002
 20
1.112376194675737
 30
0.0
 10
21.56112386431893
 20
1.11252371248322
 30
0.0
 10
21.43125000000006
 20
1.107831603572364
 30
0.0
1001
PE_URL
1000

  0
SPLINE
  5
C0
330
1F
100
AcDbEntity
  8
0
  6
Continuous
 62
     1
370
    25
100
AcDbSpline
210
0.0
220
0.0
230
1.0
 70
    24
 71
     3
 72
    10
 73
     6
 74
     0
 42
0.000000001
 43
0.00000001
 40
0.0
 40
0.0
 40
0.0
 40
0.0
 40
0.5
 40
0.5
 40
1.0
 40
1.0
 40
1.0
 40
1.0
 10
25.40000000000001
 20
-1.095931785973974
 30
0.0
 10
25.40000000000001
 20
-1.011920070038097
 30
0.0
 10
25.40000000000001
 20
-0.905768045613828
 30
0.0
 10
25.40000000000001
 20
-0.6589748048202402
 30
0.0
 10
25.40000000000001
 20
-0.5185473701134586
 30
0.0
 10
25.40000000000001
 20
-0.3712171547193464
 30
0.0
1001
PE_URL
1000

  0
SPLINE
  5
C1
330
1F
100
AcDbEntity
  8
외형선
  6
Continuous
370
    15
100
AcDbSpline
210
0.0
220
0.0
230
1.0
 70
    24
 71
     3
 72
    13
 73
     9
 74
     0
 42
0.000000001
 43
0.00000001
 40
0.0
 40
0.0
 40
0.0
 40
0.0
 40
0.1336291221602602
 40
0.2690360319484765
 40
0.463683060410167
 40
0.663974865883573
 40
0.8383727447303874
 40
1.0
 40
1.0
 40
1.0
 40
1.0
 10
21.43124999999999
 20
1.10783160357236
 30
0.0
 10
21.43125
 20
1.103741436923781
 30
0.0
 10
21.43125000000001
 20
1.095506688484574
 30
0.0
 10
21.43125
 20
1.052298155336231
 30
0.0
 10
21.43125000000001
 20
0.9734644198032639
 30
0.0
 10
21.43125000000001
 20
0.8495259871752748
 30
0.0
 10
21.43125
 20
0.7042362600732269
 30
0.0
 10
21.43125000000001
 20
0.593340101781628
 30
0.0
 10
21.43125000000001
 20
0.539999324962221
 30
0.0
  0
SPLINE
  5
C2
330
1F
100
AcDbEntity
  8
0
  6
Continuous
 62
     1
370
    25
100
AcDbSpline
210
0.0
220
0.0
230
1.0
 70
    24
 71
     3
 72
     8
 73
     4
 74
     0
 42
0.000000001
 43
0.00000001
 40
0.0
 40
0.0
 40
0.0
 40
0.0
 40
1.0
 40
1.0
 40
1.0
 40
1.0
 10
24.55454188518925
 20
0.678464893216384
 30
0.0
 10
24.50874130942261
 20
0.6400336469828923
 30
0.0
 10
24.4601309745662
 20
0.5992447329334631
 30
0.0
 10
24.40955227709232
 20
0.5568041665377033
 30
0.0
1001
PE_URL
1000

  0
LINE
  5
C3
330
1F
100
AcDbEntity
  8
0
  6
Continuous
 62
     1
370
    25
100
AcDbLine
 10
25.40000000000001
 20
0.9723437500000005
 30
0.0
 11
24.88692798836252
 21
0.9463327140765142
 31
0.0
1001
PE_URL
1000

  0
SPLINE
  5
C4
330
1F
100
AcDbEntity
  8
0
  6
Continuous
 62
     1
370
    25
100
AcDbSpline
210
0.0
220
0.0
230
1.0
 70
     8
 71
     3
 72
     8
 73
     4
 74
     0
 42
0.000000001
 43
0.00000001
 40
0.0
 40
0.0
 40
0.0
 40
0.0
 40
1.0
 40
1.0
 40
1.0
 40
1.0
 10
25.40000000000001
 20
0.9723437500000011
 30
0.0
 10
25.11421599374739
 20
0.8946687418752706
 30
0.0
 10
24.8312496646462
 20
0.7992143962484671
 30
0.0
 10
24.55454188518876
 20
0.6784648932166808
 30
0.0
1001
PE_URL
1000

  0
SPLINE
  5
C5
330
1F
100
AcDbEntity
  8
0
  6
Continuous
 62
     1
370
    25
100
AcDbSpline
210
0.0
220
0.0
230
1.0
 70
     8
 71
     3
 72
    10
 73
     6
 74
     0
 42
0.000000001
 43
0.00000001
 40
0.0
 40
0.0
 40
0.0
 40
0.0
 40
0.0891845394211779
 40
0.6811477440400628
 40
1.0
 40
1.0
 40
1.0
 40
1.0
 10
22.45451203883869
 20
-1.040968305819064
 30
0.0
 10
22.42409090391739
 20
-1.047063809467661
 30
0.0
 10
22.19174920481495
 20
-1.093618274916236
 30
0.0
 10
21.85094473382814
 20
-1.113431645487471
 30
0.0
 10
21.54007664552038
 20
-1.109283691786183
 30
0.0
 10
21.43125000000001
 20
-1.107831603572361
 30
0.0
1001
PE_URL
1000

  0
SPLINE
  5
C6
330
1F
100
AcDbEntity
  8
외형선
  6
Continuous
370
    15
100
AcDbSpline
210
0.0
220
0.0
230
1.0
 70
    24
 71
     3
 72
    10
 73
     6
 74
     0
 42
0.000000001
 43
0.00000001
 40
0.0
 40
0.0
 40
0.0
 40
0.0
 40
0.5
 40
0.5
 40
1.0
 40
1.0
 40
1.0
 40
1.0
 10
21.43125000000001
 20
0.0762089367594354
 30
0.0
 10
21.43125000000001
 20
-0.1676149198600664
 30
0.0
 10
21.43125000000001
 20
-0.4190208951542617
 30
0.0
 10
21.43125000000001
 20
-0.8398971775945107
 30
0.0
 10
21.43125000000001
 20
-1.006106499002491
 30
0.0
 10
21.43125000000001
 20
-1.107831603572361
 30
0.0
  0
LINE
  5
C7
330
1F
100
AcDbEntity
  8
0
  6
Continuous
 62
     1
370
    25
100
AcDbLine
 10
25.40000000000001
 20
0.0000000000000015
 30
0.0
 11
25.40000000000001
 21
0.9723437500000012
 31
0.0
1001
PE_URL
1000

  0
SPLINE
  5
C8
330
1F
100
AcDbEntity
  8
0
  6
Continuous
 62
     1
370
    25
100
AcDbSpline
210
0.0
220
0.0
230
1.0
 70
    24
 71
     3
 72
    10
 73
     6
 74
     0
 42
0.000000001
 43
0.00000001
 40
0.0
 40
0.0
 40
0.0
 40
0.0
 40
0.5
 40
0.5
 40
1.0
 40
1.0
 40
1.0
 40
1.0
 10
25.40000000000001
 20
0.9723437500000007
 30
0.0
 10
25.40000000000001
 20
1.03128480672141
 30
0.0
 10
25.40000000000001
 20
1.09977977316073
 30
0.0
 10
25.40000000000001
 20
1.243482028272188
 30
0.0
 10
25.40000000000001
 20
1.318322319417983
 30
0.0
 10
25.40000000000001
 20
1.387888485529927
 30
0.0
1001
PE_URL
1000

  0
SPLINE
  5
C9
330
1F
100
AcDbEntity
  8
0
  6
Continuous
 62
     1
370
    25
100
AcDbSpline
210
0.0
220
0.0
230
1.0
 70
     8
 71
     3
 72
    13
 73
     9
 74
     0
 42
0.000000001
 43
0.00000001
 40
0.0
 40
0.0
 40
0.0
 40
0.0
 40
0.0195408883441958
 40
0.2360308001559399
 40
0.3599690282345568
 40
0.5943244467635694
 40
0.8038994000034296
 40
1.0
 40
1.0
 40
1.0
 40
1.0
 10
23.49109713027587
 20
0.9314447030942283
 30
0.0
 10
23.50354582395769
 20
0.9370932080815588
 30
0.0
 10
23.65391130780172
 20
1.00532046205082
 30
0.0
 10
23.8821827992052
 20
1.090274477416172
 30
0.0
 10
24.24864518674408
 20
1.209869786488667
 30
0.0
 10
24.60945350414547
 20
1.301632960791828
 30
0.0
 10
25.01722431772325
 20
1.368750816490221
 30
0.0
 10
25.27526501248796
 20
1.38165209952317
 30
0.0
 10
25.40000000000001
 20
1.387888485529927
 30
0.0
1001
PE_URL
1000

  0
LINE
  5
CA
330
1F
100
AcDbEntity
  8
중심선
 62
     1
100
AcDbLine
 10
-26.90000000000001
 20
-0.0000000000000033
 30
0.0
 11
26.90000000000001
 21
0.0000000000000033
 31
0.0
  0
LINE
  5
CB
330
1F
100
AcDbEntity
  8
참조1
100
AcDbLine
 10
-0.0000000000000124
 20
-0.0000000000000035
 30
0.0
 11
-0.0000000000000036
 21
-40.00000000000001
 31
0.0
  0
LINE
  5
CC
330
1F
100
AcDbEntity
  8
참조1
100
AcDbLine
 10
-0.0000000000000036
 20
-40.00000000000001
 30
0.0
 11
-18.43446559669923
 21
-39.99999999999999
 31
0.0
  0
CIRCLE
  5
CD
330
1F
100
AcDbEntity
  8
해칭선
100
AcDbCircle
 10
0.0
 20
0.0
 30
0.0
 40
3.000000000000001
  0
INSERT
  5
CE
330
1F
100
AcDbEntity
  8
0
  6
Continuous
 62
     7
100
AcDbBlockReference
 66
     1
  2
블럭10
 10
-13.94027293212522
 20
-52.04717430164393
 30
0.0
  0
ATTRIB
  5
CF
330
CE
100
AcDbEntity
  8
FORMAT
 62
     2
100
AcDbText
 10
-23.12156822086649
 20
-49.97180738881174
 30
0.0
 40
4.233333333333333
  1
E2001007 [ 2 FLUTE ]
 41
0.75
  7
SLDTEXTSTYLE0
 11
-23.12156822086649
 21
-52.08847405547841
 31
0.0
100
AcDbAttribute
  2
AUTOATTR0
 70
     0
 74
     1
  0
SEQEND
  5
D0
330
CE
100
AcDbEntity
  8
0
  6
Continuous
 62
     7
  0
HATCH
  5
D1
330
1F
100
AcDbEntity
  8
중심선
100
AcDbHatch
 10
0.0
 20
0.0
 30
0.0
210
0.0
220
0.0
230
1.0
  2
SOLID
 70
     1
 71
     0
 91
        1
 92
        0
 93
        4
 72
     1
 10
-8.225363627744365
 20
-35.8
 11
-11.67163887158164
 21
-35.8
 72
     1
 10
-11.67163887158164
 20
-35.8
 11
-13.79986873078566
 21
-38.3363255805726
 72
     1
 10
-13.79986873078567
 20
-38.3363255805726
 11
-10.35356040183524
 21
-38.3362861512701
 72
     1
 10
-10.35356040183524
 20
-38.3362861512701
 11
-8.225363627744365
 21
-35.8
 97
        0
 75
     0
 76
     1
 98
        1
 10
11.02546167873051
 20
-0.0010749287238927
  0
HATCH
  5
D2
330
1F
100
AcDbEntity
  8
중심선
100
AcDbHatch
 10
0.0
 20
0.0
 30
0.0
210
0.0
220
0.0
230
1.0
  2
SOLID
 70
     1
 71
     0
 91
        1
 92
        0
 93
        4
 72
     1
 10
-3.212599636708383
 20
-35.8
 11
-6.658874880545664
 21
-35.8
 72
     1
 10
-6.658874880545664
 20
-35.8
 11
-11.19001288890308
 21
-41.20000000000002
 72
     1
 10
-11.19001288890308
 20
-41.20000000000002
 11
-7.743737645065803
 21
-41.20000000000002
 72
     1
 10
-7.743737645065803
 20
-41.20000000000002
 11
-3.212599636708383
 21
-35.8
 97
        0
 75
     0
 76
     1
 98
        1
 10
11.02546167873051
 20
-0.0010749287238927
  0
HATCH
  5
D3
330
1F
100
AcDbEntity
  8
중심선
100
AcDbHatch
 10
0.0
 20
0.0
 30
0.0
210
0.0
220
0.0
230
1.0
  2
SOLID
 70
     1
 71
     0
 91
        1
 92
        0
 93
        4
 72
     1
 10
1.800164354327507
 20
-35.8
 11
-1.646110889509604
 21
-35.8
 72
     1
 10
-1.646110889509604
 20
-35.8
 11
-8.694547791398882
 21
-44.20000000000002
 72
     1
 10
-8.694547791398882
 20
-44.20000000000002
 11
-5.248272547561601
 21
-44.20000000000002
 72
     1
 10
-5.248272547561594
 20
-44.20000000000002
 11
1.800164354327517
 21
-35.8
 97
        0
 75
     0
 76
     1
 98
        1
 10
11.02546167873051
 20
-0.0010749287238927
  0
HATCH
  5
D4
330
1F
100
AcDbEntity
  8
중심선
100
AcDbHatch
 10
0.0
 20
0.0
 30
0.0
210
0.0
220
0.0
230
1.0
  2
SOLID
 70
     1
 71
     0
 91
        1
 92
        0
 93
        6
 72
     3
 10
6.600054785339683
 20
-40.00000000005127
 11
3.960054785062283
 21
1.540882976769353E-10
 40
0.3939339440162628
 50
17.09539180608439
 51
320.0019657685078
 73
     0
 72
     1
 10
8.283054441040278
 20
-38.58789400463831
 11
10.58835631474131
 21
-36.65356729459035
 72
     3
 10
6.600054785286837
 20
-40.00000000000014
 11
6.600054785286829
 21
-1.278976924368180E-13
 40
0.636358354079598
 50
39.9987384933743
 51
368.4976242363725
 73
     1
 72
     1
 10
13.02538727718745
 20
-39.03999999993002
 11
5.280122092122761
 21
-39.03999999993002
 72
     1
 10
5.28012209212276
 20
-39.03999999993002
 11
5.280097047676826
 21
-40.95999999992991
 72
     1
 10
5.280097047676826
 20
-40.95999999992991
 11
9.721476817148861
 21
-40.95999999992988
 97
        0
 75
     0
 76
     1
 98
        1
 10
11.02546167873051
 20
-0.0010749287238927
  0
DIMENSION
  5
D5
330
1F
100
AcDbEntity
  8
치수문자_일반주서
100
AcDbDimension
  2
_D
 10
-33.4
 20
-2.381250000000072
 30
0.0
 11
-33.40000000000006
 21
17.63124999999997
 31
0.0
 70
   160
  1
%%c<>
 71
     2
 42
4.76250000000001
 52
-270.0
  3
SLDDIMSTYLE0
100
AcDbAlignedDimension
 13
-16.72835583936527
 23
2.381249999999997
 33
0.0
 14
-16.72835583936527
 24
-2.381250000000012
 34
0.0
 50
90.0000000000002
100
AcDbRotatedDimension
1001
PE_URL
1000

1001
ACAD
1000
DSTYLE
1002
{
1070
   171
1070
     8
1070
   273
1070
     7
1070
    41
1040
2.5
1070
   140
1040
2.5
1002
}
  0
DIMENSION
  5
EA
330
1F
100
AcDbEntity
  8
치수문자_일반주서
100
AcDbDimension
  2
_D_1
 10
54.77516787415998
 20
1.387888485530038
 30
0.0
 11
54.77516787415993
 21
16.95038848553004
 31
0.0
 70
   160
  1
%%c<>
 71
     2
 42
2.775776971059853
 52
-270.0
  3
SLDDIMSTYLE0
100
AcDbAlignedDimension
 13
25.40000000000001
 23
-1.387888485529926
 33
0.0
 14
25.40000000000001
 24
1.387888485529927
 34
0.0
 50
90.0000000000002
100
AcDbRotatedDimension
1001
PE_URL
1000

1001
ACAD
1000
DSTYLE
1002
{
1070
   171
1070
     8
1070
   273
1070
     7
1070
    41
1040
2.5
1070
   140
1040
2.5
1002
}
  0
DIMENSION
  5
FE
330
1F
100
AcDbEntity
  8
치수문자_일반주서
100
AcDbDimension
  2
_D_2
 10
21.43125000000001
 20
10.38125000000002
 30
0.0
 11
40.02500000000001
 21
10.38125000000002
 31
0.0
 70
   160
  1
<>
 71
     2
 42
3.96875
  3
SLDDIMSTYLE0
100
AcDbAlignedDimension
 13
25.40000000000001
 23
1.387888485529927
 33
0.0
 14
21.43125000000001
 24
1.107831603572362
 34
0.0
100
AcDbRotatedDimension
1001
PE_URL
1000

1001
ACAD
1000
DSTYLE
1002
{
1070
   171
1070
     8
1070
   273
1070
     7
1070
    41
1040
2.5
1070
   140
1040
2.5
1002
}
  0
DIMENSION
  5
113
330
1F
100
AcDbEntity
  8
치수문자_일반주서
100
AcDbDimension
  2
_D_3
 10
25.40000000000001
 20
18.38125000000001
 30
0.0
 11
0.0000000000000071
 21
18.38125000000001
 31
0.0
 70
   160
  1
<>
 71
     2
 42
50.80000000000002
  3
SLDDIMSTYLE0
100
AcDbAlignedDimension
 13
-25.40000000000001
 23
1.387888485529909
 33
0.0
 14
25.40000000000001
 24
1.387888485529927
 34
0.0
100
AcDbRotatedDimension
1001
PE_URL
1000

1001
ACAD
1000
DSTYLE
1002
{
1070
   171
1070
     8
1070
   273
1070
     7
1070
    41
1040
2.5
1070
   140
1040
2.5
1002
}
  0
LINE
  5
127
330
1F
100
AcDbEntity
  8
참조1
100
AcDbLine
 10
79.53787503295504
 20
7.440000000000004
 30
0.0
 11
79.53787503295504
 21
-7.440000000000001
 31
0.0
  0
LINE
  5
128
330
1F
100
AcDbEntity
  8
참조1
100
AcDbLine
 10
92.23787503295506
 20
5.440000000000004
 30
0.0
 11
79.53787503295504
 21
5.440000000000004
 31
0.0
  0
SOLID
  5
129
330
1F
100
AcDbEntity
  8
참조1
100
AcDbTrace
 10
79.53787503295504
 20
5.440000000000004
 30
0.0
 11
85.88787503295504
 21
4.424000000000004
 31
0.0
 12
85.88787503295504
 22
6.456000000000004
 32
0.0
 13
85.88787503295504
 23
6.456000000000004
 33
0.0
  0
LINE
  5
12A
330
1F
100
AcDbEntity
  8
참조1
100
AcDbLine
 10
92.23787503295506
 20
-5.440000000000001
 30
0.0
 11
79.53787503295504
 21
-5.440000000000001
 31
0.0
  0
SOLID
  5
12B
330
1F
100
AcDbEntity
  8
참조1
100
AcDbTrace
 10
79.53787503295504
 20
-5.440000000000001
 30
0.0
 11
85.88787503295504
 21
-6.456000000000001
 31
0.0
 12
85.88787503295504
 22
-4.424000000000001
 32
0.0
 13
85.88787503295504
 23
-4.424000000000001
 33
0.0
  0
MTEXT
  5
12C
330
1F
100
AcDbEntity
  8
참조1
100
AcDbMText
 10
88.92222516558104
 20
11.01029177718833
 30
0.0
 40
3.5
 41
0.0
 71
     1
 72
     1
  1
A
  7
SLDTEXTSTYLE0
 73
     1
 44
1.0
  0
MTEXT
  5
12D
330
1F
100
AcDbEntity
  8
참조1
100
AcDbMText
 10
88.92222516558104
 20
0.1302917771883265
 30
0.0
 40
3.5
 41
0.0
 71
     1
 72
     1
  1
A
  7
SLDTEXTSTYLE0
 73
     1
 44
1.0
  0
INSERT
  5
134
330
1F
100
AcDbEntity
  8
해칭선
100
AcDbBlockReference
  2
SW_DOWELSYMBOL_0
 10
0.0
 20
0.0
 30
0.0
  0
LINE
  5
22D
330
1F
100
AcDbEntity
  8
외형선
  6
Continuous
370
    15
100
AcDbLine
 10
-16.72835583936527
 20
2.381249999999998
 30
0.0
 11
-20.43125000000001
 21
1.389062500000001
 31
0.0
  0
LINE
  5
22E
330
1F
100
AcDbEntity
  8
외형선
  6
Continuous
370
    15
100
AcDbLine
 10
-20.43125000000001
 20
-1.3890625
 30
0.0
 11
-16.72835583936527
 21
-2.381250000000001
 31
0.0
  0
LINE
  5
22F
330
1F
100
AcDbEntity
  8
외형선
  6
Continuous
370
    15
100
AcDbLine
 10
-20.54113448704076
 20
-1.3890625
 30
0.0
 11
-20.43125000000001
 21
-1.3890625
 31
0.0
  0
LINE
  5
230
330
1F
100
AcDbEntity
  8
외형선
  6
Continuous
370
    15
100
AcDbLine
 10
-20.43125000000001
 20
1.389062500000001
 30
0.0
 11
-20.54113448704076
 21
1.389062500000001
 31
0.0
  0
LINE
  5
231
330
1F
100
AcDbEntity
  8
외형선
  6
Continuous
370
    15
100
AcDbLine
 10
-21.42421032366475
 20
-0.5437137578351852
 30
0.0
 11
-21.31350593360398
 21
-0.6021261060796039
 31
0.0
  0
SPLINE
  5
232
330
1F
100
AcDbEntity
  8
외형선
  6
Continuous
370
    15
100
AcDbSpline
210
0.0
220
0.0
230
1.0
 70
     8
 71
     3
 72
    10
 73
     6
 74
     0
 42
0.000000001
 43
0.00000001
 40
0.0
 40
0.0
 40
0.0
 40
0.0
 40
0.0709073756862631
 40
0.5319547100256409
 40
1.0
 40
1.0
 40
1.0
 40
1.0
 10
-21.00819074692281
 20
-1.077208301879748
 30
0.0
 10
-21.00002775492134
 20
-1.077594918994404
 30
0.0
 10
-20.93878811657543
 20
-1.080495361904994
 30
0.0
 10
-20.78041384419533
 20
-1.08579379550169
 30
0.0
 10
-20.61766088457846
 20
-1.085359763203604
 30
0.0
 10
-20.53567147449748
 20
-1.085141112481919
 30
0.0
  0
LINE
  5
233
330
1F
100
AcDbEntity
  8
외형선
  6
Continuous
370
    15
100
AcDbLine
 10
-20.53567147449748
 20
1.085156903743652
 30
0.0
 11
-21.28087136765133
 21
1.100217200501522
 31
0.0
  0
LINE
  5
234
330
1F
100
AcDbEntity
  8
0
  6
Continuous
 62
     1
370
    25
100
AcDbLine
 10
-21.79926837087989
 20
-0.3572196409600146
 30
0.0
 11
-21.43125000000001
 21
-0.5399993249622206
 31
0.0
1001
PE_URL
1000

  0
SPLINE
  5
235
330
1F
100
AcDbEntity
  8
0
  6
Continuous
 62
     1
370
    25
100
AcDbSpline
210
0.0
220
0.0
230
1.0
 70
     8
 71
     3
 72
    19
 73
    15
 74
     0
 42
0.000000001
 43
0.00000001
 40
0.0
 40
0.0
 40
0.0
 40
0.0
 40
0.1303452426303972
 40
0.2361040174511947
 40
0.3230306444672141
 40
0.3912381329045712
 40
0.4534152218827378
 40
0.5242608132282488
 40
0.6039527847290441
 40
0.6696920866194188
 40
0.7167602940624741
 40
0.7866436453702883
 40
0.880431230277298
 40
1.0
 40
1.0
 40
1.0
 40
1.0
 10
-24.88782697385908
 20
-0.9504326159681327
 30
0.0
 10
-24.78830075480131
 20
-0.942233114285207
 30
0.0
 10
-24.60802152337668
 20
-0.9273807479896004
 30
0.0
 10
-24.3415092739373
 20
-0.9164995410557388
 30
0.0
 10
-24.12168939344517
 20
-0.9138174835721085
 30
0.0
 10
-23.9407692129396
 20
-0.9142651298640878
 30
0.0
 10
-23.78063236239312
 20
-0.9176662508554561
 30
0.0
 10
-23.60794921202176
 20
-0.9241757721949249
 30
0.0
 10
-23.43210565059244
 20
-0.9341538176520991
 30
0.0
 10
-23.27523131965437
 20
-0.9458339895087402
 30
0.0
 10
-23.1262683834743
 20
-0.9589716777467974
 30
0.0
 10
-22.95496525629341
 20
-0.9765853996941871
 30
0.0
 10
-22.72486801324474
 20
-1.004649038595797
 30
0.0
 10
-22.55069999365605
 20
-1.030770334971187
 30
0.0
 10
-22.4530930774552
 20
-1.04540918309262
 30
0.0
1001
PE_URL
1000

  0
SPLINE
  5
236
330
1F
100
AcDbEntity
  8
0
  6
Continuous
 62
     1
370
    25
100
AcDbSpline
210
0.0
220
0.0
230
1.0
 70
     8
 71
     3
 72
    12
 73
     8
 74
     0
 42
0.000000001
 43
0.00000001
 40
0.0
 40
0.0
 40
0.0
 40
0.0
 40
0.2921597567903648
 40
0.5357368958568804
 40
0.739858863139261
 40
0.9012489142650028
 40
0.9999999999999999
 40
0.9999999999999999
 40
0.9999999999999999
 40
0.9999999999999999
 10
-22.4530930774552
 20
1.045409183092621
 30
0.0
 10
-22.55038368818065
 20
1.030578576190434
 30
0.0
 10
-22.72878666317859
 20
1.003383512117484
 30
0.0
 10
-22.98754745292295
 20
0.9722216676231774
 30
0.0
 10
-23.2047237951512
 20
0.9516475012872618
 30
0.0
 10
-23.36836605780176
 20
0.9384712177616343
 30
0.0
 10
-23.45699275926862
 20
0.9332516593131643
 30
0.0
 10
-23.49063596964502
 20
0.9312702846253185
 30
0.0
1001
PE_URL
1000

  0
SPLINE
  5
237
330
1F
100
AcDbEntity
  8
0
  6
Continuous
 62
     1
370
    25
100
AcDbSpline
210
0.0
220
0.0
230
1.0
 70
     8
 71
     3
 72
    11
 73
     7
 74
     0
 42
0.000000001
 43
0.00000001
 40
0.0
 40
0.0
 40
0.0
 40
0.0
 40
0.0584660960376582
 40
0.2884209561197003
 40
0.6009500971561437
 40
1.0
 40
1.0
 40
1.0
 40
1.0
 10
-24.14387418528185
 20
0.9146585968102237
 30
0.0
 10
-24.15835774543869
 20
0.9147551347579999
 30
0.0
 10
-24.22980705626259
 20
0.9152313691756628
 30
0.0
 10
-24.3786027486264
 20
0.9190085126425824
 30
0.0
 10
-24.6115909689689
 20
0.9288419524471703
 30
0.0
 10
-24.78857514791078
 20
0.9426750726357866
 30
0.0
 10
-24.88782697385908
 20
0.950432615968138
 30
0.0
1001
PE_URL
1000

  0
LINE
  5
238
330
1F
100
AcDbEntity
  8
외형선
  6
Continuous
370
    15
100
AcDbLine
 10
-16.72835583936527
 20
-2.381250000000001
 30
0.0
 11
-16.72835583936527
 21
2.381249999999998
 31
0.0
  0
LINE
  5
239
330
1F
100
AcDbEntity
  8
외형선
  6
Continuous
370
    15
100
AcDbLine
 10
-20.43125000000001
 20
-1.3890625
 30
0.0
 11
-20.43125000000001
 21
1.389062500000001
 31
0.0
  0
SPLINE
  5
23A
330
1F
100
AcDbEntity
  8
외형선
  6
Continuous
370
    15
100
AcDbSpline
210
0.0
220
0.0
230
1.0
 70
     8
 71
     3
 72
    10
 73
     6
 74
     0
 42
0.000000001
 43
0.00000001
 40
0.0
 40
0.0
 40
0.0
 40
0.0
 40
0.5
 40
0.5
 40
1.0
 40
1.0
 40
1.0
 40
1.0
 10
-21.43125
 20
-0.5401484963290457
 30
0.0
 10
-21.28244472300154
 20
-0.6191414799267569
 30
0.0
 10
-21.13718720767781
 20
-0.6944437098695317
 30
0.0
 10
-20.83985164631937
 20
-0.837455344996755
 30
0.0
 10
-20.68940314931431
 20
-0.9048302443319347
 30
0.0
 10
-20.54101352657178
 20
-0.9663638825543828
 30
0.0
  0
LINE
  5
23B
330
1F
100
AcDbEntity
  8
외형선
  6
Continuous
370
    15
100
AcDbLine
 10
-21.43125000000001
 20
-0.5401484963290457
 30
0.0
 11
-21.43125000000001
 21
-0.1657002427645597
 31
0.0
  0
SPLINE
  5
23C
330
1F
100
AcDbEntity
  8
외형선
  6
Continuous
370
    15
100
AcDbSpline
210
0.0
220
0.0
230
1.0
 70
     8
 71
     3
 72
    10
 73
     6
 74
     0
 42
0.000000001
 43
0.00000001
 40
0.0
 40
0.0
 40
0.0
 40
0.0
 40
0.5
 40
0.5
 40
1.0
 40
1.0
 40
1.0
 40
1.0
 10
-20.54113448704076
 20
-0.6531387995866194
 30
0.0
 10
-20.68950506414978
 20
-0.5775477874641552
 30
0.0
 10
-20.83993292029553
 20
-0.4978546152604348
 30
0.0
 10
-21.13722712026051
 20
-0.3343194374359797
 30
0.0
 10
-21.28246493947432
 20
-0.2508174565524701
 30
0.0
 10
-21.43125000000017
 20
-0.1657002427644638
 30
0.0
  0
LINE
  5
23D
330
1F
100
AcDbEntity
  8
외형선
  6
Continuous
370
    15
100
AcDbLine
 10
-20.54113448704076
 20
-0.9664066452256925
 30
0.0
 11
-20.54113448704076
 21
-1.3890625
 31
0.0
  0
LINE
  5
23E
330
1F
100
AcDbEntity
  8
외형선
  6
Continuous
370
    15
100
AcDbLine
 10
-20.54113448704076
 20
1.389062500000001
 30
0.0
 11
-20.54113448704076
 21
-0.6535575877947704
 31
0.0
  0
SPLINE
  5
23F
330
1F
100
AcDbEntity
  8
외형선
  6
Continuous
370
    15
100
AcDbSpline
210
0.0
220
0.0
230
1.0
 70
    24
 71
     3
 72
    10
 73
     6
 74
     0
 42
0.000000001
 43
0.00000001
 40
0.0
 40
0.0
 40
0.0
 40
0.0
 40
0.3062304652360651
 40
0.6521626237785026
 40
1.0
 40
1.0
 40
1.0
 40
1.0
 10
-21.43125000000001
 20
-0.1307223170886544
 30
0.0
 10
-21.43125000000001
 20
-0.1266523775323662
 30
0.0
 10
-21.43125000000001
 20
-0.1179848451965384
 30
0.0
 10
-21.43125000000001
 20
-0.0986392990951988
 30
0.0
 10
-21.43125000000001
 20
-0.0836994001006524
 30
0.0
 10
-21.43125000000001
 20
-0.0762089367596168
 30
0.0
  0
SPLINE
  5
240
330
1F
100
AcDbEntity
  8
외형선
  6
Continuous
370
    15
100
AcDbSpline
210
0.0
220
0.0
230
1.0
 70
     8
 71
     3
 72
    10
 73
     6
 74
     0
 42
0.000000001
 43
0.00000001
 40
0.0
 40
0.0
 40
0.0
 40
0.0
 40
0.5
 40
0.5
 40
1.0
 40
1.0
 40
1.0
 40
1.0
 10
-21.43125000000003
 20
-0.076208936759425
 30
0.0
 10
-21.28246006834772
 20
-0.1360368450626037
 30
0.0
 10
-21.13721750340678
 20
-0.1949576875244858
 30
0.0
 10
-20.83991333747922
 20
-0.3108165490558061
 30
0.0
 10
-20.68948050792991
 20
-0.367517499019689
 30
0.0
 10
-20.54110534172774
 20
-0.4215467033052516
 30
0.0
  0
LINE
  5
241
330
1F
100
AcDbEntity
  8
외형선
  6
Continuous
370
    15
100
AcDbLine
 10
-21.43125000000001
 20
-1.107831603572361
 30
0.0
 11
-21.00867015253276
 21
-1.068670071470388
 31
0.0
  0
SPLINE
  5
242
330
1F
100
AcDbEntity
  8
외형선
  6
Continuous
370
    15
100
AcDbSpline
210
0.0
220
0.0
230
1.0
 70
    24
 71
     3
 72
    13
 73
     9
 74
     0
 42
0.000000001
 43
0.00000001
 40
0.0
 40
0.0
 40
0.0
 40
0.0
 40
0.1336291221602605
 40
0.2690360319484769
 40
0.4636830604101675
 40
0.6639748658835739
 40
0.8383727447303883
 40
1.0
 40
1.0
 40
1.0
 40
1.0
 10
-21.43124999999999
 20
-1.107831603572359
 30
0.0
 10
-21.43125
 20
-1.10374143692378
 30
0.0
 10
-21.43125000000001
 20
-1.095506688484571
 30
0.0
 10
-21.43125000000001
 20
-1.052298155336231
 30
0.0
 10
-21.43125000000001
 20
-0.9734644198032623
 30
0.0
 10
-21.43125000000001
 20
-0.849525987175273
 30
0.0
 10
-21.43125000000001
 20
-0.704236260073225
 30
0.0
 10
-21.43125000000001
 20
-0.5933401017816262
 30
0.0
 10
-21.43125000000001
 20
-0.5399993249622206
 30
0.0
  0
SPLINE
  5
243
330
1F
100
AcDbEntity
  8
외형선
  6
Continuous
370
    15
100
AcDbSpline
210
0.0
220
0.0
230
1.0
 70
     8
 71
     3
 72
    10
 73
     6
 74
     0
 42
0.000000001
 43
0.00000001
 40
0.0
 40
0.0
 40
0.0
 40
0.0
 40
0.5
 40
0.5
 40
1.0
 40
1.0
 40
1.0
 40
1.0
 10
-21.43125000000006
 20
1.107831603572365
 30
0.0
 10
-21.28245755655918
 20
1.102456000456229
 30
0.0
 10
-21.13721254448699
 20
1.090840524946701
 30
0.0
 10
-20.83990323962717
 20
1.055174963558549
 30
0.0
 10
-20.68946784555569
 20
1.031091963427507
 30
0.0
 10
-20.54109031301445
 20
1.001384270441335
 30
0.0
  0
SPLINE
  5
244
330
1F
100
AcDbEntity
  8
외형선
  6
Continuous
370
    15
100
AcDbSpline
210
0.0
220
0.0
230
1.0
 70
    24
 71
     3
 72
    10
 73
     6
 74
     0
 42
0.000000001
 43
0.00000001
 40
0.0
 40
0.0
 40
0.0
 40
0.0
 40
0.5
 40
0.5
 40
1.0
 40
1.0
 40
1.0
 40
1.0
 10
-21.43125000000001
 20
-0.0762089367594339
 30
0.0
 10
-21.43125000000001
 20
0.1676149198600676
 30
0.0
 10
-21.43125
 20
0.4190208951542633
 30
0.0
 10
-21.43125000000001
 20
0.8398971775945121
 30
0.0
 10
-21.43125000000001
 20
1.006106499002492
 30
0.0
 10
-21.43125000000001
 20
1.107831603572363
 30
0.0
  0
SPLINE
  5
245
330
1F
100
AcDbEntity
  8
0
  6
Continuous
 62
     1
370
    25
100
AcDbSpline
210
0.0
220
0.0
230
1.0
 70
     8
 71
     3
 72
    22
 73
    18
 74
     0
 42
0.000000001
 43
0.00000001
 40
0.0
 40
0.0
 40
0.0
 40
0.0
 40
0.125
 40
0.125
 40
0.25
 40
0.25
 40
0.375
 40
0.375
 40
0.5
 40
0.5
 40
0.625
 40
0.625
 40
0.75
 40
0.75
 40
0.875
 40
0.875
 40
1.0
 40
1.0
 40
1.0
 40
1.0
 10
-25.40000000000001
 20
1.318138176167439
 30
0.0
 10
-25.23719486259927
 20
1.288182100341624
 30
0.0
 10
-25.06994388913527
 20
1.248615844704222
 30
0.0
 10
-24.73703053719824
 20
1.152363443063575
 30
0.0
 10
-24.57434606121093
 20
1.096101897662223
 30
0.0
 10
-24.24427842597346
 20
0.968442679978498
 30
0.0
 10
-24.0763794594188
 20
0.8968687088202021
 30
0.0
 10
-23.74546451362192
 20
0.7427233222518979
 30
0.0
 10
-23.58330984636518
 20
0.6603885874905444
 30
0.0
 10
-23.25072666893848
 20
0.486171545111306
 30
0.0
 10
-23.08320758287687
 20
0.3947399632783188
 30
0.0
 10
-22.75624964862421
 20
0.2091027975124646
 30
0.0
 10
-22.59057760948894
 20
0.1137358225507548
 30
0.0
 10
-22.25747070005879
 20
-0.0776143520795021
 30
0.0
 10
-22.09398045988386
 20
-0.1728248140427038
 30
0.0
 10
-21.76489287716031
 20
-0.3598826941351021
 30
0.0
 10
-21.59706418242938
 20
-0.4521263693110207
 30
0.0
 10
-21.43125000000003
 20
-0.5401484963290297
 30
0.0
1001
PE_URL
1000

  0
SPLINE
  5
246
330
1F
100
AcDbEntity
  8
0
  6
Continuous
 62
     1
370
    25
100
AcDbSpline
210
0.0
220
0.0
230
1.0
 70
     8
 71
     3
 72
    13
 73
     9
 74
     0
 42
0.000000001
 43
0.00000001
 40
0.0
 40
0.0
 40
0.0
 40
0.0
 40
0.167936692389245
 40
0.3352396457462631
 40
0.5026965654907462
 40
0.6708763194350901
 40
0.8384735204935679
 40
1.0
 40
1.0
 40
1.0
 40
1.0
 10
-25.40000000000001
 20
1.095931785973978
 30
0.0
 10
-25.19718178941446
 20
1.052231337131342
 30
0.0
 10
-24.79231073889984
 20
0.9649953508764604
 30
0.0
 10
-24.18573177586671
 20
0.7539285504686735
 30
0.0
 10
-23.57878083217906
 20
0.4997582543399819
 30
0.0
 10
-22.9707579535066
 20
0.2142799770804604
 30
0.0
 10
-22.3705122654122
 20
-0.0838204983789055
 30
0.0
 10
-21.97333270679508
 20
-0.2735047296574287
 30
0.0
 10
-21.77840593724382
 20
-0.3665974723118453
 30
0.0
1001
PE_URL
1000

  0
LINE
  5
247
330
1F
100
AcDbEntity
  8
0
  6
Continuous
 62
     1
370
    25
100
AcDbLine
 10
-25.39999999999996
 20
1.318138176167439
 30
0.0
 11
-25.40000000000001
 21
1.095931785973978
 31
0.0
1001
PE_URL
1000

  0
SPLINE
  5
248
330
1F
100
AcDbEntity
  8
0
  6
Continuous
 62
     1
370
    25
100
AcDbSpline
210
0.0
220
0.0
230
1.0
 70
     8
 71
     3
 72
    22
 73
    18
 74
     0
 42
0.000000001
 43
0.00000001
 40
0.0
 40
0.0
 40
0.0
 40
0.0
 40
0.1249999999999998
 40
0.1249999999999998
 40
0.2499999999999996
 40
0.2499999999999996
 40
0.3749999999999993
 40
0.3749999999999993
 40
0.4999999999999992
 40
0.4999999999999992
 40
0.6249999999999992
 40
0.6249999999999992
 40
0.7499999999999991
 40
0.7499999999999991
 40
0.8749999999999996
 40
0.8749999999999996
 40
1.0
 40
1.0
 40
1.0
 40
1.0
 10
-21.43125000000017
 20
-0.165700242764462
 30
0.0
 10
-21.59706418242951
 20
-0.0708409795760776
 30
0.0
 10
-21.76489287716043
 20
0.0255814917895201
 30
0.0
 10
-22.09398045988397
 20
0.2154573721855524
 30
0.0
 10
-22.2574707000589
 20
0.3093479240570396
 30
0.0
 10
-22.59057760948904
 20
0.4925684854770349
 30
0.0
 10
-22.7562496486243
 20
0.5811388372144055
 30
0.0
 10
-23.08320758287695
 20
0.7481391040181613
 30
0.0
 10
-23.25072666893855
 20
0.8275990547480685
 30
0.0
 10
-23.58330984636523
 20
0.9732390524084451
 30
0.0
 10
-23.74546451362198
 20
1.039093077311797
 30
0.0
 10
-24.07637945941884
 20
1.15611961727685
 30
0.0
 10
-24.2442784259735
 20
1.207054996771047
 30
0.0
 10
-24.57434606121096
 20
1.29059230646296
 30
0.0
 10
-24.73703053719827
 20
1.323371747970057
 30
0.0
 10
-25.06994388913527
 20
1.370212530471386
 30
0.0
 10
-25.23719486259929
 20
1.383985041771943
 30
0.0
 10
-25.40000000000001
 20
1.387888485529929
 30
0.0
1001
PE_URL
1000

  0
SPLINE
  5
249
330
1F
100
AcDbEntity
  8
0
  6
Continuous
 62
     1
370
    25
100
AcDbSpline
210
0.0
220
0.0
230
1.0
 70
     8
 71
     3
 72
     9
 73
     5
 74
     0
 42
0.000000001
 43
0.00000001
 40
0.0
 40
0.0
 40
0.0
 40
0.0
 40
0.3669543043238307
 40
1.0
 40
1.0
 40
1.0
 40
1.0
 10
-21.94679793780249
 20
0.1301419418093577
 30
0.0
 10
-21.88376706857608
 20
0.1051718771984476
 30
0.0
 10
-21.71199944387811
 20
0.0371250814075648
 30
0.0
 10
-21.54008175374766
 20
-0.0322753147155037
 30
0.0
 10
-21.43125000000001
 20
-0.0762089367594339
 30
0.0
1001
PE_URL
1000

  0
SPLINE
  5
24A
330
1F
100
AcDbEntity
  8
외형선
  6
Continuous
370
    15
100
AcDbSpline
210
0.0
220
0.0
230
1.0
 70
    24
 71
     3
 72
    10
 73
     6
 74
     0
 42
0.000000001
 43
0.00000001
 40
0.0
 40
0.0
 40
0.0
 40
0.0
 40
0.3060680073631475
 40
0.6520811717725712
 40
1.0
 40
1.0
 40
1.0
 40
1.0
 10
-21.43125000000001
 20
-0.1307123170886548
 30
0.0
 10
-21.43125000000001
 20
-0.1266453787121655
 30
0.0
 10
-21.43125000000001
 20
-0.1179807228897047
 30
0.0
 10
-21.43125000000001
 20
-0.0986391915935627
 30
0.0
 10
-21.43125000000001
 20
-0.0836993642012303
 30
0.0
 10
-21.43125000000001
 20
-0.0762089367596168
 30
0.0
  0
LINE
  5
24B
330
1F
100
AcDbEntity
  8
0
  6
Continuous
 62
     1
370
    25
100
AcDbLine
 10
-25.40000000000001
 20
1.387888485529929
 30
0.0
 11
-25.4
 21
1.318138176167436
 31
0.0
1001
PE_URL
1000

  0
SPLINE
  5
24C
330
1F
100
AcDbEntity
  8
0
  6
Continuous
 62
     1
370
    25
100
AcDbSpline
210
0.0
220
0.0
230
1.0
 70
     8
 71
     3
 72
     8
 73
     4
 74
     0
 42
0.000000001
 43
0.00000001
 40
0.0
 40
0.0
 40
0.0
 40
0.0
 40
1.0
 40
1.0
 40
1.0
 40
1.0
 10
-24.5403051157932
 20
-0.3887621309163141
 30
0.0
 10
-24.49100288184699
 20
-0.4471223139970775
 30
0.0
 10
-24.44700384932705
 20
-0.5033065058620672
 30
0.0
 10
-24.4095522770981
 20
-0.5568041665294494
 30
0.0
1001
PE_URL
1000

  0
LINE
  5
24D
330
1F
100
AcDbEntity
  8
0
  6
Continuous
 62
     1
370
    25
100
AcDbLine
 10
-24.42716518332104
 20
-0.571583149658192
 30
0.0
 11
-25.40000000000001
 21
0.0000000000000036
 31
0.0
1001
PE_URL
1000

  0
LINE
  5
24E
330
1F
100
AcDbEntity
  8
0
  6
Continuous
 62
     1
370
    25
100
AcDbLine
 10
-25.40000000000001
 20
0.0000000000000036
 30
0.0
 11
-25.40000000000001
 21
0.3712171547193073
 31
0.0
1001
PE_URL
1000

  0
SPLINE
  5
24F
330
1F
100
AcDbEntity
  8
0
  6
Continuous
 62
     1
370
    25
100
AcDbSpline
210
0.0
220
0.0
230
1.0
 70
     8
 71
     3
 72
    10
 73
     6
 74
     0
 42
0.000000001
 43
0.00000001
 40
0.0
 40
0.0
 40
0.0
 40
0.0
 40
0.5
 40
0.5
 40
1.0
 40
1.0
 40
1.0
 40
1.0
 10
-25.40000000000001
 20
0.3712171547193073
 30
0.0
 10
-25.25118043403184
 20
0.2542174094430099
 30
0.0
 10
-25.10484885623703
 20
0.1324167157505212
 30
0.0
 10
-24.81727693759563
 20
-0.121008981180978
 30
0.0
 10
-24.67468493484974
 20
-0.2539670538550229
 30
0.0
 10
-24.5403051157932
 20
-0.3887621309163141
 30
0.0
1001
PE_URL
1000

  0
SPLINE
  5
250
330
1F
100
AcDbEntity
  8
0
  6
Continuous
 62
     1
370
    25
100
AcDbSpline
210
0.0
220
0.0
230
1.0
 70
     8
 71
     3
 72
    18
 73
    14
 74
     0
 42
0.000000001
 43
0.00000001
 40
0.0
 40
0.0
 40
0.0
 40
0.0
 40
0.2500000000000003
 40
0.2500000000000003
 40
0.5000000000000006
 40
0.5000000000000006
 40
0.6250000000000004
 40
0.6250000000000004
 40
0.7500000000000003
 40
0.7500000000000003
 40
0.8750000000000002
 40
0.8750000000000002
 40
1.0
 40
1.0
 40
1.0
 40
1.0
 10
-24.54030511578259
 20
-0.3887621309209432
 30
0.0
 10
-24.2847231429247
 20
-0.5003273970301194
 30
0.0
 10
-24.01872685233545
 20
-0.6064799354134198
 30
0.0
 10
-23.50639442470758
 20
-0.7917590336324878
 30
0.0
 10
-23.24277540098573
 20
-0.872957596015711
 30
0.0
 10
-22.85634681182153
 20
-0.9692147935404023
 30
0.0
 10
-22.72885077280127
 20
-0.9971542234517621
 30
0.0
 10
-22.46853855983657
 20
-1.044497446702309
 30
0.0
 10
-22.33748095734575
 20
-1.06374328201102
 30
0.0
 10
-22.07866670856138
 20
-1.092685942604705
 30
0.0
 10
-21.95183130434508
 20
-1.10241333256003
 30
0.0
 10
-21.69223711217002
 20
-1.112376194675734
 30
0.0
 10
-21.56112386431893
 20
-1.112523712483219
 30
0.0
 10
-21.43125000000006
 20
-1.107831603572363
 30
0.0
1001
PE_URL
1000

  0
SPLINE
  5
251
330
1F
100
AcDbEntity
  8
0
  6
Continuous
 62
     1
370
    25
100
AcDbSpline
210
0.0
220
0.0
230
1.0
 70
    24
 71
     3
 72
    10
 73
     6
 74
     0
 42
0.000000001
 43
0.00000001
 40
0.0
 40
0.0
 40
0.0
 40
0.0
 40
0.5
 40
0.5
 40
1.0
 40
1.0
 40
1.0
 40
1.0
 10
-25.40000000000001
 20
1.095931785973978
 30
0.0
 10
-25.40000000000001
 20
1.011920070038101
 30
0.0
 10
-25.40000000000001
 20
0.9057680456138328
 30
0.0
 10
-25.40000000000001
 20
0.6589748048202448
 30
0.0
 10
-25.40000000000001
 20
0.5185473701134633
 30
0.0
 10
-25.40000000000001
 20
0.3712171547193517
 30
0.0
1001
PE_URL
1000

  0
SPLINE
  5
252
330
1F
100
AcDbEntity
  8
외형선
  6
Continuous
370
    15
100
AcDbSpline
210
0.0
220
0.0
230
1.0
 70
    24
 71
     3
 72
    13
 73
     9
 74
     0
 42
0.000000001
 43
0.00000001
 40
0.0
 40
0.0
 40
0.0
 40
0.0
 40
0.1336291221602602
 40
0.2690360319484765
 40
0.463683060410167
 40
0.663974865883573
 40
0.8383727447303874
 40
1.0
 40
1.0
 40
1.0
 40
1.0
 10
-21.43124999999999
 20
-1.107831603572359
 30
0.0
 10
-21.43125
 20
-1.10374143692378
 30
0.0
 10
-21.43125000000001
 20
-1.095506688484573
 30
0.0
 10
-21.43125000000001
 20
-1.05229815533623
 30
0.0
 10
-21.43125000000001
 20
-0.9734644198032623
 30
0.0
 10
-21.43125000000001
 20
-0.849525987175273
 30
0.0
 10
-21.43125000000001
 20
-0.704236260073225
 30
0.0
 10
-21.43125000000001
 20
-0.5933401017816262
 30
0.0
 10
-21.43125000000001
 20
-0.5399993249622188
 30
0.0
  0
SPLINE
  5
253
330
1F
100
AcDbEntity
  8
0
  6
Continuous
 62
     1
370
    25
100
AcDbSpline
210
0.0
220
0.0
230
1.0
 70
    24
 71
     3
 72
     8
 73
     4
 74
     0
 42
0.000000001
 43
0.00000001
 40
0.0
 40
0.0
 40
0.0
 40
0.0
 40
1.0
 40
1.0
 40
1.0
 40
1.0
 10
-24.55454188518924
 20
-0.6784648932163808
 30
0.0
 10
-24.50874130942261
 20
-0.6400336469828893
 30
0.0
 10
-24.4601309745662
 20
-0.5992447329334585
 30
0.0
 10
-24.40955227709232
 20
-0.5568041665376988
 30
0.0
1001
PE_URL
1000

  0
LINE
  5
254
330
1F
100
AcDbEntity
  8
0
  6
Continuous
 62
     1
370
    25
100
AcDbLine
 10
-25.40000000000001
 20
-0.9723437499999967
 30
0.0
 11
-24.88692798836252
 21
-0.9463327140765099
 31
0.0
1001
PE_URL
1000

  0
SPLINE
  5
255
330
1F
100
AcDbEntity
  8
0
  6
Continuous
 62
     1
370
    25
100
AcDbSpline
210
0.0
220
0.0
230
1.0
 70
     8
 71
     3
 72
     8
 73
     4
 74
     0
 42
0.000000001
 43
0.00000001
 40
0.0
 40
0.0
 40
0.0
 40
0.0
 40
1.0
 40
1.0
 40
1.0
 40
1.0
 10
-25.40000000000001
 20
-0.9723437499999967
 30
0.0
 10
-25.11421599374739
 20
-0.8946687418752663
 30
0.0
 10
-24.8312496646462
 20
-0.7992143962484626
 30
0.0
 10
-24.55454188518876
 20
-0.6784648932166775
 30
0.0
1001
PE_URL
1000

  0
SPLINE
  5
256
330
1F
100
AcDbEntity
  8
0
  6
Continuous
 62
     1
370
    25
100
AcDbSpline
210
0.0
220
0.0
230
1.0
 70
     8
 71
     3
 72
    10
 73
     6
 74
     0
 42
0.000000001
 43
0.00000001
 40
0.0
 40
0.0
 40
0.0
 40
0.0
 40
0.0891845394211779
 40
0.6811477440400628
 40
1.0
 40
1.0
 40
1.0
 40
1.0
 10
-22.45451203883869
 20
1.040968305819066
 30
0.0
 10
-22.42409090391739
 20
1.047063809467662
 30
0.0
 10
-22.19174920481495
 20
1.093618274916238
 30
0.0
 10
-21.85094473382814
 20
1.113431645487474
 30
0.0
 10
-21.54007664552037
 20
1.109283691786185
 30
0.0
 10
-21.43125000000001
 20
1.107831603572363
 30
0.0
1001
PE_URL
1000

  0
SPLINE
  5
257
330
1F
100
AcDbEntity
  8
외형선
  6
Continuous
370
    15
100
AcDbSpline
210
0.0
220
0.0
230
1.0
 70
    24
 71
     3
 72
    10
 73
     6
 74
     0
 42
0.000000001
 43
0.00000001
 40
0.0
 40
0.0
 40
0.0
 40
0.0
 40
0.5
 40
0.5
 40
1.0
 40
1.0
 40
1.0
 40
1.0
 10
-21.43125000000001
 20
-0.0762089367594339
 30
0.0
 10
-21.43125000000001
 20
0.1676149198600676
 30
0.0
 10
-21.43125000000001
 20
0.4190208951542633
 30
0.0
 10
-21.43125000000001
 20
0.8398971775945121
 30
0.0
 10
-21.43125000000001
 20
1.006106499002492
 30
0.0
 10
-21.43125000000001
 20
1.107831603572363
 30
0.0
  0
LINE
  5
258
330
1F
100
AcDbEntity
  8
0
  6
Continuous
 62
     1
370
    25
100
AcDbLine
 10
-25.40000000000001
 20
0.0000000000000036
 30
0.0
 11
-25.40000000000001
 21
-0.9723437499999967
 31
0.0
1001
PE_URL
1000

  0
SPLINE
  5
259
330
1F
100
AcDbEntity
  8
0
  6
Continuous
 62
     1
370
    25
100
AcDbSpline
210
0.0
220
0.0
230
1.0
 70
    24
 71
     3
 72
    10
 73
     6
 74
     0
 42
0.000000001
 43
0.00000001
 40
0.0
 40
0.0
 40
0.0
 40
0.0
 40
0.5
 40
0.5
 40
1.0
 40
1.0
 40
1.0
 40
1.0
 10
-25.40000000000001
 20
-0.9723437499999967
 30
0.0
 10
-25.40000000000001
 20
-1.031284806721406
 30
0.0
 10
-25.40000000000001
 20
-1.099779773160726
 30
0.0
 10
-25.40000000000001
 20
-1.243482028272185
 30
0.0
 10
-25.40000000000001
 20
-1.318322319417979
 30
0.0
 10
-25.40000000000001
 20
-1.387888485529924
 30
0.0
1001
PE_URL
1000

  0
SPLINE
  5
25A
330
1F
100
AcDbEntity
  8
0
  6
Continuous
 62
     1
370
    25
100
AcDbSpline
210
0.0
220
0.0
230
1.0
 70
     8
 71
     3
 72
    13
 73
     9
 74
     0
 42
0.000000001
 43
0.00000001
 40
0.0
 40
0.0
 40
0.0
 40
0.0
 40
0.0195408883441958
 40
0.2360308001559399
 40
0.3599690282345568
 40
0.5943244467635694
 40
0.8038994000034296
 40
1.0
 40
1.0
 40
1.0
 40
1.0
 10
-23.49109713027587
 20
-0.9314447030942254
 30
0.0
 10
-23.50354582395769
 20
-0.9370932080815564
 30
0.0
 10
-23.65391130780173
 20
-1.005320462050816
 30
0.0
 10
-23.8821827992052
 20
-1.09027447741617
 30
0.0
 10
-24.24864518674408
 20
-1.209869786488664
 30
0.0
 10
-24.60945350414547
 20
-1.301632960791824
 30
0.0
 10
-25.01722431772325
 20
-1.368750816490216
 30
0.0
 10
-25.27526501248796
 20
-1.381652099523166
 30
0.0
 10
-25.40000000000001
 20
-1.387888485529924
 30
0.0
1001
PE_URL
1000

  0
ENDSEC
  0
SECTION
  2
OBJECTS
  0
DICTIONARY
  5
C
330
0
100
AcDbDictionary
281
     1
  3
ACAD_GROUP
350
D
  3
ACAD_IMAGE_VARS
350
27E
  3
ACAD_LAYOUT
350
1A
  3
ACAD_MLINESTYLE
350
17
  3
ACAD_PLOTSETTINGS
350
19
  3
ACAD_PLOTSTYLENAME
350
E
  3
ACAD_SCALELIST
350
47
  3
APPDATA
350
156
  3
DWGPROPS
350
27F
  0
DICTIONARY
  5
D
102
{ACAD_REACTORS
330
C
102
}
330
C
100
AcDbDictionary
281
     1
  0
RASTERVARIABLES
  5
27E
102
{ACAD_REACTORS
330
C
102
}
330
C
100
AcDbRasterVariables
 90
        0
 70
     1
 71
     1
 72
     1
  0
DICTIONARY
  5
1A
102
{ACAD_REACTORS
330
C
102
}
330
C
100
AcDbDictionary
281
     1
  3
Layout1
350
1E
  3
Layout2
350
26
  3
Model
350
22
  0
DICTIONARY
  5
17
102
{ACAD_REACTORS
330
C
102
}
330
C
100
AcDbDictionary
281
     1
  3
Standard
350
18
  0
DICTIONARY
  5
19
102
{ACAD_REACTORS
330
C
102
}
330
C
100
AcDbDictionary
281
     1
  0
ACDBDICTIONARYWDFLT
  5
E
102
{ACAD_REACTORS
330
C
102
}
330
C
100
AcDbDictionary
281
     1
  3
Normal
350
F
100
AcDbDictionaryWithDefault
340
F
  0
DICTIONARY
  5
47
102
{ACAD_REACTORS
330
C
102
}
330
C
100
AcDbDictionary
281
     1
  3
A0
350
48
  3
A1
350
49
  3
A2
350
4A
  3
A3
350
4B
  3
A4
350
4C
  3
A5
350
4D
  3
A6
350
4E
  3
A7
350
4F
  3
A8
350
50
  3
A9
350
51
  3
B0
350
52
  3
B1
350
53
  3
B2
350
54
  3
B3
350
55
  3
B4
350
56
  3
B5
350
57
  3
B6
350
58
  3
B7
350
59
  3
B8
350
5A
  3
B9
350
5B
  3
C0
350
5C
  3
C1
350
5D
  3
C2
350
5E
  3
C3
350
5F
  3
C4
350
60
  3
C5
350
61
  3
C6
350
62
  3
C7
350
63
  3
C8
350
64
  3
C9
350
65
  3
D0
350
66
  3
D1
350
67
  3
D2
350
68
  0
DICTIONARY
  5
156
102
{ACAD_REACTORS
330
C
102
}
330
C
100
AcDbDictionary
281
     1
  0
XRECORD
  5
27F
102
{ACAD_REACTORS
330
C
102
}
330
C
100
AcDbXrecord
280
     1
  1
DWGPROPS COOKIE
  2

  3

  4

  6

  7

  8
12016016
  9

300
=
301
=
302
=
303
=
304
=
305
=
306
=
307
=
308
=
309
=
 40
0.0
 41
2458313.013263704
 42
2458318.269944942
  1

 90
        0
  0
LAYOUT
  5
1E
102
{ACAD_REACTORS
330
1A
102
}
330
1A
100
AcDbPlotSettings
  1

  2
none_device
  4

  6

 40
0.0
 41
0.0
 42
0.0
 43
0.0
 44
0.0
 45
0.0
 46
0.0
 47
0.0
 48
0.0
 49
0.0
140
0.0
141
0.0
142
1.0
143
1.0
 70
   688
 72
     1
 73
     0
 74
     5
  7

 75
    16
147
1.0
148
0.0
149
0.0
100
AcDbLayout
  1
Layout1
 70
     1
 71
     1
 10
0.0
 20
0.0
 11
420.0
 21
297.0
 12
0.0
 22
0.0
 32
0.0
 14
1.000000000000000E+20
 24
1.000000000000000E+20
 34
1.000000000000000E+20
 15
-1.000000000000000E+20
 25
-1.000000000000000E+20
 35
-1.000000000000000E+20
146
0.0
 13
0.0
 23
0.0
 33
0.0
 16
1.0
 26
0.0
 36
0.0
 17
0.0
 27
1.0
 37
0.0
 76
     0
330
1B
  0
LAYOUT
  5
26
102
{ACAD_REACTORS
330
1A
102
}
330
1A
100
AcDbPlotSettings
  1

  2
none_device
  4

  6

 40
0.0
 41
0.0
 42
0.0
 43
0.0
 44
0.0
 45
0.0
 46
0.0
 47
0.0
 48
0.0
 49
0.0
140
0.0
141
0.0
142
1.0
143
1.0
 70
   688
 72
     1
 73
     0
 74
     5
  7

 75
    16
147
1.0
148
0.0
149
0.0
100
AcDbLayout
  1
Layout2
 70
     1
 71
     2
 10
0.0
 20
0.0
 11
0.0
 21
0.0
 12
0.0
 22
0.0
 32
0.0
 14
0.0
 24
0.0
 34
0.0
 15
0.0
 25
0.0
 35
0.0
146
0.0
 13
0.0
 23
0.0
 33
0.0
 16
1.0
 26
0.0
 36
0.0
 17
0.0
 27
1.0
 37
0.0
 76
     0
330
23
  0
LAYOUT
  5
22
102
{ACAD_REACTORS
330
1A
102
}
330
1A
100
AcDbPlotSettings
  1

  2
none_device
  4
ANSI_A_(11.00_x_8.50_Inches)
  6

 40
6.35
 41
19.05
 42
6.35000508
 43
19.05000254
 44
279.4
 45
215.9
 46
112.8202136679568
 47
92.36121403799935
 48
0.0
 49
0.0
140
0.0
141
0.0
142
0.0769988102328185
143
1.0
 70
  1696
 72
     0
 73
     0
 74
     0
  7

 75
     0
147
0.0235690232323232
148
0.0
149
0.0
100
AcDbLayout
  1
Model
 70
     1
 71
     0
 10
0.0
 20
0.0
 11
420.0
 21
297.0
 12
0.0
 22
0.0
 32
0.0
 14
-36.77500000000008
 24
-49.97180738881175
 34
0.0
 15
92.23787503295506
 25
27.88124999999997
 35
0.0
146
0.0
 13
0.0
 23
0.0
 33
0.0
 16
1.0
 26
0.0
 36
0.0
 17
0.0
 27
1.0
 37
0.0
 76
     0
330
1F
331
29
  0
MLINESTYLE
  5
18
102
{ACAD_REACTORS
330
17
102
}
330
17
100
AcDbMlineStyle
  2
Standard
 70
     0
  3

 62
   256
 51
90.0
 52
90.0
 71
     2
 49
0.5
 62
   256
  6
BYLAYER
 49
-0.5
 62
   256
  6
BYLAYER
  0
ACDBPLACEHOLDER
  5
F
102
{ACAD_REACTORS
330
E
102
}
330
E
  0
SCALE
  5
48
102
{ACAD_REACTORS
330
47
102
}
330
47
100
AcDbScale
 70
     0
300
1:1
140
1.0
141
1.0
290
     1
  0
SCALE
  5
49
102
{ACAD_REACTORS
330
47
102
}
330
47
100
AcDbScale
 70
     0
300
1:2
140
1.0
141
2.0
290
     0
  0
SCALE
  5
4A
102
{ACAD_REACTORS
330
47
102
}
330
47
100
AcDbScale
 70
     0
300
1:4
140
1.0
141
4.0
290
     0
  0
SCALE
  5
4B
102
{ACAD_REACTORS
330
47
102
}
330
47
100
AcDbScale
 70
     0
300
1:5
140
1.0
141
5.0
290
     0
  0
SCALE
  5
4C
102
{ACAD_REACTORS
330
47
102
}
330
47
100
AcDbScale
 70
     0
300
1:8
140
1.0
141
8.0
290
     0
  0
SCALE
  5
4D
102
{ACAD_REACTORS
330
47
102
}
330
47
100
AcDbScale
 70
     0
300
1:10
140
1.0
141
10.0
290
     0
  0
SCALE
  5
4E
102
{ACAD_REACTORS
330
47
102
}
330
47
100
AcDbScale
 70
     0
300
1:16
140
1.0
141
16.0
290
     0
  0
SCALE
  5
4F
102
{ACAD_REACTORS
330
47
102
}
330
47
100
AcDbScale
 70
     0
300
1:20
140
1.0
141
20.0
290
     0
  0
SCALE
  5
50
102
{ACAD_REACTORS
330
47
102
}
330
47
100
AcDbScale
 70
     0
300
1:30
140
1.0
141
30.0
290
     0
  0
SCALE
  5
51
102
{ACAD_REACTORS
330
47
102
}
330
47
100
AcDbScale
 70
     0
300
1:40
140
1.0
141
40.0
290
     0
  0
SCALE
  5
52
102
{ACAD_REACTORS
330
47
102
}
330
47
100
AcDbScale
 70
     0
300
1:50
140
1.0
141
50.0
290
     0
  0
SCALE
  5
53
102
{ACAD_REACTORS
330
47
102
}
330
47
100
AcDbScale
 70
     0
300
1:100
140
1.0
141
100.0
290
     0
  0
SCALE
  5
54
102
{ACAD_REACTORS
330
47
102
}
330
47
100
AcDbScale
 70
     0
300
2:1
140
2.0
141
1.0
290
     0
  0
SCALE
  5
55
102
{ACAD_REACTORS
330
47
102
}
330
47
100
AcDbScale
 70
     0
300
4:1
140
4.0
141
1.0
290
     0
  0
SCALE
  5
56
102
{ACAD_REACTORS
330
47
102
}
330
47
100
AcDbScale
 70
     0
300
8:1
140
8.0
141
1.0
290
     0
  0
SCALE
  5
57
102
{ACAD_REACTORS
330
47
102
}
330
47
100
AcDbScale
 70
     0
300
10:1
140
10.0
141
1.0
290
     0
  0
SCALE
  5
58
102
{ACAD_REACTORS
330
47
102
}
330
47
100
AcDbScale
 70
     0
300
100:1
140
100.0
141
1.0
290
     0
  0
SCALE
  5
59
102
{ACAD_REACTORS
330
47
102
}
330
47
100
AcDbScale
 70
     0
300
1/128" = 1'-0"
140
0.0078125
141
12.0
290
     0
  0
SCALE
  5
5A
102
{ACAD_REACTORS
330
47
102
}
330
47
100
AcDbScale
 70
     0
300
1/64" = 1'-0"
140
0.015625
141
12.0
290
     0
  0
SCALE
  5
5B
102
{ACAD_REACTORS
330
47
102
}
330
47
100
AcDbScale
 70
     0
300
1/32" = 1'-0"
140
0.03125
141
12.0
290
     0
  0
SCALE
  5
5C
102
{ACAD_REACTORS
330
47
102
}
330
47
100
AcDbScale
 70
     0
300
1/16" = 1'-0"
140
0.0625
141
12.0
290
     0
  0
SCALE
  5
5D
102
{ACAD_REACTORS
330
47
102
}
330
47
100
AcDbScale
 70
     0
300
3/32" = 1'-0"
140
0.09375
141
12.0
290
     0
  0
SCALE
  5
5E
102
{ACAD_REACTORS
330
47
102
}
330
47
100
AcDbScale
 70
     0
300
1/8" = 1'-0"
140
0.125
141
12.0
290
     0
  0
SCALE
  5
5F
102
{ACAD_REACTORS
330
47
102
}
330
47
100
AcDbScale
 70
     0
300
3/16" = 1'-0"
140
0.1875
141
12.0
290
     0
  0
SCALE
  5
60
102
{ACAD_REACTORS
330
47
102
}
330
47
100
AcDbScale
 70
     0
300
1/4" = 1'-0"
140
0.25
141
12.0
290
     0
  0
SCALE
  5
61
102
{ACAD_REACTORS
330
47
102
}
330
47
100
AcDbScale
 70
     0
300
3/8" = 1'-0"
140
0.375
141
12.0
290
     0
  0
SCALE
  5
62
102
{ACAD_REACTORS
330
47
102
}
330
47
100
AcDbScale
 70
     0
300
1/2" = 1'-0"
140
0.5
141
12.0
290
     0
  0
SCALE
  5
63
102
{ACAD_REACTORS
330
47
102
}
330
47
100
AcDbScale
 70
     0
300
3/4" = 1'-0"
140
0.75
141
12.0
290
     0
  0
SCALE
  5
64
102
{ACAD_REACTORS
330
47
102
}
330
47
100
AcDbScale
 70
     0
300
1" = 1'-0"
140
1.0
141
12.0
290
     0
  0
SCALE
  5
65
102
{ACAD_REACTORS
330
47
102
}
330
47
100
AcDbScale
 70
     0
300
1-1/2" = 1'-0"
140
1.5
141
12.0
290
     0
  0
SCALE
  5
66
102
{ACAD_REACTORS
330
47
102
}
330
47
100
AcDbScale
 70
     0
300
3" = 1'-0"
140
3.0
141
12.0
290
     0
  0
SCALE
  5
67
102
{ACAD_REACTORS
330
47
102
}
330
47
100
AcDbScale
 70
     0
300
6" = 1'-0"
140
6.0
141
12.0
290
     0
  0
SCALE
  5
68
102
{ACAD_REACTORS
330
47
102
}
330
47
100
AcDbScale
 70
     0
300
1'-0" = 1'-0"
140
12.0
141
12.0
290
     0
  0
ENDSEC
  0
EOF
