  0
SECTION
  2
HEADER
  9
$ACADVER
  1
AC1015
  9
$ACADMAINTVER
 70
     6
  9
$DWGCODEPAGE
  3
ANSI_949
  9
$INSBASE
 10
0.0
 20
0.0
 30
0.0
  9
$EXTMIN
 10
-39.77500000000011
 20
-49.97180738881175
 30
0.0
  9
$EXTMAX
 10
90.65037503295505
 20
37.26342805282434
 30
0.0
  9
$LIMMIN
 10
0.0
 20
0.0
  9
$LIMMAX
 10
420.0
 20
297.0
  9
$ORTHOMODE
 70
     1
  9
$REGENMODE
 70
     1
  9
$FILLMODE
 70
     1
  9
$QTEXTMODE
 70
     0
  9
$MIRRTEXT
 70
     1
  9
$LTSCALE
 40
1.0
  9
$ATTMODE
 70
     1
  9
$TEXTSIZE
 40
3.5
  9
$TRACEWID
 40
1.0
  9
$TEXTSTYLE
  7
Standard
  9
$CLAYER
  8
0
  9
$CELTYPE
  6
ByLayer
  9
$CECOLOR
 62
   256
  9
$CELTSCALE
 40
1.0
  9
$DISPSILH
 70
     0
  9
$DIMSCALE
 40
1.0
  9
$DIMASZ
 40
3.302
  9
$DIMEXO
 40
1.0
  9
$DIMDLI
 40
3.75
  9
$DIMRND
 40
0.0
  9
$DIMDLE
 40
0.0
  9
$DIMEXE
 40
1.0
  9
$DIMTP
 40
0.0
  9
$DIMTM
 40
0.0
  9
$DIMTXT
 40
3.5
  9
$DIMCEN
 40
2.5
  9
$DIMTSZ
 40
0.0
  9
$DIMTOL
 70
     0
  9
$DIMLIM
 70
     0
  9
$DIMTIH
 70
     1
  9
$DIMTOH
 70
     1
  9
$DIMSE1
 70
     0
  9
$DIMSE2
 70
     0
  9
$DIMTAD
 70
     1
  9
$DIMZIN
 70
     0
  9
$DIMBLK
  1

  9
$DIMASO
 70
     1
  9
$DIMSHO
 70
     1
  9
$DIMPOST
  1

  9
$DIMAPOST
  1

  9
$DIMALT
 70
     0
  9
$DIMALTD
 70
     3
  9
$DIMALTF
 40
0.0393700787401575
  9
$DIMLFAC
 40
1.0
  9
$DIMTOFL
 70
     1
  9
$DIMTVP
 40
0.0
  9
$DIMTIX
 70
     0
  9
$DIMSOXD
 70
     0
  9
$DIMSAH
 70
     0
  9
$DIMBLK1
  1

  9
$DIMBLK2
  1

  9
$DIMSTYLE
  2
ISO-25
  9
$DIMCLRD
 70
     0
  9
$DIMCLRE
 70
     0
  9
$DIMCLRT
 70
     0
  9
$DIMTFAC
 40
1.0
  9
$DIMGAP
 40
1.524
  9
$DIMJUST
 70
     0
  9
$DIMSD1
 70
     0
  9
$DIMSD2
 70
     0
  9
$DIMTOLJ
 70
     0
  9
$DIMTZIN
 70
     0
  9
$DIMALTZ
 70
     0
  9
$DIMALTTZ
 70
     0
  9
$DIMUPT
 70
     0
  9
$DIMDEC
 70
     2
  9
$DIMTDEC
 70
     2
  9
$DIMALTU
 70
     2
  9
$DIMALTTD
 70
     3
  9
$DIMTXSTY
  7
Standard
  9
$DIMAUNIT
 70
     0
  9
$DIMADEC
 70
     2
  9
$DIMALTRND
 40
0.0
  9
$DIMAZIN
 70
     0
  9
$DIMDSEP
 70
    44
  9
$DIMATFIT
 70
     3
  9
$DIMFRAC
 70
     0
  9
$DIMLDRBLK
  1

  9
$DIMLUNIT
 70
     2
  9
$DIMLWD
 70
    -2
  9
$DIMLWE
 70
    -2
  9
$DIMTMOVE
 70
     0
  9
$LUNITS
 70
     2
  9
$LUPREC
 70
     2
  9
$SKETCHINC
 40
1.0
  9
$FILLETRAD
 40
10.0
  9
$AUNITS
 70
     0
  9
$AUPREC
 70
     2
  9
$MENU
  1
.
  9
$ELEVATION
 40
0.0
  9
$PELEVATION
 40
0.0
  9
$THICKNESS
 40
0.0
  9
$LIMCHECK
 70
     0
  9
$CHAMFERA
 40
0.0
  9
$CHAMFERB
 40
0.0
  9
$CHAMFERC
 40
0.0
  9
$CHAMFERD
 40
0.0
  9
$SKPOLY
 70
     0
  9
$TDCREATE
 40
2458313.388687095
  9
$TDUCREATE
 40
2458313.013687095
  9
$TDUPDATE
 40
2458318.644843136
  9
$TDUUPDATE
 40
2458318.269843136
  9
$TDINDWG
 40
0.0024040625
  9
$TDUSRTIMER
 40
2458318.269803565
  9
$USRTIMER
 70
     1
  9
$ANGBASE
 50
0.0
  9
$ANGDIR
 70
     0
  9
$PDMODE
 70
     0
  9
$PDSIZE
 40
-1.0
  9
$PLINEWID
 40
0.0
  9
$SPLFRAME
 70
     0
  9
$SPLINETYPE
 70
     6
  9
$SPLINESEGS
 70
     8
  9
$HANDSEED
  5
283
  9
$SURFTAB1
 70
     6
  9
$SURFTAB2
 70
     6
  9
$SURFTYPE
 70
     6
  9
$SURFU
 70
     6
  9
$SURFV
 70
     6
  9
$UCSBASE
  2

  9
$UCSNAME
  2

  9
$UCSORG
 10
0.0
 20
0.0
 30
0.0
  9
$UCSXDIR
 10
1.0
 20
0.0
 30
0.0
  9
$UCSYDIR
 10
0.0
 20
1.0
 30
0.0
  9
$UCSORTHOREF
  2

  9
$UCSORTHOVIEW
 70
     0
  9
$UCSORGTOP
 10
0.0
 20
0.0
 30
0.0
  9
$UCSORGBOTTOM
 10
0.0
 20
0.0
 30
0.0
  9
$UCSORGLEFT
 10
0.0
 20
0.0
 30
0.0
  9
$UCSORGRIGHT
 10
0.0
 20
0.0
 30
0.0
  9
$UCSORGFRONT
 10
0.0
 20
0.0
 30
0.0
  9
$UCSORGBACK
 10
0.0
 20
0.0
 30
0.0
  9
$PUCSBASE
  2

  9
$PUCSNAME
  2

  9
$PUCSORG
 10
0.0
 20
0.0
 30
0.0
  9
$PUCSXDIR
 10
1.0
 20
0.0
 30
0.0
  9
$PUCSYDIR
 10
0.0
 20
1.0
 30
0.0
  9
$PUCSORTHOREF
  2

  9
$PUCSORTHOVIEW
 70
     0
  9
$PUCSORGTOP
 10
0.0
 20
0.0
 30
0.0
  9
$PUCSORGBOTTOM
 10
0.0
 20
0.0
 30
0.0
  9
$PUCSORGLEFT
 10
0.0
 20
0.0
 30
0.0
  9
$PUCSORGRIGHT
 10
0.0
 20
0.0
 30
0.0
  9
$PUCSORGFRONT
 10
0.0
 20
0.0
 30
0.0
  9
$PUCSORGBACK
 10
0.0
 20
0.0
 30
0.0
  9
$USERI1
 70
     0
  9
$USERI2
 70
     0
  9
$USERI3
 70
     0
  9
$USERI4
 70
     0
  9
$USERI5
 70
     0
  9
$USERR1
 40
0.0
  9
$USERR2
 40
0.0
  9
$USERR3
 40
0.0
  9
$USERR4
 40
0.0
  9
$USERR5
 40
0.0
  9
$WORLDVIEW
 70
     1
  9
$SHADEDGE
 70
     3
  9
$SHADEDIF
 70
    70
  9
$TILEMODE
 70
     1
  9
$MAXACTVP
 70
    64
  9
$PINSBASE
 10
0.0
 20
0.0
 30
0.0
  9
$PLIMCHECK
 70
     0
  9
$PEXTMIN
 10
1.000000000000000E+20
 20
1.000000000000000E+20
 30
1.000000000000000E+20
  9
$PEXTMAX
 10
-1.000000000000000E+20
 20
-1.000000000000000E+20
 30
-1.000000000000000E+20
  9
$PLIMMIN
 10
0.0
 20
0.0
  9
$PLIMMAX
 10
0.0
 20
0.0
  9
$UNITMODE
 70
     0
  9
$VISRETAIN
 70
     1
  9
$PLINEGEN
 70
     0
  9
$PSLTSCALE
 70
     1
  9
$TREEDEPTH
 70
  3020
  9
$CMLSTYLE
  2
Standard
  9
$CMLJUST
 70
     0
  9
$CMLSCALE
 40
20.0
  9
$PROXYGRAPHICS
 70
     1
  9
$MEASUREMENT
 70
     1
  9
$CELWEIGHT
370
    -1
  9
$ENDCAPS
280
     0
  9
$JOINSTYLE
280
     0
  9
$LWDISPLAY
290
     1
  9
$INSUNITS
 70
     4
  9
$HYPERLINKBASE
  1

  9
$STYLESHEET
  1

  9
$XEDIT
290
     1
  9
$CEPSNTYPE
380
     0
  9
$PSTYLEMODE
290
     1
  9
$FINGERPRINTGUID
  2
{DA0CE8B6-9B27-48CE-B30F-8064C65A7493}
  9
$VERSIONGUID
  2
{FAEB1C32-E019-11D5-929B-00C0DF256EC4}
  9
$EXTNAMES
290
     1
  9
$PSVPSCALE
 40
0.0
  9
$OLESTARTUP
290
     0
  0
ENDSEC
  0
SECTION
  2
CLASSES
  0
CLASS
  1
ACDBDICTIONARYWDFLT
  2
AcDbDictionaryWithDefault
  3
ObjectDBX Classes
 90
        0
280
     0
281
     0
  0
CLASS
  1
VISUALSTYLE
  2
AcDbVisualStyle
  3
ObjectDBX Classes
 90
     4095
280
     0
281
     0
  0
CLASS
  1
MATERIAL
  2
AcDbMaterial
  3
ObjectDBX Classes
 90
     1153
280
     0
281
     0
  0
CLASS
  1
SCALE
  2
AcDbScale
  3
ObjectDBX Classes
 90
     1153
280
     0
281
     0
  0
CLASS
  1
SUN
  2
AcDbSun
  3
SCENEOE
 90
     1153
280
     0
281
     0
  0
CLASS
  1
ACDBPLACEHOLDER
  2
AcDbPlaceHolder
  3
ObjectDBX Classes
 90
        0
280
     0
281
     0
  0
CLASS
  1
LAYOUT
  2
AcDbLayout
  3
ObjectDBX Classes
 90
        0
280
     0
281
     0
  0
CLASS
  1
TABLESTYLE
  2
AcDbTableStyle
  3
ObjectDBX Classes
 90
     4095
280
     0
281
     0
  0
CLASS
  1
MLEADERSTYLE
  2
AcDbMLeaderStyle
  3
ACDB_MLEADERSTYLE_CLASS
 90
     4095
280
     0
281
     0
  0
CLASS
  1
RASTERVARIABLES
  2
AcDbRasterVariables
  3
ISM
 90
        0
280
     0
281
     0
  0
ENDSEC
  0
SECTION
  2
TABLES
  0
TABLE
  2
VPORT
  5
8
330
0
100
AcDbSymbolTable
 70
     1
  0
VPORT
  5
29
330
8
100
AcDbSymbolTableRecord
100
AcDbViewportTableRecord
  2
*Active
 70
     0
 10
0.0
 20
0.0
 11
1.0
 21
1.0
 12
25.43768751647748
 22
-6.354189667993701
 13
0.0
 23
0.0
 14
10.0
 24
10.0
 15
10.0
 25
10.0
 16
0.0
 26
0.0
 36
1.0
 17
0.0
 27
0.0
 37
0.0
 40
88.9799401504688
 41
1.782762691853601
 42
50.0
 43
0.0
 44
0.0
 50
0.0
 51
0.0
 71
    16
 72
  2000
 73
     1
 74
     3
 75
     0
 76
     0
 77
     0
 78
     0
281
     0
 65
     1
110
0.0
120
0.0
130
0.0
111
1.0
121
0.0
131
0.0
112
0.0
122
1.0
132
0.0
 79
     0
146
0.0
  0
ENDTAB
  0
TABLE
  2
LTYPE
  5
5
330
0
100
AcDbSymbolTable
 70
     6
  0
LTYPE
  5
14
330
5
100
AcDbSymbolTableRecord
100
AcDbLinetypeTableRecord
  2
ByBlock
 70
     0
  3

 72
    65
 73
     0
 40
0.0
  0
LTYPE
  5
15
330
5
100
AcDbSymbolTableRecord
100
AcDbLinetypeTableRecord
  2
ByLayer
 70
     0
  3

 72
    65
 73
     0
 40
0.0
  0
LTYPE
  5
16
330
5
100
AcDbSymbolTableRecord
100
AcDbLinetypeTableRecord
  2
Continuous
 70
     0
  3
Solid line
 72
    65
 73
     0
 40
0.0
  0
LTYPE
  5
6A
330
5
100
AcDbSymbolTableRecord
100
AcDbLinetypeTableRecord
  2
HIDDEN
 70
     0
  3
Hidden __ __ __ __ __ __ __ __ __ __ __ __ __ __
 72
    65
 73
     2
 40
1.905
 49
1.27
 74
     0
 49
-0.635
 74
     0
  0
LTYPE
  5
6B
330
5
100
AcDbSymbolTableRecord
100
AcDbLinetypeTableRecord
  2
PHANTOM
 70
     0
  3
Phantom ______  __  __  ______  __  __  ______
 72
    65
 73
     6
 40
12.7
 49
6.35
 74
     0
 49
-1.27
 74
     0
 49
1.27
 74
     0
 49
-1.27
 74
     0
 49
1.27
 74
     0
 49
-1.27
 74
     0
  0
LTYPE
  5
6C
330
5
100
AcDbSymbolTableRecord
100
AcDbLinetypeTableRecord
  2
CENTER
 70
     0
  3
Center ____ _ ____ _ ____ _ ____ _ ____ _ ____
 72
    65
 73
     4
 40
10.16
 49
6.35
 74
     0
 49
-1.27
 74
     0
 49
1.27
 74
     0
 49
-1.27
 74
     0
  0
LTYPE
  5
6D
330
5
100
AcDbSymbolTableRecord
100
AcDbLinetypeTableRecord
  2
CENTERX2
 70
     0
  3
Center (2x) ________  __  ________  __  _____
 72
    65
 73
     4
 40
20.32
 49
12.7
 74
     0
 49
-2.54
 74
     0
 49
2.54
 74
     0
 49
-2.54
 74
     0
  0
LTYPE
  5
6E
330
5
100
AcDbSymbolTableRecord
100
AcDbLinetypeTableRecord
  2
DOT2
 70
     0
  3
Dot (.5x) ........................................
 72
    65
 73
     2
 40
0.635
 49
0.0
 74
     0
 49
-0.635
 74
     0
  0
ENDTAB
  0
TABLE
  2
LAYER
  5
2
102
{ACAD_XDICTIONARY
360
190
102
}
330
0
100
AcDbSymbolTable
 70
    18
  0
LAYER
  5
10
330
2
100
AcDbSymbolTableRecord
100
AcDbLayerTableRecord
  2
0
 70
     0
 62
     7
  6
Continuous
370
    -3
390
F
  0
LAYER
  5
6F
330
2
100
AcDbSymbolTableRecord
100
AcDbLayerTableRecord
  2
FORMAT
 70
     0
 62
     2
  6
Continuous
370
    -3
390
F
  0
LAYER
  5
70
330
2
100
AcDbSymbolTableRecord
100
AcDbLayerTableRecord
  2
외형선
 70
     0
 62
     4
  6
Continuous
370
    30
390
F
  0
LAYER
  5
71
330
2
100
AcDbSymbolTableRecord
100
AcDbLayerTableRecord
  2
숨은선
 70
     0
 62
     2
  6
HIDDEN
370
    15
390
F
  0
LAYER
  5
72
330
2
100
AcDbSymbolTableRecord
100
AcDbLayerTableRecord
  2
중심선
 70
     0
 62
     1
  6
CENTERX2
370
    -3
390
F
  0
LAYER
  5
73
330
2
100
AcDbSymbolTableRecord
100
AcDbLayerTableRecord
  2
파단선
 70
     0
 62
     4
  6
Continuous
370
    -3
390
F
  0
LAYER
  5
74
330
2
100
AcDbSymbolTableRecord
100
AcDbLayerTableRecord
  2
해칭선
 70
     0
 62
   100
  6
Continuous
370
    -3
390
F
  0
LAYER
  5
75
330
2
100
AcDbSymbolTableRecord
100
AcDbLayerTableRecord
  2
가는실선
 70
     0
 62
     4
  6
Continuous
370
    -3
390
F
  0
LAYER
  5
76
330
2
100
AcDbSymbolTableRecord
100
AcDbLayerTableRecord
  2
치수_보조선
 70
     0
 62
     4
  6
Continuous
370
    -3
390
F
  0
LAYER
  5
77
330
2
100
AcDbSymbolTableRecord
100
AcDbLayerTableRecord
  2
치수문자_일반주서
 70
     0
 62
     7
  6
Continuous
370
    15
390
F
  0
LAYER
  5
78
330
2
100
AcDbSymbolTableRecord
100
AcDbLayerTableRecord
  2
개별주서
 70
     0
 62
   100
  6
Continuous
370
    30
390
F
  0
LAYER
  5
79
330
2
100
AcDbSymbolTableRecord
100
AcDbLayerTableRecord
  2
중간선
 70
     0
 62
     2
  6
Continuous
370
    15
390
F
  0
LAYER
  5
7A
330
2
100
AcDbSymbolTableRecord
100
AcDbLayerTableRecord
  2
윤곽선
 70
     0
 62
     3
  6
Continuous
370
    40
390
F
  0
LAYER
  5
7B
330
2
100
AcDbSymbolTableRecord
100
AcDbLayerTableRecord
  2
중심마크
 70
     0
 62
   100
  6
Continuous
370
    30
390
F
  0
LAYER
  5
7C
330
2
100
AcDbSymbolTableRecord
100
AcDbLayerTableRecord
  2
가상선
 70
     0
 62
     4
  6
PHANTOM
370
    -3
390
F
  0
LAYER
  5
7D
330
2
100
AcDbSymbolTableRecord
100
AcDbLayerTableRecord
  2
특수지정선
 70
     0
 62
     5
  6
CENTERX2
370
    60
390
F
  0
LAYER
  5
7E
330
2
100
AcDbSymbolTableRecord
100
AcDbLayerTableRecord
  2
참조1
 70
     0
 62
    -4
  6
Continuous
370
    -3
390
F
  0
LAYER
  5
159
330
2
100
AcDbSymbolTableRecord
100
AcDbLayerTableRecord
  2
Defpoints
 70
     0
 62
     7
  6
Continuous
290
     0
370
    -3
390
F
  0
ENDTAB
  0
TABLE
  2
STYLE
  5
3
330
0
100
AcDbSymbolTable
 70
     2
  0
STYLE
  5
11
330
3
100
AcDbSymbolTableRecord
100
AcDbTextStyleTableRecord
  2
Standard
 70
     0
 40
0.0
 41
1.0
 50
0.0
 71
     0
 42
3.5
  3
txt
  4

  0
STYLE
  5
94
330
3
100
AcDbSymbolTableRecord
100
AcDbTextStyleTableRecord
  2
SLDTEXTSTYLE0
 70
     0
 40
0.0
 41
0.75
 50
0.0
 71
     0
 42
3.5
  3
TXT
  4

  0
ENDTAB
  0
TABLE
  2
VIEW
  5
6
330
0
100
AcDbSymbolTable
 70
     0
  0
ENDTAB
  0
TABLE
  2
UCS
  5
7
330
0
100
AcDbSymbolTable
 70
     0
  0
ENDTAB
  0
TABLE
  2
APPID
  5
9
330
0
100
AcDbSymbolTable
 70
     2
  0
APPID
  5
12
330
9
100
AcDbSymbolTableRecord
100
AcDbRegAppTableRecord
  2
ACAD
 70
     0
  0
APPID
  5
160
330
9
100
AcDbSymbolTableRecord
100
AcDbRegAppTableRecord
  2
PE_URL
 70
     0
  0
ENDTAB
  0
TABLE
  2
DIMSTYLE
  5
A
330
0
100
AcDbSymbolTable
 70
     3
100
AcDbDimStyleTable
  0
DIMSTYLE
105
27
330
A
100
AcDbSymbolTableRecord
100
AcDbDimStyleTableRecord
  2
ISO-25
 70
     0
 41
2.5
 42
0.625
 43
3.75
 44
1.25
 73
     0
 74
     0
 77
     1
 78
     8
140
2.5
141
2.5
143
0.03937007874016
147
0.625
171
     3
172
     1
178
     0
271
     2
272
     2
274
     3
278
    44
283
     0
284
     8
340
11
  0
DIMSTYLE
105
D7
102
{ACAD_REACTORS
330
D6
330
EB
330
FF
330
114
102
}
330
A
100
AcDbSymbolTableRecord
100
AcDbDimStyleTableRecord
  2
SLDDIMSTYLE0
 70
     0
 41
3.302
 44
0.0
 45
0.000000001
 73
     0
 74
     0
 77
     1
 78
    12
 79
     3
140
3.5
143
0.0393700787401575
147
0.875
148
0.000000001
170
     1
172
     1
173
     1
178
     0
271
     2
272
     2
276
     2
284
    12
289
     0
340
94
  0
DIMSTYLE
105
115
330
A
100
AcDbSymbolTableRecord
100
AcDbDimStyleTableRecord
  2
SLDDIMSTYLE1
 70
     0
 41
3.302
 44
0.0
 45
0.000000001
 73
     0
 74
     0
 77
     1
 78
     4
 79
     1
140
3.5
143
0.0393700787401575
147
0.875
148
0.000000001
170
     1
173
     1
178
     0
271
     2
272
     2
276
     2
284
    12
340
94
  0
ENDTAB
  0
TABLE
  2
BLOCK_RECORD
  5
1
330
0
100
AcDbSymbolTable
 70
     9
  0
BLOCK_RECORD
  5
1F
330
1
100
AcDbSymbolTableRecord
100
AcDbBlockTableRecord
  2
*Model_Space
340
22
  0
BLOCK_RECORD
  5
1B
330
1
100
AcDbSymbolTableRecord
100
AcDbBlockTableRecord
  2
*Paper_Space
340
1E
  0
BLOCK_RECORD
  5
23
330
1
100
AcDbSymbolTableRecord
100
AcDbBlockTableRecord
  2
*Paper_Space0
340
26
  0
BLOCK_RECORD
  5
7F
330
1
100
AcDbSymbolTableRecord
100
AcDbBlockTableRecord
  2
블럭10
340
0
102
{BLKREFS
331
CF
102
}
  0
BLOCK_RECORD
  5
D8
330
1
100
AcDbSymbolTableRecord
100
AcDbBlockTableRecord
  2
_D
340
0
  0
BLOCK_RECORD
  5
EC
330
1
100
AcDbSymbolTableRecord
100
AcDbBlockTableRecord
  2
_D_1
340
0
  0
BLOCK_RECORD
  5
100
330
1
100
AcDbSymbolTableRecord
100
AcDbBlockTableRecord
  2
_D_2
340
0
  0
BLOCK_RECORD
  5
116
330
1
100
AcDbSymbolTableRecord
100
AcDbBlockTableRecord
  2
_D_3
340
0
  0
BLOCK_RECORD
  5
12F
330
1
100
AcDbSymbolTableRecord
100
AcDbBlockTableRecord
  2
SW_DOWELSYMBOL_0
340
0
102
{BLKREFS
331
135
102
}
  0
BLOCK_RECORD
  5
194
330
1
100
AcDbSymbolTableRecord
100
AcDbBlockTableRecord
  2
*D7
340
0
  0
BLOCK_RECORD
  5
1A6
330
1
100
AcDbSymbolTableRecord
100
AcDbBlockTableRecord
  2
*D8
340
0
  0
ENDTAB
  0
ENDSEC
  0
SECTION
  2
BLOCKS
  0
BLOCK
  5
20
330
1F
100
AcDbEntity
  8
0
100
AcDbBlockBegin
  2
*Model_Space
 70
     0
 10
0.0
 20
0.0
 30
0.0
  3
*Model_Space
  1
*Model_Space
  0
ENDBLK
  5
21
330
1F
100
AcDbEntity
  8
0
100
AcDbBlockEnd
  0
BLOCK
  5
1C
330
1B
100
AcDbEntity
 67
     1
  8
0
100
AcDbBlockBegin
  2
*Paper_Space
 70
     0
 10
0.0
 20
0.0
 30
0.0
  3
*Paper_Space
  1
*Paper_Space
  0
ENDBLK
  5
1D
330
1B
100
AcDbEntity
 67
     1
  8
0
100
AcDbBlockEnd
  0
BLOCK
  5
24
330
23
100
AcDbEntity
  8
0
100
AcDbBlockBegin
  2
*Paper_Space0
 70
     0
 10
0.0
 20
0.0
 30
0.0
  3
*Paper_Space0
  1
*Paper_Space0
  0
ENDBLK
  5
25
330
23
100
AcDbEntity
  8
0
100
AcDbBlockEnd
  0
BLOCK
  5
80
330
7F
100
AcDbEntity
  8
0
100
AcDbBlockBegin
  2
블럭10
 70
     2
 10
0.0
 20
0.0
 30
0.0
  3
블럭10
  1
블럭10
  0
ELLIPSE
  5
82
330
7F
100
AcDbEntity
  8
중심선
100
AcDbEllipse
 10
20.54032771741204
 20
12.0471743016438
 30
0.0
 11
6.600054785286829
 21
-1.261213355974178E-13
 31
0.0
210
0.0
220
0.0
230
1.0
 40
0.636358354079598
 41
0.9219305317359503
 42
6.513795318482858
  0
ELLIPSE
  5
83
330
7F
100
AcDbEntity
  8
중심선
100
AcDbEllipse
 10
20.54032771746488
 20
12.04717430159265
 30
0.0
 11
3.960054785062283
 21
1.540847449632565E-10
 31
0.0
210
0.0
220
0.0
230
1.0
 40
0.3939339440162632
 41
1.131841032648279
 42
5.62031148352944
  0
LINE
  5
84
330
7F
100
AcDbEntity
  8
중심선
100
AcDbLine
 10
2.268634060543552
 20
16.24717430164393
 30
0.0
 11
5.714909304380834
 21
16.24717430164393
 31
0.0
  0
LINE
  5
85
330
7F
100
AcDbEntity
  8
중심선
100
AcDbLine
 10
5.245725140726316
 20
7.84717430164391
 30
0.0
 11
8.692000384563599
 21
7.84717430164391
 31
0.0
  0
LINE
  5
86
330
7F
100
AcDbEntity
  8
중심선
100
AcDbLine
 10
15.74043728645272
 20
16.24717430164393
 30
0.0
 11
8.692000384563599
 21
7.84717430164391
 31
0.0
  0
LINE
  5
87
330
7F
100
AcDbEntity
  8
중심선
100
AcDbLine
 10
0.1404042013395286
 20
13.71084872107135
 30
0.0
 11
3.58671253028996
 21
13.71088815037384
 31
0.0
  0
LINE
  5
88
330
7F
100
AcDbEntity
  8
중심선
100
AcDbLine
 10
2.750260043222114
 20
10.84717430164391
 30
0.0
 11
6.196535287059397
 21
10.84717430164391
 31
0.0
  0
LINE
  5
89
330
7F
100
AcDbEntity
  8
중심선
100
AcDbLine
 10
12.29416204261559
 20
16.24717430164393
 30
0.0
 11
5.245725140726316
 21
7.84717430164391
 31
0.0
  0
LINE
  5
8A
330
7F
100
AcDbEntity
  8
중심선
100
AcDbLine
 10
10.72767329541681
 20
16.24717430164393
 30
0.0
 11
6.196535287059397
 21
10.84717430164391
 31
0.0
  0
LINE
  5
8B
330
7F
100
AcDbEntity
  8
중심선
100
AcDbLine
 10
7.28139805157953
 20
16.24717430164393
 30
0.0
 11
2.750260043222114
 21
10.84717430164391
 31
0.0
  0
LINE
  5
8C
330
7F
100
AcDbEntity
  8
중심선
100
AcDbLine
 10
5.714909304380834
 20
16.24717430164393
 30
0.0
 11
3.58671253028996
 21
13.71088815037384
 31
0.0
  0
LINE
  5
8D
330
7F
100
AcDbEntity
  8
중심선
100
AcDbLine
 10
2.268634060543552
 20
16.24717430164393
 30
0.0
 11
0.1404042013395286
 21
13.71084872107135
 31
0.0
  0
LINE
  5
8E
330
7F
100
AcDbEntity
  8
중심선
100
AcDbLine
 10
7.28139805157953
 20
16.24717430164393
 30
0.0
 11
10.72767329541681
 21
16.24717430164393
 31
0.0
  0
LINE
  5
8F
330
7F
100
AcDbEntity
  8
중심선
100
AcDbLine
 10
12.29416204261559
 20
16.24717430164393
 30
0.0
 11
15.74043728645272
 21
16.24717430164393
 31
0.0
  0
LINE
  5
90
330
7F
100
AcDbEntity
  8
중심선
100
AcDbLine
 10
19.22036997980202
 20
11.08717430171403
 30
0.0
 11
23.66174974927406
 21
11.08717430171406
 31
0.0
  0
LINE
  5
91
330
7F
100
AcDbEntity
  8
중심선
100
AcDbLine
 10
19.22039502424796
 20
13.00717430171391
 30
0.0
 11
19.22036997980202
 21
11.08717430171403
 31
0.0
  0
LINE
  5
92
330
7F
100
AcDbEntity
  8
중심선
100
AcDbLine
 10
19.22039502424796
 20
13.00717430171391
 30
0.0
 11
26.96566020931264
 21
13.00717430171391
 31
0.0
  0
LINE
  5
93
330
7F
100
AcDbEntity
  8
중심선
100
AcDbLine
 10
22.22332737316547
 20
13.45928029700563
 30
0.0
 11
24.52862924686651
 21
15.39360700705356
 31
0.0
  0
ATTDEF
  5
95
330
7F
100
AcDbEntity
  8
FORMAT
 62
     2
100
AcDbText
 10
4.408487351596664
 20
2.075366912832191
 30
0.0
 40
4.233333333333333
  1
E1001009
 41
0.75
  7
SLDTEXTSTYLE0
 11
4.408487351596664
 21
-0.0412997538344756
 31
0.0
100
AcDbAttributeDefinition
  3

  2
AUTOATTR0
 70
     0
 74
     1
  0
ENDBLK
  5
81
330
7F
100
AcDbEntity
  8
0
100
AcDbBlockEnd
  0
BLOCK
  5
D9
330
D8
100
AcDbEntity
  8
0
100
AcDbBlockBegin
  2
_D
 70
     0
 10
0.0
 20
0.0
 30
0.0
  3
_D
  1
_D
  0
LINE
  5
DB
330
D8
100
AcDbEntity
  8
치수문자_일반주서
 62
     0
370
    -2
100
AcDbLine
 10
-16.68451350361916
 20
2.381249999999997
 30
0.0
 11
-35.4
 21
2.381249999999927
 31
0.0
  0
LINE
  5
DC
330
D8
100
AcDbEntity
  8
치수문자_일반주서
 62
     0
370
    -2
100
AcDbLine
 10
-16.68451350361916
 20
-2.381250000000001
 30
0.0
 11
-35.39999999999998
 21
-2.381250000000072
 31
0.0
  0
LINE
  5
DD
330
D8
100
AcDbEntity
  8
치수문자_일반주서
 62
     0
370
    -2
100
AcDbLine
 10
-35.4
 20
2.381249999999927
 30
0.0
 11
-35.40000000000011
 21
36.98524999999997
 31
0.0
  0
LINE
  5
DE
330
D8
100
AcDbEntity
  8
치수문자_일반주서
 62
     0
370
    -2
100
AcDbLine
 10
-35.4
 20
2.381249999999927
 30
0.0
 11
-35.39999999999998
 21
-2.381250000000072
 31
0.0
  0
LINE
  5
DF
330
D8
100
AcDbEntity
  8
치수문자_일반주서
 62
     0
370
    -2
100
AcDbLine
 10
-35.40000000000001
 20
5.683249999999926
 30
0.0
 11
-35.40000000000001
 21
8.985249999999926
 31
0.0
  0
LINE
  5
E0
330
D8
100
AcDbEntity
  8
치수문자_일반주서
 62
     0
370
    -2
100
AcDbLine
 10
-35.39999999999998
 20
-5.683250000000072
 30
0.0
 11
-35.39999999999997
 21
-8.985250000000072
 31
0.0
  0
SOLID
  5
E1
330
D8
100
AcDbEntity
  8
치수문자_일반주서
 62
     0
100
AcDbTrace
 10
-35.95033333333334
 20
5.683249999999925
 30
0.0
 11
-34.84966666666667
 21
5.683249999999928
 31
0.0
 12
-35.4
 22
2.381249999999927
 32
0.0
 13
-35.4
 23
2.381249999999927
 33
0.0
  0
SOLID
  5
E2
330
D8
100
AcDbEntity
  8
치수문자_일반주서
 62
     0
100
AcDbTrace
 10
-34.84966666666664
 20
-5.68325000000007
 30
0.0
 11
-35.95033333333331
 21
-5.683250000000074
 31
0.0
 12
-35.39999999999998
 22
-2.381250000000072
 32
0.0
 13
-35.39999999999998
 23
-2.381250000000072
 33
0.0
  0
MTEXT
  5
E3
330
D8
100
AcDbEntity
  8
치수문자_일반주서
 62
     0
100
AcDbMText
 10
-39.77500000000006
 20
22.98524999999995
 30
0.0
 40
3.5
 41
0.0
 71
     2
 72
     1
  1
\A1;%%c4.76 [3/16]
  7
SLDTEXTSTYLE0
 11
-2.983906501879687E-15
 21
1.0
 31
0.0
 73
     1
 44
1.0
  0
POINT
  5
1B8
330
D8
100
AcDbEntity
  8
Defpoints
 62
     0
100
AcDbPoint
 10
-16.62201350361916
 20
2.381249999999997
 30
0.0
  0
POINT
  5
1B9
330
D8
100
AcDbEntity
  8
Defpoints
 62
     0
100
AcDbPoint
 10
-16.62201350361916
 20
-2.381250000000001
 30
0.0
  0
POINT
  5
1BA
330
D8
100
AcDbEntity
  8
Defpoints
 62
     0
100
AcDbPoint
 10
-35.39999999999998
 20
-2.381250000000071
 30
0.0
  0
ENDBLK
  5
DA
330
D8
100
AcDbEntity
  8
0
100
AcDbBlockEnd
  0
BLOCK
  5
ED
330
EC
100
AcDbEntity
  8
0
100
AcDbBlockBegin
  2
_D_1
 70
     0
 10
0.0
 20
0.0
 30
0.0
  3
_D_1
  1
_D_1
  0
LINE
  5
EF
330
EC
100
AcDbEntity
  8
치수문자_일반주서
 62
     0
370
    -2
100
AcDbLine
 10
25.4625
 20
-1.78442805282419
 30
0.0
 11
64.93995776880895
 21
-1.78442805282404
 31
0.0
  0
LINE
  5
F0
330
EC
100
AcDbEntity
  8
치수문자_일반주서
 62
     0
370
    -2
100
AcDbLine
 10
25.4625
 20
1.784428052824194
 30
0.0
 11
64.93995776880894
 21
1.784428052824342
 31
0.0
  0
LINE
  5
F1
330
EC
100
AcDbEntity
  8
치수문자_일반주서
 62
     0
370
    -2
100
AcDbLine
 10
64.93995776880894
 20
1.784428052824342
 30
0.0
 11
64.9399577688088
 21
37.26342805282434
 31
0.0
  0
LINE
  5
F2
330
EC
100
AcDbEntity
  8
치수문자_일반주서
 62
     0
370
    -2
100
AcDbLine
 10
64.93995776880895
 20
-1.78442805282404
 30
0.0
 11
64.93995776880894
 21
1.784428052824342
 31
0.0
  0
LINE
  5
F3
330
EC
100
AcDbEntity
  8
치수문자_일반주서
 62
     0
370
    -2
100
AcDbLine
 10
64.93995776880897
 20
-5.08642805282404
 30
0.0
 11
64.93995776880898
 21
-8.38842805282404
 31
0.0
  0
LINE
  5
F4
330
EC
100
AcDbEntity
  8
치수문자_일반주서
 62
     0
370
    -2
100
AcDbLine
 10
64.93995776880892
 20
5.086428052824342
 30
0.0
 11
64.93995776880891
 21
8.388428052824342
 31
0.0
  0
SOLID
  5
F5
330
EC
100
AcDbEntity
  8
치수문자_일반주서
 62
     0
100
AcDbTrace
 10
65.4902911021423
 20
-5.086428052824038
 30
0.0
 11
64.38962443547564
 21
-5.086428052824042
 31
0.0
 12
64.93995776880895
 22
-1.78442805282404
 32
0.0
 13
64.93995776880895
 23
-1.78442805282404
 33
0.0
  0
SOLID
  5
F6
330
EC
100
AcDbEntity
  8
치수문자_일반주서
 62
     0
100
AcDbTrace
 10
64.3896244354756
 20
5.08642805282434
 30
0.0
 11
65.49029110214225
 21
5.086428052824344
 31
0.0
 12
64.93995776880894
 22
1.784428052824342
 32
0.0
 13
64.93995776880894
 23
1.784428052824342
 33
0.0
  0
MTEXT
  5
F7
330
EC
100
AcDbEntity
  8
치수문자_일반주서
 62
     0
100
AcDbMText
 10
60.56495776880885
 20
22.82592805282432
 30
0.0
 40
3.5
 41
0.0
 71
     2
 72
     1
  1
\A1;%%c3.57 [9/64]
  7
SLDTEXTSTYLE0
 11
-3.981907450039989E-15
 21
1.0
 31
0.0
 73
     1
 44
1.0
  0
POINT
  5
F8
330
EC
100
AcDbEntity
  8
Defpoints
 62
     0
100
AcDbPoint
 10
25.4
 20
-1.784428052824191
 30
0.0
  0
POINT
  5
F9
330
EC
100
AcDbEntity
  8
Defpoints
 62
     0
100
AcDbPoint
 10
25.4
 20
1.784428052824193
 30
0.0
  0
POINT
  5
FA
330
EC
100
AcDbEntity
  8
Defpoints
 62
     0
100
AcDbPoint
 10
64.93995776880894
 20
1.784428052824341
 30
0.0
  0
ENDBLK
  5
EE
330
EC
100
AcDbEntity
  8
0
100
AcDbBlockEnd
  0
BLOCK
  5
101
330
100
100
AcDbEntity
  8
0
100
AcDbBlockBegin
  2
_D_2
 70
     0
 10
0.0
 20
0.0
 30
0.0
  3
_D_2
  1
_D_2
  0
LINE
  5
103
330
100
100
AcDbEntity
  8
치수문자_일반주서
 62
     0
370
    -2
100
AcDbLine
 10
25.4
 20
1.846928052824193
 30
0.0
 11
25.4
 21
12.38125
 31
0.0
  0
LINE
  5
104
330
100
100
AcDbEntity
  8
치수문자_일반주서
 62
     0
370
    -2
100
AcDbLine
 10
19.84375000000001
 20
1.466912639889957
 30
0.0
 11
19.84375000000001
 21
12.38125
 31
0.0
  0
LINE
  5
105
330
100
100
AcDbEntity
  8
치수문자_일반주서
 62
     0
370
    -2
100
AcDbLine
 10
25.4
 20
12.38125
 30
0.0
 11
58.25400000000001
 21
12.38125
 31
0.0
  0
LINE
  5
106
330
100
100
AcDbEntity
  8
치수문자_일반주서
 62
     0
370
    -2
100
AcDbLine
 10
25.4
 20
12.38125
 30
0.0
 11
19.84375000000001
 21
12.38125
 31
0.0
  0
LINE
  5
107
330
100
100
AcDbEntity
  8
치수문자_일반주서
 62
     0
370
    -2
100
AcDbLine
 10
28.702
 20
12.38125
 30
0.0
 11
32.004
 21
12.38125
 31
0.0
  0
LINE
  5
108
330
100
100
AcDbEntity
  8
치수문자_일반주서
 62
     0
370
    -2
100
AcDbLine
 10
16.54175000000001
 20
12.38125
 30
0.0
 11
13.23975000000001
 21
12.38125
 31
0.0
  0
SOLID
  5
109
330
100
100
AcDbEntity
  8
치수문자_일반주서
 62
     0
100
AcDbTrace
 10
28.702
 20
12.93158333333333
 30
0.0
 11
28.702
 21
11.83091666666666
 31
0.0
 12
25.4
 22
12.38125
 32
0.0
 13
25.4
 23
12.38125
 33
0.0
  0
SOLID
  5
10A
330
100
100
AcDbEntity
  8
치수문자_일반주서
 62
     0
100
AcDbTrace
 10
16.54175000000001
 20
11.83091666666666
 30
0.0
 11
16.54175000000001
 21
12.93158333333333
 31
0.0
 12
19.84375000000001
 22
12.38125
 32
0.0
 13
19.84375000000001
 23
12.38125
 33
0.0
  0
MTEXT
  5
10B
330
100
100
AcDbEntity
  8
치수문자_일반주서
 62
     0
100
AcDbMText
 10
45.12900000000001
 20
16.75624999999999
 30
0.0
 40
3.5
 41
0.0
 71
     2
 72
     1
  1
\A1;5.56 [7/32]
  7
SLDTEXTSTYLE0
 73
     1
 44
1.0
  0
POINT
  5
10C
330
100
100
AcDbEntity
  8
Defpoints
 62
     0
100
AcDbPoint
 10
25.4
 20
1.784428052824193
 30
0.0
  0
POINT
  5
10D
330
100
100
AcDbEntity
  8
Defpoints
 62
     0
100
AcDbPoint
 10
19.84375000000001
 20
1.404412639889957
 30
0.0
  0
POINT
  5
10E
330
100
100
AcDbEntity
  8
Defpoints
 62
     0
100
AcDbPoint
 10
19.84375000000001
 20
12.38125
 30
0.0
  0
ENDBLK
  5
102
330
100
100
AcDbEntity
  8
0
100
AcDbBlockEnd
  0
BLOCK
  5
117
330
116
100
AcDbEntity
  8
0
100
AcDbBlockBegin
  2
_D_3
 70
     0
 10
0.0
 20
0.0
 30
0.0
  3
_D_3
  1
_D_3
  0
LINE
  5
119
330
116
100
AcDbEntity
  8
치수문자_일반주서
 62
     0
370
    -2
100
AcDbLine
 10
-25.4
 20
1.846928052824218
 30
0.0
 11
-25.4
 21
22.38125
 31
0.0
  0
LINE
  5
11A
330
116
100
AcDbEntity
  8
치수문자_일반주서
 62
     0
370
    -2
100
AcDbLine
 10
25.4
 20
1.846928052824193
 30
0.0
 11
25.4
 21
22.38125
 31
0.0
  0
LINE
  5
11B
330
116
100
AcDbEntity
  8
치수문자_일반주서
 62
     0
370
    -2
100
AcDbLine
 10
-22.098
 20
22.38125
 30
0.0
 11
22.098
 21
22.38125
 31
0.0
  0
SOLID
  5
11C
330
116
100
AcDbEntity
  8
치수문자_일반주서
 62
     0
100
AcDbTrace
 10
-22.098
 20
22.93158333333333
 30
0.0
 11
-22.098
 21
21.83091666666666
 31
0.0
 12
-25.4
 22
22.38125
 32
0.0
 13
-25.4
 23
22.38125
 33
0.0
  0
SOLID
  5
11D
330
116
100
AcDbEntity
  8
치수문자_일반주서
 62
     0
100
AcDbTrace
 10
22.098
 20
21.83091666666666
 30
0.0
 11
22.098
 21
22.93158333333333
 31
0.0
 12
25.4
 22
22.38125
 32
0.0
 13
25.4
 23
22.38125
 33
0.0
  0
MTEXT
  5
11E
330
116
100
AcDbEntity
  8
치수문자_일반주서
 62
     0
100
AcDbMText
 10
0.0000000000000213
 20
26.75625
 30
0.0
 40
3.5
 41
0.0
 71
     2
 72
     1
  1
\A1;50.8 [2]
  7
SLDTEXTSTYLE0
 73
     1
 44
1.0
  0
POINT
  5
11F
330
116
100
AcDbEntity
  8
Defpoints
 62
     0
100
AcDbPoint
 10
-25.4
 20
1.784428052824218
 30
0.0
  0
POINT
  5
120
330
116
100
AcDbEntity
  8
Defpoints
 62
     0
100
AcDbPoint
 10
25.4
 20
1.784428052824193
 30
0.0
  0
POINT
  5
121
330
116
100
AcDbEntity
  8
Defpoints
 62
     0
100
AcDbPoint
 10
25.4
 20
22.38125
 30
0.0
  0
ENDBLK
  5
118
330
116
100
AcDbEntity
  8
0
100
AcDbBlockEnd
  0
BLOCK
  5
130
330
12F
100
AcDbEntity
  8
0
100
AcDbBlockBegin
  2
SW_DOWELSYMBOL_0
 70
     0
 10
0.0
 20
0.0
 30
0.0
  3
SW_DOWELSYMBOL_0
  1
SW_DOWELSYMBOL_0
  0
CIRCLE
  5
132
330
12F
100
AcDbEntity
  8
해칭선
 62
     0
100
AcDbCircle
 10
0.0
 20
0.0
 30
0.0
 40
3.000000000000001
  0
HATCH
  5
133
330
12F
100
AcDbEntity
  8
0
  6
Continuous
 62
     0
370
     0
100
AcDbHatch
 10
0.0
 20
0.0
 30
0.0
210
0.0
220
0.0
230
1.0
  2
SOLID
 70
     1
 71
     0
 91
        1
 92
        0
 93
        3
 72
     2
 10
0.0
 20
0.0
 40
3.000000000000001
 50
0.0
 51
90.0
 73
     1
 72
     1
 10
0.0
 20
3.000000000000001
 11
0.0
 21
0.0
 72
     1
 10
0.0
 20
0.0
 11
3.000000000000001
 21
0.0
 97
        0
 75
     0
 76
     1
 98
        1
 10
0.0
 20
0.0
  0
HATCH
  5
134
330
12F
100
AcDbEntity
  8
0
  6
Continuous
 62
     0
370
     0
100
AcDbHatch
 10
0.0
 20
0.0
 30
0.0
210
0.0
220
0.0
230
1.0
  2
SOLID
 70
     1
 71
     0
 91
        1
 92
        0
 93
        3
 72
     2
 10
0.0
 20
0.0
 40
3.000000000000001
 50
180.0
 51
270.0000000000007
 73
     1
 72
     1
 10
0.0
 20
-3.000000000000001
 11
0.0
 21
0.0
 72
     1
 10
0.0
 20
0.0
 11
-3.000000000000001
 21
0.0
 97
        0
 75
     0
 76
     1
 98
        1
 10
0.0
 20
0.0
  0
ENDBLK
  5
131
330
12F
100
AcDbEntity
  8
0
100
AcDbBlockEnd
  0
BLOCK
  5
195
330
194
100
AcDbEntity
  8
0
100
AcDbBlockBegin
  2
*D7
 70
     1
 10
0.0
 20
0.0
 30
0.0
  3
*D7
  1
*D7
  0
LINE
  5
197
330
194
100
AcDbEntity
  8
치수문자_일반주서
 62
     0
370
    -2
100
AcDbLine
 10
11.3665
 20
1.204062975115862
 30
0.0
 11
11.3665
 21
11.9366547059388
 31
0.0
  0
LINE
  5
198
330
194
100
AcDbEntity
  8
치수문자_일반주서
 62
     0
370
    -2
100
AcDbLine
 10
6.603999999999999
 20
0.8732315656415455
 30
0.0
 11
6.603999999999999
 21
11.9366547059388
 31
0.0
  0
LINE
  5
199
330
194
100
AcDbEntity
  8
치수문자_일반주서
 62
     0
370
    -2
100
AcDbLine
 10
11.3665
 20
11.9366547059388
 30
0.0
 11
43.3455
 21
11.9366547059388
 31
0.0
  0
LINE
  5
19A
330
194
100
AcDbEntity
  8
치수문자_일반주서
 62
     0
370
    -2
100
AcDbLine
 10
11.3665
 20
11.9366547059388
 30
0.0
 11
6.603999999999999
 21
11.9366547059388
 31
0.0
  0
LINE
  5
19B
330
194
100
AcDbEntity
  8
치수문자_일반주서
 62
     0
370
    -2
100
AcDbLine
 10
14.6685
 20
11.9366547059388
 30
0.0
 11
17.9705
 21
11.9366547059388
 31
0.0
  0
LINE
  5
19C
330
194
100
AcDbEntity
  8
치수문자_일반주서
 62
     0
370
    -2
100
AcDbLine
 10
3.302
 20
11.9366547059388
 30
0.0
 11
0.0
 21
11.9366547059388
 31
0.0
  0
SOLID
  5
19D
330
194
100
AcDbEntity
  8
치수문자_일반주서
 62
     0
100
AcDbTrace
 10
14.6685
 20
12.48698803927213
 30
0.0
 11
14.6685
 21
11.38632137260547
 31
0.0
 12
11.3665
 22
11.9366547059388
 32
0.0
 13
11.3665
 23
11.9366547059388
 33
0.0
  0
SOLID
  5
19E
330
194
100
AcDbEntity
  8
치수문자_일반주서
 62
     0
100
AcDbTrace
 10
3.302
 20
11.38632137260547
 30
0.0
 11
3.302
 21
12.48698803927213
 31
0.0
 12
6.603999999999999
 22
11.9366547059388
 32
0.0
 13
6.603999999999999
 23
11.9366547059388
 33
0.0
  0
MTEXT
  5
19F
330
194
100
AcDbEntity
  8
치수문자_일반주서
 62
     0
100
AcDbMText
 10
30.658
 20
16.3116547059388
 30
0.0
 40
3.5
 41
0.0
 71
     2
 72
     1
  1
\A1;4.76 [3/16]
  7
SLDTEXTSTYLE0
 73
     1
 44
1.0
  0
POINT
  5
1A0
330
194
100
AcDbEntity
  8
Defpoints
 62
     0
100
AcDbPoint
 10
11.3665
 20
1.141562975115862
 30
0.0
  0
POINT
  5
1A1
330
194
100
AcDbEntity
  8
Defpoints
 62
     0
100
AcDbPoint
 10
6.603999999999999
 20
0.8107315656415455
 30
0.0
  0
POINT
  5
1A2
330
194
100
AcDbEntity
  8
Defpoints
 62
     0
100
AcDbPoint
 10
6.603999999999999
 20
11.9366547059388
 30
0.0
  0
ENDBLK
  5
196
330
194
100
AcDbEntity
  8
0
100
AcDbBlockEnd
  0
BLOCK
  5
1A7
330
1A6
100
AcDbEntity
  8
0
100
AcDbBlockBegin
  2
*D8
 70
     1
 10
0.0
 20
0.0
 30
0.0
  3
*D8
  1
*D8
  0
LINE
  5
1A9
330
1A6
100
AcDbEntity
  8
치수문자_일반주서
 62
     0
370
    -2
100
AcDbLine
 10
62.61716633558206
 20
-19.53360180531559
 30
0.0
 11
62.61716633558206
 21
-8.801010074492652
 31
0.0
  0
LINE
  5
1AA
330
1A6
100
AcDbEntity
  8
치수문자_일반주서
 62
     0
370
    -2
100
AcDbLine
 10
57.85466633558205
 20
-19.8644332147899
 30
0.0
 11
57.85466633558205
 21
-8.801010074492652
 31
0.0
  0
LINE
  5
1AB
330
1A6
100
AcDbEntity
  8
치수문자_일반주서
 62
     0
370
    -2
100
AcDbLine
 10
62.61716633558206
 20
-8.801010074492652
 30
0.0
 11
94.59616633558205
 21
-8.801010074492652
 31
0.0
  0
LINE
  5
1AC
330
1A6
100
AcDbEntity
  8
치수문자_일반주서
 62
     0
370
    -2
100
AcDbLine
 10
62.61716633558206
 20
-8.801010074492652
 30
0.0
 11
57.85466633558205
 21
-8.801010074492652
 31
0.0
  0
LINE
  5
1AD
330
1A6
100
AcDbEntity
  8
치수문자_일반주서
 62
     0
370
    -2
100
AcDbLine
 10
65.91916633558205
 20
-8.801010074492652
 30
0.0
 11
69.22116633558204
 21
-8.801010074492652
 31
0.0
  0
LINE
  5
1AE
330
1A6
100
AcDbEntity
  8
치수문자_일반주서
 62
     0
370
    -2
100
AcDbLine
 10
54.55266633558205
 20
-8.801010074492652
 30
0.0
 11
51.25066633558205
 21
-8.801010074492652
 31
0.0
  0
SOLID
  5
1AF
330
1A6
100
AcDbEntity
  8
치수문자_일반주서
 62
     0
100
AcDbTrace
 10
65.91916633558205
 20
-8.25067674115932
 30
0.0
 11
65.91916633558205
 21
-9.351343407825984
 31
0.0
 12
62.61716633558206
 22
-8.801010074492652
 32
0.0
 13
62.61716633558206
 23
-8.801010074492652
 33
0.0
  0
SOLID
  5
1B0
330
1A6
100
AcDbEntity
  8
치수문자_일반주서
 62
     0
100
AcDbTrace
 10
54.55266633558205
 20
-9.351343407825984
 30
0.0
 11
54.55266633558205
 21
-8.25067674115932
 31
0.0
 12
57.85466633558205
 22
-8.801010074492652
 32
0.0
 13
57.85466633558205
 23
-8.801010074492652
 33
0.0
  0
MTEXT
  5
1B1
330
1A6
100
AcDbEntity
  8
치수문자_일반주서
 62
     0
100
AcDbMText
 10
81.90866633558205
 20
-4.426010074492652
 30
0.0
 40
3.5
 41
0.0
 71
     2
 72
     1
  1
\A1;4.76 [3/16]
  7
SLDTEXTSTYLE0
 73
     1
 44
1.0
  0
POINT
  5
1B2
330
1A6
100
AcDbEntity
  8
Defpoints
 62
     0
100
AcDbPoint
 10
62.61716633558206
 20
-19.59610180531559
 30
0.0
  0
POINT
  5
1B3
330
1A6
100
AcDbEntity
  8
Defpoints
 62
     0
100
AcDbPoint
 10
57.85466633558205
 20
-19.9269332147899
 30
0.0
  0
POINT
  5
1B4
330
1A6
100
AcDbEntity
  8
Defpoints
 62
     0
100
AcDbPoint
 10
57.85466633558205
 20
-8.801010074492652
 30
0.0
  0
ENDBLK
  5
1A8
330
1A6
100
AcDbEntity
  8
0
100
AcDbBlockEnd
  0
ENDSEC
  0
SECTION
  2
ENTITIES
  0
LINE
  5
96
330
1F
100
AcDbEntity
  8
외형선
  6
Continuous
370
    15
100
AcDbLine
 10
16.62201350361916
 20
2.38125
 30
0.0
 11
-16.62201350361916
 21
2.381249999999997
 31
0.0
  0
LINE
  5
97
330
1F
100
AcDbEntity
  8
외형선
  6
Continuous
370
    15
100
AcDbLine
 10
-16.62201350361916
 20
-2.381250000000001
 30
0.0
 11
16.62201350361916
 21
-2.381249999999998
 31
0.0
  0
LINE
  5
98
330
1F
100
AcDbEntity
  8
외형선
  6
Continuous
370
    15
100
AcDbLine
 10
16.62201350361916
 20
-2.38125
 30
0.0
 11
18.84375000000001
 21
-1.7859375
 31
0.0
  0
LINE
  5
99
330
1F
100
AcDbEntity
  8
외형선
  6
Continuous
370
    15
100
AcDbLine
 10
18.84375000000001
 20
1.785937500000001
 30
0.0
 11
16.62201350361916
 21
2.381250000000001
 31
0.0
  0
LINE
  5
9C
330
1F
100
AcDbEntity
  8
외형선
  6
Continuous
370
    15
100
AcDbLine
 10
18.95368071021075
 20
1.785937500000001
 30
0.0
 11
18.84375000000001
 21
1.785937500000001
 31
0.0
  0
LINE
  5
9D
330
1F
100
AcDbEntity
  8
외형선
  6
Continuous
370
    15
100
AcDbLine
 10
18.84375000000001
 20
-1.7859375
 30
0.0
 11
18.95368071021075
 21
-1.7859375
 31
0.0
  0
SPLINE
  5
9E
330
1F
100
AcDbEntity
  8
외형선
  6
Continuous
370
    15
100
AcDbSpline
210
0.0
220
0.0
230
1.0
 70
     8
 71
     3
 72
     9
 73
     5
 74
     0
 42
0.000000001
 43
0.00000001
 40
0.0
 40
0.0
 40
0.0
 40
0.0
 40
0.4373050069383033
 40
0.9999999999999999
 40
0.9999999999999999
 40
0.9999999999999999
 40
0.9999999999999999
 10
19.84375000036113
 20
1.404410461856927
 30
0.0
 10
19.7140078684997
 20
1.400736639490842
 30
0.0
 10
19.41732219190571
 20
1.392335586889579
 30
0.0
 10
19.11714654624526
 20
1.395868345078395
 30
0.0
 10
18.94823921339307
 20
1.39785621042294
 30
0.0
  0
SPLINE
  5
9F
330
1F
100
AcDbEntity
  8
외형선
  6
Continuous
370
    15
100
AcDbSpline
210
0.0
220
0.0
230
1.0
 70
     8
 71
     3
 72
    10
 73
     6
 74
     0
 42
0.000000001
 43
0.00000001
 40
0.0
 40
0.0
 40
0.0
 40
0.0
 40
0.2844381020834613
 40
0.6161743763031656
 40
1.0
 40
1.0
 40
1.0
 40
1.0
 10
18.94823921339307
 20
-1.397857000678735
 30
0.0
 10
19.03120337485778
 20
-1.396584462759935
 30
0.0
 10
19.21092750489375
 20
-1.393827781244009
 30
0.0
 10
19.5131061222603
 20
-1.395525528508653
 30
0.0
 10
19.72831336838322
 20
-1.399999836037868
 30
0.0
 10
19.84375000036113
 20
-1.402399843476794
 30
0.0
  0
LINE
  5
A0
330
1F
100
AcDbEntity
  8
0
  6
Continuous
 62
     1
370
    15
100
AcDbLine
 10
20.77192823530694
 20
0.4578054685498111
 30
0.0
 11
20.2582963037773
 21
0.7160654628606282
 31
0.0
1001
PE_URL
1000

  0
LINE
  5
A1
330
1F
100
AcDbEntity
  8
0
  6
Continuous
 62
     1
370
    15
100
AcDbLine
 10
20.18644233223034
 20
1.41934847588601
 30
0.0
 11
19.84375000000002
 21
1.402399843469877
 31
0.0
1001
PE_URL
1000

  0
SPLINE
  5
A2
330
1F
100
AcDbEntity
  8
0
  6
Continuous
 62
     1
370
    15
100
AcDbSpline
210
0.0
220
0.0
230
1.0
 70
     8
 71
     3
 72
    13
 73
     9
 74
     0
 42
0.000000001
 43
0.00000001
 40
0.0
 40
0.0
 40
0.0
 40
0.0
 40
0.2203625815491821
 40
0.3396323671265951
 40
0.5104238247558794
 40
0.6816821582238686
 40
0.7937739279526644
 40
1.0
 40
1.0
 40
1.0
 40
1.0
 10
24.73575935605048
 20
1.221498984278049
 30
0.0
 10
24.50480089314857
 20
1.205052131840767
 30
0.0
 10
24.14883769417057
 20
1.179703529615352
 30
0.0
 10
23.62011592440833
 20
1.172820297902361
 30
0.0
 10
23.14448003337664
 20
1.182843684713116
 30
0.0
 10
22.67154904455525
 20
1.213700095204494
 30
0.0
 10
22.16448841170468
 20
1.263632308604938
 30
0.0
 10
21.83153435316305
 20
1.311961469535073
 30
0.0
 10
21.61582603068219
 20
1.343272102229594
 30
0.0
1001
PE_URL
1000

  0
SPLINE
  5
A3
330
1F
100
AcDbEntity
  8
0
  6
Continuous
 62
     1
370
    15
100
AcDbSpline
210
0.0
220
0.0
230
1.0
 70
     8
 71
     3
 72
    11
 73
     7
 74
     0
 42
0.000000001
 43
0.00000001
 40
0.0
 40
0.0
 40
0.0
 40
0.0
 40
0.3729760100456783
 40
0.6746016270991122
 40
0.9069619237386957
 40
1.0
 40
1.0
 40
1.0
 40
1.0
 10
21.61582603068219
 20
-1.343272102229592
 30
0.0
 10
21.77681806772465
 20
-1.31912374040544
 30
0.0
 10
22.06800432961198
 20
-1.275446603700707
 30
0.0
 10
22.47615265639612
 20
-1.231969969694218
 30
0.0
 10
22.76074703334666
 20
-1.208048892752824
 30
0.0
 10
22.90560065034898
 20
-1.19974073149514
 30
0.0
 10
22.94701727374891
 20
-1.197365257598966
 30
0.0
1001
PE_URL
1000

  0
LINE
  5
A4
330
1F
100
AcDbEntity
  8
0
  6
Continuous
 62
     1
370
    15
100
AcDbLine
 10
19.84375000000002
 20
-1.402399843469876
 30
0.0
 11
20.18644233223034
 21
-1.419348475886009
 31
0.0
1001
PE_URL
1000

  0
LINE
  5
A5
330
1F
100
AcDbEntity
  8
외형선
  6
Continuous
370
    15
100
AcDbLine
 10
16.62201350361916
 20
2.381250000000001
 30
0.0
 11
16.62201350361916
 21
-2.381249999999998
 31
0.0
  0
LINE
  5
A7
330
1F
100
AcDbEntity
  8
외형선
  6
Continuous
370
    15
100
AcDbLine
 10
18.84375000000001
 20
1.785937500000001
 30
0.0
 11
18.84375000000001
 21
-1.7859375
 31
0.0
  0
SPLINE
  5
A9
330
1F
100
AcDbEntity
  8
외형선
  6
Continuous
370
    15
100
AcDbSpline
210
0.0
220
0.0
230
1.0
 70
     8
 71
     3
 72
    10
 73
     6
 74
     0
 42
0.000000001
 43
0.00000001
 40
0.0
 40
0.0
 40
0.0
 40
0.0
 40
0.5
 40
0.5
 40
1.0
 40
1.0
 40
1.0
 40
1.0
 10
19.84375000000397
 20
0.9275592918315232
 30
0.0
 10
19.69493997477331
 20
1.000846739932836
 30
0.0
 10
19.54886306598668
 20
1.070494232586942
 30
0.0
 10
19.25254655369373
 20
1.202608257823327
 30
0.0
 10
19.10274150642928
 20
1.264968708869485
 30
0.0
 10
18.95360802379551
 20
1.322638853773644
 30
0.0
  0
LINE
  5
AA
330
1F
100
AcDbEntity
  8
외형선
  6
Continuous
370
    15
100
AcDbLine
 10
19.84375
 20
0.9275592918334752
 30
0.0
 11
19.84375000000001
 21
0.4699826615540801
 31
0.0
  0
SPLINE
  5
AB
330
1F
100
AcDbEntity
  8
외형선
  6
Continuous
370
    15
100
AcDbSpline
210
0.0
220
0.0
230
1.0
 70
     8
 71
     3
 72
    10
 73
     6
 74
     0
 42
0.000000001
 43
0.00000001
 40
0.0
 40
0.0
 40
0.0
 40
0.0
 40
0.5
 40
0.5
 40
1.0
 40
1.0
 40
1.0
 40
1.0
 10
18.95368071021075
 20
0.9397203255211565
 30
0.0
 10
19.10280229730076
 20
0.8667441205480227
 30
0.0
 10
19.25259496088246
 20
0.7903888995604543
 30
0.0
 10
19.54888686977152
 20
0.6333228527246443
 30
0.0
 10
19.69495206288652
 20
0.5527145003471804
 30
0.0
 10
19.84374999999747
 20
0.4699826615498784
 30
0.0
  0
LINE
  5
AC
330
1F
100
AcDbEntity
  8
외형선
  6
Continuous
370
    15
100
AcDbLine
 10
18.95368071021075
 20
1.322690284740481
 30
0.0
 11
18.95368071021075
 21
1.785937500000001
 31
0.0
  0
LINE
  5
AD
330
1F
100
AcDbEntity
  8
외형선
  6
Continuous
370
    15
100
AcDbLine
 10
18.95368071021075
 20
-1.7859375
 30
0.0
 11
18.95368071021075
 21
0.9402391243425412
 31
0.0
  0
SPLINE
  5
AE
330
1F
100
AcDbEntity
  8
외형선
  6
Continuous
370
    15
100
AcDbSpline
210
0.0
220
0.0
230
1.0
 70
    24
 71
     3
 72
     9
 73
     5
 74
     0
 42
0.000000001
 43
0.00000001
 40
0.0
 40
0.0
 40
0.0
 40
0.0
 40
0.4620692246083618
 40
1.0
 40
1.0
 40
1.0
 40
1.0
 10
19.84375
 20
0.4699826615484655
 30
0.0
 10
19.84375
 20
0.4702858093518026
 30
0.0
 10
19.84375
 20
0.4709418751254841
 30
0.0
 10
19.84375
 20
0.4675766020838858
 30
0.0
 10
19.84375
 20
0.4657663181472141
 30
0.0
  0
SPLINE
  5
AF
330
1F
100
AcDbEntity
  8
외형선
  6
Continuous
370
    15
100
AcDbSpline
210
0.0
220
0.0
230
1.0
 70
    24
 71
     3
 72
    11
 73
     7
 74
     0
 42
0.000000001
 43
0.00000001
 40
0.0
 40
0.0
 40
0.0
 40
0.0
 40
0.076545913012498
 40
0.4824860522540723
 40
0.739703286011394
 40
1.0
 40
1.0
 40
1.0
 40
1.0
 10
19.84375
 20
0.4307784502333972
 30
0.0
 10
19.84375
 20
0.4287715474915454
 30
0.0
 10
19.84375
 20
0.4161215895373455
 30
0.0
 10
19.84375000000001
 20
0.3805787584822442
 30
0.0
 10
19.84375
 20
0.3305621788973091
 30
0.0
 10
19.84375000000001
 20
0.2963438647491106
 30
0.0
 10
19.84375000000001
 20
0.2791328991900165
 30
0.0
  0
SPLINE
  5
B0
330
1F
100
AcDbEntity
  8
외형선
  6
Continuous
370
    15
100
AcDbSpline
210
0.0
220
0.0
230
1.0
 70
     8
 71
     3
 72
    10
 73
     6
 74
     0
 42
0.000000001
 43
0.00000001
 40
0.0
 40
0.0
 40
0.0
 40
0.0
 40
0.5
 40
0.5
 40
1.0
 40
1.0
 40
1.0
 40
1.0
 10
19.84375000097115
 20
0.2791328988081291
 30
0.0
 10
19.69494915306546
 20
0.3376467196585107
 30
0.0
 10
19.54888113884316
 20
0.3948418445772121
 30
0.0
 10
19.25258330553071
 20
0.5066613840177105
 30
0.0
 10
19.10278765998788
 20
0.561214893132404
 30
0.0
 10
18.95366320846233
 20
0.6135551861304962
 30
0.0
  0
SPLINE
  5
B1
330
1F
100
AcDbEntity
  8
외형선
  6
Continuous
370
    15
100
AcDbSpline
210
0.0
220
0.0
230
1.0
 70
     8
 71
     3
 72
    10
 73
     6
 74
     0
 42
0.000000001
 43
0.00000001
 40
0.0
 40
0.0
 40
0.0
 40
0.0
 40
0.5000000000000001
 40
0.5000000000000001
 40
1.0
 40
1.0
 40
1.0
 40
1.0
 10
19.84375000036126
 20
-1.392680797198018
 30
0.0
 10
19.69494765120301
 20
-1.377362652347706
 30
0.0
 10
19.54887818198589
 20
-1.357348061302243
 30
0.0
 10
19.25257729310331
 20
-1.307947798914223
 30
0.0
 10
19.10278010959614
 20
-1.278537039367929
 30
0.0
 10
18.95365418072953
 20
-1.244842051002774
 30
0.0
  0
SPLINE
  5
B2
330
1F
100
AcDbEntity
  8
외형선
  6
Continuous
370
    15
100
AcDbSpline
210
0.0
220
0.0
230
1.0
 70
    24
 71
     3
 72
    14
 73
    10
 74
     0
 42
0.000000001
 43
0.00000001
 40
0.0
 40
0.0
 40
0.0
 40
0.0
 40
0.2500000000000001
 40
0.2500000000000001
 40
0.5
 40
0.5
 40
0.75
 40
0.75
 40
1.0
 40
1.0
 40
1.0
 40
1.0
 10
19.84375
 20
0.2791328991900189
 30
0.0
 10
19.84375
 20
0.1209353862904673
 30
0.0
 10
19.84375
 20
-0.0425484775051345
 30
0.0
 10
19.84375
 20
-0.3651434640411608
 30
0.0
 10
19.84375
 20
-0.5240892578351292
 30
0.0
 10
19.84375
 20
-0.8212187519213975
 30
0.0
 10
19.84375
 20
-0.9592441291967926
 30
0.0
 10
19.84375
 20
-1.202125569275293
 30
0.0
 10
19.84375
 20
-1.306928265109084
 30
0.0
 10
19.84375
 20
-1.392680797160829
 30
0.0
  0
SPLINE
  5
B3
330
1F
100
AcDbEntity
  8
외형선
  6
Continuous
370
    15
100
AcDbSpline
210
0.0
220
0.0
230
1.0
 70
    24
 71
     3
 72
    13
 73
     9
 74
     0
 42
0.000000001
 43
0.00000001
 40
0.0
 40
0.0
 40
0.0
 40
0.0
 40
0.0082875739720508
 40
0.1706549603525877
 40
0.4047609132820631
 40
0.645655954705957
 40
0.8558705567028964
 40
1.0
 40
1.0
 40
1.0
 40
1.0
 10
19.84375000000001
 20
1.403787861701858
 30
0.0
 10
19.84375000000001
 20
1.40399931083697
 30
0.0
 10
19.84375000000001
 20
1.408353400935089
 30
0.0
 10
19.84375
 20
1.389923508664166
 30
0.0
 10
19.84375000000001
 20
1.333846565936981
 30
0.0
 10
19.84375
 20
1.215451776860626
 30
0.0
 10
19.84375000000001
 20
1.07857744442757
 30
0.0
 10
19.84375000000001
 20
0.971224928541079
 30
0.0
 10
19.84375000000001
 20
0.9275592918336133
 30
0.0
  0
SPLINE
  5
B4
330
1F
100
AcDbEntity
  8
0
  6
Continuous
 62
     1
370
    15
100
AcDbSpline
210
0.0
220
0.0
230
1.0
 70
     8
 71
     3
 72
    26
 73
    22
 74
     0
 42
0.000000001
 43
0.00000001
 40
0.0
 40
0.0
 40
0.0
 40
0.0
 40
0.1249999999999999
 40
0.1249999999999999
 40
0.2499999999999999
 40
0.2499999999999999
 40
0.3749999999999998
 40
0.3749999999999998
 40
0.4374999999999998
 40
0.4374999999999998
 40
0.4999999999999999
 40
0.4999999999999999
 40
0.625
 40
0.625
 40
0.6874999999999998
 40
0.6874999999999998
 40
0.7499999999999998
 40
0.7499999999999998
 40
0.8749999999999999
 40
0.8749999999999999
 40
1.0
 40
1.0
 40
1.0
 40
1.0
 10
19.84374999999677
 20
0.4699826615503778
 30
0.0
 10
20.07584099196994
 20
0.3409397802645819
 30
0.0
 10
20.3105805120052
 20
0.2074216494446638
 30
0.0
 10
20.76787630246995
 20
-0.0585356535837608
 30
0.0
 10
21.00253462378113
 20
-0.193294316115833
 30
0.0
 10
21.46677128452579
 20
-0.4563575771986338
 30
0.0
 10
21.6947675662183
 20
-0.5843915777576776
 30
0.0
 10
22.04398025588412
 20
-0.7688102546775591
 30
0.0
 10
22.1606082119668
 20
-0.8288262642043075
 30
0.0
 10
22.39211152643234
 20
-0.9448299436946713
 30
0.0
 10
22.50601212344458
 20
-1.000670155539183
 30
0.0
 10
22.85204814006865
 20
-1.162270119259251
 30
0.0
 10
23.08714160583146
 20
-1.26172746148144
 30
0.0
 10
23.43321153710542
 20
-1.392924545846337
 30
0.0
 10
23.5471037515228
 20
-1.433660834084643
 30
0.0
 10
23.77858893270839
 20
-1.509389986101426
 30
0.0
 10
23.89521344961751
 20
-1.544250811120293
 30
0.0
 10
24.24443302650262
 20
-1.638779677301475
 30
0.0
 10
24.47244375034669
 20
-1.688136112597722
 30
0.0
 10
24.93665318948621
 20
-1.758386096285195
 30
0.0
 10
25.17138337440797
 20
-1.778957403642272
 30
0.0
 10
25.4
 20
-1.78442805281984
 30
0.0
1001
PE_URL
1000

  0
SPLINE
  5
B5
330
1F
100
AcDbEntity
  8
0
  6
Continuous
 62
     1
370
    15
100
AcDbSpline
210
0.0
220
0.0
230
1.0
 70
     8
 71
     3
 72
     9
 73
     5
 74
     0
 42
0.000000001
 43
0.00000001
 40
0.0
 40
0.0
 40
0.0
 40
0.0
 40
0.34998939524226
 40
1.0
 40
1.0
 40
1.0
 40
1.0
 10
20.95420109355518
 20
-0.1649572646238727
 30
0.0
 10
20.82463812472816
 20
-0.1133408592368506
 30
0.0
 10
20.45444699725889
 20
0.0341390532653372
 30
0.0
 10
20.08432998435792
 20
0.1826192174754386
 30
0.0
 10
19.84375000097103
 20
0.279132898808175
 30
0.0
1001
PE_URL
1000

  0
SPLINE
  5
B6
330
1F
100
AcDbEntity
  8
외형선
  6
Continuous
370
    15
100
AcDbSpline
210
0.0
220
0.0
230
1.0
 70
    24
 71
     3
 72
     9
 73
     5
 74
     0
 42
0.000000001
 43
0.00000001
 40
0.0
 40
0.0
 40
0.0
 40
0.0
 40
0.4419007318790464
 40
1.0
 40
1.0
 40
1.0
 40
1.0
 10
19.84375000000001
 20
0.469982661548465
 30
0.0
 10
19.84375000000001
 20
0.4702733174115606
 30
0.0
 10
19.84375000000001
 20
0.4709310575828876
 30
0.0
 10
19.84375000000001
 20
0.467383923731122
 30
0.0
 10
19.84375000000001
 20
0.4654042709245244
 30
0.0
  0
SPLINE
  5
B7
330
1F
100
AcDbEntity
  8
외형선
  6
Continuous
370
    15
100
AcDbSpline
210
0.0
220
0.0
230
1.0
 70
    24
 71
     3
 72
    11
 73
     7
 74
     0
 42
0.000000001
 43
0.00000001
 40
0.0
 40
0.0
 40
0.0
 40
0.0
 40
0.07665835321801
 40
0.4825490649966208
 40
0.739734979862151
 40
1.0
 40
1.0
 40
1.0
 40
1.0
 10
19.84375000000001
 20
0.4307884502333971
 30
0.0
 10
19.84375000000001
 20
0.4287784697000542
 30
0.0
 10
19.84375000000001
 20
0.4161260425827156
 30
0.0
 10
19.84375000000001
 20
0.3805791069674675
 30
0.0
 10
19.84375
 20
0.3305621076921654
 30
0.0
 10
19.84375000000001
 20
0.2963438409200917
 30
0.0
 10
19.84375000000001
 20
0.2791328991900165
 30
0.0
  0
SPLINE
  5
B8
330
1F
100
AcDbEntity
  8
0
  6
Continuous
 62
     1
370
    15
100
AcDbSpline
210
0.0
220
0.0
230
1.0
 70
     8
 71
     3
 72
    26
 73
    22
 74
     0
 42
0.000000001
 43
0.00000001
 40
0.0
 40
0.0
 40
0.0
 40
0.0
 40
0.1249999999999996
 40
0.1249999999999996
 40
0.2499999999999992
 40
0.2499999999999992
 40
0.3124999999999992
 40
0.3124999999999992
 40
0.3749999999999993
 40
0.3749999999999993
 40
0.4999999999999993
 40
0.4999999999999993
 40
0.5624999999999993
 40
0.5624999999999993
 40
0.6249999999999993
 40
0.6249999999999993
 40
0.7499999999999996
 40
0.7499999999999996
 40
0.8749999999999997
 40
0.8749999999999997
 40
1.0
 40
1.0
 40
1.0
 40
1.0
 10
25.4
 20
-1.694749083643846
 30
0.0
 10
25.17138337440827
 20
-1.652765852492714
 30
0.0
 10
24.93665318948683
 20
-1.59611666315702
 30
0.0
 10
24.4724437503479
 20
-1.457307991360057
 30
0.0
 10
24.24443302650413
 20
-1.375519806816165
 30
0.0
 10
23.89521344961949
 20
-1.235726209157585
 30
0.0
 10
23.77858893271052
 20
-1.186388340594806
 30
0.0
 10
23.5471037515252
 20
-1.083193323238156
 30
0.0
 10
23.43321153710797
 20
-1.029500600165353
 30
0.0
 10
23.08714160583451
 20
-0.8616281493534322
 30
0.0
 10
22.85204814007201
 20
-0.7407566053202195
 30
0.0
 10
22.50601212344832
 20
-0.5527889397144929
 30
0.0
 10
22.39211152643624
 20
-0.4891110869461763
 30
0.0
 10
22.16060821197105
 20
-0.3592911672456107
 30
0.0
 10
22.04398025588853
 20
-0.2933241978933735
 30
0.0
 10
21.69476756622314
 20
-0.0941093884227551
 30
0.0
 10
21.4667712845309
 20
0.0396877142877707
 30
0.0
 10
21.00253462378693
 20
0.3059575710165341
 30
0.0
 10
20.76787630247581
 20
0.438086154608601
 30
0.0
 10
20.31058051201188
 20
0.6906348707127633
 30
0.0
 10
20.07584099197696
 20
0.8132568011045836
 30
0.0
 10
19.84375000000404
 20
0.9275592918314872
 30
0.0
1001
PE_URL
1000

  0
SPLINE
  5
B9
330
1F
100
AcDbEntity
  8
0
  6
Continuous
 62
     1
370
    15
100
AcDbSpline
210
0.0
220
0.0
230
1.0
 70
     8
 71
     3
 72
    13
 73
     9
 74
     0
 42
0.000000001
 43
0.00000001
 40
0.0
 40
0.0
 40
0.0
 40
0.0
 40
0.1733628993170271
 40
0.3464669142010935
 40
0.5194456794883415
 40
0.6924345525663717
 40
0.8655687515144076
 40
0.9999999999999999
 40
0.9999999999999999
 40
0.9999999999999999
 40
0.9999999999999999
 10
25.4
 20
-1.409055153395111
 30
0.0
 10
25.13104407325365
 20
-1.35075257494315
 30
0.0
 10
24.59353385415251
 20
-1.234234481822899
 30
0.0
 10
23.78791386736224
 20
-0.950625389230682
 30
0.0
 10
22.98294379207203
 20
-0.6095409064176609
 30
0.0
 10
22.17791778637155
 20
-0.2264496239610752
 30
0.0
 10
21.43260170317212
 20
0.1449453226920981
 30
0.0
 10
20.9554289089932
 20
0.3694056774452564
 30
0.0
 10
20.74686538210785
 20
0.4675132053771695
 30
0.0
1001
PE_URL
1000

  0
LINE
  5
BA
330
1F
100
AcDbEntity
  8
0
  6
Continuous
 62
     1
370
    15
100
AcDbLine
 10
25.39999999999997
 20
-1.694749083643846
 30
0.0
 11
25.4
 21
-1.409055153395111
 31
0.0
1001
PE_URL
1000

  0
LINE
  5
BB
330
1F
100
AcDbEntity
  8
0
  6
Continuous
 62
     1
370
    15
100
AcDbLine
 10
25.4
 20
-1.784428052824191
 30
0.0
 11
25.4
 21
-1.694749083643843
 31
0.0
1001
PE_URL
1000

  0
SPLINE
  5
BC
330
1F
100
AcDbEntity
  8
0
  6
Continuous
 62
     1
370
    15
100
AcDbSpline
210
0.0
220
0.0
230
1.0
 70
     8
 71
     3
 72
     8
 73
     4
 74
     0
 42
0.000000001
 43
0.00000001
 40
0.0
 40
0.0
 40
0.0
 40
0.0
 40
1.0
 40
1.0
 40
1.0
 40
1.0
 10
24.29435610163609
 20
0.5001697058188497
 30
0.0
 10
24.23111190382926
 20
0.5750934330415743
 30
0.0
 10
24.17465597961277
 20
0.6472264353891601
 30
0.0
 10
24.12659004714622
 20
0.7159102310471076
 30
0.0
1001
PE_URL
1000

  0
LINE
  5
BD
330
1F
100
AcDbEntity
  8
0
  6
Continuous
 62
     1
370
    15
100
AcDbLine
 10
24.14921237855563
 20
0.7348926209891081
 30
0.0
 11
25.4
 21
0.0000000000000017
 31
0.0
1001
PE_URL
1000

  0
LINE
  5
BE
330
1F
100
AcDbEntity
  8
0
  6
Continuous
 62
     1
370
    15
100
AcDbLine
 10
25.4
 20
0.0000000000000017
 30
0.0
 11
25.4
 21
-0.4772791989248172
 31
0.0
1001
PE_URL
1000

  0
SPLINE
  5
BF
330
1F
100
AcDbEntity
  8
0
  6
Continuous
 62
     1
370
    15
100
AcDbSpline
210
0.0
220
0.0
230
1.0
 70
     8
 71
     3
 72
    10
 73
     6
 74
     0
 42
0.000000001
 43
0.00000001
 40
0.0
 40
0.0
 40
0.0
 40
0.0
 40
0.5
 40
0.5
 40
1.0
 40
1.0
 40
1.0
 40
1.0
 10
25.4
 20
-0.477279198924817
 30
0.0
 10
25.20860029268922
 20
-0.326804601810779
 30
0.0
 10
25.02040107205846
 20
-0.1701549815729983
 30
0.0
 10
24.65055667289951
 20
0.1557896361788876
 30
0.0
 10
24.46719088418342
 20
0.3268069389701402
 30
0.0
 10
24.29435610163609
 20
0.5001697058188495
 30
0.0
1001
PE_URL
1000

  0
SPLINE
  5
C0
330
1F
100
AcDbEntity
  8
0
  6
Continuous
 62
     1
370
    15
100
AcDbSpline
210
0.0
220
0.0
230
1.0
 70
     8
 71
     3
 72
    13
 73
     9
 74
     0
 42
0.000000001
 43
0.00000001
 40
0.0
 40
0.0
 40
0.0
 40
0.0
 40
0.1232659397717296
 40
0.3191301219598511
 40
0.5150059267572298
 40
0.7110486240501186
 40
0.907401216140739
 40
1.0
 40
1.0
 40
1.0
 40
1.0
 10
24.29435610161088
 20
0.5001697058297816
 30
0.0
 10
24.12547536675234
 20
0.5716916815401147
 30
0.0
 10
23.68825053715318
 20
0.7568589456969154
 30
0.0
 10
22.98297826979387
 20
1.017224169766263
 30
0.0
 10
22.17792875345677
 20
1.248328615813361
 30
0.0
 10
21.37218817399971
 20
1.390458462510008
 30
0.0
 10
20.7076191013001
 20
1.443950786360785
 30
0.0
 10
20.31182161934452
 20
1.418021358353302
 30
0.0
 10
20.18498240508861
 20
1.409711885897024
 30
0.0
1001
PE_URL
1000

  0
SPLINE
  5
C1
330
1F
100
AcDbEntity
  8
0
  6
Continuous
 62
     1
370
    15
100
AcDbSpline
210
0.0
220
0.0
230
1.0
 70
    24
 71
     3
 72
    10
 73
     6
 74
     0
 42
0.000000001
 43
0.00000001
 40
0.0
 40
0.0
 40
0.0
 40
0.0
 40
0.5000000000000001
 40
0.5000000000000001
 40
1.0
 40
1.0
 40
1.0
 40
1.0
 10
25.4
 20
-1.40905515339511
 30
0.0
 10
25.4
 20
-1.301040090048983
 30
0.0
 10
25.4
 20
-1.164558915789209
 30
0.0
 10
25.4
 20
-0.8472533204831665
 30
0.0
 10
25.4
 20
-0.6667037615744476
 30
0.0
 10
25.4
 20
-0.4772791989248745
 30
0.0
1001
PE_URL
1000

  0
SPLINE
  5
C2
330
1F
100
AcDbEntity
  8
외형선
  6
Continuous
370
    15
100
AcDbSpline
210
0.0
220
0.0
230
1.0
 70
    24
 71
     3
 72
    12
 73
     8
 74
     0
 42
0.000000001
 43
0.00000001
 40
0.0
 40
0.0
 40
0.0
 40
0.0
 40
0.1151042189300297
 40
0.3648909303315109
 40
0.6219214732853887
 40
0.8462165561925922
 40
1.0
 40
1.0
 40
1.0
 40
1.0
 10
19.84375000000001
 20
1.399686524601758
 30
0.0
 10
19.84375000000001
 20
1.397490016288808
 30
0.0
 10
19.84375000000001
 20
1.390526883492775
 30
0.0
 10
19.84375000000001
 20
1.331904266376457
 30
0.0
 10
19.84375000000001
 20
1.215908289686001
 30
0.0
 10
19.84375000000001
 20
1.078508413687078
 30
0.0
 10
19.84375000000001
 20
0.9712049688793812
 30
0.0
 10
19.84375000000001
 20
0.9275592918336135
 30
0.0
  0
SPLINE
  5
C3
330
1F
100
AcDbEntity
  8
0
  6
Continuous
 62
     1
370
    15
100
AcDbSpline
210
0.0
220
0.0
230
1.0
 70
    24
 71
     3
 72
     8
 73
     4
 74
     0
 42
0.000000001
 43
0.00000001
 40
0.0
 40
0.0
 40
0.0
 40
0.0
 40
1.0
 40
1.0
 40
1.0
 40
1.0
 10
24.31313864972742
 20
0.8724430946696313
 30
0.0
 10
24.25430635214335
 20
0.8230769354655235
 30
0.0
 10
24.19168193045709
 20
0.7705288063258596
 30
0.0
 10
24.12659004714624
 20
0.7159102310470955
 30
0.0
1001
PE_URL
1000

  0
LINE
  5
C4
330
1F
100
AcDbEntity
  8
0
  6
Continuous
 62
     1
370
    15
100
AcDbLine
 10
25.4
 20
1.25015625
 30
0.0
 11
24.73423954848025
 21
1.21532961371827
 31
0.0
1001
PE_URL
1000

  0
SPLINE
  5
C5
330
1F
100
AcDbEntity
  8
0
  6
Continuous
 62
     1
370
    15
100
AcDbSpline
210
0.0
220
0.0
230
1.0
 70
     8
 71
     3
 72
     8
 73
     4
 74
     0
 42
0.000000001
 43
0.00000001
 40
0.0
 40
0.0
 40
0.0
 40
0.0
 40
1.0
 40
1.0
 40
1.0
 40
1.0
 10
25.4
 20
1.250156250000001
 30
0.0
 10
25.03261042659127
 20
1.15036497351993
 30
0.0
 10
24.66880184550125
 20
1.027858575372514
 30
0.0
 10
24.31313864972691
 20
0.8724430946699543
 30
0.0
1001
PE_URL
1000

  0
SPLINE
  5
C6
330
1F
100
AcDbEntity
  8
0
  6
Continuous
 62
     1
370
    15
100
AcDbSpline
210
0.0
220
0.0
230
1.0
 70
     8
 71
     3
 72
    10
 73
     6
 74
     0
 42
0.000000001
 43
0.00000001
 40
0.0
 40
0.0
 40
0.0
 40
0.0
 40
0.1395979672093107
 40
0.5937595270608051
 40
1.0
 40
1.0
 40
1.0
 40
1.0
 10
21.62056753573381
 20
-1.333160301923551
 30
0.0
 10
21.53789948426784
 20
-1.348872140533143
 30
0.0
 10
21.18628302363645
 20
-1.415700147047729
 30
0.0
 10
20.59384627263565
 20
-1.443750181453107
 30
0.0
 10
20.08432258735412
 20
-1.409059886576938
 30
0.0
 10
19.84375000036113
 20
-1.392680797198004
 30
0.0
1001
PE_URL
1000

  0
SPLINE
  5
C7
330
1F
100
AcDbEntity
  8
외형선
  6
Continuous
370
    15
100
AcDbSpline
210
0.0
220
0.0
230
1.0
 70
    24
 71
     3
 72
    14
 73
    10
 74
     0
 42
0.000000001
 43
0.00000001
 40
0.0
 40
0.0
 40
0.0
 40
0.0
 40
0.2499999999999999
 40
0.2499999999999999
 40
0.4999999999999999
 40
0.4999999999999999
 40
0.7499999999999999
 40
0.7499999999999999
 40
1.0
 40
1.0
 40
1.0
 40
1.0
 10
19.84375
 20
0.2791328991900182
 30
0.0
 10
19.84375
 20
0.120935386290467
 30
0.0
 10
19.84375
 20
-0.042548477505135
 30
0.0
 10
19.84375
 20
-0.3651434640411614
 30
0.0
 10
19.84375
 20
-0.5240892578351297
 30
0.0
 10
19.84375
 20
-0.8212187519213977
 30
0.0
 10
19.84375
 20
-0.9592441291967931
 30
0.0
 10
19.84375
 20
-1.202125569275294
 30
0.0
 10
19.84375
 20
-1.306928265109084
 30
0.0
 10
19.84375
 20
-1.392680797160829
 30
0.0
  0
LINE
  5
C8
330
1F
100
AcDbEntity
  8
0
  6
Continuous
 62
     1
370
    15
100
AcDbLine
 10
25.4
 20
0.0000000000000017
 30
0.0
 11
25.4
 21
1.250156250000001
 31
0.0
1001
PE_URL
1000

  0
SPLINE
  5
C9
330
1F
100
AcDbEntity
  8
0
  6
Continuous
 62
     1
370
    15
100
AcDbSpline
210
0.0
220
0.0
230
1.0
 70
    24
 71
     3
 72
    10
 73
     6
 74
     0
 42
0.000000001
 43
0.00000001
 40
0.0
 40
0.0
 40
0.0
 40
0.0
 40
0.5
 40
0.5
 40
1.0
 40
1.0
 40
1.0
 40
1.0
 10
25.4
 20
1.25015625
 30
0.0
 10
25.4
 20
1.325937608641813
 30
0.0
 10
25.4
 20
1.414002565492367
 30
0.0
 10
25.4
 20
1.598762607778528
 30
0.0
 10
25.4
 20
1.694985839251693
 30
0.0
 10
25.4
 20
1.784428052824193
 30
0.0
1001
PE_URL
1000

  0
SPLINE
  5
CA
330
1F
100
AcDbEntity
  8
0
  6
Continuous
 62
     1
370
    15
100
AcDbSpline
210
0.0
220
0.0
230
1.0
 70
     8
 71
     3
 72
    15
 73
    11
 74
     0
 42
0.000000001
 43
0.00000001
 40
0.0
 40
0.0
 40
0.0
 40
0.0
 40
0.0383245097346125
 40
0.2484492493083946
 40
0.3538157226539098
 40
0.4596032377587778
 40
0.5937440921640201
 40
0.7282659071246625
 40
0.8639367655201279
 40
1.0
 40
1.0
 40
1.0
 40
1.0
 10
22.94819655231808
 20
1.199429449348157
 30
0.0
 10
22.97954726274009
 20
1.213009145406494
 30
0.0
 10
23.18278692643239
 20
1.301043286349019
 30
0.0
 10
23.47164472261755
 20
1.40971459295954
 30
0.0
 10
23.81589921310012
 20
1.52160305187363
 30
0.0
 10
24.09849659260622
 20
1.60093159873391
 30
0.0
 10
24.40437319571319
 20
1.672760188379874
 30
0.0
 10
24.73438320486726
 20
1.730840477120272
 30
0.0
 10
25.06702594072183
 20
1.770441973640895
 30
0.0
 10
25.28890185279754
 20
1.779761540702318
 30
0.0
 10
25.4
 20
1.784428052824192
 30
0.0
1001
PE_URL
1000

  0
LINE
  5
CB
330
1F
100
AcDbEntity
  8
중심선
 62
     1
100
AcDbLine
 10
-28.4
 20
-0.0000000000000035
 30
0.0
 11
28.4
 21
0.0000000000000035
 31
0.0
  0
LINE
  5
CC
330
1F
100
AcDbEntity
  8
참조1
100
AcDbLine
 10
0.0
 20
-0.0000000000000035
 30
0.0
 11
0.0
 21
-40.00000000000001
 31
0.0
  0
LINE
  5
CD
330
1F
100
AcDbEntity
  8
참조1
100
AcDbLine
 10
0.0
 20
-40.00000000000001
 30
0.0
 11
-20.02196559669922
 21
-39.99999999999999
 31
0.0
  0
CIRCLE
  5
CE
330
1F
100
AcDbEntity
  8
해칭선
100
AcDbCircle
 10
0.0
 20
0.0
 30
0.0
 40
3.000000000000002
  0
INSERT
  5
CF
330
1F
100
AcDbEntity
  8
0
  6
Continuous
 62
     7
100
AcDbBlockReference
 66
     1
  2
블럭10
 10
-13.9402729321252
 20
-52.04717430164393
 30
0.0
  0
ATTRIB
  5
D0
330
CF
100
AcDbEntity
  8
FORMAT
 62
     2
100
AcDbText
 10
-23.12156822086649
 20
-49.97180738881174
 30
0.0
 40
4.233333333333333
  1
E2001009 [ 2 FLUTE ]
 41
0.75
  7
SLDTEXTSTYLE0
 11
-23.12156822086649
 21
-52.08847405547841
 31
0.0
100
AcDbAttribute
  2
AUTOATTR0
 70
     0
 74
     1
  0
SEQEND
  5
D1
330
CF
100
AcDbEntity
  8
0
  6
Continuous
 62
     7
  0
HATCH
  5
D2
330
1F
100
AcDbEntity
  8
중심선
100
AcDbHatch
 10
0.0
 20
0.0
 30
0.0
210
0.0
220
0.0
230
1.0
  2
SOLID
 70
     1
 71
     0
 91
        1
 92
        0
 93
        4
 72
     1
 10
-8.225363627744368
 20
-35.8
 11
-11.67163887158165
 21
-35.8
 72
     1
 10
-11.67163887158165
 20
-35.8
 11
-13.79986873078567
 21
-38.3363255805726
 72
     1
 10
-13.79986873078567
 20
-38.3363255805726
 11
-10.35356040183524
 21
-38.3362861512701
 72
     1
 10
-10.35356040183524
 20
-38.3362861512701
 11
-8.225363627744368
 21
-35.8
 97
        0
 75
     0
 76
     1
 98
        1
 10
9.437961678730513
 20
-0.0010749287238927
  0
HATCH
  5
D3
330
1F
100
AcDbEntity
  8
중심선
100
AcDbHatch
 10
0.0
 20
0.0
 30
0.0
210
0.0
220
0.0
230
1.0
  2
SOLID
 70
     1
 71
     0
 91
        1
 92
        0
 93
        4
 72
     1
 10
-3.21259963670839
 20
-35.8
 11
-6.658874880545678
 21
-35.8
 72
     1
 10
-6.658874880545671
 20
-35.8
 11
-11.19001288890309
 21
-41.20000000000002
 72
     1
 10
-11.19001288890309
 20
-41.20000000000002
 11
-7.743737645065799
 21
-41.20000000000002
 72
     1
 10
-7.743737645065799
 20
-41.20000000000002
 11
-3.21259963670839
 21
-35.8
 97
        0
 75
     0
 76
     1
 98
        1
 10
9.437961678730513
 20
-0.0010749287238927
  0
HATCH
  5
D4
330
1F
100
AcDbEntity
  8
중심선
100
AcDbHatch
 10
0.0
 20
0.0
 30
0.0
210
0.0
220
0.0
230
1.0
  2
SOLID
 70
     1
 71
     0
 91
        1
 92
        0
 93
        4
 72
     1
 10
1.80016435432751
 20
-35.8
 11
-1.646110889509639
 21
-35.8
 72
     1
 10
-1.646110889509639
 20
-35.8
 11
-8.69454779139889
 21
-44.20000000000002
 72
     1
 10
-8.69454779139889
 20
-44.20000000000002
 11
-5.248272547561609
 21
-44.20000000000002
 72
     1
 10
-5.248272547561609
 20
-44.20000000000002
 11
1.800164354327501
 21
-35.8
 97
        0
 75
     0
 76
     1
 98
        1
 10
9.437961678730513
 20
-0.0010749287238927
  0
HATCH
  5
D5
330
1F
100
AcDbEntity
  8
중심선
100
AcDbHatch
 10
0.0
 20
0.0
 30
0.0
210
0.0
220
0.0
230
1.0
  2
SOLID
 70
     1
 71
     0
 91
        1
 92
        0
 93
        6
 72
     3
 10
6.600054785339678
 20
-40.00000000005127
 11
3.960054785062283
 21
1.540882976769353E-10
 40
0.3939339440162628
 50
17.09539180608439
 51
320.0019657685081
 73
     0
 72
     1
 10
8.283054441040273
 20
-38.58789400463831
 11
10.58835631474134
 21
-36.65356729459039
 72
     3
 10
6.600054785286831
 20
-40.00000000000014
 11
6.600054785286829
 21
-1.278976924368180E-13
 40
0.636358354079598
 50
39.99873849337382
 51
368.4976242363724
 73
     1
 72
     1
 10
13.02538727718744
 20
-39.03999999993002
 11
5.280122092122753
 21
-39.03999999993002
 72
     1
 10
5.280122092122753
 20
-39.03999999993002
 11
5.280097047676819
 21
-40.95999999992991
 72
     1
 10
5.280097047676819
 20
-40.95999999992991
 11
9.721476817148856
 21
-40.95999999992988
 97
        0
 75
     0
 76
     1
 98
        1
 10
9.437961678730513
 20
-0.0010749287238927
  0
DIMENSION
  5
D6
330
1F
100
AcDbEntity
  8
치수문자_일반주서
100
AcDbDimension
  2
_D
 10
-35.39999999999998
 20
-2.381250000000072
 30
0.0
 11
-35.40000000000006
 21
22.98524999999997
 31
0.0
 70
   160
  1
%%c<>
 71
     2
 42
4.762499999999998
 52
-270.0
  3
SLDDIMSTYLE0
100
AcDbAlignedDimension
 13
-16.62201350361916
 23
2.381249999999997
 33
0.0
 14
-16.62201350361916
 24
-2.381250000000001
 34
0.0
 50
90.0000000000002
100
AcDbRotatedDimension
1001
PE_URL
1000

1001
ACAD
1000
DSTYLE
1002
{
1070
   171
1070
     8
1070
   273
1070
     7
1002
}
  0
DIMENSION
  5
EB
330
1F
100
AcDbEntity
  8
치수문자_일반주서
100
AcDbDimension
  2
_D_1
 10
64.93995776880894
 20
1.784428052824342
 30
0.0
 11
64.93995776880885
 21
22.82592805282434
 31
0.0
 70
   160
  1
%%c<>
 71
     2
 42
3.568856105648384
 52
-270.0
  3
SLDDIMSTYLE0
100
AcDbAlignedDimension
 13
25.4
 23
-1.784428052824191
 33
0.0
 14
25.4
 24
1.784428052824193
 34
0.0
 50
90.0000000000002
100
AcDbRotatedDimension
1001
PE_URL
1000

1001
ACAD
1000
DSTYLE
1002
{
1070
   171
1070
     8
1070
   273
1070
     7
1002
}
  0
DIMENSION
  5
FF
330
1F
100
AcDbEntity
  8
치수문자_일반주서
100
AcDbDimension
  2
_D_2
 10
19.84375000000001
 20
12.38125
 30
0.0
 11
45.12900000000001
 21
12.38125
 31
0.0
 70
   160
  1
<>
 71
     2
 42
5.556249999999991
  3
SLDDIMSTYLE0
100
AcDbAlignedDimension
 13
25.4
 23
1.784428052824193
 33
0.0
 14
19.84375000000001
 24
1.404412639889957
 34
0.0
100
AcDbRotatedDimension
1001
PE_URL
1000

1001
ACAD
1000
DSTYLE
1002
{
1070
   171
1070
     8
1070
   273
1070
     7
1002
}
  0
DIMENSION
  5
114
330
1F
100
AcDbEntity
  8
치수문자_일반주서
100
AcDbDimension
  2
_D_3
 10
25.4
 20
22.38125
 30
0.0
 11
0.0000000000000213
 21
22.38125
 31
0.0
 70
   160
  1
<>
 71
     2
 42
50.8
  3
SLDDIMSTYLE0
100
AcDbAlignedDimension
 13
-25.4
 23
1.784428052824218
 33
0.0
 14
25.4
 24
1.784428052824193
 34
0.0
100
AcDbRotatedDimension
1001
PE_URL
1000

1001
ACAD
1000
DSTYLE
1002
{
1070
   171
1070
     8
1070
   273
1070
     7
1002
}
  0
LINE
  5
128
330
1F
100
AcDbEntity
  8
참조1
100
AcDbLine
 10
77.95037503295504
 20
7.440000000000004
 30
0.0
 11
77.95037503295504
 21
-7.440000000000001
 31
0.0
  0
LINE
  5
129
330
1F
100
AcDbEntity
  8
참조1
100
AcDbLine
 10
90.65037503295505
 20
5.440000000000004
 30
0.0
 11
77.95037503295504
 21
5.440000000000004
 31
0.0
  0
SOLID
  5
12A
330
1F
100
AcDbEntity
  8
참조1
100
AcDbTrace
 10
77.95037503295504
 20
5.440000000000004
 30
0.0
 11
84.30037503295503
 21
4.424000000000004
 31
0.0
 12
84.30037503295503
 22
6.456000000000004
 32
0.0
 13
84.30037503295503
 23
6.456000000000004
 33
0.0
  0
LINE
  5
12B
330
1F
100
AcDbEntity
  8
참조1
100
AcDbLine
 10
90.65037503295505
 20
-5.440000000000001
 30
0.0
 11
77.95037503295504
 21
-5.440000000000001
 31
0.0
  0
SOLID
  5
12C
330
1F
100
AcDbEntity
  8
참조1
100
AcDbTrace
 10
77.95037503295504
 20
-5.440000000000001
 30
0.0
 11
84.30037503295503
 21
-6.456000000000001
 31
0.0
 12
84.30037503295503
 22
-4.424000000000001
 32
0.0
 13
84.30037503295503
 23
-4.424000000000001
 33
0.0
  0
MTEXT
  5
12D
330
1F
100
AcDbEntity
  8
참조1
100
AcDbMText
 10
87.33472516558103
 20
11.01029177718833
 30
0.0
 40
3.5
 41
0.0
 71
     1
 72
     1
  1
A
  7
SLDTEXTSTYLE0
 73
     1
 44
1.0
  0
MTEXT
  5
12E
330
1F
100
AcDbEntity
  8
참조1
100
AcDbMText
 10
87.33472516558103
 20
0.1302917771883265
 30
0.0
 40
3.5
 41
0.0
 71
     1
 72
     1
  1
A
  7
SLDTEXTSTYLE0
 73
     1
 44
1.0
  0
INSERT
  5
135
330
1F
100
AcDbEntity
  8
해칭선
100
AcDbBlockReference
  2
SW_DOWELSYMBOL_0
 10
0.0
 20
0.0
 30
0.0
  0
LINE
  5
22F
330
1F
100
AcDbEntity
  8
외형선
  6
Continuous
370
    15
100
AcDbLine
 10
-16.62201350361916
 20
2.381250000000001
 30
0.0
 11
-18.84375
 21
1.785937499999996
 31
0.0
  0
LINE
  5
230
330
1F
100
AcDbEntity
  8
외형선
  6
Continuous
370
    15
100
AcDbLine
 10
-18.84374999999999
 20
-1.785937500000006
 30
0.0
 11
-16.62201350361915
 21
-2.381250000000001
 31
0.0
  0
LINE
  5
231
330
1F
100
AcDbEntity
  8
외형선
  6
Continuous
370
    15
100
AcDbLine
 10
-18.95368071021074
 20
-1.785937500000006
 30
0.0
 11
-18.84374999999999
 21
-1.785937500000006
 31
0.0
  0
LINE
  5
232
330
1F
100
AcDbEntity
  8
외형선
  6
Continuous
370
    15
100
AcDbLine
 10
-18.84375
 20
1.785937499999996
 30
0.0
 11
-18.95368071021075
 21
1.785937499999996
 31
0.0
  0
SPLINE
  5
233
330
1F
100
AcDbEntity
  8
외형선
  6
Continuous
370
    15
100
AcDbSpline
210
0.0
220
0.0
230
1.0
 70
     8
 71
     3
 72
     9
 73
     5
 74
     0
 42
0.000000001
 43
0.00000001
 40
0.0
 40
0.0
 40
0.0
 40
0.0
 40
0.4373050069383033
 40
0.9999999999999999
 40
0.9999999999999999
 40
0.9999999999999999
 40
0.9999999999999999
 10
-19.84375000036112
 20
-1.404410461856934
 30
0.0
 10
-19.71400786849969
 20
-1.400736639490848
 30
0.0
 10
-19.4173221919057
 20
-1.392335586889583
 30
0.0
 10
-19.11714654624525
 20
-1.395868345078398
 30
0.0
 10
-18.94823921339306
 20
-1.397856210422944
 30
0.0
  0
SPLINE
  5
234
330
1F
100
AcDbEntity
  8
외형선
  6
Continuous
370
    15
100
AcDbSpline
210
0.0
220
0.0
230
1.0
 70
     8
 71
     3
 72
    10
 73
     6
 74
     0
 42
0.000000001
 43
0.00000001
 40
0.0
 40
0.0
 40
0.0
 40
0.0
 40
0.2844381020834613
 40
0.6161743763031656
 40
1.0
 40
1.0
 40
1.0
 40
1.0
 10
-18.94823921339306
 20
1.39785700067873
 30
0.0
 10
-19.03120337485777
 20
1.396584462759931
 30
0.0
 10
-19.21092750489374
 20
1.393827781244005
 30
0.0
 10
-19.51310612226029
 20
1.395525528508648
 30
0.0
 10
-19.72831336838321
 20
1.399999836037862
 30
0.0
 10
-19.84375000036112
 20
1.402399843476788
 30
0.0
  0
LINE
  5
235
330
1F
100
AcDbEntity
  8
0
  6
Continuous
 62
     1
370
    15
100
AcDbLine
 10
-20.77192823530693
 20
-0.4578054685498181
 30
0.0
 11
-20.25829630377729
 21
-0.7160654628606338
 31
0.0
1001
PE_URL
1000

  0
LINE
  5
236
330
1F
100
AcDbEntity
  8
0
  6
Continuous
 62
     1
370
    15
100
AcDbLine
 10
-20.18644233223033
 20
-1.419348475886018
 30
0.0
 11
-19.84375000000001
 21
-1.402399843469883
 31
0.0
1001
PE_URL
1000

  0
SPLINE
  5
237
330
1F
100
AcDbEntity
  8
0
  6
Continuous
 62
     1
370
    15
100
AcDbSpline
210
0.0
220
0.0
230
1.0
 70
     8
 71
     3
 72
    13
 73
     9
 74
     0
 42
0.000000001
 43
0.00000001
 40
0.0
 40
0.0
 40
0.0
 40
0.0
 40
0.2203625815491821
 40
0.3396323671265951
 40
0.5104238247558794
 40
0.6816821582238686
 40
0.7937739279526644
 40
1.0
 40
1.0
 40
1.0
 40
1.0
 10
-24.73575935605047
 20
-1.221498984278064
 30
0.0
 10
-24.50480089314856
 20
-1.20505213184078
 30
0.0
 10
-24.14883769417056
 20
-1.179703529615367
 30
0.0
 10
-23.62011592440832
 20
-1.172820297902373
 30
0.0
 10
-23.14448003337663
 20
-1.182843684713127
 30
0.0
 10
-22.67154904455524
 20
-1.213700095204505
 30
0.0
 10
-22.16448841170467
 20
-1.263632308604947
 30
0.0
 10
-21.83153435316304
 20
-1.311961469535081
 30
0.0
 10
-21.61582603068218
 20
-1.343272102229605
 30
0.0
1001
PE_URL
1000

  0
SPLINE
  5
238
330
1F
100
AcDbEntity
  8
0
  6
Continuous
 62
     1
370
    15
100
AcDbSpline
210
0.0
220
0.0
230
1.0
 70
     8
 71
     3
 72
    11
 73
     7
 74
     0
 42
0.000000001
 43
0.00000001
 40
0.0
 40
0.0
 40
0.0
 40
0.0
 40
0.3729760100456783
 40
0.6746016270991122
 40
0.9069619237386957
 40
1.0
 40
1.0
 40
1.0
 40
1.0
 10
-21.61582603068218
 20
1.343272102229582
 30
0.0
 10
-21.77681806772464
 20
1.319123740405431
 30
0.0
 10
-22.06800432961197
 20
1.275446603700697
 30
0.0
 10
-22.47615265639611
 20
1.231969969694209
 30
0.0
 10
-22.76074703334665
 20
1.208048892752812
 30
0.0
 10
-22.90560065034897
 20
1.199740731495128
 30
0.0
 10
-22.9470172737489
 20
1.197365257598955
 30
0.0
1001
PE_URL
1000

  0
LINE
  5
239
330
1F
100
AcDbEntity
  8
0
  6
Continuous
 62
     1
370
    15
100
AcDbLine
 10
-19.84375000000001
 20
1.402399843469871
 30
0.0
 11
-20.18644233223033
 21
1.419348475886004
 31
0.0
1001
PE_URL
1000

  0
LINE
  5
23A
330
1F
100
AcDbEntity
  8
외형선
  6
Continuous
370
    15
100
AcDbLine
 10
-16.62201350361915
 20
-2.381250000000001
 30
0.0
 11
-16.62201350361916
 21
2.381249999999998
 31
0.0
  0
LINE
  5
23B
330
1F
100
AcDbEntity
  8
외형선
  6
Continuous
370
    15
100
AcDbLine
 10
-18.84374999999999
 20
-1.785937500000006
 30
0.0
 11
-18.84375
 21
1.785937499999996
 31
0.0
  0
SPLINE
  5
23C
330
1F
100
AcDbEntity
  8
외형선
  6
Continuous
370
    15
100
AcDbSpline
210
0.0
220
0.0
230
1.0
 70
     8
 71
     3
 72
    10
 73
     6
 74
     0
 42
0.000000001
 43
0.00000001
 40
0.0
 40
0.0
 40
0.0
 40
0.0
 40
0.5
 40
0.5
 40
1.0
 40
1.0
 40
1.0
 40
1.0
 10
-19.84375000000396
 20
-0.9275592918315283
 30
0.0
 10
-19.6949399747733
 20
-1.000846739932841
 30
0.0
 10
-19.54886306598667
 20
-1.070494232586947
 30
0.0
 10
-19.25254655369372
 20
-1.202608257823332
 30
0.0
 10
-19.10274150642927
 20
-1.264968708869489
 30
0.0
 10
-18.9536080237955
 20
-1.322638853773647
 30
0.0
  0
LINE
  5
23D
330
1F
100
AcDbEntity
  8
외형선
  6
Continuous
370
    15
100
AcDbLine
 10
-19.84374999999999
 20
-0.9275592918334805
 30
0.0
 11
-19.84375
 21
-0.4699826615540861
 31
0.0
  0
SPLINE
  5
23E
330
1F
100
AcDbEntity
  8
외형선
  6
Continuous
370
    15
100
AcDbSpline
210
0.0
220
0.0
230
1.0
 70
     8
 71
     3
 72
    10
 73
     6
 74
     0
 42
0.000000001
 43
0.00000001
 40
0.0
 40
0.0
 40
0.0
 40
0.0
 40
0.5
 40
0.5
 40
1.0
 40
1.0
 40
1.0
 40
1.0
 10
-18.95368071021074
 20
-0.9397203255211597
 30
0.0
 10
-19.10280229730075
 20
-0.8667441205480273
 30
0.0
 10
-19.25259496088245
 20
-0.7903888995604582
 30
0.0
 10
-19.54888686977151
 20
-0.6333228527246497
 30
0.0
 10
-19.69495206288651
 20
-0.5527145003471858
 30
0.0
 10
-19.84374999999746
 20
-0.4699826615498832
 30
0.0
  0
LINE
  5
23F
330
1F
100
AcDbEntity
  8
외형선
  6
Continuous
370
    15
100
AcDbLine
 10
-18.95368071021074
 20
-1.322690284740485
 30
0.0
 11
-18.95368071021074
 21
-1.785937500000006
 31
0.0
  0
LINE
  5
240
330
1F
100
AcDbEntity
  8
외형선
  6
Continuous
370
    15
100
AcDbLine
 10
-18.95368071021075
 20
1.785937499999996
 30
0.0
 11
-18.95368071021074
 21
-0.9402391243425452
 31
0.0
  0
SPLINE
  5
241
330
1F
100
AcDbEntity
  8
외형선
  6
Continuous
370
    15
100
AcDbSpline
210
0.0
220
0.0
230
1.0
 70
    24
 71
     3
 72
     9
 73
     5
 74
     0
 42
0.000000001
 43
0.00000001
 40
0.0
 40
0.0
 40
0.0
 40
0.0
 40
0.4620692246083618
 40
1.0
 40
1.0
 40
1.0
 40
1.0
 10
-19.84374999999999
 20
-0.469982661548471
 30
0.0
 10
-19.84374999999999
 20
-0.4702858093518074
 30
0.0
 10
-19.84374999999999
 20
-0.4709418751254901
 30
0.0
 10
-19.84374999999999
 20
-0.4675766020838914
 30
0.0
 10
-19.84374999999999
 20
-0.4657663181472191
 30
0.0
  0
SPLINE
  5
242
330
1F
100
AcDbEntity
  8
외형선
  6
Continuous
370
    15
100
AcDbSpline
210
0.0
220
0.0
230
1.0
 70
    24
 71
     3
 72
    11
 73
     7
 74
     0
 42
0.000000001
 43
0.00000001
 40
0.0
 40
0.0
 40
0.0
 40
0.0
 40
0.076545913012498
 40
0.4824860522540723
 40
0.739703286011394
 40
1.0
 40
1.0
 40
1.0
 40
1.0
 10
-19.84374999999999
 20
-0.4307784502334027
 30
0.0
 10
-19.84374999999999
 20
-0.4287715474915501
 30
0.0
 10
-19.84374999999999
 20
-0.4161215895373509
 30
0.0
 10
-19.84375
 20
-0.3805787584822493
 30
0.0
 10
-19.84374999999999
 20
-0.3305621788973134
 30
0.0
 10
-19.84375
 20
-0.2963438647491152
 30
0.0
 10
-19.84375
 20
-0.2791328991900208
 30
0.0
  0
SPLINE
  5
243
330
1F
100
AcDbEntity
  8
외형선
  6
Continuous
370
    15
100
AcDbSpline
210
0.0
220
0.0
230
1.0
 70
     8
 71
     3
 72
    10
 73
     6
 74
     0
 42
0.000000001
 43
0.00000001
 40
0.0
 40
0.0
 40
0.0
 40
0.0
 40
0.5
 40
0.5
 40
1.0
 40
1.0
 40
1.0
 40
1.0
 10
-19.84375000097114
 20
-0.2791328988081343
 30
0.0
 10
-19.69494915306545
 20
-0.3376467196585153
 30
0.0
 10
-19.54888113884315
 20
-0.3948418445772166
 30
0.0
 10
-19.2525833055307
 20
-0.5066613840177148
 30
0.0
 10
-19.10278765998787
 20
-0.5612148931324086
 30
0.0
 10
-18.95366320846232
 20
-0.6135551861304993
 30
0.0
  0
SPLINE
  5
244
330
1F
100
AcDbEntity
  8
외형선
  6
Continuous
370
    15
100
AcDbSpline
210
0.0
220
0.0
230
1.0
 70
     8
 71
     3
 72
    10
 73
     6
 74
     0
 42
0.000000001
 43
0.00000001
 40
0.0
 40
0.0
 40
0.0
 40
0.0
 40
0.5000000000000001
 40
0.5000000000000001
 40
1.0
 40
1.0
 40
1.0
 40
1.0
 10
-19.84375000036125
 20
1.392680797198013
 30
0.0
 10
-19.694947651203
 20
1.377362652347701
 30
0.0
 10
-19.54887818198588
 20
1.357348061302238
 30
0.0
 10
-19.2525772931033
 20
1.307947798914219
 30
0.0
 10
-19.10278010959613
 20
1.278537039367924
 30
0.0
 10
-18.95365418072952
 20
1.24484205100277
 30
0.0
  0
SPLINE
  5
245
330
1F
100
AcDbEntity
  8
외형선
  6
Continuous
370
    15
100
AcDbSpline
210
0.0
220
0.0
230
1.0
 70
    24
 71
     3
 72
    14
 73
    10
 74
     0
 42
0.000000001
 43
0.00000001
 40
0.0
 40
0.0
 40
0.0
 40
0.0
 40
0.2500000000000001
 40
0.2500000000000001
 40
0.5
 40
0.5
 40
0.75
 40
0.75
 40
1.0
 40
1.0
 40
1.0
 40
1.0
 10
-19.84374999999999
 20
-0.2791328991900244
 30
0.0
 10
-19.84374999999999
 20
-0.1209353862904727
 30
0.0
 10
-19.84374999999999
 20
0.0425484775051288
 30
0.0
 10
-19.84374999999999
 20
0.3651434640411555
 30
0.0
 10
-19.84374999999999
 20
0.524089257835124
 30
0.0
 10
-19.84374999999999
 20
0.8212187519213927
 30
0.0
 10
-19.84374999999999
 20
0.9592441291967866
 30
0.0
 10
-19.84374999999999
 20
1.202125569275289
 30
0.0
 10
-19.84374999999999
 20
1.306928265109079
 30
0.0
 10
-19.84374999999999
 20
1.392680797160823
 30
0.0
  0
SPLINE
  5
246
330
1F
100
AcDbEntity
  8
외형선
  6
Continuous
370
    15
100
AcDbSpline
210
0.0
220
0.0
230
1.0
 70
    24
 71
     3
 72
    13
 73
     9
 74
     0
 42
0.000000001
 43
0.00000001
 40
0.0
 40
0.0
 40
0.0
 40
0.0
 40
0.0082875739720508
 40
0.1706549603525877
 40
0.4047609132820631
 40
0.645655954705957
 40
0.8558705567028964
 40
1.0
 40
1.0
 40
1.0
 40
1.0
 10
-19.84375
 20
-1.403787861701861
 30
0.0
 10
-19.84375
 20
-1.403999310836976
 30
0.0
 10
-19.84375
 20
-1.408353400935095
 30
0.0
 10
-19.84374999999999
 20
-1.389923508664172
 30
0.0
 10
-19.84375
 20
-1.333846565936987
 30
0.0
 10
-19.84374999999999
 20
-1.215451776860633
 30
0.0
 10
-19.84375
 20
-1.078577444427575
 30
0.0
 10
-19.84375
 20
-0.9712249285410834
 30
0.0
 10
-19.84375
 20
-0.9275592918336191
 30
0.0
  0
SPLINE
  5
247
330
1F
100
AcDbEntity
  8
0
  6
Continuous
 62
     1
370
    15
100
AcDbSpline
210
0.0
220
0.0
230
1.0
 70
     8
 71
     3
 72
    26
 73
    22
 74
     0
 42
0.000000001
 43
0.00000001
 40
0.0
 40
0.0
 40
0.0
 40
0.0
 40
0.1249999999999999
 40
0.1249999999999999
 40
0.2499999999999999
 40
0.2499999999999999
 40
0.3749999999999998
 40
0.3749999999999998
 40
0.4374999999999998
 40
0.4374999999999998
 40
0.4999999999999999
 40
0.4999999999999999
 40
0.625
 40
0.625
 40
0.6874999999999998
 40
0.6874999999999998
 40
0.7499999999999998
 40
0.7499999999999998
 40
0.8749999999999999
 40
0.8749999999999999
 40
1.0
 40
1.0
 40
1.0
 40
1.0
 10
-19.84374999999676
 20
-0.4699826615503824
 30
0.0
 10
-20.07584099196993
 20
-0.3409397802645877
 30
0.0
 10
-20.31058051200519
 20
-0.2074216494446706
 30
0.0
 10
-20.76787630246994
 20
0.0585356535837533
 30
0.0
 10
-21.00253462378112
 20
0.1932943161158249
 30
0.0
 10
-21.46677128452578
 20
0.4563575771986255
 30
0.0
 10
-21.69476756621829
 20
0.5843915777576694
 30
0.0
 10
-22.04398025588411
 20
0.7688102546775504
 30
0.0
 10
-22.16060821196679
 20
0.8288262642042987
 30
0.0
 10
-22.39211152643233
 20
0.9448299436946606
 30
0.0
 10
-22.50601212344457
 20
1.000670155539172
 30
0.0
 10
-22.85204814006864
 20
1.16227011925924
 30
0.0
 10
-23.08714160583145
 20
1.261727461481428
 30
0.0
 10
-23.43321153710541
 20
1.392924545846325
 30
0.0
 10
-23.54710375152279
 20
1.43366083408463
 30
0.0
 10
-23.77858893270838
 20
1.509389986101414
 30
0.0
 10
-23.8952134496175
 20
1.54425081112028
 30
0.0
 10
-24.24443302650261
 20
1.638779677301461
 30
0.0
 10
-24.47244375034668
 20
1.688136112597707
 30
0.0
 10
-24.9366531894862
 20
1.758386096285179
 30
0.0
 10
-25.17138337440796
 20
1.778957403642256
 30
0.0
 10
-25.39999999999999
 20
1.784428052819825
 30
0.0
1001
PE_URL
1000

  0
SPLINE
  5
248
330
1F
100
AcDbEntity
  8
0
  6
Continuous
 62
     1
370
    15
100
AcDbSpline
210
0.0
220
0.0
230
1.0
 70
     8
 71
     3
 72
     9
 73
     5
 74
     0
 42
0.000000001
 43
0.00000001
 40
0.0
 40
0.0
 40
0.0
 40
0.0
 40
0.34998939524226
 40
1.0
 40
1.0
 40
1.0
 40
1.0
 10
-20.95420109355517
 20
0.1649572646238653
 30
0.0
 10
-20.82463812472815
 20
0.1133408592368443
 30
0.0
 10
-20.45444699725888
 20
-0.0341390532653438
 30
0.0
 10
-20.08432998435791
 20
-0.1826192174754446
 30
0.0
 10
-19.84375000097102
 20
-0.2791328988081805
 30
0.0
1001
PE_URL
1000

  0
SPLINE
  5
249
330
1F
100
AcDbEntity
  8
외형선
  6
Continuous
370
    15
100
AcDbSpline
210
0.0
220
0.0
230
1.0
 70
    24
 71
     3
 72
     9
 73
     5
 74
     0
 42
0.000000001
 43
0.00000001
 40
0.0
 40
0.0
 40
0.0
 40
0.0
 40
0.4419007318790464
 40
1.0
 40
1.0
 40
1.0
 40
1.0
 10
-19.84375
 20
-0.469982661548471
 30
0.0
 10
-19.84375
 20
-0.4702733174115661
 30
0.0
 10
-19.84375
 20
-0.4709310575828933
 30
0.0
 10
-19.84375
 20
-0.467383923731127
 30
0.0
 10
-19.84375
 20
-0.4654042709245303
 30
0.0
  0
SPLINE
  5
24A
330
1F
100
AcDbEntity
  8
외형선
  6
Continuous
370
    15
100
AcDbSpline
210
0.0
220
0.0
230
1.0
 70
    24
 71
     3
 72
    11
 73
     7
 74
     0
 42
0.000000001
 43
0.00000001
 40
0.0
 40
0.0
 40
0.0
 40
0.0
 40
0.07665835321801
 40
0.4825490649966208
 40
0.739734979862151
 40
1.0
 40
1.0
 40
1.0
 40
1.0
 10
-19.84375
 20
-0.4307884502334023
 30
0.0
 10
-19.84375
 20
-0.4287784697000596
 30
0.0
 10
-19.84375
 20
-0.4161260425827216
 30
0.0
 10
-19.84375
 20
-0.3805791069674722
 30
0.0
 10
-19.84374999999999
 20
-0.3305621076921703
 30
0.0
 10
-19.84375
 20
-0.2963438409200965
 30
0.0
 10
-19.84375
 20
-0.2791328991900208
 30
0.0
  0
SPLINE
  5
24B
330
1F
100
AcDbEntity
  8
0
  6
Continuous
 62
     1
370
    15
100
AcDbSpline
210
0.0
220
0.0
230
1.0
 70
     8
 71
     3
 72
    26
 73
    22
 74
     0
 42
0.000000001
 43
0.00000001
 40
0.0
 40
0.0
 40
0.0
 40
0.0
 40
0.1249999999999996
 40
0.1249999999999996
 40
0.2499999999999992
 40
0.2499999999999992
 40
0.3124999999999992
 40
0.3124999999999992
 40
0.3749999999999993
 40
0.3749999999999993
 40
0.4999999999999993
 40
0.4999999999999993
 40
0.5624999999999993
 40
0.5624999999999993
 40
0.6249999999999993
 40
0.6249999999999993
 40
0.7499999999999996
 40
0.7499999999999996
 40
0.8749999999999997
 40
0.8749999999999997
 40
1.0
 40
1.0
 40
1.0
 40
1.0
 10
-25.39999999999999
 20
1.694749083643831
 30
0.0
 10
-25.17138337440826
 20
1.652765852492699
 30
0.0
 10
-24.93665318948682
 20
1.596116663157005
 30
0.0
 10
-24.47244375034789
 20
1.457307991360043
 30
0.0
 10
-24.24443302650412
 20
1.37551980681615
 30
0.0
 10
-23.89521344961948
 20
1.235726209157571
 30
0.0
 10
-23.77858893271051
 20
1.186388340594792
 30
0.0
 10
-23.54710375152519
 20
1.083193323238143
 30
0.0
 10
-23.43321153710796
 20
1.029500600165342
 30
0.0
 10
-23.0871416058345
 20
0.8616281493534217
 30
0.0
 10
-22.852048140072
 20
0.7407566053202093
 30
0.0
 10
-22.50601212344831
 20
0.5527889397144836
 30
0.0
 10
-22.39211152643623
 20
0.489111086946167
 30
0.0
 10
-22.16060821197104
 20
0.3592911672456012
 30
0.0
 10
-22.04398025588852
 20
0.2933241978933641
 30
0.0
 10
-21.69476756622313
 20
0.094109388422746
 30
0.0
 10
-21.46677128453089
 20
-0.0396877142877781
 30
0.0
 10
-21.00253462378692
 20
-0.3059575710165419
 30
0.0
 10
-20.7678763024758
 20
-0.4380861546086088
 30
0.0
 10
-20.31058051201187
 20
-0.6906348707127687
 30
0.0
 10
-20.07584099197695
 20
-0.8132568011045898
 30
0.0
 10
-19.84375000000403
 20
-0.9275592918314928
 30
0.0
1001
PE_URL
1000

  0
SPLINE
  5
24C
330
1F
100
AcDbEntity
  8
0
  6
Continuous
 62
     1
370
    15
100
AcDbSpline
210
0.0
220
0.0
230
1.0
 70
     8
 71
     3
 72
    13
 73
     9
 74
     0
 42
0.000000001
 43
0.00000001
 40
0.0
 40
0.0
 40
0.0
 40
0.0
 40
0.1733628993170271
 40
0.3464669142010935
 40
0.5194456794883415
 40
0.6924345525663717
 40
0.8655687515144076
 40
0.9999999999999999
 40
0.9999999999999999
 40
0.9999999999999999
 40
0.9999999999999999
 10
-25.39999999999999
 20
1.409055153395096
 30
0.0
 10
-25.13104407325364
 20
1.350752574943135
 30
0.0
 10
-24.5935338541525
 20
1.234234481822885
 30
0.0
 10
-23.78791386736223
 20
0.9506253892306695
 30
0.0
 10
-22.98294379207202
 20
0.6095409064176494
 30
0.0
 10
-22.17791778637154
 20
0.2264496239610665
 30
0.0
 10
-21.43260170317211
 20
-0.1449453226921058
 30
0.0
 10
-20.95542890899319
 20
-0.369405677445263
 30
0.0
 10
-20.74686538210784
 20
-0.4675132053771769
 30
0.0
1001
PE_URL
1000

  0
LINE
  5
24D
330
1F
100
AcDbEntity
  8
0
  6
Continuous
 62
     1
370
    15
100
AcDbLine
 10
-25.39999999999996
 20
1.694749083643831
 30
0.0
 11
-25.39999999999999
 21
1.409055153395096
 31
0.0
1001
PE_URL
1000

  0
LINE
  5
24E
330
1F
100
AcDbEntity
  8
0
  6
Continuous
 62
     1
370
    15
100
AcDbLine
 10
-25.39999999999999
 20
1.784428052824175
 30
0.0
 11
-25.39999999999999
 21
1.694749083643828
 31
0.0
1001
PE_URL
1000

  0
SPLINE
  5
24F
330
1F
100
AcDbEntity
  8
0
  6
Continuous
 62
     1
370
    15
100
AcDbSpline
210
0.0
220
0.0
230
1.0
 70
     8
 71
     3
 72
     8
 73
     4
 74
     0
 42
0.000000001
 43
0.00000001
 40
0.0
 40
0.0
 40
0.0
 40
0.0
 40
1.0
 40
1.0
 40
1.0
 40
1.0
 10
-24.29435610163608
 20
-0.5001697058188626
 30
0.0
 10
-24.23111190382925
 20
-0.5750934330415873
 30
0.0
 10
-24.17465597961276
 20
-0.6472264353891735
 30
0.0
 10
-24.12659004714621
 20
-0.7159102310471201
 30
0.0
1001
PE_URL
1000

  0
LINE
  5
250
330
1F
100
AcDbEntity
  8
0
  6
Continuous
 62
     1
370
    15
100
AcDbLine
 10
-24.14921237855562
 20
-0.7348926209891218
 30
0.0
 11
-25.39999999999999
 21
-0.0000000000000178
 31
0.0
1001
PE_URL
1000

  0
LINE
  5
251
330
1F
100
AcDbEntity
  8
0
  6
Continuous
 62
     1
370
    15
100
AcDbLine
 10
-25.39999999999999
 20
-0.0000000000000178
 30
0.0
 11
-25.39999999999999
 21
0.4772791989248013
 31
0.0
1001
PE_URL
1000

  0
SPLINE
  5
252
330
1F
100
AcDbEntity
  8
0
  6
Continuous
 62
     1
370
    15
100
AcDbSpline
210
0.0
220
0.0
230
1.0
 70
     8
 71
     3
 72
    10
 73
     6
 74
     0
 42
0.000000001
 43
0.00000001
 40
0.0
 40
0.0
 40
0.0
 40
0.0
 40
0.5
 40
0.5
 40
1.0
 40
1.0
 40
1.0
 40
1.0
 10
-25.39999999999999
 20
0.4772791989248013
 30
0.0
 10
-25.20860029268921
 20
0.326804601810764
 30
0.0
 10
-25.02040107205845
 20
0.170154981572983
 30
0.0
 10
-24.6505566728995
 20
-0.155789636178902
 30
0.0
 10
-24.46719088418341
 20
-0.3268069389701544
 30
0.0
 10
-24.29435610163608
 20
-0.5001697058188626
 30
0.0
1001
PE_URL
1000

  0
SPLINE
  5
253
330
1F
100
AcDbEntity
  8
0
  6
Continuous
 62
     1
370
    15
100
AcDbSpline
210
0.0
220
0.0
230
1.0
 70
     8
 71
     3
 72
    13
 73
     9
 74
     0
 42
0.000000001
 43
0.00000001
 40
0.0
 40
0.0
 40
0.0
 40
0.0
 40
0.1232659397717296
 40
0.3191301219598511
 40
0.5150059267572298
 40
0.7110486240501186
 40
0.907401216140739
 40
1.0
 40
1.0
 40
1.0
 40
1.0
 10
-24.29435610161087
 20
-0.5001697058297943
 30
0.0
 10
-24.12547536675233
 20
-0.5716916815401287
 30
0.0
 10
-23.68825053715317
 20
-0.7568589456969281
 30
0.0
 10
-22.98297826979386
 20
-1.017224169766274
 30
0.0
 10
-22.17792875345676
 20
-1.248328615813371
 30
0.0
 10
-21.3721881739997
 20
-1.390458462510015
 30
0.0
 10
-20.70761910130009
 20
-1.443950786360791
 30
0.0
 10
-20.31182161934451
 20
-1.418021358353307
 30
0.0
 10
-20.1849824050886
 20
-1.409711885897032
 30
0.0
1001
PE_URL
1000

  0
SPLINE
  5
254
330
1F
100
AcDbEntity
  8
0
  6
Continuous
 62
     1
370
    15
100
AcDbSpline
210
0.0
220
0.0
230
1.0
 70
    24
 71
     3
 72
    10
 73
     6
 74
     0
 42
0.000000001
 43
0.00000001
 40
0.0
 40
0.0
 40
0.0
 40
0.0
 40
0.5000000000000001
 40
0.5000000000000001
 40
1.0
 40
1.0
 40
1.0
 40
1.0
 10
-25.39999999999999
 20
1.409055153395094
 30
0.0
 10
-25.39999999999999
 20
1.301040090048968
 30
0.0
 10
-25.39999999999999
 20
1.164558915789193
 30
0.0
 10
-25.39999999999999
 20
0.8472533204831514
 30
0.0
 10
-25.39999999999999
 20
0.666703761574432
 30
0.0
 10
-25.39999999999999
 20
0.4772791989248582
 30
0.0
1001
PE_URL
1000

  0
SPLINE
  5
255
330
1F
100
AcDbEntity
  8
외형선
  6
Continuous
370
    15
100
AcDbSpline
210
0.0
220
0.0
230
1.0
 70
    24
 71
     3
 72
    12
 73
     8
 74
     0
 42
0.000000001
 43
0.00000001
 40
0.0
 40
0.0
 40
0.0
 40
0.0
 40
0.1151042189300297
 40
0.3648909303315109
 40
0.6219214732853887
 40
0.8462165561925922
 40
1.0
 40
1.0
 40
1.0
 40
1.0
 10
-19.84375
 20
-1.399686524601762
 30
0.0
 10
-19.84375
 20
-1.397490016288813
 30
0.0
 10
-19.84375
 20
-1.390526883492782
 30
0.0
 10
-19.84375
 20
-1.331904266376462
 30
0.0
 10
-19.84375
 20
-1.215908289686006
 30
0.0
 10
-19.84375
 20
-1.078508413687084
 30
0.0
 10
-19.84375
 20
-0.9712049688793858
 30
0.0
 10
-19.84375
 20
-0.9275592918336191
 30
0.0
  0
SPLINE
  5
256
330
1F
100
AcDbEntity
  8
0
  6
Continuous
 62
     1
370
    15
100
AcDbSpline
210
0.0
220
0.0
230
1.0
 70
    24
 71
     3
 72
     8
 73
     4
 74
     0
 42
0.000000001
 43
0.00000001
 40
0.0
 40
0.0
 40
0.0
 40
0.0
 40
1.0
 40
1.0
 40
1.0
 40
1.0
 10
-24.31313864972741
 20
-0.8724430946696451
 30
0.0
 10
-24.25430635214334
 20
-0.8230769354655365
 30
0.0
 10
-24.19168193045708
 20
-0.7705288063258724
 30
0.0
 10
-24.12659004714623
 20
-0.7159102310471095
 30
0.0
1001
PE_URL
1000

  0
LINE
  5
257
330
1F
100
AcDbEntity
  8
0
  6
Continuous
 62
     1
370
    15
100
AcDbLine
 10
-25.39999999999999
 20
-1.250156250000014
 30
0.0
 11
-24.73423954848024
 21
-1.215329613718286
 31
0.0
1001
PE_URL
1000

  0
SPLINE
  5
258
330
1F
100
AcDbEntity
  8
0
  6
Continuous
 62
     1
370
    15
100
AcDbSpline
210
0.0
220
0.0
230
1.0
 70
     8
 71
     3
 72
     8
 73
     4
 74
     0
 42
0.000000001
 43
0.00000001
 40
0.0
 40
0.0
 40
0.0
 40
0.0
 40
1.0
 40
1.0
 40
1.0
 40
1.0
 10
-25.39999999999999
 20
-1.250156250000018
 30
0.0
 10
-25.03261042659126
 20
-1.150364973519945
 30
0.0
 10
-24.66880184550124
 20
-1.027858575372528
 30
0.0
 10
-24.3131386497269
 20
-0.8724430946699684
 30
0.0
1001
PE_URL
1000

  0
SPLINE
  5
259
330
1F
100
AcDbEntity
  8
0
  6
Continuous
 62
     1
370
    15
100
AcDbSpline
210
0.0
220
0.0
230
1.0
 70
     8
 71
     3
 72
    10
 73
     6
 74
     0
 42
0.000000001
 43
0.00000001
 40
0.0
 40
0.0
 40
0.0
 40
0.0
 40
0.1395979672093107
 40
0.5937595270608051
 40
1.0
 40
1.0
 40
1.0
 40
1.0
 10
-21.6205675357338
 20
1.333160301923542
 30
0.0
 10
-21.53789948426783
 20
1.348872140533135
 30
0.0
 10
-21.18628302363644
 20
1.415700147047721
 30
0.0
 10
-20.59384627263564
 20
1.443750181453101
 30
0.0
 10
-20.08432258735411
 20
1.409059886576932
 30
0.0
 10
-19.84375000036112
 20
1.392680797197999
 30
0.0
1001
PE_URL
1000

  0
SPLINE
  5
25A
330
1F
100
AcDbEntity
  8
외형선
  6
Continuous
370
    15
100
AcDbSpline
210
0.0
220
0.0
230
1.0
 70
    24
 71
     3
 72
    14
 73
    10
 74
     0
 42
0.000000001
 43
0.00000001
 40
0.0
 40
0.0
 40
0.0
 40
0.0
 40
0.2499999999999999
 40
0.2499999999999999
 40
0.4999999999999999
 40
0.4999999999999999
 40
0.7499999999999999
 40
0.7499999999999999
 40
1.0
 40
1.0
 40
1.0
 40
1.0
 10
-19.84374999999999
 20
-0.2791328991900226
 30
0.0
 10
-19.84374999999999
 20
-0.1209353862904727
 30
0.0
 10
-19.84374999999999
 20
0.0425484775051306
 30
0.0
 10
-19.84374999999999
 20
0.3651434640411555
 30
0.0
 10
-19.84374999999999
 20
0.524089257835124
 30
0.0
 10
-19.84374999999999
 20
0.8212187519213927
 30
0.0
 10
-19.84374999999999
 20
0.9592441291967884
 30
0.0
 10
-19.84374999999999
 20
1.202125569275289
 30
0.0
 10
-19.84374999999999
 20
1.306928265109079
 30
0.0
 10
-19.84374999999999
 20
1.392680797160823
 30
0.0
  0
LINE
  5
25B
330
1F
100
AcDbEntity
  8
0
  6
Continuous
 62
     1
370
    15
100
AcDbLine
 10
-25.39999999999999
 20
-0.0000000000000178
 30
0.0
 11
-25.39999999999999
 21
-1.250156250000018
 31
0.0
1001
PE_URL
1000

  0
SPLINE
  5
25C
330
1F
100
AcDbEntity
  8
0
  6
Continuous
 62
     1
370
    15
100
AcDbSpline
210
0.0
220
0.0
230
1.0
 70
    24
 71
     3
 72
    10
 73
     6
 74
     0
 42
0.000000001
 43
0.00000001
 40
0.0
 40
0.0
 40
0.0
 40
0.0
 40
0.5
 40
0.5
 40
1.0
 40
1.0
 40
1.0
 40
1.0
 10
-25.39999999999999
 20
-1.250156250000014
 30
0.0
 10
-25.39999999999999
 20
-1.32593760864183
 30
0.0
 10
-25.39999999999999
 20
-1.414002565492382
 30
0.0
 10
-25.39999999999999
 20
-1.598762607778543
 30
0.0
 10
-25.39999999999999
 20
-1.694985839251707
 30
0.0
 10
-25.39999999999999
 20
-1.784428052824207
 30
0.0
1001
PE_URL
1000

  0
SPLINE
  5
25D
330
1F
100
AcDbEntity
  8
0
  6
Continuous
 62
     1
370
    15
100
AcDbSpline
210
0.0
220
0.0
230
1.0
 70
     8
 71
     3
 72
    15
 73
    11
 74
     0
 42
0.000000001
 43
0.00000001
 40
0.0
 40
0.0
 40
0.0
 40
0.0
 40
0.0383245097346125
 40
0.2484492493083946
 40
0.3538157226539098
 40
0.4596032377587778
 40
0.5937440921640201
 40
0.7282659071246625
 40
0.8639367655201279
 40
1.0
 40
1.0
 40
1.0
 40
1.0
 10
-22.94819655231807
 20
-1.19942944934817
 30
0.0
 10
-22.97954726274008
 20
-1.213009145406506
 30
0.0
 10
-23.18278692643238
 20
-1.301043286349032
 30
0.0
 10
-23.47164472261754
 20
-1.409714592959553
 30
0.0
 10
-23.81589921310011
 20
-1.521603051873644
 30
0.0
 10
-24.09849659260621
 20
-1.600931598733922
 30
0.0
 10
-24.40437319571318
 20
-1.67276018837989
 30
0.0
 10
-24.73438320486725
 20
-1.730840477120289
 30
0.0
 10
-25.06702594072182
 20
-1.77044197364091
 30
0.0
 10
-25.28890185279753
 20
-1.779761540702335
 30
0.0
 10
-25.39999999999999
 20
-1.784428052824207
 30
0.0
1001
PE_URL
1000

  0
ENDSEC
  0
SECTION
  2
OBJECTS
  0
DICTIONARY
  5
C
330
0
100
AcDbDictionary
281
     1
  3
ACAD_GROUP
350
D
  3
ACAD_IMAGE_VARS
350
281
  3
ACAD_LAYOUT
350
1A
  3
ACAD_MLINESTYLE
350
17
  3
ACAD_PLOTSETTINGS
350
19
  3
ACAD_PLOTSTYLENAME
350
E
  3
ACAD_SCALELIST
350
47
  3
APPDATA
350
157
  3
DWGPROPS
350
282
  0
DICTIONARY
  5
190
330
2
100
AcDbDictionary
280
     1
281
     1
  3
ACAD_LAYERSTATES
360
191
  0
DICTIONARY
  5
D
102
{ACAD_REACTORS
330
C
102
}
330
C
100
AcDbDictionary
281
     1
  0
RASTERVARIABLES
  5
281
102
{ACAD_REACTORS
330
C
102
}
330
C
100
AcDbRasterVariables
 90
        0
 70
     1
 71
     1
 72
     1
  0
DICTIONARY
  5
1A
102
{ACAD_REACTORS
330
C
102
}
330
C
100
AcDbDictionary
281
     1
  3
Layout1
350
1E
  3
Layout2
350
26
  3
Model
350
22
  0
DICTIONARY
  5
17
102
{ACAD_REACTORS
330
C
102
}
330
C
100
AcDbDictionary
281
     1
  3
Standard
350
18
  0
DICTIONARY
  5
19
102
{ACAD_REACTORS
330
C
102
}
330
C
100
AcDbDictionary
281
     1
  0
ACDBDICTIONARYWDFLT
  5
E
102
{ACAD_REACTORS
330
C
102
}
330
C
100
AcDbDictionary
281
     1
  3
Normal
350
F
100
AcDbDictionaryWithDefault
340
F
  0
DICTIONARY
  5
47
102
{ACAD_REACTORS
330
C
102
}
330
C
100
AcDbDictionary
281
     1
  3
A0
350
48
  3
A1
350
49
  3
A2
350
4A
  3
A3
350
4B
  3
A4
350
4C
  3
A5
350
4D
  3
A6
350
4E
  3
A7
350
4F
  3
A8
350
50
  3
A9
350
51
  3
B0
350
52
  3
B1
350
53
  3
B2
350
54
  3
B3
350
55
  3
B4
350
56
  3
B5
350
57
  3
B6
350
58
  3
B7
350
59
  3
B8
350
5A
  3
B9
350
5B
  3
C0
350
5C
  3
C1
350
5D
  3
C2
350
5E
  3
C3
350
5F
  3
C4
350
60
  3
C5
350
61
  3
C6
350
62
  3
C7
350
63
  3
C8
350
64
  3
C9
350
65
  3
D0
350
66
  3
D1
350
67
  3
D2
350
68
  0
DICTIONARY
  5
157
102
{ACAD_REACTORS
330
C
102
}
330
C
100
AcDbDictionary
281
     1
  0
XRECORD
  5
282
102
{ACAD_REACTORS
330
C
102
}
330
C
100
AcDbXrecord
280
     1
  1
DWGPROPS COOKIE
  2

  3

  4

  6

  7

  8
12016016
  9

300
=
301
=
302
=
303
=
304
=
305
=
306
=
307
=
308
=
309
=
 40
0.0
 41
2458313.013687095
 42
2458318.269843136
  1

 90
        0
  0
DICTIONARY
  5
191
102
{ACAD_REACTORS
330
190
102
}
330
190
100
AcDbDictionary
281
     1
  0
LAYOUT
  5
1E
102
{ACAD_REACTORS
330
1A
102
}
330
1A
100
AcDbPlotSettings
  1

  2
none_device
  4

  6

 40
0.0
 41
0.0
 42
0.0
 43
0.0
 44
0.0
 45
0.0
 46
0.0
 47
0.0
 48
0.0
 49
0.0
140
0.0
141
0.0
142
1.0
143
1.0
 70
   688
 72
     1
 73
     0
 74
     5
  7

 75
    16
147
1.0
148
0.0
149
0.0
100
AcDbLayout
  1
Layout1
 70
     1
 71
     1
 10
0.0
 20
0.0
 11
420.0
 21
297.0
 12
0.0
 22
0.0
 32
0.0
 14
1.000000000000000E+20
 24
1.000000000000000E+20
 34
1.000000000000000E+20
 15
-1.000000000000000E+20
 25
-1.000000000000000E+20
 35
-1.000000000000000E+20
146
0.0
 13
0.0
 23
0.0
 33
0.0
 16
1.0
 26
0.0
 36
0.0
 17
0.0
 27
1.0
 37
0.0
 76
     0
330
1B
  0
LAYOUT
  5
26
102
{ACAD_REACTORS
330
1A
102
}
330
1A
100
AcDbPlotSettings
  1

  2
none_device
  4

  6

 40
0.0
 41
0.0
 42
0.0
 43
0.0
 44
0.0
 45
0.0
 46
0.0
 47
0.0
 48
0.0
 49
0.0
140
0.0
141
0.0
142
1.0
143
1.0
 70
   688
 72
     1
 73
     0
 74
     5
  7

 75
    16
147
1.0
148
0.0
149
0.0
100
AcDbLayout
  1
Layout2
 70
     1
 71
     2
 10
0.0
 20
0.0
 11
0.0
 21
0.0
 12
0.0
 22
0.0
 32
0.0
 14
0.0
 24
0.0
 34
0.0
 15
0.0
 25
0.0
 35
0.0
146
0.0
 13
0.0
 23
0.0
 33
0.0
 16
1.0
 26
0.0
 36
0.0
 17
0.0
 27
1.0
 37
0.0
 76
     0
330
23
  0
LAYOUT
  5
22
102
{ACAD_REACTORS
330
1A
102
}
330
1A
100
AcDbPlotSettings
  1

  2
none_device
  4
ANSI_A_(11.00_x_8.50_Inches)
  6

 40
6.35
 41
19.05
 42
6.35000508
 43
19.05000254
 44
279.4
 45
215.9
 46
111.0171446453121
 47
87.04648573300497
 48
0.0
 49
0.0
140
0.0
141
0.0
142
0.0778729003683479
143
1.0
 70
  1696
 72
     0
 73
     0
 74
     0
  7

 75
     0
147
0.0235690232323232
148
0.0
149
0.0
100
AcDbLayout
  1
Model
 70
     1
 71
     0
 10
0.0
 20
0.0
 11
420.0
 21
297.0
 12
0.0
 22
0.0
 32
0.0
 14
-39.77500000000011
 24
-49.97180738881175
 34
0.0
 15
90.65037503295505
 25
37.26342805282434
 35
0.0
146
0.0
 13
0.0
 23
0.0
 33
0.0
 16
1.0
 26
0.0
 36
0.0
 17
0.0
 27
1.0
 37
0.0
 76
     0
330
1F
331
29
  0
MLINESTYLE
  5
18
102
{ACAD_REACTORS
330
17
102
}
330
17
100
AcDbMlineStyle
  2
Standard
 70
     0
  3

 62
   256
 51
90.0
 52
90.0
 71
     2
 49
0.5
 62
   256
  6
BYLAYER
 49
-0.5
 62
   256
  6
BYLAYER
  0
ACDBPLACEHOLDER
  5
F
102
{ACAD_REACTORS
330
E
102
}
330
E
  0
SCALE
  5
48
102
{ACAD_REACTORS
330
47
102
}
330
47
100
AcDbScale
 70
     0
300
1:1
140
1.0
141
1.0
290
     1
  0
SCALE
  5
49
102
{ACAD_REACTORS
330
47
102
}
330
47
100
AcDbScale
 70
     0
300
1:2
140
1.0
141
2.0
290
     0
  0
SCALE
  5
4A
102
{ACAD_REACTORS
330
47
102
}
330
47
100
AcDbScale
 70
     0
300
1:4
140
1.0
141
4.0
290
     0
  0
SCALE
  5
4B
102
{ACAD_REACTORS
330
47
102
}
330
47
100
AcDbScale
 70
     0
300
1:5
140
1.0
141
5.0
290
     0
  0
SCALE
  5
4C
102
{ACAD_REACTORS
330
47
102
}
330
47
100
AcDbScale
 70
     0
300
1:8
140
1.0
141
8.0
290
     0
  0
SCALE
  5
4D
102
{ACAD_REACTORS
330
47
102
}
330
47
100
AcDbScale
 70
     0
300
1:10
140
1.0
141
10.0
290
     0
  0
SCALE
  5
4E
102
{ACAD_REACTORS
330
47
102
}
330
47
100
AcDbScale
 70
     0
300
1:16
140
1.0
141
16.0
290
     0
  0
SCALE
  5
4F
102
{ACAD_REACTORS
330
47
102
}
330
47
100
AcDbScale
 70
     0
300
1:20
140
1.0
141
20.0
290
     0
  0
SCALE
  5
50
102
{ACAD_REACTORS
330
47
102
}
330
47
100
AcDbScale
 70
     0
300
1:30
140
1.0
141
30.0
290
     0
  0
SCALE
  5
51
102
{ACAD_REACTORS
330
47
102
}
330
47
100
AcDbScale
 70
     0
300
1:40
140
1.0
141
40.0
290
     0
  0
SCALE
  5
52
102
{ACAD_REACTORS
330
47
102
}
330
47
100
AcDbScale
 70
     0
300
1:50
140
1.0
141
50.0
290
     0
  0
SCALE
  5
53
102
{ACAD_REACTORS
330
47
102
}
330
47
100
AcDbScale
 70
     0
300
1:100
140
1.0
141
100.0
290
     0
  0
SCALE
  5
54
102
{ACAD_REACTORS
330
47
102
}
330
47
100
AcDbScale
 70
     0
300
2:1
140
2.0
141
1.0
290
     0
  0
SCALE
  5
55
102
{ACAD_REACTORS
330
47
102
}
330
47
100
AcDbScale
 70
     0
300
4:1
140
4.0
141
1.0
290
     0
  0
SCALE
  5
56
102
{ACAD_REACTORS
330
47
102
}
330
47
100
AcDbScale
 70
     0
300
8:1
140
8.0
141
1.0
290
     0
  0
SCALE
  5
57
102
{ACAD_REACTORS
330
47
102
}
330
47
100
AcDbScale
 70
     0
300
10:1
140
10.0
141
1.0
290
     0
  0
SCALE
  5
58
102
{ACAD_REACTORS
330
47
102
}
330
47
100
AcDbScale
 70
     0
300
100:1
140
100.0
141
1.0
290
     0
  0
SCALE
  5
59
102
{ACAD_REACTORS
330
47
102
}
330
47
100
AcDbScale
 70
     0
300
1/128" = 1'-0"
140
0.0078125
141
12.0
290
     0
  0
SCALE
  5
5A
102
{ACAD_REACTORS
330
47
102
}
330
47
100
AcDbScale
 70
     0
300
1/64" = 1'-0"
140
0.015625
141
12.0
290
     0
  0
SCALE
  5
5B
102
{ACAD_REACTORS
330
47
102
}
330
47
100
AcDbScale
 70
     0
300
1/32" = 1'-0"
140
0.03125
141
12.0
290
     0
  0
SCALE
  5
5C
102
{ACAD_REACTORS
330
47
102
}
330
47
100
AcDbScale
 70
     0
300
1/16" = 1'-0"
140
0.0625
141
12.0
290
     0
  0
SCALE
  5
5D
102
{ACAD_REACTORS
330
47
102
}
330
47
100
AcDbScale
 70
     0
300
3/32" = 1'-0"
140
0.09375
141
12.0
290
     0
  0
SCALE
  5
5E
102
{ACAD_REACTORS
330
47
102
}
330
47
100
AcDbScale
 70
     0
300
1/8" = 1'-0"
140
0.125
141
12.0
290
     0
  0
SCALE
  5
5F
102
{ACAD_REACTORS
330
47
102
}
330
47
100
AcDbScale
 70
     0
300
3/16" = 1'-0"
140
0.1875
141
12.0
290
     0
  0
SCALE
  5
60
102
{ACAD_REACTORS
330
47
102
}
330
47
100
AcDbScale
 70
     0
300
1/4" = 1'-0"
140
0.25
141
12.0
290
     0
  0
SCALE
  5
61
102
{ACAD_REACTORS
330
47
102
}
330
47
100
AcDbScale
 70
     0
300
3/8" = 1'-0"
140
0.375
141
12.0
290
     0
  0
SCALE
  5
62
102
{ACAD_REACTORS
330
47
102
}
330
47
100
AcDbScale
 70
     0
300
1/2" = 1'-0"
140
0.5
141
12.0
290
     0
  0
SCALE
  5
63
102
{ACAD_REACTORS
330
47
102
}
330
47
100
AcDbScale
 70
     0
300
3/4" = 1'-0"
140
0.75
141
12.0
290
     0
  0
SCALE
  5
64
102
{ACAD_REACTORS
330
47
102
}
330
47
100
AcDbScale
 70
     0
300
1" = 1'-0"
140
1.0
141
12.0
290
     0
  0
SCALE
  5
65
102
{ACAD_REACTORS
330
47
102
}
330
47
100
AcDbScale
 70
     0
300
1-1/2" = 1'-0"
140
1.5
141
12.0
290
     0
  0
SCALE
  5
66
102
{ACAD_REACTORS
330
47
102
}
330
47
100
AcDbScale
 70
     0
300
3" = 1'-0"
140
3.0
141
12.0
290
     0
  0
SCALE
  5
67
102
{ACAD_REACTORS
330
47
102
}
330
47
100
AcDbScale
 70
     0
300
6" = 1'-0"
140
6.0
141
12.0
290
     0
  0
SCALE
  5
68
102
{ACAD_REACTORS
330
47
102
}
330
47
100
AcDbScale
 70
     0
300
1'-0" = 1'-0"
140
12.0
141
12.0
290
     0
  0
ENDSEC
  0
EOF
