  0
SECTION
  2
HEADER
  9
$ACADVER
  1
AC1015
  9
$ACADMAINTVER
 70
     6
  9
$DWGCODEPAGE
  3
ANSI_949
  9
$INSBASE
 10
0.0
 20
0.0
 30
0.0
  9
$EXTMIN
 10
-39.77500000000012
 20
-49.97180738881175
 30
0.0
  9
$EXTMAX
 10
90.25350003295506
 20
37.46169783647148
 30
0.0
  9
$LIMMIN
 10
0.0
 20
0.0
  9
$LIMMAX
 10
420.0
 20
297.0
  9
$ORTHOMODE
 70
     1
  9
$REGENMODE
 70
     1
  9
$FILLMODE
 70
     1
  9
$QTEXTMODE
 70
     0
  9
$MIRRTEXT
 70
     1
  9
$LTSCALE
 40
1.0
  9
$ATTMODE
 70
     1
  9
$TEXTSIZE
 40
3.5
  9
$TRACEWID
 40
1.0
  9
$TEXTSTYLE
  7
Standard
  9
$CLAYER
  8
0
  9
$CELTYPE
  6
ByLayer
  9
$CECOLOR
 62
   256
  9
$CELTSCALE
 40
1.0
  9
$DISPSILH
 70
     0
  9
$DIMSCALE
 40
1.0
  9
$DIMASZ
 40
3.302
  9
$DIMEXO
 40
1.0
  9
$DIMDLI
 40
3.75
  9
$DIMRND
 40
0.0
  9
$DIMDLE
 40
0.0
  9
$DIMEXE
 40
1.0
  9
$DIMTP
 40
0.0
  9
$DIMTM
 40
0.0
  9
$DIMTXT
 40
3.5
  9
$DIMCEN
 40
2.5
  9
$DIMTSZ
 40
0.0
  9
$DIMTOL
 70
     0
  9
$DIMLIM
 70
     0
  9
$DIMTIH
 70
     1
  9
$DIMTOH
 70
     1
  9
$DIMSE1
 70
     0
  9
$DIMSE2
 70
     0
  9
$DIMTAD
 70
     1
  9
$DIMZIN
 70
     0
  9
$DIMBLK
  1

  9
$DIMASO
 70
     1
  9
$DIMSHO
 70
     1
  9
$DIMPOST
  1

  9
$DIMAPOST
  1

  9
$DIMALT
 70
     0
  9
$DIMALTD
 70
     3
  9
$DIMALTF
 40
0.0393700787401575
  9
$DIMLFAC
 40
1.0
  9
$DIMTOFL
 70
     1
  9
$DIMTVP
 40
0.0
  9
$DIMTIX
 70
     0
  9
$DIMSOXD
 70
     0
  9
$DIMSAH
 70
     0
  9
$DIMBLK1
  1

  9
$DIMBLK2
  1

  9
$DIMSTYLE
  2
ISO-25
  9
$DIMCLRD
 70
     0
  9
$DIMCLRE
 70
     0
  9
$DIMCLRT
 70
     0
  9
$DIMTFAC
 40
1.0
  9
$DIMGAP
 40
1.524
  9
$DIMJUST
 70
     0
  9
$DIMSD1
 70
     0
  9
$DIMSD2
 70
     0
  9
$DIMTOLJ
 70
     0
  9
$DIMTZIN
 70
     0
  9
$DIMALTZ
 70
     0
  9
$DIMALTTZ
 70
     0
  9
$DIMUPT
 70
     0
  9
$DIMDEC
 70
     2
  9
$DIMTDEC
 70
     2
  9
$DIMALTU
 70
     2
  9
$DIMALTTD
 70
     3
  9
$DIMTXSTY
  7
Standard
  9
$DIMAUNIT
 70
     0
  9
$DIMADEC
 70
     2
  9
$DIMALTRND
 40
0.0
  9
$DIMAZIN
 70
     0
  9
$DIMDSEP
 70
    44
  9
$DIMATFIT
 70
     3
  9
$DIMFRAC
 70
     0
  9
$DIMLDRBLK
  1

  9
$DIMLUNIT
 70
     2
  9
$DIMLWD
 70
    -2
  9
$DIMLWE
 70
    -2
  9
$DIMTMOVE
 70
     0
  9
$LUNITS
 70
     2
  9
$LUPREC
 70
     2
  9
$SKETCHINC
 40
1.0
  9
$FILLETRAD
 40
10.0
  9
$AUNITS
 70
     0
  9
$AUPREC
 70
     2
  9
$MENU
  1
.
  9
$ELEVATION
 40
0.0
  9
$PELEVATION
 40
0.0
  9
$THICKNESS
 40
0.0
  9
$LIMCHECK
 70
     0
  9
$CHAMFERA
 40
0.0
  9
$CHAMFERB
 40
0.0
  9
$CHAMFERC
 40
0.0
  9
$CHAMFERD
 40
0.0
  9
$SKPOLY
 70
     0
  9
$TDCREATE
 40
2458313.388898889
  9
$TDUCREATE
 40
2458313.013898889
  9
$TDUPDATE
 40
2458318.644794664
  9
$TDUUPDATE
 40
2458318.269794664
  9
$TDINDWG
 40
0.0022298264
  9
$TDUSRTIMER
 40
2458318.269755567
  9
$USRTIMER
 70
     1
  9
$ANGBASE
 50
0.0
  9
$ANGDIR
 70
     0
  9
$PDMODE
 70
     0
  9
$PDSIZE
 40
-1.0
  9
$PLINEWID
 40
0.0
  9
$SPLFRAME
 70
     0
  9
$SPLINETYPE
 70
     6
  9
$SPLINESEGS
 70
     8
  9
$HANDSEED
  5
2A9
  9
$SURFTAB1
 70
     6
  9
$SURFTAB2
 70
     6
  9
$SURFTYPE
 70
     6
  9
$SURFU
 70
     6
  9
$SURFV
 70
     6
  9
$UCSBASE
  2

  9
$UCSNAME
  2

  9
$UCSORG
 10
0.0
 20
0.0
 30
0.0
  9
$UCSXDIR
 10
1.0
 20
0.0
 30
0.0
  9
$UCSYDIR
 10
0.0
 20
1.0
 30
0.0
  9
$UCSORTHOREF
  2

  9
$UCSORTHOVIEW
 70
     0
  9
$UCSORGTOP
 10
0.0
 20
0.0
 30
0.0
  9
$UCSORGBOTTOM
 10
0.0
 20
0.0
 30
0.0
  9
$UCSORGLEFT
 10
0.0
 20
0.0
 30
0.0
  9
$UCSORGRIGHT
 10
0.0
 20
0.0
 30
0.0
  9
$UCSORGFRONT
 10
0.0
 20
0.0
 30
0.0
  9
$UCSORGBACK
 10
0.0
 20
0.0
 30
0.0
  9
$PUCSBASE
  2

  9
$PUCSNAME
  2

  9
$PUCSORG
 10
0.0
 20
0.0
 30
0.0
  9
$PUCSXDIR
 10
1.0
 20
0.0
 30
0.0
  9
$PUCSYDIR
 10
0.0
 20
1.0
 30
0.0
  9
$PUCSORTHOREF
  2

  9
$PUCSORTHOVIEW
 70
     0
  9
$PUCSORGTOP
 10
0.0
 20
0.0
 30
0.0
  9
$PUCSORGBOTTOM
 10
0.0
 20
0.0
 30
0.0
  9
$PUCSORGLEFT
 10
0.0
 20
0.0
 30
0.0
  9
$PUCSORGRIGHT
 10
0.0
 20
0.0
 30
0.0
  9
$PUCSORGFRONT
 10
0.0
 20
0.0
 30
0.0
  9
$PUCSORGBACK
 10
0.0
 20
0.0
 30
0.0
  9
$USERI1
 70
     0
  9
$USERI2
 70
     0
  9
$USERI3
 70
     0
  9
$USERI4
 70
     0
  9
$USERI5
 70
     0
  9
$USERR1
 40
0.0
  9
$USERR2
 40
0.0
  9
$USERR3
 40
0.0
  9
$USERR4
 40
0.0
  9
$USERR5
 40
0.0
  9
$WORLDVIEW
 70
     1
  9
$SHADEDGE
 70
     3
  9
$SHADEDIF
 70
    70
  9
$TILEMODE
 70
     1
  9
$MAXACTVP
 70
    64
  9
$PINSBASE
 10
0.0
 20
0.0
 30
0.0
  9
$PLIMCHECK
 70
     0
  9
$PEXTMIN
 10
1.000000000000000E+20
 20
1.000000000000000E+20
 30
1.000000000000000E+20
  9
$PEXTMAX
 10
-1.000000000000000E+20
 20
-1.000000000000000E+20
 30
-1.000000000000000E+20
  9
$PLIMMIN
 10
0.0
 20
0.0
  9
$PLIMMAX
 10
0.0
 20
0.0
  9
$UNITMODE
 70
     0
  9
$VISRETAIN
 70
     1
  9
$PLINEGEN
 70
     0
  9
$PSLTSCALE
 70
     1
  9
$TREEDEPTH
 70
  3020
  9
$CMLSTYLE
  2
Standard
  9
$CMLJUST
 70
     0
  9
$CMLSCALE
 40
20.0
  9
$PROXYGRAPHICS
 70
     1
  9
$MEASUREMENT
 70
     1
  9
$CELWEIGHT
370
    -1
  9
$ENDCAPS
280
     0
  9
$JOINSTYLE
280
     0
  9
$LWDISPLAY
290
     1
  9
$INSUNITS
 70
     4
  9
$HYPERLINKBASE
  1

  9
$STYLESHEET
  1

  9
$XEDIT
290
     1
  9
$CEPSNTYPE
380
     0
  9
$PSTYLEMODE
290
     1
  9
$FINGERPRINTGUID
  2
{EFBD629F-848F-4C58-AE76-C99F40F71D9E}
  9
$VERSIONGUID
  2
{FAEB1C32-E019-11D5-929B-00C0DF256EC4}
  9
$EXTNAMES
290
     1
  9
$PSVPSCALE
 40
0.0
  9
$OLESTARTUP
290
     0
  0
ENDSEC
  0
SECTION
  2
CLASSES
  0
CLASS
  1
ACDBDICTIONARYWDFLT
  2
AcDbDictionaryWithDefault
  3
ObjectDBX Classes
 90
        0
280
     0
281
     0
  0
CLASS
  1
VISUALSTYLE
  2
AcDbVisualStyle
  3
ObjectDBX Classes
 90
     4095
280
     0
281
     0
  0
CLASS
  1
MATERIAL
  2
AcDbMaterial
  3
ObjectDBX Classes
 90
     1153
280
     0
281
     0
  0
CLASS
  1
SCALE
  2
AcDbScale
  3
ObjectDBX Classes
 90
     1153
280
     0
281
     0
  0
CLASS
  1
SUN
  2
AcDbSun
  3
SCENEOE
 90
     1153
280
     0
281
     0
  0
CLASS
  1
ACDBPLACEHOLDER
  2
AcDbPlaceHolder
  3
ObjectDBX Classes
 90
        0
280
     0
281
     0
  0
CLASS
  1
LAYOUT
  2
AcDbLayout
  3
ObjectDBX Classes
 90
        0
280
     0
281
     0
  0
CLASS
  1
TABLESTYLE
  2
AcDbTableStyle
  3
ObjectDBX Classes
 90
     4095
280
     0
281
     0
  0
CLASS
  1
MLEADERSTYLE
  2
AcDbMLeaderStyle
  3
ACDB_MLEADERSTYLE_CLASS
 90
     4095
280
     0
281
     0
  0
CLASS
  1
RASTERVARIABLES
  2
AcDbRasterVariables
  3
ISM
 90
        0
280
     0
281
     0
  0
ENDSEC
  0
SECTION
  2
TABLES
  0
TABLE
  2
VPORT
  5
8
330
0
100
AcDbSymbolTable
 70
     1
  0
VPORT
  5
29
330
8
100
AcDbSymbolTableRecord
100
AcDbViewportTableRecord
  2
*Active
 70
     0
 10
0.0
 20
0.0
 11
1.0
 21
1.0
 12
25.23925001647747
 22
-6.255054776170127
 13
0.0
 23
0.0
 14
10.0
 24
10.0
 15
10.0
 25
10.0
 16
0.0
 26
0.0
 36
1.0
 17
0.0
 27
0.0
 37
0.0
 40
89.18217532978889
 41
1.782762691853601
 42
50.0
 43
0.0
 44
0.0
 50
0.0
 51
0.0
 71
    16
 72
  2000
 73
     1
 74
     3
 75
     0
 76
     0
 77
     0
 78
     0
281
     0
 65
     1
110
0.0
120
0.0
130
0.0
111
1.0
121
0.0
131
0.0
112
0.0
122
1.0
132
0.0
 79
     0
146
0.0
  0
ENDTAB
  0
TABLE
  2
LTYPE
  5
5
330
0
100
AcDbSymbolTable
 70
     6
  0
LTYPE
  5
14
330
5
100
AcDbSymbolTableRecord
100
AcDbLinetypeTableRecord
  2
ByBlock
 70
     0
  3

 72
    65
 73
     0
 40
0.0
  0
LTYPE
  5
15
330
5
100
AcDbSymbolTableRecord
100
AcDbLinetypeTableRecord
  2
ByLayer
 70
     0
  3

 72
    65
 73
     0
 40
0.0
  0
LTYPE
  5
16
330
5
100
AcDbSymbolTableRecord
100
AcDbLinetypeTableRecord
  2
Continuous
 70
     0
  3
Solid line
 72
    65
 73
     0
 40
0.0
  0
LTYPE
  5
6A
330
5
100
AcDbSymbolTableRecord
100
AcDbLinetypeTableRecord
  2
HIDDEN
 70
     0
  3
Hidden __ __ __ __ __ __ __ __ __ __ __ __ __ __
 72
    65
 73
     2
 40
1.905
 49
1.27
 74
     0
 49
-0.635
 74
     0
  0
LTYPE
  5
6B
330
5
100
AcDbSymbolTableRecord
100
AcDbLinetypeTableRecord
  2
PHANTOM
 70
     0
  3
Phantom ______  __  __  ______  __  __  ______
 72
    65
 73
     6
 40
12.7
 49
6.35
 74
     0
 49
-1.27
 74
     0
 49
1.27
 74
     0
 49
-1.27
 74
     0
 49
1.27
 74
     0
 49
-1.27
 74
     0
  0
LTYPE
  5
6C
330
5
100
AcDbSymbolTableRecord
100
AcDbLinetypeTableRecord
  2
CENTER
 70
     0
  3
Center ____ _ ____ _ ____ _ ____ _ ____ _ ____
 72
    65
 73
     4
 40
10.16
 49
6.35
 74
     0
 49
-1.27
 74
     0
 49
1.27
 74
     0
 49
-1.27
 74
     0
  0
LTYPE
  5
6D
330
5
100
AcDbSymbolTableRecord
100
AcDbLinetypeTableRecord
  2
CENTERX2
 70
     0
  3
Center (2x) ________  __  ________  __  _____
 72
    65
 73
     4
 40
20.32
 49
12.7
 74
     0
 49
-2.54
 74
     0
 49
2.54
 74
     0
 49
-2.54
 74
     0
  0
LTYPE
  5
6E
330
5
100
AcDbSymbolTableRecord
100
AcDbLinetypeTableRecord
  2
DOT2
 70
     0
  3
Dot (.5x) ........................................
 72
    65
 73
     2
 40
0.635
 49
0.0
 74
     0
 49
-0.635
 74
     0
  0
ENDTAB
  0
TABLE
  2
LAYER
  5
2
102
{ACAD_XDICTIONARY
360
18E
102
}
330
0
100
AcDbSymbolTable
 70
    18
  0
LAYER
  5
10
330
2
100
AcDbSymbolTableRecord
100
AcDbLayerTableRecord
  2
0
 70
     0
 62
     7
  6
Continuous
370
    -3
390
F
  0
LAYER
  5
6F
330
2
100
AcDbSymbolTableRecord
100
AcDbLayerTableRecord
  2
FORMAT
 70
     0
 62
     2
  6
Continuous
370
    -3
390
F
  0
LAYER
  5
70
330
2
100
AcDbSymbolTableRecord
100
AcDbLayerTableRecord
  2
외형선
 70
     0
 62
     4
  6
Continuous
370
    30
390
F
  0
LAYER
  5
71
330
2
100
AcDbSymbolTableRecord
100
AcDbLayerTableRecord
  2
숨은선
 70
     0
 62
     2
  6
HIDDEN
370
    15
390
F
  0
LAYER
  5
72
330
2
100
AcDbSymbolTableRecord
100
AcDbLayerTableRecord
  2
중심선
 70
     0
 62
     1
  6
CENTERX2
370
    -3
390
F
  0
LAYER
  5
73
330
2
100
AcDbSymbolTableRecord
100
AcDbLayerTableRecord
  2
파단선
 70
     0
 62
     4
  6
Continuous
370
    -3
390
F
  0
LAYER
  5
74
330
2
100
AcDbSymbolTableRecord
100
AcDbLayerTableRecord
  2
해칭선
 70
     0
 62
   100
  6
Continuous
370
    -3
390
F
  0
LAYER
  5
75
330
2
100
AcDbSymbolTableRecord
100
AcDbLayerTableRecord
  2
가는실선
 70
     0
 62
     4
  6
Continuous
370
    -3
390
F
  0
LAYER
  5
76
330
2
100
AcDbSymbolTableRecord
100
AcDbLayerTableRecord
  2
치수_보조선
 70
     0
 62
     4
  6
Continuous
370
    -3
390
F
  0
LAYER
  5
77
330
2
100
AcDbSymbolTableRecord
100
AcDbLayerTableRecord
  2
치수문자_일반주서
 70
     0
 62
     7
  6
Continuous
370
    15
390
F
  0
LAYER
  5
78
330
2
100
AcDbSymbolTableRecord
100
AcDbLayerTableRecord
  2
개별주서
 70
     0
 62
   100
  6
Continuous
370
    30
390
F
  0
LAYER
  5
79
330
2
100
AcDbSymbolTableRecord
100
AcDbLayerTableRecord
  2
중간선
 70
     0
 62
     2
  6
Continuous
370
    15
390
F
  0
LAYER
  5
7A
330
2
100
AcDbSymbolTableRecord
100
AcDbLayerTableRecord
  2
윤곽선
 70
     0
 62
     3
  6
Continuous
370
    40
390
F
  0
LAYER
  5
7B
330
2
100
AcDbSymbolTableRecord
100
AcDbLayerTableRecord
  2
중심마크
 70
     0
 62
   100
  6
Continuous
370
    30
390
F
  0
LAYER
  5
7C
330
2
100
AcDbSymbolTableRecord
100
AcDbLayerTableRecord
  2
가상선
 70
     0
 62
     4
  6
PHANTOM
370
    -3
390
F
  0
LAYER
  5
7D
330
2
100
AcDbSymbolTableRecord
100
AcDbLayerTableRecord
  2
특수지정선
 70
     0
 62
     5
  6
CENTERX2
370
    60
390
F
  0
LAYER
  5
7E
330
2
100
AcDbSymbolTableRecord
100
AcDbLayerTableRecord
  2
참조1
 70
     0
 62
    -4
  6
Continuous
370
    -3
390
F
  0
LAYER
  5
157
330
2
100
AcDbSymbolTableRecord
100
AcDbLayerTableRecord
  2
Defpoints
 70
     0
 62
     7
  6
Continuous
290
     0
370
    -3
390
F
  0
ENDTAB
  0
TABLE
  2
STYLE
  5
3
330
0
100
AcDbSymbolTable
 70
     2
  0
STYLE
  5
11
330
3
100
AcDbSymbolTableRecord
100
AcDbTextStyleTableRecord
  2
Standard
 70
     0
 40
0.0
 41
1.0
 50
0.0
 71
     0
 42
3.5
  3
txt
  4

  0
STYLE
  5
94
330
3
100
AcDbSymbolTableRecord
100
AcDbTextStyleTableRecord
  2
SLDTEXTSTYLE0
 70
     0
 40
0.0
 41
0.75
 50
0.0
 71
     0
 42
3.5
  3
TXT
  4

  0
ENDTAB
  0
TABLE
  2
VIEW
  5
6
330
0
100
AcDbSymbolTable
 70
     0
  0
ENDTAB
  0
TABLE
  2
UCS
  5
7
330
0
100
AcDbSymbolTable
 70
     0
  0
ENDTAB
  0
TABLE
  2
APPID
  5
9
330
0
100
AcDbSymbolTable
 70
     2
  0
APPID
  5
12
330
9
100
AcDbSymbolTableRecord
100
AcDbRegAppTableRecord
  2
ACAD
 70
     0
  0
APPID
  5
15E
330
9
100
AcDbSymbolTableRecord
100
AcDbRegAppTableRecord
  2
PE_URL
 70
     0
  0
ENDTAB
  0
TABLE
  2
DIMSTYLE
  5
A
330
0
100
AcDbSymbolTable
 70
     3
100
AcDbDimStyleTable
  0
DIMSTYLE
105
27
330
A
100
AcDbSymbolTableRecord
100
AcDbDimStyleTableRecord
  2
ISO-25
 70
     0
 41
2.5
 42
0.625
 43
3.75
 44
1.25
 73
     0
 74
     0
 77
     1
 78
     8
140
2.5
141
2.5
143
0.03937007874016
147
0.625
171
     3
172
     1
178
     0
271
     2
272
     2
274
     3
278
    44
283
     0
284
     8
340
11
  0
DIMSTYLE
105
D5
102
{ACAD_REACTORS
330
D4
330
E9
330
FD
330
112
102
}
330
A
100
AcDbSymbolTableRecord
100
AcDbDimStyleTableRecord
  2
SLDDIMSTYLE0
 70
     0
 41
3.302
 44
0.0
 45
0.000000001
 73
     0
 74
     0
 77
     1
 78
    12
 79
     3
140
3.5
143
0.0393700787401575
147
0.875
148
0.000000001
170
     1
172
     1
173
     1
178
     0
271
     2
272
     2
276
     2
284
    12
289
     0
340
94
  0
DIMSTYLE
105
113
330
A
100
AcDbSymbolTableRecord
100
AcDbDimStyleTableRecord
  2
SLDDIMSTYLE1
 70
     0
 41
3.302
 44
0.0
 45
0.000000001
 73
     0
 74
     0
 77
     1
 78
     4
 79
     1
140
3.5
143
0.0393700787401575
147
0.875
148
0.000000001
170
     1
173
     1
178
     0
271
     2
272
     2
276
     2
284
    12
340
94
  0
ENDTAB
  0
TABLE
  2
BLOCK_RECORD
  5
1
330
0
100
AcDbSymbolTable
 70
     9
  0
BLOCK_RECORD
  5
1F
330
1
100
AcDbSymbolTableRecord
100
AcDbBlockTableRecord
  2
*Model_Space
340
22
  0
BLOCK_RECORD
  5
1B
330
1
100
AcDbSymbolTableRecord
100
AcDbBlockTableRecord
  2
*Paper_Space
340
1E
  0
BLOCK_RECORD
  5
23
330
1
100
AcDbSymbolTableRecord
100
AcDbBlockTableRecord
  2
*Paper_Space0
340
26
  0
BLOCK_RECORD
  5
7F
330
1
100
AcDbSymbolTableRecord
100
AcDbBlockTableRecord
  2
블럭10
340
0
102
{BLKREFS
331
CD
102
}
  0
BLOCK_RECORD
  5
D6
330
1
100
AcDbSymbolTableRecord
100
AcDbBlockTableRecord
  2
_D
340
0
  0
BLOCK_RECORD
  5
EA
330
1
100
AcDbSymbolTableRecord
100
AcDbBlockTableRecord
  2
_D_1
340
0
  0
BLOCK_RECORD
  5
FE
330
1
100
AcDbSymbolTableRecord
100
AcDbBlockTableRecord
  2
_D_2
340
0
  0
BLOCK_RECORD
  5
114
330
1
100
AcDbSymbolTableRecord
100
AcDbBlockTableRecord
  2
_D_3
340
0
  0
BLOCK_RECORD
  5
12D
330
1
100
AcDbSymbolTableRecord
100
AcDbBlockTableRecord
  2
SW_DOWELSYMBOL_0
340
0
102
{BLKREFS
331
133
102
}
  0
BLOCK_RECORD
  5
192
330
1
100
AcDbSymbolTableRecord
100
AcDbBlockTableRecord
  2
*D7
340
0
  0
BLOCK_RECORD
  5
1A4
330
1
100
AcDbSymbolTableRecord
100
AcDbBlockTableRecord
  2
*D8
340
0
  0
ENDTAB
  0
ENDSEC
  0
SECTION
  2
BLOCKS
  0
BLOCK
  5
20
330
1F
100
AcDbEntity
  8
0
100
AcDbBlockBegin
  2
*Model_Space
 70
     0
 10
0.0
 20
0.0
 30
0.0
  3
*Model_Space
  1
*Model_Space
  0
ENDBLK
  5
21
330
1F
100
AcDbEntity
  8
0
100
AcDbBlockEnd
  0
BLOCK
  5
1C
330
1B
100
AcDbEntity
 67
     1
  8
0
100
AcDbBlockBegin
  2
*Paper_Space
 70
     0
 10
0.0
 20
0.0
 30
0.0
  3
*Paper_Space
  1
*Paper_Space
  0
ENDBLK
  5
1D
330
1B
100
AcDbEntity
 67
     1
  8
0
100
AcDbBlockEnd
  0
BLOCK
  5
24
330
23
100
AcDbEntity
  8
0
100
AcDbBlockBegin
  2
*Paper_Space0
 70
     0
 10
0.0
 20
0.0
 30
0.0
  3
*Paper_Space0
  1
*Paper_Space0
  0
ENDBLK
  5
25
330
23
100
AcDbEntity
  8
0
100
AcDbBlockEnd
  0
BLOCK
  5
80
330
7F
100
AcDbEntity
  8
0
100
AcDbBlockBegin
  2
블럭10
 70
     2
 10
0.0
 20
0.0
 30
0.0
  3
블럭10
  1
블럭10
  0
ELLIPSE
  5
82
330
7F
100
AcDbEntity
  8
중심선
100
AcDbEllipse
 10
20.54032771741204
 20
12.0471743016438
 30
0.0
 11
6.600054785286829
 21
-1.261213355974178E-13
 31
0.0
210
0.0
220
0.0
230
1.0
 40
0.636358354079598
 41
0.9219305317359503
 42
6.513795318482858
  0
ELLIPSE
  5
83
330
7F
100
AcDbEntity
  8
중심선
100
AcDbEllipse
 10
20.54032771746488
 20
12.04717430159265
 30
0.0
 11
3.960054785062283
 21
1.540847449632565E-10
 31
0.0
210
0.0
220
0.0
230
1.0
 40
0.3939339440162632
 41
1.131841032648279
 42
5.62031148352944
  0
LINE
  5
84
330
7F
100
AcDbEntity
  8
중심선
100
AcDbLine
 10
2.268634060543552
 20
16.24717430164393
 30
0.0
 11
5.714909304380834
 21
16.24717430164393
 31
0.0
  0
LINE
  5
85
330
7F
100
AcDbEntity
  8
중심선
100
AcDbLine
 10
5.245725140726316
 20
7.84717430164391
 30
0.0
 11
8.692000384563599
 21
7.84717430164391
 31
0.0
  0
LINE
  5
86
330
7F
100
AcDbEntity
  8
중심선
100
AcDbLine
 10
15.74043728645272
 20
16.24717430164393
 30
0.0
 11
8.692000384563599
 21
7.84717430164391
 31
0.0
  0
LINE
  5
87
330
7F
100
AcDbEntity
  8
중심선
100
AcDbLine
 10
0.1404042013395286
 20
13.71084872107135
 30
0.0
 11
3.58671253028996
 21
13.71088815037384
 31
0.0
  0
LINE
  5
88
330
7F
100
AcDbEntity
  8
중심선
100
AcDbLine
 10
2.750260043222114
 20
10.84717430164391
 30
0.0
 11
6.196535287059397
 21
10.84717430164391
 31
0.0
  0
LINE
  5
89
330
7F
100
AcDbEntity
  8
중심선
100
AcDbLine
 10
12.29416204261559
 20
16.24717430164393
 30
0.0
 11
5.245725140726316
 21
7.84717430164391
 31
0.0
  0
LINE
  5
8A
330
7F
100
AcDbEntity
  8
중심선
100
AcDbLine
 10
10.72767329541681
 20
16.24717430164393
 30
0.0
 11
6.196535287059397
 21
10.84717430164391
 31
0.0
  0
LINE
  5
8B
330
7F
100
AcDbEntity
  8
중심선
100
AcDbLine
 10
7.28139805157953
 20
16.24717430164393
 30
0.0
 11
2.750260043222114
 21
10.84717430164391
 31
0.0
  0
LINE
  5
8C
330
7F
100
AcDbEntity
  8
중심선
100
AcDbLine
 10
5.714909304380834
 20
16.24717430164393
 30
0.0
 11
3.58671253028996
 21
13.71088815037384
 31
0.0
  0
LINE
  5
8D
330
7F
100
AcDbEntity
  8
중심선
100
AcDbLine
 10
2.268634060543552
 20
16.24717430164393
 30
0.0
 11
0.1404042013395286
 21
13.71084872107135
 31
0.0
  0
LINE
  5
8E
330
7F
100
AcDbEntity
  8
중심선
100
AcDbLine
 10
7.28139805157953
 20
16.24717430164393
 30
0.0
 11
10.72767329541681
 21
16.24717430164393
 31
0.0
  0
LINE
  5
8F
330
7F
100
AcDbEntity
  8
중심선
100
AcDbLine
 10
12.29416204261559
 20
16.24717430164393
 30
0.0
 11
15.74043728645272
 21
16.24717430164393
 31
0.0
  0
LINE
  5
90
330
7F
100
AcDbEntity
  8
중심선
100
AcDbLine
 10
19.22036997980202
 20
11.08717430171403
 30
0.0
 11
23.66174974927406
 21
11.08717430171406
 31
0.0
  0
LINE
  5
91
330
7F
100
AcDbEntity
  8
중심선
100
AcDbLine
 10
19.22039502424796
 20
13.00717430171391
 30
0.0
 11
19.22036997980202
 21
11.08717430171403
 31
0.0
  0
LINE
  5
92
330
7F
100
AcDbEntity
  8
중심선
100
AcDbLine
 10
19.22039502424796
 20
13.00717430171391
 30
0.0
 11
26.96566020931264
 21
13.00717430171391
 31
0.0
  0
LINE
  5
93
330
7F
100
AcDbEntity
  8
중심선
100
AcDbLine
 10
22.22332737316547
 20
13.45928029700563
 30
0.0
 11
24.52862924686651
 21
15.39360700705356
 31
0.0
  0
ATTDEF
  5
95
330
7F
100
AcDbEntity
  8
FORMAT
 62
     2
100
AcDbText
 10
4.408487351596664
 20
2.075366912832191
 30
0.0
 40
4.233333333333333
  1
E1001010
 41
0.75
  7
SLDTEXTSTYLE0
 11
4.408487351596664
 21
-0.0412997538344756
 31
0.0
100
AcDbAttributeDefinition
  3

  2
AUTOATTR0
 70
     0
 74
     1
  0
ENDBLK
  5
81
330
7F
100
AcDbEntity
  8
0
100
AcDbBlockEnd
  0
BLOCK
  5
D7
330
D6
100
AcDbEntity
  8
0
100
AcDbBlockBegin
  2
_D
 70
     0
 10
0.0
 20
0.0
 30
0.0
  3
_D
  1
_D
  0
LINE
  5
D9
330
D6
100
AcDbEntity
  8
치수문자_일반주서
 62
     0
370
    -2
100
AcDbLine
 10
-17.02821733574612
 20
2.381250000000001
 30
0.0
 11
-35.40000000000001
 21
2.38124999999993
 31
0.0
  0
LINE
  5
DA
330
D6
100
AcDbEntity
  8
치수문자_일반주서
 62
     0
370
    -2
100
AcDbLine
 10
-17.02821733574612
 20
-2.381250000000001
 30
0.0
 11
-35.39999999999999
 21
-2.381250000000072
 31
0.0
  0
LINE
  5
DB
330
D6
100
AcDbEntity
  8
치수문자_일반주서
 62
     0
370
    -2
100
AcDbLine
 10
-35.40000000000001
 20
2.38124999999993
 30
0.0
 11
-35.40000000000011
 21
36.98524999999997
 31
0.0
  0
LINE
  5
DC
330
D6
100
AcDbEntity
  8
치수문자_일반주서
 62
     0
370
    -2
100
AcDbLine
 10
-35.40000000000001
 20
2.38124999999993
 30
0.0
 11
-35.39999999999999
 21
-2.381250000000072
 31
0.0
  0
LINE
  5
DD
330
D6
100
AcDbEntity
  8
치수문자_일반주서
 62
     0
370
    -2
100
AcDbLine
 10
-35.40000000000001
 20
5.68324999999993
 30
0.0
 11
-35.40000000000002
 21
8.98524999999993
 31
0.0
  0
LINE
  5
DE
330
D6
100
AcDbEntity
  8
치수문자_일반주서
 62
     0
370
    -2
100
AcDbLine
 10
-35.39999999999998
 20
-5.683250000000072
 30
0.0
 11
-35.39999999999998
 21
-8.985250000000072
 31
0.0
  0
SOLID
  5
DF
330
D6
100
AcDbEntity
  8
치수문자_일반주서
 62
     0
100
AcDbTrace
 10
-35.95033333333335
 20
5.683249999999928
 30
0.0
 11
-34.84966666666668
 21
5.683249999999932
 31
0.0
 12
-35.40000000000001
 22
2.38124999999993
 32
0.0
 13
-35.40000000000001
 23
2.38124999999993
 33
0.0
  0
SOLID
  5
E0
330
D6
100
AcDbEntity
  8
치수문자_일반주서
 62
     0
100
AcDbTrace
 10
-34.84966666666665
 20
-5.68325000000007
 30
0.0
 11
-35.95033333333332
 21
-5.683250000000074
 31
0.0
 12
-35.39999999999999
 22
-2.381250000000072
 32
0.0
 13
-35.39999999999999
 23
-2.381250000000072
 33
0.0
  0
MTEXT
  5
E1
330
D6
100
AcDbEntity
  8
치수문자_일반주서
 62
     0
100
AcDbMText
 10
-39.77500000000007
 20
22.98524999999995
 30
0.0
 40
3.5
 41
0.0
 71
     2
 72
     1
  1
\A1;%%c4.76 [3/16]
  7
SLDTEXTSTYLE0
 11
-2.983906501879685E-15
 21
1.0
 31
0.0
 73
     1
 44
1.0
  0
POINT
  5
1B6
330
D6
100
AcDbEntity
  8
Defpoints
 62
     0
100
AcDbPoint
 10
-16.96571733574612
 20
2.381250000000001
 30
0.0
  0
POINT
  5
1B7
330
D6
100
AcDbEntity
  8
Defpoints
 62
     0
100
AcDbPoint
 10
-16.96571733574612
 20
-2.381250000000001
 30
0.0
  0
POINT
  5
1B8
330
D6
100
AcDbEntity
  8
Defpoints
 62
     0
100
AcDbPoint
 10
-35.39999999999999
 20
-2.381250000000069
 30
0.0
  0
ENDBLK
  5
D8
330
D6
100
AcDbEntity
  8
0
100
AcDbBlockEnd
  0
BLOCK
  5
EB
330
EA
100
AcDbEntity
  8
0
100
AcDbBlockBegin
  2
_D_1
 70
     0
 10
0.0
 20
0.0
 30
0.0
  3
_D_1
  1
_D_1
  0
LINE
  5
ED
330
EA
100
AcDbEntity
  8
치수문자_일반주서
 62
     0
370
    -2
100
AcDbLine
 10
25.46250000000002
 20
-1.982697836471323
 30
0.0
 11
67.46669154113347
 21
-1.982697836471168
 31
0.0
  0
LINE
  5
EE
330
EA
100
AcDbEntity
  8
치수문자_일반주서
 62
     0
370
    -2
100
AcDbLine
 10
25.46250000000002
 20
1.982697836471325
 30
0.0
 11
67.46669154113346
 21
1.98269783647148
 31
0.0
  0
LINE
  5
EF
330
EA
100
AcDbEntity
  8
치수문자_일반주서
 62
     0
370
    -2
100
AcDbLine
 10
67.46669154113346
 20
1.98269783647148
 30
0.0
 11
67.46669154113333
 21
37.46169783647148
 31
0.0
  0
LINE
  5
F0
330
EA
100
AcDbEntity
  8
치수문자_일반주서
 62
     0
370
    -2
100
AcDbLine
 10
67.46669154113347
 20
-1.982697836471168
 30
0.0
 11
67.46669154113346
 21
1.98269783647148
 31
0.0
  0
LINE
  5
F1
330
EA
100
AcDbEntity
  8
치수문자_일반주서
 62
     0
370
    -2
100
AcDbLine
 10
67.46669154113349
 20
-5.284697836471167
 30
0.0
 11
67.4666915411335
 21
-8.586697836471167
 31
0.0
  0
LINE
  5
F2
330
EA
100
AcDbEntity
  8
치수문자_일반주서
 62
     0
370
    -2
100
AcDbLine
 10
67.46669154113344
 20
5.28469783647148
 30
0.0
 11
67.46669154113343
 21
8.58669783647148
 31
0.0
  0
SOLID
  5
F3
330
EA
100
AcDbEntity
  8
치수문자_일반주서
 62
     0
100
AcDbTrace
 10
68.01702487446681
 20
-5.284697836471166
 30
0.0
 11
66.91635820780016
 21
-5.284697836471169
 31
0.0
 12
67.46669154113347
 22
-1.982697836471168
 32
0.0
 13
67.46669154113347
 23
-1.982697836471168
 33
0.0
  0
SOLID
  5
F4
330
EA
100
AcDbEntity
  8
치수문자_일반주서
 62
     0
100
AcDbTrace
 10
66.91635820780012
 20
5.284697836471478
 30
0.0
 11
68.01702487446677
 21
5.284697836471482
 31
0.0
 12
67.46669154113346
 22
1.98269783647148
 32
0.0
 13
67.46669154113346
 23
1.98269783647148
 33
0.0
  0
MTEXT
  5
F5
330
EA
100
AcDbEntity
  8
치수문자_일반주서
 62
     0
100
AcDbMText
 10
63.09169154113339
 20
23.02419783647146
 30
0.0
 40
3.5
 41
0.0
 71
     2
 72
     1
  1
\A1;%%c3.97 [5/32]
  7
SLDTEXTSTYLE0
 11
-3.583716705035992E-15
 21
1.0
 31
0.0
 73
     1
 44
1.0
  0
POINT
  5
F6
330
EA
100
AcDbEntity
  8
Defpoints
 62
     0
100
AcDbPoint
 10
25.40000000000002
 20
-1.982697836471323
 30
0.0
  0
POINT
  5
F7
330
EA
100
AcDbEntity
  8
Defpoints
 62
     0
100
AcDbPoint
 10
25.40000000000002
 20
1.982697836471324
 30
0.0
  0
POINT
  5
F8
330
EA
100
AcDbEntity
  8
Defpoints
 62
     0
100
AcDbPoint
 10
67.46669154113346
 20
1.982697836471482
 30
0.0
  0
ENDBLK
  5
EC
330
EA
100
AcDbEntity
  8
0
100
AcDbBlockEnd
  0
BLOCK
  5
FF
330
FE
100
AcDbEntity
  8
0
100
AcDbBlockBegin
  2
_D_2
 70
     0
 10
0.0
 20
0.0
 30
0.0
  3
_D_2
  1
_D_2
  0
LINE
  5
101
330
FE
100
AcDbEntity
  8
치수문자_일반주서
 62
     0
370
    -2
100
AcDbLine
 10
25.40000000000002
 20
2.045197836471324
 30
0.0
 11
25.40000000000002
 21
12.38125
 31
0.0
  0
LINE
  5
102
330
FE
100
AcDbEntity
  8
치수문자_일반주서
 62
     0
370
    -2
100
AcDbLine
 10
19.44687500000002
 20
1.631658574628429
 30
0.0
 11
19.44687500000002
 21
12.38125
 31
0.0
  0
LINE
  5
103
330
FE
100
AcDbEntity
  8
치수문자_일반주서
 62
     0
370
    -2
100
AcDbLine
 10
25.40000000000002
 20
12.38125
 30
0.0
 11
60.00400000000002
 21
12.38125
 31
0.0
  0
LINE
  5
104
330
FE
100
AcDbEntity
  8
치수문자_일반주서
 62
     0
370
    -2
100
AcDbLine
 10
25.40000000000002
 20
12.38125
 30
0.0
 11
19.44687500000002
 21
12.38125
 31
0.0
  0
LINE
  5
105
330
FE
100
AcDbEntity
  8
치수문자_일반주서
 62
     0
370
    -2
100
AcDbLine
 10
28.70200000000002
 20
12.38125
 30
0.0
 11
32.00400000000003
 21
12.38125
 31
0.0
  0
LINE
  5
106
330
FE
100
AcDbEntity
  8
치수문자_일반주서
 62
     0
370
    -2
100
AcDbLine
 10
16.14487500000002
 20
12.38125
 30
0.0
 11
12.84287500000002
 21
12.38125
 31
0.0
  0
SOLID
  5
107
330
FE
100
AcDbEntity
  8
치수문자_일반주서
 62
     0
100
AcDbTrace
 10
28.70200000000002
 20
12.93158333333333
 30
0.0
 11
28.70200000000002
 21
11.83091666666666
 31
0.0
 12
25.40000000000002
 22
12.38125
 32
0.0
 13
25.40000000000002
 23
12.38125
 33
0.0
  0
SOLID
  5
108
330
FE
100
AcDbEntity
  8
치수문자_일반주서
 62
     0
100
AcDbTrace
 10
16.14487500000002
 20
11.83091666666666
 30
0.0
 11
16.14487500000002
 21
12.93158333333333
 31
0.0
 12
19.44687500000002
 22
12.38125
 32
0.0
 13
19.44687500000002
 23
12.38125
 33
0.0
  0
MTEXT
  5
109
330
FE
100
AcDbEntity
  8
치수문자_일반주서
 62
     0
100
AcDbMText
 10
46.00400000000002
 20
16.75624999999999
 30
0.0
 40
3.5
 41
0.0
 71
     2
 72
     1
  1
\A1;5.95 [15/64]
  7
SLDTEXTSTYLE0
 73
     1
 44
1.0
  0
POINT
  5
10A
330
FE
100
AcDbEntity
  8
Defpoints
 62
     0
100
AcDbPoint
 10
25.40000000000002
 20
1.982697836471324
 30
0.0
  0
POINT
  5
10B
330
FE
100
AcDbEntity
  8
Defpoints
 62
     0
100
AcDbPoint
 10
19.44687500000002
 20
1.569158574628429
 30
0.0
  0
POINT
  5
10C
330
FE
100
AcDbEntity
  8
Defpoints
 62
     0
100
AcDbPoint
 10
19.44687500000002
 20
12.38125
 30
0.0
  0
ENDBLK
  5
100
330
FE
100
AcDbEntity
  8
0
100
AcDbBlockEnd
  0
BLOCK
  5
115
330
114
100
AcDbEntity
  8
0
100
AcDbBlockBegin
  2
_D_3
 70
     0
 10
0.0
 20
0.0
 30
0.0
  3
_D_3
  1
_D_3
  0
LINE
  5
117
330
114
100
AcDbEntity
  8
치수문자_일반주서
 62
     0
370
    -2
100
AcDbLine
 10
-25.40000000000003
 20
2.045197836471324
 30
0.0
 11
-25.40000000000003
 21
22.38125
 31
0.0
  0
LINE
  5
118
330
114
100
AcDbEntity
  8
치수문자_일반주서
 62
     0
370
    -2
100
AcDbLine
 10
25.40000000000002
 20
2.045197836471324
 30
0.0
 11
25.40000000000002
 21
22.38125
 31
0.0
  0
LINE
  5
119
330
114
100
AcDbEntity
  8
치수문자_일반주서
 62
     0
370
    -2
100
AcDbLine
 10
-22.09800000000003
 20
22.38125
 30
0.0
 11
22.09800000000002
 21
22.38125
 31
0.0
  0
SOLID
  5
11A
330
114
100
AcDbEntity
  8
치수문자_일반주서
 62
     0
100
AcDbTrace
 10
-22.09800000000003
 20
22.93158333333333
 30
0.0
 11
-22.09800000000003
 21
21.83091666666666
 31
0.0
 12
-25.40000000000003
 22
22.38125
 32
0.0
 13
-25.40000000000003
 23
22.38125
 33
0.0
  0
SOLID
  5
11B
330
114
100
AcDbEntity
  8
치수문자_일반주서
 62
     0
100
AcDbTrace
 10
22.09800000000002
 20
21.83091666666666
 30
0.0
 11
22.09800000000002
 21
22.93158333333333
 31
0.0
 12
25.40000000000002
 22
22.38125
 32
0.0
 13
25.40000000000002
 23
22.38125
 33
0.0
  0
MTEXT
  5
11C
330
114
100
AcDbEntity
  8
치수문자_일반주서
 62
     0
100
AcDbMText
 10
0.0000000000000124
 20
26.75625
 30
0.0
 40
3.5
 41
0.0
 71
     2
 72
     1
  1
\A1;50.8 [2]
  7
SLDTEXTSTYLE0
 73
     1
 44
1.0
  0
POINT
  5
11D
330
114
100
AcDbEntity
  8
Defpoints
 62
     0
100
AcDbPoint
 10
-25.40000000000003
 20
1.982697836471324
 30
0.0
  0
POINT
  5
11E
330
114
100
AcDbEntity
  8
Defpoints
 62
     0
100
AcDbPoint
 10
25.40000000000002
 20
1.982697836471324
 30
0.0
  0
POINT
  5
11F
330
114
100
AcDbEntity
  8
Defpoints
 62
     0
100
AcDbPoint
 10
25.40000000000002
 20
22.38125
 30
0.0
  0
ENDBLK
  5
116
330
114
100
AcDbEntity
  8
0
100
AcDbBlockEnd
  0
BLOCK
  5
12E
330
12D
100
AcDbEntity
  8
0
100
AcDbBlockBegin
  2
SW_DOWELSYMBOL_0
 70
     0
 10
0.0
 20
0.0
 30
0.0
  3
SW_DOWELSYMBOL_0
  1
SW_DOWELSYMBOL_0
  0
CIRCLE
  5
130
330
12D
100
AcDbEntity
  8
해칭선
 62
     0
100
AcDbCircle
 10
0.0
 20
0.0
 30
0.0
 40
3.000000000000001
  0
HATCH
  5
131
330
12D
100
AcDbEntity
  8
0
  6
Continuous
 62
     0
370
     0
100
AcDbHatch
 10
0.0
 20
0.0
 30
0.0
210
0.0
220
0.0
230
1.0
  2
SOLID
 70
     1
 71
     0
 91
        1
 92
        0
 93
        3
 72
     2
 10
0.0
 20
0.0
 40
3.000000000000001
 50
0.0
 51
90.0
 73
     1
 72
     1
 10
0.0
 20
3.000000000000001
 11
0.0
 21
0.0
 72
     1
 10
0.0
 20
0.0
 11
3.000000000000001
 21
0.0
 97
        0
 75
     0
 76
     1
 98
        1
 10
0.0
 20
0.0
  0
HATCH
  5
132
330
12D
100
AcDbEntity
  8
0
  6
Continuous
 62
     0
370
     0
100
AcDbHatch
 10
0.0
 20
0.0
 30
0.0
210
0.0
220
0.0
230
1.0
  2
SOLID
 70
     1
 71
     0
 91
        1
 92
        0
 93
        3
 72
     2
 10
0.0
 20
0.0
 40
3.000000000000001
 50
180.0
 51
270.0000000000007
 73
     1
 72
     1
 10
0.0
 20
-3.000000000000001
 11
0.0
 21
0.0
 72
     1
 10
0.0
 20
0.0
 11
-3.000000000000001
 21
0.0
 97
        0
 75
     0
 76
     1
 98
        1
 10
0.0
 20
0.0
  0
ENDBLK
  5
12F
330
12D
100
AcDbEntity
  8
0
100
AcDbBlockEnd
  0
BLOCK
  5
193
330
192
100
AcDbEntity
  8
0
100
AcDbBlockBegin
  2
*D7
 70
     1
 10
0.0
 20
0.0
 30
0.0
  3
*D7
  1
*D7
  0
LINE
  5
195
330
192
100
AcDbEntity
  8
치수문자_일반주서
 62
     0
370
    -2
100
AcDbLine
 10
11.3665
 20
1.204062975115862
 30
0.0
 11
11.3665
 21
11.9366547059388
 31
0.0
  0
LINE
  5
196
330
192
100
AcDbEntity
  8
치수문자_일반주서
 62
     0
370
    -2
100
AcDbLine
 10
6.603999999999999
 20
0.8732315656415455
 30
0.0
 11
6.603999999999999
 21
11.9366547059388
 31
0.0
  0
LINE
  5
197
330
192
100
AcDbEntity
  8
치수문자_일반주서
 62
     0
370
    -2
100
AcDbLine
 10
11.3665
 20
11.9366547059388
 30
0.0
 11
43.3455
 21
11.9366547059388
 31
0.0
  0
LINE
  5
198
330
192
100
AcDbEntity
  8
치수문자_일반주서
 62
     0
370
    -2
100
AcDbLine
 10
11.3665
 20
11.9366547059388
 30
0.0
 11
6.603999999999999
 21
11.9366547059388
 31
0.0
  0
LINE
  5
199
330
192
100
AcDbEntity
  8
치수문자_일반주서
 62
     0
370
    -2
100
AcDbLine
 10
14.6685
 20
11.9366547059388
 30
0.0
 11
17.9705
 21
11.9366547059388
 31
0.0
  0
LINE
  5
19A
330
192
100
AcDbEntity
  8
치수문자_일반주서
 62
     0
370
    -2
100
AcDbLine
 10
3.302
 20
11.9366547059388
 30
0.0
 11
0.0
 21
11.9366547059388
 31
0.0
  0
SOLID
  5
19B
330
192
100
AcDbEntity
  8
치수문자_일반주서
 62
     0
100
AcDbTrace
 10
14.6685
 20
12.48698803927213
 30
0.0
 11
14.6685
 21
11.38632137260547
 31
0.0
 12
11.3665
 22
11.9366547059388
 32
0.0
 13
11.3665
 23
11.9366547059388
 33
0.0
  0
SOLID
  5
19C
330
192
100
AcDbEntity
  8
치수문자_일반주서
 62
     0
100
AcDbTrace
 10
3.302
 20
11.38632137260547
 30
0.0
 11
3.302
 21
12.48698803927213
 31
0.0
 12
6.603999999999999
 22
11.9366547059388
 32
0.0
 13
6.603999999999999
 23
11.9366547059388
 33
0.0
  0
MTEXT
  5
19D
330
192
100
AcDbEntity
  8
치수문자_일반주서
 62
     0
100
AcDbMText
 10
30.658
 20
16.3116547059388
 30
0.0
 40
3.5
 41
0.0
 71
     2
 72
     1
  1
\A1;4.76 [3/16]
  7
SLDTEXTSTYLE0
 73
     1
 44
1.0
  0
POINT
  5
19E
330
192
100
AcDbEntity
  8
Defpoints
 62
     0
100
AcDbPoint
 10
11.3665
 20
1.141562975115862
 30
0.0
  0
POINT
  5
19F
330
192
100
AcDbEntity
  8
Defpoints
 62
     0
100
AcDbPoint
 10
6.603999999999999
 20
0.8107315656415455
 30
0.0
  0
POINT
  5
1A0
330
192
100
AcDbEntity
  8
Defpoints
 62
     0
100
AcDbPoint
 10
6.603999999999999
 20
11.9366547059388
 30
0.0
  0
ENDBLK
  5
194
330
192
100
AcDbEntity
  8
0
100
AcDbBlockEnd
  0
BLOCK
  5
1A5
330
1A4
100
AcDbEntity
  8
0
100
AcDbBlockBegin
  2
*D8
 70
     1
 10
0.0
 20
0.0
 30
0.0
  3
*D8
  1
*D8
  0
LINE
  5
1A7
330
1A4
100
AcDbEntity
  8
치수문자_일반주서
 62
     0
370
    -2
100
AcDbLine
 10
58.60394102464926
 20
-16.70072612271796
 30
0.0
 11
58.60394102464926
 21
-5.968134391895028
 31
0.0
  0
LINE
  5
1A8
330
1A4
100
AcDbEntity
  8
치수문자_일반주서
 62
     0
370
    -2
100
AcDbLine
 10
53.84144102464926
 20
-17.03155753219228
 30
0.0
 11
53.84144102464926
 21
-5.968134391895028
 31
0.0
  0
LINE
  5
1A9
330
1A4
100
AcDbEntity
  8
치수문자_일반주서
 62
     0
370
    -2
100
AcDbLine
 10
58.60394102464926
 20
-5.968134391895028
 30
0.0
 11
90.58294102464926
 21
-5.968134391895028
 31
0.0
  0
LINE
  5
1AA
330
1A4
100
AcDbEntity
  8
치수문자_일반주서
 62
     0
370
    -2
100
AcDbLine
 10
58.60394102464926
 20
-5.968134391895028
 30
0.0
 11
53.84144102464926
 21
-5.968134391895028
 31
0.0
  0
LINE
  5
1AB
330
1A4
100
AcDbEntity
  8
치수문자_일반주서
 62
     0
370
    -2
100
AcDbLine
 10
61.90594102464926
 20
-5.968134391895028
 30
0.0
 11
65.20794102464926
 21
-5.968134391895028
 31
0.0
  0
LINE
  5
1AC
330
1A4
100
AcDbEntity
  8
치수문자_일반주서
 62
     0
370
    -2
100
AcDbLine
 10
50.53944102464926
 20
-5.968134391895028
 30
0.0
 11
47.23744102464926
 21
-5.968134391895028
 31
0.0
  0
SOLID
  5
1AD
330
1A4
100
AcDbEntity
  8
치수문자_일반주서
 62
     0
100
AcDbTrace
 10
61.90594102464926
 20
-5.417801058561694
 30
0.0
 11
61.90594102464926
 21
-6.518467725228361
 31
0.0
 12
58.60394102464926
 22
-5.968134391895028
 32
0.0
 13
58.60394102464926
 23
-5.968134391895028
 33
0.0
  0
SOLID
  5
1AE
330
1A4
100
AcDbEntity
  8
치수문자_일반주서
 62
     0
100
AcDbTrace
 10
50.53944102464926
 20
-6.518467725228361
 30
0.0
 11
50.53944102464926
 21
-5.417801058561694
 31
0.0
 12
53.84144102464926
 22
-5.968134391895028
 32
0.0
 13
53.84144102464926
 23
-5.968134391895028
 33
0.0
  0
MTEXT
  5
1AF
330
1A4
100
AcDbEntity
  8
치수문자_일반주서
 62
     0
100
AcDbMText
 10
77.89544102464926
 20
-1.593134391895028
 30
0.0
 40
3.5
 41
0.0
 71
     2
 72
     1
  1
\A1;4.76 [3/16]
  7
SLDTEXTSTYLE0
 73
     1
 44
1.0
  0
POINT
  5
1B0
330
1A4
100
AcDbEntity
  8
Defpoints
 62
     0
100
AcDbPoint
 10
58.60394102464926
 20
-16.76322612271796
 30
0.0
  0
POINT
  5
1B1
330
1A4
100
AcDbEntity
  8
Defpoints
 62
     0
100
AcDbPoint
 10
53.84144102464926
 20
-17.09405753219228
 30
0.0
  0
POINT
  5
1B2
330
1A4
100
AcDbEntity
  8
Defpoints
 62
     0
100
AcDbPoint
 10
53.84144102464926
 20
-5.968134391895028
 30
0.0
  0
ENDBLK
  5
1A6
330
1A4
100
AcDbEntity
  8
0
100
AcDbBlockEnd
  0
ENDSEC
  0
SECTION
  2
ENTITIES
  0
LINE
  5
96
330
1F
100
AcDbEntity
  8
외형선
  6
Continuous
370
    15
100
AcDbLine
 10
16.96571733574612
 20
2.38125
 30
0.0
 11
-16.96571733574613
 21
2.381249999999997
 31
0.0
  0
LINE
  5
97
330
1F
100
AcDbEntity
  8
외형선
  6
Continuous
370
    15
100
AcDbLine
 10
-16.96571733574612
 20
-2.381250000000001
 30
0.0
 11
16.96571733574613
 21
-2.381249999999998
 31
0.0
  0
LINE
  5
98
330
1F
100
AcDbEntity
  8
외형선
  6
Continuous
370
    15
100
AcDbLine
 10
16.96571733574612
 20
-2.38125
 30
0.0
 11
18.44687500000002
 21
-1.984374999999999
 31
0.0
  0
LINE
  5
99
330
1F
100
AcDbEntity
  8
외형선
  6
Continuous
370
    15
100
AcDbLine
 10
18.44687500000002
 20
1.984375000000001
 30
0.0
 11
16.96571733574612
 21
2.381250000000001
 31
0.0
  0
LINE
  5
9C
330
1F
100
AcDbEntity
  8
외형선
  6
Continuous
370
    15
100
AcDbLine
 10
18.55696540424013
 20
1.984375000000001
 30
0.0
 11
18.44687500000002
 21
1.984375000000001
 31
0.0
  0
LINE
  5
9D
330
1F
100
AcDbEntity
  8
외형선
  6
Continuous
370
    15
100
AcDbLine
 10
18.44687500000002
 20
-1.984374999999999
 30
0.0
 11
18.55696540424013
 21
-1.984374999999999
 31
0.0
  0
SPLINE
  5
9E
330
1F
100
AcDbEntity
  8
외형선
  6
Continuous
370
    15
100
AcDbSpline
210
0.0
220
0.0
230
1.0
 70
     8
 71
     3
 72
     9
 73
     5
 74
     0
 42
0.000000001
 43
0.00000001
 40
0.0
 40
0.0
 40
0.0
 40
0.0
 40
0.4548254790699138
 40
1.0
 40
1.0
 40
1.0
 40
1.0
 10
19.44687500000002
 20
1.568936454943192
 30
0.0
 10
19.31032847253288
 20
1.5635741045498
 30
0.0
 10
19.01011106222779
 20
1.551784196903559
 30
0.0
 10
18.71337168737109
 20
1.55046182777722
 30
0.0
 10
18.55159694084251
 20
1.549740905822275
 30
0.0
  0
LINE
  5
9F
330
1F
100
AcDbEntity
  8
외형선
  6
Continuous
370
    15
100
AcDbLine
 10
18.5570000121091
 20
-1.549614113503161
 30
0.0
 11
19.40704241200514
 21
-1.561644841325039
 31
0.0
  0
LINE
  5
A0
330
1F
100
AcDbEntity
  8
0
  6
Continuous
 62
     1
370
    15
100
AcDbLine
 10
20.25807142143169
 20
0.5084981635845245
 30
0.0
 11
19.75420434766802
 21
0.7599765336824603
 31
0.0
1001
PE_URL
1000

  0
LINE
  5
A1
330
1F
100
AcDbEntity
  8
0
  6
Continuous
 62
     1
370
    15
100
AcDbLine
 10
19.70132827085148
 20
1.581433322942352
 30
0.0
 11
19.44687500000001
 21
1.562208595585611
 31
0.0
1001
PE_URL
1000

  0
SPLINE
  5
A2
330
1F
100
AcDbEntity
  8
0
  6
Continuous
 62
     1
370
    15
100
AcDbSpline
210
0.0
220
0.0
230
1.0
 70
     8
 71
     3
 72
    13
 73
     9
 74
     0
 42
0.000000001
 43
0.00000001
 40
0.0
 40
0.0
 40
0.0
 40
0.0
 40
0.2071215912743614
 40
0.3200099055023703
 40
0.4843622953607077
 40
0.6505437788558495
 40
0.7705551459529201
 40
1.0
 40
1.0
 40
1.0
 40
1.0
 10
24.66193090433617
 20
1.357219039324864
 30
0.0
 10
24.42116935632323
 20
1.339856534081192
 30
0.0
 10
24.04918457311359
 20
1.31303087274803
 30
0.0
 10
23.49090849148089
 20
1.303235941305802
 30
0.0
 10
22.98045219059053
 20
1.311093303957699
 30
0.0
 10
22.46329916173908
 20
1.341112947870049
 30
0.0
 10
21.86985713946032
 20
1.395384768755413
 30
0.0
 10
21.4626638025733
 20
1.45402860887997
 30
0.0
 10
21.19531009673543
 20
1.492532794880967
 30
0.0
1001
PE_URL
1000

  0
SPLINE
  5
A3
330
1F
100
AcDbEntity
  8
0
  6
Continuous
 62
     1
370
    15
100
AcDbSpline
210
0.0
220
0.0
230
1.0
 70
     8
 71
     3
 72
    13
 73
     9
 74
     0
 42
0.000000001
 43
0.00000001
 40
0.0
 40
0.0
 40
0.0
 40
0.0
 40
0.2980500952006542
 40
0.5339749718081455
 40
0.7063263222987209
 40
0.8532519502252556
 40
0.9907321676616719
 40
0.9999999999999999
 40
0.9999999999999999
 40
0.9999999999999999
 40
0.9999999999999999
 10
21.19531009673543
 20
-1.492532794880966
 30
0.0
 10
21.34095763673433
 20
-1.470662660689569
 30
0.0
 10
21.60189411123026
 20
-1.431480977890812
 30
0.0
 10
21.94829893999944
 20
-1.390559264951036
 30
0.0
 10
22.22510607913907
 20
-1.36282596043433
 30
0.0
 10
22.45332167692897
 20
-1.344319092859024
 30
0.0
 10
22.59936390955722
 20
-1.33388574786909
 30
0.0
 10
22.67179537444789
 20
-1.330060845150845
 30
0.0
 10
22.67636976350217
 20
-1.329819284481674
 30
0.0
1001
PE_URL
1000

  0
LINE
  5
A4
330
1F
100
AcDbEntity
  8
0
  6
Continuous
 62
     1
370
    15
100
AcDbLine
 10
19.5305314729783
 20
-1.568529099461439
 30
0.0
 11
19.70132827085148
 21
-1.581433322942351
 31
0.0
1001
PE_URL
1000

  0
LINE
  5
A5
330
1F
100
AcDbEntity
  8
외형선
  6
Continuous
370
    15
100
AcDbLine
 10
16.96571733574612
 20
2.381250000000001
 30
0.0
 11
16.96571733574612
 21
-2.381249999999998
 31
0.0
  0
LINE
  5
A7
330
1F
100
AcDbEntity
  8
외형선
  6
Continuous
370
    15
100
AcDbLine
 10
18.44687500000002
 20
1.984375000000001
 30
0.0
 11
18.44687500000002
 21
-1.984374999999999
 31
0.0
  0
SPLINE
  5
A9
330
1F
100
AcDbEntity
  8
외형선
  6
Continuous
370
    15
100
AcDbSpline
210
0.0
220
0.0
230
1.0
 70
     8
 71
     3
 72
    10
 73
     6
 74
     0
 42
0.000000001
 43
0.00000001
 40
0.0
 40
0.0
 40
0.0
 40
0.0
 40
0.5
 40
0.5
 40
1.0
 40
1.0
 40
1.0
 40
1.0
 10
19.44687500000002
 20
0.9201645774146361
 30
0.0
 10
19.29747877131519
 20
0.9962714684567668
 30
0.0
 10
19.14814872628704
 20
1.06976809432112
 30
0.0
 10
18.85334775812688
 20
1.209775079045716
 30
0.0
 10
18.7061681993841
 20
1.276575678528867
 30
0.0
 10
18.55706021727053
 20
1.339896216429907
 30
0.0
  0
LINE
  5
AA
330
1F
100
AcDbEntity
  8
외형선
  6
Continuous
370
    15
100
AcDbLine
 10
19.44687500000002
 20
0.9201645774146366
 30
0.0
 11
19.44687500000002
 21
0.3988121342787122
 31
0.0
  0
SPLINE
  5
AB
330
1F
100
AcDbEntity
  8
외형선
  6
Continuous
370
    15
100
AcDbSpline
210
0.0
220
0.0
230
1.0
 70
     8
 71
     3
 72
    10
 73
     6
 74
     0
 42
0.000000001
 43
0.00000001
 40
0.0
 40
0.0
 40
0.0
 40
0.0
 40
0.5
 40
0.5
 40
1.0
 40
1.0
 40
1.0
 40
1.0
 10
19.44687500000002
 20
0.3988121342787113
 30
0.0
 10
19.29746293861228
 20
0.4829687780475292
 30
0.0
 10
19.14811707666259
 20
0.5659850575918889
 30
0.0
 10
18.85328568069266
 20
0.7276939838110744
 30
0.0
 10
18.7060895018629
 20
0.8067109432943743
 30
0.0
 10
18.55696540424013
 20
0.8835845440486132
 30
0.0
  0
LINE
  5
AC
330
1F
100
AcDbEntity
  8
외형선
  6
Continuous
370
    15
100
AcDbLine
 10
18.55696540424013
 20
1.339958945330793
 30
0.0
 11
18.55696540424013
 21
1.984375000000001
 31
0.0
  0
LINE
  5
AD
330
1F
100
AcDbEntity
  8
외형선
  6
Continuous
370
    15
100
AcDbLine
 10
18.55696540424013
 20
-1.984374999999999
 30
0.0
 11
18.55696540424013
 21
0.8841915182695432
 31
0.0
  0
SPLINE
  5
AE
330
1F
100
AcDbEntity
  8
외형선
  6
Continuous
370
    15
100
AcDbSpline
210
0.0
220
0.0
230
1.0
 70
    24
 71
     3
 72
    11
 73
     7
 74
     0
 42
0.000000001
 43
0.00000001
 40
0.0
 40
0.0
 40
0.0
 40
0.0
 40
0.1910573670294576
 40
0.4505111979083737
 40
0.7174892074594399
 40
1.0
 40
1.0
 40
1.0
 40
1.0
 10
19.44687500000002
 20
0.3988486632598829
 30
0.0
 10
19.44687500000002
 20
0.3972320432025387
 30
0.0
 10
19.44687500000002
 20
0.3934200706525113
 30
0.0
 10
19.44687500000002
 20
0.3608870139829601
 30
0.0
 10
19.44687500000002
 20
0.3066851025702905
 30
0.0
 10
19.44687500000002
 20
0.2514155311710589
 30
0.0
 10
19.44687500000002
 20
0.2229995737212647
 30
0.0
  0
SPLINE
  5
AF
330
1F
100
AcDbEntity
  8
외형선
  6
Continuous
370
    15
100
AcDbSpline
210
0.0
220
0.0
230
1.0
 70
     8
 71
     3
 72
    10
 73
     6
 74
     0
 42
0.000000001
 43
0.00000001
 40
0.0
 40
0.0
 40
0.0
 40
0.0
 40
0.5
 40
0.5
 40
1.0
 40
1.0
 40
1.0
 40
1.0
 10
19.44687500000002
 20
0.222999573719488
 30
0.0
 10
19.29746675121237
 20
0.2823547218667905
 30
0.0
 10
19.14812469806228
 20
0.3410701426971156
 30
0.0
 10
18.85330062924952
 20
0.4557722725979272
 30
0.0
 10
18.70610845267717
 20
0.5119879497782748
 30
0.0
 10
18.55698823574641
 20
0.5668527197388862
 30
0.0
  0
SPLINE
  5
B0
330
1F
100
AcDbEntity
  8
외형선
  6
Continuous
370
    15
100
AcDbSpline
210
0.0
220
0.0
230
1.0
 70
    24
 71
     3
 72
    12
 73
     8
 74
     0
 42
0.000000001
 43
0.00000001
 40
0.0
 40
0.0
 40
0.0
 40
0.0
 40
0.2182717550243271
 40
0.4327301379915849
 40
0.6534078285933361
 40
0.8459799655092678
 40
1.0
 40
1.0
 40
1.0
 40
1.0
 10
19.44687500000002
 20
1.557948504906186
 30
0.0
 10
19.44687500000002
 20
1.554789309259846
 30
0.0
 10
19.44687500000002
 20
1.548526111495982
 30
0.0
 10
19.44687500000002
 20
1.444143621265973
 30
0.0
 10
19.44687500000002
 20
1.295115149843008
 30
0.0
 10
19.44687500000002
 20
1.117838008102496
 30
0.0
 10
19.44687500000002
 20
0.9809814497437277
 30
0.0
 10
19.44687500000002
 20
0.9201645774146394
 30
0.0
  0
SPLINE
  5
B1
330
1F
100
AcDbEntity
  8
외형선
  6
Continuous
370
    15
100
AcDbSpline
210
0.0
220
0.0
230
1.0
 70
     8
 71
     3
 72
    10
 73
     6
 74
     0
 42
0.000000001
 43
0.00000001
 40
0.0
 40
0.0
 40
0.0
 40
0.0
 40
0.5
 40
0.5
 40
1.0
 40
1.0
 40
1.0
 40
1.0
 10
19.44687500000002
 20
-1.566909166179043
 30
0.0
 10
19.29746871773083
 20
-1.555876085784542
 30
0.0
 10
19.148128629139
 20
-1.540421674620547
 30
0.0
 10
18.85330833963996
 20
-1.501173588625525
 30
0.0
 10
18.70611822739764
 20
-1.477329410596552
 30
0.0
 10
18.5570000121091
 20
-1.449302170211013
 30
0.0
  0
SPLINE
  5
B2
330
1F
100
AcDbEntity
  8
외형선
  6
Continuous
370
    15
100
AcDbSpline
210
0.0
220
0.0
230
1.0
 70
    24
 71
     3
 72
    14
 73
    10
 74
     0
 42
0.000000001
 43
0.00000001
 40
0.0
 40
0.0
 40
0.0
 40
0.0
 40
0.25
 40
0.25
 40
0.4999999999999999
 40
0.4999999999999999
 40
0.75
 40
0.75
 40
1.0
 40
1.0
 40
1.0
 40
1.0
 10
19.44687500000002
 20
0.2229995737194904
 30
0.0
 10
19.44687500000002
 20
0.0474642422735448
 30
0.0
 10
19.44687500000002
 20
-0.1325599688482907
 30
0.0
 10
19.44687500000002
 20
-0.4847239668050918
 30
0.0
 10
19.44687500000002
 20
-0.6566772213917719
 30
0.0
 10
19.44687500000002
 20
-0.9747956095276646
 30
0.0
 10
19.44687500000002
 20
-1.120791236299715
 30
0.0
 10
19.44687500000002
 20
-1.374048285205495
 30
0.0
 10
19.44687500000002
 20
-1.481262095237653
 30
0.0
 10
19.44687500000002
 20
-1.566909166179043
 30
0.0
  0
SPLINE
  5
B3
330
1F
100
AcDbEntity
  8
0
  6
Continuous
 62
     1
370
    15
100
AcDbSpline
210
0.0
220
0.0
230
1.0
 70
     8
 71
     3
 72
    28
 73
    24
 74
     0
 42
0.000000001
 43
0.00000001
 40
0.0
 40
0.0
 40
0.0
 40
0.0
 40
0.125
 40
0.125
 40
0.2500000000000001
 40
0.2500000000000001
 40
0.3750000000000001
 40
0.3750000000000001
 40
0.5000000000000001
 40
0.5000000000000001
 40
0.5625000000000001
 40
0.5625000000000001
 40
0.6250000000000001
 40
0.6250000000000001
 40
0.6875000000000001
 40
0.6875000000000001
 40
0.7500000000000002
 40
0.7500000000000002
 40
0.8750000000000001
 40
0.8750000000000001
 40
0.9375000000000001
 40
0.9375000000000001
 40
1.0
 40
1.0
 40
1.0
 40
1.0
 10
25.40000000000002
 20
-1.982697836471323
 30
0.0
 10
25.15501062623839
 20
-1.976835397934359
 30
0.0
 10
24.90370419496017
 20
-1.955379555154279
 30
0.0
 10
24.40587051438843
 20
-1.882291856339436
 30
0.0
 10
24.16181123830355
 20
-1.831036399282191
 30
0.0
 10
23.66320125586457
 20
-1.700068328298637
 30
0.0
 10
23.41447119676778
 20
-1.62072336697104
 30
0.0
 10
22.92220031996232
 20
-1.43875382667813
 30
0.0
 10
22.67058092307008
 20
-1.335072121821357
 30
0.0
 10
22.29803881343569
 20
-1.165767798973983
 30
0.0
 10
22.17570743201415
 20
-1.107234360484992
 30
0.0
 10
21.92905922047706
 20
-0.9857881965342283
 30
0.0
 10
21.80447303914008
 20
-0.9228161630675007
 30
0.0
 10
21.55494805266445
 20
-0.7934343709147953
 30
0.0
 10
21.43001353517487
 20
-0.7270268003779683
 30
0.0
 10
21.18199220184162
 20
-0.5919628274617036
 30
0.0
 10
21.05991879707165
 20
-0.5235011939790658
 30
0.0
 10
20.68923815896834
 20
-0.3146427579876794
 30
0.0
 10
20.43747912053988
 20
-0.1709679391502209
 30
0.0
 10
20.06601921711023
 20
0.043706814732987
 30
0.0
 10
19.94404341576757
 20
0.1149643933560217
 30
0.0
 10
19.69649159838629
 20
0.2574465830019414
 30
0.0
 10
19.57166316533115
 20
0.3285249494370296
 30
0.0
 10
19.44687500000002
 20
0.3988121342787105
 30
0.0
1001
PE_URL
1000

  0
SPLINE
  5
B4
330
1F
100
AcDbEntity
  8
0
  6
Continuous
 62
     1
370
    15
100
AcDbSpline
210
0.0
220
0.0
230
1.0
 70
     8
 71
     3
 72
     9
 73
     5
 74
     0
 42
0.000000001
 43
0.00000001
 40
0.0
 40
0.0
 40
0.0
 40
0.0
 40
0.1769819908188686
 40
1.0
 40
1.0
 40
1.0
 40
1.0
 10
20.47064896924156
 20
-0.1881721785511521
 30
0.0
 10
20.41024158910213
 20
-0.1643990401430801
 30
0.0
 10
20.06892222739795
 20
-0.0300738565575789
 30
0.0
 10
19.72770386078546
 20
0.1087472790551985
 30
0.0
 10
19.44687500000002
 20
0.2229995737194904
 30
0.0
1001
PE_URL
1000

  0
SPLINE
  5
B5
330
1F
100
AcDbEntity
  8
외형선
  6
Continuous
370
    15
100
AcDbSpline
210
0.0
220
0.0
230
1.0
 70
    24
 71
     3
 72
    11
 73
     7
 74
     0
 42
0.000000001
 43
0.00000001
 40
0.0
 40
0.0
 40
0.0
 40
0.0
 40
0.1870301831886369
 40
0.4477756610058745
 40
0.7160827753439774
 40
1.0
 40
1.0
 40
1.0
 40
1.0
 10
19.44687500000002
 20
0.3986454370432179
 30
0.0
 10
19.44687500000002
 20
0.3970569526844536
 30
0.0
 10
19.44687500000002
 20
0.3932539053815176
 30
0.0
 10
19.44687500000002
 20
0.3608687825670471
 30
0.0
 10
19.44687500000002
 20
0.3066900285635897
 30
0.0
 10
19.44687500000002
 20
0.2514172038236416
 30
0.0
 10
19.44687500000002
 20
0.2229995737212644
 30
0.0
  0
SPLINE
  5
B6
330
1F
100
AcDbEntity
  8
0
  6
Continuous
 62
     1
370
    15
100
AcDbSpline
210
0.0
220
0.0
230
1.0
 70
     8
 71
     3
 72
    28
 73
    24
 74
     0
 42
0.000000001
 43
0.00000001
 40
0.0
 40
0.0
 40
0.0
 40
0.0
 40
0.1249999999999998
 40
0.1249999999999998
 40
0.2499999999999997
 40
0.2499999999999997
 40
0.3749999999999995
 40
0.3749999999999995
 40
0.4999999999999993
 40
0.4999999999999993
 40
0.5624999999999994
 40
0.5624999999999994
 40
0.6249999999999996
 40
0.6249999999999996
 40
0.6874999999999998
 40
0.6874999999999998
 40
0.7499999999999999
 40
0.7499999999999999
 40
0.8749999999999999
 40
0.8749999999999999
 40
0.9375
 40
0.9375
 40
1.0
 40
1.0
 40
1.0
 40
1.0
 10
25.40000000000002
 20
-1.883054537382051
 30
0.0
 10
25.1550106262384
 20
-1.838064609455407
 30
0.0
 10
24.90370419496018
 20
-1.777929512694537
 30
0.0
 10
24.40587051438845
 20
-1.631104811009276
 30
0.0
 10
24.16181123830357
 20
-1.544889866907199
 30
0.0
 10
23.6632012558646
 20
-1.348516873652473
 30
0.0
 10
23.4144711967678
 20
-1.23901126898185
 30
0.0
 10
22.92220031996236
 20
-1.003296091427671
 30
0.0
 10
22.67058092307011
 20
-0.875757479448565
 30
0.0
 10
22.29803881343573
 20
-0.6764822528036464
 30
0.0
 10
22.17570743201419
 20
-0.6089412231374136
 30
0.0
 10
21.92905922047711
 20
-0.4713993053015819
 30
0.0
 10
21.80447303914012
 20
-0.4013401120561971
 30
0.0
 10
21.5549480526645
 20
-0.2598529456335782
 30
0.0
 10
21.43001353517493
 20
-0.1884273910785675
 30
0.0
 10
21.18199220184168
 20
-0.0454723798006172
 30
0.0
 10
21.0599187970717
 20
0.0258601264325477
 30
0.0
 10
20.6892381589684
 20
0.2401480764662509
 30
0.0
 10
20.43747912053995
 20
0.3831191635843595
 30
0.0
 10
20.0660192171103
 20
0.5902765201931569
 30
0.0
 10
19.94404341576764
 20
0.6579754486595277
 30
0.0
 10
19.69649159838637
 20
0.7912070103264669
 30
0.0
 10
19.57166316533123
 20
0.8565937671885934
 30
0.0
 10
19.4468750000001
 20
0.9201645774145961
 30
0.0
1001
PE_URL
1000

  0
SPLINE
  5
B7
330
1F
100
AcDbEntity
  8
0
  6
Continuous
 62
     1
370
    15
100
AcDbSpline
210
0.0
220
0.0
230
1.0
 70
     8
 71
     3
 72
    22
 73
    18
 74
     0
 42
0.000000001
 43
0.00000001
 40
0.0
 40
0.0
 40
0.0
 40
0.0
 40
0.125
 40
0.125
 40
0.25
 40
0.25
 40
0.375
 40
0.375
 40
0.5
 40
0.5
 40
0.625
 40
0.625
 40
0.75
 40
0.75
 40
0.875
 40
0.875
 40
1.0
 40
1.0
 40
1.0
 40
1.0
 10
25.40000000000002
 20
-1.565616837105678
 30
0.0
 10
25.18876100481405
 20
-1.526725261934513
 30
0.0
 10
24.97283097340627
 20
-1.478449940757812
 30
0.0
 10
24.54272114644403
 20
-1.365322778866907
 30
0.0
 10
24.3316891343263
 20
-1.300857688037643
 30
0.0
 10
23.90438866312244
 20
-1.157135344882567
 30
0.0
 10
23.68779052198942
 20
-1.077752184975006
 30
0.0
 10
23.25994390355654
 20
-0.9080470520543318
 30
0.0
 10
23.04926240177452
 20
-0.8178811307121792
 30
0.0
 10
22.61935362179333
 20
-0.6279029061561164
 30
0.0
 10
22.40324590135596
 20
-0.5285024367191611
 30
0.0
 10
21.97988616568909
 20
-0.3261300012699691
 30
0.0
 10
21.76500156830337
 20
-0.2219551835245555
 30
0.0
 10
21.33474416585321
 20
-0.0121371928272128
 30
0.0
 10
21.12325420334164
 20
0.0928570537295334
 30
0.0
 10
20.69655219049829
 20
0.3011660438465339
 30
0.0
 10
20.47998142227078
 20
0.4046865605621658
 30
0.0
 10
20.26581130743029
 20
0.5048782904253085
 30
0.0
1001
PE_URL
1000

  0
LINE
  5
B8
330
1F
100
AcDbEntity
  8
0
  6
Continuous
 62
     1
370
    15
100
AcDbLine
 10
25.39999999999998
 20
-1.883054537382051
 30
0.0
 11
25.40000000000002
 21
-1.565616837105678
 31
0.0
1001
PE_URL
1000

  0
LINE
  5
B9
330
1F
100
AcDbEntity
  8
0
  6
Continuous
 62
     1
370
    15
100
AcDbLine
 10
25.40000000000002
 20
-1.982697836471323
 30
0.0
 11
25.40000000000001
 21
-1.883054537382048
 31
0.0
1001
PE_URL
1000

  0
SPLINE
  5
BA
330
1F
100
AcDbEntity
  8
0
  6
Continuous
 62
     1
370
    15
100
AcDbSpline
210
0.0
220
0.0
230
1.0
 70
     8
 71
     3
 72
     8
 73
     4
 74
     0
 42
0.000000001
 43
0.00000001
 40
0.0
 40
0.0
 40
0.0
 40
0.0
 40
1.0
 40
1.0
 40
1.0
 40
1.0
 10
24.17150677959567
 20
0.5557441175765014
 30
0.0
 10
24.10123544869919
 20
0.6389927033795278
 30
0.0
 10
24.0385066440142
 20
0.7191404837657348
 30
0.0
 10
23.98510005238471
 20
0.7954558122745643
 30
0.0
1001
PE_URL
1000

  0
LINE
  5
BB
330
1F
100
AcDbEntity
  8
0
  6
Continuous
 62
     1
370
    15
100
AcDbLine
 10
24.01023597617294
 20
0.8165473566545639
 30
0.0
 11
25.40000000000002
 21
0.0000000000000017
 31
0.0
1001
PE_URL
1000

  0
LINE
  5
BC
330
1F
100
AcDbEntity
  8
0
  6
Continuous
 62
     1
370
    15
100
AcDbLine
 10
25.40000000000002
 20
0.0000000000000017
 30
0.0
 11
25.40000000000002
 21
-0.5303102210275749
 31
0.0
1001
PE_URL
1000

  0
SPLINE
  5
BD
330
1F
100
AcDbEntity
  8
0
  6
Continuous
 62
     1
370
    15
100
AcDbSpline
210
0.0
220
0.0
230
1.0
 70
     8
 71
     3
 72
    10
 73
     6
 74
     0
 42
0.000000001
 43
0.00000001
 40
0.0
 40
0.0
 40
0.0
 40
0.0
 40
0.5
 40
0.5
 40
1.0
 40
1.0
 40
1.0
 40
1.0
 10
25.40000000000002
 20
-0.5303102210275746
 30
0.0
 10
25.18733365854359
 20
-0.3631162242341988
 30
0.0
 10
24.9782234133983
 20
-0.1890610906366638
 30
0.0
 10
24.56728519211059
 20
0.1730995957543214
 30
0.0
 10
24.36354542687047
 20
0.363118821077936
 30
0.0
 10
24.17150677959567
 20
0.5557441175765023
 30
0.0
1001
PE_URL
1000

  0
SPLINE
  5
BE
330
1F
100
AcDbEntity
  8
0
  6
Continuous
 62
     1
370
    15
100
AcDbSpline
210
0.0
220
0.0
230
1.0
 70
     8
 71
     3
 72
    13
 73
     9
 74
     0
 42
0.000000001
 43
0.00000001
 40
0.0
 40
0.0
 40
0.0
 40
0.0
 40
0.1080203889179519
 40
0.2990869914326939
 40
0.4903224691232525
 40
0.6819851099438065
 40
0.8734713811169617
 40
1.0
 40
1.0
 40
1.0
 40
1.0
 10
24.1715067795766
 20
0.55574411758477
 30
0.0
 10
24.01048140873717
 20
0.6241185668165969
 30
0.0
 10
23.5646341553517
 20
0.8134338295782182
 30
0.0
 10
22.83406560985079
 20
1.089132547478058
 30
0.0
 10
21.97868092545637
 20
1.346676509005497
 30
0.0
 10
21.12230515756556
 20
1.517069032107809
 30
0.0
 10
20.36252510640336
 20
1.597302001838492
 30
0.0
 10
19.88866214235906
 20
1.579067939643167
 30
0.0
 10
19.70012623333369
 20
1.571813151335001
 30
0.0
1001
PE_URL
1000

  0
SPLINE
  5
BF
330
1F
100
AcDbEntity
  8
0
  6
Continuous
 62
     1
370
    15
100
AcDbSpline
210
0.0
220
0.0
230
1.0
 70
    24
 71
     3
 72
    10
 73
     6
 74
     0
 42
0.000000001
 43
0.00000001
 40
0.0
 40
0.0
 40
0.0
 40
0.0
 40
0.4999999999999999
 40
0.4999999999999999
 40
1.0
 40
1.0
 40
1.0
 40
1.0
 10
25.40000000000002
 20
-1.565616837105678
 30
0.0
 10
25.40000000000002
 20
-1.445600100054425
 30
0.0
 10
25.40000000000002
 20
-1.293954350876899
 30
0.0
 10
25.40000000000002
 20
-0.9413925783146289
 30
0.0
 10
25.40000000000002
 20
-0.7407819573049412
 30
0.0
 10
25.40000000000002
 20
-0.5303102210276383
 30
0.0
1001
PE_URL
1000

  0
SPLINE
  5
C0
330
1F
100
AcDbEntity
  8
외형선
  6
Continuous
370
    15
100
AcDbSpline
210
0.0
220
0.0
230
1.0
 70
    24
 71
     3
 72
    12
 73
     8
 74
     0
 42
0.000000001
 43
0.00000001
 40
0.0
 40
0.0
 40
0.0
 40
0.0
 40
0.1462729440865053
 40
0.3804833939242279
 40
0.6214859626737876
 40
0.8317943972952395
 40
1.0
 40
1.0
 40
1.0
 40
1.0
 10
19.44687500000002
 20
1.560919564427575
 30
0.0
 10
19.44687500000002
 20
1.55308113782293
 30
0.0
 10
19.44687500000002
 20
1.532691918366202
 30
0.0
 10
19.44687500000002
 20
1.444923430188143
 30
0.0
 10
19.44687500000002
 20
1.294932884276359
 30
0.0
 10
19.44687500000002
 20
1.117871047187785
 30
0.0
 10
19.44687500000002
 20
0.980991614659796
 30
0.0
 10
19.44687500000002
 20
0.9201645774146393
 30
0.0
  0
SPLINE
  5
C1
330
1F
100
AcDbEntity
  8
0
  6
Continuous
 62
     1
370
    15
100
AcDbSpline
210
0.0
220
0.0
230
1.0
 70
    24
 71
     3
 72
     8
 73
     4
 74
     0
 42
0.000000001
 43
0.00000001
 40
0.0
 40
0.0
 40
0.0
 40
0.0
 40
1.0
 40
1.0
 40
1.0
 40
1.0
 10
24.19237627747493
 20
0.9693812162995957
 30
0.0
 10
24.12703504113043
 20
0.9145534089822577
 30
0.0
 10
24.05743510497942
 20
0.8561521282279457
 30
0.0
 10
23.98510005238473
 20
0.7954558122745488
 30
0.0
1001
PE_URL
1000

  0
LINE
  5
C2
330
1F
100
AcDbEntity
  8
0
  6
Continuous
 62
     1
370
    15
100
AcDbLine
 10
25.40000000000002
 20
1.3890625
 30
0.0
 11
24.66063008947496
 21
1.352084733917647
 31
0.0
1001
PE_URL
1000

  0
SPLINE
  5
C3
330
1F
100
AcDbEntity
  8
0
  6
Continuous
 62
     1
370
    15
100
AcDbSpline
210
0.0
220
0.0
230
1.0
 70
     8
 71
     3
 72
     8
 73
     4
 74
     0
 42
0.000000001
 43
0.00000001
 40
0.0
 40
0.0
 40
0.0
 40
0.0
 40
1.0
 40
1.0
 40
1.0
 40
1.0
 10
25.40000000000002
 20
1.389062500000001
 30
0.0
 10
24.9917893628792
 20
1.278183303911033
 30
0.0
 10
24.58755760611252
 20
1.142065083747238
 30
0.0
 10
24.19237627747436
 20
0.9693812162999504
 30
0.0
1001
PE_URL
1000

  0
SPLINE
  5
C4
330
1F
100
AcDbEntity
  8
0
  6
Continuous
 62
     1
370
    15
100
AcDbSpline
210
0.0
220
0.0
230
1.0
 70
     8
 71
     3
 72
    10
 73
     6
 74
     0
 42
0.000000001
 43
0.00000001
 40
0.0
 40
0.0
 40
0.0
 40
0.0
 40
0.0429567640945637
 40
0.5320888608596477
 40
1.0
 40
1.0
 40
1.0
 40
1.0
 10
21.1972763976627
 20
-1.488697350608946
 30
0.0
 10
21.17220589157767
 20
-1.493813697396741
 30
0.0
 10
20.86166720680627
 20
-1.557187910782275
 30
0.0
 10
20.27808649544948
 20
-1.597256846164021
 30
0.0
 10
19.71981926019068
 20
-1.576874409811199
 30
0.0
 10
19.44687500000002
 20
-1.566909166179043
 30
0.0
1001
PE_URL
1000

  0
SPLINE
  5
C5
330
1F
100
AcDbEntity
  8
외형선
  6
Continuous
370
    15
100
AcDbSpline
210
0.0
220
0.0
230
1.0
 70
    24
 71
     3
 72
    14
 73
    10
 74
     0
 42
0.000000001
 43
0.00000001
 40
0.0
 40
0.0
 40
0.0
 40
0.0
 40
0.2500000000000001
 40
0.2500000000000001
 40
0.5000000000000001
 40
0.5000000000000001
 40
0.75
 40
0.75
 40
1.0
 40
1.0
 40
1.0
 40
1.0
 10
19.44687500000002
 20
0.2229995737194899
 30
0.0
 10
19.44687500000002
 20
0.0474642422735442
 30
0.0
 10
19.44687500000002
 20
-0.1325599688482911
 30
0.0
 10
19.44687500000002
 20
-0.4847239668050923
 30
0.0
 10
19.44687500000002
 20
-0.6566772213917721
 30
0.0
 10
19.44687500000002
 20
-0.9747956095276651
 30
0.0
 10
19.44687500000002
 20
-1.120791236299715
 30
0.0
 10
19.44687500000002
 20
-1.374048285205495
 30
0.0
 10
19.44687500000002
 20
-1.481262095237653
 30
0.0
 10
19.44687500000002
 20
-1.566909166179043
 30
0.0
  0
LINE
  5
C6
330
1F
100
AcDbEntity
  8
0
  6
Continuous
 62
     1
370
    15
100
AcDbLine
 10
25.40000000000002
 20
0.0000000000000017
 30
0.0
 11
25.40000000000002
 21
1.3890625
 31
0.0
1001
PE_URL
1000

  0
SPLINE
  5
C7
330
1F
100
AcDbEntity
  8
0
  6
Continuous
 62
     1
370
    15
100
AcDbSpline
210
0.0
220
0.0
230
1.0
 70
     8
 71
     3
 72
    11
 73
     7
 74
     0
 42
0.000000001
 43
0.00000001
 40
0.0
 40
0.0
 40
0.0
 40
0.0
 40
0.0365505099802114
 40
0.3573741133591827
 40
0.6784097161889868
 40
1.0
 40
1.0
 40
1.0
 40
1.0
 10
22.68181596735941
 20
1.332324690424663
 30
0.0
 10
22.71492704242119
 20
1.347701767173397
 30
0.0
 10
23.03867193952342
 20
1.498051766998572
 30
0.0
 10
23.65321327998871
 20
1.704475552840291
 30
0.0
 10
24.52604416639942
 20
1.926105852869027
 30
0.0
 10
25.10851380304669
 20
1.9638229901186
 30
0.0
 10
25.40000000000002
 20
1.982697836471325
 30
0.0
1001
PE_URL
1000

  0
SPLINE
  5
C8
330
1F
100
AcDbEntity
  8
0
  6
Continuous
 62
     1
370
    15
100
AcDbSpline
210
0.0
220
0.0
230
1.0
 70
    24
 71
     3
 72
    10
 73
     6
 74
     0
 42
0.000000001
 43
0.00000001
 40
0.0
 40
0.0
 40
0.0
 40
0.0
 40
0.5
 40
0.5
 40
1.0
 40
1.0
 40
1.0
 40
1.0
 10
25.40000000000002
 20
1.3890625
 30
0.0
 10
25.40000000000002
 20
1.473264009602013
 30
0.0
 10
25.40000000000002
 20
1.571113961658186
 30
0.0
 10
25.40000000000002
 20
1.776402897531698
 30
0.0
 10
25.40000000000002
 20
1.883317599168547
 30
0.0
 10
25.40000000000002
 20
1.982697836471324
 30
0.0
1001
PE_URL
1000

  0
LINE
  5
C9
330
1F
100
AcDbEntity
  8
중심선
 62
     1
100
AcDbLine
 10
-28.40000000000001
 20
-0.0000000000000035
 30
0.0
 11
28.40000000000001
 21
0.0000000000000035
 31
0.0
  0
LINE
  5
CA
330
1F
100
AcDbEntity
  8
참조1
100
AcDbLine
 10
0.0000000000000036
 20
-0.0000000000000035
 30
0.0
 11
0.0000000000000036
 21
-40.00000000000001
 31
0.0
  0
LINE
  5
CB
330
1F
100
AcDbEntity
  8
참조1
100
AcDbLine
 10
0.0000000000000036
 20
-40.00000000000001
 30
0.0
 11
-20.41884059669921
 21
-39.99999999999999
 31
0.0
  0
CIRCLE
  5
CC
330
1F
100
AcDbEntity
  8
해칭선
100
AcDbCircle
 10
0.0
 20
0.0
 30
0.0
 40
3.0
  0
INSERT
  5
CD
330
1F
100
AcDbEntity
  8
0
  6
Continuous
 62
     7
100
AcDbBlockReference
 66
     1
  2
블럭10
 10
-13.94027293212521
 20
-52.04717430164393
 30
0.0
  0
ATTRIB
  5
CE
330
CD
100
AcDbEntity
  8
FORMAT
 62
     2
100
AcDbText
 10
-23.12156822086649
 20
-49.97180738881174
 30
0.0
 40
4.233333333333333
  1
E2001010 [ 2 FLUTE ]
 41
0.75
  7
SLDTEXTSTYLE0
 11
-23.12156822086649
 21
-52.08847405547841
 31
0.0
100
AcDbAttribute
  2
AUTOATTR0
 70
     0
 74
     1
  0
SEQEND
  5
CF
330
CD
100
AcDbEntity
  8
0
  6
Continuous
 62
     7
  0
HATCH
  5
D0
330
1F
100
AcDbEntity
  8
중심선
100
AcDbHatch
 10
0.0
 20
0.0
 30
0.0
210
0.0
220
0.0
230
1.0
  2
SOLID
 70
     1
 71
     0
 91
        1
 92
        0
 93
        4
 72
     1
 10
-8.225363627744368
 20
-35.8
 11
-11.67163887158165
 21
-35.8
 72
     1
 10
-11.67163887158165
 20
-35.8
 11
-13.79986873078567
 21
-38.3363255805726
 72
     1
 10
-13.79986873078567
 20
-38.3363255805726
 11
-10.35356040183524
 21
-38.3362861512701
 72
     1
 10
-10.35356040183524
 20
-38.3362861512701
 11
-8.225363627744368
 21
-35.8
 97
        0
 75
     0
 76
     1
 98
        1
 10
9.041086678730526
 20
-0.0010749287238927
  0
HATCH
  5
D1
330
1F
100
AcDbEntity
  8
중심선
100
AcDbHatch
 10
0.0
 20
0.0
 30
0.0
210
0.0
220
0.0
230
1.0
  2
SOLID
 70
     1
 71
     0
 91
        1
 92
        0
 93
        4
 72
     1
 10
-3.212599636708418
 20
-35.80000000000003
 11
-6.658874880545635
 21
-35.8
 72
     1
 10
-6.658874880545635
 20
-35.8
 11
-11.19001288890309
 21
-41.20000000000002
 72
     1
 10
-11.19001288890309
 20
-41.20000000000002
 11
-7.743737645065796
 21
-41.20000000000002
 72
     1
 10
-7.743737645065796
 20
-41.20000000000002
 11
-3.212599636708408
 21
-35.80000000000003
 97
        0
 75
     0
 76
     1
 98
        1
 10
9.041086678730526
 20
-0.0010749287238927
  0
HATCH
  5
D2
330
1F
100
AcDbEntity
  8
중심선
100
AcDbHatch
 10
0.0
 20
0.0
 30
0.0
210
0.0
220
0.0
230
1.0
  2
SOLID
 70
     1
 71
     0
 91
        1
 92
        0
 93
        4
 72
     1
 10
1.800164354327483
 20
-35.8
 11
-1.646110889509636
 21
-35.8
 72
     1
 10
-1.646110889509636
 20
-35.8
 11
-8.694547791398886
 21
-44.20000000000002
 72
     1
 10
-8.694547791398886
 20
-44.20000000000002
 11
-5.248272547561598
 21
-44.20000000000002
 72
     1
 10
-5.248272547561598
 20
-44.20000000000002
 11
1.800164354327483
 21
-35.8
 97
        0
 75
     0
 76
     1
 98
        1
 10
9.041086678730526
 20
-0.0010749287238927
  0
HATCH
  5
D3
330
1F
100
AcDbEntity
  8
중심선
100
AcDbHatch
 10
0.0
 20
0.0
 30
0.0
210
0.0
220
0.0
230
1.0
  2
SOLID
 70
     1
 71
     0
 91
        1
 92
        0
 93
        6
 72
     3
 10
6.600054785339681
 20
-40.00000000005127
 11
3.960054785062283
 21
1.540882976769353E-10
 40
0.3939339440162628
 50
17.09539180608439
 51
320.0019657685077
 73
     0
 72
     1
 10
8.28305444104025
 20
-38.58789400463831
 11
10.58835631474131
 21
-36.65356729459039
 72
     3
 10
6.600054785286835
 20
-40.00000000000014
 11
6.600054785286829
 21
-1.278976924368180E-13
 40
0.636358354079598
 50
39.99873849337411
 51
368.4976242363724
 73
     1
 72
     1
 10
13.02538727718744
 20
-39.03999999993002
 11
5.280122092122756
 21
-39.03999999993002
 72
     1
 10
5.280122092122756
 20
-39.03999999993002
 11
5.280097047676822
 21
-40.95999999992991
 72
     1
 10
5.280097047676824
 20
-40.95999999992991
 11
9.721476817148861
 21
-40.95999999992988
 97
        0
 75
     0
 76
     1
 98
        1
 10
9.041086678730526
 20
-0.0010749287238927
  0
DIMENSION
  5
D4
330
1F
100
AcDbEntity
  8
치수문자_일반주서
100
AcDbDimension
  2
_D
 10
-35.39999999999999
 20
-2.381250000000072
 30
0.0
 11
-35.40000000000007
 21
22.98524999999997
 31
0.0
 70
   160
  1
%%c<>
 71
     2
 42
4.762500000000001
 52
-270.0
  3
SLDDIMSTYLE0
100
AcDbAlignedDimension
 13
-16.96571733574612
 23
2.381250000000001
 33
0.0
 14
-16.96571733574612
 24
-2.381250000000001
 34
0.0
 50
90.0000000000002
100
AcDbRotatedDimension
1001
PE_URL
1000

1001
ACAD
1000
DSTYLE
1002
{
1070
   171
1070
     8
1070
   273
1070
     7
1002
}
  0
DIMENSION
  5
E9
330
1F
100
AcDbEntity
  8
치수문자_일반주서
100
AcDbDimension
  2
_D_1
 10
67.46669154113346
 20
1.98269783647148
 30
0.0
 11
67.46669154113339
 21
23.02419783647148
 31
0.0
 70
   160
  1
%%c<>
 71
     2
 42
3.965395672942647
 52
-270.0
  3
SLDDIMSTYLE0
100
AcDbAlignedDimension
 13
25.40000000000002
 23
-1.982697836471323
 33
0.0
 14
25.40000000000002
 24
1.982697836471324
 34
0.0
 50
90.0000000000002
100
AcDbRotatedDimension
1001
PE_URL
1000

1001
ACAD
1000
DSTYLE
1002
{
1070
   171
1070
     8
1070
   273
1070
     7
1002
}
  0
DIMENSION
  5
FD
330
1F
100
AcDbEntity
  8
치수문자_일반주서
100
AcDbDimension
  2
_D_2
 10
19.44687500000002
 20
12.38125
 30
0.0
 11
46.00400000000002
 21
12.38125
 31
0.0
 70
   160
  1
<>
 71
     2
 42
5.953125000000007
  3
SLDDIMSTYLE0
100
AcDbAlignedDimension
 13
25.40000000000002
 23
1.982697836471324
 33
0.0
 14
19.44687500000002
 24
1.569158574628429
 34
0.0
100
AcDbRotatedDimension
1001
PE_URL
1000

1001
ACAD
1000
DSTYLE
1002
{
1070
   171
1070
     8
1070
   273
1070
     7
1002
}
  0
DIMENSION
  5
112
330
1F
100
AcDbEntity
  8
치수문자_일반주서
100
AcDbDimension
  2
_D_3
 10
25.40000000000002
 20
22.38125
 30
0.0
 11
0.0000000000000124
 21
22.38125
 31
0.0
 70
   160
  1
<>
 71
     2
 42
50.80000000000005
  3
SLDDIMSTYLE0
100
AcDbAlignedDimension
 13
-25.40000000000003
 23
1.982697836471324
 33
0.0
 14
25.40000000000002
 24
1.982697836471324
 34
0.0
100
AcDbRotatedDimension
1001
PE_URL
1000

1001
ACAD
1000
DSTYLE
1002
{
1070
   171
1070
     8
1070
   273
1070
     7
1002
}
  0
LINE
  5
126
330
1F
100
AcDbEntity
  8
참조1
100
AcDbLine
 10
77.55350003295504
 20
7.440000000000004
 30
0.0
 11
77.55350003295504
 21
-7.440000000000001
 31
0.0
  0
LINE
  5
127
330
1F
100
AcDbEntity
  8
참조1
100
AcDbLine
 10
90.25350003295506
 20
5.440000000000004
 30
0.0
 11
77.55350003295504
 21
5.440000000000004
 31
0.0
  0
SOLID
  5
128
330
1F
100
AcDbEntity
  8
참조1
100
AcDbTrace
 10
77.55350003295504
 20
5.440000000000004
 30
0.0
 11
83.90350003295507
 21
4.424000000000004
 31
0.0
 12
83.90350003295507
 22
6.456000000000004
 32
0.0
 13
83.90350003295507
 23
6.456000000000004
 33
0.0
  0
LINE
  5
129
330
1F
100
AcDbEntity
  8
참조1
100
AcDbLine
 10
90.25350003295506
 20
-5.440000000000001
 30
0.0
 11
77.55350003295504
 21
-5.440000000000001
 31
0.0
  0
SOLID
  5
12A
330
1F
100
AcDbEntity
  8
참조1
100
AcDbTrace
 10
77.55350003295504
 20
-5.440000000000001
 30
0.0
 11
83.90350003295507
 21
-6.456000000000001
 31
0.0
 12
83.90350003295507
 22
-4.424000000000001
 32
0.0
 13
83.90350003295507
 23
-4.424000000000001
 33
0.0
  0
MTEXT
  5
12B
330
1F
100
AcDbEntity
  8
참조1
100
AcDbMText
 10
86.93785016558107
 20
11.01029177718833
 30
0.0
 40
3.5
 41
0.0
 71
     1
 72
     1
  1
A
  7
SLDTEXTSTYLE0
 73
     1
 44
1.0
  0
MTEXT
  5
12C
330
1F
100
AcDbEntity
  8
참조1
100
AcDbMText
 10
86.93785016558107
 20
0.1302917771883265
 30
0.0
 40
3.5
 41
0.0
 71
     1
 72
     1
  1
A
  7
SLDTEXTSTYLE0
 73
     1
 44
1.0
  0
INSERT
  5
133
330
1F
100
AcDbEntity
  8
해칭선
100
AcDbBlockReference
  2
SW_DOWELSYMBOL_0
 10
0.0
 20
0.0
 30
0.0
  0
LINE
  5
257
330
1F
100
AcDbEntity
  8
외형선
  6
Continuous
370
    15
100
AcDbLine
 10
-16.96571733574613
 20
2.381249999999996
 30
0.0
 11
-18.44687500000003
 21
1.984374999999995
 31
0.0
  0
LINE
  5
258
330
1F
100
AcDbEntity
  8
외형선
  6
Continuous
370
    15
100
AcDbLine
 10
-18.44687500000003
 20
-1.984375000000005
 30
0.0
 11
-16.96571733574613
 21
-2.381250000000005
 31
0.0
  0
LINE
  5
259
330
1F
100
AcDbEntity
  8
외형선
  6
Continuous
370
    15
100
AcDbLine
 10
-18.55696540424013
 20
-1.984375000000005
 30
0.0
 11
-18.44687500000003
 21
-1.984375000000005
 31
0.0
  0
LINE
  5
25A
330
1F
100
AcDbEntity
  8
외형선
  6
Continuous
370
    15
100
AcDbLine
 10
-18.44687500000003
 20
1.984374999999995
 30
0.0
 11
-18.55696540424013
 21
1.984374999999995
 31
0.0
  0
SPLINE
  5
25B
330
1F
100
AcDbEntity
  8
외형선
  6
Continuous
370
    15
100
AcDbSpline
210
0.0
220
0.0
230
1.0
 70
     8
 71
     3
 72
     9
 73
     5
 74
     0
 42
0.000000001
 43
0.00000001
 40
0.0
 40
0.0
 40
0.0
 40
0.0
 40
0.4548254790699138
 40
1.0
 40
1.0
 40
1.0
 40
1.0
 10
-19.44687500000003
 20
-1.568936454943195
 30
0.0
 10
-19.31032847253289
 20
-1.563574104549804
 30
0.0
 10
-19.0101110622278
 20
-1.551784196903563
 30
0.0
 10
-18.7133716873711
 20
-1.550461827777223
 30
0.0
 10
-18.55159694084252
 20
-1.549740905822279
 30
0.0
  0
LINE
  5
25C
330
1F
100
AcDbEntity
  8
외형선
  6
Continuous
370
    15
100
AcDbLine
 10
-18.55700001210911
 20
1.549614113503157
 30
0.0
 11
-19.40704241200515
 21
1.561644841325036
 31
0.0
  0
LINE
  5
25D
330
1F
100
AcDbEntity
  8
0
  6
Continuous
 62
     1
370
    15
100
AcDbLine
 10
-20.2580714214317
 20
-0.5084981635845285
 30
0.0
 11
-19.75420434766802
 21
-0.7599765336824635
 31
0.0
1001
PE_URL
1000

  0
LINE
  5
25E
330
1F
100
AcDbEntity
  8
0
  6
Continuous
 62
     1
370
    15
100
AcDbLine
 10
-19.70132827085149
 20
-1.581433322942356
 30
0.0
 11
-19.44687500000002
 21
-1.562208595585615
 31
0.0
1001
PE_URL
1000

  0
SPLINE
  5
25F
330
1F
100
AcDbEntity
  8
0
  6
Continuous
 62
     1
370
    15
100
AcDbSpline
210
0.0
220
0.0
230
1.0
 70
     8
 71
     3
 72
    13
 73
     9
 74
     0
 42
0.000000001
 43
0.00000001
 40
0.0
 40
0.0
 40
0.0
 40
0.0
 40
0.2071215912743614
 40
0.3200099055023703
 40
0.4843622953607077
 40
0.6505437788558495
 40
0.7705551459529201
 40
1.0
 40
1.0
 40
1.0
 40
1.0
 10
-24.66193090433618
 20
-1.357219039324868
 30
0.0
 10
-24.42116935632324
 20
-1.339856534081196
 30
0.0
 10
-24.0491845731136
 20
-1.313030872748033
 30
0.0
 10
-23.4909084914809
 20
-1.303235941305806
 30
0.0
 10
-22.98045219059054
 20
-1.311093303957703
 30
0.0
 10
-22.46329916173909
 20
-1.341112947870052
 30
0.0
 10
-21.86985713946033
 20
-1.395384768755417
 30
0.0
 10
-21.46266380257331
 20
-1.454028608879973
 30
0.0
 10
-21.19531009673544
 20
-1.492532794880971
 30
0.0
1001
PE_URL
1000

  0
SPLINE
  5
260
330
1F
100
AcDbEntity
  8
0
  6
Continuous
 62
     1
370
    15
100
AcDbSpline
210
0.0
220
0.0
230
1.0
 70
     8
 71
     3
 72
    13
 73
     9
 74
     0
 42
0.000000001
 43
0.00000001
 40
0.0
 40
0.0
 40
0.0
 40
0.0
 40
0.2980500952006542
 40
0.5339749718081455
 40
0.7063263222987209
 40
0.8532519502252556
 40
0.9907321676616719
 40
0.9999999999999999
 40
0.9999999999999999
 40
0.9999999999999999
 40
0.9999999999999999
 10
-21.19531009673544
 20
1.492532794880962
 30
0.0
 10
-21.34095763673434
 20
1.470662660689566
 30
0.0
 10
-21.60189411123028
 20
1.431480977890809
 30
0.0
 10
-21.94829893999945
 20
1.390559264951033
 30
0.0
 10
-22.22510607913908
 20
1.362825960434327
 30
0.0
 10
-22.45332167692898
 20
1.344319092859021
 30
0.0
 10
-22.59936390955724
 20
1.333885747869086
 30
0.0
 10
-22.6717953744479
 20
1.330060845150841
 30
0.0
 10
-22.67636976350218
 20
1.329819284481671
 30
0.0
1001
PE_URL
1000

  0
LINE
  5
261
330
1F
100
AcDbEntity
  8
0
  6
Continuous
 62
     1
370
    15
100
AcDbLine
 10
-19.53053147297831
 20
1.568529099461436
 30
0.0
 11
-19.70132827085149
 21
1.581433322942347
 31
0.0
1001
PE_URL
1000

  0
LINE
  5
262
330
1F
100
AcDbEntity
  8
외형선
  6
Continuous
370
    15
100
AcDbLine
 10
-16.96571733574613
 20
-2.381250000000005
 30
0.0
 11
-16.96571733574613
 21
2.381249999999994
 31
0.0
  0
LINE
  5
263
330
1F
100
AcDbEntity
  8
외형선
  6
Continuous
370
    15
100
AcDbLine
 10
-18.44687500000003
 20
-1.984375000000005
 30
0.0
 11
-18.44687500000003
 21
1.984374999999995
 31
0.0
  0
SPLINE
  5
264
330
1F
100
AcDbEntity
  8
외형선
  6
Continuous
370
    15
100
AcDbSpline
210
0.0
220
0.0
230
1.0
 70
     8
 71
     3
 72
    10
 73
     6
 74
     0
 42
0.000000001
 43
0.00000001
 40
0.0
 40
0.0
 40
0.0
 40
0.0
 40
0.5
 40
0.5
 40
1.0
 40
1.0
 40
1.0
 40
1.0
 10
-19.44687500000003
 20
-0.9201645774146403
 30
0.0
 10
-19.2974787713152
 20
-0.9962714684567704
 30
0.0
 10
-19.14814872628705
 20
-1.069768094321123
 30
0.0
 10
-18.85334775812689
 20
-1.20977507904572
 30
0.0
 10
-18.70616819938411
 20
-1.276575678528872
 30
0.0
 10
-18.55706021727054
 20
-1.33989621642991
 30
0.0
  0
LINE
  5
265
330
1F
100
AcDbEntity
  8
외형선
  6
Continuous
370
    15
100
AcDbLine
 10
-19.44687500000003
 20
-0.9201645774146403
 30
0.0
 11
-19.44687500000003
 21
-0.3988121342787156
 31
0.0
  0
SPLINE
  5
266
330
1F
100
AcDbEntity
  8
외형선
  6
Continuous
370
    15
100
AcDbSpline
210
0.0
220
0.0
230
1.0
 70
     8
 71
     3
 72
    10
 73
     6
 74
     0
 42
0.000000001
 43
0.00000001
 40
0.0
 40
0.0
 40
0.0
 40
0.0
 40
0.5
 40
0.5
 40
1.0
 40
1.0
 40
1.0
 40
1.0
 10
-19.44687500000003
 20
-0.3988121342787156
 30
0.0
 10
-19.29746293861229
 20
-0.4829687780475336
 30
0.0
 10
-19.1481170766626
 20
-0.5659850575918917
 30
0.0
 10
-18.85328568069267
 20
-0.7276939838110774
 30
0.0
 10
-18.70608950186291
 20
-0.8067109432943784
 30
0.0
 10
-18.55696540424013
 20
-0.8835845440486167
 30
0.0
  0
LINE
  5
267
330
1F
100
AcDbEntity
  8
외형선
  6
Continuous
370
    15
100
AcDbLine
 10
-18.55696540424013
 20
-1.339958945330796
 30
0.0
 11
-18.55696540424013
 21
-1.984375000000005
 31
0.0
  0
LINE
  5
268
330
1F
100
AcDbEntity
  8
외형선
  6
Continuous
370
    15
100
AcDbLine
 10
-18.55696540424013
 20
1.984374999999995
 30
0.0
 11
-18.55696540424013
 21
-0.8841915182695459
 31
0.0
  0
SPLINE
  5
269
330
1F
100
AcDbEntity
  8
외형선
  6
Continuous
370
    15
100
AcDbSpline
210
0.0
220
0.0
230
1.0
 70
    24
 71
     3
 72
    11
 73
     7
 74
     0
 42
0.000000001
 43
0.00000001
 40
0.0
 40
0.0
 40
0.0
 40
0.0
 40
0.1910573670294576
 40
0.4505111979083737
 40
0.7174892074594399
 40
1.0
 40
1.0
 40
1.0
 40
1.0
 10
-19.44687500000003
 20
-0.3988486632598871
 30
0.0
 10
-19.44687500000003
 20
-0.3972320432025427
 30
0.0
 10
-19.44687500000003
 20
-0.3934200706525139
 30
0.0
 10
-19.44687500000003
 20
-0.3608870139829641
 30
0.0
 10
-19.44687500000003
 20
-0.3066851025702935
 30
0.0
 10
-19.44687500000003
 20
-0.2514155311710624
 30
0.0
 10
-19.44687500000003
 20
-0.2229995737212676
 30
0.0
  0
SPLINE
  5
26A
330
1F
100
AcDbEntity
  8
외형선
  6
Continuous
370
    15
100
AcDbSpline
210
0.0
220
0.0
230
1.0
 70
     8
 71
     3
 72
    10
 73
     6
 74
     0
 42
0.000000001
 43
0.00000001
 40
0.0
 40
0.0
 40
0.0
 40
0.0
 40
0.5
 40
0.5
 40
1.0
 40
1.0
 40
1.0
 40
1.0
 10
-19.44687500000004
 20
-0.2229995737194912
 30
0.0
 10
-19.29746675121238
 20
-0.2823547218667937
 30
0.0
 10
-19.14812469806229
 20
-0.3410701426971183
 30
0.0
 10
-18.85330062924953
 20
-0.4557722725979314
 30
0.0
 10
-18.70610845267718
 20
-0.5119879497782787
 30
0.0
 10
-18.55698823574642
 20
-0.5668527197388897
 30
0.0
  0
SPLINE
  5
26B
330
1F
100
AcDbEntity
  8
외형선
  6
Continuous
370
    15
100
AcDbSpline
210
0.0
220
0.0
230
1.0
 70
    24
 71
     3
 72
    12
 73
     8
 74
     0
 42
0.000000001
 43
0.00000001
 40
0.0
 40
0.0
 40
0.0
 40
0.0
 40
0.2182717550243271
 40
0.4327301379915849
 40
0.6534078285933361
 40
0.8459799655092678
 40
1.0
 40
1.0
 40
1.0
 40
1.0
 10
-19.44687500000003
 20
-1.557948504906189
 30
0.0
 10
-19.44687500000003
 20
-1.554789309259849
 30
0.0
 10
-19.44687500000003
 20
-1.548526111495985
 30
0.0
 10
-19.44687500000003
 20
-1.444143621265976
 30
0.0
 10
-19.44687500000003
 20
-1.295115149843012
 30
0.0
 10
-19.44687500000003
 20
-1.117838008102499
 30
0.0
 10
-19.44687500000003
 20
-0.9809814497437319
 30
0.0
 10
-19.44687500000003
 20
-0.9201645774146421
 30
0.0
  0
SPLINE
  5
26C
330
1F
100
AcDbEntity
  8
외형선
  6
Continuous
370
    15
100
AcDbSpline
210
0.0
220
0.0
230
1.0
 70
     8
 71
     3
 72
    10
 73
     6
 74
     0
 42
0.000000001
 43
0.00000001
 40
0.0
 40
0.0
 40
0.0
 40
0.0
 40
0.5
 40
0.5
 40
1.0
 40
1.0
 40
1.0
 40
1.0
 10
-19.44687500000004
 20
1.566909166179039
 30
0.0
 10
-19.29746871773084
 20
1.555876085784538
 30
0.0
 10
-19.14812862913901
 20
1.540421674620543
 30
0.0
 10
-18.85330833963998
 20
1.501173588625521
 30
0.0
 10
-18.70611822739765
 20
1.477329410596548
 30
0.0
 10
-18.55700001210911
 20
1.449302170211009
 30
0.0
  0
SPLINE
  5
26D
330
1F
100
AcDbEntity
  8
외형선
  6
Continuous
370
    15
100
AcDbSpline
210
0.0
220
0.0
230
1.0
 70
    24
 71
     3
 72
    14
 73
    10
 74
     0
 42
0.000000001
 43
0.00000001
 40
0.0
 40
0.0
 40
0.0
 40
0.0
 40
0.25
 40
0.25
 40
0.4999999999999999
 40
0.4999999999999999
 40
0.75
 40
0.75
 40
1.0
 40
1.0
 40
1.0
 40
1.0
 10
-19.44687500000003
 20
-0.2229995737194947
 30
0.0
 10
-19.44687500000003
 20
-0.0474642422735485
 30
0.0
 10
-19.44687500000003
 20
0.1325599688482875
 30
0.0
 10
-19.44687500000003
 20
0.4847239668050882
 30
0.0
 10
-19.44687500000003
 20
0.6566772213917691
 30
0.0
 10
-19.44687500000003
 20
0.9747956095276606
 30
0.0
 10
-19.44687500000003
 20
1.120791236299711
 30
0.0
 10
-19.44687500000003
 20
1.374048285205491
 30
0.0
 10
-19.44687500000003
 20
1.48126209523765
 30
0.0
 10
-19.44687500000003
 20
1.566909166179039
 30
0.0
  0
SPLINE
  5
26E
330
1F
100
AcDbEntity
  8
0
  6
Continuous
 62
     1
370
    15
100
AcDbSpline
210
0.0
220
0.0
230
1.0
 70
     8
 71
     3
 72
    28
 73
    24
 74
     0
 42
0.000000001
 43
0.00000001
 40
0.0
 40
0.0
 40
0.0
 40
0.0
 40
0.125
 40
0.125
 40
0.2500000000000001
 40
0.2500000000000001
 40
0.3750000000000001
 40
0.3750000000000001
 40
0.5000000000000001
 40
0.5000000000000001
 40
0.5625000000000001
 40
0.5625000000000001
 40
0.6250000000000001
 40
0.6250000000000001
 40
0.6875000000000001
 40
0.6875000000000001
 40
0.7500000000000002
 40
0.7500000000000002
 40
0.8750000000000001
 40
0.8750000000000001
 40
0.9375000000000001
 40
0.9375000000000001
 40
1.0
 40
1.0
 40
1.0
 40
1.0
 10
-25.40000000000004
 20
1.982697836471319
 30
0.0
 10
-25.1550106262384
 20
1.976835397934355
 30
0.0
 10
-24.90370419496018
 20
1.955379555154275
 30
0.0
 10
-24.40587051438844
 20
1.882291856339432
 30
0.0
 10
-24.16181123830356
 20
1.831036399282187
 30
0.0
 10
-23.66320125586458
 20
1.700068328298634
 30
0.0
 10
-23.41447119676779
 20
1.620723366971037
 30
0.0
 10
-22.92220031996233
 20
1.438753826678127
 30
0.0
 10
-22.67058092307009
 20
1.335072121821353
 30
0.0
 10
-22.2980388134357
 20
1.165767798973979
 30
0.0
 10
-22.17570743201416
 20
1.107234360484988
 30
0.0
 10
-21.92905922047707
 20
0.9857881965342248
 30
0.0
 10
-21.80447303914009
 20
0.9228161630674965
 30
0.0
 10
-21.55494805266446
 20
0.7934343709147917
 30
0.0
 10
-21.43001353517488
 20
0.7270268003779652
 30
0.0
 10
-21.18199220184163
 20
0.5919628274616997
 30
0.0
 10
-21.05991879707166
 20
0.5235011939790617
 30
0.0
 10
-20.68923815896835
 20
0.3146427579876754
 30
0.0
 10
-20.43747912053989
 20
0.1709679391502181
 30
0.0
 10
-20.06601921711024
 20
-0.0437068147329907
 30
0.0
 10
-19.94404341576758
 20
-0.1149643933560256
 30
0.0
 10
-19.6964915983863
 20
-0.2574465830019452
 30
0.0
 10
-19.57166316533116
 20
-0.3285249494370337
 30
0.0
 10
-19.44687500000003
 20
-0.3988121342787139
 30
0.0
1001
PE_URL
1000

  0
SPLINE
  5
26F
330
1F
100
AcDbEntity
  8
0
  6
Continuous
 62
     1
370
    15
100
AcDbSpline
210
0.0
220
0.0
230
1.0
 70
     8
 71
     3
 72
     9
 73
     5
 74
     0
 42
0.000000001
 43
0.00000001
 40
0.0
 40
0.0
 40
0.0
 40
0.0
 40
0.1769819908188686
 40
1.0
 40
1.0
 40
1.0
 40
1.0
 10
-20.47064896924157
 20
0.1881721785511488
 30
0.0
 10
-20.41024158910214
 20
0.1643990401430759
 30
0.0
 10
-20.06892222739797
 20
0.0300738565575749
 30
0.0
 10
-19.72770386078548
 20
-0.1087472790552013
 30
0.0
 10
-19.44687500000003
 20
-0.2229995737194947
 30
0.0
1001
PE_URL
1000

  0
SPLINE
  5
270
330
1F
100
AcDbEntity
  8
외형선
  6
Continuous
370
    15
100
AcDbSpline
210
0.0
220
0.0
230
1.0
 70
    24
 71
     3
 72
    11
 73
     7
 74
     0
 42
0.000000001
 43
0.00000001
 40
0.0
 40
0.0
 40
0.0
 40
0.0
 40
0.1870301831886369
 40
0.4477756610058745
 40
0.7160827753439774
 40
1.0
 40
1.0
 40
1.0
 40
1.0
 10
-19.44687500000003
 20
-0.3986454370432213
 30
0.0
 10
-19.44687500000003
 20
-0.3970569526844567
 30
0.0
 10
-19.44687500000003
 20
-0.3932539053815205
 30
0.0
 10
-19.44687500000003
 20
-0.3608687825670511
 30
0.0
 10
-19.44687500000003
 20
-0.3066900285635938
 30
0.0
 10
-19.44687500000003
 20
-0.251417203823646
 30
0.0
 10
-19.44687500000003
 20
-0.2229995737212676
 30
0.0
  0
SPLINE
  5
271
330
1F
100
AcDbEntity
  8
0
  6
Continuous
 62
     1
370
    15
100
AcDbSpline
210
0.0
220
0.0
230
1.0
 70
     8
 71
     3
 72
    28
 73
    24
 74
     0
 42
0.000000001
 43
0.00000001
 40
0.0
 40
0.0
 40
0.0
 40
0.0
 40
0.1249999999999998
 40
0.1249999999999998
 40
0.2499999999999997
 40
0.2499999999999997
 40
0.3749999999999995
 40
0.3749999999999995
 40
0.4999999999999993
 40
0.4999999999999993
 40
0.5624999999999994
 40
0.5624999999999994
 40
0.6249999999999996
 40
0.6249999999999996
 40
0.6874999999999998
 40
0.6874999999999998
 40
0.7499999999999999
 40
0.7499999999999999
 40
0.8749999999999999
 40
0.8749999999999999
 40
0.9375
 40
0.9375
 40
1.0
 40
1.0
 40
1.0
 40
1.0
 10
-25.40000000000004
 20
1.883054537382048
 30
0.0
 10
-25.15501062623841
 20
1.838064609455403
 30
0.0
 10
-24.90370419496019
 20
1.777929512694534
 30
0.0
 10
-24.40587051438846
 20
1.631104811009273
 30
0.0
 10
-24.16181123830359
 20
1.544889866907196
 30
0.0
 10
-23.66320125586461
 20
1.34851687365247
 30
0.0
 10
-23.41447119676781
 20
1.239011268981846
 30
0.0
 10
-22.92220031996237
 20
1.003296091427668
 30
0.0
 10
-22.67058092307012
 20
0.875757479448561
 30
0.0
 10
-22.29803881343574
 20
0.6764822528036429
 30
0.0
 10
-22.1757074320142
 20
0.6089412231374105
 30
0.0
 10
-21.92905922047712
 20
0.4713993053015777
 30
0.0
 10
-21.80447303914014
 20
0.401340112056193
 30
0.0
 10
-21.55494805266452
 20
0.2598529456335754
 30
0.0
 10
-21.43001353517493
 20
0.1884273910785641
 30
0.0
 10
-21.18199220184168
 20
0.0454723798006142
 30
0.0
 10
-21.05991879707171
 20
-0.0258601264325513
 30
0.0
 10
-20.68923815896841
 20
-0.2401480764662551
 30
0.0
 10
-20.43747912053996
 20
-0.3831191635843627
 30
0.0
 10
-20.06601921711031
 20
-0.5902765201931608
 30
0.0
 10
-19.94404341576765
 20
-0.6579754486595313
 30
0.0
 10
-19.69649159838638
 20
-0.7912070103264703
 30
0.0
 10
-19.57166316533124
 20
-0.8565937671885973
 30
0.0
 10
-19.44687500000011
 20
-0.9201645774145994
 30
0.0
1001
PE_URL
1000

  0
SPLINE
  5
272
330
1F
100
AcDbEntity
  8
0
  6
Continuous
 62
     1
370
    15
100
AcDbSpline
210
0.0
220
0.0
230
1.0
 70
     8
 71
     3
 72
    22
 73
    18
 74
     0
 42
0.000000001
 43
0.00000001
 40
0.0
 40
0.0
 40
0.0
 40
0.0
 40
0.125
 40
0.125
 40
0.25
 40
0.25
 40
0.375
 40
0.375
 40
0.5
 40
0.5
 40
0.625
 40
0.625
 40
0.75
 40
0.75
 40
0.875
 40
0.875
 40
1.0
 40
1.0
 40
1.0
 40
1.0
 10
-25.40000000000004
 20
1.565616837105674
 30
0.0
 10
-25.18876100481406
 20
1.526725261934509
 30
0.0
 10
-24.97283097340628
 20
1.478449940757809
 30
0.0
 10
-24.54272114644404
 20
1.365322778866904
 30
0.0
 10
-24.33168913432631
 20
1.30085768803764
 30
0.0
 10
-23.90438866312245
 20
1.157135344882564
 30
0.0
 10
-23.68779052198943
 20
1.077752184975003
 30
0.0
 10
-23.25994390355655
 20
0.9080470520543287
 30
0.0
 10
-23.04926240177453
 20
0.8178811307121752
 30
0.0
 10
-22.61935362179333
 20
0.6279029061561126
 30
0.0
 10
-22.40324590135597
 20
0.5285024367191582
 30
0.0
 10
-21.9798861656891
 20
0.3261300012699664
 30
0.0
 10
-21.76500156830337
 20
0.2219551835245515
 30
0.0
 10
-21.33474416585323
 20
0.0121371928272094
 30
0.0
 10
-21.12325420334165
 20
-0.0928570537295368
 30
0.0
 10
-20.6965521904983
 20
-0.3011660438465373
 30
0.0
 10
-20.47998142227079
 20
-0.404686560562169
 30
0.0
 10
-20.2658113074303
 20
-0.504878290425312
 30
0.0
1001
PE_URL
1000

  0
LINE
  5
273
330
1F
100
AcDbEntity
  8
0
  6
Continuous
 62
     1
370
    15
100
AcDbLine
 10
-25.39999999999999
 20
1.883054537382048
 30
0.0
 11
-25.40000000000004
 21
1.565616837105674
 31
0.0
1001
PE_URL
1000

  0
LINE
  5
274
330
1F
100
AcDbEntity
  8
0
  6
Continuous
 62
     1
370
    15
100
AcDbLine
 10
-25.40000000000004
 20
1.982697836471319
 30
0.0
 11
-25.40000000000002
 21
1.883054537382044
 31
0.0
1001
PE_URL
1000

  0
SPLINE
  5
275
330
1F
100
AcDbEntity
  8
0
  6
Continuous
 62
     1
370
    15
100
AcDbSpline
210
0.0
220
0.0
230
1.0
 70
     8
 71
     3
 72
     8
 73
     4
 74
     0
 42
0.000000001
 43
0.00000001
 40
0.0
 40
0.0
 40
0.0
 40
0.0
 40
1.0
 40
1.0
 40
1.0
 40
1.0
 10
-24.17150677959568
 20
-0.5557441175765057
 30
0.0
 10
-24.1012354486992
 20
-0.6389927033795306
 30
0.0
 10
-24.03850664401421
 20
-0.719140483765738
 30
0.0
 10
-23.98510005238472
 20
-0.7954558122745681
 30
0.0
1001
PE_URL
1000

  0
LINE
  5
276
330
1F
100
AcDbEntity
  8
0
  6
Continuous
 62
     1
370
    15
100
AcDbLine
 10
-24.01023597617295
 20
-0.8165473566545671
 30
0.0
 11
-25.40000000000004
 21
-0.0000000000000053
 31
0.0
1001
PE_URL
1000

  0
LINE
  5
277
330
1F
100
AcDbEntity
  8
0
  6
Continuous
 62
     1
370
    15
100
AcDbLine
 10
-25.40000000000004
 20
-0.0000000000000053
 30
0.0
 11
-25.40000000000004
 21
0.5303102210275714
 31
0.0
1001
PE_URL
1000

  0
SPLINE
  5
278
330
1F
100
AcDbEntity
  8
0
  6
Continuous
 62
     1
370
    15
100
AcDbSpline
210
0.0
220
0.0
230
1.0
 70
     8
 71
     3
 72
    10
 73
     6
 74
     0
 42
0.000000001
 43
0.00000001
 40
0.0
 40
0.0
 40
0.0
 40
0.0
 40
0.5
 40
0.5
 40
1.0
 40
1.0
 40
1.0
 40
1.0
 10
-25.40000000000004
 20
0.5303102210275714
 30
0.0
 10
-25.1873336585436
 20
0.3631162242341954
 30
0.0
 10
-24.97822341339831
 20
0.1890610906366597
 30
0.0
 10
-24.56728519211059
 20
-0.1730995957543247
 30
0.0
 10
-24.36354542687048
 20
-0.3631188210779399
 30
0.0
 10
-24.17150677959568
 20
-0.5557441175765057
 30
0.0
1001
PE_URL
1000

  0
SPLINE
  5
279
330
1F
100
AcDbEntity
  8
0
  6
Continuous
 62
     1
370
    15
100
AcDbSpline
210
0.0
220
0.0
230
1.0
 70
     8
 71
     3
 72
    13
 73
     9
 74
     0
 42
0.000000001
 43
0.00000001
 40
0.0
 40
0.0
 40
0.0
 40
0.0
 40
0.1080203889179519
 40
0.2990869914326939
 40
0.4903224691232525
 40
0.6819851099438065
 40
0.8734713811169617
 40
1.0
 40
1.0
 40
1.0
 40
1.0
 10
-24.17150677957661
 20
-0.5557441175847728
 30
0.0
 10
-24.01048140873718
 20
-0.6241185668166
 30
0.0
 10
-23.56463415535171
 20
-0.8134338295782211
 30
0.0
 10
-22.83406560985081
 20
-1.089132547478062
 30
0.0
 10
-21.97868092545638
 20
-1.346676509005501
 30
0.0
 10
-21.12230515756557
 20
-1.517069032107813
 30
0.0
 10
-20.36252510640337
 20
-1.597302001838496
 30
0.0
 10
-19.88866214235907
 20
-1.579067939643171
 30
0.0
 10
-19.7001262333337
 20
-1.571813151335004
 30
0.0
1001
PE_URL
1000

  0
SPLINE
  5
27A
330
1F
100
AcDbEntity
  8
0
  6
Continuous
 62
     1
370
    15
100
AcDbSpline
210
0.0
220
0.0
230
1.0
 70
    24
 71
     3
 72
    10
 73
     6
 74
     0
 42
0.000000001
 43
0.00000001
 40
0.0
 40
0.0
 40
0.0
 40
0.0
 40
0.4999999999999999
 40
0.4999999999999999
 40
1.0
 40
1.0
 40
1.0
 40
1.0
 10
-25.40000000000004
 20
1.565616837105674
 30
0.0
 10
-25.40000000000004
 20
1.445600100054421
 30
0.0
 10
-25.40000000000004
 20
1.293954350876895
 30
0.0
 10
-25.40000000000004
 20
0.9413925783146251
 30
0.0
 10
-25.40000000000004
 20
0.7407819573049377
 30
0.0
 10
-25.40000000000004
 20
0.5303102210276354
 30
0.0
1001
PE_URL
1000

  0
SPLINE
  5
27B
330
1F
100
AcDbEntity
  8
외형선
  6
Continuous
370
    15
100
AcDbSpline
210
0.0
220
0.0
230
1.0
 70
    24
 71
     3
 72
    12
 73
     8
 74
     0
 42
0.000000001
 43
0.00000001
 40
0.0
 40
0.0
 40
0.0
 40
0.0
 40
0.1462729440865053
 40
0.3804833939242279
 40
0.6214859626737876
 40
0.8317943972952395
 40
1.0
 40
1.0
 40
1.0
 40
1.0
 10
-19.44687500000003
 20
-1.560919564427579
 30
0.0
 10
-19.44687500000003
 20
-1.553081137822934
 30
0.0
 10
-19.44687500000003
 20
-1.532691918366206
 30
0.0
 10
-19.44687500000003
 20
-1.444923430188148
 30
0.0
 10
-19.44687500000003
 20
-1.294932884276363
 30
0.0
 10
-19.44687500000003
 20
-1.117871047187789
 30
0.0
 10
-19.44687500000003
 20
-0.9809916146597999
 30
0.0
 10
-19.44687500000003
 20
-0.9201645774146421
 30
0.0
  0
SPLINE
  5
27C
330
1F
100
AcDbEntity
  8
0
  6
Continuous
 62
     1
370
    15
100
AcDbSpline
210
0.0
220
0.0
230
1.0
 70
    24
 71
     3
 72
     8
 73
     4
 74
     0
 42
0.000000001
 43
0.00000001
 40
0.0
 40
0.0
 40
0.0
 40
0.0
 40
1.0
 40
1.0
 40
1.0
 40
1.0
 10
-24.19237627747494
 20
-0.969381216299599
 30
0.0
 10
-24.12703504113044
 20
-0.9145534089822611
 30
0.0
 10
-24.05743510497943
 20
-0.856152128227949
 30
0.0
 10
-23.98510005238474
 20
-0.7954558122745521
 30
0.0
1001
PE_URL
1000

  0
LINE
  5
27D
330
1F
100
AcDbEntity
  8
0
  6
Continuous
 62
     1
370
    15
100
AcDbLine
 10
-25.40000000000004
 20
-1.389062500000003
 30
0.0
 11
-24.66063008947497
 21
-1.35208473391765
 31
0.0
1001
PE_URL
1000

  0
SPLINE
  5
27E
330
1F
100
AcDbEntity
  8
0
  6
Continuous
 62
     1
370
    15
100
AcDbSpline
210
0.0
220
0.0
230
1.0
 70
     8
 71
     3
 72
     8
 73
     4
 74
     0
 42
0.000000001
 43
0.00000001
 40
0.0
 40
0.0
 40
0.0
 40
0.0
 40
1.0
 40
1.0
 40
1.0
 40
1.0
 10
-25.40000000000004
 20
-1.389062500000005
 30
0.0
 10
-24.99178936287921
 20
-1.278183303911037
 30
0.0
 10
-24.58755760611253
 20
-1.142065083747241
 30
0.0
 10
-24.19237627747437
 20
-0.9693812162999542
 30
0.0
1001
PE_URL
1000

  0
SPLINE
  5
27F
330
1F
100
AcDbEntity
  8
0
  6
Continuous
 62
     1
370
    15
100
AcDbSpline
210
0.0
220
0.0
230
1.0
 70
     8
 71
     3
 72
    10
 73
     6
 74
     0
 42
0.000000001
 43
0.00000001
 40
0.0
 40
0.0
 40
0.0
 40
0.0
 40
0.0429567640945637
 40
0.5320888608596477
 40
1.0
 40
1.0
 40
1.0
 40
1.0
 10
-21.19727639766271
 20
1.488697350608943
 30
0.0
 10
-21.17220589157768
 20
1.493813697396737
 30
0.0
 10
-20.86166720680628
 20
1.557187910782272
 30
0.0
 10
-20.27808649544949
 20
1.597256846164017
 30
0.0
 10
-19.71981926019069
 20
1.576874409811195
 30
0.0
 10
-19.44687500000003
 20
1.566909166179039
 30
0.0
1001
PE_URL
1000

  0
SPLINE
  5
280
330
1F
100
AcDbEntity
  8
외형선
  6
Continuous
370
    15
100
AcDbSpline
210
0.0
220
0.0
230
1.0
 70
    24
 71
     3
 72
    14
 73
    10
 74
     0
 42
0.000000001
 43
0.00000001
 40
0.0
 40
0.0
 40
0.0
 40
0.0
 40
0.2500000000000001
 40
0.2500000000000001
 40
0.5000000000000001
 40
0.5000000000000001
 40
0.75
 40
0.75
 40
1.0
 40
1.0
 40
1.0
 40
1.0
 10
-19.44687500000003
 20
-0.222999573719493
 30
0.0
 10
-19.44687500000003
 20
-0.0474642422735485
 30
0.0
 10
-19.44687500000003
 20
0.1325599688482875
 30
0.0
 10
-19.44687500000003
 20
0.4847239668050882
 30
0.0
 10
-19.44687500000003
 20
0.6566772213917691
 30
0.0
 10
-19.44687500000003
 20
0.9747956095276606
 30
0.0
 10
-19.44687500000003
 20
1.120791236299711
 30
0.0
 10
-19.44687500000003
 20
1.374048285205491
 30
0.0
 10
-19.44687500000003
 20
1.48126209523765
 30
0.0
 10
-19.44687500000003
 20
1.566909166179039
 30
0.0
  0
LINE
  5
281
330
1F
100
AcDbEntity
  8
0
  6
Continuous
 62
     1
370
    15
100
AcDbLine
 10
-25.40000000000004
 20
-0.0000000000000053
 30
0.0
 11
-25.40000000000004
 21
-1.389062500000003
 31
0.0
1001
PE_URL
1000

  0
SPLINE
  5
282
330
1F
100
AcDbEntity
  8
0
  6
Continuous
 62
     1
370
    15
100
AcDbSpline
210
0.0
220
0.0
230
1.0
 70
     8
 71
     3
 72
    11
 73
     7
 74
     0
 42
0.000000001
 43
0.00000001
 40
0.0
 40
0.0
 40
0.0
 40
0.0
 40
0.0365505099802114
 40
0.3573741133591827
 40
0.6784097161889868
 40
1.0
 40
1.0
 40
1.0
 40
1.0
 10
-22.68181596735942
 20
-1.332324690424667
 30
0.0
 10
-22.7149270424212
 20
-1.347701767173401
 30
0.0
 10
-23.03867193952343
 20
-1.498051766998575
 30
0.0
 10
-23.65321327998872
 20
-1.704475552840295
 30
0.0
 10
-24.52604416639943
 20
-1.92610585286903
 30
0.0
 10
-25.1085138030467
 20
-1.963822990118604
 30
0.0
 10
-25.40000000000004
 20
-1.982697836471328
 30
0.0
1001
PE_URL
1000

  0
SPLINE
  5
283
330
1F
100
AcDbEntity
  8
0
  6
Continuous
 62
     1
370
    15
100
AcDbSpline
210
0.0
220
0.0
230
1.0
 70
    24
 71
     3
 72
    10
 73
     6
 74
     0
 42
0.000000001
 43
0.00000001
 40
0.0
 40
0.0
 40
0.0
 40
0.0
 40
0.5
 40
0.5
 40
1.0
 40
1.0
 40
1.0
 40
1.0
 10
-25.40000000000004
 20
-1.389062500000003
 30
0.0
 10
-25.40000000000004
 20
-1.473264009602017
 30
0.0
 10
-25.40000000000004
 20
-1.57111396165819
 30
0.0
 10
-25.40000000000004
 20
-1.776402897531701
 30
0.0
 10
-25.40000000000004
 20
-1.883317599168551
 30
0.0
 10
-25.40000000000004
 20
-1.982697836471328
 30
0.0
1001
PE_URL
1000

  0
ENDSEC
  0
SECTION
  2
OBJECTS
  0
DICTIONARY
  5
C
330
0
100
AcDbDictionary
281
     1
  3
ACAD_GROUP
350
D
  3
ACAD_IMAGE_VARS
350
2A7
  3
ACAD_LAYOUT
350
1A
  3
ACAD_MLINESTYLE
350
17
  3
ACAD_PLOTSETTINGS
350
19
  3
ACAD_PLOTSTYLENAME
350
E
  3
ACAD_SCALELIST
350
47
  3
APPDATA
350
155
  3
DWGPROPS
350
2A8
  0
DICTIONARY
  5
18E
330
2
100
AcDbDictionary
280
     1
281
     1
  3
ACAD_LAYERSTATES
360
18F
  0
DICTIONARY
  5
D
102
{ACAD_REACTORS
330
C
102
}
330
C
100
AcDbDictionary
281
     1
  0
RASTERVARIABLES
  5
2A7
102
{ACAD_REACTORS
330
C
102
}
330
C
100
AcDbRasterVariables
 90
        0
 70
     1
 71
     1
 72
     1
  0
DICTIONARY
  5
1A
102
{ACAD_REACTORS
330
C
102
}
330
C
100
AcDbDictionary
281
     1
  3
Layout1
350
1E
  3
Layout2
350
26
  3
Model
350
22
  0
DICTIONARY
  5
17
102
{ACAD_REACTORS
330
C
102
}
330
C
100
AcDbDictionary
281
     1
  3
Standard
350
18
  0
DICTIONARY
  5
19
102
{ACAD_REACTORS
330
C
102
}
330
C
100
AcDbDictionary
281
     1
  0
ACDBDICTIONARYWDFLT
  5
E
102
{ACAD_REACTORS
330
C
102
}
330
C
100
AcDbDictionary
281
     1
  3
Normal
350
F
100
AcDbDictionaryWithDefault
340
F
  0
DICTIONARY
  5
47
102
{ACAD_REACTORS
330
C
102
}
330
C
100
AcDbDictionary
281
     1
  3
A0
350
48
  3
A1
350
49
  3
A2
350
4A
  3
A3
350
4B
  3
A4
350
4C
  3
A5
350
4D
  3
A6
350
4E
  3
A7
350
4F
  3
A8
350
50
  3
A9
350
51
  3
B0
350
52
  3
B1
350
53
  3
B2
350
54
  3
B3
350
55
  3
B4
350
56
  3
B5
350
57
  3
B6
350
58
  3
B7
350
59
  3
B8
350
5A
  3
B9
350
5B
  3
C0
350
5C
  3
C1
350
5D
  3
C2
350
5E
  3
C3
350
5F
  3
C4
350
60
  3
C5
350
61
  3
C6
350
62
  3
C7
350
63
  3
C8
350
64
  3
C9
350
65
  3
D0
350
66
  3
D1
350
67
  3
D2
350
68
  0
DICTIONARY
  5
155
102
{ACAD_REACTORS
330
C
102
}
330
C
100
AcDbDictionary
281
     1
  0
XRECORD
  5
2A8
102
{ACAD_REACTORS
330
C
102
}
330
C
100
AcDbXrecord
280
     1
  1
DWGPROPS COOKIE
  2

  3

  4

  6

  7

  8
12016016
  9

300
=
301
=
302
=
303
=
304
=
305
=
306
=
307
=
308
=
309
=
 40
0.0
 41
2458313.013898889
 42
2458318.269794664
  1

 90
        0
  0
DICTIONARY
  5
18F
102
{ACAD_REACTORS
330
18E
102
}
330
18E
100
AcDbDictionary
281
     1
  0
LAYOUT
  5
1E
102
{ACAD_REACTORS
330
1A
102
}
330
1A
100
AcDbPlotSettings
  1

  2
none_device
  4

  6

 40
0.0
 41
0.0
 42
0.0
 43
0.0
 44
0.0
 45
0.0
 46
0.0
 47
0.0
 48
0.0
 49
0.0
140
0.0
141
0.0
142
1.0
143
1.0
 70
   688
 72
     1
 73
     0
 74
     5
  7

 75
    16
147
1.0
148
0.0
149
0.0
100
AcDbLayout
  1
Layout1
 70
     1
 71
     1
 10
0.0
 20
0.0
 11
420.0
 21
297.0
 12
0.0
 22
0.0
 32
0.0
 14
1.000000000000000E+20
 24
1.000000000000000E+20
 34
1.000000000000000E+20
 15
-1.000000000000000E+20
 25
-1.000000000000000E+20
 35
-1.000000000000000E+20
146
0.0
 13
0.0
 23
0.0
 33
0.0
 16
1.0
 26
0.0
 36
0.0
 17
0.0
 27
1.0
 37
0.0
 76
     0
330
1B
  0
LAYOUT
  5
26
102
{ACAD_REACTORS
330
1A
102
}
330
1A
100
AcDbPlotSettings
  1

  2
none_device
  4

  6

 40
0.0
 41
0.0
 42
0.0
 43
0.0
 44
0.0
 45
0.0
 46
0.0
 47
0.0
 48
0.0
 49
0.0
140
0.0
141
0.0
142
1.0
143
1.0
 70
   688
 72
     1
 73
     0
 74
     5
  7

 75
    16
147
1.0
148
0.0
149
0.0
100
AcDbLayout
  1
Layout2
 70
     1
 71
     2
 10
0.0
 20
0.0
 11
0.0
 21
0.0
 12
0.0
 22
0.0
 32
0.0
 14
0.0
 24
0.0
 34
0.0
 15
0.0
 25
0.0
 35
0.0
146
0.0
 13
0.0
 23
0.0
 33
0.0
 16
1.0
 26
0.0
 36
0.0
 17
0.0
 27
1.0
 37
0.0
 76
     0
330
23
  0
LAYOUT
  5
22
102
{ACAD_REACTORS
330
1A
102
}
330
1A
100
AcDbPlotSettings
  1

  2
none_device
  4
ANSI_A_(11.00_x_8.50_Inches)
  6

 40
6.35
 41
19.05
 42
6.35000508
 43
19.05000254
 44
279.4
 45
215.9
 46
110.5434507738072
 47
82.07339924708704
 48
0.0
 49
0.0
140
0.0
141
0.0
142
0.0776645899667107
143
1.0
 70
  1696
 72
     0
 73
     0
 74
     0
  7

 75
     0
147
0.0235690232323232
148
0.0
149
0.0
100
AcDbLayout
  1
Model
 70
     1
 71
     0
 10
0.0
 20
0.0
 11
420.0
 21
297.0
 12
0.0
 22
0.0
 32
0.0
 14
-39.77500000000012
 24
-49.97180738881175
 34
0.0
 15
90.25350003295506
 25
37.46169783647148
 35
0.0
146
0.0
 13
0.0
 23
0.0
 33
0.0
 16
1.0
 26
0.0
 36
0.0
 17
0.0
 27
1.0
 37
0.0
 76
     0
330
1F
331
29
  0
MLINESTYLE
  5
18
102
{ACAD_REACTORS
330
17
102
}
330
17
100
AcDbMlineStyle
  2
Standard
 70
     0
  3

 62
   256
 51
90.0
 52
90.0
 71
     2
 49
0.5
 62
   256
  6
BYLAYER
 49
-0.5
 62
   256
  6
BYLAYER
  0
ACDBPLACEHOLDER
  5
F
102
{ACAD_REACTORS
330
E
102
}
330
E
  0
SCALE
  5
48
102
{ACAD_REACTORS
330
47
102
}
330
47
100
AcDbScale
 70
     0
300
1:1
140
1.0
141
1.0
290
     1
  0
SCALE
  5
49
102
{ACAD_REACTORS
330
47
102
}
330
47
100
AcDbScale
 70
     0
300
1:2
140
1.0
141
2.0
290
     0
  0
SCALE
  5
4A
102
{ACAD_REACTORS
330
47
102
}
330
47
100
AcDbScale
 70
     0
300
1:4
140
1.0
141
4.0
290
     0
  0
SCALE
  5
4B
102
{ACAD_REACTORS
330
47
102
}
330
47
100
AcDbScale
 70
     0
300
1:5
140
1.0
141
5.0
290
     0
  0
SCALE
  5
4C
102
{ACAD_REACTORS
330
47
102
}
330
47
100
AcDbScale
 70
     0
300
1:8
140
1.0
141
8.0
290
     0
  0
SCALE
  5
4D
102
{ACAD_REACTORS
330
47
102
}
330
47
100
AcDbScale
 70
     0
300
1:10
140
1.0
141
10.0
290
     0
  0
SCALE
  5
4E
102
{ACAD_REACTORS
330
47
102
}
330
47
100
AcDbScale
 70
     0
300
1:16
140
1.0
141
16.0
290
     0
  0
SCALE
  5
4F
102
{ACAD_REACTORS
330
47
102
}
330
47
100
AcDbScale
 70
     0
300
1:20
140
1.0
141
20.0
290
     0
  0
SCALE
  5
50
102
{ACAD_REACTORS
330
47
102
}
330
47
100
AcDbScale
 70
     0
300
1:30
140
1.0
141
30.0
290
     0
  0
SCALE
  5
51
102
{ACAD_REACTORS
330
47
102
}
330
47
100
AcDbScale
 70
     0
300
1:40
140
1.0
141
40.0
290
     0
  0
SCALE
  5
52
102
{ACAD_REACTORS
330
47
102
}
330
47
100
AcDbScale
 70
     0
300
1:50
140
1.0
141
50.0
290
     0
  0
SCALE
  5
53
102
{ACAD_REACTORS
330
47
102
}
330
47
100
AcDbScale
 70
     0
300
1:100
140
1.0
141
100.0
290
     0
  0
SCALE
  5
54
102
{ACAD_REACTORS
330
47
102
}
330
47
100
AcDbScale
 70
     0
300
2:1
140
2.0
141
1.0
290
     0
  0
SCALE
  5
55
102
{ACAD_REACTORS
330
47
102
}
330
47
100
AcDbScale
 70
     0
300
4:1
140
4.0
141
1.0
290
     0
  0
SCALE
  5
56
102
{ACAD_REACTORS
330
47
102
}
330
47
100
AcDbScale
 70
     0
300
8:1
140
8.0
141
1.0
290
     0
  0
SCALE
  5
57
102
{ACAD_REACTORS
330
47
102
}
330
47
100
AcDbScale
 70
     0
300
10:1
140
10.0
141
1.0
290
     0
  0
SCALE
  5
58
102
{ACAD_REACTORS
330
47
102
}
330
47
100
AcDbScale
 70
     0
300
100:1
140
100.0
141
1.0
290
     0
  0
SCALE
  5
59
102
{ACAD_REACTORS
330
47
102
}
330
47
100
AcDbScale
 70
     0
300
1/128" = 1'-0"
140
0.0078125
141
12.0
290
     0
  0
SCALE
  5
5A
102
{ACAD_REACTORS
330
47
102
}
330
47
100
AcDbScale
 70
     0
300
1/64" = 1'-0"
140
0.015625
141
12.0
290
     0
  0
SCALE
  5
5B
102
{ACAD_REACTORS
330
47
102
}
330
47
100
AcDbScale
 70
     0
300
1/32" = 1'-0"
140
0.03125
141
12.0
290
     0
  0
SCALE
  5
5C
102
{ACAD_REACTORS
330
47
102
}
330
47
100
AcDbScale
 70
     0
300
1/16" = 1'-0"
140
0.0625
141
12.0
290
     0
  0
SCALE
  5
5D
102
{ACAD_REACTORS
330
47
102
}
330
47
100
AcDbScale
 70
     0
300
3/32" = 1'-0"
140
0.09375
141
12.0
290
     0
  0
SCALE
  5
5E
102
{ACAD_REACTORS
330
47
102
}
330
47
100
AcDbScale
 70
     0
300
1/8" = 1'-0"
140
0.125
141
12.0
290
     0
  0
SCALE
  5
5F
102
{ACAD_REACTORS
330
47
102
}
330
47
100
AcDbScale
 70
     0
300
3/16" = 1'-0"
140
0.1875
141
12.0
290
     0
  0
SCALE
  5
60
102
{ACAD_REACTORS
330
47
102
}
330
47
100
AcDbScale
 70
     0
300
1/4" = 1'-0"
140
0.25
141
12.0
290
     0
  0
SCALE
  5
61
102
{ACAD_REACTORS
330
47
102
}
330
47
100
AcDbScale
 70
     0
300
3/8" = 1'-0"
140
0.375
141
12.0
290
     0
  0
SCALE
  5
62
102
{ACAD_REACTORS
330
47
102
}
330
47
100
AcDbScale
 70
     0
300
1/2" = 1'-0"
140
0.5
141
12.0
290
     0
  0
SCALE
  5
63
102
{ACAD_REACTORS
330
47
102
}
330
47
100
AcDbScale
 70
     0
300
3/4" = 1'-0"
140
0.75
141
12.0
290
     0
  0
SCALE
  5
64
102
{ACAD_REACTORS
330
47
102
}
330
47
100
AcDbScale
 70
     0
300
1" = 1'-0"
140
1.0
141
12.0
290
     0
  0
SCALE
  5
65
102
{ACAD_REACTORS
330
47
102
}
330
47
100
AcDbScale
 70
     0
300
1-1/2" = 1'-0"
140
1.5
141
12.0
290
     0
  0
SCALE
  5
66
102
{ACAD_REACTORS
330
47
102
}
330
47
100
AcDbScale
 70
     0
300
3" = 1'-0"
140
3.0
141
12.0
290
     0
  0
SCALE
  5
67
102
{ACAD_REACTORS
330
47
102
}
330
47
100
AcDbScale
 70
     0
300
6" = 1'-0"
140
6.0
141
12.0
290
     0
  0
SCALE
  5
68
102
{ACAD_REACTORS
330
47
102
}
330
47
100
AcDbScale
 70
     0
300
1'-0" = 1'-0"
140
12.0
141
12.0
290
     0
  0
ENDSEC
  0
EOF
