  0
SECTION
  2
HEADER
  9
$ACADVER
  1
AC1015
  9
$ACADMAINTVER
 70
     6
  9
$DWGCODEPAGE
  3
ANSI_949
  9
$INSBASE
 10
0.0
 20
0.0
 30
0.0
  9
$EXTMIN
 10
-39.7750000000001
 20
-49.97180738881174
 30
0.0
  9
$EXTMAX
 10
89.06287503295506
 20
36.98524999999997
 30
0.0
  9
$LIMMIN
 10
0.0
 20
0.0
  9
$LIMMAX
 10
420.0
 20
297.0
  9
$ORTHOMODE
 70
     1
  9
$REGENMODE
 70
     1
  9
$FILLMODE
 70
     1
  9
$QTEXTMODE
 70
     0
  9
$MIRRTEXT
 70
     1
  9
$LTSCALE
 40
1.0
  9
$ATTMODE
 70
     1
  9
$TEXTSIZE
 40
3.5
  9
$TRACEWID
 40
1.0
  9
$TEXTSTYLE
  7
Standard
  9
$CLAYER
  8
0
  9
$CELTYPE
  6
ByLayer
  9
$CECOLOR
 62
   256
  9
$CELTSCALE
 40
1.0
  9
$DISPSILH
 70
     0
  9
$DIMSCALE
 40
1.0
  9
$DIMASZ
 40
3.302
  9
$DIMEXO
 40
1.0
  9
$DIMDLI
 40
3.75
  9
$DIMRND
 40
0.0
  9
$DIMDLE
 40
0.0
  9
$DIMEXE
 40
1.0
  9
$DIMTP
 40
0.0
  9
$DIMTM
 40
0.0
  9
$DIMTXT
 40
3.5
  9
$DIMCEN
 40
2.5
  9
$DIMTSZ
 40
0.0
  9
$DIMTOL
 70
     0
  9
$DIMLIM
 70
     0
  9
$DIMTIH
 70
     1
  9
$DIMTOH
 70
     1
  9
$DIMSE1
 70
     0
  9
$DIMSE2
 70
     0
  9
$DIMTAD
 70
     1
  9
$DIMZIN
 70
     0
  9
$DIMBLK
  1

  9
$DIMASO
 70
     1
  9
$DIMSHO
 70
     1
  9
$DIMPOST
  1

  9
$DIMAPOST
  1

  9
$DIMALT
 70
     0
  9
$DIMALTD
 70
     3
  9
$DIMALTF
 40
0.0393700787401575
  9
$DIMLFAC
 40
1.0
  9
$DIMTOFL
 70
     1
  9
$DIMTVP
 40
0.0
  9
$DIMTIX
 70
     0
  9
$DIMSOXD
 70
     0
  9
$DIMSAH
 70
     0
  9
$DIMBLK1
  1

  9
$DIMBLK2
  1

  9
$DIMSTYLE
  2
ISO-25
  9
$DIMCLRD
 70
     0
  9
$DIMCLRE
 70
     0
  9
$DIMCLRT
 70
     0
  9
$DIMTFAC
 40
1.0
  9
$DIMGAP
 40
1.524
  9
$DIMJUST
 70
     0
  9
$DIMSD1
 70
     0
  9
$DIMSD2
 70
     0
  9
$DIMTOLJ
 70
     0
  9
$DIMTZIN
 70
     0
  9
$DIMALTZ
 70
     0
  9
$DIMALTTZ
 70
     0
  9
$DIMUPT
 70
     0
  9
$DIMDEC
 70
     2
  9
$DIMTDEC
 70
     2
  9
$DIMALTU
 70
     2
  9
$DIMALTTD
 70
     3
  9
$DIMTXSTY
  7
Standard
  9
$DIMAUNIT
 70
     0
  9
$DIMADEC
 70
     2
  9
$DIMALTRND
 40
0.0
  9
$DIMAZIN
 70
     0
  9
$DIMDSEP
 70
    44
  9
$DIMATFIT
 70
     3
  9
$DIMFRAC
 70
     0
  9
$DIMLDRBLK
  1

  9
$DIMLUNIT
 70
     2
  9
$DIMLWD
 70
    -2
  9
$DIMLWE
 70
    -2
  9
$DIMTMOVE
 70
     0
  9
$LUNITS
 70
     2
  9
$LUPREC
 70
     2
  9
$SKETCHINC
 40
1.0
  9
$FILLETRAD
 40
10.0
  9
$AUNITS
 70
     0
  9
$AUPREC
 70
     2
  9
$MENU
  1
.
  9
$ELEVATION
 40
0.0
  9
$PELEVATION
 40
0.0
  9
$THICKNESS
 40
0.0
  9
$LIMCHECK
 70
     0
  9
$CHAMFERA
 40
0.0
  9
$CHAMFERB
 40
0.0
  9
$CHAMFERC
 40
0.0
  9
$CHAMFERD
 40
0.0
  9
$SKPOLY
 70
     0
  9
$TDCREATE
 40
2458313.389322651
  9
$TDUCREATE
 40
2458313.014322651
  9
$TDUPDATE
 40
2458318.644699236
  9
$TDUUPDATE
 40
2458318.269699236
  9
$TDINDWG
 40
0.0031858449
  9
$TDUSRTIMER
 40
2458318.269662245
  9
$USRTIMER
 70
     1
  9
$ANGBASE
 50
0.0
  9
$ANGDIR
 70
     0
  9
$PDMODE
 70
     0
  9
$PDSIZE
 40
-1.0
  9
$PLINEWID
 40
0.0
  9
$SPLFRAME
 70
     0
  9
$SPLINETYPE
 70
     6
  9
$SPLINESEGS
 70
     8
  9
$HANDSEED
  5
259
  9
$SURFTAB1
 70
     6
  9
$SURFTAB2
 70
     6
  9
$SURFTYPE
 70
     6
  9
$SURFU
 70
     6
  9
$SURFV
 70
     6
  9
$UCSBASE
  2

  9
$UCSNAME
  2

  9
$UCSORG
 10
0.0
 20
0.0
 30
0.0
  9
$UCSXDIR
 10
1.0
 20
0.0
 30
0.0
  9
$UCSYDIR
 10
0.0
 20
1.0
 30
0.0
  9
$UCSORTHOREF
  2

  9
$UCSORTHOVIEW
 70
     0
  9
$UCSORGTOP
 10
0.0
 20
0.0
 30
0.0
  9
$UCSORGBOTTOM
 10
0.0
 20
0.0
 30
0.0
  9
$UCSORGLEFT
 10
0.0
 20
0.0
 30
0.0
  9
$UCSORGRIGHT
 10
0.0
 20
0.0
 30
0.0
  9
$UCSORGFRONT
 10
0.0
 20
0.0
 30
0.0
  9
$UCSORGBACK
 10
0.0
 20
0.0
 30
0.0
  9
$PUCSBASE
  2

  9
$PUCSNAME
  2

  9
$PUCSORG
 10
0.0
 20
0.0
 30
0.0
  9
$PUCSXDIR
 10
1.0
 20
0.0
 30
0.0
  9
$PUCSYDIR
 10
0.0
 20
1.0
 30
0.0
  9
$PUCSORTHOREF
  2

  9
$PUCSORTHOVIEW
 70
     0
  9
$PUCSORGTOP
 10
0.0
 20
0.0
 30
0.0
  9
$PUCSORGBOTTOM
 10
0.0
 20
0.0
 30
0.0
  9
$PUCSORGLEFT
 10
0.0
 20
0.0
 30
0.0
  9
$PUCSORGRIGHT
 10
0.0
 20
0.0
 30
0.0
  9
$PUCSORGFRONT
 10
0.0
 20
0.0
 30
0.0
  9
$PUCSORGBACK
 10
0.0
 20
0.0
 30
0.0
  9
$USERI1
 70
     0
  9
$USERI2
 70
     0
  9
$USERI3
 70
     0
  9
$USERI4
 70
     0
  9
$USERI5
 70
     0
  9
$USERR1
 40
0.0
  9
$USERR2
 40
0.0
  9
$USERR3
 40
0.0
  9
$USERR4
 40
0.0
  9
$USERR5
 40
0.0
  9
$WORLDVIEW
 70
     1
  9
$SHADEDGE
 70
     3
  9
$SHADEDIF
 70
    70
  9
$TILEMODE
 70
     1
  9
$MAXACTVP
 70
    64
  9
$PINSBASE
 10
0.0
 20
0.0
 30
0.0
  9
$PLIMCHECK
 70
     0
  9
$PEXTMIN
 10
1.000000000000000E+20
 20
1.000000000000000E+20
 30
1.000000000000000E+20
  9
$PEXTMAX
 10
-1.000000000000000E+20
 20
-1.000000000000000E+20
 30
-1.000000000000000E+20
  9
$PLIMMIN
 10
0.0
 20
0.0
  9
$PLIMMAX
 10
0.0
 20
0.0
  9
$UNITMODE
 70
     0
  9
$VISRETAIN
 70
     1
  9
$PLINEGEN
 70
     0
  9
$PSLTSCALE
 70
     1
  9
$TREEDEPTH
 70
  3020
  9
$CMLSTYLE
  2
Standard
  9
$CMLJUST
 70
     0
  9
$CMLSCALE
 40
20.0
  9
$PROXYGRAPHICS
 70
     1
  9
$MEASUREMENT
 70
     1
  9
$CELWEIGHT
370
    -1
  9
$ENDCAPS
280
     0
  9
$JOINSTYLE
280
     0
  9
$LWDISPLAY
290
     1
  9
$INSUNITS
 70
     4
  9
$HYPERLINKBASE
  1

  9
$STYLESHEET
  1

  9
$XEDIT
290
     1
  9
$CEPSNTYPE
380
     0
  9
$PSTYLEMODE
290
     1
  9
$FINGERPRINTGUID
  2
{134708C1-8214-4D68-8AEC-27619B0547AF}
  9
$VERSIONGUID
  2
{FAEB1C32-E019-11D5-929B-00C0DF256EC4}
  9
$EXTNAMES
290
     1
  9
$PSVPSCALE
 40
0.0
  9
$OLESTARTUP
290
     0
  0
ENDSEC
  0
SECTION
  2
CLASSES
  0
CLASS
  1
ACDBDICTIONARYWDFLT
  2
AcDbDictionaryWithDefault
  3
ObjectDBX Classes
 90
        0
280
     0
281
     0
  0
CLASS
  1
VISUALSTYLE
  2
AcDbVisualStyle
  3
ObjectDBX Classes
 90
     4095
280
     0
281
     0
  0
CLASS
  1
MATERIAL
  2
AcDbMaterial
  3
ObjectDBX Classes
 90
     1153
280
     0
281
     0
  0
CLASS
  1
SCALE
  2
AcDbScale
  3
ObjectDBX Classes
 90
     1153
280
     0
281
     0
  0
CLASS
  1
SUN
  2
AcDbSun
  3
SCENEOE
 90
     1153
280
     0
281
     0
  0
CLASS
  1
ACDBPLACEHOLDER
  2
AcDbPlaceHolder
  3
ObjectDBX Classes
 90
        0
280
     0
281
     0
  0
CLASS
  1
LAYOUT
  2
AcDbLayout
  3
ObjectDBX Classes
 90
        0
280
     0
281
     0
  0
CLASS
  1
TABLESTYLE
  2
AcDbTableStyle
  3
ObjectDBX Classes
 90
     4095
280
     0
281
     0
  0
CLASS
  1
MLEADERSTYLE
  2
AcDbMLeaderStyle
  3
ACDB_MLEADERSTYLE_CLASS
 90
     4095
280
     0
281
     0
  0
CLASS
  1
RASTERVARIABLES
  2
AcDbRasterVariables
  3
ISM
 90
        0
280
     0
281
     0
  0
ENDSEC
  0
SECTION
  2
TABLES
  0
TABLE
  2
VPORT
  5
8
330
0
100
AcDbSymbolTable
 70
     1
  0
VPORT
  5
29
330
8
100
AcDbSymbolTableRecord
100
AcDbViewportTableRecord
  2
*Active
 70
     0
 10
0.0
 20
0.0
 11
1.0
 21
1.0
 12
24.64393751647749
 22
-6.49327869440588
 13
0.0
 23
0.0
 14
10.0
 24
10.0
 15
10.0
 25
10.0
 16
0.0
 26
0.0
 36
1.0
 17
0.0
 27
0.0
 37
0.0
 40
88.69619853658794
 41
1.782762691853601
 42
50.0
 43
0.0
 44
0.0
 50
0.0
 51
0.0
 71
    16
 72
  2000
 73
     1
 74
     3
 75
     0
 76
     0
 77
     0
 78
     0
281
     0
 65
     1
110
0.0
120
0.0
130
0.0
111
1.0
121
0.0
131
0.0
112
0.0
122
1.0
132
0.0
 79
     0
146
0.0
  0
ENDTAB
  0
TABLE
  2
LTYPE
  5
5
330
0
100
AcDbSymbolTable
 70
     6
  0
LTYPE
  5
14
330
5
100
AcDbSymbolTableRecord
100
AcDbLinetypeTableRecord
  2
ByBlock
 70
     0
  3

 72
    65
 73
     0
 40
0.0
  0
LTYPE
  5
15
330
5
100
AcDbSymbolTableRecord
100
AcDbLinetypeTableRecord
  2
ByLayer
 70
     0
  3

 72
    65
 73
     0
 40
0.0
  0
LTYPE
  5
16
330
5
100
AcDbSymbolTableRecord
100
AcDbLinetypeTableRecord
  2
Continuous
 70
     0
  3
Solid line
 72
    65
 73
     0
 40
0.0
  0
LTYPE
  5
6A
330
5
100
AcDbSymbolTableRecord
100
AcDbLinetypeTableRecord
  2
HIDDEN
 70
     0
  3
Hidden __ __ __ __ __ __ __ __ __ __ __ __ __ __
 72
    65
 73
     2
 40
1.905
 49
1.27
 74
     0
 49
-0.635
 74
     0
  0
LTYPE
  5
6B
330
5
100
AcDbSymbolTableRecord
100
AcDbLinetypeTableRecord
  2
PHANTOM
 70
     0
  3
Phantom ______  __  __  ______  __  __  ______
 72
    65
 73
     6
 40
12.7
 49
6.35
 74
     0
 49
-1.27
 74
     0
 49
1.27
 74
     0
 49
-1.27
 74
     0
 49
1.27
 74
     0
 49
-1.27
 74
     0
  0
LTYPE
  5
6C
330
5
100
AcDbSymbolTableRecord
100
AcDbLinetypeTableRecord
  2
CENTER
 70
     0
  3
Center ____ _ ____ _ ____ _ ____ _ ____ _ ____
 72
    65
 73
     4
 40
10.16
 49
6.35
 74
     0
 49
-1.27
 74
     0
 49
1.27
 74
     0
 49
-1.27
 74
     0
  0
LTYPE
  5
6D
330
5
100
AcDbSymbolTableRecord
100
AcDbLinetypeTableRecord
  2
CENTERX2
 70
     0
  3
Center (2x) ________  __  ________  __  _____
 72
    65
 73
     4
 40
20.32
 49
12.7
 74
     0
 49
-2.54
 74
     0
 49
2.54
 74
     0
 49
-2.54
 74
     0
  0
LTYPE
  5
6E
330
5
100
AcDbSymbolTableRecord
100
AcDbLinetypeTableRecord
  2
DOT2
 70
     0
  3
Dot (.5x) ........................................
 72
    65
 73
     2
 40
0.635
 49
0.0
 74
     0
 49
-0.635
 74
     0
  0
ENDTAB
  0
TABLE
  2
LAYER
  5
2
102
{ACAD_XDICTIONARY
360
18D
102
}
330
0
100
AcDbSymbolTable
 70
    18
  0
LAYER
  5
10
330
2
100
AcDbSymbolTableRecord
100
AcDbLayerTableRecord
  2
0
 70
     0
 62
     7
  6
Continuous
370
    -3
390
F
  0
LAYER
  5
6F
330
2
100
AcDbSymbolTableRecord
100
AcDbLayerTableRecord
  2
FORMAT
 70
     0
 62
     2
  6
Continuous
370
    -3
390
F
  0
LAYER
  5
70
330
2
100
AcDbSymbolTableRecord
100
AcDbLayerTableRecord
  2
외형선
 70
     0
 62
     4
  6
Continuous
370
    30
390
F
  0
LAYER
  5
71
330
2
100
AcDbSymbolTableRecord
100
AcDbLayerTableRecord
  2
숨은선
 70
     0
 62
     2
  6
HIDDEN
370
    15
390
F
  0
LAYER
  5
72
330
2
100
AcDbSymbolTableRecord
100
AcDbLayerTableRecord
  2
중심선
 70
     0
 62
     1
  6
CENTERX2
370
    -3
390
F
  0
LAYER
  5
73
330
2
100
AcDbSymbolTableRecord
100
AcDbLayerTableRecord
  2
파단선
 70
     0
 62
     4
  6
Continuous
370
    -3
390
F
  0
LAYER
  5
74
330
2
100
AcDbSymbolTableRecord
100
AcDbLayerTableRecord
  2
해칭선
 70
     0
 62
   100
  6
Continuous
370
    -3
390
F
  0
LAYER
  5
75
330
2
100
AcDbSymbolTableRecord
100
AcDbLayerTableRecord
  2
가는실선
 70
     0
 62
     4
  6
Continuous
370
    -3
390
F
  0
LAYER
  5
76
330
2
100
AcDbSymbolTableRecord
100
AcDbLayerTableRecord
  2
치수_보조선
 70
     0
 62
     4
  6
Continuous
370
    -3
390
F
  0
LAYER
  5
77
330
2
100
AcDbSymbolTableRecord
100
AcDbLayerTableRecord
  2
치수문자_일반주서
 70
     0
 62
     7
  6
Continuous
370
    15
390
F
  0
LAYER
  5
78
330
2
100
AcDbSymbolTableRecord
100
AcDbLayerTableRecord
  2
개별주서
 70
     0
 62
   100
  6
Continuous
370
    30
390
F
  0
LAYER
  5
79
330
2
100
AcDbSymbolTableRecord
100
AcDbLayerTableRecord
  2
중간선
 70
     0
 62
     2
  6
Continuous
370
    15
390
F
  0
LAYER
  5
7A
330
2
100
AcDbSymbolTableRecord
100
AcDbLayerTableRecord
  2
윤곽선
 70
     0
 62
     3
  6
Continuous
370
    40
390
F
  0
LAYER
  5
7B
330
2
100
AcDbSymbolTableRecord
100
AcDbLayerTableRecord
  2
중심마크
 70
     0
 62
   100
  6
Continuous
370
    30
390
F
  0
LAYER
  5
7C
330
2
100
AcDbSymbolTableRecord
100
AcDbLayerTableRecord
  2
가상선
 70
     0
 62
     4
  6
PHANTOM
370
    -3
390
F
  0
LAYER
  5
7D
330
2
100
AcDbSymbolTableRecord
100
AcDbLayerTableRecord
  2
특수지정선
 70
     0
 62
     5
  6
CENTERX2
370
    60
390
F
  0
LAYER
  5
7E
330
2
100
AcDbSymbolTableRecord
100
AcDbLayerTableRecord
  2
참조1
 70
     0
 62
    -4
  6
Continuous
370
    -3
390
F
  0
LAYER
  5
156
330
2
100
AcDbSymbolTableRecord
100
AcDbLayerTableRecord
  2
Defpoints
 70
     0
 62
     7
  6
Continuous
290
     0
370
    -3
390
F
  0
ENDTAB
  0
TABLE
  2
STYLE
  5
3
330
0
100
AcDbSymbolTable
 70
     2
  0
STYLE
  5
11
330
3
100
AcDbSymbolTableRecord
100
AcDbTextStyleTableRecord
  2
Standard
 70
     0
 40
0.0
 41
1.0
 50
0.0
 71
     0
 42
3.5
  3
txt
  4

  0
STYLE
  5
94
330
3
100
AcDbSymbolTableRecord
100
AcDbTextStyleTableRecord
  2
SLDTEXTSTYLE0
 70
     0
 40
0.0
 41
0.75
 50
0.0
 71
     0
 42
3.5
  3
TXT
  4

  0
ENDTAB
  0
TABLE
  2
VIEW
  5
6
330
0
100
AcDbSymbolTable
 70
     0
  0
ENDTAB
  0
TABLE
  2
UCS
  5
7
330
0
100
AcDbSymbolTable
 70
     0
  0
ENDTAB
  0
TABLE
  2
APPID
  5
9
330
0
100
AcDbSymbolTable
 70
     2
  0
APPID
  5
12
330
9
100
AcDbSymbolTableRecord
100
AcDbRegAppTableRecord
  2
ACAD
 70
     0
  0
APPID
  5
15D
330
9
100
AcDbSymbolTableRecord
100
AcDbRegAppTableRecord
  2
PE_URL
 70
     0
  0
ENDTAB
  0
TABLE
  2
DIMSTYLE
  5
A
330
0
100
AcDbSymbolTable
 70
     3
100
AcDbDimStyleTable
  0
DIMSTYLE
105
27
330
A
100
AcDbSymbolTableRecord
100
AcDbDimStyleTableRecord
  2
ISO-25
 70
     0
 41
2.5
 42
0.625
 43
3.75
 44
1.25
 73
     0
 74
     0
 77
     1
 78
     8
140
2.5
141
2.5
143
0.03937007874016
147
0.625
171
     3
172
     1
178
     0
271
     2
272
     2
274
     3
278
    44
283
     0
284
     8
340
11
  0
DIMSTYLE
105
D4
102
{ACAD_REACTORS
330
D3
330
E8
330
FC
330
111
102
}
330
A
100
AcDbSymbolTableRecord
100
AcDbDimStyleTableRecord
  2
SLDDIMSTYLE0
 70
     0
 41
3.302
 44
0.0
 45
0.000000001
 73
     0
 74
     0
 77
     1
 78
    12
 79
     3
140
3.5
143
0.0393700787401575
147
0.875
148
0.000000001
170
     1
172
     1
173
     1
178
     0
271
     2
272
     2
276
     2
284
    12
289
     0
340
94
  0
DIMSTYLE
105
112
330
A
100
AcDbSymbolTableRecord
100
AcDbDimStyleTableRecord
  2
SLDDIMSTYLE1
 70
     0
 41
3.302
 44
0.0
 45
0.000000001
 73
     0
 74
     0
 77
     1
 78
     4
 79
     1
140
3.5
143
0.0393700787401575
147
0.875
148
0.000000001
170
     1
173
     1
178
     0
271
     2
272
     2
276
     2
284
    12
340
94
  0
ENDTAB
  0
TABLE
  2
BLOCK_RECORD
  5
1
330
0
100
AcDbSymbolTable
 70
     9
  0
BLOCK_RECORD
  5
1F
330
1
100
AcDbSymbolTableRecord
100
AcDbBlockTableRecord
  2
*Model_Space
340
22
  0
BLOCK_RECORD
  5
1B
330
1
100
AcDbSymbolTableRecord
100
AcDbBlockTableRecord
  2
*Paper_Space
340
1E
  0
BLOCK_RECORD
  5
23
330
1
100
AcDbSymbolTableRecord
100
AcDbBlockTableRecord
  2
*Paper_Space0
340
26
  0
BLOCK_RECORD
  5
7F
330
1
100
AcDbSymbolTableRecord
100
AcDbBlockTableRecord
  2
블럭10
340
0
102
{BLKREFS
331
CC
102
}
  0
BLOCK_RECORD
  5
D5
330
1
100
AcDbSymbolTableRecord
100
AcDbBlockTableRecord
  2
_D
340
0
  0
BLOCK_RECORD
  5
E9
330
1
100
AcDbSymbolTableRecord
100
AcDbBlockTableRecord
  2
_D_1
340
0
  0
BLOCK_RECORD
  5
FD
330
1
100
AcDbSymbolTableRecord
100
AcDbBlockTableRecord
  2
_D_2
340
0
  0
BLOCK_RECORD
  5
113
330
1
100
AcDbSymbolTableRecord
100
AcDbBlockTableRecord
  2
_D_3
340
0
  0
BLOCK_RECORD
  5
12C
330
1
100
AcDbSymbolTableRecord
100
AcDbBlockTableRecord
  2
SW_DOWELSYMBOL_0
340
0
102
{BLKREFS
331
132
102
}
  0
BLOCK_RECORD
  5
191
330
1
100
AcDbSymbolTableRecord
100
AcDbBlockTableRecord
  2
*D7
340
0
  0
BLOCK_RECORD
  5
1A3
330
1
100
AcDbSymbolTableRecord
100
AcDbBlockTableRecord
  2
*D8
340
0
  0
ENDTAB
  0
ENDSEC
  0
SECTION
  2
BLOCKS
  0
BLOCK
  5
20
330
1F
100
AcDbEntity
  8
0
100
AcDbBlockBegin
  2
*Model_Space
 70
     0
 10
0.0
 20
0.0
 30
0.0
  3
*Model_Space
  1
*Model_Space
  0
ENDBLK
  5
21
330
1F
100
AcDbEntity
  8
0
100
AcDbBlockEnd
  0
BLOCK
  5
1C
330
1B
100
AcDbEntity
 67
     1
  8
0
100
AcDbBlockBegin
  2
*Paper_Space
 70
     0
 10
0.0
 20
0.0
 30
0.0
  3
*Paper_Space
  1
*Paper_Space
  0
ENDBLK
  5
1D
330
1B
100
AcDbEntity
 67
     1
  8
0
100
AcDbBlockEnd
  0
BLOCK
  5
24
330
23
100
AcDbEntity
  8
0
100
AcDbBlockBegin
  2
*Paper_Space0
 70
     0
 10
0.0
 20
0.0
 30
0.0
  3
*Paper_Space0
  1
*Paper_Space0
  0
ENDBLK
  5
25
330
23
100
AcDbEntity
  8
0
100
AcDbBlockEnd
  0
BLOCK
  5
80
330
7F
100
AcDbEntity
  8
0
100
AcDbBlockBegin
  2
블럭10
 70
     2
 10
0.0
 20
0.0
 30
0.0
  3
블럭10
  1
블럭10
  0
ELLIPSE
  5
82
330
7F
100
AcDbEntity
  8
중심선
100
AcDbEllipse
 10
20.54032771741204
 20
12.0471743016438
 30
0.0
 11
6.600054785286829
 21
-1.261213355974178E-13
 31
0.0
210
0.0
220
0.0
230
1.0
 40
0.636358354079598
 41
0.9219305317359503
 42
6.513795318482858
  0
ELLIPSE
  5
83
330
7F
100
AcDbEntity
  8
중심선
100
AcDbEllipse
 10
20.54032771746488
 20
12.04717430159265
 30
0.0
 11
3.960054785062283
 21
1.540847449632565E-10
 31
0.0
210
0.0
220
0.0
230
1.0
 40
0.3939339440162632
 41
1.131841032648279
 42
5.62031148352944
  0
LINE
  5
84
330
7F
100
AcDbEntity
  8
중심선
100
AcDbLine
 10
2.268634060543552
 20
16.24717430164393
 30
0.0
 11
5.714909304380834
 21
16.24717430164393
 31
0.0
  0
LINE
  5
85
330
7F
100
AcDbEntity
  8
중심선
100
AcDbLine
 10
5.245725140726316
 20
7.84717430164391
 30
0.0
 11
8.692000384563599
 21
7.84717430164391
 31
0.0
  0
LINE
  5
86
330
7F
100
AcDbEntity
  8
중심선
100
AcDbLine
 10
15.74043728645272
 20
16.24717430164393
 30
0.0
 11
8.692000384563599
 21
7.84717430164391
 31
0.0
  0
LINE
  5
87
330
7F
100
AcDbEntity
  8
중심선
100
AcDbLine
 10
0.1404042013395286
 20
13.71084872107135
 30
0.0
 11
3.58671253028996
 21
13.71088815037384
 31
0.0
  0
LINE
  5
88
330
7F
100
AcDbEntity
  8
중심선
100
AcDbLine
 10
2.750260043222114
 20
10.84717430164391
 30
0.0
 11
6.196535287059397
 21
10.84717430164391
 31
0.0
  0
LINE
  5
89
330
7F
100
AcDbEntity
  8
중심선
100
AcDbLine
 10
12.29416204261559
 20
16.24717430164393
 30
0.0
 11
5.245725140726316
 21
7.84717430164391
 31
0.0
  0
LINE
  5
8A
330
7F
100
AcDbEntity
  8
중심선
100
AcDbLine
 10
10.72767329541681
 20
16.24717430164393
 30
0.0
 11
6.196535287059397
 21
10.84717430164391
 31
0.0
  0
LINE
  5
8B
330
7F
100
AcDbEntity
  8
중심선
100
AcDbLine
 10
7.28139805157953
 20
16.24717430164393
 30
0.0
 11
2.750260043222114
 21
10.84717430164391
 31
0.0
  0
LINE
  5
8C
330
7F
100
AcDbEntity
  8
중심선
100
AcDbLine
 10
5.714909304380834
 20
16.24717430164393
 30
0.0
 11
3.58671253028996
 21
13.71088815037384
 31
0.0
  0
LINE
  5
8D
330
7F
100
AcDbEntity
  8
중심선
100
AcDbLine
 10
2.268634060543552
 20
16.24717430164393
 30
0.0
 11
0.1404042013395286
 21
13.71084872107135
 31
0.0
  0
LINE
  5
8E
330
7F
100
AcDbEntity
  8
중심선
100
AcDbLine
 10
7.28139805157953
 20
16.24717430164393
 30
0.0
 11
10.72767329541681
 21
16.24717430164393
 31
0.0
  0
LINE
  5
8F
330
7F
100
AcDbEntity
  8
중심선
100
AcDbLine
 10
12.29416204261559
 20
16.24717430164393
 30
0.0
 11
15.74043728645272
 21
16.24717430164393
 31
0.0
  0
LINE
  5
90
330
7F
100
AcDbEntity
  8
중심선
100
AcDbLine
 10
19.22036997980202
 20
11.08717430171403
 30
0.0
 11
23.66174974927406
 21
11.08717430171406
 31
0.0
  0
LINE
  5
91
330
7F
100
AcDbEntity
  8
중심선
100
AcDbLine
 10
19.22039502424796
 20
13.00717430171391
 30
0.0
 11
19.22036997980202
 21
11.08717430171403
 31
0.0
  0
LINE
  5
92
330
7F
100
AcDbEntity
  8
중심선
100
AcDbLine
 10
19.22039502424796
 20
13.00717430171391
 30
0.0
 11
26.96566020931264
 21
13.00717430171391
 31
0.0
  0
LINE
  5
93
330
7F
100
AcDbEntity
  8
중심선
100
AcDbLine
 10
22.22332737316547
 20
13.45928029700563
 30
0.0
 11
24.52862924686651
 21
15.39360700705356
 31
0.0
  0
ATTDEF
  5
95
330
7F
100
AcDbEntity
  8
FORMAT
 62
     2
100
AcDbText
 10
4.408487351596664
 20
2.075366912832191
 30
0.0
 40
4.233333333333333
  1
E1001012
 41
0.75
  7
SLDTEXTSTYLE0
 11
4.408487351596664
 21
-0.0412997538344756
 31
0.0
100
AcDbAttributeDefinition
  3

  2
AUTOATTR0
 70
     0
 74
     1
  0
ENDBLK
  5
81
330
7F
100
AcDbEntity
  8
0
100
AcDbBlockEnd
  0
BLOCK
  5
D6
330
D5
100
AcDbEntity
  8
0
100
AcDbBlockBegin
  2
_D
 70
     0
 10
0.0
 20
0.0
 30
0.0
  3
_D
  1
_D
  0
LINE
  5
D8
330
D5
100
AcDbEntity
  8
치수문자_일반주서
 62
     0
370
    -2
100
AcDbLine
 10
-25.46250000000002
 20
2.379237403765584
 30
0.0
 11
-35.4
 21
2.379237403765547
 31
0.0
  0
LINE
  5
D9
330
D5
100
AcDbEntity
  8
치수문자_일반주서
 62
     0
370
    -2
100
AcDbLine
 10
-25.46250000000002
 20
-2.379237403765588
 30
0.0
 11
-35.39999999999998
 21
-2.379237403765625
 31
0.0
  0
LINE
  5
DA
330
D5
100
AcDbEntity
  8
치수문자_일반주서
 62
     0
370
    -2
100
AcDbLine
 10
-35.4
 20
2.379237403765547
 30
0.0
 11
-35.40000000000011
 21
36.98524999999997
 31
0.0
  0
LINE
  5
DB
330
D5
100
AcDbEntity
  8
치수문자_일반주서
 62
     0
370
    -2
100
AcDbLine
 10
-35.4
 20
2.379237403765547
 30
0.0
 11
-35.39999999999998
 21
-2.379237403765625
 31
0.0
  0
LINE
  5
DC
330
D5
100
AcDbEntity
  8
치수문자_일반주서
 62
     0
370
    -2
100
AcDbLine
 10
-35.40000000000001
 20
5.681237403765547
 30
0.0
 11
-35.40000000000001
 21
8.983237403765546
 31
0.0
  0
LINE
  5
DD
330
D5
100
AcDbEntity
  8
치수문자_일반주서
 62
     0
370
    -2
100
AcDbLine
 10
-35.39999999999998
 20
-5.681237403765625
 30
0.0
 11
-35.39999999999997
 21
-8.983237403765624
 31
0.0
  0
SOLID
  5
DE
330
D5
100
AcDbEntity
  8
치수문자_일반주서
 62
     0
100
AcDbTrace
 10
-35.95033333333334
 20
5.681237403765545
 30
0.0
 11
-34.84966666666667
 21
5.681237403765548
 31
0.0
 12
-35.4
 22
2.379237403765547
 32
0.0
 13
-35.4
 23
2.379237403765547
 33
0.0
  0
SOLID
  5
DF
330
D5
100
AcDbEntity
  8
치수문자_일반주서
 62
     0
100
AcDbTrace
 10
-34.84966666666664
 20
-5.681237403765623
 30
0.0
 11
-35.95033333333331
 21
-5.681237403765627
 31
0.0
 12
-35.39999999999998
 22
-2.379237403765625
 32
0.0
 13
-35.39999999999998
 23
-2.379237403765625
 33
0.0
  0
MTEXT
  5
E0
330
D5
100
AcDbEntity
  8
치수문자_일반주서
 62
     0
100
AcDbMText
 10
-39.77500000000006
 20
22.98524999999996
 30
0.0
 40
3.5
 41
0.0
 71
     2
 72
     1
  1
\A1;%%c4.76 [3/16]
  7
SLDTEXTSTYLE0
 11
-2.986430587529996E-15
 21
1.0
 31
0.0
 73
     1
 44
1.0
  0
POINT
  5
1B5
330
D5
100
AcDbEntity
  8
Defpoints
 62
     0
100
AcDbPoint
 10
-25.40000000000002
 20
2.379237403765585
 30
0.0
  0
POINT
  5
1B6
330
D5
100
AcDbEntity
  8
Defpoints
 62
     0
100
AcDbPoint
 10
-25.40000000000002
 20
-2.379237403765587
 30
0.0
  0
POINT
  5
1B7
330
D5
100
AcDbEntity
  8
Defpoints
 62
     0
100
AcDbPoint
 10
-35.39999999999998
 20
-2.379237403765625
 30
0.0
  0
ENDBLK
  5
D7
330
D5
100
AcDbEntity
  8
0
100
AcDbBlockEnd
  0
BLOCK
  5
EA
330
E9
100
AcDbEntity
  8
0
100
AcDbBlockBegin
  2
_D_1
 70
     0
 10
0.0
 20
0.0
 30
0.0
  3
_D_1
  1
_D_1
  0
LINE
  5
EC
330
E9
100
AcDbEntity
  8
치수문자_일반주서
 62
     0
370
    -2
100
AcDbLine
 10
25.46250000000002
 20
-2.379237403765588
 30
0.0
 11
63.81702030058101
 21
-2.379237403765448
 31
0.0
  0
LINE
  5
ED
330
E9
100
AcDbEntity
  8
치수문자_일반주서
 62
     0
370
    -2
100
AcDbLine
 10
25.46250000000002
 20
2.37923740376559
 30
0.0
 11
63.817020300581
 21
2.379237403765732
 31
0.0
  0
LINE
  5
EE
330
E9
100
AcDbEntity
  8
치수문자_일반주서
 62
     0
370
    -2
100
AcDbLine
 10
63.817020300581
 20
2.379237403765732
 30
0.0
 11
63.81702030058089
 21
36.98323740376573
 31
0.0
  0
LINE
  5
EF
330
E9
100
AcDbEntity
  8
치수문자_일반주서
 62
     0
370
    -2
100
AcDbLine
 10
63.81702030058101
 20
-2.379237403765448
 30
0.0
 11
63.817020300581
 21
2.379237403765732
 31
0.0
  0
LINE
  5
F0
330
E9
100
AcDbEntity
  8
치수문자_일반주서
 62
     0
370
    -2
100
AcDbLine
 10
63.81702030058102
 20
-5.681237403765447
 30
0.0
 11
63.81702030058103
 21
-8.983237403765447
 31
0.0
  0
LINE
  5
F1
330
E9
100
AcDbEntity
  8
치수문자_일반주서
 62
     0
370
    -2
100
AcDbLine
 10
63.81702030058099
 20
5.681237403765731
 30
0.0
 11
63.81702030058099
 21
8.983237403765731
 31
0.0
  0
SOLID
  5
F2
330
E9
100
AcDbEntity
  8
치수문자_일반주서
 62
     0
100
AcDbTrace
 10
64.36735363391435
 20
-5.681237403765445
 30
0.0
 11
63.26668696724769
 21
-5.681237403765449
 31
0.0
 12
63.81702030058101
 22
-2.379237403765448
 32
0.0
 13
63.81702030058101
 23
-2.379237403765448
 33
0.0
  0
SOLID
  5
F3
330
E9
100
AcDbEntity
  8
치수문자_일반주서
 62
     0
100
AcDbTrace
 10
63.26668696724766
 20
5.68123740376573
 30
0.0
 11
64.36735363391432
 21
5.681237403765733
 31
0.0
 12
63.817020300581
 22
2.379237403765732
 32
0.0
 13
63.817020300581
 23
2.379237403765732
 33
0.0
  0
MTEXT
  5
F4
330
E9
100
AcDbEntity
  8
치수문자_일반주서
 62
     0
100
AcDbMText
 10
59.44202030058094
 20
22.98323740376572
 30
0.0
 40
3.5
 41
0.0
 71
     2
 72
     1
  1
\A1;%%c4.76 [3/16]
  7
SLDTEXTSTYLE0
 11
-2.986430587529993E-15
 21
1.0
 31
0.0
 73
     1
 44
1.0
  0
POINT
  5
F5
330
E9
100
AcDbEntity
  8
Defpoints
 62
     0
100
AcDbPoint
 10
25.40000000000002
 20
-2.379237403765589
 30
0.0
  0
POINT
  5
F6
330
E9
100
AcDbEntity
  8
Defpoints
 62
     0
100
AcDbPoint
 10
25.40000000000002
 20
2.379237403765589
 30
0.0
  0
POINT
  5
F7
330
E9
100
AcDbEntity
  8
Defpoints
 62
     0
100
AcDbPoint
 10
63.81702030058101
 20
2.379237403765733
 30
0.0
  0
ENDBLK
  5
EB
330
E9
100
AcDbEntity
  8
0
100
AcDbBlockEnd
  0
BLOCK
  5
FE
330
FD
100
AcDbEntity
  8
0
100
AcDbBlockBegin
  2
_D_2
 70
     0
 10
0.0
 20
0.0
 30
0.0
  3
_D_2
  1
_D_2
  0
LINE
  5
100
330
FD
100
AcDbEntity
  8
치수문자_일반주서
 62
     0
370
    -2
100
AcDbLine
 10
25.40000000000002
 20
2.441737403765589
 30
0.0
 11
25.40000000000002
 21
12.38124999999999
 31
0.0
  0
LINE
  5
101
330
FD
100
AcDbEntity
  8
치수문자_일반주서
 62
     0
370
    -2
100
AcDbLine
 10
18.25625000000002
 20
1.945467877149917
 30
0.0
 11
18.25625000000002
 21
12.38124999999999
 31
0.0
  0
LINE
  5
102
330
FD
100
AcDbEntity
  8
치수문자_일반주서
 62
     0
370
    -2
100
AcDbLine
 10
25.40000000000002
 20
12.38124999999999
 30
0.0
 11
57.37900000000002
 21
12.38124999999999
 31
0.0
  0
LINE
  5
103
330
FD
100
AcDbEntity
  8
치수문자_일반주서
 62
     0
370
    -2
100
AcDbLine
 10
25.40000000000002
 20
12.38124999999999
 30
0.0
 11
18.25625000000002
 21
12.38124999999999
 31
0.0
  0
LINE
  5
104
330
FD
100
AcDbEntity
  8
치수문자_일반주서
 62
     0
370
    -2
100
AcDbLine
 10
28.70200000000002
 20
12.38124999999999
 30
0.0
 11
32.00400000000002
 21
12.38124999999999
 31
0.0
  0
LINE
  5
105
330
FD
100
AcDbEntity
  8
치수문자_일반주서
 62
     0
370
    -2
100
AcDbLine
 10
14.95425000000002
 20
12.38124999999999
 30
0.0
 11
11.65225000000002
 21
12.38124999999999
 31
0.0
  0
SOLID
  5
106
330
FD
100
AcDbEntity
  8
치수문자_일반주서
 62
     0
100
AcDbTrace
 10
28.70200000000002
 20
12.93158333333333
 30
0.0
 11
28.70200000000002
 21
11.83091666666666
 31
0.0
 12
25.40000000000002
 22
12.38124999999999
 32
0.0
 13
25.40000000000002
 23
12.38124999999999
 33
0.0
  0
SOLID
  5
107
330
FD
100
AcDbEntity
  8
치수문자_일반주서
 62
     0
100
AcDbTrace
 10
14.95425000000002
 20
11.83091666666666
 30
0.0
 11
14.95425000000002
 21
12.93158333333333
 31
0.0
 12
18.25625000000002
 22
12.38124999999999
 32
0.0
 13
18.25625000000002
 23
12.38124999999999
 33
0.0
  0
MTEXT
  5
108
330
FD
100
AcDbEntity
  8
치수문자_일반주서
 62
     0
100
AcDbMText
 10
44.69150000000002
 20
16.75624999999999
 30
0.0
 40
3.5
 41
0.0
 71
     2
 72
     1
  1
\A1;7.14 [9/32]
  7
SLDTEXTSTYLE0
 73
     1
 44
1.0
  0
POINT
  5
109
330
FD
100
AcDbEntity
  8
Defpoints
 62
     0
100
AcDbPoint
 10
25.40000000000002
 20
2.379237403765589
 30
0.0
  0
POINT
  5
10A
330
FD
100
AcDbEntity
  8
Defpoints
 62
     0
100
AcDbPoint
 10
18.25625000000002
 20
1.882967877149917
 30
0.0
  0
POINT
  5
10B
330
FD
100
AcDbEntity
  8
Defpoints
 62
     0
100
AcDbPoint
 10
18.25625000000002
 20
12.38124999999999
 30
0.0
  0
ENDBLK
  5
FF
330
FD
100
AcDbEntity
  8
0
100
AcDbBlockEnd
  0
BLOCK
  5
114
330
113
100
AcDbEntity
  8
0
100
AcDbBlockBegin
  2
_D_3
 70
     0
 10
0.0
 20
0.0
 30
0.0
  3
_D_3
  1
_D_3
  0
LINE
  5
116
330
113
100
AcDbEntity
  8
치수문자_일반주서
 62
     0
370
    -2
100
AcDbLine
 10
-25.40000000000002
 20
2.441737403765585
 30
0.0
 11
-25.40000000000002
 21
22.38125
 31
0.0
  0
LINE
  5
117
330
113
100
AcDbEntity
  8
치수문자_일반주서
 62
     0
370
    -2
100
AcDbLine
 10
25.40000000000002
 20
2.441737403765589
 30
0.0
 11
25.40000000000001
 21
22.38125
 31
0.0
  0
LINE
  5
118
330
113
100
AcDbEntity
  8
치수문자_일반주서
 62
     0
370
    -2
100
AcDbLine
 10
-22.09800000000002
 20
22.38125
 30
0.0
 11
22.09800000000001
 21
22.38125
 31
0.0
  0
SOLID
  5
119
330
113
100
AcDbEntity
  8
치수문자_일반주서
 62
     0
100
AcDbTrace
 10
-22.09800000000002
 20
22.93158333333334
 30
0.0
 11
-22.09800000000002
 21
21.83091666666667
 31
0.0
 12
-25.40000000000002
 22
22.38125
 32
0.0
 13
-25.40000000000002
 23
22.38125
 33
0.0
  0
SOLID
  5
11A
330
113
100
AcDbEntity
  8
치수문자_일반주서
 62
     0
100
AcDbTrace
 10
22.09800000000001
 20
21.83091666666667
 30
0.0
 11
22.09800000000001
 21
22.93158333333334
 31
0.0
 12
25.40000000000001
 22
22.38125
 32
0.0
 13
25.40000000000001
 23
22.38125
 33
0.0
  0
MTEXT
  5
11B
330
113
100
AcDbEntity
  8
치수문자_일반주서
 62
     0
100
AcDbMText
 10
0.0000000000000195
 20
26.75625
 30
0.0
 40
3.5
 41
0.0
 71
     2
 72
     1
  1
\A1;50.8 [2]
  7
SLDTEXTSTYLE0
 73
     1
 44
1.0
  0
POINT
  5
11C
330
113
100
AcDbEntity
  8
Defpoints
 62
     0
100
AcDbPoint
 10
-25.40000000000002
 20
2.379237403765585
 30
0.0
  0
POINT
  5
11D
330
113
100
AcDbEntity
  8
Defpoints
 62
     0
100
AcDbPoint
 10
25.40000000000002
 20
2.379237403765589
 30
0.0
  0
POINT
  5
11E
330
113
100
AcDbEntity
  8
Defpoints
 62
     0
100
AcDbPoint
 10
25.40000000000002
 20
22.38125
 30
0.0
  0
ENDBLK
  5
115
330
113
100
AcDbEntity
  8
0
100
AcDbBlockEnd
  0
BLOCK
  5
12D
330
12C
100
AcDbEntity
  8
0
100
AcDbBlockBegin
  2
SW_DOWELSYMBOL_0
 70
     0
 10
0.0
 20
0.0
 30
0.0
  3
SW_DOWELSYMBOL_0
  1
SW_DOWELSYMBOL_0
  0
CIRCLE
  5
12F
330
12C
100
AcDbEntity
  8
해칭선
 62
     0
100
AcDbCircle
 10
0.0
 20
0.0
 30
0.0
 40
3.000000000000001
  0
HATCH
  5
130
330
12C
100
AcDbEntity
  8
0
  6
Continuous
 62
     0
370
     0
100
AcDbHatch
 10
0.0
 20
0.0
 30
0.0
210
0.0
220
0.0
230
1.0
  2
SOLID
 70
     1
 71
     0
 91
        1
 92
        0
 93
        3
 72
     2
 10
0.0
 20
0.0
 40
3.000000000000001
 50
0.0
 51
90.0
 73
     1
 72
     1
 10
0.0
 20
3.000000000000001
 11
0.0
 21
0.0
 72
     1
 10
0.0
 20
0.0
 11
3.000000000000001
 21
0.0
 97
        0
 75
     0
 76
     1
 98
        1
 10
0.0
 20
0.0
  0
HATCH
  5
131
330
12C
100
AcDbEntity
  8
0
  6
Continuous
 62
     0
370
     0
100
AcDbHatch
 10
0.0
 20
0.0
 30
0.0
210
0.0
220
0.0
230
1.0
  2
SOLID
 70
     1
 71
     0
 91
        1
 92
        0
 93
        3
 72
     2
 10
0.0
 20
0.0
 40
3.000000000000001
 50
180.0
 51
270.0000000000007
 73
     1
 72
     1
 10
0.0
 20
-3.000000000000001
 11
0.0
 21
0.0
 72
     1
 10
0.0
 20
0.0
 11
-3.000000000000001
 21
0.0
 97
        0
 75
     0
 76
     1
 98
        1
 10
0.0
 20
0.0
  0
ENDBLK
  5
12E
330
12C
100
AcDbEntity
  8
0
100
AcDbBlockEnd
  0
BLOCK
  5
192
330
191
100
AcDbEntity
  8
0
100
AcDbBlockBegin
  2
*D7
 70
     1
 10
0.0
 20
0.0
 30
0.0
  3
*D7
  1
*D7
  0
LINE
  5
194
330
191
100
AcDbEntity
  8
치수문자_일반주서
 62
     0
370
    -2
100
AcDbLine
 10
11.3665
 20
1.204062975115862
 30
0.0
 11
11.3665
 21
11.9366547059388
 31
0.0
  0
LINE
  5
195
330
191
100
AcDbEntity
  8
치수문자_일반주서
 62
     0
370
    -2
100
AcDbLine
 10
6.603999999999999
 20
0.8732315656415455
 30
0.0
 11
6.603999999999999
 21
11.9366547059388
 31
0.0
  0
LINE
  5
196
330
191
100
AcDbEntity
  8
치수문자_일반주서
 62
     0
370
    -2
100
AcDbLine
 10
11.3665
 20
11.9366547059388
 30
0.0
 11
43.3455
 21
11.9366547059388
 31
0.0
  0
LINE
  5
197
330
191
100
AcDbEntity
  8
치수문자_일반주서
 62
     0
370
    -2
100
AcDbLine
 10
11.3665
 20
11.9366547059388
 30
0.0
 11
6.603999999999999
 21
11.9366547059388
 31
0.0
  0
LINE
  5
198
330
191
100
AcDbEntity
  8
치수문자_일반주서
 62
     0
370
    -2
100
AcDbLine
 10
14.6685
 20
11.9366547059388
 30
0.0
 11
17.9705
 21
11.9366547059388
 31
0.0
  0
LINE
  5
199
330
191
100
AcDbEntity
  8
치수문자_일반주서
 62
     0
370
    -2
100
AcDbLine
 10
3.302
 20
11.9366547059388
 30
0.0
 11
0.0
 21
11.9366547059388
 31
0.0
  0
SOLID
  5
19A
330
191
100
AcDbEntity
  8
치수문자_일반주서
 62
     0
100
AcDbTrace
 10
14.6685
 20
12.48698803927213
 30
0.0
 11
14.6685
 21
11.38632137260547
 31
0.0
 12
11.3665
 22
11.9366547059388
 32
0.0
 13
11.3665
 23
11.9366547059388
 33
0.0
  0
SOLID
  5
19B
330
191
100
AcDbEntity
  8
치수문자_일반주서
 62
     0
100
AcDbTrace
 10
3.302
 20
11.38632137260547
 30
0.0
 11
3.302
 21
12.48698803927213
 31
0.0
 12
6.603999999999999
 22
11.9366547059388
 32
0.0
 13
6.603999999999999
 23
11.9366547059388
 33
0.0
  0
MTEXT
  5
19C
330
191
100
AcDbEntity
  8
치수문자_일반주서
 62
     0
100
AcDbMText
 10
30.658
 20
16.3116547059388
 30
0.0
 40
3.5
 41
0.0
 71
     2
 72
     1
  1
\A1;4.76 [3/16]
  7
SLDTEXTSTYLE0
 73
     1
 44
1.0
  0
POINT
  5
19D
330
191
100
AcDbEntity
  8
Defpoints
 62
     0
100
AcDbPoint
 10
11.3665
 20
1.141562975115862
 30
0.0
  0
POINT
  5
19E
330
191
100
AcDbEntity
  8
Defpoints
 62
     0
100
AcDbPoint
 10
6.603999999999999
 20
0.8107315656415455
 30
0.0
  0
POINT
  5
19F
330
191
100
AcDbEntity
  8
Defpoints
 62
     0
100
AcDbPoint
 10
6.603999999999999
 20
11.9366547059388
 30
0.0
  0
ENDBLK
  5
193
330
191
100
AcDbEntity
  8
0
100
AcDbBlockEnd
  0
BLOCK
  5
1A4
330
1A3
100
AcDbEntity
  8
0
100
AcDbBlockBegin
  2
*D8
 70
     1
 10
0.0
 20
0.0
 30
0.0
  3
*D8
  1
*D8
  0
LINE
  5
1A6
330
1A3
100
AcDbEntity
  8
치수문자_일반주서
 62
     0
370
    -2
100
AcDbLine
 10
66.03967614159039
 20
-9.660275415713171
 30
0.0
 11
66.03967614159039
 21
1.072316315109767
 31
0.0
  0
LINE
  5
1A7
330
1A3
100
AcDbEntity
  8
치수문자_일반주서
 62
     0
370
    -2
100
AcDbLine
 10
61.27717614159039
 20
-9.991106825187488
 30
0.0
 11
61.27717614159039
 21
1.072316315109767
 31
0.0
  0
LINE
  5
1A8
330
1A3
100
AcDbEntity
  8
치수문자_일반주서
 62
     0
370
    -2
100
AcDbLine
 10
66.03967614159039
 20
1.072316315109767
 30
0.0
 11
98.01867614159039
 21
1.072316315109767
 31
0.0
  0
LINE
  5
1A9
330
1A3
100
AcDbEntity
  8
치수문자_일반주서
 62
     0
370
    -2
100
AcDbLine
 10
66.03967614159039
 20
1.072316315109767
 30
0.0
 11
61.27717614159039
 21
1.072316315109767
 31
0.0
  0
LINE
  5
1AA
330
1A3
100
AcDbEntity
  8
치수문자_일반주서
 62
     0
370
    -2
100
AcDbLine
 10
69.3416761415904
 20
1.072316315109767
 30
0.0
 11
72.64367614159039
 21
1.072316315109767
 31
0.0
  0
LINE
  5
1AB
330
1A3
100
AcDbEntity
  8
치수문자_일반주서
 62
     0
370
    -2
100
AcDbLine
 10
57.97517614159039
 20
1.072316315109767
 30
0.0
 11
54.67317614159039
 21
1.072316315109767
 31
0.0
  0
SOLID
  5
1AC
330
1A3
100
AcDbEntity
  8
치수문자_일반주서
 62
     0
100
AcDbTrace
 10
69.3416761415904
 20
1.6226496484431
 30
0.0
 11
69.3416761415904
 21
0.5219829817764333
 31
0.0
 12
66.03967614159039
 22
1.072316315109767
 32
0.0
 13
66.03967614159039
 23
1.072316315109767
 33
0.0
  0
SOLID
  5
1AD
330
1A3
100
AcDbEntity
  8
치수문자_일반주서
 62
     0
100
AcDbTrace
 10
57.97517614159039
 20
0.5219829817764333
 30
0.0
 11
57.97517614159039
 21
1.6226496484431
 31
0.0
 12
61.27717614159039
 22
1.072316315109767
 32
0.0
 13
61.27717614159039
 23
1.072316315109767
 33
0.0
  0
MTEXT
  5
1AE
330
1A3
100
AcDbEntity
  8
치수문자_일반주서
 62
     0
100
AcDbMText
 10
85.33117614159039
 20
5.447316315109767
 30
0.0
 40
3.5
 41
0.0
 71
     2
 72
     1
  1
\A1;4.76 [3/16]
  7
SLDTEXTSTYLE0
 73
     1
 44
1.0
  0
POINT
  5
1AF
330
1A3
100
AcDbEntity
  8
Defpoints
 62
     0
100
AcDbPoint
 10
66.03967614159039
 20
-9.722775415713171
 30
0.0
  0
POINT
  5
1B0
330
1A3
100
AcDbEntity
  8
Defpoints
 62
     0
100
AcDbPoint
 10
61.27717614159039
 20
-10.05360682518749
 30
0.0
  0
POINT
  5
1B1
330
1A3
100
AcDbEntity
  8
Defpoints
 62
     0
100
AcDbPoint
 10
61.27717614159039
 20
1.072316315109767
 30
0.0
  0
ENDBLK
  5
1A5
330
1A3
100
AcDbEntity
  8
0
100
AcDbBlockEnd
  0
ENDSEC
  0
SECTION
  2
ENTITIES
  0
LINE
  5
96
330
1F
100
AcDbEntity
  8
외형선
  6
Continuous
370
    15
100
AcDbLine
 10
17.36614347986671
 20
2.381250000000001
 30
0.0
 11
-17.36614347986671
 21
2.381249999999999
 31
0.0
  0
LINE
  5
97
330
1F
100
AcDbEntity
  8
외형선
  6
Continuous
370
    15
100
AcDbLine
 10
-17.36614347986671
 20
-2.381250000000001
 30
0.0
 11
17.36614347986671
 21
-2.38125
 31
0.0
  0
SPLINE
  5
9A
330
1F
100
AcDbEntity
  8
외형선
  6
Continuous
370
    15
100
AcDbSpline
210
0.0
220
0.0
230
1.0
 70
     8
 71
     3
 72
    11
 73
     7
 74
     0
 42
0.000000001
 43
0.00000001
 40
0.0
 40
0.0
 40
0.0
 40
0.0
 40
0.0666437854221465
 40
0.1444015529572581
 40
0.373140695001644
 40
1.0
 40
1.0
 40
1.0
 40
1.0
 10
17.8805257089251
 20
1.869023845347116
 30
0.0
 10
17.8784892789882
 20
1.869387801342245
 30
0.0
 10
17.87407680986577
 20
1.870176409170743
 30
0.0
 10
17.85180127058414
 20
1.882762347539622
 30
0.0
 10
17.77919285358715
 20
1.936757160131934
 30
0.0
 10
17.71246908040857
 20
1.997969520287749
 30
0.0
 10
17.66358351005001
 20
2.042817121025229
 30
0.0
  0
LINE
  5
9B
330
1F
100
AcDbEntity
  8
외형선
  6
Continuous
370
    15
100
AcDbLine
 10
18.25625000000002
 20
1.874642178982278
 30
0.0
 11
17.87732659967993
 21
1.867603552958286
 31
0.0
  0
LINE
  5
9C
330
1F
100
AcDbEntity
  8
외형선
  6
Continuous
370
    15
100
AcDbLine
 10
17.36070747767963
 20
-1.859840759658176
 30
0.0
 11
18.20324546491835
 21
-1.873766126388158
 31
0.0
  0
SPLINE
  5
9D
330
1F
100
AcDbEntity
  8
0
  6
Continuous
 62
     1
370
    15
100
AcDbSpline
210
0.0
220
0.0
230
1.0
 70
     8
 71
     3
 72
     9
 73
     5
 74
     0
 42
0.000000001
 43
0.00000001
 40
0.0
 40
0.0
 40
0.0
 40
0.0
 40
0.5124056986349126
 40
1.0
 40
1.0
 40
1.0
 40
1.0
 10
19.23154729684446
 20
0.6101584826220756
 30
0.0
 10
19.11712340696647
 20
0.6645935406462399
 30
0.0
 10
18.89381619125277
 20
0.7708278354036626
 30
0.0
 10
18.66821641794238
 20
0.8889497883041592
 30
0.0
 10
18.55821525408698
 20
0.9465453794045569
 30
0.0
1001
PE_URL
1000

  0
LINE
  5
9E
330
1F
100
AcDbEntity
  8
0
  6
Continuous
 62
     1
370
    15
100
AcDbLine
 10
18.45605498558779
 20
1.892922190497655
 30
0.0
 11
18.25624999999991
 21
1.874642178982276
 31
0.0
1001
PE_URL
1000

  0
SPLINE
  5
9F
330
1F
100
AcDbEntity
  8
0
  6
Continuous
 62
     1
370
    15
100
AcDbSpline
210
0.0
220
0.0
230
1.0
 70
     8
 71
     3
 72
    25
 73
    21
 74
     0
 42
0.000000001
 43
0.00000001
 40
0.0
 40
0.0
 40
0.0
 40
0.0
 40
0.0983396086622039
 40
0.1813336746511554
 40
0.2485788463884007
 40
0.3110909213775852
 40
0.3535423674461869
 40
0.3908107446616345
 40
0.4242901831330765
 40
0.4606049230699287
 40
0.5012799947053
 40
0.5452027237618196
 40
0.5932824696676632
 40
0.6368325715953221
 40
0.677729661177565
 40
0.7201560503052138
 40
0.764720502190666
 40
0.822069184192157
 40
0.9004536850261637
 40
1.0
 40
1.0
 40
1.0
 40
1.0
 10
24.5143998057137
 20
1.628661960712051
 30
0.0
 10
24.37765719709891
 20
1.617790067508424
 30
0.0
 10
24.12551017273276
 20
1.597742800981256
 30
0.0
 10
23.78069766009974
 20
1.580521366450201
 30
0.0
 10
23.48567955073963
 20
1.570959350101347
 30
0.0
 10
23.24696029705496
 20
1.567234288877162
 30
0.0
 10
23.04936908335732
 20
1.566802444514027
 30
0.0
 10
22.89232282602139
 20
1.568097828148156
 30
0.0
 10
22.74373788380335
 20
1.570670882639611
 30
0.0
 10
22.5904887136291
 20
1.574686929206232
 30
0.0
 10
22.42279832752267
 20
1.58071317542315
 30
0.0
 10
22.2388171632338
 20
1.589292044724854
 30
0.0
 10
22.05168281139652
 20
1.600191068740076
 30
0.0
 10
21.87049188612128
 20
1.612842649465341
 30
0.0
 10
21.69692088448493
 20
1.626679997055672
 30
0.0
 10
21.51625195788537
 20
1.64309938850589
 30
0.0
 10
21.31030007252189
 20
1.663661721715803
 30
0.0
 10
21.05546255035866
 20
1.691916389381236
 30
0.0
 10
20.73215620337646
 20
1.733562982970497
 30
0.0
 10
20.49097973862053
 20
1.770402261891233
 30
0.0
 10
20.35604960740145
 20
1.791012601062684
 30
0.0
1001
PE_URL
1000

  0
SPLINE
  5
A0
330
1F
100
AcDbEntity
  8
0
  6
Continuous
 62
     1
370
    15
100
AcDbSpline
210
0.0
220
0.0
230
1.0
 70
     8
 71
     3
 72
    14
 73
    10
 74
     0
 42
0.000000001
 43
0.00000001
 40
0.0
 40
0.0
 40
0.0
 40
0.0
 40
0.1705519706839878
 40
0.3104237335141118
 40
0.4505954439867236
 40
0.6006436303630582
 40
0.7624433782389223
 40
0.9353497369421327
 40
1.0
 40
1.0
 40
1.0
 40
1.0
 10
20.35604960740145
 20
-1.791012601062683
 30
0.0
 10
20.44297803886014
 20
-1.776905148739531
 30
0.0
 10
20.60119754306001
 20
-1.75122800175048
 30
0.0
 10
20.86961494538685
 20
-1.711620924664967
 30
0.0
 10
21.13713988263256
 20
-1.682574333847453
 30
0.0
 10
21.41604554574191
 20
-1.652313717439688
 30
0.0
 10
21.71078245141854
 20
-1.625264643788991
 30
0.0
 10
21.95217471288479
 20
-1.606163454116199
 30
0.0
 10
22.09502152792369
 20
-1.598236170877616
 30
0.0
 10
22.13389682468781
 20
-1.596078786491067
 30
0.0
1001
PE_URL
1000

  0
LINE
  5
A1
330
1F
100
AcDbEntity
  8
0
  6
Continuous
 62
     1
370
    15
100
AcDbLine
 10
18.37237784302466
 20
-1.885266630126488
 30
0.0
 11
18.45605498558779
 21
-1.892922190497654
 31
0.0
1001
PE_URL
1000

  0
LINE
  5
A2
330
1F
100
AcDbEntity
  8
외형선
  6
Continuous
370
    15
100
AcDbLine
 10
18.25625000000001
 20
1.104450481903045
 30
0.0
 11
18.25625000000002
 21
0.4788542842370883
 31
0.0
  0
SPLINE
  5
A3
330
1F
100
AcDbEntity
  8
외형선
  6
Continuous
370
    15
100
AcDbSpline
210
0.0
220
0.0
230
1.0
 70
     8
 71
     3
 72
     8
 73
     4
 74
     0
 42
0.000000001
 43
0.00000001
 40
0.0
 40
0.0
 40
0.0
 40
0.0
 40
1.0
 40
1.0
 40
1.0
 40
1.0
 10
17.36614347986671
 20
0.9666291376565381
 30
0.0
 10
17.66191323171826
 20
0.8104482137086778
 30
0.0
 10
17.96205645894529
 20
0.6459604339239006
 30
0.0
 10
18.25625000000001
 20
0.4788542842370855
 30
0.0
  0
LINE
  5
A4
330
1F
100
AcDbEntity
  8
외형선
  6
Continuous
370
    15
100
AcDbLine
 10
17.36614347986671
 20
-2.38125
 30
0.0
 11
17.36614347986671
 21
0.9672110743232104
 31
0.0
  0
LINE
  5
A5
330
1F
100
AcDbEntity
  8
외형선
  6
Continuous
370
    15
100
AcDbLine
 10
17.36614347986671
 20
2.169127322423335
 30
0.0
 11
17.36614347986671
 21
2.381250000000001
 31
0.0
  0
SPLINE
  5
A6
330
1F
100
AcDbEntity
  8
외형선
  6
Continuous
370
    15
100
AcDbSpline
210
0.0
220
0.0
230
1.0
 70
     8
 71
     3
 72
    14
 73
    10
 74
     0
 42
0.000000001
 43
0.00000001
 40
0.0
 40
0.0
 40
0.0
 40
0.0
 40
0.1253605037109202
 40
0.249900196266902
 40
0.4981744910757296
 40
0.6256087008343664
 40
0.7485421561973852
 40
0.8912125711435099
 40
1.0
 40
1.0
 40
1.0
 40
1.0
 10
17.46320887349913
 20
1.486714434500197
 30
0.0
 10
17.45683389594568
 20
1.522663242179235
 30
0.0
 10
17.44412568167847
 20
1.59432547891744
 30
0.0
 10
17.42133658530811
 20
1.728349561578299
 30
0.0
 10
17.40179125376298
 20
1.852172243867882
 30
0.0
 10
17.38613983892106
 20
1.962525203647808
 30
0.0
 10
17.37623272722967
 20
2.042340128462481
 30
0.0
 10
17.36835670430875
 20
2.111438806773099
 30
0.0
 10
17.36681183283288
 20
2.151706454563361
 30
0.0
 10
17.36614347986671
 20
2.169127322423185
 30
0.0
  0
SPLINE
  5
A7
330
1F
100
AcDbEntity
  8
외형선
  6
Continuous
370
    15
100
AcDbSpline
210
0.0
220
0.0
230
1.0
 70
     8
 71
     3
 72
     8
 73
     4
 74
     0
 42
0.000000001
 43
0.00000001
 40
0.0
 40
0.0
 40
0.0
 40
0.0
 40
1.0
 40
1.0
 40
1.0
 40
1.0
 10
18.25625000000001
 20
1.104450481903045
 30
0.0
 10
17.9941917235084
 20
1.239074393094229
 30
0.0
 10
17.72741284198126
 20
1.367690482254664
 30
0.0
 10
17.46320887349913
 20
1.486714434500197
 30
0.0
  0
SPLINE
  5
AA
330
1F
100
AcDbEntity
  8
외형선
  6
Continuous
370
    15
100
AcDbSpline
210
0.0
220
0.0
230
1.0
 70
    24
 71
     3
 72
    11
 73
     7
 74
     0
 42
0.000000001
 43
0.00000001
 40
0.0
 40
0.0
 40
0.0
 40
0.0
 40
0.138045673945068
 40
0.5565482728193692
 40
0.7773634797365018
 40
0.9999999999999999
 40
0.9999999999999999
 40
0.9999999999999999
 40
0.9999999999999999
 10
18.25625000000002
 20
0.4436627350196937
 30
0.0
 10
18.25625000000002
 20
0.4395631707351881
 30
0.0
 10
18.25625000000002
 20
0.423035268363097
 30
0.0
 10
18.25625000000002
 20
0.378084680953331
 30
0.0
 10
18.25625000000002
 20
0.3207933702472578
 30
0.0
 10
18.25625000000002
 20
0.2855106143140401
 30
0.0
 10
18.25625000000001
 20
0.2677967809364598
 30
0.0
  0
SPLINE
  5
AB
330
1F
100
AcDbEntity
  8
외형선
  6
Continuous
370
    15
100
AcDbSpline
210
0.0
220
0.0
230
1.0
 70
     8
 71
     3
 72
     8
 73
     4
 74
     0
 42
0.000000001
 43
0.00000001
 40
0.0
 40
0.0
 40
0.0
 40
0.0
 40
1.0
 40
1.0
 40
1.0
 40
1.0
 10
18.25625000000001
 20
0.2677967809343324
 30
0.0
 10
17.96204755078089
 20
0.3856628678183538
 30
0.0
 10
17.66189505535676
 20
0.5022268264295828
 30
0.0
 10
17.36611661220278
 20
0.6134602095166302
 30
0.0
  0
SPLINE
  5
AC
330
1F
100
AcDbEntity
  8
외형선
  6
Continuous
370
    15
100
AcDbSpline
210
0.0
220
0.0
230
1.0
 70
     8
 71
     3
 72
    20
 73
    16
 74
     0
 42
0.000000001
 43
0.00000001
 40
0.0
 40
0.0
 40
0.0
 40
0.0
 40
0.4999999999999989
 40
0.4999999999999989
 40
0.7499999999999993
 40
0.7499999999999993
 40
0.8750000000000002
 40
0.8750000000000002
 40
0.9375000000000002
 40
0.9375000000000002
 40
0.9531250000000002
 40
0.9531250000000002
 40
0.9687500000000002
 40
0.9687500000000002
 40
1.0
 40
1.0
 40
1.0
 40
1.0
 10
17.62794174219973
 20
2.074815256735669
 30
0.0
 10
17.57814696481501
 20
2.123473459284664
 30
0.0
 10
17.52341477297543
 20
2.17782931580684
 30
0.0
 10
17.44050316696356
 20
2.267264546904902
 30
0.0
 10
17.4124032166053
 20
2.299087611614308
 30
0.0
 10
17.38324044185872
 20
2.335277446376774
 30
0.0
 10
17.37678531902913
 20
2.343958400942565
 30
0.0
 10
17.37079647321383
 20
2.352545068569666
 30
0.0
 10
17.36936954373574
 20
2.354634018711667
 30
0.0
 10
17.36776996193457
 20
2.357580044498677
 30
0.0
 10
17.3674982794326
 20
2.358040876306145
 30
0.0
 10
17.3666232636952
 20
2.360299626173253
 30
0.0
 10
17.36633065249472
 20
2.361885072015213
 30
0.0
 10
17.36614638031674
 20
2.363442300393501
 30
0.0
 10
17.36614347986671
 20
2.364051799976057
 30
0.0
 10
17.36614347986671
 20
2.364649427916847
 30
0.0
  0
LINE
  5
AD
330
1F
100
AcDbEntity
  8
외형선
  6
Continuous
370
    15
100
AcDbLine
 10
17.62793845432609
 20
2.074814223765209
 30
0.0
 11
17.6623994916533
 21
2.041514777402074
 31
0.0
  0
LINE
  5
AE
330
1F
100
AcDbEntity
  8
외형선
  6
Continuous
370
    15
100
AcDbLine
 10
18.25625000000002
 20
1.880254311847082
 30
0.0
 11
18.18203770861982
 21
1.873263661411267
 31
0.0
  0
SPLINE
  5
AF
330
1F
100
AcDbEntity
  8
외형선
  6
Continuous
370
    15
100
AcDbSpline
210
0.0
220
0.0
230
1.0
 70
    24
 71
     3
 72
    12
 73
     8
 74
     0
 42
0.000000001
 43
0.00000001
 40
0.0
 40
0.0
 40
0.0
 40
0.0
 40
0.1455134081441834
 40
0.3797517384745079
 40
0.620782996252844
 40
0.8314574685934126
 40
0.9999999999999999
 40
0.9999999999999999
 40
0.9999999999999999
 40
0.9999999999999999
 10
18.25625000000001
 20
1.873064330128787
 30
0.0
 10
18.25625000000002
 20
1.863744065711419
 30
0.0
 10
18.25625000000002
 20
1.839420625963309
 30
0.0
 10
18.25625000000001
 20
1.734444866397134
 30
0.0
 10
18.25625000000001
 20
1.554611856801885
 30
0.0
 10
18.25625000000001
 20
1.34207441093228
 30
0.0
 10
18.25625000000002
 20
1.177566029786848
 30
0.0
 10
18.25625000000002
 20
1.104450481902983
 30
0.0
  0
SPLINE
  5
B0
330
1F
100
AcDbEntity
  8
외형선
  6
Continuous
370
    15
100
AcDbSpline
210
0.0
220
0.0
230
1.0
 70
     8
 71
     3
 72
     8
 73
     4
 74
     0
 42
0.000000001
 43
0.00000001
 40
0.0
 40
0.0
 40
0.0
 40
0.0
 40
1.0
 40
1.0
 40
1.0
 40
1.0
 10
18.25625000000002
 20
-1.88025431184708
 30
0.0
 10
17.9620429576784
 20
-1.858327863085776
 30
0.0
 10
17.66188568351261
 20
-1.821611232445335
 30
0.0
 10
17.36610275908502
 20
-1.771293062099178
 30
0.0
  0
SPLINE
  5
B1
330
1F
100
AcDbEntity
  8
외형선
  6
Continuous
370
    15
100
AcDbSpline
210
0.0
220
0.0
230
1.0
 70
    24
 71
     3
 72
    14
 73
    10
 74
     0
 42
0.000000001
 43
0.00000001
 40
0.0
 40
0.0
 40
0.0
 40
0.0
 40
0.25
 40
0.25
 40
0.4999999999999999
 40
0.4999999999999999
 40
0.75
 40
0.75
 40
1.0
 40
1.0
 40
1.0
 40
1.0
 10
18.25625000000005
 20
0.2677967809343198
 30
0.0
 10
18.25625000000005
 20
0.05715303710286
 30
0.0
 10
18.25625000000005
 20
-0.1588805017956282
 30
0.0
 10
18.25625000000005
 20
-0.581493048755424
 30
0.0
 10
18.25625000000005
 20
-0.78784822364318
 30
0.0
 10
18.25625000000005
 20
-1.16961883352796
 30
0.0
 10
18.25625000000005
 20
-1.34483084518289
 30
0.0
 10
18.25625000000005
 20
-1.648777877668329
 30
0.0
 10
18.25625000000005
 20
-1.77745573744326
 30
0.0
 10
18.25625000000005
 20
-1.880254311847082
 30
0.0
  0
SPLINE
  5
B2
330
1F
100
AcDbEntity
  8
0
  6
Continuous
 62
     1
370
    15
100
AcDbSpline
210
0.0
220
0.0
230
1.0
 70
     8
 71
     3
 72
    28
 73
    24
 74
     0
 42
0.000000001
 43
0.00000001
 40
0.0
 40
0.0
 40
0.0
 40
0.0
 40
0.1249999999999999
 40
0.1249999999999999
 40
0.1874999999999999
 40
0.1874999999999999
 40
0.2499999999999999
 40
0.2499999999999999
 40
0.3124999999999999
 40
0.3124999999999999
 40
0.3749999999999999
 40
0.3749999999999999
 40
0.5
 40
0.5
 40
0.6250000000000001
 40
0.6250000000000001
 40
0.6875000000000001
 40
0.6875000000000001
 40
0.7500000000000002
 40
0.7500000000000002
 40
0.8750000000000001
 40
0.8750000000000001
 40
1.0
 40
1.0
 40
1.0
 40
1.0
 10
25.40000000000002
 20
-2.259665444858461
 30
0.0
 10
25.10534723378047
 20
-2.205633317178668
 30
0.0
 10
24.80379682211874
 20
-2.133440816845723
 30
0.0
 10
24.35682029143567
 20
-2.001392956653081
 30
0.0
 10
24.20985956290924
 20
-1.953595638150124
 30
0.0
 10
23.91306048958976
 20
-1.850283572579396
 30
0.0
 10
23.76340577523567
 20
-1.794763231996195
 30
0.0
 10
23.46420516103473
 20
-1.676910830791785
 30
0.0
 10
23.31466440343474
 20
-1.614580815787822
 30
0.0
 10
23.0183145430259
 20
-1.484267171398385
 30
0.0
 10
22.87107299994638
 20
-1.416238254518845
 30
0.0
 10
22.42366405886555
 20
-1.203379567133094
 30
0.0
 10
22.12338299385856
 20
-1.050548644843283
 30
0.0
 10
21.53293805018123
 20
-0.7326980082219003
 30
0.0
 10
21.23125888930684
 20
-0.5656185438449379
 30
0.0
 10
20.78477245452429
 20
-0.3114170180727544
 30
0.0
 10
20.6379592292604
 20
-0.226295283349778
 30
0.0
 10
20.34074888906557
 20
-0.0548181540022632
 30
0.0
 10
20.19099973245455
 20
0.0314150567199061
 30
0.0
 10
19.74225728702501
 20
0.2893282900825895
 30
0.0
 10
19.44817348287863
 20
0.4593775082937692
 30
0.0
 10
18.85112884421008
 20
0.7913582463088352
 30
0.0
 10
18.55200490721887
 20
0.952516023290199
 30
0.0
 10
18.256249999997
 20
1.104450481904596
 30
0.0
1001
PE_URL
1000

  0
SPLINE
  5
B3
330
1F
100
AcDbEntity
  8
0
  6
Continuous
 62
     1
370
    15
100
AcDbSpline
210
0.0
220
0.0
230
1.0
 70
     8
 71
     3
 72
    14
 73
    10
 74
     0
 42
0.000000001
 43
0.00000001
 40
0.0
 40
0.0
 40
0.0
 40
0.0
 40
0.1624514422050592
 40
0.3247472831998161
 40
0.4869521938174129
 40
0.6491316172157425
 40
0.8113512136317397
 40
0.9736763012613482
 40
1.0
 40
1.0
 40
1.0
 40
1.0
 10
25.40000000000002
 20
-1.878740204526812
 30
0.0
 10
25.06493250695538
 20
-1.806847399760775
 30
0.0
 10
24.39511845927541
 20
-1.663130651466748
 30
0.0
 10
23.39094165730376
 20
-1.319619347237608
 30
0.0
 10
22.38739660894522
 20
-0.9064504702100085
 30
0.0
 10
21.384031044846
 20
-0.4372155389617456
 30
0.0
 10
20.38039860921749
 20
0.0553531839530263
 30
0.0
 10
19.65678165049391
 20
0.4132249469659428
 30
0.0
 10
19.26774453806034
 20
0.592201760672594
 30
0.0
 10
19.21345902717524
 20
0.6171758504397062
 30
0.0
1001
PE_URL
1000

  0
LINE
  5
B4
330
1F
100
AcDbEntity
  8
0
  6
Continuous
 62
     1
370
    15
100
AcDbLine
 10
25.40000000000002
 20
-2.259665444858461
 30
0.0
 11
25.40000000000002
 21
-1.878740204526812
 31
0.0
1001
PE_URL
1000

  0
SPLINE
  5
B5
330
1F
100
AcDbEntity
  8
0
  6
Continuous
 62
     1
370
    15
100
AcDbSpline
210
0.0
220
0.0
230
1.0
 70
     8
 71
     3
 72
    28
 73
    24
 74
     0
 42
0.000000001
 43
0.00000001
 40
0.0
 40
0.0
 40
0.0
 40
0.0
 40
0.1250000000000002
 40
0.1250000000000002
 40
0.2500000000000003
 40
0.2500000000000003
 40
0.3125000000000004
 40
0.3125000000000004
 40
0.3750000000000006
 40
0.3750000000000006
 40
0.5000000000000007
 40
0.5000000000000007
 40
0.6250000000000008
 40
0.6250000000000008
 40
0.6875000000000007
 40
0.6875000000000007
 40
0.7500000000000007
 40
0.7500000000000007
 40
0.8125000000000006
 40
0.8125000000000006
 40
0.8750000000000004
 40
0.8750000000000004
 40
1.0
 40
1.0
 40
1.0
 40
1.0
 10
18.25625000000001
 20
0.4788542842370854
 30
0.0
 10
18.55200490722172
 20
0.3108612561793849
 30
0.0
 10
18.85112884421288
 20
0.1384853271416498
 30
0.0
 10
19.44817348288115
 20
-0.2055381127054836
 30
0.0
 10
19.74225728702742
 20
-0.3764370553712942
 30
0.0
 10
20.19099973245678
 20
-0.6278345985634178
 30
0.0
 10
20.34074888906773
 20
-0.710594984666853
 30
0.0
 10
20.63795922926241
 20
-0.8726023348759732
 30
0.0
 10
20.78477245452624
 20
-0.9517436984885477
 30
0.0
 10
21.23125888930863
 20
-1.184213596897149
 30
0.0
 10
21.53293805018288
 20
-1.331737473297146
 30
0.0
 10
22.12338299385991
 20
-1.6017772976502
 30
0.0
 10
22.42366405886682
 20
-1.726057221750521
 30
0.0
 10
22.87107299994745
 20
-1.890386154903853
 30
0.0
 10
23.0183145430269
 20
-1.941351141462311
 30
0.0
 10
23.31466440343562
 20
-2.035757075607206
 30
0.0
 10
23.46420516103555
 20
-2.07922039316058
 30
0.0
 10
23.76340577523636
 20
-2.15782913598344
 30
0.0
 10
23.91306048959039
 20
-2.192973185711446
 30
0.0
 10
24.20985956290974
 20
-2.254392307113353
 30
0.0
 10
24.35682029143612
 20
-2.280685935608546
 30
0.0
 10
24.80379682211899
 20
-2.346419220543858
 30
0.0
 10
25.10534723378059
 20
-2.372196716168562
 30
0.0
 10
25.40000000000002
 20
-2.379237403765584
 30
0.0
1001
PE_URL
1000

  0
SPLINE
  5
B6
330
1F
100
AcDbEntity
  8
0
  6
Continuous
 62
     1
370
    15
100
AcDbSpline
210
0.0
220
0.0
230
1.0
 70
     8
 71
     3
 72
     9
 73
     5
 74
     0
 42
0.000000001
 43
0.00000001
 40
0.0
 40
0.0
 40
0.0
 40
0.0
 40
0.1459569123141547
 40
1.0
 40
1.0
 40
1.0
 40
1.0
 10
19.4776903218791
 20
-0.2224437206969497
 30
0.0
 10
19.41826744023675
 20
-0.1990963828792584
 30
0.0
 10
19.01114125004685
 20
-0.0391359024366533
 30
0.0
 10
18.60398175356014
 20
0.1264118593222647
 30
0.0
 10
18.25625000000001
 20
0.2677967809343319
 30
0.0
1001
PE_URL
1000

  0
SPLINE
  5
B7
330
1F
100
AcDbEntity
  8
외형선
  6
Continuous
370
    15
100
AcDbSpline
210
0.0
220
0.0
230
1.0
 70
    24
 71
     3
 72
    11
 73
     7
 74
     0
 42
0.000000001
 43
0.00000001
 40
0.0
 40
0.0
 40
0.0
 40
0.0
 40
0.1379559413729962
 40
0.5565021078859488
 40
0.7773403024671286
 40
0.9999999999999999
 40
0.9999999999999999
 40
0.9999999999999999
 40
0.9999999999999999
 10
18.25625000000002
 20
0.4436527350196937
 30
0.0
 10
18.25625000000002
 20
0.4395560889194115
 30
0.0
 10
18.25625000000001
 20
0.4230305796344882
 30
0.0
 10
18.25625000000002
 20
0.3780844325885385
 30
0.0
 10
18.25625000000002
 20
0.3207934159150376
 30
0.0
 10
18.25625000000002
 20
0.2855106295782569
 30
0.0
 10
18.25625000000002
 20
0.2677967809364592
 30
0.0
  0
LINE
  5
B8
330
1F
100
AcDbEntity
  8
0
  6
Continuous
 62
     1
370
    15
100
AcDbLine
 10
25.40000000000002
 20
-2.379237403765589
 30
0.0
 11
25.40000000000002
 21
-2.259665444858461
 31
0.0
1001
PE_URL
1000

  0
SPLINE
  5
B9
330
1F
100
AcDbEntity
  8
0
  6
Continuous
 62
     1
370
    15
100
AcDbSpline
210
0.0
220
0.0
230
1.0
 70
     8
 71
     3
 72
     8
 73
     4
 74
     0
 42
0.000000001
 43
0.00000001
 40
0.0
 40
0.0
 40
0.0
 40
0.0
 40
1.0
 40
1.0
 40
1.0
 40
1.0
 10
23.92593131851544
 20
0.6667656290396475
 30
0.0
 10
23.84157539430416
 20
0.7667237491414521
 30
0.0
 10
23.76626846147553
 20
0.8629558787205865
 30
0.0
 10
23.70215717569904
 20
0.9545781160976462
 30
0.0
1001
PE_URL
1000

  0
LINE
  5
BA
330
1F
100
AcDbEntity
  8
0
  6
Continuous
 62
     1
370
    15
100
AcDbLine
 10
23.73228317140752
 20
0.9798568279854769
 30
0.0
 11
25.40000000000002
 21
0.0000000000000018
 31
0.0
1001
PE_URL
1000

  0
LINE
  5
BB
330
1F
100
AcDbEntity
  8
0
  6
Continuous
 62
     1
370
    15
100
AcDbLine
 10
25.40000000000002
 20
0.0000000000000018
 30
0.0
 11
25.40000000000002
 21
-0.6363722652330901
 31
0.0
1001
PE_URL
1000

  0
SPLINE
  5
BC
330
1F
100
AcDbEntity
  8
0
  6
Continuous
 62
     1
370
    15
100
AcDbSpline
210
0.0
220
0.0
230
1.0
 70
     8
 71
     3
 72
    10
 73
     6
 74
     0
 42
0.000000001
 43
0.00000001
 40
0.0
 40
0.0
 40
0.0
 40
0.0
 40
0.5
 40
0.5
 40
1.0
 40
1.0
 40
1.0
 40
1.0
 10
25.40000000000002
 20
-0.63637226523309
 30
0.0
 10
25.14482507708537
 20
-0.4357598858607698
 30
0.0
 10
24.89391634127838
 20
-0.2269170311293184
 30
0.0
 10
24.40084008684127
 20
0.2076325360986663
 30
0.0
 10
24.15638005573236
 20
0.4356364190385534
 30
0.0
 10
23.92593131851544
 20
0.6667656290396495
 30
0.0
1001
PE_URL
1000

  0
SPLINE
  5
BD
330
1F
100
AcDbEntity
  8
0
  6
Continuous
 62
     1
370
    15
100
AcDbSpline
210
0.0
220
0.0
230
1.0
 70
     8
 71
     3
 72
    14
 73
    10
 74
     0
 42
0.000000001
 43
0.00000001
 40
0.0
 40
0.0
 40
0.0
 40
0.0
 40
0.0978148018060034
 40
0.2812628572397967
 40
0.4646816918776869
 40
0.6481466178057448
 40
0.831732552916175
 40
0.9343561328707572
 40
0.9999999999999999
 40
0.9999999999999999
 40
0.9999999999999999
 40
0.9999999999999999
 10
23.92593131850642
 20
0.6667656290435463
 30
0.0
 10
23.74754089290253
 20
0.7425784636293244
 30
0.0
 10
23.23458579936682
 20
0.96057547509733
 30
0.0
 10
22.38744263377543
 20
1.283327689373442
 30
0.0
 10
21.38406466148662
 20
1.591015490353556
 30
0.0
 10
20.38042086122751
 20
1.80544160892334
 30
0.0
 10
19.52404097652639
 20
1.894783811378874
 30
0.0
 10
18.88234202788958
 20
1.911712248550791
 30
0.0
 10
18.57572629852692
 20
1.895288051947887
 30
0.0
 10
18.45611051694326
 20
1.888880705796324
 30
0.0
1001
PE_URL
1000

  0
SPLINE
  5
BE
330
1F
100
AcDbEntity
  8
0
  6
Continuous
 62
     1
370
    15
100
AcDbSpline
210
0.0
220
0.0
230
1.0
 70
    24
 71
     3
 72
    10
 73
     6
 74
     0
 42
0.000000001
 43
0.00000001
 40
0.0
 40
0.0
 40
0.0
 40
0.0
 40
0.5
 40
0.5
 40
1.0
 40
1.0
 40
1.0
 40
1.0
 10
25.40000000000002
 20
-1.878740204526812
 30
0.0
 10
25.40000000000002
 20
-1.734720120065309
 30
0.0
 10
25.40000000000002
 20
-1.552745221052277
 30
0.0
 10
25.40000000000002
 20
-1.129671093977556
 30
0.0
 10
25.40000000000002
 20
-0.8889383487659299
 30
0.0
 10
25.40000000000002
 20
-0.6363722652331661
 30
0.0
1001
PE_URL
1000

  0
SPLINE
  5
BF
330
1F
100
AcDbEntity
  8
외형선
  6
Continuous
370
    15
100
AcDbSpline
210
0.0
220
0.0
230
1.0
 70
    24
 71
     3
 72
    12
 73
     8
 74
     0
 42
0.000000001
 43
0.00000001
 40
0.0
 40
0.0
 40
0.0
 40
0.0
 40
0.1455588024398829
 40
0.3797846889423788
 40
0.6208031420210354
 40
0.8314664223553344
 40
1.0
 40
1.0
 40
1.0
 40
1.0
 10
18.25625000000002
 20
1.873076677285656
 30
0.0
 10
18.25625000000002
 20
1.863753425423355
 30
0.0
 10
18.25625000000002
 20
1.839427666698331
 30
0.0
 10
18.25625000000002
 20
1.734445509007154
 30
0.0
 10
18.25625000000002
 20
1.55461170633502
 30
0.0
 10
18.25625000000002
 20
1.34207443823597
 30
0.0
 10
18.25625000000002
 20
1.17756603818804
 30
0.0
 10
18.25625000000002
 20
1.104450481902983
 30
0.0
  0
SPLINE
  5
C0
330
1F
100
AcDbEntity
  8
0
  6
Continuous
 62
     1
370
    15
100
AcDbSpline
210
0.0
220
0.0
230
1.0
 70
    24
 71
     3
 72
     8
 73
     4
 74
     0
 42
0.000000001
 43
0.00000001
 40
0.0
 40
0.0
 40
0.0
 40
0.0
 40
1.0
 40
1.0
 40
1.0
 40
1.0
 10
23.95082768727663
 20
1.16323745064708
 30
0.0
 10
23.87247380387103
 20
1.097490735980134
 30
0.0
 10
23.78895324838925
 20
1.027408668679596
 30
0.0
 10
23.70215717569907
 20
0.9545781160976278
 30
0.0
1001
PE_URL
1000

  0
LINE
  5
C1
330
1F
100
AcDbEntity
  8
0
  6
Continuous
 62
     1
370
    15
100
AcDbLine
 10
25.40000000000002
 20
1.666875000000001
 30
0.0
 11
24.51305218883683
 21
1.623472693930986
 31
0.0
1001
PE_URL
1000

  0
SPLINE
  5
C2
330
1F
100
AcDbEntity
  8
0
  6
Continuous
 62
     1
370
    15
100
AcDbSpline
210
0.0
220
0.0
230
1.0
 70
     8
 71
     3
 72
     8
 73
     4
 74
     0
 42
0.000000001
 43
0.00000001
 40
0.0
 40
0.0
 40
0.0
 40
0.0
 40
1.0
 40
1.0
 40
1.0
 40
1.0
 10
25.40000000000002
 20
1.666875000000001
 30
0.0
 10
24.91012656245467
 20
1.533877050879465
 30
0.0
 10
24.42500969724741
 20
1.370635341277605
 30
0.0
 10
23.95082768727601
 20
1.163237450647436
 30
0.0
1001
PE_URL
1000

  0
SPLINE
  5
C3
330
1F
100
AcDbEntity
  8
0
  6
Continuous
 62
     1
370
    15
100
AcDbSpline
210
0.0
220
0.0
230
1.0
 70
     8
 71
     3
 72
    10
 73
     6
 74
     0
 42
0.000000001
 43
0.00000001
 40
0.0
 40
0.0
 40
0.0
 40
0.0
 40
0.4665687933763146
 40
0.7338357114202272
 40
1.0
 40
1.0
 40
1.0
 40
1.0
 10
20.35636864198251
 20
-1.789686258471274
 30
0.0
 10
20.02971561054483
 20
-1.831972130646291
 30
0.0
 10
19.51594430154238
 20
-1.898480828894249
 30
0.0
 10
18.81568986428483
 20
-1.911261120213936
 30
0.0
 10
18.44247280187141
 20
-1.890575662004255
 30
0.0
 10
18.25625000000002
 20
-1.88025431184708
 30
0.0
1001
PE_URL
1000

  0
SPLINE
  5
C4
330
1F
100
AcDbEntity
  8
외형선
  6
Continuous
370
    15
100
AcDbSpline
210
0.0
220
0.0
230
1.0
 70
    24
 71
     3
 72
    14
 73
    10
 74
     0
 42
0.000000001
 43
0.00000001
 40
0.0
 40
0.0
 40
0.0
 40
0.0
 40
0.25
 40
0.25
 40
0.5
 40
0.5
 40
0.75
 40
0.75
 40
1.0
 40
1.0
 40
1.0
 40
1.0
 10
18.25625000000005
 20
0.2677967809343193
 30
0.0
 10
18.25625000000005
 20
0.0571530371028594
 30
0.0
 10
18.25625000000005
 20
-0.1588805017956288
 30
0.0
 10
18.25625000000005
 20
-0.5814930487554247
 30
0.0
 10
18.25625000000005
 20
-0.7878482236431805
 30
0.0
 10
18.25625000000005
 20
-1.169618833527962
 30
0.0
 10
18.25625000000005
 20
-1.34483084518289
 30
0.0
 10
18.25625000000005
 20
-1.648777877668329
 30
0.0
 10
18.25625000000005
 20
-1.77745573744326
 30
0.0
 10
18.25625000000005
 20
-1.880254311847082
 30
0.0
  0
LINE
  5
C5
330
1F
100
AcDbEntity
  8
0
  6
Continuous
 62
     1
370
    15
100
AcDbLine
 10
25.40000000000002
 20
0.0000000000000018
 30
0.0
 11
25.40000000000002
 21
1.666875000000001
 31
0.0
1001
PE_URL
1000

  0
SPLINE
  5
C6
330
1F
100
AcDbEntity
  8
0
  6
Continuous
 62
     1
370
    15
100
AcDbSpline
210
0.0
220
0.0
230
1.0
 70
    24
 71
     3
 72
    10
 73
     6
 74
     0
 42
0.000000001
 43
0.00000001
 40
0.0
 40
0.0
 40
0.0
 40
0.0
 40
0.5
 40
0.5
 40
1.0
 40
1.0
 40
1.0
 40
1.0
 10
25.40000000000002
 20
1.666875000000001
 30
0.0
 10
25.40000000000002
 20
1.767916811522416
 30
0.0
 10
25.40000000000002
 20
1.885336753989823
 30
0.0
 10
25.40000000000002
 20
2.131683477038037
 30
0.0
 10
25.40000000000002
 20
2.259981119002256
 30
0.0
 10
25.40000000000002
 20
2.379237403765589
 30
0.0
1001
PE_URL
1000

  0
SPLINE
  5
C7
330
1F
100
AcDbEntity
  8
0
  6
Continuous
 62
     1
370
    15
100
AcDbSpline
210
0.0
220
0.0
230
1.0
 70
     8
 71
     3
 72
    16
 73
    12
 74
     0
 42
0.000000001
 43
0.00000001
 40
0.0
 40
0.0
 40
0.0
 40
0.0
 40
0.1197862490706886
 40
0.2276671926422128
 40
0.3359439942221024
 40
0.4444216610879028
 40
0.5532980124696261
 40
0.6644281903349953
 40
0.7757752966353392
 40
0.8877769500808916
 40
1.0
 40
1.0
 40
1.0
 40
1.0
 10
22.12613836594716
 20
1.596256223357317
 30
0.0
 10
22.2569065623125
 20
1.651773761956294
 30
0.0
 10
22.50544617670358
 20
1.757291066766262
 30
0.0
 10
22.87237212209982
 20
1.891505636545547
 30
0.0
 10
23.22594011048049
 20
2.010041902734025
 30
0.0
 10
23.58155617789666
 20
2.112584555058942
 30
0.0
 10
23.94042876292353
 20
2.200362642702786
 30
0.0
 10
24.301460047364
 20
2.272754598865751
 30
0.0
 10
24.66646821939052
 20
2.327286882536681
 30
0.0
 10
25.03314439551142
 20
2.365008487884555
 30
0.0
 10
25.27763432980636
 20
2.374491310734415
 30
0.0
 10
25.3999999999996
 20
2.379237403765579
 30
0.0
1001
PE_URL
1000

  0
LINE
  5
C8
330
1F
100
AcDbEntity
  8
중심선
 62
     1
100
AcDbLine
 10
-28.4
 20
-0.0000000000000035
 30
0.0
 11
28.4
 21
0.0000000000000035
 31
0.0
  0
LINE
  5
C9
330
1F
100
AcDbEntity
  8
참조1
100
AcDbLine
 10
0.0000000000000018
 20
-0.0000000000000035
 30
0.0
 11
0.0000000000000053
 21
-40.00000000000001
 31
0.0
  0
LINE
  5
CA
330
1F
100
AcDbEntity
  8
참조1
100
AcDbLine
 10
0.0000000000000053
 20
-40.00000000000001
 30
0.0
 11
-21.60946559669921
 21
-40.0
 31
0.0
  0
CIRCLE
  5
CB
330
1F
100
AcDbEntity
  8
해칭선
100
AcDbCircle
 10
0.0
 20
0.0
 30
0.0
 40
3.000000000000001
  0
INSERT
  5
CC
330
1F
100
AcDbEntity
  8
0
  6
Continuous
 62
     7
100
AcDbBlockReference
 66
     1
  2
블럭10
 10
-13.94027293212521
 20
-52.04717430164393
 30
0.0
  0
ATTRIB
  5
CD
330
CC
100
AcDbEntity
  8
FORMAT
 62
     2
100
AcDbText
 10
-23.12156822086649
 20
-49.97180738881174
 30
0.0
 40
4.233333333333333
  1
E2001012 [ 2 FLUTE ]
 41
0.75
  7
SLDTEXTSTYLE0
 11
-23.12156822086649
 21
-52.08847405547841
 31
0.0
100
AcDbAttribute
  2
AUTOATTR0
 70
     0
 74
     1
  0
SEQEND
  5
CE
330
CC
100
AcDbEntity
  8
0
  6
Continuous
 62
     7
  0
HATCH
  5
CF
330
1F
100
AcDbEntity
  8
중심선
100
AcDbHatch
 10
0.0
 20
0.0
 30
0.0
210
0.0
220
0.0
230
1.0
  2
SOLID
 70
     1
 71
     0
 91
        1
 92
        0
 93
        4
 72
     1
 10
-8.225363627744368
 20
-35.8
 11
-11.67163887158165
 21
-35.8
 72
     1
 10
-11.67163887158165
 20
-35.8
 11
-13.79986873078567
 21
-38.3363255805726
 72
     1
 10
-13.79986873078567
 20
-38.3363255805726
 11
-10.35356040183524
 21
-38.33628615127011
 72
     1
 10
-10.35356040183524
 20
-38.33628615127011
 11
-8.225363627744368
 21
-35.8
 97
        0
 75
     0
 76
     1
 98
        1
 10
7.850461678730523
 20
-0.0010749287238927
  0
HATCH
  5
D0
330
1F
100
AcDbEntity
  8
중심선
100
AcDbHatch
 10
0.0
 20
0.0
 30
0.0
210
0.0
220
0.0
230
1.0
  2
SOLID
 70
     1
 71
     0
 91
        1
 92
        0
 93
        4
 72
     1
 10
-3.212599636708418
 20
-35.8
 11
-6.658874880545669
 21
-35.79999999999998
 72
     1
 10
-6.658874880545669
 20
-35.79999999999998
 11
-11.19001288890309
 21
-41.20000000000002
 72
     1
 10
-11.19001288890309
 20
-41.20000000000002
 11
-7.743737645065808
 21
-41.20000000000002
 72
     1
 10
-7.743737645065808
 20
-41.20000000000002
 11
-3.212599636708418
 21
-35.8
 97
        0
 75
     0
 76
     1
 98
        1
 10
7.850461678730523
 20
-0.0010749287238927
  0
HATCH
  5
D1
330
1F
100
AcDbEntity
  8
중심선
100
AcDbHatch
 10
0.0
 20
0.0
 30
0.0
210
0.0
220
0.0
230
1.0
  2
SOLID
 70
     1
 71
     0
 91
        1
 92
        0
 93
        4
 72
     1
 10
1.800164354327482
 20
-35.8
 11
-1.646110889509634
 21
-35.8
 72
     1
 10
-1.646110889509634
 20
-35.8
 11
-8.69454779139889
 21
-44.20000000000002
 72
     1
 10
-8.69454779139889
 20
-44.20000000000002
 11
-5.2482725475616
 21
-44.20000000000002
 72
     1
 10
-5.2482725475616
 20
-44.20000000000002
 11
1.80016435432748
 21
-35.8
 97
        0
 75
     0
 76
     1
 98
        1
 10
7.850461678730523
 20
-0.0010749287238927
  0
HATCH
  5
D2
330
1F
100
AcDbEntity
  8
중심선
100
AcDbHatch
 10
0.0
 20
0.0
 30
0.0
210
0.0
220
0.0
230
1.0
  2
SOLID
 70
     1
 71
     0
 91
        1
 92
        0
 93
        6
 72
     3
 10
6.60005478533968
 20
-40.00000000005127
 11
3.960054785062284
 21
1.540882976769353E-10
 40
0.3939339440162627
 50
17.0953918060844
 51
320.0019657685081
 73
     0
 72
     1
 10
8.283054441040276
 20
-38.5878940046383
 11
10.58835631474131
 21
-36.65356729459035
 72
     3
 10
6.600054785286834
 20
-40.00000000000015
 11
6.600054785286829
 21
-1.278976924368180E-13
 40
0.6363583540795982
 50
39.9987384933743
 51
368.4976242363724
 73
     1
 72
     1
 10
13.02538727718744
 20
-39.03999999993002
 11
5.280122092122756
 21
-39.03999999993002
 72
     1
 10
5.280122092122756
 20
-39.03999999993002
 11
5.280097047676823
 21
-40.95999999992991
 72
     1
 10
5.280097047676822
 20
-40.95999999992991
 11
9.721476817148858
 21
-40.95999999992988
 97
        0
 75
     0
 76
     1
 98
        1
 10
7.850461678730523
 20
-0.0010749287238927
  0
DIMENSION
  5
D3
330
1F
100
AcDbEntity
  8
치수문자_일반주서
100
AcDbDimension
  2
_D
 10
-35.39999999999998
 20
-2.379237403765625
 30
0.0
 11
-35.40000000000006
 21
22.98524999999997
 31
0.0
 70
   160
  1
%%c<>
 71
     2
 42
4.758474807531172
 52
-270.0
  3
SLDDIMSTYLE0
100
AcDbAlignedDimension
 13
-25.40000000000002
 23
2.379237403765585
 33
0.0
 14
-25.40000000000002
 24
-2.379237403765587
 34
0.0
 50
90.0000000000002
100
AcDbRotatedDimension
1001
PE_URL
1000

1001
ACAD
1000
DSTYLE
1002
{
1070
   171
1070
     8
1070
   273
1070
     7
1002
}
  0
DIMENSION
  5
E8
330
1F
100
AcDbEntity
  8
치수문자_일반주서
100
AcDbDimension
  2
_D_1
 10
63.817020300581
 20
2.379237403765732
 30
0.0
 11
63.81702030058094
 21
22.98323740376573
 31
0.0
 70
   160
  1
%%c<>
 71
     2
 42
4.758474807531178
 52
-270.0
  3
SLDDIMSTYLE0
100
AcDbAlignedDimension
 13
25.40000000000002
 23
-2.379237403765589
 33
0.0
 14
25.40000000000002
 24
2.379237403765589
 34
0.0
 50
90.0000000000002
100
AcDbRotatedDimension
1001
PE_URL
1000

1001
ACAD
1000
DSTYLE
1002
{
1070
   171
1070
     8
1070
   273
1070
     7
1002
}
  0
DIMENSION
  5
FC
330
1F
100
AcDbEntity
  8
치수문자_일반주서
100
AcDbDimension
  2
_D_2
 10
18.25625000000002
 20
12.38124999999999
 30
0.0
 11
44.69150000000002
 21
12.38124999999999
 31
0.0
 70
   160
  1
<>
 71
     2
 42
7.143749999999997
  3
SLDDIMSTYLE0
100
AcDbAlignedDimension
 13
25.40000000000002
 23
2.379237403765589
 33
0.0
 14
18.25625000000002
 24
1.882967877149917
 34
0.0
100
AcDbRotatedDimension
1001
PE_URL
1000

1001
ACAD
1000
DSTYLE
1002
{
1070
   171
1070
     8
1070
   273
1070
     7
1002
}
  0
DIMENSION
  5
111
330
1F
100
AcDbEntity
  8
치수문자_일반주서
100
AcDbDimension
  2
_D_3
 10
25.40000000000001
 20
22.38125
 30
0.0
 11
0.0000000000000195
 21
22.38125
 31
0.0
 70
   160
  1
<>
 71
     2
 42
50.80000000000004
  3
SLDDIMSTYLE0
100
AcDbAlignedDimension
 13
-25.40000000000002
 23
2.379237403765585
 33
0.0
 14
25.40000000000002
 24
2.379237403765589
 34
0.0
100
AcDbRotatedDimension
1001
PE_URL
1000

1001
ACAD
1000
DSTYLE
1002
{
1070
   171
1070
     8
1070
   273
1070
     7
1002
}
  0
LINE
  5
125
330
1F
100
AcDbEntity
  8
참조1
100
AcDbLine
 10
76.36287503295506
 20
7.440000000000003
 30
0.0
 11
76.36287503295506
 21
-7.440000000000001
 31
0.0
  0
LINE
  5
126
330
1F
100
AcDbEntity
  8
참조1
100
AcDbLine
 10
89.06287503295506
 20
5.440000000000003
 30
0.0
 11
76.36287503295506
 21
5.440000000000003
 31
0.0
  0
SOLID
  5
127
330
1F
100
AcDbEntity
  8
참조1
100
AcDbTrace
 10
76.36287503295506
 20
5.440000000000003
 30
0.0
 11
82.71287503295505
 21
4.424000000000003
 31
0.0
 12
82.71287503295505
 22
6.456000000000003
 32
0.0
 13
82.71287503295505
 23
6.456000000000003
 33
0.0
  0
LINE
  5
128
330
1F
100
AcDbEntity
  8
참조1
100
AcDbLine
 10
89.06287503295506
 20
-5.440000000000001
 30
0.0
 11
76.36287503295506
 21
-5.440000000000001
 31
0.0
  0
SOLID
  5
129
330
1F
100
AcDbEntity
  8
참조1
100
AcDbTrace
 10
76.36287503295506
 20
-5.440000000000001
 30
0.0
 11
82.71287503295505
 21
-6.456000000000001
 31
0.0
 12
82.71287503295505
 22
-4.424000000000001
 32
0.0
 13
82.71287503295505
 23
-4.424000000000001
 33
0.0
  0
MTEXT
  5
12A
330
1F
100
AcDbEntity
  8
참조1
100
AcDbMText
 10
85.74722516558106
 20
11.01029177718833
 30
0.0
 40
3.5
 41
0.0
 71
     1
 72
     1
  1
A
  7
SLDTEXTSTYLE0
 73
     1
 44
1.0
  0
MTEXT
  5
12B
330
1F
100
AcDbEntity
  8
참조1
100
AcDbMText
 10
85.74722516558106
 20
0.1302917771883265
 30
0.0
 40
3.5
 41
0.0
 71
     1
 72
     1
  1
A
  7
SLDTEXTSTYLE0
 73
     1
 44
1.0
  0
INSERT
  5
132
330
1F
100
AcDbEntity
  8
해칭선
100
AcDbBlockReference
  2
SW_DOWELSYMBOL_0
 10
0.0
 20
0.0
 30
0.0
  0
SPLINE
  5
206
330
1F
100
AcDbEntity
  8
외형선
  6
Continuous
370
    15
100
AcDbSpline
210
0.0
220
0.0
230
1.0
 70
     8
 71
     3
 72
    11
 73
     7
 74
     0
 42
0.000000001
 43
0.00000001
 40
0.0
 40
0.0
 40
0.0
 40
0.0
 40
0.0666437854221465
 40
0.1444015529572581
 40
0.373140695001644
 40
1.0
 40
1.0
 40
1.0
 40
1.0
 10
-17.8805257089251
 20
-1.869023845347116
 30
0.0
 10
-17.8784892789882
 20
-1.869387801342243
 30
0.0
 10
-17.87407680986577
 20
-1.870176409170744
 30
0.0
 10
-17.85180127058414
 20
-1.882762347539623
 30
0.0
 10
-17.77919285358715
 20
-1.936757160131934
 30
0.0
 10
-17.71246908040857
 20
-1.997969520287748
 30
0.0
 10
-17.66358351005001
 20
-2.042817121025228
 30
0.0
  0
LINE
  5
207
330
1F
100
AcDbEntity
  8
외형선
  6
Continuous
370
    15
100
AcDbLine
 10
-18.25625000000002
 20
-1.874642178982279
 30
0.0
 11
-17.87732659967993
 21
-1.867603552958284
 31
0.0
  0
LINE
  5
208
330
1F
100
AcDbEntity
  8
외형선
  6
Continuous
370
    15
100
AcDbLine
 10
-17.36070747767963
 20
1.859840759658175
 30
0.0
 11
-18.20324546491835
 21
1.873766126388157
 31
0.0
  0
SPLINE
  5
209
330
1F
100
AcDbEntity
  8
0
  6
Continuous
 62
     1
370
    15
100
AcDbSpline
210
0.0
220
0.0
230
1.0
 70
     8
 71
     3
 72
     9
 73
     5
 74
     0
 42
0.000000001
 43
0.00000001
 40
0.0
 40
0.0
 40
0.0
 40
0.0
 40
0.5124056986349126
 40
1.0
 40
1.0
 40
1.0
 40
1.0
 10
-19.23154729684446
 20
-0.6101584826220734
 30
0.0
 10
-19.11712340696647
 20
-0.6645935406462382
 30
0.0
 10
-18.89381619125277
 20
-0.7708278354036626
 30
0.0
 10
-18.66821641794238
 20
-0.8889497883041575
 30
0.0
 10
-18.55821525408698
 20
-0.9465453794045555
 30
0.0
1001
PE_URL
1000

  0
LINE
  5
20A
330
1F
100
AcDbEntity
  8
0
  6
Continuous
 62
     1
370
    15
100
AcDbLine
 10
-18.45605498558779
 20
-1.892922190497655
 30
0.0
 11
-18.25624999999991
 21
-1.874642178982275
 31
0.0
1001
PE_URL
1000

  0
SPLINE
  5
20B
330
1F
100
AcDbEntity
  8
0
  6
Continuous
 62
     1
370
    15
100
AcDbSpline
210
0.0
220
0.0
230
1.0
 70
     8
 71
     3
 72
    25
 73
    21
 74
     0
 42
0.000000001
 43
0.00000001
 40
0.0
 40
0.0
 40
0.0
 40
0.0
 40
0.0983396086622039
 40
0.1813336746511554
 40
0.2485788463884007
 40
0.3110909213775852
 40
0.3535423674461869
 40
0.3908107446616345
 40
0.4242901831330765
 40
0.4606049230699287
 40
0.5012799947053
 40
0.5452027237618196
 40
0.5932824696676632
 40
0.6368325715953221
 40
0.677729661177565
 40
0.7201560503052138
 40
0.764720502190666
 40
0.822069184192157
 40
0.9004536850261637
 40
1.0
 40
1.0
 40
1.0
 40
1.0
 10
-24.5143998057137
 20
-1.628661960712049
 30
0.0
 10
-24.37765719709891
 20
-1.617790067508424
 30
0.0
 10
-24.12551017273276
 20
-1.597742800981252
 30
0.0
 10
-23.78069766009974
 20
-1.5805213664502
 30
0.0
 10
-23.48567955073963
 20
-1.570959350101345
 30
0.0
 10
-23.24696029705496
 20
-1.567234288877161
 30
0.0
 10
-23.04936908335732
 20
-1.566802444514026
 30
0.0
 10
-22.89232282602139
 20
-1.568097828148155
 30
0.0
 10
-22.74373788380335
 20
-1.570670882639609
 30
0.0
 10
-22.5904887136291
 20
-1.574686929206231
 30
0.0
 10
-22.42279832752267
 20
-1.58071317542315
 30
0.0
 10
-22.2388171632338
 20
-1.589292044724855
 30
0.0
 10
-22.05168281139652
 20
-1.600191068740075
 30
0.0
 10
-21.87049188612128
 20
-1.61284264946534
 30
0.0
 10
-21.69692088448493
 20
-1.626679997055672
 30
0.0
 10
-21.51625195788537
 20
-1.643099388505889
 30
0.0
 10
-21.31030007252189
 20
-1.663661721715802
 30
0.0
 10
-21.05546255035866
 20
-1.691916389381235
 30
0.0
 10
-20.73215620337646
 20
-1.733562982970495
 30
0.0
 10
-20.49097973862053
 20
-1.770402261891232
 30
0.0
 10
-20.35604960740145
 20
-1.791012601062684
 30
0.0
1001
PE_URL
1000

  0
SPLINE
  5
20C
330
1F
100
AcDbEntity
  8
0
  6
Continuous
 62
     1
370
    15
100
AcDbSpline
210
0.0
220
0.0
230
1.0
 70
     8
 71
     3
 72
    14
 73
    10
 74
     0
 42
0.000000001
 43
0.00000001
 40
0.0
 40
0.0
 40
0.0
 40
0.0
 40
0.1705519706839878
 40
0.3104237335141118
 40
0.4505954439867236
 40
0.6006436303630582
 40
0.7624433782389223
 40
0.9353497369421327
 40
1.0
 40
1.0
 40
1.0
 40
1.0
 10
-20.35604960740145
 20
1.791012601062685
 30
0.0
 10
-20.44297803886014
 20
1.776905148739533
 30
0.0
 10
-20.60119754306001
 20
1.751228001750482
 30
0.0
 10
-20.86961494538685
 20
1.711620924664969
 30
0.0
 10
-21.13713988263256
 20
1.682574333847454
 30
0.0
 10
-21.41604554574191
 20
1.652313717439688
 30
0.0
 10
-21.71078245141854
 20
1.62526464378899
 30
0.0
 10
-21.95217471288479
 20
1.606163454116198
 30
0.0
 10
-22.09502152792369
 20
1.598236170877618
 30
0.0
 10
-22.13389682468781
 20
1.596078786491069
 30
0.0
1001
PE_URL
1000

  0
LINE
  5
20D
330
1F
100
AcDbEntity
  8
0
  6
Continuous
 62
     1
370
    15
100
AcDbLine
 10
-18.37237784302466
 20
1.88526663012649
 30
0.0
 11
-18.45605498558779
 21
1.892922190497656
 31
0.0
1001
PE_URL
1000

  0
LINE
  5
20E
330
1F
100
AcDbEntity
  8
외형선
  6
Continuous
370
    15
100
AcDbLine
 10
-18.25625000000001
 20
-1.104450481903045
 30
0.0
 11
-18.25625000000002
 21
-0.4788542842370885
 31
0.0
  0
SPLINE
  5
20F
330
1F
100
AcDbEntity
  8
외형선
  6
Continuous
370
    15
100
AcDbSpline
210
0.0
220
0.0
230
1.0
 70
     8
 71
     3
 72
     8
 73
     4
 74
     0
 42
0.000000001
 43
0.00000001
 40
0.0
 40
0.0
 40
0.0
 40
0.0
 40
1.0
 40
1.0
 40
1.0
 40
1.0
 10
-17.36614347986671
 20
-0.9666291376565372
 30
0.0
 10
-17.66191323171826
 20
-0.8104482137086759
 30
0.0
 10
-17.96205645894529
 20
-0.6459604339238976
 30
0.0
 10
-18.25625000000001
 20
-0.4788542842370849
 30
0.0
  0
LINE
  5
210
330
1F
100
AcDbEntity
  8
외형선
  6
Continuous
370
    15
100
AcDbLine
 10
-17.36614347986671
 20
2.38125
 30
0.0
 11
-17.36614347986671
 21
-0.9672110743232107
 31
0.0
  0
LINE
  5
211
330
1F
100
AcDbEntity
  8
외형선
  6
Continuous
370
    15
100
AcDbLine
 10
-17.36614347986671
 20
-2.169127322423333
 30
0.0
 11
-17.36614347986671
 21
-2.381249999999999
 31
0.0
  0
SPLINE
  5
212
330
1F
100
AcDbEntity
  8
외형선
  6
Continuous
370
    15
100
AcDbSpline
210
0.0
220
0.0
230
1.0
 70
     8
 71
     3
 72
    14
 73
    10
 74
     0
 42
0.000000001
 43
0.00000001
 40
0.0
 40
0.0
 40
0.0
 40
0.0
 40
0.1253605037109202
 40
0.249900196266902
 40
0.4981744910757296
 40
0.6256087008343664
 40
0.7485421561973852
 40
0.8912125711435099
 40
1.0
 40
1.0
 40
1.0
 40
1.0
 10
-17.46320887349913
 20
-1.486714434500194
 30
0.0
 10
-17.45683389594568
 20
-1.522663242179232
 30
0.0
 10
-17.44412568167847
 20
-1.594325478917438
 30
0.0
 10
-17.42133658530811
 20
-1.728349561578299
 30
0.0
 10
-17.40179125376298
 20
-1.852172243867881
 30
0.0
 10
-17.38613983892106
 20
-1.962525203647808
 30
0.0
 10
-17.37623272722967
 20
-2.042340128462479
 30
0.0
 10
-17.36835670430875
 20
-2.111438806773099
 30
0.0
 10
-17.36681183283288
 20
-2.151706454563362
 30
0.0
 10
-17.36614347986671
 20
-2.169127322423184
 30
0.0
  0
SPLINE
  5
213
330
1F
100
AcDbEntity
  8
외형선
  6
Continuous
370
    15
100
AcDbSpline
210
0.0
220
0.0
230
1.0
 70
     8
 71
     3
 72
     8
 73
     4
 74
     0
 42
0.000000001
 43
0.00000001
 40
0.0
 40
0.0
 40
0.0
 40
0.0
 40
1.0
 40
1.0
 40
1.0
 40
1.0
 10
-18.25625000000001
 20
-1.104450481903045
 30
0.0
 10
-17.9941917235084
 20
-1.239074393094229
 30
0.0
 10
-17.72741284198126
 20
-1.367690482254664
 30
0.0
 10
-17.46320887349913
 20
-1.486714434500194
 30
0.0
  0
SPLINE
  5
214
330
1F
100
AcDbEntity
  8
외형선
  6
Continuous
370
    15
100
AcDbSpline
210
0.0
220
0.0
230
1.0
 70
    24
 71
     3
 72
    11
 73
     7
 74
     0
 42
0.000000001
 43
0.00000001
 40
0.0
 40
0.0
 40
0.0
 40
0.0
 40
0.138045673945068
 40
0.5565482728193692
 40
0.7773634797365018
 40
0.9999999999999999
 40
0.9999999999999999
 40
0.9999999999999999
 40
0.9999999999999999
 10
-18.25625000000002
 20
-0.4436627350196941
 30
0.0
 10
-18.25625000000002
 20
-0.4395631707351851
 30
0.0
 10
-18.25625000000002
 20
-0.4230352683630952
 30
0.0
 10
-18.25625000000002
 20
-0.3780846809533299
 30
0.0
 10
-18.25625000000002
 20
-0.3207933702472563
 30
0.0
 10
-18.25625000000002
 20
-0.2855106143140394
 30
0.0
 10
-18.25625000000001
 20
-0.2677967809364586
 30
0.0
  0
SPLINE
  5
215
330
1F
100
AcDbEntity
  8
외형선
  6
Continuous
370
    15
100
AcDbSpline
210
0.0
220
0.0
230
1.0
 70
     8
 71
     3
 72
     8
 73
     4
 74
     0
 42
0.000000001
 43
0.00000001
 40
0.0
 40
0.0
 40
0.0
 40
0.0
 40
1.0
 40
1.0
 40
1.0
 40
1.0
 10
-18.25625000000001
 20
-0.2677967809343305
 30
0.0
 10
-17.96204755078089
 20
-0.3856628678183516
 30
0.0
 10
-17.66189505535676
 20
-0.5022268264295822
 30
0.0
 10
-17.36611661220278
 20
-0.613460209516629
 30
0.0
  0
SPLINE
  5
216
330
1F
100
AcDbEntity
  8
외형선
  6
Continuous
370
    15
100
AcDbSpline
210
0.0
220
0.0
230
1.0
 70
     8
 71
     3
 72
    20
 73
    16
 74
     0
 42
0.000000001
 43
0.00000001
 40
0.0
 40
0.0
 40
0.0
 40
0.0
 40
0.4999999999999989
 40
0.4999999999999989
 40
0.7499999999999993
 40
0.7499999999999993
 40
0.8750000000000002
 40
0.8750000000000002
 40
0.9375000000000002
 40
0.9375000000000002
 40
0.9531250000000002
 40
0.9531250000000002
 40
0.9687500000000002
 40
0.9687500000000002
 40
1.0
 40
1.0
 40
1.0
 40
1.0
 10
-17.62794174219973
 20
-2.07481525673567
 30
0.0
 10
-17.57814696481501
 20
-2.123473459284662
 30
0.0
 10
-17.52341477297543
 20
-2.177829315806841
 30
0.0
 10
-17.44050316696356
 20
-2.267264546904902
 30
0.0
 10
-17.4124032166053
 20
-2.299087611614306
 30
0.0
 10
-17.38324044185872
 20
-2.335277446376773
 30
0.0
 10
-17.37678531902913
 20
-2.343958400942563
 30
0.0
 10
-17.37079647321383
 20
-2.352545068569666
 30
0.0
 10
-17.36936954373574
 20
-2.354634018711665
 30
0.0
 10
-17.36776996193457
 20
-2.357580044498677
 30
0.0
 10
-17.3674982794326
 20
-2.358040876306143
 30
0.0
 10
-17.3666232636952
 20
-2.360299626173253
 30
0.0
 10
-17.36633065249472
 20
-2.361885072015214
 30
0.0
 10
-17.36614638031674
 20
-2.363442300393499
 30
0.0
 10
-17.36614347986671
 20
-2.364051799976055
 30
0.0
 10
-17.36614347986671
 20
-2.364649427916846
 30
0.0
  0
LINE
  5
217
330
1F
100
AcDbEntity
  8
외형선
  6
Continuous
370
    15
100
AcDbLine
 10
-17.62793845432609
 20
-2.07481422376521
 30
0.0
 11
-17.6623994916533
 21
-2.041514777402072
 31
0.0
  0
LINE
  5
218
330
1F
100
AcDbEntity
  8
외형선
  6
Continuous
370
    15
100
AcDbLine
 10
-18.25625000000002
 20
-1.88025431184708
 30
0.0
 11
-18.18203770861982
 21
-1.873263661411266
 31
0.0
  0
SPLINE
  5
219
330
1F
100
AcDbEntity
  8
외형선
  6
Continuous
370
    15
100
AcDbSpline
210
0.0
220
0.0
230
1.0
 70
    24
 71
     3
 72
    12
 73
     8
 74
     0
 42
0.000000001
 43
0.00000001
 40
0.0
 40
0.0
 40
0.0
 40
0.0
 40
0.1455134081441834
 40
0.3797517384745079
 40
0.620782996252844
 40
0.8314574685934126
 40
0.9999999999999999
 40
0.9999999999999999
 40
0.9999999999999999
 40
0.9999999999999999
 10
-18.25625000000001
 20
-1.873064330128785
 30
0.0
 10
-18.25625000000002
 20
-1.863744065711417
 30
0.0
 10
-18.25625000000002
 20
-1.839420625963308
 30
0.0
 10
-18.25625000000001
 20
-1.734444866397135
 30
0.0
 10
-18.25625000000001
 20
-1.554611856801885
 30
0.0
 10
-18.25625000000001
 20
-1.342074410932278
 30
0.0
 10
-18.25625000000002
 20
-1.177566029786847
 30
0.0
 10
-18.25625000000002
 20
-1.104450481902981
 30
0.0
  0
SPLINE
  5
21A
330
1F
100
AcDbEntity
  8
외형선
  6
Continuous
370
    15
100
AcDbSpline
210
0.0
220
0.0
230
1.0
 70
     8
 71
     3
 72
     8
 73
     4
 74
     0
 42
0.000000001
 43
0.00000001
 40
0.0
 40
0.0
 40
0.0
 40
0.0
 40
1.0
 40
1.0
 40
1.0
 40
1.0
 10
-18.25625000000002
 20
1.880254311847081
 30
0.0
 10
-17.9620429576784
 20
1.858327863085775
 30
0.0
 10
-17.66188568351261
 20
1.821611232445337
 30
0.0
 10
-17.36610275908501
 20
1.771293062099182
 30
0.0
  0
SPLINE
  5
21B
330
1F
100
AcDbEntity
  8
외형선
  6
Continuous
370
    15
100
AcDbSpline
210
0.0
220
0.0
230
1.0
 70
    24
 71
     3
 72
    14
 73
    10
 74
     0
 42
0.000000001
 43
0.00000001
 40
0.0
 40
0.0
 40
0.0
 40
0.0
 40
0.25
 40
0.25
 40
0.4999999999999999
 40
0.4999999999999999
 40
0.75
 40
0.75
 40
1.0
 40
1.0
 40
1.0
 40
1.0
 10
-18.25625000000005
 20
-0.2677967809343199
 30
0.0
 10
-18.25625000000005
 20
-0.0571530371028584
 30
0.0
 10
-18.25625000000005
 20
0.1588805017956278
 30
0.0
 10
-18.25625000000005
 20
0.5814930487554253
 30
0.0
 10
-18.25625000000005
 20
0.7878482236431796
 30
0.0
 10
-18.25625000000005
 20
1.169618833527962
 30
0.0
 10
-18.25625000000005
 20
1.34483084518289
 30
0.0
 10
-18.25625000000005
 20
1.648777877668329
 30
0.0
 10
-18.25625000000005
 20
1.777455737443261
 30
0.0
 10
-18.25625000000005
 20
1.880254311847081
 30
0.0
  0
SPLINE
  5
21C
330
1F
100
AcDbEntity
  8
0
  6
Continuous
 62
     1
370
    15
100
AcDbSpline
210
0.0
220
0.0
230
1.0
 70
     8
 71
     3
 72
    28
 73
    24
 74
     0
 42
0.000000001
 43
0.00000001
 40
0.0
 40
0.0
 40
0.0
 40
0.0
 40
0.1249999999999999
 40
0.1249999999999999
 40
0.1874999999999999
 40
0.1874999999999999
 40
0.2499999999999999
 40
0.2499999999999999
 40
0.3124999999999999
 40
0.3124999999999999
 40
0.3749999999999999
 40
0.3749999999999999
 40
0.5
 40
0.5
 40
0.6250000000000001
 40
0.6250000000000001
 40
0.6875000000000001
 40
0.6875000000000001
 40
0.7500000000000002
 40
0.7500000000000002
 40
0.8750000000000001
 40
0.8750000000000001
 40
1.0
 40
1.0
 40
1.0
 40
1.0
 10
-25.40000000000002
 20
2.259665444858462
 30
0.0
 10
-25.10534723378047
 20
2.205633317178668
 30
0.0
 10
-24.80379682211874
 20
2.133440816845722
 30
0.0
 10
-24.35682029143567
 20
2.001392956653083
 30
0.0
 10
-24.20985956290924
 20
1.953595638150125
 30
0.0
 10
-23.91306048958976
 20
1.850283572579395
 30
0.0
 10
-23.76340577523567
 20
1.794763231996199
 30
0.0
 10
-23.46420516103473
 20
1.676910830791786
 30
0.0
 10
-23.31466440343474
 20
1.614580815787824
 30
0.0
 10
-23.0183145430259
 20
1.484267171398385
 30
0.0
 10
-22.87107299994638
 20
1.416238254518847
 30
0.0
 10
-22.42366405886555
 20
1.203379567133097
 30
0.0
 10
-22.12338299385856
 20
1.050548644843284
 30
0.0
 10
-21.53293805018123
 20
0.7326980082219012
 30
0.0
 10
-21.23125888930684
 20
0.5656185438449401
 30
0.0
 10
-20.78477245452429
 20
0.3114170180727551
 30
0.0
 10
-20.6379592292604
 20
0.2262952833497802
 30
0.0
 10
-20.34074888906557
 20
0.0548181540022649
 30
0.0
 10
-20.19099973245455
 20
-0.0314150567199055
 30
0.0
 10
-19.74225728702501
 20
-0.2893282900825878
 30
0.0
 10
-19.44817348287863
 20
-0.4593775082937673
 30
0.0
 10
-18.85112884421008
 20
-0.7913582463088329
 30
0.0
 10
-18.55200490721887
 20
-0.9525160232901986
 30
0.0
 10
-18.256249999997
 20
-1.104450481904594
 30
0.0
1001
PE_URL
1000

  0
SPLINE
  5
21D
330
1F
100
AcDbEntity
  8
0
  6
Continuous
 62
     1
370
    15
100
AcDbSpline
210
0.0
220
0.0
230
1.0
 70
     8
 71
     3
 72
    14
 73
    10
 74
     0
 42
0.000000001
 43
0.00000001
 40
0.0
 40
0.0
 40
0.0
 40
0.0
 40
0.1624514422050592
 40
0.3247472831998161
 40
0.4869521938174129
 40
0.6491316172157425
 40
0.8113512136317397
 40
0.9736763012613482
 40
1.0
 40
1.0
 40
1.0
 40
1.0
 10
-25.40000000000002
 20
1.878740204526813
 30
0.0
 10
-25.06493250695538
 20
1.806847399760776
 30
0.0
 10
-24.39511845927541
 20
1.66313065146675
 30
0.0
 10
-23.39094165730376
 20
1.319619347237608
 30
0.0
 10
-22.38739660894522
 20
0.9064504702100098
 30
0.0
 10
-21.384031044846
 20
0.4372155389617471
 30
0.0
 10
-20.38039860921749
 20
-0.0553531839530248
 30
0.0
 10
-19.65678165049391
 20
-0.4132249469659411
 30
0.0
 10
-19.26774453806034
 20
-0.592201760672592
 30
0.0
 10
-19.21345902717524
 20
-0.6171758504397051
 30
0.0
1001
PE_URL
1000

  0
LINE
  5
21E
330
1F
100
AcDbEntity
  8
0
  6
Continuous
 62
     1
370
    15
100
AcDbLine
 10
-25.40000000000002
 20
2.259665444858462
 30
0.0
 11
-25.40000000000002
 21
1.878740204526813
 31
0.0
1001
PE_URL
1000

  0
SPLINE
  5
21F
330
1F
100
AcDbEntity
  8
0
  6
Continuous
 62
     1
370
    15
100
AcDbSpline
210
0.0
220
0.0
230
1.0
 70
     8
 71
     3
 72
    28
 73
    24
 74
     0
 42
0.000000001
 43
0.00000001
 40
0.0
 40
0.0
 40
0.0
 40
0.0
 40
0.1250000000000002
 40
0.1250000000000002
 40
0.2500000000000003
 40
0.2500000000000003
 40
0.3125000000000004
 40
0.3125000000000004
 40
0.3750000000000006
 40
0.3750000000000006
 40
0.5000000000000007
 40
0.5000000000000007
 40
0.6250000000000008
 40
0.6250000000000008
 40
0.6875000000000007
 40
0.6875000000000007
 40
0.7500000000000007
 40
0.7500000000000007
 40
0.8125000000000006
 40
0.8125000000000006
 40
0.8750000000000004
 40
0.8750000000000004
 40
1.0
 40
1.0
 40
1.0
 40
1.0
 10
-18.25625000000001
 20
-0.4788542842370849
 30
0.0
 10
-18.55200490722172
 20
-0.3108612561793838
 30
0.0
 10
-18.85112884421288
 20
-0.1384853271416494
 30
0.0
 10
-19.44817348288115
 20
0.2055381127054853
 30
0.0
 10
-19.74225728702742
 20
0.3764370553712967
 30
0.0
 10
-20.19099973245678
 20
0.6278345985634199
 30
0.0
 10
-20.34074888906773
 20
0.710594984666854
 30
0.0
 10
-20.63795922926241
 20
0.8726023348759735
 30
0.0
 10
-20.78477245452624
 20
0.9517436984885481
 30
0.0
 10
-21.23125888930863
 20
1.184213596897151
 30
0.0
 10
-21.53293805018288
 20
1.331737473297148
 30
0.0
 10
-22.12338299385991
 20
1.6017772976502
 30
0.0
 10
-22.42366405886682
 20
1.726057221750522
 30
0.0
 10
-22.87107299994745
 20
1.890386154903853
 30
0.0
 10
-23.0183145430269
 20
1.941351141462312
 30
0.0
 10
-23.31466440343562
 20
2.035757075607207
 30
0.0
 10
-23.46420516103555
 20
2.079220393160581
 30
0.0
 10
-23.76340577523636
 20
2.15782913598344
 30
0.0
 10
-23.91306048959039
 20
2.192973185711447
 30
0.0
 10
-24.20985956290974
 20
2.254392307113355
 30
0.0
 10
-24.35682029143612
 20
2.280685935608548
 30
0.0
 10
-24.80379682211899
 20
2.34641922054386
 30
0.0
 10
-25.10534723378059
 20
2.372196716168562
 30
0.0
 10
-25.40000000000002
 20
2.379237403765585
 30
0.0
1001
PE_URL
1000

  0
SPLINE
  5
220
330
1F
100
AcDbEntity
  8
0
  6
Continuous
 62
     1
370
    15
100
AcDbSpline
210
0.0
220
0.0
230
1.0
 70
     8
 71
     3
 72
     9
 73
     5
 74
     0
 42
0.000000001
 43
0.00000001
 40
0.0
 40
0.0
 40
0.0
 40
0.0
 40
0.1459569123141547
 40
1.0
 40
1.0
 40
1.0
 40
1.0
 10
-19.4776903218791
 20
0.22244372069695
 30
0.0
 10
-19.41826744023675
 20
0.1990963828792604
 30
0.0
 10
-19.01114125004685
 20
0.0391359024366539
 30
0.0
 10
-18.60398175356014
 20
-0.1264118593222617
 30
0.0
 10
-18.25625000000001
 20
-0.2677967809343305
 30
0.0
1001
PE_URL
1000

  0
SPLINE
  5
221
330
1F
100
AcDbEntity
  8
외형선
  6
Continuous
370
    15
100
AcDbSpline
210
0.0
220
0.0
230
1.0
 70
    24
 71
     3
 72
    11
 73
     7
 74
     0
 42
0.000000001
 43
0.00000001
 40
0.0
 40
0.0
 40
0.0
 40
0.0
 40
0.1379559413729962
 40
0.5565021078859488
 40
0.7773403024671286
 40
0.9999999999999999
 40
0.9999999999999999
 40
0.9999999999999999
 40
0.9999999999999999
 10
-18.25625000000002
 20
-0.4436527350196909
 30
0.0
 10
-18.25625000000002
 20
-0.4395560889194113
 30
0.0
 10
-18.25625000000001
 20
-0.4230305796344863
 30
0.0
 10
-18.25625000000002
 20
-0.378084432588538
 30
0.0
 10
-18.25625000000002
 20
-0.3207934159150352
 30
0.0
 10
-18.25625000000002
 20
-0.285510629578256
 30
0.0
 10
-18.25625000000002
 20
-0.2677967809364586
 30
0.0
  0
LINE
  5
222
330
1F
100
AcDbEntity
  8
0
  6
Continuous
 62
     1
370
    15
100
AcDbLine
 10
-25.40000000000002
 20
2.379237403765588
 30
0.0
 11
-25.40000000000002
 21
2.259665444858462
 31
0.0
1001
PE_URL
1000

  0
SPLINE
  5
223
330
1F
100
AcDbEntity
  8
0
  6
Continuous
 62
     1
370
    15
100
AcDbSpline
210
0.0
220
0.0
230
1.0
 70
     8
 71
     3
 72
     8
 73
     4
 74
     0
 42
0.000000001
 43
0.00000001
 40
0.0
 40
0.0
 40
0.0
 40
0.0
 40
1.0
 40
1.0
 40
1.0
 40
1.0
 10
-23.92593131851544
 20
-0.6667656290396462
 30
0.0
 10
-23.84157539430416
 20
-0.7667237491414494
 30
0.0
 10
-23.76626846147553
 20
-0.8629558787205849
 30
0.0
 10
-23.70215717569904
 20
-0.9545781160976443
 30
0.0
1001
PE_URL
1000

  0
LINE
  5
224
330
1F
100
AcDbEntity
  8
0
  6
Continuous
 62
     1
370
    15
100
AcDbLine
 10
-23.73228317140752
 20
-0.9798568279854767
 30
0.0
 11
-25.40000000000002
 21
-0.0000000000000012
 31
0.0
1001
PE_URL
1000

  0
LINE
  5
225
330
1F
100
AcDbEntity
  8
0
  6
Continuous
 62
     1
370
    15
100
AcDbLine
 10
-25.40000000000002
 20
-0.0000000000000012
 30
0.0
 11
-25.40000000000002
 21
0.636372265233091
 31
0.0
1001
PE_URL
1000

  0
SPLINE
  5
226
330
1F
100
AcDbEntity
  8
0
  6
Continuous
 62
     1
370
    15
100
AcDbSpline
210
0.0
220
0.0
230
1.0
 70
     8
 71
     3
 72
    10
 73
     6
 74
     0
 42
0.000000001
 43
0.00000001
 40
0.0
 40
0.0
 40
0.0
 40
0.0
 40
0.5
 40
0.5
 40
1.0
 40
1.0
 40
1.0
 40
1.0
 10
-25.40000000000002
 20
0.636372265233091
 30
0.0
 10
-25.14482507708537
 20
0.4357598858607711
 30
0.0
 10
-24.89391634127838
 20
0.2269170311293204
 30
0.0
 10
-24.40084008684127
 20
-0.2076325360986656
 30
0.0
 10
-24.15638005573236
 20
-0.4356364190385532
 30
0.0
 10
-23.92593131851544
 20
-0.6667656290396498
 30
0.0
1001
PE_URL
1000

  0
SPLINE
  5
227
330
1F
100
AcDbEntity
  8
0
  6
Continuous
 62
     1
370
    15
100
AcDbSpline
210
0.0
220
0.0
230
1.0
 70
     8
 71
     3
 72
    14
 73
    10
 74
     0
 42
0.000000001
 43
0.00000001
 40
0.0
 40
0.0
 40
0.0
 40
0.0
 40
0.0978148018060034
 40
0.2812628572397967
 40
0.4646816918776869
 40
0.6481466178057448
 40
0.831732552916175
 40
0.9343561328707572
 40
0.9999999999999999
 40
0.9999999999999999
 40
0.9999999999999999
 40
0.9999999999999999
 10
-23.92593131850642
 20
-0.6667656290435435
 30
0.0
 10
-23.74754089290253
 20
-0.7425784636293227
 30
0.0
 10
-23.23458579936682
 20
-0.9605754750973301
 30
0.0
 10
-22.38744263377543
 20
-1.283327689373441
 30
0.0
 10
-21.38406466148662
 20
-1.591015490353557
 30
0.0
 10
-20.38042086122751
 20
-1.80544160892334
 30
0.0
 10
-19.52404097652639
 20
-1.894783811378873
 30
0.0
 10
-18.88234202788958
 20
-1.91171224855079
 30
0.0
 10
-18.57572629852692
 20
-1.895288051947884
 30
0.0
 10
-18.45611051694326
 20
-1.888880705796322
 30
0.0
1001
PE_URL
1000

  0
SPLINE
  5
228
330
1F
100
AcDbEntity
  8
0
  6
Continuous
 62
     1
370
    15
100
AcDbSpline
210
0.0
220
0.0
230
1.0
 70
    24
 71
     3
 72
    10
 73
     6
 74
     0
 42
0.000000001
 43
0.00000001
 40
0.0
 40
0.0
 40
0.0
 40
0.0
 40
0.5
 40
0.5
 40
1.0
 40
1.0
 40
1.0
 40
1.0
 10
-25.40000000000002
 20
1.878740204526813
 30
0.0
 10
-25.40000000000002
 20
1.734720120065311
 30
0.0
 10
-25.40000000000002
 20
1.552745221052279
 30
0.0
 10
-25.40000000000002
 20
1.129671093977555
 30
0.0
 10
-25.40000000000002
 20
0.8889383487659319
 30
0.0
 10
-25.40000000000002
 20
0.6363722652331691
 30
0.0
1001
PE_URL
1000

  0
SPLINE
  5
229
330
1F
100
AcDbEntity
  8
외형선
  6
Continuous
370
    15
100
AcDbSpline
210
0.0
220
0.0
230
1.0
 70
    24
 71
     3
 72
    12
 73
     8
 74
     0
 42
0.000000001
 43
0.00000001
 40
0.0
 40
0.0
 40
0.0
 40
0.0
 40
0.1455588024398829
 40
0.3797846889423788
 40
0.6208031420210354
 40
0.8314664223553344
 40
1.0
 40
1.0
 40
1.0
 40
1.0
 10
-18.25625000000002
 20
-1.873076677285654
 30
0.0
 10
-18.25625000000002
 20
-1.863753425423352
 30
0.0
 10
-18.25625000000002
 20
-1.839427666698328
 30
0.0
 10
-18.25625000000002
 20
-1.734445509007153
 30
0.0
 10
-18.25625000000002
 20
-1.554611706335018
 30
0.0
 10
-18.25625000000002
 20
-1.34207443823597
 30
0.0
 10
-18.25625000000002
 20
-1.177566038188038
 30
0.0
 10
-18.25625000000002
 20
-1.104450481902981
 30
0.0
  0
SPLINE
  5
22A
330
1F
100
AcDbEntity
  8
0
  6
Continuous
 62
     1
370
    15
100
AcDbSpline
210
0.0
220
0.0
230
1.0
 70
    24
 71
     3
 72
     8
 73
     4
 74
     0
 42
0.000000001
 43
0.00000001
 40
0.0
 40
0.0
 40
0.0
 40
0.0
 40
1.0
 40
1.0
 40
1.0
 40
1.0
 10
-23.95082768727663
 20
-1.163237450647079
 30
0.0
 10
-23.87247380387103
 20
-1.097490735980132
 30
0.0
 10
-23.78895324838925
 20
-1.027408668679596
 30
0.0
 10
-23.70215717569907
 20
-0.9545781160976266
 30
0.0
1001
PE_URL
1000

  0
LINE
  5
22B
330
1F
100
AcDbEntity
  8
0
  6
Continuous
 62
     1
370
    15
100
AcDbLine
 10
-25.40000000000002
 20
-1.666874999999999
 30
0.0
 11
-24.51305218883683
 21
-1.623472693930986
 31
0.0
1001
PE_URL
1000

  0
SPLINE
  5
22C
330
1F
100
AcDbEntity
  8
0
  6
Continuous
 62
     1
370
    15
100
AcDbSpline
210
0.0
220
0.0
230
1.0
 70
     8
 71
     3
 72
     8
 73
     4
 74
     0
 42
0.000000001
 43
0.00000001
 40
0.0
 40
0.0
 40
0.0
 40
0.0
 40
1.0
 40
1.0
 40
1.0
 40
1.0
 10
-25.40000000000002
 20
-1.666874999999999
 30
0.0
 10
-24.91012656245467
 20
-1.533877050879466
 30
0.0
 10
-24.42500969724741
 20
-1.370635341277603
 30
0.0
 10
-23.95082768727601
 20
-1.163237450647434
 30
0.0
1001
PE_URL
1000

  0
SPLINE
  5
22D
330
1F
100
AcDbEntity
  8
0
  6
Continuous
 62
     1
370
    15
100
AcDbSpline
210
0.0
220
0.0
230
1.0
 70
     8
 71
     3
 72
    10
 73
     6
 74
     0
 42
0.000000001
 43
0.00000001
 40
0.0
 40
0.0
 40
0.0
 40
0.0
 40
0.4665687933763146
 40
0.7338357114202272
 40
1.0
 40
1.0
 40
1.0
 40
1.0
 10
-20.35636864198251
 20
1.789686258471277
 30
0.0
 10
-20.02971561054483
 20
1.831972130646291
 30
0.0
 10
-19.51594430154238
 20
1.898480828894249
 30
0.0
 10
-18.81568986428483
 20
1.911261120213939
 30
0.0
 10
-18.44247280187141
 20
1.890575662004255
 30
0.0
 10
-18.25625000000002
 20
1.880254311847081
 30
0.0
1001
PE_URL
1000

  0
SPLINE
  5
22E
330
1F
100
AcDbEntity
  8
외형선
  6
Continuous
370
    15
100
AcDbSpline
210
0.0
220
0.0
230
1.0
 70
    24
 71
     3
 72
    14
 73
    10
 74
     0
 42
0.000000001
 43
0.00000001
 40
0.0
 40
0.0
 40
0.0
 40
0.0
 40
0.25
 40
0.25
 40
0.5
 40
0.5
 40
0.75
 40
0.75
 40
1.0
 40
1.0
 40
1.0
 40
1.0
 10
-18.25625000000005
 20
-0.2677967809343199
 30
0.0
 10
-18.25625000000005
 20
-0.0571530371028584
 30
0.0
 10
-18.25625000000005
 20
0.1588805017956313
 30
0.0
 10
-18.25625000000005
 20
0.5814930487554253
 30
0.0
 10
-18.25625000000005
 20
0.7878482236431832
 30
0.0
 10
-18.25625000000005
 20
1.169618833527962
 30
0.0
 10
-18.25625000000005
 20
1.34483084518289
 30
0.0
 10
-18.25625000000005
 20
1.648777877668329
 30
0.0
 10
-18.25625000000005
 20
1.777455737443261
 30
0.0
 10
-18.25625000000005
 20
1.880254311847081
 30
0.0
  0
LINE
  5
22F
330
1F
100
AcDbEntity
  8
0
  6
Continuous
 62
     1
370
    15
100
AcDbLine
 10
-25.40000000000002
 20
-0.0000000000000012
 30
0.0
 11
-25.40000000000002
 21
-1.666874999999999
 31
0.0
1001
PE_URL
1000

  0
SPLINE
  5
230
330
1F
100
AcDbEntity
  8
0
  6
Continuous
 62
     1
370
    15
100
AcDbSpline
210
0.0
220
0.0
230
1.0
 70
    24
 71
     3
 72
    10
 73
     6
 74
     0
 42
0.000000001
 43
0.00000001
 40
0.0
 40
0.0
 40
0.0
 40
0.0
 40
0.5
 40
0.5
 40
1.0
 40
1.0
 40
1.0
 40
1.0
 10
-25.40000000000002
 20
-1.666874999999999
 30
0.0
 10
-25.40000000000002
 20
-1.767916811522416
 30
0.0
 10
-25.40000000000002
 20
-1.885336753989823
 30
0.0
 10
-25.40000000000002
 20
-2.131683477038036
 30
0.0
 10
-25.40000000000002
 20
-2.259981119002256
 30
0.0
 10
-25.40000000000002
 20
-2.379237403765587
 30
0.0
1001
PE_URL
1000

  0
SPLINE
  5
231
330
1F
100
AcDbEntity
  8
0
  6
Continuous
 62
     1
370
    15
100
AcDbSpline
210
0.0
220
0.0
230
1.0
 70
     8
 71
     3
 72
    16
 73
    12
 74
     0
 42
0.000000001
 43
0.00000001
 40
0.0
 40
0.0
 40
0.0
 40
0.0
 40
0.1197862490706886
 40
0.2276671926422128
 40
0.3359439942221024
 40
0.4444216610879028
 40
0.5532980124696261
 40
0.6644281903349953
 40
0.7757752966353392
 40
0.8877769500808916
 40
1.0
 40
1.0
 40
1.0
 40
1.0
 10
-22.12613836594716
 20
-1.596256223357316
 30
0.0
 10
-22.2569065623125
 20
-1.651773761956293
 30
0.0
 10
-22.50544617670358
 20
-1.757291066766262
 30
0.0
 10
-22.87237212209982
 20
-1.891505636545547
 30
0.0
 10
-23.22594011048049
 20
-2.010041902734025
 30
0.0
 10
-23.58155617789666
 20
-2.112584555058942
 30
0.0
 10
-23.94042876292353
 20
-2.200362642702787
 30
0.0
 10
-24.301460047364
 20
-2.27275459886575
 30
0.0
 10
-24.66646821939052
 20
-2.327286882536681
 30
0.0
 10
-25.03314439551142
 20
-2.365008487884553
 30
0.0
 10
-25.27763432980636
 20
-2.374491310734415
 30
0.0
 10
-25.3999999999996
 20
-2.379237403765577
 30
0.0
1001
PE_URL
1000

  0
ENDSEC
  0
SECTION
  2
OBJECTS
  0
DICTIONARY
  5
C
330
0
100
AcDbDictionary
281
     1
  3
ACAD_GROUP
350
D
  3
ACAD_IMAGE_VARS
350
257
  3
ACAD_LAYOUT
350
1A
  3
ACAD_MLINESTYLE
350
17
  3
ACAD_PLOTSETTINGS
350
19
  3
ACAD_PLOTSTYLENAME
350
E
  3
ACAD_SCALELIST
350
47
  3
APPDATA
350
154
  3
DWGPROPS
350
258
  0
DICTIONARY
  5
18D
330
2
100
AcDbDictionary
280
     1
281
     1
  3
ACAD_LAYERSTATES
360
18E
  0
DICTIONARY
  5
D
102
{ACAD_REACTORS
330
C
102
}
330
C
100
AcDbDictionary
281
     1
  0
RASTERVARIABLES
  5
257
102
{ACAD_REACTORS
330
C
102
}
330
C
100
AcDbRasterVariables
 90
        0
 70
     1
 71
     1
 72
     1
  0
DICTIONARY
  5
1A
102
{ACAD_REACTORS
330
C
102
}
330
C
100
AcDbDictionary
281
     1
  3
Layout1
350
1E
  3
Layout2
350
26
  3
Model
350
22
  0
DICTIONARY
  5
17
102
{ACAD_REACTORS
330
C
102
}
330
C
100
AcDbDictionary
281
     1
  3
Standard
350
18
  0
DICTIONARY
  5
19
102
{ACAD_REACTORS
330
C
102
}
330
C
100
AcDbDictionary
281
     1
  0
ACDBDICTIONARYWDFLT
  5
E
102
{ACAD_REACTORS
330
C
102
}
330
C
100
AcDbDictionary
281
     1
  3
Normal
350
F
100
AcDbDictionaryWithDefault
340
F
  0
DICTIONARY
  5
47
102
{ACAD_REACTORS
330
C
102
}
330
C
100
AcDbDictionary
281
     1
  3
A0
350
48
  3
A1
350
49
  3
A2
350
4A
  3
A3
350
4B
  3
A4
350
4C
  3
A5
350
4D
  3
A6
350
4E
  3
A7
350
4F
  3
A8
350
50
  3
A9
350
51
  3
B0
350
52
  3
B1
350
53
  3
B2
350
54
  3
B3
350
55
  3
B4
350
56
  3
B5
350
57
  3
B6
350
58
  3
B7
350
59
  3
B8
350
5A
  3
B9
350
5B
  3
C0
350
5C
  3
C1
350
5D
  3
C2
350
5E
  3
C3
350
5F
  3
C4
350
60
  3
C5
350
61
  3
C6
350
62
  3
C7
350
63
  3
C8
350
64
  3
C9
350
65
  3
D0
350
66
  3
D1
350
67
  3
D2
350
68
  0
DICTIONARY
  5
154
102
{ACAD_REACTORS
330
C
102
}
330
C
100
AcDbDictionary
281
     1
  0
XRECORD
  5
258
102
{ACAD_REACTORS
330
C
102
}
330
C
100
AcDbXrecord
280
     1
  1
DWGPROPS COOKIE
  2

  3

  4

  6

  7

  8
12016016
  9

300
=
301
=
302
=
303
=
304
=
305
=
306
=
307
=
308
=
309
=
 40
0.0
 41
2458313.014322651
 42
2458318.269699236
  1

 90
        0
  0
DICTIONARY
  5
18E
102
{ACAD_REACTORS
330
18D
102
}
330
18D
100
AcDbDictionary
281
     1
  0
LAYOUT
  5
1E
102
{ACAD_REACTORS
330
1A
102
}
330
1A
100
AcDbPlotSettings
  1

  2
none_device
  4

  6

 40
0.0
 41
0.0
 42
0.0
 43
0.0
 44
0.0
 45
0.0
 46
0.0
 47
0.0
 48
0.0
 49
0.0
140
0.0
141
0.0
142
1.0
143
1.0
 70
   688
 72
     1
 73
     0
 74
     5
  7

 75
    16
147
1.0
148
0.0
149
0.0
100
AcDbLayout
  1
Layout1
 70
     1
 71
     1
 10
0.0
 20
0.0
 11
420.0
 21
297.0
 12
0.0
 22
0.0
 32
0.0
 14
1.000000000000000E+20
 24
1.000000000000000E+20
 34
1.000000000000000E+20
 15
-1.000000000000000E+20
 25
-1.000000000000000E+20
 35
-1.000000000000000E+20
146
0.0
 13
0.0
 23
0.0
 33
0.0
 16
1.0
 26
0.0
 36
0.0
 17
0.0
 27
1.0
 37
0.0
 76
     0
330
1B
  0
LAYOUT
  5
26
102
{ACAD_REACTORS
330
1A
102
}
330
1A
100
AcDbPlotSettings
  1

  2
none_device
  4

  6

 40
0.0
 41
0.0
 42
0.0
 43
0.0
 44
0.0
 45
0.0
 46
0.0
 47
0.0
 48
0.0
 49
0.0
140
0.0
141
0.0
142
1.0
143
1.0
 70
   688
 72
     1
 73
     0
 74
     5
  7

 75
    16
147
1.0
148
0.0
149
0.0
100
AcDbLayout
  1
Layout2
 70
     1
 71
     2
 10
0.0
 20
0.0
 11
0.0
 21
0.0
 12
0.0
 22
0.0
 32
0.0
 14
0.0
 24
0.0
 34
0.0
 15
0.0
 25
0.0
 35
0.0
146
0.0
 13
0.0
 23
0.0
 33
0.0
 16
1.0
 26
0.0
 36
0.0
 17
0.0
 27
1.0
 37
0.0
 76
     0
330
23
  0
LAYOUT
  5
22
102
{ACAD_REACTORS
330
1A
102
}
330
1A
100
AcDbPlotSettings
  1

  2
none_device
  4
ANSI_A_(11.00_x_8.50_Inches)
  6

 40
6.35
 41
19.05
 42
6.35000508
 43
19.05000254
 44
279.4
 45
215.9
 46
100.0441776694066
 47
73.54754899269236
 48
0.0
 49
0.0
140
0.0
141
0.0
142
0.0710459289518691
143
1.0
 70
  1696
 72
     0
 73
     0
 74
     0
  7

 75
     0
147
0.0235690232323232
148
0.0
149
0.0
100
AcDbLayout
  1
Model
 70
     1
 71
     0
 10
0.0
 20
0.0
 11
420.0
 21
297.0
 12
0.0
 22
0.0
 32
0.0
 14
-39.7750000000001
 24
-49.97180738881174
 34
0.0
 15
89.06287503295506
 25
36.98524999999997
 35
0.0
146
0.0
 13
0.0
 23
0.0
 33
0.0
 16
1.0
 26
0.0
 36
0.0
 17
0.0
 27
1.0
 37
0.0
 76
     0
330
1F
331
29
  0
MLINESTYLE
  5
18
102
{ACAD_REACTORS
330
17
102
}
330
17
100
AcDbMlineStyle
  2
Standard
 70
     0
  3

 62
   256
 51
90.0
 52
90.0
 71
     2
 49
0.5
 62
   256
  6
BYLAYER
 49
-0.5
 62
   256
  6
BYLAYER
  0
ACDBPLACEHOLDER
  5
F
102
{ACAD_REACTORS
330
E
102
}
330
E
  0
SCALE
  5
48
102
{ACAD_REACTORS
330
47
102
}
330
47
100
AcDbScale
 70
     0
300
1:1
140
1.0
141
1.0
290
     1
  0
SCALE
  5
49
102
{ACAD_REACTORS
330
47
102
}
330
47
100
AcDbScale
 70
     0
300
1:2
140
1.0
141
2.0
290
     0
  0
SCALE
  5
4A
102
{ACAD_REACTORS
330
47
102
}
330
47
100
AcDbScale
 70
     0
300
1:4
140
1.0
141
4.0
290
     0
  0
SCALE
  5
4B
102
{ACAD_REACTORS
330
47
102
}
330
47
100
AcDbScale
 70
     0
300
1:5
140
1.0
141
5.0
290
     0
  0
SCALE
  5
4C
102
{ACAD_REACTORS
330
47
102
}
330
47
100
AcDbScale
 70
     0
300
1:8
140
1.0
141
8.0
290
     0
  0
SCALE
  5
4D
102
{ACAD_REACTORS
330
47
102
}
330
47
100
AcDbScale
 70
     0
300
1:10
140
1.0
141
10.0
290
     0
  0
SCALE
  5
4E
102
{ACAD_REACTORS
330
47
102
}
330
47
100
AcDbScale
 70
     0
300
1:16
140
1.0
141
16.0
290
     0
  0
SCALE
  5
4F
102
{ACAD_REACTORS
330
47
102
}
330
47
100
AcDbScale
 70
     0
300
1:20
140
1.0
141
20.0
290
     0
  0
SCALE
  5
50
102
{ACAD_REACTORS
330
47
102
}
330
47
100
AcDbScale
 70
     0
300
1:30
140
1.0
141
30.0
290
     0
  0
SCALE
  5
51
102
{ACAD_REACTORS
330
47
102
}
330
47
100
AcDbScale
 70
     0
300
1:40
140
1.0
141
40.0
290
     0
  0
SCALE
  5
52
102
{ACAD_REACTORS
330
47
102
}
330
47
100
AcDbScale
 70
     0
300
1:50
140
1.0
141
50.0
290
     0
  0
SCALE
  5
53
102
{ACAD_REACTORS
330
47
102
}
330
47
100
AcDbScale
 70
     0
300
1:100
140
1.0
141
100.0
290
     0
  0
SCALE
  5
54
102
{ACAD_REACTORS
330
47
102
}
330
47
100
AcDbScale
 70
     0
300
2:1
140
2.0
141
1.0
290
     0
  0
SCALE
  5
55
102
{ACAD_REACTORS
330
47
102
}
330
47
100
AcDbScale
 70
     0
300
4:1
140
4.0
141
1.0
290
     0
  0
SCALE
  5
56
102
{ACAD_REACTORS
330
47
102
}
330
47
100
AcDbScale
 70
     0
300
8:1
140
8.0
141
1.0
290
     0
  0
SCALE
  5
57
102
{ACAD_REACTORS
330
47
102
}
330
47
100
AcDbScale
 70
     0
300
10:1
140
10.0
141
1.0
290
     0
  0
SCALE
  5
58
102
{ACAD_REACTORS
330
47
102
}
330
47
100
AcDbScale
 70
     0
300
100:1
140
100.0
141
1.0
290
     0
  0
SCALE
  5
59
102
{ACAD_REACTORS
330
47
102
}
330
47
100
AcDbScale
 70
     0
300
1/128" = 1'-0"
140
0.0078125
141
12.0
290
     0
  0
SCALE
  5
5A
102
{ACAD_REACTORS
330
47
102
}
330
47
100
AcDbScale
 70
     0
300
1/64" = 1'-0"
140
0.015625
141
12.0
290
     0
  0
SCALE
  5
5B
102
{ACAD_REACTORS
330
47
102
}
330
47
100
AcDbScale
 70
     0
300
1/32" = 1'-0"
140
0.03125
141
12.0
290
     0
  0
SCALE
  5
5C
102
{ACAD_REACTORS
330
47
102
}
330
47
100
AcDbScale
 70
     0
300
1/16" = 1'-0"
140
0.0625
141
12.0
290
     0
  0
SCALE
  5
5D
102
{ACAD_REACTORS
330
47
102
}
330
47
100
AcDbScale
 70
     0
300
3/32" = 1'-0"
140
0.09375
141
12.0
290
     0
  0
SCALE
  5
5E
102
{ACAD_REACTORS
330
47
102
}
330
47
100
AcDbScale
 70
     0
300
1/8" = 1'-0"
140
0.125
141
12.0
290
     0
  0
SCALE
  5
5F
102
{ACAD_REACTORS
330
47
102
}
330
47
100
AcDbScale
 70
     0
300
3/16" = 1'-0"
140
0.1875
141
12.0
290
     0
  0
SCALE
  5
60
102
{ACAD_REACTORS
330
47
102
}
330
47
100
AcDbScale
 70
     0
300
1/4" = 1'-0"
140
0.25
141
12.0
290
     0
  0
SCALE
  5
61
102
{ACAD_REACTORS
330
47
102
}
330
47
100
AcDbScale
 70
     0
300
3/8" = 1'-0"
140
0.375
141
12.0
290
     0
  0
SCALE
  5
62
102
{ACAD_REACTORS
330
47
102
}
330
47
100
AcDbScale
 70
     0
300
1/2" = 1'-0"
140
0.5
141
12.0
290
     0
  0
SCALE
  5
63
102
{ACAD_REACTORS
330
47
102
}
330
47
100
AcDbScale
 70
     0
300
3/4" = 1'-0"
140
0.75
141
12.0
290
     0
  0
SCALE
  5
64
102
{ACAD_REACTORS
330
47
102
}
330
47
100
AcDbScale
 70
     0
300
1" = 1'-0"
140
1.0
141
12.0
290
     0
  0
SCALE
  5
65
102
{ACAD_REACTORS
330
47
102
}
330
47
100
AcDbScale
 70
     0
300
1-1/2" = 1'-0"
140
1.5
141
12.0
290
     0
  0
SCALE
  5
66
102
{ACAD_REACTORS
330
47
102
}
330
47
100
AcDbScale
 70
     0
300
3" = 1'-0"
140
3.0
141
12.0
290
     0
  0
SCALE
  5
67
102
{ACAD_REACTORS
330
47
102
}
330
47
100
AcDbScale
 70
     0
300
6" = 1'-0"
140
6.0
141
12.0
290
     0
  0
SCALE
  5
68
102
{ACAD_REACTORS
330
47
102
}
330
47
100
AcDbScale
 70
     0
300
1'-0" = 1'-0"
140
12.0
141
12.0
290
     0
  0
ENDSEC
  0
EOF
