  0
SECTION
  2
HEADER
  9
$ACADVER
  1
AC1015
  9
$ACADMAINTVER
 70
     6
  9
$DWGCODEPAGE
  3
ANSI_949
  9
$INSBASE
 10
0.0
 20
0.0
 30
0.0
  9
$EXTMIN
 10
-36.77500000000009
 20
-49.97180738881174
 30
0.0
  9
$EXTMAX
 10
95.51348381534555
 20
27.88124999999998
 30
0.0
  9
$LIMMIN
 10
0.0
 20
0.0
  9
$LIMMAX
 10
420.0
 20
297.0
  9
$ORTHOMODE
 70
     1
  9
$REGENMODE
 70
     1
  9
$FILLMODE
 70
     1
  9
$QTEXTMODE
 70
     0
  9
$MIRRTEXT
 70
     1
  9
$LTSCALE
 40
1.0
  9
$ATTMODE
 70
     1
  9
$TEXTSIZE
 40
3.5
  9
$TRACEWID
 40
1.0
  9
$TEXTSTYLE
  7
Standard
  9
$CLAYER
  8
0
  9
$CELTYPE
  6
ByLayer
  9
$CECOLOR
 62
   256
  9
$CELTSCALE
 40
1.0
  9
$DISPSILH
 70
     0
  9
$DIMSCALE
 40
1.0
  9
$DIMASZ
 40
3.302
  9
$DIMEXO
 40
1.0
  9
$DIMDLI
 40
3.75
  9
$DIMRND
 40
0.0
  9
$DIMDLE
 40
0.0
  9
$DIMEXE
 40
1.0
  9
$DIMTP
 40
0.0
  9
$DIMTM
 40
0.0
  9
$DIMTXT
 40
3.5
  9
$DIMCEN
 40
2.5
  9
$DIMTSZ
 40
0.0
  9
$DIMTOL
 70
     0
  9
$DIMLIM
 70
     0
  9
$DIMTIH
 70
     1
  9
$DIMTOH
 70
     1
  9
$DIMSE1
 70
     0
  9
$DIMSE2
 70
     0
  9
$DIMTAD
 70
     1
  9
$DIMZIN
 70
     0
  9
$DIMBLK
  1

  9
$DIMASO
 70
     1
  9
$DIMSHO
 70
     1
  9
$DIMPOST
  1

  9
$DIMAPOST
  1

  9
$DIMALT
 70
     0
  9
$DIMALTD
 70
     3
  9
$DIMALTF
 40
0.0393700787401575
  9
$DIMLFAC
 40
1.0
  9
$DIMTOFL
 70
     1
  9
$DIMTVP
 40
0.0
  9
$DIMTIX
 70
     0
  9
$DIMSOXD
 70
     0
  9
$DIMSAH
 70
     0
  9
$DIMBLK1
  1

  9
$DIMBLK2
  1

  9
$DIMSTYLE
  2
ISO-25
  9
$DIMCLRD
 70
     0
  9
$DIMCLRE
 70
     0
  9
$DIMCLRT
 70
     0
  9
$DIMTFAC
 40
1.0
  9
$DIMGAP
 40
1.524
  9
$DIMJUST
 70
     0
  9
$DIMSD1
 70
     0
  9
$DIMSD2
 70
     0
  9
$DIMTOLJ
 70
     0
  9
$DIMTZIN
 70
     0
  9
$DIMALTZ
 70
     0
  9
$DIMALTTZ
 70
     0
  9
$DIMUPT
 70
     0
  9
$DIMDEC
 70
     2
  9
$DIMTDEC
 70
     2
  9
$DIMALTU
 70
     2
  9
$DIMALTTD
 70
     3
  9
$DIMTXSTY
  7
Standard
  9
$DIMAUNIT
 70
     0
  9
$DIMADEC
 70
     2
  9
$DIMALTRND
 40
0.0
  9
$DIMAZIN
 70
     0
  9
$DIMDSEP
 70
    44
  9
$DIMATFIT
 70
     3
  9
$DIMFRAC
 70
     0
  9
$DIMLDRBLK
  1

  9
$DIMLUNIT
 70
     2
  9
$DIMLWD
 70
    -2
  9
$DIMLWE
 70
    -2
  9
$DIMTMOVE
 70
     0
  9
$LUNITS
 70
     2
  9
$LUPREC
 70
     2
  9
$SKETCHINC
 40
1.0
  9
$FILLETRAD
 40
10.0
  9
$AUNITS
 70
     0
  9
$AUPREC
 70
     2
  9
$MENU
  1
.
  9
$ELEVATION
 40
0.0
  9
$PELEVATION
 40
0.0
  9
$THICKNESS
 40
0.0
  9
$LIMCHECK
 70
     0
  9
$CHAMFERA
 40
0.0
  9
$CHAMFERB
 40
0.0
  9
$CHAMFERC
 40
0.0
  9
$CHAMFERD
 40
0.0
  9
$SKPOLY
 70
     0
  9
$TDCREATE
 40
2458313.455775243
  9
$TDUCREATE
 40
2458313.080775243
  9
$TDUPDATE
 40
2458318.647932882
  9
$TDUUPDATE
 40
2458318.272932882
  9
$TDINDWG
 40
0.0079237153
  9
$TDUSRTIMER
 40
2458318.272882616
  9
$USRTIMER
 70
     1
  9
$ANGBASE
 50
0.0
  9
$ANGDIR
 70
     0
  9
$PDMODE
 70
     0
  9
$PDSIZE
 40
-1.0
  9
$PLINEWID
 40
0.0
  9
$SPLFRAME
 70
     0
  9
$SPLINETYPE
 70
     6
  9
$SPLINESEGS
 70
     8
  9
$HANDSEED
  5
24C
  9
$SURFTAB1
 70
     6
  9
$SURFTAB2
 70
     6
  9
$SURFTYPE
 70
     6
  9
$SURFU
 70
     6
  9
$SURFV
 70
     6
  9
$UCSBASE
  2

  9
$UCSNAME
  2

  9
$UCSORG
 10
0.0
 20
0.0
 30
0.0
  9
$UCSXDIR
 10
1.0
 20
0.0
 30
0.0
  9
$UCSYDIR
 10
0.0
 20
1.0
 30
0.0
  9
$UCSORTHOREF
  2

  9
$UCSORTHOVIEW
 70
     0
  9
$UCSORGTOP
 10
0.0
 20
0.0
 30
0.0
  9
$UCSORGBOTTOM
 10
0.0
 20
0.0
 30
0.0
  9
$UCSORGLEFT
 10
0.0
 20
0.0
 30
0.0
  9
$UCSORGRIGHT
 10
0.0
 20
0.0
 30
0.0
  9
$UCSORGFRONT
 10
0.0
 20
0.0
 30
0.0
  9
$UCSORGBACK
 10
0.0
 20
0.0
 30
0.0
  9
$PUCSBASE
  2

  9
$PUCSNAME
  2

  9
$PUCSORG
 10
0.0
 20
0.0
 30
0.0
  9
$PUCSXDIR
 10
1.0
 20
0.0
 30
0.0
  9
$PUCSYDIR
 10
0.0
 20
1.0
 30
0.0
  9
$PUCSORTHOREF
  2

  9
$PUCSORTHOVIEW
 70
     0
  9
$PUCSORGTOP
 10
0.0
 20
0.0
 30
0.0
  9
$PUCSORGBOTTOM
 10
0.0
 20
0.0
 30
0.0
  9
$PUCSORGLEFT
 10
0.0
 20
0.0
 30
0.0
  9
$PUCSORGRIGHT
 10
0.0
 20
0.0
 30
0.0
  9
$PUCSORGFRONT
 10
0.0
 20
0.0
 30
0.0
  9
$PUCSORGBACK
 10
0.0
 20
0.0
 30
0.0
  9
$USERI1
 70
     0
  9
$USERI2
 70
     0
  9
$USERI3
 70
     0
  9
$USERI4
 70
     0
  9
$USERI5
 70
     0
  9
$USERR1
 40
0.0
  9
$USERR2
 40
0.0
  9
$USERR3
 40
0.0
  9
$USERR4
 40
0.0
  9
$USERR5
 40
0.0
  9
$WORLDVIEW
 70
     1
  9
$SHADEDGE
 70
     3
  9
$SHADEDIF
 70
    70
  9
$TILEMODE
 70
     1
  9
$MAXACTVP
 70
    64
  9
$PINSBASE
 10
0.0
 20
0.0
 30
0.0
  9
$PLIMCHECK
 70
     0
  9
$PEXTMIN
 10
1.000000000000000E+20
 20
1.000000000000000E+20
 30
1.000000000000000E+20
  9
$PEXTMAX
 10
-1.000000000000000E+20
 20
-1.000000000000000E+20
 30
-1.000000000000000E+20
  9
$PLIMMIN
 10
0.0
 20
0.0
  9
$PLIMMAX
 10
0.0
 20
0.0
  9
$UNITMODE
 70
     0
  9
$VISRETAIN
 70
     1
  9
$PLINEGEN
 70
     0
  9
$PSLTSCALE
 70
     1
  9
$TREEDEPTH
 70
  3020
  9
$CMLSTYLE
  2
Standard
  9
$CMLJUST
 70
     0
  9
$CMLSCALE
 40
20.0
  9
$PROXYGRAPHICS
 70
     1
  9
$MEASUREMENT
 70
     1
  9
$CELWEIGHT
370
    -1
  9
$ENDCAPS
280
     0
  9
$JOINSTYLE
280
     0
  9
$LWDISPLAY
290
     1
  9
$INSUNITS
 70
     4
  9
$HYPERLINKBASE
  1

  9
$STYLESHEET
  1

  9
$XEDIT
290
     1
  9
$CEPSNTYPE
380
     0
  9
$PSTYLEMODE
290
     1
  9
$FINGERPRINTGUID
  2
{C8B99D2D-B1E3-46F0-8640-E9DE3940A377}
  9
$VERSIONGUID
  2
{FAEB1C32-E019-11D5-929B-00C0DF256EC4}
  9
$EXTNAMES
290
     1
  9
$PSVPSCALE
 40
0.0
  9
$OLESTARTUP
290
     0
  0
ENDSEC
  0
SECTION
  2
CLASSES
  0
CLASS
  1
ACDBDICTIONARYWDFLT
  2
AcDbDictionaryWithDefault
  3
ObjectDBX Classes
 90
        0
280
     0
281
     0
  0
CLASS
  1
VISUALSTYLE
  2
AcDbVisualStyle
  3
ObjectDBX Classes
 90
     4095
280
     0
281
     0
  0
CLASS
  1
MATERIAL
  2
AcDbMaterial
  3
ObjectDBX Classes
 90
     1153
280
     0
281
     0
  0
CLASS
  1
SCALE
  2
AcDbScale
  3
ObjectDBX Classes
 90
     1153
280
     0
281
     0
  0
CLASS
  1
SUN
  2
AcDbSun
  3
SCENEOE
 90
     1153
280
     0
281
     0
  0
CLASS
  1
ACDBPLACEHOLDER
  2
AcDbPlaceHolder
  3
ObjectDBX Classes
 90
        0
280
     0
281
     0
  0
CLASS
  1
LAYOUT
  2
AcDbLayout
  3
ObjectDBX Classes
 90
        0
280
     0
281
     0
  0
CLASS
  1
TABLESTYLE
  2
AcDbTableStyle
  3
ObjectDBX Classes
 90
     4095
280
     0
281
     0
  0
CLASS
  1
MLEADERSTYLE
  2
AcDbMLeaderStyle
  3
ACDB_MLEADERSTYLE_CLASS
 90
     4095
280
     0
281
     0
  0
CLASS
  1
DICTIONARYVAR
  2
AcDbDictionaryVar
  3
ObjectDBX Classes
 90
        0
280
     0
281
     0
  0
CLASS
  1
RASTERVARIABLES
  2
AcDbRasterVariables
  3
ISM
 90
        0
280
     0
281
     0
  0
ENDSEC
  0
SECTION
  2
TABLES
  0
TABLE
  2
VPORT
  5
8
330
0
100
AcDbSymbolTable
 70
     1
  0
VPORT
  5
29
330
8
100
AcDbSymbolTableRecord
100
AcDbViewportTableRecord
  2
*Active
 70
     0
 10
0.0
 20
0.0
 11
1.0
 21
1.0
 12
29.36924190767274
 22
-11.04527869440588
 13
0.0
 23
0.0
 14
10.0
 24
10.0
 15
10.0
 25
10.0
 16
0.0
 26
0.0
 36
1.0
 17
0.0
 27
0.0
 37
0.0
 40
79.41011853658796
 41
1.782762691853601
 42
50.0
 43
0.0
 44
0.0
 50
0.0
 51
0.0
 71
    16
 72
  2000
 73
     1
 74
     3
 75
     0
 76
     0
 77
     0
 78
     0
281
     0
 65
     1
110
0.0
120
0.0
130
0.0
111
1.0
121
0.0
131
0.0
112
0.0
122
1.0
132
0.0
 79
     0
146
0.0
  0
ENDTAB
  0
TABLE
  2
LTYPE
  5
5
330
0
100
AcDbSymbolTable
 70
     6
  0
LTYPE
  5
14
330
5
100
AcDbSymbolTableRecord
100
AcDbLinetypeTableRecord
  2
ByBlock
 70
     0
  3

 72
    65
 73
     0
 40
0.0
  0
LTYPE
  5
15
330
5
100
AcDbSymbolTableRecord
100
AcDbLinetypeTableRecord
  2
ByLayer
 70
     0
  3

 72
    65
 73
     0
 40
0.0
  0
LTYPE
  5
16
330
5
100
AcDbSymbolTableRecord
100
AcDbLinetypeTableRecord
  2
Continuous
 70
     0
  3
Solid line
 72
    65
 73
     0
 40
0.0
  0
LTYPE
  5
6A
330
5
100
AcDbSymbolTableRecord
100
AcDbLinetypeTableRecord
  2
HIDDEN
 70
     0
  3
Hidden __ __ __ __ __ __ __ __ __ __ __ __ __ __
 72
    65
 73
     2
 40
1.905
 49
1.27
 74
     0
 49
-0.635
 74
     0
  0
LTYPE
  5
6B
330
5
100
AcDbSymbolTableRecord
100
AcDbLinetypeTableRecord
  2
PHANTOM
 70
     0
  3
Phantom ______  __  __  ______  __  __  ______
 72
    65
 73
     6
 40
12.7
 49
6.35
 74
     0
 49
-1.27
 74
     0
 49
1.27
 74
     0
 49
-1.27
 74
     0
 49
1.27
 74
     0
 49
-1.27
 74
     0
  0
LTYPE
  5
6C
330
5
100
AcDbSymbolTableRecord
100
AcDbLinetypeTableRecord
  2
CENTER
 70
     0
  3
Center ____ _ ____ _ ____ _ ____ _ ____ _ ____
 72
    65
 73
     4
 40
10.16
 49
6.35
 74
     0
 49
-1.27
 74
     0
 49
1.27
 74
     0
 49
-1.27
 74
     0
  0
LTYPE
  5
6D
330
5
100
AcDbSymbolTableRecord
100
AcDbLinetypeTableRecord
  2
CENTERX2
 70
     0
  3
Center (2x) ________  __  ________  __  _____
 72
    65
 73
     4
 40
20.32
 49
12.7
 74
     0
 49
-2.54
 74
     0
 49
2.54
 74
     0
 49
-2.54
 74
     0
  0
LTYPE
  5
6E
330
5
100
AcDbSymbolTableRecord
100
AcDbLinetypeTableRecord
  2
DOT2
 70
     0
  3
Dot (.5x) ........................................
 72
    65
 73
     2
 40
0.635
 49
0.0
 74
     0
 49
-0.635
 74
     0
  0
ENDTAB
  0
TABLE
  2
LAYER
  5
2
330
0
100
AcDbSymbolTable
 70
    18
  0
LAYER
  5
10
330
2
100
AcDbSymbolTableRecord
100
AcDbLayerTableRecord
  2
0
 70
     0
 62
     7
  6
Continuous
370
    -3
390
F
  0
LAYER
  5
6F
330
2
100
AcDbSymbolTableRecord
100
AcDbLayerTableRecord
  2
FORMAT
 70
     0
 62
     2
  6
Continuous
370
    -3
390
F
  0
LAYER
  5
70
330
2
100
AcDbSymbolTableRecord
100
AcDbLayerTableRecord
  2
외형선
 70
     0
 62
     4
  6
Continuous
370
    30
390
F
  0
LAYER
  5
71
330
2
100
AcDbSymbolTableRecord
100
AcDbLayerTableRecord
  2
숨은선
 70
     0
 62
     2
  6
HIDDEN
370
    15
390
F
  0
LAYER
  5
72
330
2
100
AcDbSymbolTableRecord
100
AcDbLayerTableRecord
  2
중심선
 70
     0
 62
     1
  6
CENTERX2
370
    -3
390
F
  0
LAYER
  5
73
330
2
100
AcDbSymbolTableRecord
100
AcDbLayerTableRecord
  2
파단선
 70
     0
 62
     4
  6
Continuous
370
    -3
390
F
  0
LAYER
  5
74
330
2
100
AcDbSymbolTableRecord
100
AcDbLayerTableRecord
  2
해칭선
 70
     0
 62
   100
  6
Continuous
370
    -3
390
F
  0
LAYER
  5
75
330
2
100
AcDbSymbolTableRecord
100
AcDbLayerTableRecord
  2
가는실선
 70
     0
 62
     4
  6
Continuous
370
    -3
390
F
  0
LAYER
  5
76
330
2
100
AcDbSymbolTableRecord
100
AcDbLayerTableRecord
  2
치수_보조선
 70
     0
 62
     4
  6
Continuous
370
    -3
390
F
  0
LAYER
  5
77
330
2
100
AcDbSymbolTableRecord
100
AcDbLayerTableRecord
  2
치수문자_일반주서
 70
     0
 62
     7
  6
Continuous
370
    15
390
F
  0
LAYER
  5
78
330
2
100
AcDbSymbolTableRecord
100
AcDbLayerTableRecord
  2
개별주서
 70
     0
 62
   100
  6
Continuous
370
    30
390
F
  0
LAYER
  5
79
330
2
100
AcDbSymbolTableRecord
100
AcDbLayerTableRecord
  2
중간선
 70
     0
 62
     2
  6
Continuous
370
    15
390
F
  0
LAYER
  5
7A
330
2
100
AcDbSymbolTableRecord
100
AcDbLayerTableRecord
  2
윤곽선
 70
     0
 62
     3
  6
Continuous
370
    40
390
F
  0
LAYER
  5
7B
330
2
100
AcDbSymbolTableRecord
100
AcDbLayerTableRecord
  2
중심마크
 70
     0
 62
   100
  6
Continuous
370
    30
390
F
  0
LAYER
  5
7C
330
2
100
AcDbSymbolTableRecord
100
AcDbLayerTableRecord
  2
가상선
 70
     0
 62
     4
  6
PHANTOM
370
    -3
390
F
  0
LAYER
  5
7D
330
2
100
AcDbSymbolTableRecord
100
AcDbLayerTableRecord
  2
특수지정선
 70
     0
 62
     5
  6
CENTERX2
370
    60
390
F
  0
LAYER
  5
7E
330
2
100
AcDbSymbolTableRecord
100
AcDbLayerTableRecord
  2
참조1
 70
     0
 62
    -4
  6
Continuous
370
    -3
390
F
  0
LAYER
  5
151
330
2
100
AcDbSymbolTableRecord
100
AcDbLayerTableRecord
  2
Defpoints
 70
     0
 62
     7
  6
Continuous
290
     0
370
    -3
390
F
  0
ENDTAB
  0
TABLE
  2
STYLE
  5
3
330
0
100
AcDbSymbolTable
 70
     2
  0
STYLE
  5
11
330
3
100
AcDbSymbolTableRecord
100
AcDbTextStyleTableRecord
  2
Standard
 70
     0
 40
0.0
 41
1.0
 50
0.0
 71
     0
 42
3.5
  3
txt
  4

  0
STYLE
  5
94
330
3
100
AcDbSymbolTableRecord
100
AcDbTextStyleTableRecord
  2
SLDTEXTSTYLE0
 70
     0
 40
0.0
 41
0.75
 50
0.0
 71
     0
 42
3.5
  3
TXT
  4

  0
ENDTAB
  0
TABLE
  2
VIEW
  5
6
330
0
100
AcDbSymbolTable
 70
     0
  0
ENDTAB
  0
TABLE
  2
UCS
  5
7
330
0
100
AcDbSymbolTable
 70
     0
  0
ENDTAB
  0
TABLE
  2
APPID
  5
9
330
0
100
AcDbSymbolTable
 70
     2
  0
APPID
  5
12
330
9
100
AcDbSymbolTableRecord
100
AcDbRegAppTableRecord
  2
ACAD
 70
     0
  0
APPID
  5
158
330
9
100
AcDbSymbolTableRecord
100
AcDbRegAppTableRecord
  2
PE_URL
 70
     0
  0
ENDTAB
  0
TABLE
  2
DIMSTYLE
  5
A
330
0
100
AcDbSymbolTable
 70
     3
100
AcDbDimStyleTable
  0
DIMSTYLE
105
27
330
A
100
AcDbSymbolTableRecord
100
AcDbDimStyleTableRecord
  2
ISO-25
 70
     0
 41
2.5
 42
0.625
 43
3.75
 44
1.25
 73
     0
 74
     0
 77
     1
 78
     8
140
2.5
141
2.5
143
0.03937007874016
147
0.625
171
     3
172
     1
178
     0
271
     2
272
     2
274
     3
278
    44
283
     0
284
     8
340
11
  0
DIMSTYLE
105
CF
102
{ACAD_REACTORS
330
CE
330
E3
330
10C
330
F8
102
}
330
A
100
AcDbSymbolTableRecord
100
AcDbDimStyleTableRecord
  2
SLDDIMSTYLE0
 70
     0
 41
3.302
 44
0.0
 45
0.000000001
 73
     0
 74
     0
 77
     1
 78
    12
 79
     3
140
3.5
143
0.0393700787401575
147
0.875
148
0.000000001
170
     1
172
     1
173
     1
178
     0
271
     2
272
     2
276
     2
284
    12
289
     0
340
94
  0
DIMSTYLE
105
F9
330
A
100
AcDbSymbolTableRecord
100
AcDbDimStyleTableRecord
  2
SLDDIMSTYLE1
 70
     0
 41
3.302
 44
0.0
 45
0.000000001
 73
     0
 74
     0
 77
     1
 78
     4
 79
     1
140
3.5
143
0.0393700787401575
147
0.875
148
0.000000001
170
     1
173
     1
178
     0
271
     2
272
     2
276
     2
284
    12
340
94
  0
ENDTAB
  0
TABLE
  2
BLOCK_RECORD
  5
1
330
0
100
AcDbSymbolTable
 70
     9
  0
BLOCK_RECORD
  5
1F
330
1
100
AcDbSymbolTableRecord
100
AcDbBlockTableRecord
  2
*Model_Space
340
22
  0
BLOCK_RECORD
  5
1B
330
1
100
AcDbSymbolTableRecord
100
AcDbBlockTableRecord
  2
*Paper_Space
340
1E
  0
BLOCK_RECORD
  5
23
330
1
100
AcDbSymbolTableRecord
100
AcDbBlockTableRecord
  2
*Paper_Space0
340
26
  0
BLOCK_RECORD
  5
7F
330
1
100
AcDbSymbolTableRecord
100
AcDbBlockTableRecord
  2
블럭10
340
0
102
{BLKREFS
331
C7
102
}
  0
BLOCK_RECORD
  5
D0
330
1
100
AcDbSymbolTableRecord
100
AcDbBlockTableRecord
  2
_D
340
0
  0
BLOCK_RECORD
  5
E4
330
1
100
AcDbSymbolTableRecord
100
AcDbBlockTableRecord
  2
_D_1
340
0
  0
BLOCK_RECORD
  5
FA
330
1
100
AcDbSymbolTableRecord
100
AcDbBlockTableRecord
  2
_D_2
340
0
  0
BLOCK_RECORD
  5
10D
330
1
100
AcDbSymbolTableRecord
100
AcDbBlockTableRecord
  2
_D_3
340
0
  0
BLOCK_RECORD
  5
127
330
1
100
AcDbSymbolTableRecord
100
AcDbBlockTableRecord
  2
SW_DOWELSYMBOL_0
340
0
102
{BLKREFS
331
12D
102
}
  0
BLOCK_RECORD
  5
18A
330
1
100
AcDbSymbolTableRecord
100
AcDbBlockTableRecord
  2
*D7
340
0
  0
BLOCK_RECORD
  5
19C
330
1
100
AcDbSymbolTableRecord
100
AcDbBlockTableRecord
  2
*D8
340
0
  0
ENDTAB
  0
ENDSEC
  0
SECTION
  2
BLOCKS
  0
BLOCK
  5
20
330
1F
100
AcDbEntity
  8
0
100
AcDbBlockBegin
  2
*Model_Space
 70
     0
 10
0.0
 20
0.0
 30
0.0
  3
*Model_Space
  1
*Model_Space
  0
ENDBLK
  5
21
330
1F
100
AcDbEntity
  8
0
100
AcDbBlockEnd
  0
BLOCK
  5
1C
330
1B
100
AcDbEntity
 67
     1
  8
0
100
AcDbBlockBegin
  2
*Paper_Space
 70
     0
 10
0.0
 20
0.0
 30
0.0
  3
*Paper_Space
  1
*Paper_Space
  0
ENDBLK
  5
1D
330
1B
100
AcDbEntity
 67
     1
  8
0
100
AcDbBlockEnd
  0
BLOCK
  5
24
330
23
100
AcDbEntity
  8
0
100
AcDbBlockBegin
  2
*Paper_Space0
 70
     0
 10
0.0
 20
0.0
 30
0.0
  3
*Paper_Space0
  1
*Paper_Space0
  0
ENDBLK
  5
25
330
23
100
AcDbEntity
  8
0
100
AcDbBlockEnd
  0
BLOCK
  5
80
330
7F
100
AcDbEntity
  8
0
100
AcDbBlockBegin
  2
블럭10
 70
     2
 10
0.0
 20
0.0
 30
0.0
  3
블럭10
  1
블럭10
  0
ELLIPSE
  5
82
330
7F
100
AcDbEntity
  8
중심선
100
AcDbEllipse
 10
20.54032771741204
 20
12.0471743016438
 30
0.0
 11
6.600054785286829
 21
-1.261213355974178E-13
 31
0.0
210
0.0
220
0.0
230
1.0
 40
0.636358354079598
 41
0.9219305317359503
 42
6.513795318482858
  0
ELLIPSE
  5
83
330
7F
100
AcDbEntity
  8
중심선
100
AcDbEllipse
 10
20.54032771746488
 20
12.04717430159265
 30
0.0
 11
3.960054785062283
 21
1.540847449632565E-10
 31
0.0
210
0.0
220
0.0
230
1.0
 40
0.3939339440162632
 41
1.131841032648279
 42
5.62031148352944
  0
LINE
  5
84
330
7F
100
AcDbEntity
  8
중심선
100
AcDbLine
 10
2.268634060543552
 20
16.24717430164393
 30
0.0
 11
5.714909304380834
 21
16.24717430164393
 31
0.0
  0
LINE
  5
85
330
7F
100
AcDbEntity
  8
중심선
100
AcDbLine
 10
5.245725140726316
 20
7.84717430164391
 30
0.0
 11
8.692000384563599
 21
7.84717430164391
 31
0.0
  0
LINE
  5
86
330
7F
100
AcDbEntity
  8
중심선
100
AcDbLine
 10
15.74043728645272
 20
16.24717430164393
 30
0.0
 11
8.692000384563599
 21
7.84717430164391
 31
0.0
  0
LINE
  5
87
330
7F
100
AcDbEntity
  8
중심선
100
AcDbLine
 10
0.1404042013395286
 20
13.71084872107135
 30
0.0
 11
3.58671253028996
 21
13.71088815037384
 31
0.0
  0
LINE
  5
88
330
7F
100
AcDbEntity
  8
중심선
100
AcDbLine
 10
2.750260043222114
 20
10.84717430164391
 30
0.0
 11
6.196535287059397
 21
10.84717430164391
 31
0.0
  0
LINE
  5
89
330
7F
100
AcDbEntity
  8
중심선
100
AcDbLine
 10
12.29416204261559
 20
16.24717430164393
 30
0.0
 11
5.245725140726316
 21
7.84717430164391
 31
0.0
  0
LINE
  5
8A
330
7F
100
AcDbEntity
  8
중심선
100
AcDbLine
 10
10.72767329541681
 20
16.24717430164393
 30
0.0
 11
6.196535287059397
 21
10.84717430164391
 31
0.0
  0
LINE
  5
8B
330
7F
100
AcDbEntity
  8
중심선
100
AcDbLine
 10
7.28139805157953
 20
16.24717430164393
 30
0.0
 11
2.750260043222114
 21
10.84717430164391
 31
0.0
  0
LINE
  5
8C
330
7F
100
AcDbEntity
  8
중심선
100
AcDbLine
 10
5.714909304380834
 20
16.24717430164393
 30
0.0
 11
3.58671253028996
 21
13.71088815037384
 31
0.0
  0
LINE
  5
8D
330
7F
100
AcDbEntity
  8
중심선
100
AcDbLine
 10
2.268634060543552
 20
16.24717430164393
 30
0.0
 11
0.1404042013395286
 21
13.71084872107135
 31
0.0
  0
LINE
  5
8E
330
7F
100
AcDbEntity
  8
중심선
100
AcDbLine
 10
7.28139805157953
 20
16.24717430164393
 30
0.0
 11
10.72767329541681
 21
16.24717430164393
 31
0.0
  0
LINE
  5
8F
330
7F
100
AcDbEntity
  8
중심선
100
AcDbLine
 10
12.29416204261559
 20
16.24717430164393
 30
0.0
 11
15.74043728645272
 21
16.24717430164393
 31
0.0
  0
LINE
  5
90
330
7F
100
AcDbEntity
  8
중심선
100
AcDbLine
 10
19.22036997980202
 20
11.08717430171403
 30
0.0
 11
23.66174974927406
 21
11.08717430171406
 31
0.0
  0
LINE
  5
91
330
7F
100
AcDbEntity
  8
중심선
100
AcDbLine
 10
19.22039502424796
 20
13.00717430171391
 30
0.0
 11
19.22036997980202
 21
11.08717430171403
 31
0.0
  0
LINE
  5
92
330
7F
100
AcDbEntity
  8
중심선
100
AcDbLine
 10
19.22039502424796
 20
13.00717430171391
 30
0.0
 11
26.96566020931264
 21
13.00717430171391
 31
0.0
  0
LINE
  5
93
330
7F
100
AcDbEntity
  8
중심선
100
AcDbLine
 10
22.22332737316547
 20
13.45928029700563
 30
0.0
 11
24.52862924686651
 21
15.39360700705356
 31
0.0
  0
ATTDEF
  5
95
330
7F
100
AcDbEntity
  8
FORMAT
 62
     2
100
AcDbText
 10
4.408487351596664
 20
2.075366912832191
 30
0.0
 40
4.233333333333333
  1
E1002006
 41
0.75
  7
SLDTEXTSTYLE0
 11
4.408487351596664
 21
-0.0412997538344756
 31
0.0
100
AcDbAttributeDefinition
  3

  2
AUTOATTR0
 70
     0
 74
     1
  0
ENDBLK
  5
81
330
7F
100
AcDbEntity
  8
0
100
AcDbBlockEnd
  0
BLOCK
  5
D1
330
D0
100
AcDbEntity
  8
0
100
AcDbBlockBegin
  2
_D
 70
     0
 10
0.0
 20
0.0
 30
0.0
  3
_D
  1
_D
  0
LINE
  5
D3
330
D0
100
AcDbEntity
  8
치수문자_일반주서
 62
     0
370
    -2
100
AcDbLine
 10
25.4625
 20
1.186246585538414
 30
0.0
 11
54.84179843660148
 21
1.186246585538523
 31
0.0
  0
LINE
  5
D4
330
D0
100
AcDbEntity
  8
치수문자_일반주서
 62
     0
370
    -2
100
AcDbLine
 10
25.4625
 20
-1.186246585538414
 30
0.0
 11
54.84179843660149
 21
-1.186246585538303
 31
0.0
  0
LINE
  5
D5
330
D0
100
AcDbEntity
  8
치수문자_일반주서
 62
     0
370
    -2
100
AcDbLine
 10
54.84179843660148
 20
1.186246585538523
 30
0.0
 11
54.8417984366014
 21
27.31562500000011
 31
0.0
  0
LINE
  5
D6
330
D0
100
AcDbEntity
  8
치수문자_일반주서
 62
     0
370
    -2
100
AcDbLine
 10
54.84179843660148
 20
1.186246585538523
 30
0.0
 11
54.84179843660149
 21
-1.186246585538303
 31
0.0
  0
LINE
  5
D7
330
D0
100
AcDbEntity
  8
치수문자_일반주서
 62
     0
370
    -2
100
AcDbLine
 10
54.84179843660147
 20
3.686246585538523
 30
0.0
 11
54.84179843660147
 21
6.186246585538523
 31
0.0
  0
LINE
  5
D8
330
D0
100
AcDbEntity
  8
치수문자_일반주서
 62
     0
370
    -2
100
AcDbLine
 10
54.84179843660149
 20
-3.686246585538303
 30
0.0
 11
54.8417984366015
 21
-6.186246585538303
 31
0.0
  0
SOLID
  5
D9
330
D0
100
AcDbEntity
  8
치수문자_일반주서
 62
     0
100
AcDbTrace
 10
54.42513176993481
 20
3.686246585538522
 30
0.0
 11
55.25846510326814
 21
3.686246585538524
 31
0.0
 12
54.84179843660148
 22
1.186246585538523
 32
0.0
 13
54.84179843660148
 23
1.186246585538523
 33
0.0
  0
SOLID
  5
DA
330
D0
100
AcDbEntity
  8
치수문자_일반주서
 62
     0
100
AcDbTrace
 10
55.25846510326816
 20
-3.686246585538302
 30
0.0
 11
54.42513176993483
 21
-3.686246585538304
 31
0.0
 12
54.84179843660149
 22
-1.186246585538303
 32
0.0
 13
54.84179843660149
 23
-1.186246585538303
 33
0.0
  0
MTEXT
  5
DB
330
D0
100
AcDbEntity
  8
치수문자_일반주서
 62
     0
100
AcDbMText
 10
51.46679843660143
 20
16.7531250000001
 30
0.0
 40
2.5
 41
0.0
 71
     2
 72
     1
  1
\A1;%%c2.37 [3/32]
  7
SLDTEXTSTYLE0
 11
-2.994920046229675E-15
 21
1.0
 31
0.0
 73
     1
 44
1.0
  0
POINT
  5
DC
330
D0
100
AcDbEntity
  8
Defpoints
 62
     0
100
AcDbPoint
 10
25.4
 20
1.186246585538414
 30
0.0
  0
POINT
  5
DD
330
D0
100
AcDbEntity
  8
Defpoints
 62
     0
100
AcDbPoint
 10
25.4
 20
-1.186246585538414
 30
0.0
  0
POINT
  5
DE
330
D0
100
AcDbEntity
  8
Defpoints
 62
     0
100
AcDbPoint
 10
54.84179843660149
 20
-1.186246585538304
 30
0.0
  0
ENDBLK
  5
D2
330
D0
100
AcDbEntity
  8
0
100
AcDbBlockEnd
  0
BLOCK
  5
E5
330
E4
100
AcDbEntity
  8
0
100
AcDbBlockBegin
  2
_D_1
 70
     0
 10
0.0
 20
0.0
 30
0.0
  3
_D_1
  1
_D_1
  0
LINE
  5
E7
330
E4
100
AcDbEntity
  8
치수문자_일반주서
 62
     0
370
    -2
100
AcDbLine
 10
25.39999999999999
 20
1.248746585538414
 30
0.0
 11
25.39999999999999
 21
10.38125000000001
 31
0.0
  0
LINE
  5
E8
330
E4
100
AcDbEntity
  8
치수문자_일반주서
 62
     0
370
    -2
100
AcDbLine
 10
21.82812500000001
 20
1.217013154662294
 30
0.0
 11
21.82812500000001
 21
10.38125000000001
 31
0.0
  0
LINE
  5
E9
330
E4
100
AcDbEntity
  8
치수문자_일반주서
 62
     0
370
    -2
100
AcDbLine
 10
25.39999999999999
 20
10.38125000000001
 30
0.0
 11
49.64999999999999
 21
10.38125000000001
 31
0.0
  0
LINE
  5
EA
330
E4
100
AcDbEntity
  8
치수문자_일반주서
 62
     0
370
    -2
100
AcDbLine
 10
25.39999999999999
 20
10.38125000000001
 30
0.0
 11
21.82812500000001
 21
10.38125000000001
 31
0.0
  0
LINE
  5
EB
330
E4
100
AcDbEntity
  8
치수문자_일반주서
 62
     0
370
    -2
100
AcDbLine
 10
27.89999999999999
 20
10.38125000000001
 30
0.0
 11
30.39999999999999
 21
10.38125000000001
 31
0.0
  0
LINE
  5
EC
330
E4
100
AcDbEntity
  8
치수문자_일반주서
 62
     0
370
    -2
100
AcDbLine
 10
19.32812500000001
 20
10.38125000000001
 30
0.0
 11
16.82812500000001
 21
10.38125000000001
 31
0.0
  0
SOLID
  5
ED
330
E4
100
AcDbEntity
  8
치수문자_일반주서
 62
     0
100
AcDbTrace
 10
27.89999999999999
 20
10.79791666666668
 30
0.0
 11
27.89999999999999
 21
9.964583333333344
 31
0.0
 12
25.39999999999999
 22
10.38125000000001
 32
0.0
 13
25.39999999999999
 23
10.38125000000001
 33
0.0
  0
SOLID
  5
EE
330
E4
100
AcDbEntity
  8
치수문자_일반주서
 62
     0
100
AcDbTrace
 10
19.32812500000001
 20
9.964583333333344
 30
0.0
 11
19.32812500000001
 21
10.79791666666668
 31
0.0
 12
21.82812500000001
 22
10.38125000000001
 32
0.0
 13
21.82812500000001
 23
10.38125000000001
 33
0.0
  0
MTEXT
  5
EF
330
E4
100
AcDbEntity
  8
치수문자_일반주서
 62
     0
100
AcDbMText
 10
40.02499999999999
 20
13.75625000000001
 30
0.0
 40
2.5
 41
0.0
 71
     2
 72
     1
  1
\A1;3.57 [9/64]
  7
SLDTEXTSTYLE0
 73
     1
 44
1.0
  0
POINT
  5
F0
330
E4
100
AcDbEntity
  8
Defpoints
 62
     0
100
AcDbPoint
 10
25.39999999999999
 20
1.186246585538414
 30
0.0
  0
POINT
  5
F1
330
E4
100
AcDbEntity
  8
Defpoints
 62
     0
100
AcDbPoint
 10
21.82812500000001
 20
1.154513154662294
 30
0.0
  0
POINT
  5
F2
330
E4
100
AcDbEntity
  8
Defpoints
 62
     0
100
AcDbPoint
 10
21.82812500000001
 20
10.38125000000001
 30
0.0
  0
ENDBLK
  5
E6
330
E4
100
AcDbEntity
  8
0
100
AcDbBlockEnd
  0
BLOCK
  5
FB
330
FA
100
AcDbEntity
  8
0
100
AcDbBlockBegin
  2
_D_2
 70
     0
 10
0.0
 20
0.0
 30
0.0
  3
_D_2
  1
_D_2
  0
LINE
  5
FD
330
FA
100
AcDbEntity
  8
치수문자_일반주서
 62
     0
370
    -2
100
AcDbLine
 10
25.39999999999999
 20
1.248746585538414
 30
0.0
 11
25.39999999999999
 21
18.38125000000001
 31
0.0
  0
LINE
  5
FE
330
FA
100
AcDbEntity
  8
치수문자_일반주서
 62
     0
370
    -2
100
AcDbLine
 10
-25.4
 20
1.248746585538405
 30
0.0
 11
-25.4
 21
18.38125000000001
 31
0.0
  0
LINE
  5
FF
330
FA
100
AcDbEntity
  8
치수문자_일반주서
 62
     0
370
    -2
100
AcDbLine
 10
22.89999999999999
 20
18.38125000000001
 30
0.0
 11
-22.9
 21
18.38125000000001
 31
0.0
  0
SOLID
  5
100
330
FA
100
AcDbEntity
  8
치수문자_일반주서
 62
     0
100
AcDbTrace
 10
22.89999999999999
 20
17.96458333333334
 30
0.0
 11
22.89999999999999
 21
18.79791666666668
 31
0.0
 12
25.39999999999999
 22
18.38125000000001
 32
0.0
 13
25.39999999999999
 23
18.38125000000001
 33
0.0
  0
SOLID
  5
101
330
FA
100
AcDbEntity
  8
치수문자_일반주서
 62
     0
100
AcDbTrace
 10
-22.9
 20
18.79791666666668
 30
0.0
 11
-22.9
 21
17.96458333333334
 31
0.0
 12
-25.4
 22
18.38125000000001
 32
0.0
 13
-25.4
 23
18.38125000000001
 33
0.0
  0
MTEXT
  5
102
330
FA
100
AcDbEntity
  8
치수문자_일반주서
 62
     0
100
AcDbMText
 10
-1.296159543218771
 20
21.75625000000001
 30
0.0
 40
2.5
 41
0.0
 71
     2
 72
     1
  1
\A1;50.8 [2]
  7
SLDTEXTSTYLE0
 73
     1
 44
1.0
  0
POINT
  5
103
330
FA
100
AcDbEntity
  8
Defpoints
 62
     0
100
AcDbPoint
 10
25.39999999999999
 20
1.186246585538414
 30
0.0
  0
POINT
  5
104
330
FA
100
AcDbEntity
  8
Defpoints
 62
     0
100
AcDbPoint
 10
-25.4
 20
1.186246585538405
 30
0.0
  0
POINT
  5
105
330
FA
100
AcDbEntity
  8
Defpoints
 62
     0
100
AcDbPoint
 10
-25.4
 20
18.38125000000001
 30
0.0
  0
ENDBLK
  5
FC
330
FA
100
AcDbEntity
  8
0
100
AcDbBlockEnd
  0
BLOCK
  5
10E
330
10D
100
AcDbEntity
  8
0
100
AcDbBlockBegin
  2
_D_3
 70
     0
 10
0.0
 20
0.0
 30
0.0
  3
_D_3
  1
_D_3
  0
LINE
  5
110
330
10D
100
AcDbEntity
  8
치수문자_일반주서
 62
     0
370
    -2
100
AcDbLine
 10
-16.44715200723828
 20
2.381250000000006
 30
0.0
 11
-33.40000000000002
 21
2.381249999999943
 31
0.0
  0
LINE
  5
111
330
10D
100
AcDbEntity
  8
치수문자_일반주서
 62
     0
370
    -2
100
AcDbLine
 10
-16.44715200723828
 20
-2.381250000000005
 30
0.0
 11
-33.40000000000001
 21
-2.381250000000069
 31
0.0
  0
LINE
  5
112
330
10D
100
AcDbEntity
  8
치수문자_일반주서
 62
     0
370
    -2
100
AcDbLine
 10
-33.40000000000002
 20
2.381249999999943
 30
0.0
 11
-33.40000000000009
 21
27.88124999999998
 31
0.0
  0
LINE
  5
113
330
10D
100
AcDbEntity
  8
치수문자_일반주서
 62
     0
370
    -2
100
AcDbLine
 10
-33.40000000000002
 20
2.381249999999943
 30
0.0
 11
-33.40000000000001
 21
-2.381250000000069
 31
0.0
  0
LINE
  5
114
330
10D
100
AcDbEntity
  8
치수문자_일반주서
 62
     0
370
    -2
100
AcDbLine
 10
-33.40000000000003
 20
4.881249999999943
 30
0.0
 11
-33.40000000000003
 21
7.381249999999943
 31
0.0
  0
LINE
  5
115
330
10D
100
AcDbEntity
  8
치수문자_일반주서
 62
     0
370
    -2
100
AcDbLine
 10
-33.4
 20
-4.881250000000069
 30
0.0
 11
-33.39999999999999
 21
-7.381250000000069
 31
0.0
  0
SOLID
  5
116
330
10D
100
AcDbEntity
  8
치수문자_일반주서
 62
     0
100
AcDbTrace
 10
-33.81666666666669
 20
4.881249999999942
 30
0.0
 11
-32.98333333333336
 21
4.881249999999944
 31
0.0
 12
-33.40000000000002
 22
2.381249999999943
 32
0.0
 13
-33.40000000000002
 23
2.381249999999943
 33
0.0
  0
SOLID
  5
117
330
10D
100
AcDbEntity
  8
치수문자_일반주서
 62
     0
100
AcDbTrace
 10
-32.98333333333333
 20
-4.881250000000068
 30
0.0
 11
-33.81666666666666
 21
-4.88125000000007
 31
0.0
 12
-33.40000000000001
 22
-2.381250000000069
 32
0.0
 13
-33.40000000000001
 23
-2.381250000000069
 33
0.0
  0
MTEXT
  5
118
330
10D
100
AcDbEntity
  8
치수문자_일반주서
 62
     0
100
AcDbMText
 10
-36.77500000000006
 20
17.63124999999997
 30
0.0
 40
2.5
 41
0.0
 71
     2
 72
     1
  1
\A1;%%c4.76 [3/16]
  7
SLDTEXTSTYLE0
 11
-2.983906501879679E-15
 21
1.0
 31
0.0
 73
     1
 44
1.0
  0
POINT
  5
1B7
330
10D
100
AcDbEntity
  8
Defpoints
 62
     0
100
AcDbPoint
 10
-16.38465200723828
 20
2.381250000000007
 30
0.0
  0
POINT
  5
1B8
330
10D
100
AcDbEntity
  8
Defpoints
 62
     0
100
AcDbPoint
 10
-16.38465200723828
 20
-2.381250000000005
 30
0.0
  0
POINT
  5
1B9
330
10D
100
AcDbEntity
  8
Defpoints
 62
     0
100
AcDbPoint
 10
-33.40000000000001
 20
-2.381250000000068
 30
0.0
  0
ENDBLK
  5
10F
330
10D
100
AcDbEntity
  8
0
100
AcDbBlockEnd
  0
BLOCK
  5
128
330
127
100
AcDbEntity
  8
0
100
AcDbBlockBegin
  2
SW_DOWELSYMBOL_0
 70
     0
 10
0.0
 20
0.0
 30
0.0
  3
SW_DOWELSYMBOL_0
  1
SW_DOWELSYMBOL_0
  0
CIRCLE
  5
12A
330
127
100
AcDbEntity
  8
해칭선
 62
     0
100
AcDbCircle
 10
0.0
 20
0.0
 30
0.0
 40
3.0
  0
HATCH
  5
12B
330
127
100
AcDbEntity
  8
0
  6
Continuous
 62
     0
370
     0
100
AcDbHatch
 10
0.0
 20
0.0
 30
0.0
210
0.0
220
0.0
230
1.0
  2
SOLID
 70
     1
 71
     0
 91
        1
 92
        0
 93
        3
 72
     2
 10
0.0
 20
0.0
 40
3.0
 50
0.0
 51
90.0
 73
     1
 72
     1
 10
0.0
 20
3.0
 11
0.0
 21
0.0
 72
     1
 10
0.0
 20
0.0
 11
3.0
 21
0.0
 97
        0
 75
     0
 76
     1
 98
        1
 10
0.0
 20
0.0
  0
HATCH
  5
12C
330
127
100
AcDbEntity
  8
0
  6
Continuous
 62
     0
370
     0
100
AcDbHatch
 10
0.0
 20
0.0
 30
0.0
210
0.0
220
0.0
230
1.0
  2
SOLID
 70
     1
 71
     0
 91
        1
 92
        0
 93
        3
 72
     2
 10
0.0
 20
0.0
 40
3.0
 50
180.0
 51
270.0000000000007
 73
     1
 72
     1
 10
0.0
 20
-3.0
 11
0.0
 21
0.0
 72
     1
 10
0.0
 20
0.0
 11
-3.0
 21
0.0
 97
        0
 75
     0
 76
     1
 98
        1
 10
0.0
 20
0.0
  0
ENDBLK
  5
129
330
127
100
AcDbEntity
  8
0
100
AcDbBlockEnd
  0
BLOCK
  5
18B
330
18A
100
AcDbEntity
  8
0
100
AcDbBlockBegin
  2
*D7
 70
     1
 10
0.0
 20
0.0
 30
0.0
  3
*D7
  1
*D7
  0
LINE
  5
18D
330
18A
100
AcDbEntity
  8
치수문자_일반주서
 62
     0
370
    -2
100
AcDbLine
 10
6.190624999999997
 20
0.3484871582727809
 30
0.0
 11
6.190624999999997
 21
10.27069759097852
 31
0.0
  0
LINE
  5
18E
330
18A
100
AcDbEntity
  8
치수문자_일반주서
 62
     0
370
    -2
100
AcDbLine
 10
5.0
 20
0.2657482930384945
 30
0.0
 11
5.0
 21
10.27069759097852
 31
0.0
  0
LINE
  5
18F
330
18A
100
AcDbEntity
  8
치수문자_일반주서
 62
     0
370
    -2
100
AcDbLine
 10
6.190624999999997
 20
10.27069759097852
 30
0.0
 11
29.190625
 21
10.27069759097852
 31
0.0
  0
LINE
  5
190
330
18A
100
AcDbEntity
  8
치수문자_일반주서
 62
     0
370
    -2
100
AcDbLine
 10
6.190624999999997
 20
10.27069759097852
 30
0.0
 11
5.0
 21
10.27069759097852
 31
0.0
  0
LINE
  5
191
330
18A
100
AcDbEntity
  8
치수문자_일반주서
 62
     0
370
    -2
100
AcDbLine
 10
8.690624999999997
 20
10.27069759097852
 30
0.0
 11
11.190625
 21
10.27069759097852
 31
0.0
  0
LINE
  5
192
330
18A
100
AcDbEntity
  8
치수문자_일반주서
 62
     0
370
    -2
100
AcDbLine
 10
2.5
 20
10.27069759097852
 30
0.0
 11
0.0
 21
10.27069759097852
 31
0.0
  0
SOLID
  5
193
330
18A
100
AcDbEntity
  8
치수문자_일반주서
 62
     0
100
AcDbTrace
 10
8.690624999999997
 20
10.68736425764518
 30
0.0
 11
8.690624999999997
 21
9.85403092431185
 31
0.0
 12
6.190624999999997
 22
10.27069759097852
 32
0.0
 13
6.190624999999997
 23
10.27069759097852
 33
0.0
  0
SOLID
  5
194
330
18A
100
AcDbEntity
  8
치수문자_일반주서
 62
     0
100
AcDbTrace
 10
2.5
 20
9.85403092431185
 30
0.0
 11
2.5
 21
10.68736425764518
 31
0.0
 12
5.0
 22
10.27069759097852
 32
0.0
 13
5.0
 23
10.27069759097852
 33
0.0
  0
MTEXT
  5
195
330
18A
100
AcDbEntity
  8
치수문자_일반주서
 62
     0
100
AcDbMText
 10
20.190625
 20
13.64569759097852
 30
0.0
 40
2.5
 41
0.0
 71
     2
 72
     1
  1
\A1;1.19 [3/64]
  7
SLDTEXTSTYLE0
 73
     1
 44
1.0
  0
POINT
  5
196
330
18A
100
AcDbEntity
  8
Defpoints
 62
     0
100
AcDbPoint
 10
6.190624999999997
 20
0.2859871582727809
 30
0.0
  0
POINT
  5
197
330
18A
100
AcDbEntity
  8
Defpoints
 62
     0
100
AcDbPoint
 10
5.0
 20
0.2032482930384945
 30
0.0
  0
POINT
  5
198
330
18A
100
AcDbEntity
  8
Defpoints
 62
     0
100
AcDbPoint
 10
5.0
 20
10.27069759097852
 30
0.0
  0
ENDBLK
  5
18C
330
18A
100
AcDbEntity
  8
0
100
AcDbBlockEnd
  0
BLOCK
  5
19D
330
19C
100
AcDbEntity
  8
0
100
AcDbBlockBegin
  2
*D8
 70
     1
 10
0.0
 20
0.0
 30
0.0
  3
*D8
  1
*D8
  0
LINE
  5
19F
330
19C
100
AcDbEntity
  8
치수문자_일반주서
 62
     0
370
    -2
100
AcDbLine
 10
53.17571254697604
 20
-4.851770958112106
 30
0.0
 11
53.17571254697604
 21
5.070439474593629
 31
0.0
  0
LINE
  5
1A0
330
19C
100
AcDbEntity
  8
치수문자_일반주서
 62
     0
370
    -2
100
AcDbLine
 10
51.98508754697605
 20
-4.934509823346393
 30
0.0
 11
51.98508754697605
 21
5.070439474593629
 31
0.0
  0
LINE
  5
1A1
330
19C
100
AcDbEntity
  8
치수문자_일반주서
 62
     0
370
    -2
100
AcDbLine
 10
53.17571254697604
 20
5.070439474593629
 30
0.0
 11
76.17571254697604
 21
5.070439474593629
 31
0.0
  0
LINE
  5
1A2
330
19C
100
AcDbEntity
  8
치수문자_일반주서
 62
     0
370
    -2
100
AcDbLine
 10
53.17571254697604
 20
5.070439474593629
 30
0.0
 11
51.98508754697605
 21
5.070439474593629
 31
0.0
  0
LINE
  5
1A3
330
19C
100
AcDbEntity
  8
치수문자_일반주서
 62
     0
370
    -2
100
AcDbLine
 10
55.67571254697604
 20
5.070439474593629
 30
0.0
 11
58.17571254697604
 21
5.070439474593629
 31
0.0
  0
LINE
  5
1A4
330
19C
100
AcDbEntity
  8
치수문자_일반주서
 62
     0
370
    -2
100
AcDbLine
 10
49.48508754697605
 20
5.070439474593629
 30
0.0
 11
46.98508754697605
 21
5.070439474593629
 31
0.0
  0
SOLID
  5
1A5
330
19C
100
AcDbEntity
  8
치수문자_일반주서
 62
     0
100
AcDbTrace
 10
55.67571254697604
 20
5.487106141260296
 30
0.0
 11
55.67571254697604
 21
4.653772807926962
 31
0.0
 12
53.17571254697604
 22
5.070439474593629
 32
0.0
 13
53.17571254697604
 23
5.070439474593629
 33
0.0
  0
SOLID
  5
1A6
330
19C
100
AcDbEntity
  8
치수문자_일반주서
 62
     0
100
AcDbTrace
 10
49.48508754697605
 20
4.653772807926962
 30
0.0
 11
49.48508754697605
 21
5.487106141260296
 31
0.0
 12
51.98508754697605
 22
5.070439474593629
 32
0.0
 13
51.98508754697605
 23
5.070439474593629
 33
0.0
  0
MTEXT
  5
1A7
330
19C
100
AcDbEntity
  8
치수문자_일반주서
 62
     0
100
AcDbMText
 10
67.17571254697604
 20
8.445439474593629
 30
0.0
 40
2.5
 41
0.0
 71
     2
 72
     1
  1
\A1;1.19 [3/64]
  7
SLDTEXTSTYLE0
 73
     1
 44
1.0
  0
POINT
  5
1A8
330
19C
100
AcDbEntity
  8
Defpoints
 62
     0
100
AcDbPoint
 10
53.17571254697604
 20
-4.914270958112106
 30
0.0
  0
POINT
  5
1A9
330
19C
100
AcDbEntity
  8
Defpoints
 62
     0
100
AcDbPoint
 10
51.98508754697605
 20
-4.997009823346393
 30
0.0
  0
POINT
  5
1AA
330
19C
100
AcDbEntity
  8
Defpoints
 62
     0
100
AcDbPoint
 10
51.98508754697605
 20
5.070439474593629
 30
0.0
  0
ENDBLK
  5
19E
330
19C
100
AcDbEntity
  8
0
100
AcDbBlockEnd
  0
ENDSEC
  0
SECTION
  2
ENTITIES
  0
LINE
  5
96
330
1F
100
AcDbEntity
  8
0
  6
Continuous
 62
     1
370
    25
100
AcDbLine
 10
23.66190628861191
 20
-0.3410338828267219
 30
0.0
 11
23.69255006213696
 21
-0.3573167459745645
 31
0.0
1001
PE_URL
1000

  0
LINE
  5
97
330
1F
100
AcDbEntity
  8
0
  6
Continuous
 62
     1
370
    25
100
AcDbLine
 10
24.97557971812937
 20
0.342309149518476
 30
0.0
 11
24.94926987428139
 21
0.3565626143528373
 31
0.0
1001
PE_URL
1000

  0
LINE
  5
98
330
1F
100
AcDbEntity
  8
0
  6
Continuous
 62
     1
370
    25
100
AcDbLine
 10
23.06455915094334
 20
1.190625000000004
 30
0.0
 11
22.33832553218528
 21
1.190625000000004
 31
0.0
1001
PE_URL
1000

  0
LINE
  5
99
330
1F
100
AcDbEntity
  8
0
  6
Continuous
 62
     1
370
    25
100
AcDbLine
 10
22.33832553218526
 20
-1.190624999999996
 30
0.0
 11
23.06455915094334
 21
-1.190624999999996
 31
0.0
1001
PE_URL
1000

  0
LINE
  5
9A
330
1F
100
AcDbEntity
  8
외형선
  6
Continuous
370
    15
100
AcDbLine
 10
16.38465200723828
 20
-2.381250000000001
 30
0.0
 11
20.82812499999999
 21
-1.190624999999995
 31
0.0
  0
LINE
  5
9B
330
1F
100
AcDbEntity
  8
외형선
  6
Continuous
370
    15
100
AcDbLine
 10
20.82812499999999
 20
1.190625000000004
 30
0.0
 11
16.38465200723828
 21
2.381250000000009
 31
0.0
  0
LINE
  5
9C
330
1F
100
AcDbEntity
  8
외형선
  6
Continuous
370
    15
100
AcDbLine
 10
-16.38465200723828
 20
-2.381249999999999
 30
0.0
 11
16.38465200723829
 21
-2.381249999999999
 31
0.0
  0
LINE
  5
9D
330
1F
100
AcDbEntity
  8
외형선
  6
Continuous
370
    15
100
AcDbLine
 10
16.38465200723828
 20
2.381250000000007
 30
0.0
 11
-16.38465200723828
 21
2.381250000000007
 31
0.0
  0
LINE
  5
A0
330
1F
100
AcDbEntity
  8
외형선
  6
Continuous
370
    15
100
AcDbLine
 10
20.82812499999999
 20
-1.190624999999996
 30
0.0
 11
21.32802093675452
 21
-1.190624999999996
 31
0.0
  0
LINE
  5
A1
330
1F
100
AcDbEntity
  8
외형선
  6
Continuous
370
    15
100
AcDbLine
 10
21.32802093675452
 20
1.190625000000004
 30
0.0
 11
20.82812499999999
 21
1.190625000000004
 31
0.0
  0
LINE
  5
A2
330
1F
100
AcDbEntity
  8
0
  6
Continuous
 62
     1
370
    25
100
AcDbLine
 10
25.4
 20
-1.078326856457618
 30
0.0
 11
25.4
 21
0.1020143564576409
 31
0.0
1001
PE_URL
1000

  0
SPLINE
  5
A3
330
1F
100
AcDbEntity
  8
0
  6
Continuous
 62
     1
370
    25
100
AcDbSpline
210
0.0
220
0.0
230
1.0
 70
     8
 71
     3
 72
    22
 73
    18
 74
     0
 42
0.000000001
 43
0.00000001
 40
0.0
 40
0.0
 40
0.0
 40
0.0
 40
0.125
 40
0.125
 40
0.25
 40
0.25
 40
0.375
 40
0.375
 40
0.5
 40
0.5
 40
0.625
 40
0.625
 40
0.75
 40
0.75
 40
0.875
 40
0.875
 40
1.0
 40
1.0
 40
1.0
 40
1.0
 10
25.4
 20
-1.078326856457618
 30
0.0
 10
25.25344827964022
 20
-1.042086235654159
 30
0.0
 10
25.10269158174372
 20
-0.9970661753822928
 30
0.0
 10
24.80318601338327
 20
-0.8922542626031181
 30
0.0
 10
24.65719384075262
 20
-0.8329245320182538
 30
0.0
 10
24.35914132496845
 20
-0.7014559772901958
 30
0.0
 10
24.207910505167
 20
-0.6293366382177252
 30
0.0
 10
23.91156448742784
 20
-0.4774071528702906
 30
0.0
 10
23.76430231857496
 20
-0.3972909084503133
 30
0.0
 10
23.46440942308537
 20
-0.2311285407790353
 30
0.0
 10
23.31638180893738
 20
-0.1459395074739905
 30
0.0
 10
23.02083088095097
 20
0.0252756348172649
 30
0.0
 10
22.86967623584817
 20
0.1120025653157427
 30
0.0
 10
22.57111611794794
 20
0.2816498535696985
 30
0.0
 10
22.42532797776592
 20
0.3642843709204445
 30
0.0
 10
22.12611808005307
 20
0.5239977697187386
 30
0.0
 10
21.97517545676374
 20
0.6005596840543761
 30
0.0
 10
21.82812499999998
 20
0.6712410088339285
 30
0.0
1001
PE_URL
1000

  0
SPLINE
  5
A4
330
1F
100
AcDbEntity
  8
외형선
  6
Continuous
370
    15
100
AcDbSpline
210
0.0
220
0.0
230
1.0
 70
    24
 71
     3
 72
    12
 73
     8
 74
     0
 42
0.000000001
 43
0.00000001
 40
0.0
 40
0.0
 40
0.0
 40
0.0
 40
0.2214248914706151
 40
0.4478392756386914
 40
0.6976460657100874
 40
0.9546972696166713
 40
0.9999999999999999
 40
0.9999999999999999
 40
0.9999999999999999
 40
0.9999999999999999
 10
21.82812500000001
 20
1.154513154662294
 30
0.0
 10
21.82812500000003
 20
1.119411915436572
 30
0.0
 10
21.82812500000009
 20
1.048418480848147
 30
0.0
 10
21.82812499999998
 20
0.9388163072456034
 30
0.0
 10
21.82812499999995
 20
0.829076268807009
 30
0.0
 10
21.82812500000004
 20
0.7493140219360975
 30
0.0
 10
21.828125
 20
0.7118315366799327
 30
0.0
 10
21.82812500000001
 20
0.706215406935681
 30
0.0
  0
SPLINE
  5
A5
330
1F
100
AcDbEntity
  8
0
  6
Continuous
 62
     1
370
    25
100
AcDbSpline
210
0.0
220
0.0
230
1.0
 70
     8
 71
     3
 72
    22
 73
    18
 74
     0
 42
0.000000001
 43
0.00000001
 40
0.0
 40
0.0
 40
0.0
 40
0.0
 40
0.125
 40
0.125
 40
0.25
 40
0.25
 40
0.375
 40
0.375
 40
0.5
 40
0.5
 40
0.625
 40
0.625
 40
0.75
 40
0.75
 40
0.875
 40
0.875
 40
1.0
 40
1.0
 40
1.0
 40
1.0
 10
25.4
 20
0.1020143564576408
 30
0.0
 10
25.25344827964016
 20
0.1871814202964991
 30
0.0
 10
25.1026915817436
 20
0.2723577481768134
 30
0.0
 10
24.80318601338305
 20
0.4367410737435927
 30
0.0
 10
24.65719384075238
 20
0.5154791862916086
 30
0.0
 10
24.35914132496808
 20
0.6647923806355258
 30
0.0
 10
24.20791050516659
 20
0.7351407338276856
 30
0.0
 10
23.91156448742732
 20
0.8623853831873202
 30
0.0
 10
23.76430231857439
 20
0.9196679078966561
 30
0.0
 10
23.46440942308472
 20
1.019635219380512
 30
0.0
 10
23.31638180893668
 20
1.061778442135614
 30
0.0
 10
23.02083088095016
 20
1.128967757622658
 30
0.0
 10
22.86967623584731
 20
1.154198893280748
 30
0.0
 10
22.57111611794704
 20
1.186000882627026
 30
0.0
 10
22.42532797776493
 20
1.192683438521184
 30
0.0
 10
22.12611808005196
 20
1.187477226597709
 30
0.0
 10
21.97517545676261
 20
1.175429954806654
 30
0.0
 10
21.82812499999881
 20
1.15451315467136
 30
0.0
1001
PE_URL
1000

  0
SPLINE
  5
A6
330
1F
100
AcDbEntity
  8
0
  6
Continuous
 62
     1
370
    25
100
AcDbSpline
210
0.0
220
0.0
230
1.0
 70
     8
 71
     3
 72
    11
 73
     7
 74
     0
 42
0.000000001
 43
0.00000001
 40
0.0
 40
0.0
 40
0.0
 40
0.0
 40
0.265891326180252
 40
0.5317049390601464
 40
0.7974256262316657
 40
1.0
 40
1.0
 40
1.0
 40
1.0
 10
21.82812499999999
 20
-0.9833734787376706
 30
0.0
 10
22.05059769235289
 20
-1.045841877375703
 30
0.0
 10
22.49547805392531
 20
-1.170760416720995
 30
0.0
 10
23.16258707406514
 20
-1.207767300591888
 30
0.0
 10
23.77688519580862
 20
-1.139628563813911
 30
0.0
 10
24.16830327492269
 20
-1.020991970939263
 30
0.0
 10
24.33762231941357
 20
-0.9696723318652193
 30
0.0
1001
PE_URL
1000

  0
SPLINE
  5
A7
330
1F
100
AcDbEntity
  8
외형선
  6
Continuous
370
    15
100
AcDbSpline
210
0.0
220
0.0
230
1.0
 70
    24
 71
     3
 72
    15
 73
    11
 74
     0
 42
0.000000001
 43
0.00000001
 40
0.0
 40
0.0
 40
0.0
 40
0.0
 40
0.024933550287571
 40
0.172130428456089
 40
0.3193273066246048
 40
0.4665241847931214
 40
0.6137210629612468
 40
0.7609179411301583
 40
0.9081148192986739
 40
0.9999999999999999
 40
0.9999999999999999
 40
0.9999999999999999
 40
0.9999999999999999
 10
21.82812499999999
 20
0.2753888847844131
 30
0.0
 10
21.82812499999999
 20
0.2744251737422479
 30
0.0
 10
21.82812499999997
 20
0.267772130245332
 30
0.0
 10
21.82812500000003
 20
0.1837672104194741
 30
0.0
 10
21.82812499999997
 20
0.0228664536551265
 30
0.0
 10
21.82812499999999
 20
-0.1944616358118691
 30
0.0
 10
21.82812499999997
 20
-0.4360349392806979
 30
0.0
 10
21.82812500000002
 20
-0.675502548028652
 30
0.0
 10
21.82812499999994
 20
-0.8631397611663791
 30
0.0
 10
21.82812499999998
 20
-0.9499934472888028
 30
0.0
 10
21.828125
 20
-0.9833734787376699
 30
0.0
  0
SPLINE
  5
A8
330
1F
100
AcDbEntity
  8
0
  6
Continuous
 62
     1
370
    25
100
AcDbSpline
210
0.0
220
0.0
230
1.0
 70
     8
 71
     3
 72
    22
 73
    18
 74
     0
 42
0.000000001
 43
0.00000001
 40
0.0
 40
0.0
 40
0.0
 40
0.0
 40
0.125
 40
0.125
 40
0.25
 40
0.25
 40
0.375
 40
0.375
 40
0.5
 40
0.5
 40
0.625
 40
0.625
 40
0.75
 40
0.75
 40
0.875
 40
0.875
 40
1.0
 40
1.0
 40
1.0
 40
1.0
 10
25.4
 20
-1.186246585538406
 30
0.0
 10
25.25344827964016
 20
-1.178922422657917
 30
0.0
 10
25.1026915817436
 20
-1.1622486614088
 30
0.0
 10
24.80318601338305
 20
-1.110971614598586
 30
0.0
 10
24.65719384075238
 20
-1.076688407819682
 30
0.0
 10
24.35914132496808
 20
-0.9914775890972496
 30
0.0
 10
24.20791050516659
 20
-0.9404874519150306
 30
0.0
 10
23.91156448742732
 20
-0.825372641058083
 30
0.0
 10
23.76430231857439
 20
-0.761063743527952
 30
0.0
 10
23.46440942308472
 20
-0.6207665438203391
 30
0.0
 10
23.31638180893668
 20
-0.5454923949268033
 30
0.0
 10
23.02083088095016
 20
-0.3877721178158333
 30
0.0
 10
22.86967623584731
 20
-0.3046473543791014
 30
0.0
 10
22.57111611794704
 20
-0.1355986806300238
 30
0.0
 10
22.42532797776493
 20
-0.0500203158149043
 30
0.0
 10
22.12611808005196
 20
0.1220395543614792
 30
0.0
 10
21.97517545676261
 20
0.2080285416908739
 30
0.0
 10
21.82812499999881
 20
0.2910107666664413
 30
0.0
1001
PE_URL
1000

  0
LINE
  5
A9
330
1F
100
AcDbEntity
  8
0
  6
Continuous
 62
     1
370
    25
100
AcDbLine
 10
25.4
 20
-1.186246585538406
 30
0.0
 11
25.4
 21
-1.078326856457618
 31
0.0
1001
PE_URL
1000

  0
LINE
  5
AA
330
1F
100
AcDbEntity
  8
외형선
  6
Continuous
370
    15
100
AcDbLine
 10
21.828125
 20
0.2910107666657636
 30
0.0
 11
21.82812499999999
 21
0.6712410088339255
 31
0.0
  0
SPLINE
  5
AB
330
1F
100
AcDbEntity
  8
0
  6
Continuous
 62
     1
370
    25
100
AcDbSpline
210
0.0
220
0.0
230
1.0
 70
     8
 71
     3
 72
    12
 73
     8
 74
     0
 42
0.000000001
 43
0.00000001
 40
0.0
 40
0.0
 40
0.0
 40
0.0
 40
0.0420005315896333
 40
0.3274416009937983
 40
0.5514670037108831
 40
0.7753356444750218
 40
1.0
 40
1.0
 40
1.0
 40
1.0
 10
23.06455915094334
 20
1.182857894746885
 30
0.0
 10
23.09727032889668
 20
1.18534539633015
 30
0.0
 10
23.35229092206649
 20
1.204738281850197
 30
0.0
 10
23.78187721339659
 20
1.129289311627151
 30
0.0
 10
24.35250352823321
 20
0.9770428424282865
 30
0.0
 10
24.87570822570766
 20
0.7686093654566409
 30
0.0
 10
25.22502950544736
 20
0.592824583820817
 30
0.0
 10
25.4
 20
0.5047762685261823
 30
0.0
1001
PE_URL
1000

  0
LINE
  5
AC
330
1F
100
AcDbEntity
  8
0
  6
Continuous
 62
     1
370
    25
100
AcDbLine
 10
25.4
 20
0.1020143564576408
 30
0.0
 11
25.4
 21
0.5047762685261824
 31
0.0
1001
PE_URL
1000

  0
SPLINE
  5
AD
330
1F
100
AcDbEntity
  8
0
  6
Continuous
 62
     1
370
    25
100
AcDbSpline
210
0.0
220
0.0
230
1.0
 70
     8
 71
     3
 72
     9
 73
     5
 74
     0
 42
0.000000001
 43
0.00000001
 40
0.0
 40
0.0
 40
0.0
 40
0.0
 40
0.6281196009253648
 40
1.0
 40
1.0
 40
1.0
 40
1.0
 10
25.4
 20
1.186246585538414
 30
0.0
 10
25.17755504676781
 20
1.166803379209293
 30
0.0
 10
24.8234107836299
 20
1.13584875480261
 30
0.0
 10
24.46930669077748
 20
1.014718353749083
 30
0.0
 10
24.33762231941356
 20
0.969672331865227
 30
0.0
1001
PE_URL
1000

  0
LINE
  5
AE
330
1F
100
AcDbEntity
  8
0
  6
Continuous
 62
     1
370
    25
100
AcDbLine
 10
25.4
 20
0.5047762685261824
 30
0.0
 11
25.4
 21
1.186246585538414
 31
0.0
1001
PE_URL
1000

  0
LINE
  5
AF
330
1F
100
AcDbEntity
  8
0
  6
Continuous
 62
     1
370
    25
100
AcDbLine
 10
22.33832553218526
 20
-1.189559800596103
 30
0.0
 11
21.82812499999881
 21
-1.154513154671354
 31
0.0
1001
PE_URL
1000

  0
LINE
  5
B0
330
1F
100
AcDbEntity
  8
외형선
  6
Continuous
370
    15
100
AcDbLine
 10
21.82812499999999
 20
-1.154513154671522
 30
0.0
 11
21.82812499999999
 21
-0.9833734787376697
 31
0.0
  0
LINE
  5
B1
330
1F
100
AcDbEntity
  8
외형선
  6
Continuous
370
    15
100
AcDbLine
 10
20.82812499999999
 20
0.0000000000000039
 30
0.0
 11
20.82812499999999
 21
1.190625000000004
 31
0.0
  0
LINE
  5
B2
330
1F
100
AcDbEntity
  8
외형선
  6
Continuous
370
    15
100
AcDbLine
 10
20.82812499999999
 20
-1.190624999999996
 30
0.0
 11
20.82812499999999
 21
0.0000000000000039
 31
0.0
  0
LINE
  5
B3
330
1F
100
AcDbEntity
  8
외형선
  6
Continuous
370
    15
100
AcDbLine
 10
16.38465200723828
 20
0.0000000000000039
 30
0.0
 11
16.38465200723828
 21
2.381250000000009
 31
0.0
  0
LINE
  5
B4
330
1F
100
AcDbEntity
  8
외형선
  6
Continuous
370
    15
100
AcDbLine
 10
16.38465200723828
 20
-2.381250000000001
 30
0.0
 11
16.38465200723828
 21
0.0000000000000039
 31
0.0
  0
LINE
  5
B9
330
1F
100
AcDbEntity
  8
외형선
  6
Continuous
370
    15
100
AcDbLine
 10
21.32802093675452
 20
0.8876471176421917
 30
0.0
 11
21.32802093675452
 21
1.190625000000004
 31
0.0
  0
SPLINE
  5
BA
330
1F
100
AcDbEntity
  8
외형선
  6
Continuous
370
    15
100
AcDbSpline
210
0.0
220
0.0
230
1.0
 70
     8
 71
     3
 72
     8
 73
     4
 74
     0
 42
0.000000001
 43
0.00000001
 40
0.0
 40
0.0
 40
0.0
 40
0.0
 40
1.0
 40
1.0
 40
1.0
 40
1.0
 10
21.82812499999999
 20
0.6712410088339243
 30
0.0
 10
21.66352901979263
 20
0.7503557711439447
 30
0.0
 10
21.49549129884054
 20
0.8234323407193143
 30
0.0
 10
21.32802093675452
 20
0.8876418162065273
 30
0.0
  0
SPLINE
  5
BB
330
1F
100
AcDbEntity
  8
외형선
  6
Continuous
370
    15
100
AcDbSpline
210
0.0
220
0.0
230
1.0
 70
     8
 71
     3
 72
     8
 73
     4
 74
     0
 42
0.000000001
 43
0.00000001
 40
0.0
 40
0.0
 40
0.0
 40
0.0
 40
1.0
 40
1.0
 40
1.0
 40
1.0
 10
21.82812499999999
 20
0.2910107666657724
 30
0.0
 10
21.66352901979263
 20
0.3838941276578541
 30
0.0
 10
21.49549129884054
 20
0.4745640044208152
 30
0.0
 10
21.32802093675454
 20
0.5596012448828945
 30
0.0
  0
LINE
  5
BC
330
1F
100
AcDbEntity
  8
외형선
  6
Continuous
370
    15
100
AcDbLine
 10
21.32802093675452
 20
-0.7935177913358492
 30
0.0
 11
21.32802093675452
 21
0.5595966620834317
 31
0.0
  0
SPLINE
  5
BD
330
1F
100
AcDbEntity
  8
외형선
  6
Continuous
370
    15
100
AcDbSpline
210
0.0
220
0.0
230
1.0
 70
     8
 71
     3
 72
     8
 73
     4
 74
     0
 42
0.000000001
 43
0.00000001
 40
0.0
 40
0.0
 40
0.0
 40
0.0
 40
1.0
 40
1.0
 40
1.0
 40
1.0
 10
21.82812499999999
 20
-0.9833734787376706
 30
0.0
 10
21.66352901979263
 20
-0.9293705246059374
 30
0.0
 10
21.49549129884054
 20
-0.865348941048192
 30
0.0
 10
21.32802093675452
 20
-0.7935237216029488
 30
0.0
  0
SPLINE
  5
BE
330
1F
100
AcDbEntity
  8
외형선
  6
Continuous
370
    15
100
AcDbSpline
210
0.0
220
0.0
230
1.0
 70
     8
 71
     3
 72
     8
 73
     4
 74
     0
 42
0.000000001
 43
0.00000001
 40
0.0
 40
0.0
 40
0.0
 40
0.0
 40
1.0
 40
1.0
 40
1.0
 40
1.0
 10
21.82812499999999
 20
-1.154513154671522
 30
0.0
 10
21.66352901979263
 20
-1.131100638336453
 30
0.0
 10
21.49549129884054
 20
-1.096201904406197
 30
0.0
 10
21.32802093675454
 20
-1.050920709354663
 30
0.0
  0
LINE
  5
BF
330
1F
100
AcDbEntity
  8
외형선
  6
Continuous
370
    15
100
AcDbLine
 10
21.32802093675452
 20
-1.190624999999996
 30
0.0
 11
21.32802093675452
 21
-1.050923149621357
 31
0.0
  0
SPLINE
  5
C0
330
1F
100
AcDbEntity
  8
외형선
  6
Continuous
370
    15
100
AcDbSpline
210
0.0
220
0.0
230
1.0
 70
     8
 71
     3
 72
     8
 73
     4
 74
     0
 42
0.000000001
 43
0.00000001
 40
0.0
 40
0.0
 40
0.0
 40
0.0
 40
1.0
 40
1.0
 40
1.0
 40
1.0
 10
21.82812499999999
 20
1.154513154671529
 30
0.0
 10
21.66352901979263
 20
1.131100638336458
 30
0.0
 10
21.49549129884054
 20
1.096201904406202
 30
0.0
 10
21.32802093675454
 20
1.050920709354667
 30
0.0
  0
SPLINE
  5
C1
330
1F
100
AcDbEntity
  8
외형선
  6
Continuous
370
    15
100
AcDbSpline
210
0.0
220
0.0
230
1.0
 70
    24
 71
     3
 72
    15
 73
    11
 74
     0
 42
0.000000001
 43
0.00000001
 40
0.0
 40
0.0
 40
0.0
 40
0.0
 40
0.1081321040864166
 40
0.2550186988965067
 40
0.4019052937076948
 40
0.548791888518332
 40
0.6956784833289714
 40
0.8425650781396106
 40
0.9894516729500933
 40
1.0
 40
1.0
 40
1.0
 40
1.0
 10
21.828125
 20
-0.9833734787376699
 30
0.0
 10
21.828125
 20
-0.9434828489059639
 30
0.0
 10
21.82812499999999
 20
-0.8494048079412387
 30
0.0
 10
21.828125
 20
-0.6494662725435457
 30
0.0
 10
21.82812500000001
 20
-0.4085042402136281
 30
0.0
 10
21.82812500000001
 20
-0.1684814505551824
 30
0.0
 10
21.82812499999995
 20
0.0444142849335099
 30
0.0
 10
21.82812500000001
 20
0.1982054785514258
 30
0.0
 10
21.82812499999998
 20
0.2730499605874321
 30
0.0
 10
21.82812499999999
 20
0.2784988173555163
 30
0.0
 10
21.82812499999999
 20
0.2788638972409614
 30
0.0
  0
SPLINE
  5
C2
330
1F
100
AcDbEntity
  8
외형선
  6
Continuous
370
    15
100
AcDbSpline
210
0.0
220
0.0
230
1.0
 70
    24
 71
     3
 72
    12
 73
     8
 74
     0
 42
0.000000001
 43
0.00000001
 40
0.0
 40
0.0
 40
0.0
 40
0.0
 40
0.1034402539277448
 40
0.3528649146354278
 40
0.6095229074008441
 40
0.8031048487601965
 40
1.0
 40
1.0
 40
1.0
 40
1.0
 10
21.82812499999998
 20
0.7062254069356813
 30
0.0
 10
21.82812499999998
 20
0.719329526060661
 30
0.0
 10
21.828125
 20
0.7640315032970895
 30
0.0
 10
21.82812500000004
 20
0.8528949546370928
 30
0.0
 10
21.82812499999999
 20
0.9592347401762596
 30
0.0
 10
21.82812499999996
 20
1.061285550929395
 30
0.0
 10
21.82812499999998
 20
1.123261996090239
 30
0.0
 10
21.82812499999999
 20
1.154513154671715
 30
0.0
  0
LINE
  5
C3
330
1F
100
AcDbEntity
  8
중심선
 62
     1
100
AcDbLine
 10
-26.90000000000001
 20
0.0
 30
0.0
 11
26.90000000000001
 21
0.0
 31
0.0
  0
LINE
  5
C4
330
1F
100
AcDbEntity
  8
참조1
100
AcDbLine
 10
-0.0000000000000107
 20
0.0
 30
0.0
 11
0.0
 21
-40.0
 31
0.0
  0
LINE
  5
C5
330
1F
100
AcDbEntity
  8
참조1
100
AcDbLine
 10
0.0
 20
-40.0
 30
0.0
 11
-15.15885681430867
 21
-39.99999999999999
 31
0.0
  0
CIRCLE
  5
C6
330
1F
100
AcDbEntity
  8
해칭선
100
AcDbCircle
 10
0.0
 20
0.0
 30
0.0
 40
3.0
  0
INSERT
  5
C7
330
1F
100
AcDbEntity
  8
0
  6
Continuous
 62
     7
100
AcDbBlockReference
 66
     1
  2
블럭10
 10
-13.94027293212521
 20
-52.04717430164393
 30
0.0
  0
ATTRIB
  5
C8
330
C7
100
AcDbEntity
  8
FORMAT
 62
     2
100
AcDbText
 10
-23.12156822086649
 20
-49.97180738881174
 30
0.0
 40
4.233333333333333
  1
E2002006 [ 4 FLUTE ]
 41
0.75
  7
SLDTEXTSTYLE0
 11
-23.12156822086649
 21
-52.08847405547841
 31
0.0
100
AcDbAttribute
  2
AUTOATTR0
 70
     0
 74
     1
  0
SEQEND
  5
C9
330
C7
100
AcDbEntity
  8
0
  6
Continuous
 62
     7
  0
HATCH
  5
CA
330
1F
100
AcDbEntity
  8
중심선
100
AcDbHatch
 10
0.0
 20
0.0
 30
0.0
210
0.0
220
0.0
230
1.0
  2
SOLID
 70
     1
 71
     0
 91
        1
 92
        0
 93
        4
 72
     1
 10
-8.225363627744368
 20
-35.79999999999999
 11
-11.67163887158165
 21
-35.79999999999999
 72
     1
 10
-11.67163887158165
 20
-35.79999999999999
 11
-13.79986873078567
 21
-38.33632558057259
 72
     1
 10
-13.79986873078567
 20
-38.33632558057259
 11
-10.35356040183524
 21
-38.33628615127009
 72
     1
 10
-10.35356040183524
 20
-38.33628615127009
 11
-8.225363627744368
 21
-35.79999999999999
 97
        0
 75
     0
 76
     1
 98
        1
 10
14.09411934298438
 20
-0.0010749287238892
  0
HATCH
  5
CB
330
1F
100
AcDbEntity
  8
중심선
100
AcDbHatch
 10
0.0
 20
0.0
 30
0.0
210
0.0
220
0.0
230
1.0
  2
SOLID
 70
     1
 71
     0
 91
        1
 92
        0
 93
        4
 72
     1
 10
-3.21259963670839
 20
-35.79999999999999
 11
-6.658874880545671
 21
-35.79999999999999
 72
     1
 10
-6.658874880545671
 20
-35.79999999999999
 11
-11.19001288890309
 21
-41.20000000000001
 72
     1
 10
-11.19001288890309
 20
-41.20000000000001
 11
-7.743737645065799
 21
-41.20000000000001
 72
     1
 10
-7.743737645065799
 20
-41.20000000000001
 11
-3.21259963670839
 21
-35.79999999999999
 97
        0
 75
     0
 76
     1
 98
        1
 10
14.09411934298438
 20
-0.0010749287238892
  0
HATCH
  5
CC
330
1F
100
AcDbEntity
  8
중심선
100
AcDbHatch
 10
0.0
 20
0.0
 30
0.0
210
0.0
220
0.0
230
1.0
  2
SOLID
 70
     1
 71
     0
 91
        1
 92
        0
 93
        4
 72
     1
 10
1.80016435432748
 20
-35.79999999999999
 11
-1.646110889509639
 21
-35.79999999999999
 72
     1
 10
-1.646110889509639
 20
-35.79999999999999
 11
-8.69454779139889
 21
-44.20000000000001
 72
     1
 10
-8.69454779139889
 20
-44.20000000000001
 11
-5.248272547561601
 21
-44.20000000000001
 72
     1
 10
-5.248272547561601
 20
-44.20000000000001
 11
1.80016435432748
 21
-35.79999999999999
 97
        0
 75
     0
 76
     1
 98
        1
 10
14.09411934298438
 20
-0.0010749287238892
  0
HATCH
  5
CD
330
1F
100
AcDbEntity
  8
중심선
100
AcDbHatch
 10
0.0
 20
0.0
 30
0.0
210
0.0
220
0.0
230
1.0
  2
SOLID
 70
     1
 71
     0
 91
        1
 92
        0
 93
        6
 72
     3
 10
6.600054785339678
 20
-40.00000000005127
 11
3.960054785062285
 21
1.540882976769353E-10
 40
0.3939339440162626
 50
17.09539180608438
 51
320.0019657685075
 73
     0
 72
     1
 10
8.283054441040274
 20
-38.58789400463827
 11
10.58835631474131
 21
-36.65356729459038
 72
     3
 10
6.600054785286831
 20
-40.00000000000014
 11
6.600054785286829
 21
-1.278976924368180E-13
 40
0.636358354079598
 50
39.99873849337411
 51
368.4976242363724
 73
     1
 72
     1
 10
13.02538727718744
 20
-39.03999999993002
 11
5.280122092122752
 21
-39.03999999992999
 72
     1
 10
5.280122092122753
 20
-39.03999999992999
 11
5.280097047676819
 21
-40.95999999992991
 72
     1
 10
5.280097047676819
 20
-40.95999999992991
 11
9.721476817148856
 21
-40.95999999992988
 97
        0
 75
     0
 76
     1
 98
        1
 10
14.09411934298438
 20
-0.0010749287238892
  0
DIMENSION
  5
CE
330
1F
100
AcDbEntity
  8
치수문자_일반주서
100
AcDbDimension
  2
_D
 10
54.84179843660149
 20
-1.186246585538303
 30
0.0
 11
54.84179843660143
 21
16.75312500000011
 31
0.0
 70
   160
  1
%%c<>
 71
     2
 42
2.372493171076828
 52
-270.0
  3
SLDDIMSTYLE0
100
AcDbAlignedDimension
 13
25.4
 23
1.186246585538414
 33
0.0
 14
25.4
 24
-1.186246585538414
 34
0.0
 50
90.0000000000002
100
AcDbRotatedDimension
1001
PE_URL
1000

1001
ACAD
1000
DSTYLE
1002
{
1070
   171
1070
     8
1070
   273
1070
     7
1070
    41
1040
2.5
1070
   140
1040
2.5
1002
}
  0
DIMENSION
  5
E3
330
1F
100
AcDbEntity
  8
치수문자_일반주서
100
AcDbDimension
  2
_D_1
 10
21.82812500000001
 20
10.38125000000001
 30
0.0
 11
40.02499999999999
 21
10.38125000000001
 31
0.0
 70
   160
  1
<>
 71
     2
 42
3.571874999999984
  3
SLDDIMSTYLE0
100
AcDbAlignedDimension
 13
25.39999999999999
 23
1.186246585538414
 33
0.0
 14
21.82812500000001
 24
1.154513154662294
 34
0.0
100
AcDbRotatedDimension
1001
PE_URL
1000

1001
ACAD
1000
DSTYLE
1002
{
1070
   171
1070
     8
1070
   273
1070
     7
1070
    41
1040
2.5
1070
   140
1040
2.5
1002
}
  0
DIMENSION
  5
F8
330
1F
100
AcDbEntity
  8
치수문자_일반주서
100
AcDbDimension
  2
_D_2
 10
-25.4
 20
18.38125000000001
 30
0.0
 11
-1.296159543218771
 21
18.38125000000001
 31
0.0
 70
   160
  1
<>
 71
     2
 42
50.79999999999999
  3
SLDDIMSTYLE0
100
AcDbAlignedDimension
 13
25.39999999999999
 23
1.186246585538414
 33
0.0
 14
-25.4
 24
1.186246585538405
 34
0.0
100
AcDbRotatedDimension
1001
PE_URL
1000

1001
ACAD
1000
DSTYLE
1002
{
1070
   171
1070
     8
1070
   273
1070
     7
1070
    41
1040
2.5
1070
   140
1040
2.5
1002
}
  0
DIMENSION
  5
10C
330
1F
100
AcDbEntity
  8
치수문자_일반주서
100
AcDbDimension
  2
_D_3
 10
-33.40000000000001
 20
-2.381250000000069
 30
0.0
 11
-33.40000000000006
 21
17.63124999999998
 31
0.0
 70
   160
  1
%%c<>
 71
     2
 42
4.762500000000012
 52
-270.0
  3
SLDDIMSTYLE0
100
AcDbAlignedDimension
 13
-16.38465200723828
 23
2.381250000000007
 33
0.0
 14
-16.38465200723828
 24
-2.381250000000005
 34
0.0
 50
90.0000000000002
100
AcDbRotatedDimension
1001
PE_URL
1000

1001
ACAD
1000
DSTYLE
1002
{
1070
   171
1070
     8
1070
   273
1070
     7
1070
    41
1040
2.5
1070
   140
1040
2.5
1002
}
  0
LINE
  5
120
330
1F
100
AcDbEntity
  8
참조1
100
AcDbLine
 10
82.81348381534559
 20
7.440000000000007
 30
0.0
 11
82.81348381534559
 21
-7.439999999999998
 31
0.0
  0
LINE
  5
121
330
1F
100
AcDbEntity
  8
참조1
100
AcDbLine
 10
95.51348381534558
 20
5.440000000000007
 30
0.0
 11
82.81348381534559
 21
5.440000000000007
 31
0.0
  0
SOLID
  5
122
330
1F
100
AcDbEntity
  8
참조1
100
AcDbTrace
 10
82.81348381534559
 20
5.440000000000007
 30
0.0
 11
89.16348381534559
 21
4.424000000000007
 31
0.0
 12
89.16348381534559
 22
6.456000000000008
 32
0.0
 13
89.16348381534559
 23
6.456000000000008
 33
0.0
  0
LINE
  5
123
330
1F
100
AcDbEntity
  8
참조1
100
AcDbLine
 10
95.51348381534558
 20
-5.439999999999998
 30
0.0
 11
82.81348381534559
 21
-5.439999999999998
 31
0.0
  0
SOLID
  5
124
330
1F
100
AcDbEntity
  8
참조1
100
AcDbTrace
 10
82.81348381534559
 20
-5.439999999999998
 30
0.0
 11
89.16348381534559
 21
-6.455999999999998
 31
0.0
 12
89.16348381534559
 22
-4.423999999999998
 32
0.0
 13
89.16348381534559
 23
-4.423999999999998
 33
0.0
  0
MTEXT
  5
125
330
1F
100
AcDbEntity
  8
참조1
100
AcDbMText
 10
92.19783394797159
 20
11.01029177718834
 30
0.0
 40
3.5
 41
0.0
 71
     1
 72
     1
  1
A
  7
SLDTEXTSTYLE0
 73
     1
 44
1.0
  0
MTEXT
  5
126
330
1F
100
AcDbEntity
  8
참조1
100
AcDbMText
 10
92.19783394797159
 20
0.1302917771883327
 30
0.0
 40
3.5
 41
0.0
 71
     1
 72
     1
  1
A
  7
SLDTEXTSTYLE0
 73
     1
 44
1.0
  0
INSERT
  5
12D
330
1F
100
AcDbEntity
  8
해칭선
100
AcDbBlockReference
  2
SW_DOWELSYMBOL_0
 10
0.0
 20
0.0
 30
0.0
  0
LINE
  5
202
330
1F
100
AcDbEntity
  8
0
  6
Continuous
 62
     1
370
    25
100
AcDbLine
 10
-23.66190628861191
 20
0.341033882826722
 30
0.0
 11
-23.69255006213696
 21
0.3573167459745654
 31
0.0
1001
PE_URL
1000

  0
LINE
  5
203
330
1F
100
AcDbEntity
  8
0
  6
Continuous
 62
     1
370
    25
100
AcDbLine
 10
-24.97557971812937
 20
-0.3423091495184772
 30
0.0
 11
-24.94926987428139
 21
-0.3565626143528385
 31
0.0
1001
PE_URL
1000

  0
LINE
  5
204
330
1F
100
AcDbEntity
  8
0
  6
Continuous
 62
     1
370
    25
100
AcDbLine
 10
-23.06455915094334
 20
-1.190625000000004
 30
0.0
 11
-22.33832553218528
 21
-1.190625000000004
 31
0.0
1001
PE_URL
1000

  0
LINE
  5
205
330
1F
100
AcDbEntity
  8
0
  6
Continuous
 62
     1
370
    25
100
AcDbLine
 10
-22.33832553218526
 20
1.190624999999997
 30
0.0
 11
-23.06455915094334
 21
1.190624999999997
 31
0.0
1001
PE_URL
1000

  0
LINE
  5
206
330
1F
100
AcDbEntity
  8
외형선
  6
Continuous
370
    15
100
AcDbLine
 10
-16.38465200723828
 20
2.381250000000007
 30
0.0
 11
-20.82812499999999
 21
1.190624999999998
 31
0.0
  0
LINE
  5
207
330
1F
100
AcDbEntity
  8
외형선
  6
Continuous
370
    15
100
AcDbLine
 10
-20.82812499999999
 20
-1.190625000000002
 30
0.0
 11
-16.38465200723828
 21
-2.381250000000005
 31
0.0
  0
LINE
  5
208
330
1F
100
AcDbEntity
  8
외형선
  6
Continuous
370
    15
100
AcDbLine
 10
-20.82812499999999
 20
1.190624999999999
 30
0.0
 11
-21.32802093675452
 21
1.190624999999998
 31
0.0
  0
LINE
  5
209
330
1F
100
AcDbEntity
  8
외형선
  6
Continuous
370
    15
100
AcDbLine
 10
-21.32802093675452
 20
-1.190625000000002
 30
0.0
 11
-20.82812499999999
 21
-1.190625000000002
 31
0.0
  0
LINE
  5
20A
330
1F
100
AcDbEntity
  8
0
  6
Continuous
 62
     1
370
    25
100
AcDbLine
 10
-25.4
 20
1.078326856457617
 30
0.0
 11
-25.4
 21
-0.102014356457642
 31
0.0
1001
PE_URL
1000

  0
SPLINE
  5
20B
330
1F
100
AcDbEntity
  8
0
  6
Continuous
 62
     1
370
    25
100
AcDbSpline
210
0.0
220
0.0
230
1.0
 70
     8
 71
     3
 72
    22
 73
    18
 74
     0
 42
0.000000001
 43
0.00000001
 40
0.0
 40
0.0
 40
0.0
 40
0.0
 40
0.125
 40
0.125
 40
0.25
 40
0.25
 40
0.375
 40
0.375
 40
0.5
 40
0.5
 40
0.625
 40
0.625
 40
0.75
 40
0.75
 40
0.875
 40
0.875
 40
1.0
 40
1.0
 40
1.0
 40
1.0
 10
-25.4
 20
1.078326856457617
 30
0.0
 10
-25.25344827964022
 20
1.042086235654158
 30
0.0
 10
-25.10269158174372
 20
0.9970661753822918
 30
0.0
 10
-24.80318601338327
 20
0.892254262603118
 30
0.0
 10
-24.65719384075262
 20
0.8329245320182534
 30
0.0
 10
-24.35914132496845
 20
0.7014559772901954
 30
0.0
 10
-24.207910505167
 20
0.629336638217725
 30
0.0
 10
-23.91156448742784
 20
0.4774071528702907
 30
0.0
 10
-23.76430231857496
 20
0.3972909084503128
 30
0.0
 10
-23.46440942308538
 20
0.2311285407790364
 30
0.0
 10
-23.31638180893738
 20
0.1459395074739908
 30
0.0
 10
-23.02083088095097
 20
-0.0252756348172636
 30
0.0
 10
-22.86967623584817
 20
-0.1120025653157424
 30
0.0
 10
-22.57111611794794
 20
-0.2816498535696977
 30
0.0
 10
-22.42532797776592
 20
-0.3642843709204436
 30
0.0
 10
-22.12611808005308
 20
-0.5239977697187375
 30
0.0
 10
-21.97517545676374
 20
-0.6005596840543739
 30
0.0
 10
-21.82812499999997
 20
-0.6712410088339269
 30
0.0
1001
PE_URL
1000

  0
SPLINE
  5
20C
330
1F
100
AcDbEntity
  8
외형선
  6
Continuous
370
    15
100
AcDbSpline
210
0.0
220
0.0
230
1.0
 70
    24
 71
     3
 72
    12
 73
     8
 74
     0
 42
0.000000001
 43
0.00000001
 40
0.0
 40
0.0
 40
0.0
 40
0.0
 40
0.2214248914706151
 40
0.4478392756386914
 40
0.6976460657100874
 40
0.9546972696166713
 40
0.9999999999999999
 40
0.9999999999999999
 40
0.9999999999999999
 40
0.9999999999999999
 10
-21.82812500000001
 20
-1.154513154662293
 30
0.0
 10
-21.82812500000003
 20
-1.11941191543657
 30
0.0
 10
-21.82812500000009
 20
-1.048418480848144
 30
0.0
 10
-21.82812499999998
 20
-0.9388163072456017
 30
0.0
 10
-21.82812499999994
 20
-0.8290762688070068
 30
0.0
 10
-21.82812500000004
 20
-0.749314021936095
 30
0.0
 10
-21.828125
 20
-0.7118315366799302
 30
0.0
 10
-21.82812500000001
 20
-0.7062154069356794
 30
0.0
  0
SPLINE
  5
20D
330
1F
100
AcDbEntity
  8
0
  6
Continuous
 62
     1
370
    25
100
AcDbSpline
210
0.0
220
0.0
230
1.0
 70
     8
 71
     3
 72
    22
 73
    18
 74
     0
 42
0.000000001
 43
0.00000001
 40
0.0
 40
0.0
 40
0.0
 40
0.0
 40
0.125
 40
0.125
 40
0.25
 40
0.25
 40
0.375
 40
0.375
 40
0.5
 40
0.5
 40
0.625
 40
0.625
 40
0.75
 40
0.75
 40
0.875
 40
0.875
 40
1.0
 40
1.0
 40
1.0
 40
1.0
 10
-25.4
 20
-0.102014356457642
 30
0.0
 10
-25.25344827964016
 20
-0.1871814202964999
 30
0.0
 10
-25.1026915817436
 20
-0.2723577481768136
 30
0.0
 10
-24.80318601338305
 20
-0.4367410737435933
 30
0.0
 10
-24.65719384075238
 20
-0.5154791862916099
 30
0.0
 10
-24.35914132496808
 20
-0.6647923806355263
 30
0.0
 10
-24.20791050516659
 20
-0.7351407338276854
 30
0.0
 10
-23.91156448742732
 20
-0.8623853831873192
 30
0.0
 10
-23.76430231857439
 20
-0.9196679078966554
 30
0.0
 10
-23.46440942308472
 20
-1.01963521938051
 30
0.0
 10
-23.31638180893668
 20
-1.061778442135613
 30
0.0
 10
-23.02083088095016
 20
-1.128967757622657
 30
0.0
 10
-22.86967623584731
 20
-1.154198893280747
 30
0.0
 10
-22.57111611794704
 20
-1.186000882627025
 30
0.0
 10
-22.42532797776493
 20
-1.192683438521182
 30
0.0
 10
-22.12611808005196
 20
-1.187477226597706
 30
0.0
 10
-21.97517545676261
 20
-1.175429954806652
 30
0.0
 10
-21.82812499999881
 20
-1.154513154671357
 30
0.0
1001
PE_URL
1000

  0
SPLINE
  5
20E
330
1F
100
AcDbEntity
  8
0
  6
Continuous
 62
     1
370
    25
100
AcDbSpline
210
0.0
220
0.0
230
1.0
 70
     8
 71
     3
 72
    11
 73
     7
 74
     0
 42
0.000000001
 43
0.00000001
 40
0.0
 40
0.0
 40
0.0
 40
0.0
 40
0.265891326180252
 40
0.5317049390601464
 40
0.7974256262316657
 40
1.0
 40
1.0
 40
1.0
 40
1.0
 10
-21.82812499999999
 20
0.9833734787376727
 30
0.0
 10
-22.05059769235289
 20
1.045841877375705
 30
0.0
 10
-22.49547805392531
 20
1.170760416720996
 30
0.0
 10
-23.16258707406514
 20
1.207767300591889
 30
0.0
 10
-23.77688519580862
 20
1.139628563813912
 30
0.0
 10
-24.16830327492269
 20
1.020991970939263
 30
0.0
 10
-24.33762231941358
 20
0.9696723318652196
 30
0.0
1001
PE_URL
1000

  0
SPLINE
  5
20F
330
1F
100
AcDbEntity
  8
외형선
  6
Continuous
370
    15
100
AcDbSpline
210
0.0
220
0.0
230
1.0
 70
    24
 71
     3
 72
    15
 73
    11
 74
     0
 42
0.000000001
 43
0.00000001
 40
0.0
 40
0.0
 40
0.0
 40
0.0
 40
0.024933550287571
 40
0.172130428456089
 40
0.3193273066246048
 40
0.4665241847931214
 40
0.6137210629612468
 40
0.7609179411301583
 40
0.9081148192986739
 40
0.9999999999999999
 40
0.9999999999999999
 40
0.9999999999999999
 40
0.9999999999999999
 10
-21.82812499999999
 20
-0.2753888847844118
 30
0.0
 10
-21.82812499999999
 20
-0.2744251737422457
 30
0.0
 10
-21.82812499999996
 20
-0.2677721302453311
 30
0.0
 10
-21.82812500000003
 20
-0.1837672104194728
 30
0.0
 10
-21.82812499999996
 20
-0.022866453655124
 30
0.0
 10
-21.82812499999999
 20
0.19446163581187
 30
0.0
 10
-21.82812499999996
 20
0.4360349392806994
 30
0.0
 10
-21.82812500000002
 20
0.6755025480286541
 30
0.0
 10
-21.82812499999994
 20
0.8631397611663807
 30
0.0
 10
-21.82812499999998
 20
0.949993447288805
 30
0.0
 10
-21.828125
 20
0.9833734787376718
 30
0.0
  0
SPLINE
  5
210
330
1F
100
AcDbEntity
  8
0
  6
Continuous
 62
     1
370
    25
100
AcDbSpline
210
0.0
220
0.0
230
1.0
 70
     8
 71
     3
 72
    22
 73
    18
 74
     0
 42
0.000000001
 43
0.00000001
 40
0.0
 40
0.0
 40
0.0
 40
0.0
 40
0.125
 40
0.125
 40
0.25
 40
0.25
 40
0.375
 40
0.375
 40
0.5
 40
0.5
 40
0.625
 40
0.625
 40
0.75
 40
0.75
 40
0.875
 40
0.875
 40
1.0
 40
1.0
 40
1.0
 40
1.0
 10
-25.4
 20
1.186246585538405
 30
0.0
 10
-25.25344827964016
 20
1.178922422657916
 30
0.0
 10
-25.1026915817436
 20
1.162248661408799
 30
0.0
 10
-24.80318601338305
 20
1.110971614598585
 30
0.0
 10
-24.65719384075238
 20
1.076688407819682
 30
0.0
 10
-24.35914132496808
 20
0.9914775890972496
 30
0.0
 10
-24.20791050516659
 20
0.9404874519150306
 30
0.0
 10
-23.91156448742732
 20
0.8253726410580835
 30
0.0
 10
-23.76430231857439
 20
0.7610637435279528
 30
0.0
 10
-23.46440942308472
 20
0.6207665438203402
 30
0.0
 10
-23.31638180893668
 20
0.5454923949268042
 30
0.0
 10
-23.02083088095016
 20
0.3877721178158341
 30
0.0
 10
-22.86967623584731
 20
0.3046473543791019
 30
0.0
 10
-22.57111611794704
 20
0.1355986806300257
 30
0.0
 10
-22.42532797776493
 20
0.0500203158149055
 30
0.0
 10
-22.12611808005196
 20
-0.1220395543614779
 30
0.0
 10
-21.97517545676261
 20
-0.2080285416908716
 30
0.0
 10
-21.82812499999881
 20
-0.2910107666664399
 30
0.0
1001
PE_URL
1000

  0
LINE
  5
211
330
1F
100
AcDbEntity
  8
0
  6
Continuous
 62
     1
370
    25
100
AcDbLine
 10
-25.4
 20
1.186246585538405
 30
0.0
 11
-25.4
 21
1.078326856457617
 31
0.0
1001
PE_URL
1000

  0
LINE
  5
212
330
1F
100
AcDbEntity
  8
외형선
  6
Continuous
370
    15
100
AcDbLine
 10
-21.828125
 20
-0.2910107666657614
 30
0.0
 11
-21.82812499999999
 21
-0.6712410088339233
 31
0.0
  0
SPLINE
  5
213
330
1F
100
AcDbEntity
  8
0
  6
Continuous
 62
     1
370
    25
100
AcDbSpline
210
0.0
220
0.0
230
1.0
 70
     8
 71
     3
 72
    12
 73
     8
 74
     0
 42
0.000000001
 43
0.00000001
 40
0.0
 40
0.0
 40
0.0
 40
0.0
 40
0.0420005315896333
 40
0.3274416009937983
 40
0.5514670037108831
 40
0.7753356444750218
 40
1.0
 40
1.0
 40
1.0
 40
1.0
 10
-23.06455915094334
 20
-1.182857894746884
 30
0.0
 10
-23.09727032889668
 20
-1.185345396330148
 30
0.0
 10
-23.35229092206649
 20
-1.204738281850197
 30
0.0
 10
-23.78187721339659
 20
-1.12928931162715
 30
0.0
 10
-24.35250352823321
 20
-0.9770428424282873
 30
0.0
 10
-24.87570822570766
 20
-0.7686093654566417
 30
0.0
 10
-25.22502950544736
 20
-0.592824583820817
 30
0.0
 10
-25.4
 20
-0.5047762685261834
 30
0.0
1001
PE_URL
1000

  0
LINE
  5
214
330
1F
100
AcDbEntity
  8
0
  6
Continuous
 62
     1
370
    25
100
AcDbLine
 10
-25.4
 20
-0.102014356457642
 30
0.0
 11
-25.4
 21
-0.5047762685261834
 31
0.0
1001
PE_URL
1000

  0
SPLINE
  5
215
330
1F
100
AcDbEntity
  8
0
  6
Continuous
 62
     1
370
    25
100
AcDbSpline
210
0.0
220
0.0
230
1.0
 70
     8
 71
     3
 72
     9
 73
     5
 74
     0
 42
0.000000001
 43
0.00000001
 40
0.0
 40
0.0
 40
0.0
 40
0.0
 40
0.6281196009253648
 40
1.0
 40
1.0
 40
1.0
 40
1.0
 10
-25.4
 20
-1.186246585538416
 30
0.0
 10
-25.17755504676781
 20
-1.166803379209294
 30
0.0
 10
-24.8234107836299
 20
-1.13584875480261
 30
0.0
 10
-24.46930669077748
 20
-1.014718353749083
 30
0.0
 10
-24.33762231941356
 20
-0.9696723318652272
 30
0.0
1001
PE_URL
1000

  0
LINE
  5
216
330
1F
100
AcDbEntity
  8
0
  6
Continuous
 62
     1
370
    25
100
AcDbLine
 10
-25.4
 20
-0.5047762685261834
 30
0.0
 11
-25.4
 21
-1.186246585538416
 31
0.0
1001
PE_URL
1000

  0
LINE
  5
217
330
1F
100
AcDbEntity
  8
0
  6
Continuous
 62
     1
370
    25
100
AcDbLine
 10
-22.33832553218526
 20
1.189559800596105
 30
0.0
 11
-21.82812499999881
 21
1.154513154671356
 31
0.0
1001
PE_URL
1000

  0
LINE
  5
218
330
1F
100
AcDbEntity
  8
외형선
  6
Continuous
370
    15
100
AcDbLine
 10
-21.82812499999999
 20
1.154513154671524
 30
0.0
 11
-21.82812499999999
 21
0.9833734787376718
 31
0.0
  0
LINE
  5
219
330
1F
100
AcDbEntity
  8
외형선
  6
Continuous
370
    15
100
AcDbLine
 10
-20.82812499999999
 20
-0.0000000000000012
 30
0.0
 11
-20.82812499999999
 21
-1.190625000000002
 31
0.0
  0
LINE
  5
21A
330
1F
100
AcDbEntity
  8
외형선
  6
Continuous
370
    15
100
AcDbLine
 10
-20.82812499999999
 20
1.190624999999999
 30
0.0
 11
-20.82812499999999
 21
-0.0000000000000012
 31
0.0
  0
LINE
  5
21B
330
1F
100
AcDbEntity
  8
외형선
  6
Continuous
370
    15
100
AcDbLine
 10
-16.38465200723828
 20
0.0000000000000024
 30
0.0
 11
-16.38465200723828
 21
-2.381250000000005
 31
0.0
  0
LINE
  5
21C
330
1F
100
AcDbEntity
  8
외형선
  6
Continuous
370
    15
100
AcDbLine
 10
-16.38465200723828
 20
2.381250000000007
 30
0.0
 11
-16.38465200723828
 21
0.0000000000000024
 31
0.0
  0
LINE
  5
21D
330
1F
100
AcDbEntity
  8
외형선
  6
Continuous
370
    15
100
AcDbLine
 10
-21.32802093675452
 20
-0.8876471176421898
 30
0.0
 11
-21.32802093675452
 21
-1.190625000000002
 31
0.0
  0
SPLINE
  5
21E
330
1F
100
AcDbEntity
  8
외형선
  6
Continuous
370
    15
100
AcDbSpline
210
0.0
220
0.0
230
1.0
 70
     8
 71
     3
 72
     8
 73
     4
 74
     0
 42
0.000000001
 43
0.00000001
 40
0.0
 40
0.0
 40
0.0
 40
0.0
 40
1.0
 40
1.0
 40
1.0
 40
1.0
 10
-21.82812499999999
 20
-0.6712410088339233
 30
0.0
 10
-21.66352901979263
 20
-0.7503557711439435
 30
0.0
 10
-21.49549129884054
 20
-0.823432340719312
 30
0.0
 10
-21.32802093675451
 20
-0.8876418162065243
 30
0.0
  0
SPLINE
  5
21F
330
1F
100
AcDbEntity
  8
외형선
  6
Continuous
370
    15
100
AcDbSpline
210
0.0
220
0.0
230
1.0
 70
     8
 71
     3
 72
     8
 73
     4
 74
     0
 42
0.000000001
 43
0.00000001
 40
0.0
 40
0.0
 40
0.0
 40
0.0
 40
1.0
 40
1.0
 40
1.0
 40
1.0
 10
-21.82812499999999
 20
-0.2910107666657702
 30
0.0
 10
-21.66352901979263
 20
-0.3838941276578532
 30
0.0
 10
-21.49549129884054
 20
-0.4745640044208124
 30
0.0
 10
-21.32802093675453
 20
-0.5596012448828926
 30
0.0
  0
LINE
  5
220
330
1F
100
AcDbEntity
  8
외형선
  6
Continuous
370
    15
100
AcDbLine
 10
-21.32802093675452
 20
0.7935177913358513
 30
0.0
 11
-21.32802093675452
 21
-0.5595966620834301
 31
0.0
  0
SPLINE
  5
221
330
1F
100
AcDbEntity
  8
외형선
  6
Continuous
370
    15
100
AcDbSpline
210
0.0
220
0.0
230
1.0
 70
     8
 71
     3
 72
     8
 73
     4
 74
     0
 42
0.000000001
 43
0.00000001
 40
0.0
 40
0.0
 40
0.0
 40
0.0
 40
1.0
 40
1.0
 40
1.0
 40
1.0
 10
-21.82812499999999
 20
0.9833734787376727
 30
0.0
 10
-21.66352901979263
 20
0.9293705246059394
 30
0.0
 10
-21.49549129884054
 20
0.8653489410481938
 30
0.0
 10
-21.32802093675451
 20
0.7935237216029509
 30
0.0
  0
SPLINE
  5
222
330
1F
100
AcDbEntity
  8
외형선
  6
Continuous
370
    15
100
AcDbSpline
210
0.0
220
0.0
230
1.0
 70
     8
 71
     3
 72
     8
 73
     4
 74
     0
 42
0.000000001
 43
0.00000001
 40
0.0
 40
0.0
 40
0.0
 40
0.0
 40
1.0
 40
1.0
 40
1.0
 40
1.0
 10
-21.82812499999999
 20
1.154513154671524
 30
0.0
 10
-21.66352901979263
 20
1.131100638336455
 30
0.0
 10
-21.49549129884054
 20
1.096201904406199
 30
0.0
 10
-21.32802093675453
 20
1.050920709354665
 30
0.0
  0
LINE
  5
223
330
1F
100
AcDbEntity
  8
외형선
  6
Continuous
370
    15
100
AcDbLine
 10
-21.32802093675452
 20
1.190624999999998
 30
0.0
 11
-21.32802093675452
 21
1.050923149621359
 31
0.0
  0
SPLINE
  5
224
330
1F
100
AcDbEntity
  8
외형선
  6
Continuous
370
    15
100
AcDbSpline
210
0.0
220
0.0
230
1.0
 70
     8
 71
     3
 72
     8
 73
     4
 74
     0
 42
0.000000001
 43
0.00000001
 40
0.0
 40
0.0
 40
0.0
 40
0.0
 40
1.0
 40
1.0
 40
1.0
 40
1.0
 10
-21.82812499999999
 20
-1.154513154671526
 30
0.0
 10
-21.66352901979263
 20
-1.131100638336457
 30
0.0
 10
-21.49549129884054
 20
-1.0962019044062
 30
0.0
 10
-21.32802093675453
 20
-1.050920709354665
 30
0.0
  0
SPLINE
  5
225
330
1F
100
AcDbEntity
  8
외형선
  6
Continuous
370
    15
100
AcDbSpline
210
0.0
220
0.0
230
1.0
 70
    24
 71
     3
 72
    15
 73
    11
 74
     0
 42
0.000000001
 43
0.00000001
 40
0.0
 40
0.0
 40
0.0
 40
0.0
 40
0.1081321040864166
 40
0.2550186988965067
 40
0.4019052937076948
 40
0.548791888518332
 40
0.6956784833289714
 40
0.8425650781396106
 40
0.9894516729500933
 40
1.0
 40
1.0
 40
1.0
 40
1.0
 10
-21.828125
 20
0.9833734787376718
 30
0.0
 10
-21.828125
 20
0.9434828489059661
 30
0.0
 10
-21.82812499999999
 20
0.8494048079412406
 30
0.0
 10
-21.828125
 20
0.6494662725435478
 30
0.0
 10
-21.82812500000001
 20
0.4085042402136298
 30
0.0
 10
-21.82812500000001
 20
0.1684814505551848
 30
0.0
 10
-21.82812499999994
 20
-0.0444142849335088
 30
0.0
 10
-21.82812500000001
 20
-0.1982054785514234
 30
0.0
 10
-21.82812499999998
 20
-0.2730499605874298
 30
0.0
 10
-21.82812499999999
 20
-0.278498817355515
 30
0.0
 10
-21.82812499999999
 20
-0.2788638972409594
 30
0.0
  0
SPLINE
  5
226
330
1F
100
AcDbEntity
  8
외형선
  6
Continuous
370
    15
100
AcDbSpline
210
0.0
220
0.0
230
1.0
 70
    24
 71
     3
 72
    12
 73
     8
 74
     0
 42
0.000000001
 43
0.00000001
 40
0.0
 40
0.0
 40
0.0
 40
0.0
 40
0.1034402539277448
 40
0.3528649146354278
 40
0.6095229074008441
 40
0.8031048487601965
 40
1.0
 40
1.0
 40
1.0
 40
1.0
 10
-21.82812499999998
 20
-0.706225406935679
 30
0.0
 10
-21.82812499999998
 20
-0.7193295260606594
 30
0.0
 10
-21.828125
 20
-0.7640315032970879
 30
0.0
 10
-21.82812500000004
 20
-0.8528949546370914
 30
0.0
 10
-21.82812499999999
 20
-0.9592347401762578
 30
0.0
 10
-21.82812499999996
 20
-1.061285550929394
 30
0.0
 10
-21.82812499999997
 20
-1.123261996090237
 30
0.0
 10
-21.82812499999999
 20
-1.154513154671713
 30
0.0
  0
ENDSEC
  0
SECTION
  2
OBJECTS
  0
DICTIONARY
  5
C
330
0
100
AcDbDictionary
281
     1
  3
ACAD_DETAILVIEWSTYLE
350
1B0
  3
ACAD_GROUP
350
D
  3
ACAD_IMAGE_VARS
350
24A
  3
ACAD_LAYOUT
350
1A
  3
ACAD_MLINESTYLE
350
17
  3
ACAD_PLOTSETTINGS
350
19
  3
ACAD_PLOTSTYLENAME
350
E
  3
ACAD_SCALELIST
350
47
  3
ACAD_SECTIONVIEWSTYLE
350
1B1
  3
AcDbVariableDictionary
350
1AB
  3
APPDATA
350
14F
  3
DWGPROPS
350
24B
  0
DICTIONARY
  5
1B0
102
{ACAD_REACTORS
330
C
102
}
330
C
100
AcDbDictionary
281
     1
  0
DICTIONARY
  5
D
102
{ACAD_REACTORS
330
C
102
}
330
C
100
AcDbDictionary
281
     1
  0
RASTERVARIABLES
  5
24A
102
{ACAD_REACTORS
330
C
102
}
330
C
100
AcDbRasterVariables
 90
        0
 70
     1
 71
     1
 72
     1
  0
DICTIONARY
  5
1A
102
{ACAD_REACTORS
330
C
102
}
330
C
100
AcDbDictionary
281
     1
  3
Layout1
350
1E
  3
Layout2
350
26
  3
Model
350
22
  0
DICTIONARY
  5
17
102
{ACAD_REACTORS
330
C
102
}
330
C
100
AcDbDictionary
281
     1
  3
Standard
350
18
  0
DICTIONARY
  5
19
102
{ACAD_REACTORS
330
C
102
}
330
C
100
AcDbDictionary
281
     1
  0
ACDBDICTIONARYWDFLT
  5
E
102
{ACAD_REACTORS
330
C
102
}
330
C
100
AcDbDictionary
281
     1
  3
Normal
350
F
100
AcDbDictionaryWithDefault
340
F
  0
DICTIONARY
  5
47
102
{ACAD_REACTORS
330
C
102
}
330
C
100
AcDbDictionary
281
     1
  3
A0
350
48
  3
A1
350
49
  3
A2
350
4A
  3
A3
350
4B
  3
A4
350
4C
  3
A5
350
4D
  3
A6
350
4E
  3
A7
350
4F
  3
A8
350
50
  3
A9
350
51
  3
B0
350
52
  3
B1
350
53
  3
B2
350
54
  3
B3
350
55
  3
B4
350
56
  3
B5
350
57
  3
B6
350
58
  3
B7
350
59
  3
B8
350
5A
  3
B9
350
5B
  3
C0
350
5C
  3
C1
350
5D
  3
C2
350
5E
  3
C3
350
5F
  3
C4
350
60
  3
C5
350
61
  3
C6
350
62
  3
C7
350
63
  3
C8
350
64
  3
C9
350
65
  3
D0
350
66
  3
D1
350
67
  3
D2
350
68
  0
DICTIONARY
  5
1B1
102
{ACAD_REACTORS
330
C
102
}
330
C
100
AcDbDictionary
281
     1
  0
DICTIONARY
  5
1AB
102
{ACAD_REACTORS
330
C
102
}
330
C
100
AcDbDictionary
281
     1
  0
DICTIONARY
  5
14F
102
{ACAD_REACTORS
330
C
102
}
330
C
100
AcDbDictionary
281
     1
  0
XRECORD
  5
24B
102
{ACAD_REACTORS
330
C
102
}
330
C
100
AcDbXrecord
280
     1
  1
DWGPROPS COOKIE
  2

  3

  4

  6

  7

  8
12016016
  9

300
=
301
=
302
=
303
=
304
=
305
=
306
=
307
=
308
=
309
=
 40
0.0
 41
2458313.080775243
 42
2458318.272932882
  1

 90
        0
  0
LAYOUT
  5
1E
102
{ACAD_REACTORS
330
1A
102
}
330
1A
100
AcDbPlotSettings
  1

  2
none_device
  4

  6

 40
0.0
 41
0.0
 42
0.0
 43
0.0
 44
0.0
 45
0.0
 46
0.0
 47
0.0
 48
0.0
 49
0.0
140
0.0
141
0.0
142
1.0
143
1.0
 70
   688
 72
     1
 73
     0
 74
     5
  7

 75
    16
147
1.0
148
0.0
149
0.0
100
AcDbLayout
  1
Layout1
 70
     1
 71
     1
 10
0.0
 20
0.0
 11
420.0
 21
297.0
 12
0.0
 22
0.0
 32
0.0
 14
1.000000000000000E+20
 24
1.000000000000000E+20
 34
1.000000000000000E+20
 15
-1.000000000000000E+20
 25
-1.000000000000000E+20
 35
-1.000000000000000E+20
146
0.0
 13
0.0
 23
0.0
 33
0.0
 16
1.0
 26
0.0
 36
0.0
 17
0.0
 27
1.0
 37
0.0
 76
     0
330
1B
  0
LAYOUT
  5
26
102
{ACAD_REACTORS
330
1A
102
}
330
1A
100
AcDbPlotSettings
  1

  2
none_device
  4

  6

 40
0.0
 41
0.0
 42
0.0
 43
0.0
 44
0.0
 45
0.0
 46
0.0
 47
0.0
 48
0.0
 49
0.0
140
0.0
141
0.0
142
1.0
143
1.0
 70
   688
 72
     1
 73
     0
 74
     5
  7

 75
    16
147
1.0
148
0.0
149
0.0
100
AcDbLayout
  1
Layout2
 70
     1
 71
     2
 10
0.0
 20
0.0
 11
0.0
 21
0.0
 12
0.0
 22
0.0
 32
0.0
 14
0.0
 24
0.0
 34
0.0
 15
0.0
 25
0.0
 35
0.0
146
0.0
 13
0.0
 23
0.0
 33
0.0
 16
1.0
 26
0.0
 36
0.0
 17
0.0
 27
1.0
 37
0.0
 76
     0
330
23
  0
LAYOUT
  5
22
102
{ACAD_REACTORS
330
1A
102
}
330
1A
100
AcDbPlotSettings
  1

  2
none_device
  4
ANSI_A_(11.00_x_8.50_Inches)
  6

 40
6.35
 41
19.05
 42
6.35000508
 43
19.05000254
 44
279.4
 45
215.9
 46
116.0200047679344
 47
80.43595605253626
 48
0.0
 49
0.0
140
0.0
141
0.0
142
0.0752558462788414
143
1.0
 70
  1696
 72
     0
 73
     0
 74
     0
  7

 75
     0
147
0.0235690232323232
148
0.0
149
0.0
100
AcDbLayout
  1
Model
 70
     1
 71
     0
 10
0.0
 20
0.0
 11
420.0
 21
297.0
 12
0.0
 22
0.0
 32
0.0
 14
-36.77500000000009
 24
-49.97180738881174
 34
0.0
 15
95.51348381534555
 25
27.88124999999998
 35
0.0
146
0.0
 13
0.0
 23
0.0
 33
0.0
 16
1.0
 26
0.0
 36
0.0
 17
0.0
 27
1.0
 37
0.0
 76
     0
330
1F
331
29
  0
MLINESTYLE
  5
18
102
{ACAD_REACTORS
330
17
102
}
330
17
100
AcDbMlineStyle
  2
Standard
 70
     0
  3

 62
   256
 51
90.0
 52
90.0
 71
     2
 49
0.5
 62
   256
  6
BYLAYER
 49
-0.5
 62
   256
  6
BYLAYER
  0
ACDBPLACEHOLDER
  5
F
102
{ACAD_REACTORS
330
E
102
}
330
E
  0
SCALE
  5
48
102
{ACAD_REACTORS
330
47
102
}
330
47
100
AcDbScale
 70
     0
300
1:1
140
1.0
141
1.0
290
     1
  0
SCALE
  5
49
102
{ACAD_REACTORS
330
47
102
}
330
47
100
AcDbScale
 70
     0
300
1:2
140
1.0
141
2.0
290
     0
  0
SCALE
  5
4A
102
{ACAD_REACTORS
330
47
102
}
330
47
100
AcDbScale
 70
     0
300
1:4
140
1.0
141
4.0
290
     0
  0
SCALE
  5
4B
102
{ACAD_REACTORS
330
47
102
}
330
47
100
AcDbScale
 70
     0
300
1:5
140
1.0
141
5.0
290
     0
  0
SCALE
  5
4C
102
{ACAD_REACTORS
330
47
102
}
330
47
100
AcDbScale
 70
     0
300
1:8
140
1.0
141
8.0
290
     0
  0
SCALE
  5
4D
102
{ACAD_REACTORS
330
47
102
}
330
47
100
AcDbScale
 70
     0
300
1:10
140
1.0
141
10.0
290
     0
  0
SCALE
  5
4E
102
{ACAD_REACTORS
330
47
102
}
330
47
100
AcDbScale
 70
     0
300
1:16
140
1.0
141
16.0
290
     0
  0
SCALE
  5
4F
102
{ACAD_REACTORS
330
47
102
}
330
47
100
AcDbScale
 70
     0
300
1:20
140
1.0
141
20.0
290
     0
  0
SCALE
  5
50
102
{ACAD_REACTORS
330
47
102
}
330
47
100
AcDbScale
 70
     0
300
1:30
140
1.0
141
30.0
290
     0
  0
SCALE
  5
51
102
{ACAD_REACTORS
330
47
102
}
330
47
100
AcDbScale
 70
     0
300
1:40
140
1.0
141
40.0
290
     0
  0
SCALE
  5
52
102
{ACAD_REACTORS
330
47
102
}
330
47
100
AcDbScale
 70
     0
300
1:50
140
1.0
141
50.0
290
     0
  0
SCALE
  5
53
102
{ACAD_REACTORS
330
47
102
}
330
47
100
AcDbScale
 70
     0
300
1:100
140
1.0
141
100.0
290
     0
  0
SCALE
  5
54
102
{ACAD_REACTORS
330
47
102
}
330
47
100
AcDbScale
 70
     0
300
2:1
140
2.0
141
1.0
290
     0
  0
SCALE
  5
55
102
{ACAD_REACTORS
330
47
102
}
330
47
100
AcDbScale
 70
     0
300
4:1
140
4.0
141
1.0
290
     0
  0
SCALE
  5
56
102
{ACAD_REACTORS
330
47
102
}
330
47
100
AcDbScale
 70
     0
300
8:1
140
8.0
141
1.0
290
     0
  0
SCALE
  5
57
102
{ACAD_REACTORS
330
47
102
}
330
47
100
AcDbScale
 70
     0
300
10:1
140
10.0
141
1.0
290
     0
  0
SCALE
  5
58
102
{ACAD_REACTORS
330
47
102
}
330
47
100
AcDbScale
 70
     0
300
100:1
140
100.0
141
1.0
290
     0
  0
SCALE
  5
59
102
{ACAD_REACTORS
330
47
102
}
330
47
100
AcDbScale
 70
     0
300
1/128" = 1'-0"
140
0.0078125
141
12.0
290
     0
  0
SCALE
  5
5A
102
{ACAD_REACTORS
330
47
102
}
330
47
100
AcDbScale
 70
     0
300
1/64" = 1'-0"
140
0.015625
141
12.0
290
     0
  0
SCALE
  5
5B
102
{ACAD_REACTORS
330
47
102
}
330
47
100
AcDbScale
 70
     0
300
1/32" = 1'-0"
140
0.03125
141
12.0
290
     0
  0
SCALE
  5
5C
102
{ACAD_REACTORS
330
47
102
}
330
47
100
AcDbScale
 70
     0
300
1/16" = 1'-0"
140
0.0625
141
12.0
290
     0
  0
SCALE
  5
5D
102
{ACAD_REACTORS
330
47
102
}
330
47
100
AcDbScale
 70
     0
300
3/32" = 1'-0"
140
0.09375
141
12.0
290
     0
  0
SCALE
  5
5E
102
{ACAD_REACTORS
330
47
102
}
330
47
100
AcDbScale
 70
     0
300
1/8" = 1'-0"
140
0.125
141
12.0
290
     0
  0
SCALE
  5
5F
102
{ACAD_REACTORS
330
47
102
}
330
47
100
AcDbScale
 70
     0
300
3/16" = 1'-0"
140
0.1875
141
12.0
290
     0
  0
SCALE
  5
60
102
{ACAD_REACTORS
330
47
102
}
330
47
100
AcDbScale
 70
     0
300
1/4" = 1'-0"
140
0.25
141
12.0
290
     0
  0
SCALE
  5
61
102
{ACAD_REACTORS
330
47
102
}
330
47
100
AcDbScale
 70
     0
300
3/8" = 1'-0"
140
0.375
141
12.0
290
     0
  0
SCALE
  5
62
102
{ACAD_REACTORS
330
47
102
}
330
47
100
AcDbScale
 70
     0
300
1/2" = 1'-0"
140
0.5
141
12.0
290
     0
  0
SCALE
  5
63
102
{ACAD_REACTORS
330
47
102
}
330
47
100
AcDbScale
 70
     0
300
3/4" = 1'-0"
140
0.75
141
12.0
290
     0
  0
SCALE
  5
64
102
{ACAD_REACTORS
330
47
102
}
330
47
100
AcDbScale
 70
     0
300
1" = 1'-0"
140
1.0
141
12.0
290
     0
  0
SCALE
  5
65
102
{ACAD_REACTORS
330
47
102
}
330
47
100
AcDbScale
 70
     0
300
1-1/2" = 1'-0"
140
1.5
141
12.0
290
     0
  0
SCALE
  5
66
102
{ACAD_REACTORS
330
47
102
}
330
47
100
AcDbScale
 70
     0
300
3" = 1'-0"
140
3.0
141
12.0
290
     0
  0
SCALE
  5
67
102
{ACAD_REACTORS
330
47
102
}
330
47
100
AcDbScale
 70
     0
300
6" = 1'-0"
140
6.0
141
12.0
290
     0
  0
SCALE
  5
68
102
{ACAD_REACTORS
330
47
102
}
330
47
100
AcDbScale
 70
     0
300
1'-0" = 1'-0"
140
12.0
141
12.0
290
     0
  0
ENDSEC
  0
EOF
