  0
SECTION
  2
HEADER
  9
$ACADVER
  1
AC1015
  9
$ACADMAINTVER
 70
     6
  9
$DWGCODEPAGE
  3
ANSI_949
  9
$INSBASE
 10
0.0
 20
0.0
 30
0.0
  9
$EXTMIN
 10
-39.77500000000009
 20
-49.97180738881174
 30
0.0
  9
$EXTMAX
 10
95.51348381534561
 20
38.73530345637156
 30
0.0
  9
$LIMMIN
 10
0.0
 20
0.0
  9
$LIMMAX
 10
420.0
 20
297.0
  9
$ORTHOMODE
 70
     1
  9
$REGENMODE
 70
     1
  9
$FILLMODE
 70
     1
  9
$QTEXTMODE
 70
     0
  9
$MIRRTEXT
 70
     1
  9
$LTSCALE
 40
1.0
  9
$ATTMODE
 70
     1
  9
$TEXTSIZE
 40
3.5
  9
$TRACEWID
 40
1.0
  9
$TEXTSTYLE
  7
Standard
  9
$CLAYER
  8
0
  9
$CELTYPE
  6
ByLayer
  9
$CECOLOR
 62
   256
  9
$CELTSCALE
 40
1.0
  9
$DISPSILH
 70
     0
  9
$DIMSCALE
 40
1.0
  9
$DIMASZ
 40
3.302
  9
$DIMEXO
 40
1.0
  9
$DIMDLI
 40
3.75
  9
$DIMRND
 40
0.0
  9
$DIMDLE
 40
0.0
  9
$DIMEXE
 40
1.0
  9
$DIMTP
 40
0.0
  9
$DIMTM
 40
0.0
  9
$DIMTXT
 40
3.5
  9
$DIMCEN
 40
2.5
  9
$DIMTSZ
 40
0.0
  9
$DIMTOL
 70
     0
  9
$DIMLIM
 70
     0
  9
$DIMTIH
 70
     1
  9
$DIMTOH
 70
     1
  9
$DIMSE1
 70
     0
  9
$DIMSE2
 70
     0
  9
$DIMTAD
 70
     1
  9
$DIMZIN
 70
     0
  9
$DIMBLK
  1

  9
$DIMASO
 70
     1
  9
$DIMSHO
 70
     1
  9
$DIMPOST
  1

  9
$DIMAPOST
  1

  9
$DIMALT
 70
     0
  9
$DIMALTD
 70
     3
  9
$DIMALTF
 40
0.0393700787401575
  9
$DIMLFAC
 40
1.0
  9
$DIMTOFL
 70
     1
  9
$DIMTVP
 40
0.0
  9
$DIMTIX
 70
     0
  9
$DIMSOXD
 70
     0
  9
$DIMSAH
 70
     0
  9
$DIMBLK1
  1

  9
$DIMBLK2
  1

  9
$DIMSTYLE
  2
ISO-25
  9
$DIMCLRD
 70
     0
  9
$DIMCLRE
 70
     0
  9
$DIMCLRT
 70
     0
  9
$DIMTFAC
 40
1.0
  9
$DIMGAP
 40
1.524
  9
$DIMJUST
 70
     0
  9
$DIMSD1
 70
     0
  9
$DIMSD2
 70
     0
  9
$DIMTOLJ
 70
     0
  9
$DIMTZIN
 70
     0
  9
$DIMALTZ
 70
     0
  9
$DIMALTTZ
 70
     0
  9
$DIMUPT
 70
     0
  9
$DIMDEC
 70
     2
  9
$DIMTDEC
 70
     2
  9
$DIMALTU
 70
     2
  9
$DIMALTTD
 70
     3
  9
$DIMTXSTY
  7
Standard
  9
$DIMAUNIT
 70
     0
  9
$DIMADEC
 70
     2
  9
$DIMALTRND
 40
0.0
  9
$DIMAZIN
 70
     0
  9
$DIMDSEP
 70
    44
  9
$DIMATFIT
 70
     3
  9
$DIMFRAC
 70
     0
  9
$DIMLDRBLK
  1

  9
$DIMLUNIT
 70
     2
  9
$DIMLWD
 70
    -2
  9
$DIMLWE
 70
    -2
  9
$DIMTMOVE
 70
     0
  9
$LUNITS
 70
     2
  9
$LUPREC
 70
     2
  9
$SKETCHINC
 40
1.0
  9
$FILLETRAD
 40
10.0
  9
$AUNITS
 70
     0
  9
$AUPREC
 70
     2
  9
$MENU
  1
.
  9
$ELEVATION
 40
0.0
  9
$PELEVATION
 40
0.0
  9
$THICKNESS
 40
0.0
  9
$LIMCHECK
 70
     0
  9
$CHAMFERA
 40
0.0
  9
$CHAMFERB
 40
0.0
  9
$CHAMFERC
 40
0.0
  9
$CHAMFERD
 40
0.0
  9
$SKPOLY
 70
     0
  9
$TDCREATE
 40
2458313.457045984
  9
$TDUCREATE
 40
2458313.082045984
  9
$TDUPDATE
 40
2458318.648078935
  9
$TDUUPDATE
 40
2458318.273078935
  9
$TDINDWG
 40
0.002378044
  9
$TDUSRTIMER
 40
2458318.273042708
  9
$USRTIMER
 70
     1
  9
$ANGBASE
 50
0.0
  9
$ANGDIR
 70
     0
  9
$PDMODE
 70
     0
  9
$PDSIZE
 40
-1.0
  9
$PLINEWID
 40
0.0
  9
$SPLFRAME
 70
     0
  9
$SPLINETYPE
 70
     6
  9
$SPLINESEGS
 70
     8
  9
$HANDSEED
  5
22F
  9
$SURFTAB1
 70
     6
  9
$SURFTAB2
 70
     6
  9
$SURFTYPE
 70
     6
  9
$SURFU
 70
     6
  9
$SURFV
 70
     6
  9
$UCSBASE
  2

  9
$UCSNAME
  2

  9
$UCSORG
 10
0.0
 20
0.0
 30
0.0
  9
$UCSXDIR
 10
1.0
 20
0.0
 30
0.0
  9
$UCSYDIR
 10
0.0
 20
1.0
 30
0.0
  9
$UCSORTHOREF
  2

  9
$UCSORTHOVIEW
 70
     0
  9
$UCSORGTOP
 10
0.0
 20
0.0
 30
0.0
  9
$UCSORGBOTTOM
 10
0.0
 20
0.0
 30
0.0
  9
$UCSORGLEFT
 10
0.0
 20
0.0
 30
0.0
  9
$UCSORGRIGHT
 10
0.0
 20
0.0
 30
0.0
  9
$UCSORGFRONT
 10
0.0
 20
0.0
 30
0.0
  9
$UCSORGBACK
 10
0.0
 20
0.0
 30
0.0
  9
$PUCSBASE
  2

  9
$PUCSNAME
  2

  9
$PUCSORG
 10
0.0
 20
0.0
 30
0.0
  9
$PUCSXDIR
 10
1.0
 20
0.0
 30
0.0
  9
$PUCSYDIR
 10
0.0
 20
1.0
 30
0.0
  9
$PUCSORTHOREF
  2

  9
$PUCSORTHOVIEW
 70
     0
  9
$PUCSORGTOP
 10
0.0
 20
0.0
 30
0.0
  9
$PUCSORGBOTTOM
 10
0.0
 20
0.0
 30
0.0
  9
$PUCSORGLEFT
 10
0.0
 20
0.0
 30
0.0
  9
$PUCSORGRIGHT
 10
0.0
 20
0.0
 30
0.0
  9
$PUCSORGFRONT
 10
0.0
 20
0.0
 30
0.0
  9
$PUCSORGBACK
 10
0.0
 20
0.0
 30
0.0
  9
$USERI1
 70
     0
  9
$USERI2
 70
     0
  9
$USERI3
 70
     0
  9
$USERI4
 70
     0
  9
$USERI5
 70
     0
  9
$USERR1
 40
0.0
  9
$USERR2
 40
0.0
  9
$USERR3
 40
0.0
  9
$USERR4
 40
0.0
  9
$USERR5
 40
0.0
  9
$WORLDVIEW
 70
     1
  9
$SHADEDGE
 70
     3
  9
$SHADEDIF
 70
    70
  9
$TILEMODE
 70
     1
  9
$MAXACTVP
 70
    64
  9
$PINSBASE
 10
0.0
 20
0.0
 30
0.0
  9
$PLIMCHECK
 70
     0
  9
$PEXTMIN
 10
1.000000000000000E+20
 20
1.000000000000000E+20
 30
1.000000000000000E+20
  9
$PEXTMAX
 10
-1.000000000000000E+20
 20
-1.000000000000000E+20
 30
-1.000000000000000E+20
  9
$PLIMMIN
 10
0.0
 20
0.0
  9
$PLIMMAX
 10
0.0
 20
0.0
  9
$UNITMODE
 70
     0
  9
$VISRETAIN
 70
     1
  9
$PLINEGEN
 70
     0
  9
$PSLTSCALE
 70
     1
  9
$TREEDEPTH
 70
  3020
  9
$CMLSTYLE
  2
Standard
  9
$CMLJUST
 70
     0
  9
$CMLSCALE
 40
20.0
  9
$PROXYGRAPHICS
 70
     1
  9
$MEASUREMENT
 70
     1
  9
$CELWEIGHT
370
    -1
  9
$ENDCAPS
280
     0
  9
$JOINSTYLE
280
     0
  9
$LWDISPLAY
290
     1
  9
$INSUNITS
 70
     4
  9
$HYPERLINKBASE
  1

  9
$STYLESHEET
  1

  9
$XEDIT
290
     1
  9
$CEPSNTYPE
380
     0
  9
$PSTYLEMODE
290
     1
  9
$FINGERPRINTGUID
  2
{1BEC0E53-5A56-4E86-B224-52C0566F938E}
  9
$VERSIONGUID
  2
{FAEB1C32-E019-11D5-929B-00C0DF256EC4}
  9
$EXTNAMES
290
     1
  9
$PSVPSCALE
 40
0.0
  9
$OLESTARTUP
290
     0
  0
ENDSEC
  0
SECTION
  2
CLASSES
  0
CLASS
  1
ACDBDICTIONARYWDFLT
  2
AcDbDictionaryWithDefault
  3
ObjectDBX Classes
 90
        0
280
     0
281
     0
  0
CLASS
  1
VISUALSTYLE
  2
AcDbVisualStyle
  3
ObjectDBX Classes
 90
     4095
280
     0
281
     0
  0
CLASS
  1
MATERIAL
  2
AcDbMaterial
  3
ObjectDBX Classes
 90
     1153
280
     0
281
     0
  0
CLASS
  1
SCALE
  2
AcDbScale
  3
ObjectDBX Classes
 90
     1153
280
     0
281
     0
  0
CLASS
  1
SUN
  2
AcDbSun
  3
SCENEOE
 90
     1153
280
     0
281
     0
  0
CLASS
  1
ACDBPLACEHOLDER
  2
AcDbPlaceHolder
  3
ObjectDBX Classes
 90
        0
280
     0
281
     0
  0
CLASS
  1
LAYOUT
  2
AcDbLayout
  3
ObjectDBX Classes
 90
        0
280
     0
281
     0
  0
CLASS
  1
TABLESTYLE
  2
AcDbTableStyle
  3
ObjectDBX Classes
 90
     4095
280
     0
281
     0
  0
CLASS
  1
MLEADERSTYLE
  2
AcDbMLeaderStyle
  3
ACDB_MLEADERSTYLE_CLASS
 90
     4095
280
     0
281
     0
  0
CLASS
  1
DICTIONARYVAR
  2
AcDbDictionaryVar
  3
ObjectDBX Classes
 90
        0
280
     0
281
     0
  0
CLASS
  1
RASTERVARIABLES
  2
AcDbRasterVariables
  3
ISM
 90
        0
280
     0
281
     0
  0
ENDSEC
  0
SECTION
  2
TABLES
  0
TABLE
  2
VPORT
  5
8
330
0
100
AcDbSymbolTable
 70
     1
  0
VPORT
  5
29
330
8
100
AcDbSymbolTableRecord
100
AcDbViewportTableRecord
  2
*Active
 70
     0
 10
0.0
 20
0.0
 11
1.0
 21
1.0
 12
27.86924190767276
 22
-5.618251966220093
 13
0.0
 23
0.0
 14
10.0
 24
10.0
 15
10.0
 25
10.0
 16
0.0
 26
0.0
 36
1.0
 17
0.0
 27
0.0
 37
0.0
 40
90.48125306208696
 41
1.782762691853601
 42
50.0
 43
0.0
 44
0.0
 50
0.0
 51
0.0
 71
    16
 72
  2000
 73
     1
 74
     3
 75
     0
 76
     0
 77
     0
 78
     0
281
     0
 65
     1
110
0.0
120
0.0
130
0.0
111
1.0
121
0.0
131
0.0
112
0.0
122
1.0
132
0.0
 79
     0
146
0.0
  0
ENDTAB
  0
TABLE
  2
LTYPE
  5
5
330
0
100
AcDbSymbolTable
 70
     6
  0
LTYPE
  5
14
330
5
100
AcDbSymbolTableRecord
100
AcDbLinetypeTableRecord
  2
ByBlock
 70
     0
  3

 72
    65
 73
     0
 40
0.0
  0
LTYPE
  5
15
330
5
100
AcDbSymbolTableRecord
100
AcDbLinetypeTableRecord
  2
ByLayer
 70
     0
  3

 72
    65
 73
     0
 40
0.0
  0
LTYPE
  5
16
330
5
100
AcDbSymbolTableRecord
100
AcDbLinetypeTableRecord
  2
Continuous
 70
     0
  3
Solid line
 72
    65
 73
     0
 40
0.0
  0
LTYPE
  5
6A
330
5
100
AcDbSymbolTableRecord
100
AcDbLinetypeTableRecord
  2
HIDDEN
 70
     0
  3
Hidden __ __ __ __ __ __ __ __ __ __ __ __ __ __
 72
    65
 73
     2
 40
1.905
 49
1.27
 74
     0
 49
-0.635
 74
     0
  0
LTYPE
  5
6B
330
5
100
AcDbSymbolTableRecord
100
AcDbLinetypeTableRecord
  2
PHANTOM
 70
     0
  3
Phantom ______  __  __  ______  __  __  ______
 72
    65
 73
     6
 40
12.7
 49
6.35
 74
     0
 49
-1.27
 74
     0
 49
1.27
 74
     0
 49
-1.27
 74
     0
 49
1.27
 74
     0
 49
-1.27
 74
     0
  0
LTYPE
  5
6C
330
5
100
AcDbSymbolTableRecord
100
AcDbLinetypeTableRecord
  2
CENTER
 70
     0
  3
Center ____ _ ____ _ ____ _ ____ _ ____ _ ____
 72
    65
 73
     4
 40
10.16
 49
6.35
 74
     0
 49
-1.27
 74
     0
 49
1.27
 74
     0
 49
-1.27
 74
     0
  0
LTYPE
  5
6D
330
5
100
AcDbSymbolTableRecord
100
AcDbLinetypeTableRecord
  2
CENTERX2
 70
     0
  3
Center (2x) ________  __  ________  __  _____
 72
    65
 73
     4
 40
20.32
 49
12.7
 74
     0
 49
-2.54
 74
     0
 49
2.54
 74
     0
 49
-2.54
 74
     0
  0
LTYPE
  5
6E
330
5
100
AcDbSymbolTableRecord
100
AcDbLinetypeTableRecord
  2
DOT2
 70
     0
  3
Dot (.5x) ........................................
 72
    65
 73
     2
 40
0.635
 49
0.0
 74
     0
 49
-0.635
 74
     0
  0
ENDTAB
  0
TABLE
  2
LAYER
  5
2
102
{ACAD_XDICTIONARY
360
17E
102
}
330
0
100
AcDbSymbolTable
 70
    18
  0
LAYER
  5
10
330
2
100
AcDbSymbolTableRecord
100
AcDbLayerTableRecord
  2
0
 70
     0
 62
     7
  6
Continuous
370
    -3
390
F
  0
LAYER
  5
6F
330
2
100
AcDbSymbolTableRecord
100
AcDbLayerTableRecord
  2
FORMAT
 70
     0
 62
     2
  6
Continuous
370
    -3
390
F
  0
LAYER
  5
70
330
2
100
AcDbSymbolTableRecord
100
AcDbLayerTableRecord
  2
외형선
 70
     0
 62
     4
  6
Continuous
370
    30
390
F
  0
LAYER
  5
71
330
2
100
AcDbSymbolTableRecord
100
AcDbLayerTableRecord
  2
숨은선
 70
     0
 62
     2
  6
HIDDEN
370
    15
390
F
  0
LAYER
  5
72
330
2
100
AcDbSymbolTableRecord
100
AcDbLayerTableRecord
  2
중심선
 70
     0
 62
     1
  6
CENTERX2
370
    -3
390
F
  0
LAYER
  5
73
330
2
100
AcDbSymbolTableRecord
100
AcDbLayerTableRecord
  2
파단선
 70
     0
 62
     4
  6
Continuous
370
    -3
390
F
  0
LAYER
  5
74
330
2
100
AcDbSymbolTableRecord
100
AcDbLayerTableRecord
  2
해칭선
 70
     0
 62
   100
  6
Continuous
370
    -3
390
F
  0
LAYER
  5
75
330
2
100
AcDbSymbolTableRecord
100
AcDbLayerTableRecord
  2
가는실선
 70
     0
 62
     4
  6
Continuous
370
    -3
390
F
  0
LAYER
  5
76
330
2
100
AcDbSymbolTableRecord
100
AcDbLayerTableRecord
  2
치수_보조선
 70
     0
 62
     4
  6
Continuous
370
    -3
390
F
  0
LAYER
  5
77
330
2
100
AcDbSymbolTableRecord
100
AcDbLayerTableRecord
  2
치수문자_일반주서
 70
     0
 62
     7
  6
Continuous
370
    15
390
F
  0
LAYER
  5
78
330
2
100
AcDbSymbolTableRecord
100
AcDbLayerTableRecord
  2
개별주서
 70
     0
 62
   100
  6
Continuous
370
    30
390
F
  0
LAYER
  5
79
330
2
100
AcDbSymbolTableRecord
100
AcDbLayerTableRecord
  2
중간선
 70
     0
 62
     2
  6
Continuous
370
    15
390
F
  0
LAYER
  5
7A
330
2
100
AcDbSymbolTableRecord
100
AcDbLayerTableRecord
  2
윤곽선
 70
     0
 62
     3
  6
Continuous
370
    40
390
F
  0
LAYER
  5
7B
330
2
100
AcDbSymbolTableRecord
100
AcDbLayerTableRecord
  2
중심마크
 70
     0
 62
   100
  6
Continuous
370
    30
390
F
  0
LAYER
  5
7C
330
2
100
AcDbSymbolTableRecord
100
AcDbLayerTableRecord
  2
가상선
 70
     0
 62
     4
  6
PHANTOM
370
    -3
390
F
  0
LAYER
  5
7D
330
2
100
AcDbSymbolTableRecord
100
AcDbLayerTableRecord
  2
특수지정선
 70
     0
 62
     5
  6
CENTERX2
370
    60
390
F
  0
LAYER
  5
7E
330
2
100
AcDbSymbolTableRecord
100
AcDbLayerTableRecord
  2
참조1
 70
     0
 62
    -4
  6
Continuous
370
    -3
390
F
  0
LAYER
  5
147
330
2
100
AcDbSymbolTableRecord
100
AcDbLayerTableRecord
  2
Defpoints
 70
     0
 62
     7
  6
Continuous
290
     0
370
    -3
390
F
  0
ENDTAB
  0
TABLE
  2
STYLE
  5
3
330
0
100
AcDbSymbolTable
 70
     2
  0
STYLE
  5
11
330
3
100
AcDbSymbolTableRecord
100
AcDbTextStyleTableRecord
  2
Standard
 70
     0
 40
0.0
 41
1.0
 50
0.0
 71
     0
 42
3.5
  3
txt
  4

  0
STYLE
  5
94
330
3
100
AcDbSymbolTableRecord
100
AcDbTextStyleTableRecord
  2
SLDTEXTSTYLE0
 70
     0
 40
0.0
 41
0.75
 50
0.0
 71
     0
 42
3.5
  3
TXT
  4

  0
ENDTAB
  0
TABLE
  2
VIEW
  5
6
330
0
100
AcDbSymbolTable
 70
     0
  0
ENDTAB
  0
TABLE
  2
UCS
  5
7
330
0
100
AcDbSymbolTable
 70
     0
  0
ENDTAB
  0
TABLE
  2
APPID
  5
9
330
0
100
AcDbSymbolTable
 70
     2
  0
APPID
  5
12
330
9
100
AcDbSymbolTableRecord
100
AcDbRegAppTableRecord
  2
ACAD
 70
     0
  0
APPID
  5
14E
330
9
100
AcDbSymbolTableRecord
100
AcDbRegAppTableRecord
  2
PE_URL
 70
     0
  0
ENDTAB
  0
TABLE
  2
DIMSTYLE
  5
A
330
0
100
AcDbSymbolTable
 70
     3
100
AcDbDimStyleTable
  0
DIMSTYLE
105
27
330
A
100
AcDbSymbolTableRecord
100
AcDbDimStyleTableRecord
  2
ISO-25
 70
     0
 41
2.5
 42
0.625
 43
3.75
 44
1.25
 73
     0
 74
     0
 77
     1
 78
     8
140
2.5
141
2.5
143
0.03937007874016
147
0.625
171
     3
172
     1
178
     0
271
     2
272
     2
274
     3
278
    44
283
     0
284
     8
340
11
  0
DIMSTYLE
105
C5
102
{ACAD_REACTORS
330
C4
330
D9
330
102
330
EE
102
}
330
A
100
AcDbSymbolTableRecord
100
AcDbDimStyleTableRecord
  2
SLDDIMSTYLE0
 70
     0
 41
3.302
 44
0.0
 45
0.000000001
 73
     0
 74
     0
 77
     1
 78
    12
 79
     3
140
3.5
143
0.0393700787401575
147
0.875
148
0.000000001
170
     1
172
     1
173
     1
178
     0
271
     2
272
     2
276
     2
284
    12
289
     0
340
94
  0
DIMSTYLE
105
EF
330
A
100
AcDbSymbolTableRecord
100
AcDbDimStyleTableRecord
  2
SLDDIMSTYLE1
 70
     0
 41
3.302
 44
0.0
 45
0.000000001
 73
     0
 74
     0
 77
     1
 78
     4
 79
     1
140
3.5
143
0.0393700787401575
147
0.875
148
0.000000001
170
     1
173
     1
178
     0
271
     2
272
     2
276
     2
284
    12
340
94
  0
ENDTAB
  0
TABLE
  2
BLOCK_RECORD
  5
1
330
0
100
AcDbSymbolTable
 70
     9
  0
BLOCK_RECORD
  5
1F
330
1
100
AcDbSymbolTableRecord
100
AcDbBlockTableRecord
  2
*Model_Space
340
22
  0
BLOCK_RECORD
  5
1B
330
1
100
AcDbSymbolTableRecord
100
AcDbBlockTableRecord
  2
*Paper_Space
340
1E
  0
BLOCK_RECORD
  5
23
330
1
100
AcDbSymbolTableRecord
100
AcDbBlockTableRecord
  2
*Paper_Space0
340
26
  0
BLOCK_RECORD
  5
7F
330
1
100
AcDbSymbolTableRecord
100
AcDbBlockTableRecord
  2
블럭10
340
0
102
{BLKREFS
331
BD
102
}
  0
BLOCK_RECORD
  5
C6
330
1
100
AcDbSymbolTableRecord
100
AcDbBlockTableRecord
  2
_D
340
0
  0
BLOCK_RECORD
  5
DA
330
1
100
AcDbSymbolTableRecord
100
AcDbBlockTableRecord
  2
_D_1
340
0
  0
BLOCK_RECORD
  5
F0
330
1
100
AcDbSymbolTableRecord
100
AcDbBlockTableRecord
  2
_D_2
340
0
  0
BLOCK_RECORD
  5
103
330
1
100
AcDbSymbolTableRecord
100
AcDbBlockTableRecord
  2
_D_3
340
0
  0
BLOCK_RECORD
  5
11D
330
1
100
AcDbSymbolTableRecord
100
AcDbBlockTableRecord
  2
SW_DOWELSYMBOL_0
340
0
102
{BLKREFS
331
123
102
}
  0
BLOCK_RECORD
  5
182
330
1
100
AcDbSymbolTableRecord
100
AcDbBlockTableRecord
  2
*D7
340
0
  0
BLOCK_RECORD
  5
194
330
1
100
AcDbSymbolTableRecord
100
AcDbBlockTableRecord
  2
*D8
340
0
  0
ENDTAB
  0
ENDSEC
  0
SECTION
  2
BLOCKS
  0
BLOCK
  5
20
330
1F
100
AcDbEntity
  8
0
100
AcDbBlockBegin
  2
*Model_Space
 70
     0
 10
0.0
 20
0.0
 30
0.0
  3
*Model_Space
  1
*Model_Space
  0
ENDBLK
  5
21
330
1F
100
AcDbEntity
  8
0
100
AcDbBlockEnd
  0
BLOCK
  5
1C
330
1B
100
AcDbEntity
 67
     1
  8
0
100
AcDbBlockBegin
  2
*Paper_Space
 70
     0
 10
0.0
 20
0.0
 30
0.0
  3
*Paper_Space
  1
*Paper_Space
  0
ENDBLK
  5
1D
330
1B
100
AcDbEntity
 67
     1
  8
0
100
AcDbBlockEnd
  0
BLOCK
  5
24
330
23
100
AcDbEntity
  8
0
100
AcDbBlockBegin
  2
*Paper_Space0
 70
     0
 10
0.0
 20
0.0
 30
0.0
  3
*Paper_Space0
  1
*Paper_Space0
  0
ENDBLK
  5
25
330
23
100
AcDbEntity
  8
0
100
AcDbBlockEnd
  0
BLOCK
  5
80
330
7F
100
AcDbEntity
  8
0
100
AcDbBlockBegin
  2
블럭10
 70
     2
 10
0.0
 20
0.0
 30
0.0
  3
블럭10
  1
블럭10
  0
ELLIPSE
  5
82
330
7F
100
AcDbEntity
  8
중심선
100
AcDbEllipse
 10
20.54032771741204
 20
12.0471743016438
 30
0.0
 11
6.600054785286829
 21
-1.261213355974178E-13
 31
0.0
210
0.0
220
0.0
230
1.0
 40
0.636358354079598
 41
0.9219305317359503
 42
6.513795318482858
  0
ELLIPSE
  5
83
330
7F
100
AcDbEntity
  8
중심선
100
AcDbEllipse
 10
20.54032771746488
 20
12.04717430159265
 30
0.0
 11
3.960054785062283
 21
1.540847449632565E-10
 31
0.0
210
0.0
220
0.0
230
1.0
 40
0.3939339440162632
 41
1.131841032648279
 42
5.62031148352944
  0
LINE
  5
84
330
7F
100
AcDbEntity
  8
중심선
100
AcDbLine
 10
2.268634060543552
 20
16.24717430164393
 30
0.0
 11
5.714909304380834
 21
16.24717430164393
 31
0.0
  0
LINE
  5
85
330
7F
100
AcDbEntity
  8
중심선
100
AcDbLine
 10
5.245725140726316
 20
7.84717430164391
 30
0.0
 11
8.692000384563599
 21
7.84717430164391
 31
0.0
  0
LINE
  5
86
330
7F
100
AcDbEntity
  8
중심선
100
AcDbLine
 10
15.74043728645272
 20
16.24717430164393
 30
0.0
 11
8.692000384563599
 21
7.84717430164391
 31
0.0
  0
LINE
  5
87
330
7F
100
AcDbEntity
  8
중심선
100
AcDbLine
 10
0.1404042013395286
 20
13.71084872107135
 30
0.0
 11
3.58671253028996
 21
13.71088815037384
 31
0.0
  0
LINE
  5
88
330
7F
100
AcDbEntity
  8
중심선
100
AcDbLine
 10
2.750260043222114
 20
10.84717430164391
 30
0.0
 11
6.196535287059397
 21
10.84717430164391
 31
0.0
  0
LINE
  5
89
330
7F
100
AcDbEntity
  8
중심선
100
AcDbLine
 10
12.29416204261559
 20
16.24717430164393
 30
0.0
 11
5.245725140726316
 21
7.84717430164391
 31
0.0
  0
LINE
  5
8A
330
7F
100
AcDbEntity
  8
중심선
100
AcDbLine
 10
10.72767329541681
 20
16.24717430164393
 30
0.0
 11
6.196535287059397
 21
10.84717430164391
 31
0.0
  0
LINE
  5
8B
330
7F
100
AcDbEntity
  8
중심선
100
AcDbLine
 10
7.28139805157953
 20
16.24717430164393
 30
0.0
 11
2.750260043222114
 21
10.84717430164391
 31
0.0
  0
LINE
  5
8C
330
7F
100
AcDbEntity
  8
중심선
100
AcDbLine
 10
5.714909304380834
 20
16.24717430164393
 30
0.0
 11
3.58671253028996
 21
13.71088815037384
 31
0.0
  0
LINE
  5
8D
330
7F
100
AcDbEntity
  8
중심선
100
AcDbLine
 10
2.268634060543552
 20
16.24717430164393
 30
0.0
 11
0.1404042013395286
 21
13.71084872107135
 31
0.0
  0
LINE
  5
8E
330
7F
100
AcDbEntity
  8
중심선
100
AcDbLine
 10
7.28139805157953
 20
16.24717430164393
 30
0.0
 11
10.72767329541681
 21
16.24717430164393
 31
0.0
  0
LINE
  5
8F
330
7F
100
AcDbEntity
  8
중심선
100
AcDbLine
 10
12.29416204261559
 20
16.24717430164393
 30
0.0
 11
15.74043728645272
 21
16.24717430164393
 31
0.0
  0
LINE
  5
90
330
7F
100
AcDbEntity
  8
중심선
100
AcDbLine
 10
19.22036997980202
 20
11.08717430171403
 30
0.0
 11
23.66174974927406
 21
11.08717430171406
 31
0.0
  0
LINE
  5
91
330
7F
100
AcDbEntity
  8
중심선
100
AcDbLine
 10
19.22039502424796
 20
13.00717430171391
 30
0.0
 11
19.22036997980202
 21
11.08717430171403
 31
0.0
  0
LINE
  5
92
330
7F
100
AcDbEntity
  8
중심선
100
AcDbLine
 10
19.22039502424796
 20
13.00717430171391
 30
0.0
 11
26.96566020931264
 21
13.00717430171391
 31
0.0
  0
LINE
  5
93
330
7F
100
AcDbEntity
  8
중심선
100
AcDbLine
 10
22.22332737316547
 20
13.45928029700563
 30
0.0
 11
24.52862924686651
 21
15.39360700705356
 31
0.0
  0
ATTDEF
  5
95
330
7F
100
AcDbEntity
  8
FORMAT
 62
     2
100
AcDbText
 10
4.408487351596664
 20
2.075366912832191
 30
0.0
 40
4.233333333333333
  1
E1002012
 41
0.75
  7
SLDTEXTSTYLE0
 11
4.408487351596664
 21
-0.0412997538344756
 31
0.0
100
AcDbAttributeDefinition
  3

  2
AUTOATTR0
 70
     0
 74
     1
  0
ENDBLK
  5
81
330
7F
100
AcDbEntity
  8
0
100
AcDbBlockEnd
  0
BLOCK
  5
C7
330
C6
100
AcDbEntity
  8
0
100
AcDbBlockBegin
  2
_D
 70
     0
 10
0.0
 20
0.0
 30
0.0
  3
_D
  1
_D
  0
LINE
  5
C9
330
C6
100
AcDbEntity
  8
치수문자_일반주서
 62
     0
370
    -2
100
AcDbLine
 10
25.46250000000001
 20
2.372493171076824
 30
0.0
 11
63.640587817707
 21
2.372493171076965
 31
0.0
  0
LINE
  5
CA
330
C6
100
AcDbEntity
  8
치수문자_일반주서
 62
     0
370
    -2
100
AcDbLine
 10
25.46250000000001
 20
-2.372493171076823
 30
0.0
 11
63.64058781770702
 21
-2.37249317107668
 31
0.0
  0
LINE
  5
CB
330
C6
100
AcDbEntity
  8
치수문자_일반주서
 62
     0
370
    -2
100
AcDbLine
 10
63.640587817707
 20
2.372493171076965
 30
0.0
 11
63.64058781770689
 21
38.73530345637155
 31
0.0
  0
LINE
  5
CC
330
C6
100
AcDbEntity
  8
치수문자_일반주서
 62
     0
370
    -2
100
AcDbLine
 10
63.640587817707
 20
2.372493171076965
 30
0.0
 11
63.64058781770702
 21
-2.37249317107668
 31
0.0
  0
LINE
  5
CD
330
C6
100
AcDbEntity
  8
치수문자_일반주서
 62
     0
370
    -2
100
AcDbLine
 10
63.64058781770699
 20
5.674493171076964
 30
0.0
 11
63.64058781770699
 21
8.976493171076964
 31
0.0
  0
LINE
  5
CE
330
C6
100
AcDbEntity
  8
치수문자_일반주서
 62
     0
370
    -2
100
AcDbLine
 10
63.64058781770702
 20
-5.67449317107668
 30
0.0
 11
63.64058781770703
 21
-8.97649317107668
 31
0.0
  0
SOLID
  5
CF
330
C6
100
AcDbEntity
  8
치수문자_일반주서
 62
     0
100
AcDbTrace
 10
63.09025448437366
 20
5.674493171076962
 30
0.0
 11
64.19092115104033
 21
5.674493171076966
 31
0.0
 12
63.640587817707
 22
2.372493171076965
 32
0.0
 13
63.640587817707
 23
2.372493171076965
 33
0.0
  0
SOLID
  5
D0
330
C6
100
AcDbEntity
  8
치수문자_일반주서
 62
     0
100
AcDbTrace
 10
64.19092115104036
 20
-5.674493171076678
 30
0.0
 11
63.09025448437369
 21
-5.674493171076682
 31
0.0
 12
63.64058781770702
 22
-2.37249317107668
 32
0.0
 13
63.64058781770702
 23
-2.37249317107668
 33
0.0
  0
MTEXT
  5
D1
330
C6
100
AcDbEntity
  8
치수문자_일반주서
 62
     0
100
AcDbMText
 10
59.26558781770694
 20
24.73530345637154
 30
0.0
 40
3.5
 41
0.0
 71
     2
 72
     1
  1
\A1;%%c4.74 [3/16]
  7
SLDTEXTSTYLE0
 11
-2.994920046229680E-15
 21
1.0
 31
0.0
 73
     1
 44
1.0
  0
POINT
  5
D2
330
C6
100
AcDbEntity
  8
Defpoints
 62
     0
100
AcDbPoint
 10
25.40000000000001
 20
2.372493171076824
 30
0.0
  0
POINT
  5
D3
330
C6
100
AcDbEntity
  8
Defpoints
 62
     0
100
AcDbPoint
 10
25.40000000000001
 20
-2.372493171076824
 30
0.0
  0
POINT
  5
D4
330
C6
100
AcDbEntity
  8
Defpoints
 62
     0
100
AcDbPoint
 10
63.64058781770702
 20
-2.372493171076681
 30
0.0
  0
ENDBLK
  5
C8
330
C6
100
AcDbEntity
  8
0
100
AcDbBlockEnd
  0
BLOCK
  5
DB
330
DA
100
AcDbEntity
  8
0
100
AcDbBlockBegin
  2
_D_1
 70
     0
 10
0.0
 20
0.0
 30
0.0
  3
_D_1
  1
_D_1
  0
LINE
  5
DD
330
DA
100
AcDbEntity
  8
치수문자_일반주서
 62
     0
370
    -2
100
AcDbLine
 10
25.40000000000001
 20
2.434993171076824
 30
0.0
 11
25.40000000000001
 21
12.38125
 31
0.0
  0
LINE
  5
DE
330
DA
100
AcDbEntity
  8
치수문자_일반주서
 62
     0
370
    -2
100
AcDbLine
 10
18.25625000000001
 20
2.371395968722878
 30
0.0
 11
18.25625000000001
 21
12.38125
 31
0.0
  0
LINE
  5
DF
330
DA
100
AcDbEntity
  8
치수문자_일반주서
 62
     0
370
    -2
100
AcDbLine
 10
25.40000000000001
 20
12.38125
 30
0.0
 11
57.37900000000001
 21
12.38125
 31
0.0
  0
LINE
  5
E0
330
DA
100
AcDbEntity
  8
치수문자_일반주서
 62
     0
370
    -2
100
AcDbLine
 10
25.40000000000001
 20
12.38125
 30
0.0
 11
18.25625000000001
 21
12.38125
 31
0.0
  0
LINE
  5
E1
330
DA
100
AcDbEntity
  8
치수문자_일반주서
 62
     0
370
    -2
100
AcDbLine
 10
28.70200000000001
 20
12.38125
 30
0.0
 11
32.00400000000001
 21
12.38125
 31
0.0
  0
LINE
  5
E2
330
DA
100
AcDbEntity
  8
치수문자_일반주서
 62
     0
370
    -2
100
AcDbLine
 10
14.95425000000001
 20
12.38125
 30
0.0
 11
11.65225000000001
 21
12.38125
 31
0.0
  0
SOLID
  5
E3
330
DA
100
AcDbEntity
  8
치수문자_일반주서
 62
     0
100
AcDbTrace
 10
28.70200000000001
 20
12.93158333333333
 30
0.0
 11
28.70200000000001
 21
11.83091666666667
 31
0.0
 12
25.40000000000001
 22
12.38125
 32
0.0
 13
25.40000000000001
 23
12.38125
 33
0.0
  0
SOLID
  5
E4
330
DA
100
AcDbEntity
  8
치수문자_일반주서
 62
     0
100
AcDbTrace
 10
14.95425000000001
 20
11.83091666666667
 30
0.0
 11
14.95425000000001
 21
12.93158333333333
 31
0.0
 12
18.25625000000001
 22
12.38125
 32
0.0
 13
18.25625000000001
 23
12.38125
 33
0.0
  0
MTEXT
  5
E5
330
DA
100
AcDbEntity
  8
치수문자_일반주서
 62
     0
100
AcDbMText
 10
44.69150000000001
 20
16.75625
 30
0.0
 40
3.5
 41
0.0
 71
     2
 72
     1
  1
\A1;7.14 [9/32]
  7
SLDTEXTSTYLE0
 73
     1
 44
1.0
  0
POINT
  5
E6
330
DA
100
AcDbEntity
  8
Defpoints
 62
     0
100
AcDbPoint
 10
25.40000000000001
 20
2.372493171076824
 30
0.0
  0
POINT
  5
E7
330
DA
100
AcDbEntity
  8
Defpoints
 62
     0
100
AcDbPoint
 10
18.25625000000001
 20
2.308895968722878
 30
0.0
  0
POINT
  5
E8
330
DA
100
AcDbEntity
  8
Defpoints
 62
     0
100
AcDbPoint
 10
18.25625000000001
 20
12.38125
 30
0.0
  0
ENDBLK
  5
DC
330
DA
100
AcDbEntity
  8
0
100
AcDbBlockEnd
  0
BLOCK
  5
F1
330
F0
100
AcDbEntity
  8
0
100
AcDbBlockBegin
  2
_D_2
 70
     0
 10
0.0
 20
0.0
 30
0.0
  3
_D_2
  1
_D_2
  0
LINE
  5
F3
330
F0
100
AcDbEntity
  8
치수문자_일반주서
 62
     0
370
    -2
100
AcDbLine
 10
25.40000000000001
 20
2.434993171076824
 30
0.0
 11
25.40000000000001
 21
22.38125
 31
0.0
  0
LINE
  5
F4
330
F0
100
AcDbEntity
  8
치수문자_일반주서
 62
     0
370
    -2
100
AcDbLine
 10
-25.40000000000001
 20
2.43499317107681
 30
0.0
 11
-25.40000000000001
 21
22.38125
 31
0.0
  0
LINE
  5
F5
330
F0
100
AcDbEntity
  8
치수문자_일반주서
 62
     0
370
    -2
100
AcDbLine
 10
22.09800000000001
 20
22.38125
 30
0.0
 11
-22.09800000000001
 21
22.38125
 31
0.0
  0
SOLID
  5
F6
330
F0
100
AcDbEntity
  8
치수문자_일반주서
 62
     0
100
AcDbTrace
 10
22.09800000000001
 20
21.83091666666667
 30
0.0
 11
22.09800000000001
 21
22.93158333333334
 31
0.0
 12
25.40000000000001
 22
22.38125
 32
0.0
 13
25.40000000000001
 23
22.38125
 33
0.0
  0
SOLID
  5
F7
330
F0
100
AcDbEntity
  8
치수문자_일반주서
 62
     0
100
AcDbTrace
 10
-22.09800000000001
 20
22.93158333333334
 30
0.0
 11
-22.09800000000001
 21
21.83091666666667
 31
0.0
 12
-25.40000000000001
 22
22.38125
 32
0.0
 13
-25.40000000000001
 23
22.38125
 33
0.0
  0
MTEXT
  5
F8
330
F0
100
AcDbEntity
  8
치수문자_일반주서
 62
     0
100
AcDbMText
 10
-1.296159543218758
 20
26.75625
 30
0.0
 40
3.5
 41
0.0
 71
     2
 72
     1
  1
\A1;50.8 [2]
  7
SLDTEXTSTYLE0
 73
     1
 44
1.0
  0
POINT
  5
F9
330
F0
100
AcDbEntity
  8
Defpoints
 62
     0
100
AcDbPoint
 10
25.40000000000001
 20
2.372493171076824
 30
0.0
  0
POINT
  5
FA
330
F0
100
AcDbEntity
  8
Defpoints
 62
     0
100
AcDbPoint
 10
-25.40000000000001
 20
2.37249317107681
 30
0.0
  0
POINT
  5
FB
330
F0
100
AcDbEntity
  8
Defpoints
 62
     0
100
AcDbPoint
 10
-25.40000000000001
 20
22.38125
 30
0.0
  0
ENDBLK
  5
F2
330
F0
100
AcDbEntity
  8
0
100
AcDbBlockEnd
  0
BLOCK
  5
104
330
103
100
AcDbEntity
  8
0
100
AcDbBlockBegin
  2
_D_3
 70
     0
 10
0.0
 20
0.0
 30
0.0
  3
_D_3
  1
_D_3
  0
LINE
  5
106
330
103
100
AcDbEntity
  8
치수문자_일반주서
 62
     0
370
    -2
100
AcDbLine
 10
-25.46250000000001
 20
2.37249317107681
 30
0.0
 11
-35.4
 21
2.372493171076769
 31
0.0
  0
LINE
  5
107
330
103
100
AcDbEntity
  8
치수문자_일반주서
 62
     0
370
    -2
100
AcDbLine
 10
-25.46250000000001
 20
-2.381249999999997
 30
0.0
 11
-35.39999999999998
 21
-2.381250000000037
 31
0.0
  0
LINE
  5
108
330
103
100
AcDbEntity
  8
치수문자_일반주서
 62
     0
370
    -2
100
AcDbLine
 10
-35.4
 20
2.372493171076769
 30
0.0
 11
-35.40000000000011
 21
36.98524999999997
 31
0.0
  0
LINE
  5
109
330
103
100
AcDbEntity
  8
치수문자_일반주서
 62
     0
370
    -2
100
AcDbLine
 10
-35.4
 20
2.372493171076769
 30
0.0
 11
-35.39999999999998
 21
-2.381250000000037
 31
0.0
  0
LINE
  5
10A
330
103
100
AcDbEntity
  8
치수문자_일반주서
 62
     0
370
    -2
100
AcDbLine
 10
-35.40000000000001
 20
5.674493171076769
 30
0.0
 11
-35.40000000000001
 21
8.976493171076768
 31
0.0
  0
LINE
  5
10B
330
103
100
AcDbEntity
  8
치수문자_일반주서
 62
     0
370
    -2
100
AcDbLine
 10
-35.39999999999998
 20
-5.683250000000037
 30
0.0
 11
-35.39999999999997
 21
-8.985250000000036
 31
0.0
  0
SOLID
  5
10C
330
103
100
AcDbEntity
  8
치수문자_일반주서
 62
     0
100
AcDbTrace
 10
-35.95033333333334
 20
5.674493171076767
 30
0.0
 11
-34.84966666666667
 21
5.674493171076771
 31
0.0
 12
-35.4
 22
2.372493171076769
 32
0.0
 13
-35.4
 23
2.372493171076769
 33
0.0
  0
SOLID
  5
10D
330
103
100
AcDbEntity
  8
치수문자_일반주서
 62
     0
100
AcDbTrace
 10
-34.84966666666664
 20
-5.683250000000035
 30
0.0
 11
-35.95033333333331
 21
-5.683250000000038
 31
0.0
 12
-35.39999999999998
 22
-2.381250000000037
 32
0.0
 13
-35.39999999999998
 23
-2.381250000000037
 33
0.0
  0
MTEXT
  5
10E
330
103
100
AcDbEntity
  8
치수문자_일반주서
 62
     0
100
AcDbMText
 10
-39.77500000000006
 20
22.98524999999995
 30
0.0
 40
3.5
 41
0.0
 71
     2
 72
     1
  1
\A1;%%c4.75 [3/16]
  7
SLDTEXTSTYLE0
 11
-2.989403130077596E-15
 21
1.0
 31
0.0
 73
     1
 44
1.0
  0
POINT
  5
1AF
330
103
100
AcDbEntity
  8
Defpoints
 62
     0
100
AcDbPoint
 10
-25.40000000000001
 20
2.37249317107681
 30
0.0
  0
POINT
  5
1B0
330
103
100
AcDbEntity
  8
Defpoints
 62
     0
100
AcDbPoint
 10
-25.40000000000001
 20
-2.381249999999997
 30
0.0
  0
POINT
  5
1B1
330
103
100
AcDbEntity
  8
Defpoints
 62
     0
100
AcDbPoint
 10
-35.39999999999998
 20
-2.381250000000034
 30
0.0
  0
ENDBLK
  5
105
330
103
100
AcDbEntity
  8
0
100
AcDbBlockEnd
  0
BLOCK
  5
11E
330
11D
100
AcDbEntity
  8
0
100
AcDbBlockBegin
  2
SW_DOWELSYMBOL_0
 70
     0
 10
0.0
 20
0.0
 30
0.0
  3
SW_DOWELSYMBOL_0
  1
SW_DOWELSYMBOL_0
  0
CIRCLE
  5
120
330
11D
100
AcDbEntity
  8
해칭선
 62
     0
100
AcDbCircle
 10
0.0
 20
0.0
 30
0.0
 40
3.0
  0
HATCH
  5
121
330
11D
100
AcDbEntity
  8
0
  6
Continuous
 62
     0
370
     0
100
AcDbHatch
 10
0.0
 20
0.0
 30
0.0
210
0.0
220
0.0
230
1.0
  2
SOLID
 70
     1
 71
     0
 91
        1
 92
        0
 93
        3
 72
     2
 10
0.0
 20
0.0
 40
3.0
 50
0.0
 51
90.0
 73
     1
 72
     1
 10
0.0
 20
3.0
 11
0.0
 21
0.0
 72
     1
 10
0.0
 20
0.0
 11
2.999999999999999
 21
0.0
 97
        0
 75
     0
 76
     1
 98
        1
 10
0.0
 20
0.0
  0
HATCH
  5
122
330
11D
100
AcDbEntity
  8
0
  6
Continuous
 62
     0
370
     0
100
AcDbHatch
 10
0.0
 20
0.0
 30
0.0
210
0.0
220
0.0
230
1.0
  2
SOLID
 70
     1
 71
     0
 91
        1
 92
        0
 93
        3
 72
     2
 10
0.0
 20
0.0
 40
3.0
 50
180.0
 51
270.0000000000007
 73
     1
 72
     1
 10
0.0
 20
-3.0
 11
0.0
 21
0.0
 72
     1
 10
0.0
 20
0.0
 11
-3.0
 21
0.0
 97
        0
 75
     0
 76
     1
 98
        1
 10
0.0
 20
0.0
  0
ENDBLK
  5
11F
330
11D
100
AcDbEntity
  8
0
100
AcDbBlockEnd
  0
BLOCK
  5
183
330
182
100
AcDbEntity
  8
0
100
AcDbBlockBegin
  2
*D7
 70
     1
 10
0.0
 20
0.0
 30
0.0
  3
*D7
  1
*D7
  0
LINE
  5
185
330
182
100
AcDbEntity
  8
치수문자_일반주서
 62
     0
370
    -2
100
AcDbLine
 10
11.36650000000002
 20
1.508142972107698
 30
0.0
 11
11.36650000000002
 21
12.24523085805649
 31
0.0
  0
LINE
  5
186
330
182
100
AcDbEntity
  8
치수문자_일반주서
 62
     0
370
    -2
100
AcDbLine
 10
6.603999999999999
 20
1.465791397055795
 30
0.0
 11
6.603999999999999
 21
12.24523085805649
 31
0.0
  0
LINE
  5
187
330
182
100
AcDbEntity
  8
치수문자_일반주서
 62
     0
370
    -2
100
AcDbLine
 10
11.36650000000002
 20
12.24523085805649
 30
0.0
 11
43.34550000000002
 21
12.24523085805649
 31
0.0
  0
LINE
  5
188
330
182
100
AcDbEntity
  8
치수문자_일반주서
 62
     0
370
    -2
100
AcDbLine
 10
11.36650000000002
 20
12.24523085805649
 30
0.0
 11
6.603999999999999
 21
12.24523085805649
 31
0.0
  0
LINE
  5
189
330
182
100
AcDbEntity
  8
치수문자_일반주서
 62
     0
370
    -2
100
AcDbLine
 10
14.66850000000002
 20
12.24523085805649
 30
0.0
 11
17.97050000000002
 21
12.24523085805649
 31
0.0
  0
LINE
  5
18A
330
182
100
AcDbEntity
  8
치수문자_일반주서
 62
     0
370
    -2
100
AcDbLine
 10
3.302
 20
12.24523085805649
 30
0.0
 11
0.0
 21
12.24523085805649
 31
0.0
  0
SOLID
  5
18B
330
182
100
AcDbEntity
  8
치수문자_일반주서
 62
     0
100
AcDbTrace
 10
14.66850000000002
 20
12.79556419138982
 30
0.0
 11
14.66850000000002
 21
11.69489752472316
 31
0.0
 12
11.36650000000002
 22
12.24523085805649
 32
0.0
 13
11.36650000000002
 23
12.24523085805649
 33
0.0
  0
SOLID
  5
18C
330
182
100
AcDbEntity
  8
치수문자_일반주서
 62
     0
100
AcDbTrace
 10
3.302
 20
11.69489752472316
 30
0.0
 11
3.302
 21
12.79556419138982
 31
0.0
 12
6.603999999999999
 22
12.24523085805649
 32
0.0
 13
6.603999999999999
 23
12.24523085805649
 33
0.0
  0
MTEXT
  5
18D
330
182
100
AcDbEntity
  8
치수문자_일반주서
 62
     0
100
AcDbMText
 10
30.65800000000002
 20
16.62023085805649
 30
0.0
 40
3.5
 41
0.0
 71
     2
 72
     1
  1
\A1;4.76 [3/16]
  7
SLDTEXTSTYLE0
 73
     1
 44
1.0
  0
POINT
  5
18E
330
182
100
AcDbEntity
  8
Defpoints
 62
     0
100
AcDbPoint
 10
11.36650000000002
 20
1.445642972107698
 30
0.0
  0
POINT
  5
18F
330
182
100
AcDbEntity
  8
Defpoints
 62
     0
100
AcDbPoint
 10
6.603999999999999
 20
1.403291397055795
 30
0.0
  0
POINT
  5
190
330
182
100
AcDbEntity
  8
Defpoints
 62
     0
100
AcDbPoint
 10
6.603999999999999
 20
12.24523085805649
 30
0.0
  0
ENDBLK
  5
184
330
182
100
AcDbEntity
  8
0
100
AcDbBlockEnd
  0
BLOCK
  5
195
330
194
100
AcDbEntity
  8
0
100
AcDbBlockBegin
  2
*D8
 70
     1
 10
0.0
 20
0.0
 30
0.0
  3
*D8
  1
*D8
  0
LINE
  5
197
330
194
100
AcDbEntity
  8
치수문자_일반주서
 62
     0
370
    -2
100
AcDbLine
 10
55.49300937699435
 20
-2.106847671992989
 30
0.0
 11
55.49300937699435
 21
8.630240213955805
 31
0.0
  0
LINE
  5
198
330
194
100
AcDbEntity
  8
치수문자_일반주서
 62
     0
370
    -2
100
AcDbLine
 10
50.73050937699433
 20
-2.149199247044892
 30
0.0
 11
50.73050937699433
 21
8.630240213955805
 31
0.0
  0
LINE
  5
199
330
194
100
AcDbEntity
  8
치수문자_일반주서
 62
     0
370
    -2
100
AcDbLine
 10
55.49300937699435
 20
8.630240213955805
 30
0.0
 11
87.47200937699435
 21
8.630240213955805
 31
0.0
  0
LINE
  5
19A
330
194
100
AcDbEntity
  8
치수문자_일반주서
 62
     0
370
    -2
100
AcDbLine
 10
55.49300937699435
 20
8.630240213955805
 30
0.0
 11
50.73050937699433
 21
8.630240213955805
 31
0.0
  0
LINE
  5
19B
330
194
100
AcDbEntity
  8
치수문자_일반주서
 62
     0
370
    -2
100
AcDbLine
 10
58.79500937699435
 20
8.630240213955805
 30
0.0
 11
62.09700937699435
 21
8.630240213955805
 31
0.0
  0
LINE
  5
19C
330
194
100
AcDbEntity
  8
치수문자_일반주서
 62
     0
370
    -2
100
AcDbLine
 10
47.42850937699433
 20
8.630240213955805
 30
0.0
 11
44.12650937699433
 21
8.630240213955805
 31
0.0
  0
SOLID
  5
19D
330
194
100
AcDbEntity
  8
치수문자_일반주서
 62
     0
100
AcDbTrace
 10
58.79500937699435
 20
9.180573547289137
 30
0.0
 11
58.79500937699435
 21
8.079906880622472
 31
0.0
 12
55.49300937699435
 22
8.630240213955805
 32
0.0
 13
55.49300937699435
 23
8.630240213955805
 33
0.0
  0
SOLID
  5
19E
330
194
100
AcDbEntity
  8
치수문자_일반주서
 62
     0
100
AcDbTrace
 10
47.42850937699433
 20
8.079906880622472
 30
0.0
 11
47.42850937699433
 21
9.180573547289137
 31
0.0
 12
50.73050937699433
 22
8.630240213955805
 32
0.0
 13
50.73050937699433
 23
8.630240213955805
 33
0.0
  0
MTEXT
  5
19F
330
194
100
AcDbEntity
  8
치수문자_일반주서
 62
     0
100
AcDbMText
 10
74.78450937699435
 20
13.0052402139558
 30
0.0
 40
3.5
 41
0.0
 71
     2
 72
     1
  1
\A1;4.76 [3/16]
  7
SLDTEXTSTYLE0
 73
     1
 44
1.0
  0
POINT
  5
1A0
330
194
100
AcDbEntity
  8
Defpoints
 62
     0
100
AcDbPoint
 10
55.49300937699435
 20
-2.169347671992989
 30
0.0
  0
POINT
  5
1A1
330
194
100
AcDbEntity
  8
Defpoints
 62
     0
100
AcDbPoint
 10
50.73050937699433
 20
-2.211699247044892
 30
0.0
  0
POINT
  5
1A2
330
194
100
AcDbEntity
  8
Defpoints
 62
     0
100
AcDbPoint
 10
50.73050937699433
 20
8.630240213955805
 30
0.0
  0
ENDBLK
  5
196
330
194
100
AcDbEntity
  8
0
100
AcDbBlockEnd
  0
ENDSEC
  0
SECTION
  2
ENTITIES
  0
LINE
  5
96
330
1F
100
AcDbEntity
  8
0
  6
Continuous
 62
     1
370
    15
100
AcDbLine
 10
20.72713320068094
 20
2.381250000000005
 30
0.0
 11
19.27501576833529
 21
2.381250000000005
 31
0.0
1001
PE_URL
1000

  0
LINE
  5
97
330
1F
100
AcDbEntity
  8
0
  6
Continuous
 62
     1
370
    15
100
AcDbLine
 10
19.27501576833527
 20
-2.381249999999997
 30
0.0
 11
20.72713320068095
 21
-2.381249999999997
 31
0.0
1001
PE_URL
1000

  0
LINE
  5
98
330
1F
100
AcDbEntity
  8
외형선
  6
Continuous
370
    15
100
AcDbLine
 10
-17.75625879888337
 20
-2.381249999999997
 30
0.0
 11
17.75625879888337
 21
-2.381249999999997
 31
0.0
  0
LINE
  5
99
330
1F
100
AcDbEntity
  8
외형선
  6
Continuous
370
    15
100
AcDbLine
 10
17.75625879888337
 20
2.381250000000005
 30
0.0
 11
-17.75625879888337
 21
2.381250000000005
 31
0.0
  0
SPLINE
  5
9C
330
1F
100
AcDbEntity
  8
0
  6
Continuous
 62
     1
370
    15
100
AcDbSpline
210
0.0
220
0.0
230
1.0
 70
     8
 71
     3
 72
    14
 73
    10
 74
     0
 42
0.000000001
 43
0.00000001
 40
0.0
 40
0.0
 40
0.0
 40
0.0
 40
0.160469120195039
 40
0.3206543633465804
 40
0.4813435170148963
 40
0.6418986120717246
 40
0.8020758242052449
 40
0.9598324717798656
 40
0.9999999999999999
 40
0.9999999999999999
 40
0.9999999999999999
 40
0.9999999999999999
 10
18.25625
 20
-1.96644639994269
 30
0.0
 10
18.52301638782377
 20
-2.046127091846839
 30
0.0
 10
19.05607724181196
 20
-2.205347516950971
 30
0.0
 10
19.85559813996102
 20
-2.342297970999216
 30
0.0
 10
20.65624953338376
 20
-2.395825220959848
 30
0.0
 10
21.45662440747057
 20
-2.35986091022362
 30
0.0
 10
22.25139346009778
 20
-2.230446476331444
 30
0.0
 10
22.84689144050241
 20
-2.087769916212506
 30
0.0
 10
23.17592579641267
 20
-1.969383030220099
 30
0.0
 10
23.24270135186642
 20
-1.945357119464634
 30
0.0
1001
PE_URL
1000

  0
SPLINE
  5
9D
330
1F
100
AcDbEntity
  8
외형선
  6
Continuous
370
    15
100
AcDbSpline
210
0.0
220
0.0
230
1.0
 70
    24
 71
     3
 72
    21
 73
    17
 74
     0
 42
0.000000001
 43
0.00000001
 40
0.0
 40
0.0
 40
0.0
 40
0.0
 40
0.0252708529797826
 40
0.0978422910134374
 40
0.1725183056664065
 40
0.2450897437000625
 40
0.3197657583530327
 40
0.3923371963868388
 40
0.4670132110396616
 40
0.5395846490733173
 40
0.6142606637262871
 40
0.6868321017599442
 40
0.7615081164129163
 40
0.8340795544464875
 40
0.9087555690995447
 40
1.0
 40
1.0
 40
1.0
 40
1.0
 10
18.25625000000003
 20
0.5511044606536166
 30
0.0
 10
18.25625000000003
 20
0.5493445480989152
 30
0.0
 10
18.25625000000004
 20
0.5425306159980452
 30
0.0
 10
18.25625000000005
 20
0.469748786140468
 30
0.0
 10
18.25624999999998
 20
0.3601751423963891
 30
0.0
 10
18.25625000000005
 20
0.2097069765277595
 30
0.0
 10
18.25625000000004
 20
0.032283697863824
 30
0.0
 10
18.25624999999996
 20
-0.1721375065134223
 30
0.0
 10
18.25624999999999
 20
-0.3935919572428465
 30
0.0
 10
18.25625000000003
 20
-0.6299272009189775
 30
0.0
 10
18.25625000000004
 20
-0.8701804599373446
 30
0.0
 10
18.25625000000002
 20
-1.111824539724092
 30
0.0
 10
18.25625000000005
 20
-1.343893797767807
 30
0.0
 10
18.25624999999995
 20
-1.563152571971672
 30
0.0
 10
18.25625000000005
 20
-1.779536000694036
 30
0.0
 10
18.25625000000002
 20
-1.900128894830856
 30
0.0
 10
18.25625
 20
-1.96644639994269
 30
0.0
  0
SPLINE
  5
9E
330
1F
100
AcDbEntity
  8
0
  6
Continuous
 62
     1
370
    15
100
AcDbSpline
210
0.0
220
0.0
230
1.0
 70
     8
 71
     3
 72
    28
 73
    24
 74
     0
 42
0.000000001
 43
0.00000001
 40
0.0
 40
0.0
 40
0.0
 40
0.0
 40
0.1249999999999983
 40
0.1249999999999983
 40
0.1874999999999975
 40
0.1874999999999975
 40
0.2499999999999967
 40
0.2499999999999967
 40
0.3124999999999958
 40
0.3124999999999958
 40
0.374999999999995
 40
0.374999999999995
 40
0.4999999999999956
 40
0.4999999999999956
 40
0.6249999999999961
 40
0.6249999999999961
 40
0.6874999999999974
 40
0.6874999999999974
 40
0.7499999999999989
 40
0.7499999999999989
 40
0.8749999999999994
 40
0.8749999999999994
 40
1.0
 40
1.0
 40
1.0
 40
1.0
 10
25.40000000000001
 20
-2.372493171076817
 30
0.0
 10
25.10534723378058
 20
-2.357817352766876
 30
0.0
 10
24.80379682211899
 20
-2.324398788727852
 30
0.0
 10
24.35682029143611
 20
-2.247595532717872
 30
0.0
 10
24.20985956290974
 20
-2.217685925936845
 30
0.0
 10
23.9130604895904
 20
-2.149168306279011
 30
0.0
 10
23.76340577523636
 20
-2.110543734384186
 30
0.0
 10
23.46420516103555
 20
-2.025173893761527
 30
0.0
 10
23.31466440343563
 20
-1.978430116195529
 30
0.0
 10
23.01831454302691
 20
-1.877718876249824
 30
0.0
 10
22.87107299994745
 20
-1.823725220087366
 30
0.0
 10
22.42366405886683
 20
-1.650680194292536
 30
0.0
 10
22.12338299385993
 20
-1.521126376670043
 30
0.0
 10
21.5329380501829
 20
-1.24192736947408
 30
0.0
 10
21.23125888930863
 20
-1.090461047651405
 30
0.0
 10
20.78477245452623
 20
-0.8532474047403571
 30
0.0
 10
20.63795922926241
 20
-0.7727203466870906
 30
0.0
 10
20.34074888906774
 20
-0.608324654897688
 30
0.0
 10
20.19099973245678
 20
-0.5245648617158034
 30
0.0
 10
19.74225728702742
 20
-0.2707836350816789
 30
0.0
 10
19.44817348288115
 20
-0.099117827488794
 30
0.0
 10
18.8511288442129
 20
0.2447787545352383
 30
0.0
 10
18.55200490722173
 20
0.4162529296247271
 30
0.0
 10
18.25625000000002
 20
0.5825383833836444
 30
0.0
1001
PE_URL
1000

  0
LINE
  5
9F
330
1F
100
AcDbEntity
  8
0
  6
Continuous
 62
     1
370
    15
100
AcDbLine
 10
25.40000000000001
 20
-2.156653712915242
 30
0.0
 11
25.40000000000001
 21
0.2040287129152778
 31
0.0
1001
PE_URL
1000

  0
SPLINE
  5
A0
330
1F
100
AcDbEntity
  8
0
  6
Continuous
 62
     1
370
    15
100
AcDbSpline
210
0.0
220
0.0
230
1.0
 70
     8
 71
     3
 72
    28
 73
    24
 74
     0
 42
0.000000001
 43
0.00000001
 40
0.0
 40
0.0
 40
0.0
 40
0.0
 40
0.1249999999999994
 40
0.1249999999999994
 40
0.1874999999999992
 40
0.1874999999999992
 40
0.2499999999999989
 40
0.2499999999999989
 40
0.3124999999999986
 40
0.3124999999999986
 40
0.3749999999999983
 40
0.3749999999999983
 40
0.4999999999999978
 40
0.4999999999999978
 40
0.6249999999999972
 40
0.6249999999999972
 40
0.6874999999999969
 40
0.6874999999999969
 40
0.7499999999999967
 40
0.7499999999999967
 40
0.8749999999999983
 40
0.8749999999999983
 40
1.0
 40
1.0
 40
1.0
 40
1.0
 10
25.40000000000003
 20
-2.156653712915241
 30
0.0
 10
25.10534723378059
 20
-2.084036435687821
 30
0.0
 10
24.80379682211897
 20
-1.993924304193273
 30
0.0
 10
24.35682029143612
 20
-1.836945970772006
 30
0.0
 10
24.20985956290975
 20
-1.781180221161216
 30
0.0
 10
23.91306048959036
 20
-1.662581228289113
 30
0.0
 10
23.76340577523636
 20
-1.599747995003575
 30
0.0
 10
23.46420516103556
 20
-1.468065254147648
 30
0.0
 10
23.31466440343562
 20
-1.399218027569705
 30
0.0
 10
23.01831454302689
 20
-1.256772231579591
 30
0.0
 10
22.87107299994744
 20
-1.183119750940541
 30
0.0
 10
22.42366405886679
 20
-0.9547182594253856
 30
0.0
 10
22.12338299385993
 20
-0.7933848019175619
 30
0.0
 10
21.53293805018287
 20
-0.4627354178536068
 30
0.0
 10
21.23125888930862
 20
-0.2912827353322068
 30
0.0
 10
20.78477245452623
 20
-0.0338143266670073
 30
0.0
 10
20.6379592292624
 20
0.0518538654160106
 30
0.0
 10
20.34074888906773
 20
0.2233434789046177
 30
0.0
 10
20.19099973245677
 20
0.3090385545462692
 30
0.0
 10
19.74225728702743
 20
0.5637077972783946
 30
0.0
 10
19.44817348288116
 20
0.7294455065060578
 30
0.0
 10
18.8511288442129
 20
1.048624707436086
 30
0.0
 10
18.55200490722172
 20
1.201299812226025
 30
0.0
 10
18.25625
 20
1.342922231051558
 30
0.0
1001
PE_URL
1000

  0
SPLINE
  5
A1
330
1F
100
AcDbEntity
  8
외형선
  6
Continuous
370
    15
100
AcDbSpline
210
0.0
220
0.0
230
1.0
 70
    24
 71
     3
 72
    12
 73
     8
 74
     0
 42
0.000000001
 43
0.00000001
 40
0.0
 40
0.0
 40
0.0
 40
0.0
 40
0.212251900463462
 40
0.4293125387044412
 40
0.6681487742442358
 40
0.9139112767946006
 40
1.0
 40
1.0
 40
1.0
 40
1.0
 10
18.25625000000002
 20
2.308895968722878
 30
0.0
 10
18.25625000000002
 20
2.238503672929837
 30
0.0
 10
18.25625000000004
 20
2.096124287180374
 30
0.0
 10
18.25625000000003
 20
1.876666714810415
 30
0.0
 10
18.25625000000002
 20
1.656665974917429
 30
0.0
 10
18.25625000000002
 20
1.485566107797425
 30
0.0
 10
18.25625000000001
 20
1.400077923507302
 30
0.0
 10
18.25625000000002
 20
1.377900610110542
 30
0.0
  0
SPLINE
  5
A2
330
1F
100
AcDbEntity
  8
0
  6
Continuous
 62
     1
370
    15
100
AcDbSpline
210
0.0
220
0.0
230
1.0
 70
     8
 71
     3
 72
    28
 73
    24
 74
     0
 42
0.000000001
 43
0.00000001
 40
0.0
 40
0.0
 40
0.0
 40
0.0
 40
0.1249999999999985
 40
0.1249999999999985
 40
0.1874999999999977
 40
0.1874999999999977
 40
0.2499999999999969
 40
0.2499999999999969
 40
0.3124999999999961
 40
0.3124999999999961
 40
0.3749999999999953
 40
0.3749999999999953
 40
0.4999999999999959
 40
0.4999999999999959
 40
0.6249999999999963
 40
0.6249999999999963
 40
0.6874999999999977
 40
0.6874999999999977
 40
0.749999999999999
 40
0.749999999999999
 40
0.8749999999999996
 40
0.8749999999999996
 40
1.0
 40
1.0
 40
1.0
 40
1.0
 10
25.40000000000001
 20
0.2040287129152775
 30
0.0
 10
25.10534723378058
 20
0.3746825303255836
 30
0.0
 10
24.803796822119
 20
0.5450506325742198
 30
0.0
 10
24.35682029143612
 20
0.791236673479529
 30
0.0
 10
24.20985956290975
 20
0.8715450097495925
 30
0.0
 10
23.91306048959038
 20
1.028978698226351
 30
0.0
 10
23.76340577523636
 20
1.106058941583115
 30
0.0
 10
23.46420516103556
 20
1.255560407559543
 30
0.0
 10
23.31466440343563
 20
1.327979074279098
 30
0.0
 10
23.01831454302691
 20
1.466930798697651
 30
0.0
 10
22.87107299994743
 20
1.533548902066882
 30
0.0
 10
22.42366405886684
 20
1.724872129267323
 30
0.0
 10
22.12338299385992
 20
1.840082035385877
 30
0.0
 10
21.53293805018287
 20
2.038956536982176
 30
0.0
 10
21.23125888930862
 20
2.123860408889407
 30
0.0
 10
20.78477245452624
 20
2.224793163735024
 30
0.0
 10
20.63795922926241
 20
2.25402565013426
 30
0.0
 10
20.34074888906773
 20
2.303837989071931
 30
0.0
 10
20.19099973245677
 20
2.324347714786477
 30
0.0
 10
19.74225728702742
 20
2.37205900200479
 30
0.0
 10
19.44817348288116
 20
2.385397475660249
 30
0.0
 10
18.85112884421289
 20
2.374874485512981
 30
0.0
 10
18.55200490722171
 20
2.350850071776955
 30
0.0
 10
18.25625000000002
 20
2.30889596872288
 30
0.0
1001
PE_URL
1000

  0
LINE
  5
A3
330
1F
100
AcDbEntity
  8
0
  6
Continuous
 62
     1
370
    15
100
AcDbLine
 10
25.40000000000001
 20
-2.372493171076817
 30
0.0
 11
25.40000000000001
 21
-2.156653712915242
 31
0.0
1001
PE_URL
1000

  0
LINE
  5
A4
330
1F
100
AcDbEntity
  8
외형선
  6
Continuous
370
    15
100
AcDbLine
 10
18.25625000000002
 20
0.58253838338365
 30
0.0
 11
18.25625
 21
1.342922231051557
 31
0.0
  0
SPLINE
  5
A5
330
1F
100
AcDbEntity
  8
0
  6
Continuous
 62
     1
370
    15
100
AcDbSpline
210
0.0
220
0.0
230
1.0
 70
     8
 71
     3
 72
    13
 73
     9
 74
     0
 42
0.000000001
 43
0.00000001
 40
0.0
 40
0.0
 40
0.0
 40
0.0
 40
0.1561996725630522
 40
0.3271250006317857
 40
0.4954673408595482
 40
0.6638011429495031
 40
0.831661923968761
 40
1.0
 40
1.0
 40
1.0
 40
1.0
 10
20.72713320068094
 20
2.377649223594173
 30
0.0
 10
20.97050326433574
 20
2.371951560936505
 30
0.0
 10
21.48018699747351
 20
2.360019090977344
 30
0.0
 10
22.25140633207053
 20
2.232619536883812
 30
0.0
 10
23.04235693341541
 20
2.028478148515084
 30
0.0
 10
23.82853431048093
 20
1.749637434405
 30
0.0
 10
24.61381822641176
 20
1.409478466202385
 30
0.0
 10
25.13769149788838
 20
1.142987290890717
 30
0.0
 10
25.40000000000003
 20
1.009552537052361
 30
0.0
1001
PE_URL
1000

  0
LINE
  5
A6
330
1F
100
AcDbEntity
  8
0
  6
Continuous
 62
     1
370
    15
100
AcDbLine
 10
25.40000000000001
 20
0.2040287129152777
 30
0.0
 11
25.40000000000001
 21
1.009552537052361
 31
0.0
1001
PE_URL
1000

  0
SPLINE
  5
A7
330
1F
100
AcDbEntity
  8
0
  6
Continuous
 62
     1
370
    15
100
AcDbSpline
210
0.0
220
0.0
230
1.0
 70
     8
 71
     3
 72
    10
 73
     6
 74
     0
 42
0.000000001
 43
0.00000001
 40
0.0
 40
0.0
 40
0.0
 40
0.0
 40
0.3712620570530419
 40
0.741494627916461
 40
1.0
 40
1.0
 40
1.0
 40
1.0
 10
25.40000000000001
 20
2.372493171076824
 30
0.0
 10
25.13291324676965
 20
2.35018683409041
 30
0.0
 10
24.59948035497354
 20
2.305636014178431
 30
0.0
 10
23.88087545484994
 20
2.154235488112957
 30
0.0
 10
23.42863843490903
 20
2.006215487730599
 30
0.0
 10
23.24270135186642
 20
1.945357119464641
 30
0.0
1001
PE_URL
1000

  0
LINE
  5
A8
330
1F
100
AcDbEntity
  8
0
  6
Continuous
 62
     1
370
    15
100
AcDbLine
 10
25.40000000000001
 20
0.9982756053061326
 30
0.0
 11
25.40000000000001
 21
2.372493171076824
 31
0.0
1001
PE_URL
1000

  0
SPLINE
  5
A9
330
1F
100
AcDbEntity
  8
0
  6
Continuous
 62
     1
370
    15
100
AcDbSpline
210
0.0
220
0.0
230
1.0
 70
     8
 71
     3
 72
     9
 73
     5
 74
     0
 42
0.000000001
 43
0.00000001
 40
0.0
 40
0.0
 40
0.0
 40
0.0
 40
0.2287010267104967
 40
1.0
 40
1.0
 40
1.0
 40
1.0
 10
19.27501576833527
 20
-2.372247016214422
 30
0.0
 10
19.19737542242186
 20
-2.374949151629113
 30
0.0
 10
18.85789139373108
 20
-2.386764294978302
 30
0.0
 10
18.51823027338743
 20
-2.342803152658655
 30
0.0
 10
18.25625000000002
 20
-2.308895968722877
 30
0.0
1001
PE_URL
1000

  0
LINE
  5
AA
330
1F
100
AcDbEntity
  8
외형선
  6
Continuous
370
    15
100
AcDbLine
 10
18.25625000000002
 20
-2.308895968722875
 30
0.0
 11
18.25625
 21
-1.96644639994269
 31
0.0
  0
LINE
  5
AB
330
1F
100
AcDbEntity
  8
외형선
  6
Continuous
370
    15
100
AcDbLine
 10
17.75625879888337
 20
1.570701208725642
 30
0.0
 11
17.75625879888337
 21
2.381250000000005
 31
0.0
  0
SPLINE
  5
AC
330
1F
100
AcDbEntity
  8
외형선
  6
Continuous
370
    15
100
AcDbSpline
210
0.0
220
0.0
230
1.0
 70
     8
 71
     3
 72
     8
 73
     4
 74
     0
 42
0.000000001
 43
0.00000001
 40
0.0
 40
0.0
 40
0.0
 40
0.0
 40
1.0
 40
1.0
 40
1.0
 40
1.0
 10
18.25625
 20
1.342922231051558
 30
0.0
 10
18.09085454426468
 20
1.422121946532285
 30
0.0
 10
17.92358271557342
 20
1.498340838208943
 30
0.0
 10
17.75625879888337
 20
1.57070315204602
 30
0.0
  0
SPLINE
  5
AD
330
1F
100
AcDbEntity
  8
외형선
  6
Continuous
370
    15
100
AcDbSpline
210
0.0
220
0.0
230
1.0
 70
     8
 71
     3
 72
     8
 73
     4
 74
     0
 42
0.000000001
 43
0.00000001
 40
0.0
 40
0.0
 40
0.0
 40
0.0
 40
1.0
 40
1.0
 40
1.0
 40
1.0
 10
18.25625000000001
 20
0.5825383833836493
 30
0.0
 10
18.09085454426469
 20
0.6755304444959087
 30
0.0
 10
17.92358271557342
 20
0.7674506650114551
 30
0.0
 10
17.75625879888336
 20
0.8572721547508899
 30
0.0
  0
LINE
  5
AE
330
1F
100
AcDbEntity
  8
외형선
  6
Continuous
370
    15
100
AcDbLine
 10
17.75625879888337
 20
-1.789762351656741
 30
0.0
 11
17.75625879888337
 21
0.8572693258622506
 31
0.0
  0
SPLINE
  5
AF
330
1F
100
AcDbEntity
  8
외형선
  6
Continuous
370
    15
100
AcDbSpline
210
0.0
220
0.0
230
1.0
 70
     8
 71
     3
 72
     8
 73
     4
 74
     0
 42
0.000000001
 43
0.00000001
 40
0.0
 40
0.0
 40
0.0
 40
0.0
 40
1.0
 40
1.0
 40
1.0
 40
1.0
 10
18.25625
 20
-1.96644639994269
 30
0.0
 10
18.09085454426468
 20
-1.912359464944043
 30
0.0
 10
17.92358271557342
 20
-1.853266185143665
 30
0.0
 10
17.75625879888337
 20
-1.789760646190647
 30
0.0
  0
SPLINE
  5
B0
330
1F
100
AcDbEntity
  8
외형선
  6
Continuous
370
    15
100
AcDbSpline
210
0.0
220
0.0
230
1.0
 70
     8
 71
     3
 72
     8
 73
     4
 74
     0
 42
0.000000001
 43
0.00000001
 40
0.0
 40
0.0
 40
0.0
 40
0.0
 40
1.0
 40
1.0
 40
1.0
 40
1.0
 10
18.25625000000001
 20
-2.308895968722875
 30
0.0
 10
18.09085454426469
 20
-2.285433913402205
 30
0.0
 10
17.92358271557342
 20
-2.256244733448706
 30
0.0
 10
17.75625879888336
 20
-2.221584122915166
 30
0.0
  0
LINE
  5
B1
330
1F
100
AcDbEntity
  8
외형선
  6
Continuous
370
    15
100
AcDbLine
 10
17.75625879888337
 20
-2.381249999999997
 30
0.0
 11
17.75625879888337
 21
-2.221585214533906
 31
0.0
  0
SPLINE
  5
B2
330
1F
100
AcDbEntity
  8
외형선
  6
Continuous
370
    15
100
AcDbSpline
210
0.0
220
0.0
230
1.0
 70
     8
 71
     3
 72
     8
 73
     4
 74
     0
 42
0.000000001
 43
0.00000001
 40
0.0
 40
0.0
 40
0.0
 40
0.0
 40
1.0
 40
1.0
 40
1.0
 40
1.0
 10
18.25625000000001
 20
2.308895968722879
 30
0.0
 10
18.09085454426469
 20
2.285433913402207
 30
0.0
 10
17.92358271557342
 20
2.256244733448709
 30
0.0
 10
17.75625879888336
 20
2.221584122915167
 30
0.0
  0
SPLINE
  5
B7
330
1F
100
AcDbEntity
  8
외형선
  6
Continuous
370
    15
100
AcDbSpline
210
0.0
220
0.0
230
1.0
 70
    24
 71
     3
 72
    21
 73
    17
 74
     0
 42
0.000000001
 43
0.00000001
 40
0.0
 40
0.0
 40
0.0
 40
0.0
 40
0.1081674165144834
 40
0.1804820695005181
 40
0.2548938523220909
 40
0.3272085053081266
 40
0.4016202881297002
 40
0.4739349411156665
 40
0.5483467239373064
 40
0.6206613769233429
 40
0.6950731597449173
 40
0.7673878127309495
 40
0.8417995955525193
 40
0.9141142485384799
 40
0.988526031359971
 40
1.0
 40
1.0
 40
1.0
 40
1.0
 10
18.25625
 20
-1.96644639994269
 30
0.0
 10
18.25624999999999
 20
-1.886479579984696
 30
0.0
 10
18.25624999999998
 20
-1.753051440324341
 30
0.0
 10
18.25625000000007
 20
-1.515126577602968
 30
0.0
 10
18.25624999999995
 20
-1.294213753783351
 30
0.0
 10
18.25625000000007
 20
-1.057732722752143
 30
0.0
 10
18.25624999999999
 20
-0.8175280192843076
 30
0.0
 10
18.25624999999999
 20
-0.5758377897339783
 30
0.0
 10
18.25625
 20
-0.3439068015404994
 30
0.0
 10
18.25624999999998
 20
-0.1241476048463946
 30
0.0
 10
18.25625000000002
 20
0.0734062762111649
 30
0.0
 10
18.25625000000001
 20
0.2461715992611463
 30
0.0
 10
18.25625000000002
 20
0.3881910665184285
 30
0.0
 10
18.25625000000007
 20
0.490362107231866
 30
0.0
 10
18.25624999999999
 20
0.552508491907192
 30
0.0
 10
18.25624999999999
 20
0.5580006189060975
 30
0.0
 10
18.25624999999999
 20
0.558734343556347
 30
0.0
  0
SPLINE
  5
B8
330
1F
100
AcDbEntity
  8
외형선
  6
Continuous
370
    15
100
AcDbSpline
210
0.0
220
0.0
230
1.0
 70
    24
 71
     3
 72
    12
 73
     8
 74
     0
 42
0.000000001
 43
0.00000001
 40
0.0
 40
0.0
 40
0.0
 40
0.0
 40
0.1435738774951228
 40
0.3823294008696251
 40
0.6280088505964198
 40
0.812441331937786
 40
1.0
 40
1.0
 40
1.0
 40
1.0
 10
18.25625
 20
1.377900610110542
 30
0.0
 10
18.25625000000001
 20
1.415783556683486
 30
0.0
 10
18.25625000000002
 20
1.516663776115478
 30
0.0
 10
18.25625000000007
 20
1.707102129235138
 30
0.0
 10
18.25624999999995
 20
1.919857364861634
 30
0.0
 10
18.25625000000006
 20
2.123327090199077
 30
0.0
 10
18.25625000000004
 20
2.246694086775657
 30
0.0
 10
18.25625000000002
 20
2.308895968723217
 30
0.0
  0
LINE
  5
B9
330
1F
100
AcDbEntity
  8
중심선
 62
     1
100
AcDbLine
 10
-28.4
 20
0.0
 30
0.0
 11
28.4
 21
0.0
 31
0.0
  0
LINE
  5
BA
330
1F
100
AcDbEntity
  8
참조1
100
AcDbLine
 10
0.0000000000000036
 20
0.0
 30
0.0
 11
0.0000000000000089
 21
-40.0
 31
0.0
  0
LINE
  5
BB
330
1F
100
AcDbEntity
  8
참조1
100
AcDbLine
 10
0.0000000000000089
 20
-40.0
 30
0.0
 11
-15.15885681430866
 21
-39.99999999999999
 31
0.0
  0
CIRCLE
  5
BC
330
1F
100
AcDbEntity
  8
해칭선
100
AcDbCircle
 10
0.0
 20
0.0
 30
0.0
 40
2.999999999999999
  0
INSERT
  5
BD
330
1F
100
AcDbEntity
  8
0
  6
Continuous
 62
     7
100
AcDbBlockReference
 66
     1
  2
블럭10
 10
-13.9402729321252
 20
-52.04717430164393
 30
0.0
  0
ATTRIB
  5
BE
330
BD
100
AcDbEntity
  8
FORMAT
 62
     2
100
AcDbText
 10
-23.12156822086648
 20
-49.97180738881174
 30
0.0
 40
4.233333333333333
  1
E2002012 [ 4 FLUTE ]
 41
0.75
  7
SLDTEXTSTYLE0
 11
-23.12156822086648
 21
-52.08847405547841
 31
0.0
100
AcDbAttribute
  2
AUTOATTR0
 70
     0
 74
     1
  0
SEQEND
  5
BF
330
BD
100
AcDbEntity
  8
0
  6
Continuous
 62
     7
  0
HATCH
  5
C0
330
1F
100
AcDbEntity
  8
중심선
100
AcDbHatch
 10
0.0
 20
0.0
 30
0.0
210
0.0
220
0.0
230
1.0
  2
SOLID
 70
     1
 71
     0
 91
        1
 92
        0
 93
        4
 72
     1
 10
-8.225363627744361
 20
-35.79999999999999
 11
-11.67163887158164
 21
-35.79999999999999
 72
     1
 10
-11.67163887158164
 20
-35.79999999999999
 11
-13.79986873078566
 21
-38.33632558057259
 72
     1
 10
-13.79986873078566
 20
-38.33632558057259
 11
-10.35356040183523
 21
-38.3362861512701
 72
     1
 10
-10.35356040183523
 20
-38.3362861512701
 11
-8.225363627744361
 21
-35.79999999999999
 97
        0
 75
     0
 76
     1
 98
        1
 10
14.09411934298439
 20
-0.0010749287238893
  0
HATCH
  5
C1
330
1F
100
AcDbEntity
  8
중심선
100
AcDbHatch
 10
0.0
 20
0.0
 30
0.0
210
0.0
220
0.0
230
1.0
  2
SOLID
 70
     1
 71
     0
 91
        1
 92
        0
 93
        4
 72
     1
 10
-3.212599636708379
 20
-35.79999999999999
 11
-6.65887488054566
 21
-35.79999999999999
 72
     1
 10
-6.65887488054566
 20
-35.79999999999999
 11
-11.19001288890308
 21
-41.20000000000001
 72
     1
 10
-11.19001288890308
 20
-41.20000000000001
 11
-7.74373764506579
 21
-41.20000000000001
 72
     1
 10
-7.74373764506579
 20
-41.20000000000001
 11
-3.212599636708379
 21
-35.79999999999999
 97
        0
 75
     0
 76
     1
 98
        1
 10
14.09411934298439
 20
-0.0010749287238893
  0
HATCH
  5
C2
330
1F
100
AcDbEntity
  8
중심선
100
AcDbHatch
 10
0.0
 20
0.0
 30
0.0
210
0.0
220
0.0
230
1.0
  2
SOLID
 70
     1
 71
     0
 91
        1
 92
        0
 93
        4
 72
     1
 10
1.800164354327489
 20
-35.79999999999999
 11
-1.646110889509627
 21
-35.79999999999999
 72
     1
 10
-1.646110889509627
 20
-35.79999999999999
 11
-8.694547791398879
 21
-44.20000000000001
 72
     1
 10
-8.694547791398879
 20
-44.20000000000001
 11
-5.248272547561591
 21
-44.20000000000001
 72
     1
 10
-5.248272547561591
 20
-44.20000000000001
 11
1.800164354327489
 21
-35.79999999999999
 97
        0
 75
     0
 76
     1
 98
        1
 10
14.09411934298439
 20
-0.0010749287238893
  0
HATCH
  5
C3
330
1F
100
AcDbEntity
  8
중심선
100
AcDbHatch
 10
0.0
 20
0.0
 30
0.0
210
0.0
220
0.0
230
1.0
  2
SOLID
 70
     1
 71
     0
 91
        1
 92
        0
 93
        6
 72
     3
 10
6.600054785339688
 20
-40.00000000005127
 11
3.960054785062284
 21
1.540882976769353E-10
 40
0.3939339440162627
 50
17.09539180608439
 51
320.0019657685075
 73
     0
 72
     1
 10
8.283054441040283
 20
-38.58789400463827
 11
10.58835631474132
 21
-36.65356729459037
 72
     3
 10
6.600054785286841
 20
-40.00000000000014
 11
6.600054785286829
 21
-1.278976924368180E-13
 40
0.6363583540795982
 50
39.99873849337412
 51
368.4976242363724
 73
     1
 72
     1
 10
13.02538727718745
 20
-39.03999999993002
 11
5.280122092122763
 21
-39.03999999992999
 72
     1
 10
5.280122092122763
 20
-39.03999999992999
 11
5.280097047676829
 21
-40.95999999992991
 72
     1
 10
5.280097047676829
 20
-40.95999999992991
 11
9.721476817148867
 21
-40.95999999992988
 97
        0
 75
     0
 76
     1
 98
        1
 10
14.09411934298439
 20
-0.0010749287238893
  0
DIMENSION
  5
C4
330
1F
100
AcDbEntity
  8
치수문자_일반주서
100
AcDbDimension
  2
_D
 10
63.64058781770702
 20
-2.37249317107668
 30
0.0
 11
63.64058781770694
 21
24.73530345637155
 31
0.0
 70
   160
  1
%%c<>
 71
     2
 42
4.744986342153648
 52
-270.0
  3
SLDDIMSTYLE0
100
AcDbAlignedDimension
 13
25.40000000000001
 23
2.372493171076824
 33
0.0
 14
25.40000000000001
 24
-2.372493171076824
 34
0.0
 50
90.0000000000002
100
AcDbRotatedDimension
1001
PE_URL
1000

1001
ACAD
1000
DSTYLE
1002
{
1070
   171
1070
     8
1070
   273
1070
     7
1002
}
  0
DIMENSION
  5
D9
330
1F
100
AcDbEntity
  8
치수문자_일반주서
100
AcDbDimension
  2
_D_1
 10
18.25625000000001
 20
12.38125
 30
0.0
 11
44.69150000000001
 21
12.38125
 31
0.0
 70
   160
  1
<>
 71
     2
 42
7.143749999999997
  3
SLDDIMSTYLE0
100
AcDbAlignedDimension
 13
25.40000000000001
 23
2.372493171076824
 33
0.0
 14
18.25625000000001
 24
2.308895968722878
 34
0.0
 50
-0.000000000000057
100
AcDbRotatedDimension
1001
PE_URL
1000

1001
ACAD
1000
DSTYLE
1002
{
1070
   171
1070
     8
1070
   273
1070
     7
1002
}
  0
DIMENSION
  5
EE
330
1F
100
AcDbEntity
  8
치수문자_일반주서
100
AcDbDimension
  2
_D_2
 10
-25.40000000000001
 20
22.38125
 30
0.0
 11
-1.296159543218758
 21
22.38125
 31
0.0
 70
   160
  1
<>
 71
     2
 42
50.80000000000003
  3
SLDDIMSTYLE0
100
AcDbAlignedDimension
 13
25.40000000000001
 23
2.372493171076824
 33
0.0
 14
-25.40000000000001
 24
2.37249317107681
 34
0.0
100
AcDbRotatedDimension
1001
PE_URL
1000

1001
ACAD
1000
DSTYLE
1002
{
1070
   171
1070
     8
1070
   273
1070
     7
1002
}
  0
DIMENSION
  5
102
330
1F
100
AcDbEntity
  8
치수문자_일반주서
100
AcDbDimension
  2
_D_3
 10
-35.39999999999998
 20
-2.381250000000037
 30
0.0
 11
-35.40000000000006
 21
22.98524999999997
 31
0.0
 70
   160
  1
%%c<>
 71
     2
 42
4.753743171076807
 52
-270.0
  3
SLDDIMSTYLE0
100
AcDbAlignedDimension
 13
-25.40000000000001
 23
2.37249317107681
 33
0.0
 14
-25.40000000000001
 24
-2.381249999999997
 34
0.0
 50
90.0000000000002
100
AcDbRotatedDimension
1001
PE_URL
1000

1001
ACAD
1000
DSTYLE
1002
{
1070
   171
1070
     8
1070
   273
1070
     7
1002
}
  0
LINE
  5
116
330
1F
100
AcDbEntity
  8
참조1
100
AcDbLine
 10
82.81348381534559
 20
7.440000000000007
 30
0.0
 11
82.81348381534559
 21
-7.439999999999998
 31
0.0
  0
LINE
  5
117
330
1F
100
AcDbEntity
  8
참조1
100
AcDbLine
 10
95.51348381534561
 20
5.440000000000007
 30
0.0
 11
82.81348381534559
 21
5.440000000000007
 31
0.0
  0
SOLID
  5
118
330
1F
100
AcDbEntity
  8
참조1
100
AcDbTrace
 10
82.81348381534559
 20
5.440000000000007
 30
0.0
 11
89.16348381534559
 21
4.424000000000007
 31
0.0
 12
89.16348381534559
 22
6.456000000000007
 32
0.0
 13
89.16348381534559
 23
6.456000000000007
 33
0.0
  0
LINE
  5
119
330
1F
100
AcDbEntity
  8
참조1
100
AcDbLine
 10
95.51348381534561
 20
-5.439999999999998
 30
0.0
 11
82.81348381534559
 21
-5.439999999999998
 31
0.0
  0
SOLID
  5
11A
330
1F
100
AcDbEntity
  8
참조1
100
AcDbTrace
 10
82.81348381534559
 20
-5.439999999999998
 30
0.0
 11
89.16348381534559
 21
-6.455999999999998
 31
0.0
 12
89.16348381534559
 22
-4.423999999999998
 32
0.0
 13
89.16348381534559
 23
-4.423999999999998
 33
0.0
  0
MTEXT
  5
11B
330
1F
100
AcDbEntity
  8
참조1
100
AcDbMText
 10
92.19783394797159
 20
11.01029177718834
 30
0.0
 40
3.5
 41
0.0
 71
     1
 72
     1
  1
A
  7
SLDTEXTSTYLE0
 73
     1
 44
1.0
  0
MTEXT
  5
11C
330
1F
100
AcDbEntity
  8
참조1
100
AcDbMText
 10
92.19783394797159
 20
0.1302917771883326
 30
0.0
 40
3.5
 41
0.0
 71
     1
 72
     1
  1
A
  7
SLDTEXTSTYLE0
 73
     1
 44
1.0
  0
INSERT
  5
123
330
1F
100
AcDbEntity
  8
해칭선
100
AcDbBlockReference
  2
SW_DOWELSYMBOL_0
 10
0.0
 20
0.0
 30
0.0
  0
LINE
  5
1EF
330
1F
100
AcDbEntity
  8
0
  6
Continuous
 62
     1
370
    15
100
AcDbLine
 10
-20.72713320068094
 20
-2.381249999999994
 30
0.0
 11
-19.27501576833529
 21
-2.381249999999998
 31
0.0
1001
PE_URL
1000

  0
LINE
  5
1F0
330
1F
100
AcDbEntity
  8
0
  6
Continuous
 62
     1
370
    15
100
AcDbLine
 10
-19.27501576833527
 20
2.381250000000005
 30
0.0
 11
-20.72713320068095
 21
2.381250000000005
 31
0.0
1001
PE_URL
1000

  0
SPLINE
  5
1F1
330
1F
100
AcDbEntity
  8
0
  6
Continuous
 62
     1
370
    15
100
AcDbSpline
210
0.0
220
0.0
230
1.0
 70
     8
 71
     3
 72
    14
 73
    10
 74
     0
 42
0.000000001
 43
0.00000001
 40
0.0
 40
0.0
 40
0.0
 40
0.0
 40
0.160469120195039
 40
0.3206543633465804
 40
0.4813435170148963
 40
0.6418986120717246
 40
0.8020758242052449
 40
0.9598324717798656
 40
0.9999999999999999
 40
0.9999999999999999
 40
0.9999999999999999
 40
0.9999999999999999
 10
-18.25625
 20
1.966446399942699
 30
0.0
 10
-18.52301638782377
 20
2.046127091846847
 30
0.0
 10
-19.05607724181196
 20
2.20534751695098
 30
0.0
 10
-19.85559813996102
 20
2.342297970999224
 30
0.0
 10
-20.65624953338376
 20
2.395825220959857
 30
0.0
 10
-21.45662440747057
 20
2.359860910223629
 30
0.0
 10
-22.25139346009778
 20
2.230446476331453
 30
0.0
 10
-22.84689144050241
 20
2.087769916212515
 30
0.0
 10
-23.17592579641267
 20
1.969383030220108
 30
0.0
 10
-23.24270135186642
 20
1.945357119464642
 30
0.0
1001
PE_URL
1000

  0
SPLINE
  5
1F2
330
1F
100
AcDbEntity
  8
외형선
  6
Continuous
370
    15
100
AcDbSpline
210
0.0
220
0.0
230
1.0
 70
    24
 71
     3
 72
    21
 73
    17
 74
     0
 42
0.000000001
 43
0.00000001
 40
0.0
 40
0.0
 40
0.0
 40
0.0
 40
0.0252708529797826
 40
0.0978422910134374
 40
0.1725183056664065
 40
0.2450897437000625
 40
0.3197657583530327
 40
0.3923371963868388
 40
0.4670132110396616
 40
0.5395846490733173
 40
0.6142606637262871
 40
0.6868321017599442
 40
0.7615081164129163
 40
0.8340795544464875
 40
0.9087555690995447
 40
1.0
 40
1.0
 40
1.0
 40
1.0
 10
-18.25625000000003
 20
-0.5511044606536081
 30
0.0
 10
-18.25625000000003
 20
-0.5493445480989062
 30
0.0
 10
-18.25625000000004
 20
-0.5425306159980358
 30
0.0
 10
-18.25625000000005
 20
-0.4697487861404602
 30
0.0
 10
-18.25624999999998
 20
-0.3601751423963807
 30
0.0
 10
-18.25625000000005
 20
-0.2097069765277516
 30
0.0
 10
-18.25625000000004
 20
-0.032283697863816
 30
0.0
 10
-18.25624999999996
 20
0.1721375065134315
 30
0.0
 10
-18.25624999999999
 20
0.3935919572428547
 30
0.0
 10
-18.25625000000003
 20
0.6299272009189868
 30
0.0
 10
-18.25625000000004
 20
0.8701804599373536
 30
0.0
 10
-18.25625000000002
 20
1.1118245397241
 30
0.0
 10
-18.25625000000005
 20
1.343893797767816
 30
0.0
 10
-18.25624999999995
 20
1.563152571971681
 30
0.0
 10
-18.25625000000005
 20
1.779536000694044
 30
0.0
 10
-18.25625000000002
 20
1.900128894830864
 30
0.0
 10
-18.25625
 20
1.966446399942699
 30
0.0
  0
SPLINE
  5
1F3
330
1F
100
AcDbEntity
  8
0
  6
Continuous
 62
     1
370
    15
100
AcDbSpline
210
0.0
220
0.0
230
1.0
 70
     8
 71
     3
 72
    28
 73
    24
 74
     0
 42
0.000000001
 43
0.00000001
 40
0.0
 40
0.0
 40
0.0
 40
0.0
 40
0.1249999999999983
 40
0.1249999999999983
 40
0.1874999999999975
 40
0.1874999999999975
 40
0.2499999999999967
 40
0.2499999999999967
 40
0.3124999999999958
 40
0.3124999999999958
 40
0.374999999999995
 40
0.374999999999995
 40
0.4999999999999956
 40
0.4999999999999956
 40
0.6249999999999961
 40
0.6249999999999961
 40
0.6874999999999974
 40
0.6874999999999974
 40
0.7499999999999989
 40
0.7499999999999989
 40
0.8749999999999994
 40
0.8749999999999994
 40
1.0
 40
1.0
 40
1.0
 40
1.0
 10
-25.40000000000001
 20
2.372493171076826
 30
0.0
 10
-25.10534723378058
 20
2.357817352766885
 30
0.0
 10
-24.80379682211899
 20
2.324398788727862
 30
0.0
 10
-24.35682029143612
 20
2.247595532717881
 30
0.0
 10
-24.20985956290973
 20
2.217685925936854
 30
0.0
 10
-23.9130604895904
 20
2.149168306279019
 30
0.0
 10
-23.76340577523636
 20
2.110543734384196
 30
0.0
 10
-23.46420516103555
 20
2.025173893761536
 30
0.0
 10
-23.31466440343563
 20
1.978430116195538
 30
0.0
 10
-23.01831454302691
 20
1.877718876249833
 30
0.0
 10
-22.87107299994745
 20
1.823725220087375
 30
0.0
 10
-22.42366405886683
 20
1.650680194292544
 30
0.0
 10
-22.12338299385993
 20
1.521126376670052
 30
0.0
 10
-21.5329380501829
 20
1.241927369474089
 30
0.0
 10
-21.23125888930863
 20
1.090461047651413
 30
0.0
 10
-20.78477245452623
 20
0.8532474047403654
 30
0.0
 10
-20.63795922926241
 20
0.7727203466871001
 30
0.0
 10
-20.34074888906774
 20
0.6083246548976967
 30
0.0
 10
-20.19099973245678
 20
0.5245648617158115
 30
0.0
 10
-19.74225728702742
 20
0.2707836350816885
 30
0.0
 10
-19.44817348288115
 20
0.0991178274888026
 30
0.0
 10
-18.8511288442129
 20
-0.244778754535229
 30
0.0
 10
-18.55200490722173
 20
-0.4162529296247185
 30
0.0
 10
-18.25625000000002
 20
-0.5825383833836354
 30
0.0
1001
PE_URL
1000

  0
LINE
  5
1F4
330
1F
100
AcDbEntity
  8
0
  6
Continuous
 62
     1
370
    15
100
AcDbLine
 10
-25.40000000000001
 20
2.156653712915251
 30
0.0
 11
-25.40000000000001
 21
-0.204028712915269
 31
0.0
1001
PE_URL
1000

  0
SPLINE
  5
1F5
330
1F
100
AcDbEntity
  8
0
  6
Continuous
 62
     1
370
    15
100
AcDbSpline
210
0.0
220
0.0
230
1.0
 70
     8
 71
     3
 72
    28
 73
    24
 74
     0
 42
0.000000001
 43
0.00000001
 40
0.0
 40
0.0
 40
0.0
 40
0.0
 40
0.1249999999999994
 40
0.1249999999999994
 40
0.1874999999999992
 40
0.1874999999999992
 40
0.2499999999999989
 40
0.2499999999999989
 40
0.3124999999999986
 40
0.3124999999999986
 40
0.3749999999999983
 40
0.3749999999999983
 40
0.4999999999999978
 40
0.4999999999999978
 40
0.6249999999999972
 40
0.6249999999999972
 40
0.6874999999999969
 40
0.6874999999999969
 40
0.7499999999999967
 40
0.7499999999999967
 40
0.8749999999999983
 40
0.8749999999999983
 40
1.0
 40
1.0
 40
1.0
 40
1.0
 10
-25.40000000000003
 20
2.156653712915251
 30
0.0
 10
-25.10534723378059
 20
2.08403643568783
 30
0.0
 10
-24.80379682211897
 20
1.993924304193282
 30
0.0
 10
-24.35682029143612
 20
1.836945970772016
 30
0.0
 10
-24.20985956290975
 20
1.781180221161225
 30
0.0
 10
-23.91306048959036
 20
1.662581228289122
 30
0.0
 10
-23.76340577523636
 20
1.599747995003584
 30
0.0
 10
-23.46420516103556
 20
1.468065254147657
 30
0.0
 10
-23.31466440343562
 20
1.399218027569715
 30
0.0
 10
-23.01831454302689
 20
1.2567722315796
 30
0.0
 10
-22.87107299994744
 20
1.18311975094055
 30
0.0
 10
-22.42366405886679
 20
0.9547182594253948
 30
0.0
 10
-22.12338299385993
 20
0.7933848019175703
 30
0.0
 10
-21.53293805018287
 20
0.4627354178536153
 30
0.0
 10
-21.23125888930862
 20
0.2912827353322155
 30
0.0
 10
-20.78477245452623
 20
0.0338143266670167
 30
0.0
 10
-20.6379592292624
 20
-0.0518538654160014
 30
0.0
 10
-20.34074888906773
 20
-0.2233434789046082
 30
0.0
 10
-20.19099973245677
 20
-0.3090385545462605
 30
0.0
 10
-19.74225728702743
 20
-0.5637077972783863
 30
0.0
 10
-19.44817348288116
 20
-0.7294455065060496
 30
0.0
 10
-18.8511288442129
 20
-1.048624707436078
 30
0.0
 10
-18.55200490722172
 20
-1.201299812226017
 30
0.0
 10
-18.25625
 20
-1.342922231051549
 30
0.0
1001
PE_URL
1000

  0
SPLINE
  5
1F6
330
1F
100
AcDbEntity
  8
외형선
  6
Continuous
370
    15
100
AcDbSpline
210
0.0
220
0.0
230
1.0
 70
    24
 71
     3
 72
    12
 73
     8
 74
     0
 42
0.000000001
 43
0.00000001
 40
0.0
 40
0.0
 40
0.0
 40
0.0
 40
0.212251900463462
 40
0.4293125387044412
 40
0.6681487742442358
 40
0.9139112767946006
 40
1.0
 40
1.0
 40
1.0
 40
1.0
 10
-18.25625000000002
 20
-2.308895968722869
 30
0.0
 10
-18.25625000000002
 20
-2.238503672929827
 30
0.0
 10
-18.25625000000004
 20
-2.096124287180366
 30
0.0
 10
-18.25625000000003
 20
-1.876666714810405
 30
0.0
 10
-18.25625000000002
 20
-1.65666597491742
 30
0.0
 10
-18.25625000000002
 20
-1.485566107797418
 30
0.0
 10
-18.25625000000001
 20
-1.400077923507293
 30
0.0
 10
-18.25625000000002
 20
-1.377900610110533
 30
0.0
  0
SPLINE
  5
1F7
330
1F
100
AcDbEntity
  8
0
  6
Continuous
 62
     1
370
    15
100
AcDbSpline
210
0.0
220
0.0
230
1.0
 70
     8
 71
     3
 72
    28
 73
    24
 74
     0
 42
0.000000001
 43
0.00000001
 40
0.0
 40
0.0
 40
0.0
 40
0.0
 40
0.1249999999999985
 40
0.1249999999999985
 40
0.1874999999999977
 40
0.1874999999999977
 40
0.2499999999999969
 40
0.2499999999999969
 40
0.3124999999999961
 40
0.3124999999999961
 40
0.3749999999999953
 40
0.3749999999999953
 40
0.4999999999999959
 40
0.4999999999999959
 40
0.6249999999999963
 40
0.6249999999999963
 40
0.6874999999999977
 40
0.6874999999999977
 40
0.749999999999999
 40
0.749999999999999
 40
0.8749999999999996
 40
0.8749999999999996
 40
1.0
 40
1.0
 40
1.0
 40
1.0
 10
-25.40000000000001
 20
-0.2040287129152673
 30
0.0
 10
-25.10534723378058
 20
-0.3746825303255735
 30
0.0
 10
-24.803796822119
 20
-0.5450506325742096
 30
0.0
 10
-24.35682029143612
 20
-0.7912366734795188
 30
0.0
 10
-24.20985956290975
 20
-0.8715450097495835
 30
0.0
 10
-23.91306048959038
 20
-1.028978698226341
 30
0.0
 10
-23.76340577523636
 20
-1.106058941583106
 30
0.0
 10
-23.46420516103556
 20
-1.255560407559534
 30
0.0
 10
-23.31466440343563
 20
-1.327979074279089
 30
0.0
 10
-23.01831454302691
 20
-1.466930798697643
 30
0.0
 10
-22.87107299994743
 20
-1.533548902066872
 30
0.0
 10
-22.42366405886684
 20
-1.724872129267315
 30
0.0
 10
-22.12338299385992
 20
-1.840082035385869
 30
0.0
 10
-21.53293805018287
 20
-2.038956536982166
 30
0.0
 10
-21.23125888930862
 20
-2.123860408889399
 30
0.0
 10
-20.78477245452624
 20
-2.224793163735015
 30
0.0
 10
-20.63795922926241
 20
-2.254025650134253
 30
0.0
 10
-20.34074888906773
 20
-2.303837989071923
 30
0.0
 10
-20.19099973245677
 20
-2.32434771478647
 30
0.0
 10
-19.74225728702742
 20
-2.372059002004782
 30
0.0
 10
-19.44817348288116
 20
-2.385397475660241
 30
0.0
 10
-18.85112884421289
 20
-2.374874485512972
 30
0.0
 10
-18.55200490722171
 20
-2.350850071776946
 30
0.0
 10
-18.25625000000002
 20
-2.308895968722872
 30
0.0
1001
PE_URL
1000

  0
LINE
  5
1F8
330
1F
100
AcDbEntity
  8
0
  6
Continuous
 62
     1
370
    15
100
AcDbLine
 10
-25.40000000000001
 20
2.372493171076826
 30
0.0
 11
-25.40000000000001
 21
2.156653712915251
 31
0.0
1001
PE_URL
1000

  0
LINE
  5
1F9
330
1F
100
AcDbEntity
  8
외형선
  6
Continuous
370
    15
100
AcDbLine
 10
-18.25625000000002
 20
-0.5825383833836407
 30
0.0
 11
-18.25625
 21
-1.342922231051549
 31
0.0
  0
SPLINE
  5
1FA
330
1F
100
AcDbEntity
  8
0
  6
Continuous
 62
     1
370
    15
100
AcDbSpline
210
0.0
220
0.0
230
1.0
 70
     8
 71
     3
 72
    13
 73
     9
 74
     0
 42
0.000000001
 43
0.00000001
 40
0.0
 40
0.0
 40
0.0
 40
0.0
 40
0.1561996725630522
 40
0.3271250006317857
 40
0.4954673408595482
 40
0.6638011429495031
 40
0.831661923968761
 40
1.0
 40
1.0
 40
1.0
 40
1.0
 10
-20.72713320068094
 20
-2.377649223594165
 30
0.0
 10
-20.97050326433574
 20
-2.371951560936495
 30
0.0
 10
-21.48018699747351
 20
-2.360019090977335
 30
0.0
 10
-22.25140633207053
 20
-2.232619536883803
 30
0.0
 10
-23.04235693341541
 20
-2.028478148515074
 30
0.0
 10
-23.82853431048093
 20
-1.749637434404992
 30
0.0
 10
-24.61381822641176
 20
-1.409478466202376
 30
0.0
 10
-25.13769149788838
 20
-1.142987290890709
 30
0.0
 10
-25.40000000000003
 20
-1.009552537052352
 30
0.0
1001
PE_URL
1000

  0
LINE
  5
1FB
330
1F
100
AcDbEntity
  8
0
  6
Continuous
 62
     1
370
    15
100
AcDbLine
 10
-25.40000000000001
 20
-0.2040287129152673
 30
0.0
 11
-25.40000000000001
 21
-1.009552537052352
 31
0.0
1001
PE_URL
1000

  0
SPLINE
  5
1FC
330
1F
100
AcDbEntity
  8
0
  6
Continuous
 62
     1
370
    15
100
AcDbSpline
210
0.0
220
0.0
230
1.0
 70
     8
 71
     3
 72
    10
 73
     6
 74
     0
 42
0.000000001
 43
0.00000001
 40
0.0
 40
0.0
 40
0.0
 40
0.0
 40
0.3712620570530419
 40
0.741494627916461
 40
1.0
 40
1.0
 40
1.0
 40
1.0
 10
-25.40000000000001
 20
-2.372493171076815
 30
0.0
 10
-25.13291324676965
 20
-2.350186834090401
 30
0.0
 10
-24.59948035497354
 20
-2.305636014178422
 30
0.0
 10
-23.88087545484994
 20
-2.154235488112949
 30
0.0
 10
-23.42863843490903
 20
-2.006215487730589
 30
0.0
 10
-23.24270135186642
 20
-1.945357119464632
 30
0.0
1001
PE_URL
1000

  0
LINE
  5
1FD
330
1F
100
AcDbEntity
  8
0
  6
Continuous
 62
     1
370
    15
100
AcDbLine
 10
-25.40000000000001
 20
-0.9982756053061229
 30
0.0
 11
-25.40000000000001
 21
-2.372493171076815
 31
0.0
1001
PE_URL
1000

  0
SPLINE
  5
1FE
330
1F
100
AcDbEntity
  8
0
  6
Continuous
 62
     1
370
    15
100
AcDbSpline
210
0.0
220
0.0
230
1.0
 70
     8
 71
     3
 72
     9
 73
     5
 74
     0
 42
0.000000001
 43
0.00000001
 40
0.0
 40
0.0
 40
0.0
 40
0.0
 40
0.2287010267104967
 40
1.0
 40
1.0
 40
1.0
 40
1.0
 10
-19.27501576833527
 20
2.37224701621443
 30
0.0
 10
-19.19737542242186
 20
2.374949151629121
 30
0.0
 10
-18.85789139373108
 20
2.38676429497831
 30
0.0
 10
-18.51823027338743
 20
2.342803152658664
 30
0.0
 10
-18.25625000000002
 20
2.308895968722886
 30
0.0
1001
PE_URL
1000

  0
LINE
  5
1FF
330
1F
100
AcDbEntity
  8
외형선
  6
Continuous
370
    15
100
AcDbLine
 10
-18.25625000000002
 20
2.308895968722883
 30
0.0
 11
-18.25625
 21
1.966446399942699
 31
0.0
  0
LINE
  5
200
330
1F
100
AcDbEntity
  8
외형선
  6
Continuous
370
    15
100
AcDbLine
 10
-17.75625879888337
 20
-1.570701208725634
 30
0.0
 11
-17.75625879888338
 21
-2.381249999999998
 31
0.0
  0
SPLINE
  5
201
330
1F
100
AcDbEntity
  8
외형선
  6
Continuous
370
    15
100
AcDbSpline
210
0.0
220
0.0
230
1.0
 70
     8
 71
     3
 72
     8
 73
     4
 74
     0
 42
0.000000001
 43
0.00000001
 40
0.0
 40
0.0
 40
0.0
 40
0.0
 40
1.0
 40
1.0
 40
1.0
 40
1.0
 10
-18.25625
 20
-1.342922231051549
 30
0.0
 10
-18.09085454426468
 20
-1.422121946532275
 30
0.0
 10
-17.92358271557342
 20
-1.498340838208936
 30
0.0
 10
-17.75625879888337
 20
-1.570703152046011
 30
0.0
  0
SPLINE
  5
202
330
1F
100
AcDbEntity
  8
외형선
  6
Continuous
370
    15
100
AcDbSpline
210
0.0
220
0.0
230
1.0
 70
     8
 71
     3
 72
     8
 73
     4
 74
     0
 42
0.000000001
 43
0.00000001
 40
0.0
 40
0.0
 40
0.0
 40
0.0
 40
1.0
 40
1.0
 40
1.0
 40
1.0
 10
-18.25625000000001
 20
-0.5825383833836407
 30
0.0
 10
-18.09085454426469
 20
-0.6755304444958997
 30
0.0
 10
-17.92358271557342
 20
-0.7674506650114469
 30
0.0
 10
-17.75625879888336
 20
-0.8572721547508805
 30
0.0
  0
LINE
  5
203
330
1F
100
AcDbEntity
  8
외형선
  6
Continuous
370
    15
100
AcDbLine
 10
-17.75625879888337
 20
1.78976235165675
 30
0.0
 11
-17.75625879888337
 21
-0.8572693258622425
 31
0.0
  0
SPLINE
  5
204
330
1F
100
AcDbEntity
  8
외형선
  6
Continuous
370
    15
100
AcDbSpline
210
0.0
220
0.0
230
1.0
 70
     8
 71
     3
 72
     8
 73
     4
 74
     0
 42
0.000000001
 43
0.00000001
 40
0.0
 40
0.0
 40
0.0
 40
0.0
 40
1.0
 40
1.0
 40
1.0
 40
1.0
 10
-18.25625
 20
1.966446399942699
 30
0.0
 10
-18.09085454426468
 20
1.912359464944052
 30
0.0
 10
-17.92358271557342
 20
1.853266185143672
 30
0.0
 10
-17.75625879888337
 20
1.789760646190656
 30
0.0
  0
SPLINE
  5
205
330
1F
100
AcDbEntity
  8
외형선
  6
Continuous
370
    15
100
AcDbSpline
210
0.0
220
0.0
230
1.0
 70
     8
 71
     3
 72
     8
 73
     4
 74
     0
 42
0.000000001
 43
0.00000001
 40
0.0
 40
0.0
 40
0.0
 40
0.0
 40
1.0
 40
1.0
 40
1.0
 40
1.0
 10
-18.25625000000001
 20
2.308895968722883
 30
0.0
 10
-18.09085454426469
 20
2.285433913402214
 30
0.0
 10
-17.92358271557342
 20
2.256244733448714
 30
0.0
 10
-17.75625879888336
 20
2.221584122915175
 30
0.0
  0
LINE
  5
206
330
1F
100
AcDbEntity
  8
외형선
  6
Continuous
370
    15
100
AcDbLine
 10
-17.75625879888337
 20
2.381250000000005
 30
0.0
 11
-17.75625879888337
 21
2.221585214533913
 31
0.0
  0
SPLINE
  5
207
330
1F
100
AcDbEntity
  8
외형선
  6
Continuous
370
    15
100
AcDbSpline
210
0.0
220
0.0
230
1.0
 70
     8
 71
     3
 72
     8
 73
     4
 74
     0
 42
0.000000001
 43
0.00000001
 40
0.0
 40
0.0
 40
0.0
 40
0.0
 40
1.0
 40
1.0
 40
1.0
 40
1.0
 10
-18.25625000000001
 20
-2.308895968722872
 30
0.0
 10
-18.09085454426469
 20
-2.285433913402198
 30
0.0
 10
-17.92358271557342
 20
-2.2562447334487
 30
0.0
 10
-17.75625879888336
 20
-2.221584122915161
 30
0.0
  0
SPLINE
  5
208
330
1F
100
AcDbEntity
  8
외형선
  6
Continuous
370
    15
100
AcDbSpline
210
0.0
220
0.0
230
1.0
 70
    24
 71
     3
 72
    21
 73
    17
 74
     0
 42
0.000000001
 43
0.00000001
 40
0.0
 40
0.0
 40
0.0
 40
0.0
 40
0.1081674165144834
 40
0.1804820695005181
 40
0.2548938523220909
 40
0.3272085053081266
 40
0.4016202881297002
 40
0.4739349411156665
 40
0.5483467239373064
 40
0.6206613769233429
 40
0.6950731597449173
 40
0.7673878127309495
 40
0.8417995955525193
 40
0.9141142485384799
 40
0.988526031359971
 40
1.0
 40
1.0
 40
1.0
 40
1.0
 10
-18.25625
 20
1.966446399942699
 30
0.0
 10
-18.25624999999999
 20
1.886479579984705
 30
0.0
 10
-18.25624999999998
 20
1.753051440324349
 30
0.0
 10
-18.25625000000007
 20
1.515126577602977
 30
0.0
 10
-18.25624999999995
 20
1.29421375378336
 30
0.0
 10
-18.25625000000007
 20
1.057732722752151
 30
0.0
 10
-18.25624999999999
 20
0.8175280192843158
 30
0.0
 10
-18.25624999999999
 20
0.5758377897339867
 30
0.0
 10
-18.25625
 20
0.3439068015405075
 30
0.0
 10
-18.25624999999998
 20
0.1241476048464031
 30
0.0
 10
-18.25625000000002
 20
-0.0734062762111555
 30
0.0
 10
-18.25625000000001
 20
-0.246171599261137
 30
0.0
 10
-18.25625000000002
 20
-0.3881910665184199
 30
0.0
 10
-18.25625000000007
 20
-0.4903621072318581
 30
0.0
 10
-18.25624999999999
 20
-0.5525084919071829
 30
0.0
 10
-18.25624999999999
 20
-0.5580006189060888
 30
0.0
 10
-18.25624999999999
 20
-0.5587343435563382
 30
0.0
  0
SPLINE
  5
209
330
1F
100
AcDbEntity
  8
외형선
  6
Continuous
370
    15
100
AcDbSpline
210
0.0
220
0.0
230
1.0
 70
    24
 71
     3
 72
    12
 73
     8
 74
     0
 42
0.000000001
 43
0.00000001
 40
0.0
 40
0.0
 40
0.0
 40
0.0
 40
0.1435738774951228
 40
0.3823294008696251
 40
0.6280088505964198
 40
0.812441331937786
 40
1.0
 40
1.0
 40
1.0
 40
1.0
 10
-18.25625
 20
-1.377900610110533
 30
0.0
 10
-18.25625000000001
 20
-1.415783556683479
 30
0.0
 10
-18.25625000000002
 20
-1.516663776115468
 30
0.0
 10
-18.25625000000007
 20
-1.707102129235128
 30
0.0
 10
-18.25624999999996
 20
-1.919857364861624
 30
0.0
 10
-18.25625000000006
 20
-2.123327090199069
 30
0.0
 10
-18.25625000000004
 20
-2.246694086775648
 30
0.0
 10
-18.25625000000002
 20
-2.30889596872321
 30
0.0
  0
ENDSEC
  0
SECTION
  2
OBJECTS
  0
DICTIONARY
  5
C
330
0
100
AcDbDictionary
281
     1
  3
ACAD_DETAILVIEWSTYLE
350
1A8
  3
ACAD_GROUP
350
D
  3
ACAD_IMAGE_VARS
350
22D
  3
ACAD_LAYOUT
350
1A
  3
ACAD_MLINESTYLE
350
17
  3
ACAD_PLOTSETTINGS
350
19
  3
ACAD_PLOTSTYLENAME
350
E
  3
ACAD_SCALELIST
350
47
  3
ACAD_SECTIONVIEWSTYLE
350
1A9
  3
AcDbVariableDictionary
350
1A3
  3
APPDATA
350
145
  3
DWGPROPS
350
22E
  0
DICTIONARY
  5
17E
330
2
100
AcDbDictionary
280
     1
281
     1
  3
ACAD_LAYERSTATES
360
17F
  0
DICTIONARY
  5
1A8
102
{ACAD_REACTORS
330
C
102
}
330
C
100
AcDbDictionary
281
     1
  0
DICTIONARY
  5
D
102
{ACAD_REACTORS
330
C
102
}
330
C
100
AcDbDictionary
281
     1
  0
RASTERVARIABLES
  5
22D
102
{ACAD_REACTORS
330
C
102
}
330
C
100
AcDbRasterVariables
 90
        0
 70
     1
 71
     1
 72
     1
  0
DICTIONARY
  5
1A
102
{ACAD_REACTORS
330
C
102
}
330
C
100
AcDbDictionary
281
     1
  3
Layout1
350
1E
  3
Layout2
350
26
  3
Model
350
22
  0
DICTIONARY
  5
17
102
{ACAD_REACTORS
330
C
102
}
330
C
100
AcDbDictionary
281
     1
  3
Standard
350
18
  0
DICTIONARY
  5
19
102
{ACAD_REACTORS
330
C
102
}
330
C
100
AcDbDictionary
281
     1
  0
ACDBDICTIONARYWDFLT
  5
E
102
{ACAD_REACTORS
330
C
102
}
330
C
100
AcDbDictionary
281
     1
  3
Normal
350
F
100
AcDbDictionaryWithDefault
340
F
  0
DICTIONARY
  5
47
102
{ACAD_REACTORS
330
C
102
}
330
C
100
AcDbDictionary
281
     1
  3
A0
350
48
  3
A1
350
49
  3
A2
350
4A
  3
A3
350
4B
  3
A4
350
4C
  3
A5
350
4D
  3
A6
350
4E
  3
A7
350
4F
  3
A8
350
50
  3
A9
350
51
  3
B0
350
52
  3
B1
350
53
  3
B2
350
54
  3
B3
350
55
  3
B4
350
56
  3
B5
350
57
  3
B6
350
58
  3
B7
350
59
  3
B8
350
5A
  3
B9
350
5B
  3
C0
350
5C
  3
C1
350
5D
  3
C2
350
5E
  3
C3
350
5F
  3
C4
350
60
  3
C5
350
61
  3
C6
350
62
  3
C7
350
63
  3
C8
350
64
  3
C9
350
65
  3
D0
350
66
  3
D1
350
67
  3
D2
350
68
  0
DICTIONARY
  5
1A9
102
{ACAD_REACTORS
330
C
102
}
330
C
100
AcDbDictionary
281
     1
  0
DICTIONARY
  5
1A3
102
{ACAD_REACTORS
330
C
102
}
330
C
100
AcDbDictionary
281
     1
  0
DICTIONARY
  5
145
102
{ACAD_REACTORS
330
C
102
}
330
C
100
AcDbDictionary
281
     1
  0
XRECORD
  5
22E
102
{ACAD_REACTORS
330
C
102
}
330
C
100
AcDbXrecord
280
     1
  1
DWGPROPS COOKIE
  2

  3

  4

  6

  7

  8
12016016
  9

300
=
301
=
302
=
303
=
304
=
305
=
306
=
307
=
308
=
309
=
 40
0.0
 41
2458313.082045984
 42
2458318.273078935
  1

 90
        0
  0
DICTIONARY
  5
17F
102
{ACAD_REACTORS
330
17E
102
}
330
17E
100
AcDbDictionary
281
     1
  0
LAYOUT
  5
1E
102
{ACAD_REACTORS
330
1A
102
}
330
1A
100
AcDbPlotSettings
  1

  2
none_device
  4

  6

 40
0.0
 41
0.0
 42
0.0
 43
0.0
 44
0.0
 45
0.0
 46
0.0
 47
0.0
 48
0.0
 49
0.0
140
0.0
141
0.0
142
1.0
143
1.0
 70
   688
 72
     1
 73
     0
 74
     5
  7

 75
    16
147
1.0
148
0.0
149
0.0
100
AcDbLayout
  1
Layout1
 70
     1
 71
     1
 10
0.0
 20
0.0
 11
420.0
 21
297.0
 12
0.0
 22
0.0
 32
0.0
 14
1.000000000000000E+20
 24
1.000000000000000E+20
 34
1.000000000000000E+20
 15
-1.000000000000000E+20
 25
-1.000000000000000E+20
 35
-1.000000000000000E+20
146
0.0
 13
0.0
 23
0.0
 33
0.0
 16
1.0
 26
0.0
 36
0.0
 17
0.0
 27
1.0
 37
0.0
 76
     0
330
1B
  0
LAYOUT
  5
26
102
{ACAD_REACTORS
330
1A
102
}
330
1A
100
AcDbPlotSettings
  1

  2
none_device
  4

  6

 40
0.0
 41
0.0
 42
0.0
 43
0.0
 44
0.0
 45
0.0
 46
0.0
 47
0.0
 48
0.0
 49
0.0
140
0.0
141
0.0
142
1.0
143
1.0
 70
   688
 72
     1
 73
     0
 74
     5
  7

 75
    16
147
1.0
148
0.0
149
0.0
100
AcDbLayout
  1
Layout2
 70
     1
 71
     2
 10
0.0
 20
0.0
 11
0.0
 21
0.0
 12
0.0
 22
0.0
 32
0.0
 14
0.0
 24
0.0
 34
0.0
 15
0.0
 25
0.0
 35
0.0
146
0.0
 13
0.0
 23
0.0
 33
0.0
 16
1.0
 26
0.0
 36
0.0
 17
0.0
 27
1.0
 37
0.0
 76
     0
330
23
  0
LAYOUT
  5
22
102
{ACAD_REACTORS
330
1A
102
}
330
1A
100
AcDbPlotSettings
  1

  2
none_device
  4
ANSI_A_(11.00_x_8.50_Inches)
  6

 40
6.35
 41
19.05
 42
6.35000508
 43
19.05000254
 44
279.4
 45
215.9
 46
116.0200047679344
 47
79.30220177077226
 48
0.0
 49
0.0
140
0.0
141
0.0
142
0.0752558462788414
143
1.0
 70
  1696
 72
     0
 73
     0
 74
     0
  7

 75
     0
147
0.0235690232323232
148
0.0
149
0.0
100
AcDbLayout
  1
Model
 70
     1
 71
     0
 10
0.0
 20
0.0
 11
420.0
 21
297.0
 12
0.0
 22
0.0
 32
0.0
 14
-39.77500000000009
 24
-49.97180738881174
 34
0.0
 15
95.51348381534561
 25
38.73530345637156
 35
0.0
146
0.0
 13
0.0
 23
0.0
 33
0.0
 16
1.0
 26
0.0
 36
0.0
 17
0.0
 27
1.0
 37
0.0
 76
     0
330
1F
331
29
  0
MLINESTYLE
  5
18
102
{ACAD_REACTORS
330
17
102
}
330
17
100
AcDbMlineStyle
  2
Standard
 70
     0
  3

 62
   256
 51
90.0
 52
90.0
 71
     2
 49
0.5
 62
   256
  6
BYLAYER
 49
-0.5
 62
   256
  6
BYLAYER
  0
ACDBPLACEHOLDER
  5
F
102
{ACAD_REACTORS
330
E
102
}
330
E
  0
SCALE
  5
48
102
{ACAD_REACTORS
330
47
102
}
330
47
100
AcDbScale
 70
     0
300
1:1
140
1.0
141
1.0
290
     1
  0
SCALE
  5
49
102
{ACAD_REACTORS
330
47
102
}
330
47
100
AcDbScale
 70
     0
300
1:2
140
1.0
141
2.0
290
     0
  0
SCALE
  5
4A
102
{ACAD_REACTORS
330
47
102
}
330
47
100
AcDbScale
 70
     0
300
1:4
140
1.0
141
4.0
290
     0
  0
SCALE
  5
4B
102
{ACAD_REACTORS
330
47
102
}
330
47
100
AcDbScale
 70
     0
300
1:5
140
1.0
141
5.0
290
     0
  0
SCALE
  5
4C
102
{ACAD_REACTORS
330
47
102
}
330
47
100
AcDbScale
 70
     0
300
1:8
140
1.0
141
8.0
290
     0
  0
SCALE
  5
4D
102
{ACAD_REACTORS
330
47
102
}
330
47
100
AcDbScale
 70
     0
300
1:10
140
1.0
141
10.0
290
     0
  0
SCALE
  5
4E
102
{ACAD_REACTORS
330
47
102
}
330
47
100
AcDbScale
 70
     0
300
1:16
140
1.0
141
16.0
290
     0
  0
SCALE
  5
4F
102
{ACAD_REACTORS
330
47
102
}
330
47
100
AcDbScale
 70
     0
300
1:20
140
1.0
141
20.0
290
     0
  0
SCALE
  5
50
102
{ACAD_REACTORS
330
47
102
}
330
47
100
AcDbScale
 70
     0
300
1:30
140
1.0
141
30.0
290
     0
  0
SCALE
  5
51
102
{ACAD_REACTORS
330
47
102
}
330
47
100
AcDbScale
 70
     0
300
1:40
140
1.0
141
40.0
290
     0
  0
SCALE
  5
52
102
{ACAD_REACTORS
330
47
102
}
330
47
100
AcDbScale
 70
     0
300
1:50
140
1.0
141
50.0
290
     0
  0
SCALE
  5
53
102
{ACAD_REACTORS
330
47
102
}
330
47
100
AcDbScale
 70
     0
300
1:100
140
1.0
141
100.0
290
     0
  0
SCALE
  5
54
102
{ACAD_REACTORS
330
47
102
}
330
47
100
AcDbScale
 70
     0
300
2:1
140
2.0
141
1.0
290
     0
  0
SCALE
  5
55
102
{ACAD_REACTORS
330
47
102
}
330
47
100
AcDbScale
 70
     0
300
4:1
140
4.0
141
1.0
290
     0
  0
SCALE
  5
56
102
{ACAD_REACTORS
330
47
102
}
330
47
100
AcDbScale
 70
     0
300
8:1
140
8.0
141
1.0
290
     0
  0
SCALE
  5
57
102
{ACAD_REACTORS
330
47
102
}
330
47
100
AcDbScale
 70
     0
300
10:1
140
10.0
141
1.0
290
     0
  0
SCALE
  5
58
102
{ACAD_REACTORS
330
47
102
}
330
47
100
AcDbScale
 70
     0
300
100:1
140
100.0
141
1.0
290
     0
  0
SCALE
  5
59
102
{ACAD_REACTORS
330
47
102
}
330
47
100
AcDbScale
 70
     0
300
1/128" = 1'-0"
140
0.0078125
141
12.0
290
     0
  0
SCALE
  5
5A
102
{ACAD_REACTORS
330
47
102
}
330
47
100
AcDbScale
 70
     0
300
1/64" = 1'-0"
140
0.015625
141
12.0
290
     0
  0
SCALE
  5
5B
102
{ACAD_REACTORS
330
47
102
}
330
47
100
AcDbScale
 70
     0
300
1/32" = 1'-0"
140
0.03125
141
12.0
290
     0
  0
SCALE
  5
5C
102
{ACAD_REACTORS
330
47
102
}
330
47
100
AcDbScale
 70
     0
300
1/16" = 1'-0"
140
0.0625
141
12.0
290
     0
  0
SCALE
  5
5D
102
{ACAD_REACTORS
330
47
102
}
330
47
100
AcDbScale
 70
     0
300
3/32" = 1'-0"
140
0.09375
141
12.0
290
     0
  0
SCALE
  5
5E
102
{ACAD_REACTORS
330
47
102
}
330
47
100
AcDbScale
 70
     0
300
1/8" = 1'-0"
140
0.125
141
12.0
290
     0
  0
SCALE
  5
5F
102
{ACAD_REACTORS
330
47
102
}
330
47
100
AcDbScale
 70
     0
300
3/16" = 1'-0"
140
0.1875
141
12.0
290
     0
  0
SCALE
  5
60
102
{ACAD_REACTORS
330
47
102
}
330
47
100
AcDbScale
 70
     0
300
1/4" = 1'-0"
140
0.25
141
12.0
290
     0
  0
SCALE
  5
61
102
{ACAD_REACTORS
330
47
102
}
330
47
100
AcDbScale
 70
     0
300
3/8" = 1'-0"
140
0.375
141
12.0
290
     0
  0
SCALE
  5
62
102
{ACAD_REACTORS
330
47
102
}
330
47
100
AcDbScale
 70
     0
300
1/2" = 1'-0"
140
0.5
141
12.0
290
     0
  0
SCALE
  5
63
102
{ACAD_REACTORS
330
47
102
}
330
47
100
AcDbScale
 70
     0
300
3/4" = 1'-0"
140
0.75
141
12.0
290
     0
  0
SCALE
  5
64
102
{ACAD_REACTORS
330
47
102
}
330
47
100
AcDbScale
 70
     0
300
1" = 1'-0"
140
1.0
141
12.0
290
     0
  0
SCALE
  5
65
102
{ACAD_REACTORS
330
47
102
}
330
47
100
AcDbScale
 70
     0
300
1-1/2" = 1'-0"
140
1.5
141
12.0
290
     0
  0
SCALE
  5
66
102
{ACAD_REACTORS
330
47
102
}
330
47
100
AcDbScale
 70
     0
300
3" = 1'-0"
140
3.0
141
12.0
290
     0
  0
SCALE
  5
67
102
{ACAD_REACTORS
330
47
102
}
330
47
100
AcDbScale
 70
     0
300
6" = 1'-0"
140
6.0
141
12.0
290
     0
  0
SCALE
  5
68
102
{ACAD_REACTORS
330
47
102
}
330
47
100
AcDbScale
 70
     0
300
1'-0" = 1'-0"
140
12.0
141
12.0
290
     0
  0
ENDSEC
  0
EOF
