  0
SECTION
  2
HEADER
  9
$ACADVER
  1
AC1015
  9
$ACADMAINTVER
 70
     6
  9
$DWGCODEPAGE
  3
ANSI_949
  9
$INSBASE
 10
0.0
 20
0.0
 30
0.0
  9
$EXTMIN
 10
-39.95000000000009
 20
-49.97180738881174
 30
0.0
  9
$EXTMAX
 10
97.50037503295506
 20
27.88124999999996
 30
0.0
  9
$LIMMIN
 10
0.0
 20
0.0
  9
$LIMMAX
 10
420.0
 20
297.0
  9
$ORTHOMODE
 70
     1
  9
$REGENMODE
 70
     1
  9
$FILLMODE
 70
     1
  9
$QTEXTMODE
 70
     0
  9
$MIRRTEXT
 70
     1
  9
$LTSCALE
 40
1.0
  9
$ATTMODE
 70
     1
  9
$TEXTSIZE
 40
3.5
  9
$TRACEWID
 40
1.0
  9
$TEXTSTYLE
  7
Standard
  9
$CLAYER
  8
0
  9
$CELTYPE
  6
ByLayer
  9
$CECOLOR
 62
   256
  9
$CELTSCALE
 40
1.0
  9
$DISPSILH
 70
     0
  9
$DIMSCALE
 40
1.0
  9
$DIMASZ
 40
3.302
  9
$DIMEXO
 40
1.0
  9
$DIMDLI
 40
3.75
  9
$DIMRND
 40
0.0
  9
$DIMDLE
 40
0.0
  9
$DIMEXE
 40
1.0
  9
$DIMTP
 40
0.0
  9
$DIMTM
 40
0.0
  9
$DIMTXT
 40
3.5
  9
$DIMCEN
 40
2.5
  9
$DIMTSZ
 40
0.0
  9
$DIMTOL
 70
     0
  9
$DIMLIM
 70
     0
  9
$DIMTIH
 70
     1
  9
$DIMTOH
 70
     1
  9
$DIMSE1
 70
     0
  9
$DIMSE2
 70
     0
  9
$DIMTAD
 70
     1
  9
$DIMZIN
 70
     0
  9
$DIMBLK
  1

  9
$DIMASO
 70
     1
  9
$DIMSHO
 70
     1
  9
$DIMPOST
  1

  9
$DIMAPOST
  1

  9
$DIMALT
 70
     0
  9
$DIMALTD
 70
     3
  9
$DIMALTF
 40
0.0393700787401575
  9
$DIMLFAC
 40
1.0
  9
$DIMTOFL
 70
     1
  9
$DIMTVP
 40
0.0
  9
$DIMTIX
 70
     0
  9
$DIMSOXD
 70
     0
  9
$DIMSAH
 70
     0
  9
$DIMBLK1
  1

  9
$DIMBLK2
  1

  9
$DIMSTYLE
  2
ISO-25
  9
$DIMCLRD
 70
     0
  9
$DIMCLRE
 70
     0
  9
$DIMCLRT
 70
     0
  9
$DIMTFAC
 40
1.0
  9
$DIMGAP
 40
1.524
  9
$DIMJUST
 70
     0
  9
$DIMSD1
 70
     0
  9
$DIMSD2
 70
     0
  9
$DIMTOLJ
 70
     0
  9
$DIMTZIN
 70
     0
  9
$DIMALTZ
 70
     0
  9
$DIMALTTZ
 70
     0
  9
$DIMUPT
 70
     0
  9
$DIMDEC
 70
     2
  9
$DIMTDEC
 70
     2
  9
$DIMALTU
 70
     2
  9
$DIMALTTD
 70
     3
  9
$DIMTXSTY
  7
Standard
  9
$DIMAUNIT
 70
     0
  9
$DIMADEC
 70
     2
  9
$DIMALTRND
 40
0.0
  9
$DIMAZIN
 70
     0
  9
$DIMDSEP
 70
    44
  9
$DIMATFIT
 70
     3
  9
$DIMFRAC
 70
     0
  9
$DIMLDRBLK
  1

  9
$DIMLUNIT
 70
     2
  9
$DIMLWD
 70
    -2
  9
$DIMLWE
 70
    -2
  9
$DIMTMOVE
 70
     0
  9
$LUNITS
 70
     2
  9
$LUPREC
 70
     2
  9
$SKETCHINC
 40
1.0
  9
$FILLETRAD
 40
10.0
  9
$AUNITS
 70
     0
  9
$AUPREC
 70
     2
  9
$MENU
  1
.
  9
$ELEVATION
 40
0.0
  9
$PELEVATION
 40
0.0
  9
$THICKNESS
 40
0.0
  9
$LIMCHECK
 70
     0
  9
$CHAMFERA
 40
0.0
  9
$CHAMFERB
 40
0.0
  9
$CHAMFERC
 40
0.0
  9
$CHAMFERD
 40
0.0
  9
$SKPOLY
 70
     0
  9
$TDCREATE
 40
2458313.389534456
  9
$TDUCREATE
 40
2458313.014534456
  9
$TDUPDATE
 40
2458318.653763322
  9
$TDUUPDATE
 40
2458318.278763322
  9
$TDINDWG
 40
0.0049860532
  9
$TDUSRTIMER
 40
2458318.27872581
  9
$USRTIMER
 70
     1
  9
$ANGBASE
 50
0.0
  9
$ANGDIR
 70
     0
  9
$PDMODE
 70
     0
  9
$PDSIZE
 40
-1.0
  9
$PLINEWID
 40
0.0
  9
$SPLFRAME
 70
     0
  9
$SPLINETYPE
 70
     6
  9
$SPLINESEGS
 70
     8
  9
$HANDSEED
  5
2A0
  9
$SURFTAB1
 70
     6
  9
$SURFTAB2
 70
     6
  9
$SURFTYPE
 70
     6
  9
$SURFU
 70
     6
  9
$SURFV
 70
     6
  9
$UCSBASE
  2

  9
$UCSNAME
  2

  9
$UCSORG
 10
0.0
 20
0.0
 30
0.0
  9
$UCSXDIR
 10
1.0
 20
0.0
 30
0.0
  9
$UCSYDIR
 10
0.0
 20
1.0
 30
0.0
  9
$UCSORTHOREF
  2

  9
$UCSORTHOVIEW
 70
     0
  9
$UCSORGTOP
 10
0.0
 20
0.0
 30
0.0
  9
$UCSORGBOTTOM
 10
0.0
 20
0.0
 30
0.0
  9
$UCSORGLEFT
 10
0.0
 20
0.0
 30
0.0
  9
$UCSORGRIGHT
 10
0.0
 20
0.0
 30
0.0
  9
$UCSORGFRONT
 10
0.0
 20
0.0
 30
0.0
  9
$UCSORGBACK
 10
0.0
 20
0.0
 30
0.0
  9
$PUCSBASE
  2

  9
$PUCSNAME
  2

  9
$PUCSORG
 10
0.0
 20
0.0
 30
0.0
  9
$PUCSXDIR
 10
1.0
 20
0.0
 30
0.0
  9
$PUCSYDIR
 10
0.0
 20
1.0
 30
0.0
  9
$PUCSORTHOREF
  2

  9
$PUCSORTHOVIEW
 70
     0
  9
$PUCSORGTOP
 10
0.0
 20
0.0
 30
0.0
  9
$PUCSORGBOTTOM
 10
0.0
 20
0.0
 30
0.0
  9
$PUCSORGLEFT
 10
0.0
 20
0.0
 30
0.0
  9
$PUCSORGRIGHT
 10
0.0
 20
0.0
 30
0.0
  9
$PUCSORGFRONT
 10
0.0
 20
0.0
 30
0.0
  9
$PUCSORGBACK
 10
0.0
 20
0.0
 30
0.0
  9
$USERI1
 70
     0
  9
$USERI2
 70
     0
  9
$USERI3
 70
     0
  9
$USERI4
 70
     0
  9
$USERI5
 70
     0
  9
$USERR1
 40
0.0
  9
$USERR2
 40
0.0
  9
$USERR3
 40
0.0
  9
$USERR4
 40
0.0
  9
$USERR5
 40
0.0
  9
$WORLDVIEW
 70
     1
  9
$SHADEDGE
 70
     3
  9
$SHADEDIF
 70
    70
  9
$TILEMODE
 70
     1
  9
$MAXACTVP
 70
    64
  9
$PINSBASE
 10
0.0
 20
0.0
 30
0.0
  9
$PLIMCHECK
 70
     0
  9
$PEXTMIN
 10
1.000000000000000E+20
 20
1.000000000000000E+20
 30
1.000000000000000E+20
  9
$PEXTMAX
 10
-1.000000000000000E+20
 20
-1.000000000000000E+20
 30
-1.000000000000000E+20
  9
$PLIMMIN
 10
0.0
 20
0.0
  9
$PLIMMAX
 10
0.0
 20
0.0
  9
$UNITMODE
 70
     0
  9
$VISRETAIN
 70
     1
  9
$PLINEGEN
 70
     0
  9
$PSLTSCALE
 70
     1
  9
$TREEDEPTH
 70
  3020
  9
$CMLSTYLE
  2
Standard
  9
$CMLJUST
 70
     0
  9
$CMLSCALE
 40
20.0
  9
$PROXYGRAPHICS
 70
     1
  9
$MEASUREMENT
 70
     1
  9
$CELWEIGHT
370
    -1
  9
$ENDCAPS
280
     0
  9
$JOINSTYLE
280
     0
  9
$LWDISPLAY
290
     1
  9
$INSUNITS
 70
     4
  9
$HYPERLINKBASE
  1

  9
$STYLESHEET
  1

  9
$XEDIT
290
     1
  9
$CEPSNTYPE
380
     0
  9
$PSTYLEMODE
290
     1
  9
$FINGERPRINTGUID
  2
{2C8A80A2-F0E7-404F-AB98-C0C7270FEE45}
  9
$VERSIONGUID
  2
{FAEB1C32-E019-11D5-929B-00C0DF256EC4}
  9
$EXTNAMES
290
     1
  9
$PSVPSCALE
 40
0.0
  9
$OLESTARTUP
290
     0
  0
ENDSEC
  0
SECTION
  2
CLASSES
  0
CLASS
  1
ACDBDICTIONARYWDFLT
  2
AcDbDictionaryWithDefault
  3
ObjectDBX Classes
 90
        0
280
     0
281
     0
  0
CLASS
  1
VISUALSTYLE
  2
AcDbVisualStyle
  3
ObjectDBX Classes
 90
     4095
280
     0
281
     0
  0
CLASS
  1
MATERIAL
  2
AcDbMaterial
  3
ObjectDBX Classes
 90
     1153
280
     0
281
     0
  0
CLASS
  1
SCALE
  2
AcDbScale
  3
ObjectDBX Classes
 90
     1153
280
     0
281
     0
  0
CLASS
  1
SUN
  2
AcDbSun
  3
SCENEOE
 90
     1153
280
     0
281
     0
  0
CLASS
  1
ACDBPLACEHOLDER
  2
AcDbPlaceHolder
  3
ObjectDBX Classes
 90
        0
280
     0
281
     0
  0
CLASS
  1
LAYOUT
  2
AcDbLayout
  3
ObjectDBX Classes
 90
        0
280
     0
281
     0
  0
CLASS
  1
TABLESTYLE
  2
AcDbTableStyle
  3
ObjectDBX Classes
 90
     4095
280
     0
281
     0
  0
CLASS
  1
MLEADERSTYLE
  2
AcDbMLeaderStyle
  3
ACDB_MLEADERSTYLE_CLASS
 90
     4095
280
     0
281
     0
  0
CLASS
  1
DICTIONARYVAR
  2
AcDbDictionaryVar
  3
ObjectDBX Classes
 90
        0
280
     0
281
     0
  0
CLASS
  1
RASTERVARIABLES
  2
AcDbRasterVariables
  3
ISM
 90
        0
280
     0
281
     0
  0
ENDSEC
  0
SECTION
  2
TABLES
  0
TABLE
  2
VPORT
  5
8
330
0
100
AcDbSymbolTable
 70
     1
  0
VPORT
  5
29
330
8
100
AcDbSymbolTableRecord
100
AcDbViewportTableRecord
  2
*Active
 70
     0
 10
0.0
 20
0.0
 11
1.0
 21
1.0
 12
28.77518751647749
 22
-11.04527869440589
 13
0.0
 23
0.0
 14
10.0
 24
10.0
 15
10.0
 25
10.0
 16
0.0
 26
0.0
 36
1.0
 17
0.0
 27
0.0
 37
0.0
 40
79.41011853658793
 41
1.782762691853601
 42
50.0
 43
0.0
 44
0.0
 50
0.0
 51
0.0
 71
    16
 72
  2000
 73
     1
 74
     3
 75
     0
 76
     0
 77
     0
 78
     0
281
     0
 65
     1
110
0.0
120
0.0
130
0.0
111
1.0
121
0.0
131
0.0
112
0.0
122
1.0
132
0.0
 79
     0
146
0.0
  0
ENDTAB
  0
TABLE
  2
LTYPE
  5
5
330
0
100
AcDbSymbolTable
 70
     6
  0
LTYPE
  5
14
330
5
100
AcDbSymbolTableRecord
100
AcDbLinetypeTableRecord
  2
ByBlock
 70
     0
  3

 72
    65
 73
     0
 40
0.0
  0
LTYPE
  5
15
330
5
100
AcDbSymbolTableRecord
100
AcDbLinetypeTableRecord
  2
ByLayer
 70
     0
  3

 72
    65
 73
     0
 40
0.0
  0
LTYPE
  5
16
330
5
100
AcDbSymbolTableRecord
100
AcDbLinetypeTableRecord
  2
Continuous
 70
     0
  3
Solid line
 72
    65
 73
     0
 40
0.0
  0
LTYPE
  5
6A
330
5
100
AcDbSymbolTableRecord
100
AcDbLinetypeTableRecord
  2
HIDDEN
 70
     0
  3
Hidden __ __ __ __ __ __ __ __ __ __ __ __ __ __
 72
    65
 73
     2
 40
1.905
 49
1.27
 74
     0
 49
-0.635
 74
     0
  0
LTYPE
  5
6B
330
5
100
AcDbSymbolTableRecord
100
AcDbLinetypeTableRecord
  2
PHANTOM
 70
     0
  3
Phantom ______  __  __  ______  __  __  ______
 72
    65
 73
     6
 40
12.7
 49
6.35
 74
     0
 49
-1.27
 74
     0
 49
1.27
 74
     0
 49
-1.27
 74
     0
 49
1.27
 74
     0
 49
-1.27
 74
     0
  0
LTYPE
  5
6C
330
5
100
AcDbSymbolTableRecord
100
AcDbLinetypeTableRecord
  2
CENTER
 70
     0
  3
Center ____ _ ____ _ ____ _ ____ _ ____ _ ____
 72
    65
 73
     4
 40
10.16
 49
6.35
 74
     0
 49
-1.27
 74
     0
 49
1.27
 74
     0
 49
-1.27
 74
     0
  0
LTYPE
  5
6D
330
5
100
AcDbSymbolTableRecord
100
AcDbLinetypeTableRecord
  2
CENTERX2
 70
     0
  3
Center (2x) ________  __  ________  __  _____
 72
    65
 73
     4
 40
20.32
 49
12.7
 74
     0
 49
-2.54
 74
     0
 49
2.54
 74
     0
 49
-2.54
 74
     0
  0
LTYPE
  5
6E
330
5
100
AcDbSymbolTableRecord
100
AcDbLinetypeTableRecord
  2
DOT2
 70
     0
  3
Dot (.5x) ........................................
 72
    65
 73
     2
 40
0.635
 49
0.0
 74
     0
 49
-0.635
 74
     0
  0
ENDTAB
  0
TABLE
  2
LAYER
  5
2
330
0
100
AcDbSymbolTable
 70
    18
  0
LAYER
  5
10
330
2
100
AcDbSymbolTableRecord
100
AcDbLayerTableRecord
  2
0
 70
     0
 62
     7
  6
Continuous
370
    -3
390
F
  0
LAYER
  5
6F
330
2
100
AcDbSymbolTableRecord
100
AcDbLayerTableRecord
  2
FORMAT
 70
     0
 62
     2
  6
Continuous
370
    -3
390
F
  0
LAYER
  5
70
330
2
100
AcDbSymbolTableRecord
100
AcDbLayerTableRecord
  2
외형선
 70
     0
 62
     4
  6
Continuous
370
    30
390
F
  0
LAYER
  5
71
330
2
100
AcDbSymbolTableRecord
100
AcDbLayerTableRecord
  2
숨은선
 70
     0
 62
     2
  6
HIDDEN
370
    15
390
F
  0
LAYER
  5
72
330
2
100
AcDbSymbolTableRecord
100
AcDbLayerTableRecord
  2
중심선
 70
     0
 62
     1
  6
CENTERX2
370
    -3
390
F
  0
LAYER
  5
73
330
2
100
AcDbSymbolTableRecord
100
AcDbLayerTableRecord
  2
파단선
 70
     0
 62
     4
  6
Continuous
370
    -3
390
F
  0
LAYER
  5
74
330
2
100
AcDbSymbolTableRecord
100
AcDbLayerTableRecord
  2
해칭선
 70
     0
 62
   100
  6
Continuous
370
    -3
390
F
  0
LAYER
  5
75
330
2
100
AcDbSymbolTableRecord
100
AcDbLayerTableRecord
  2
가는실선
 70
     0
 62
     4
  6
Continuous
370
    -3
390
F
  0
LAYER
  5
76
330
2
100
AcDbSymbolTableRecord
100
AcDbLayerTableRecord
  2
치수_보조선
 70
     0
 62
     4
  6
Continuous
370
    -3
390
F
  0
LAYER
  5
77
330
2
100
AcDbSymbolTableRecord
100
AcDbLayerTableRecord
  2
치수문자_일반주서
 70
     0
 62
     7
  6
Continuous
370
    15
390
F
  0
LAYER
  5
78
330
2
100
AcDbSymbolTableRecord
100
AcDbLayerTableRecord
  2
개별주서
 70
     0
 62
   100
  6
Continuous
370
    30
390
F
  0
LAYER
  5
79
330
2
100
AcDbSymbolTableRecord
100
AcDbLayerTableRecord
  2
중간선
 70
     0
 62
     2
  6
Continuous
370
    15
390
F
  0
LAYER
  5
7A
330
2
100
AcDbSymbolTableRecord
100
AcDbLayerTableRecord
  2
윤곽선
 70
     0
 62
     3
  6
Continuous
370
    40
390
F
  0
LAYER
  5
7B
330
2
100
AcDbSymbolTableRecord
100
AcDbLayerTableRecord
  2
중심마크
 70
     0
 62
   100
  6
Continuous
370
    30
390
F
  0
LAYER
  5
7C
330
2
100
AcDbSymbolTableRecord
100
AcDbLayerTableRecord
  2
가상선
 70
     0
 62
     4
  6
PHANTOM
370
    -3
390
F
  0
LAYER
  5
7D
330
2
100
AcDbSymbolTableRecord
100
AcDbLayerTableRecord
  2
특수지정선
 70
     0
 62
     5
  6
CENTERX2
370
    60
390
F
  0
LAYER
  5
7E
330
2
100
AcDbSymbolTableRecord
100
AcDbLayerTableRecord
  2
참조1
 70
     0
 62
    -4
  6
Continuous
370
    -3
390
F
  0
LAYER
  5
162
330
2
100
AcDbSymbolTableRecord
100
AcDbLayerTableRecord
  2
Defpoints
 70
     0
 62
     7
  6
Continuous
290
     0
370
    -3
390
F
  0
ENDTAB
  0
TABLE
  2
STYLE
  5
3
330
0
100
AcDbSymbolTable
 70
     2
  0
STYLE
  5
11
330
3
100
AcDbSymbolTableRecord
100
AcDbTextStyleTableRecord
  2
Standard
 70
     0
 40
0.0
 41
1.0
 50
0.0
 71
     0
 42
3.5
  3
txt
  4

  0
STYLE
  5
94
330
3
100
AcDbSymbolTableRecord
100
AcDbTextStyleTableRecord
  2
SLDTEXTSTYLE0
 70
     0
 40
0.0
 41
0.75
 50
0.0
 71
     0
 42
3.5
  3
TXT
  4

  0
ENDTAB
  0
TABLE
  2
VIEW
  5
6
330
0
100
AcDbSymbolTable
 70
     0
  0
ENDTAB
  0
TABLE
  2
UCS
  5
7
330
0
100
AcDbSymbolTable
 70
     0
  0
ENDTAB
  0
TABLE
  2
APPID
  5
9
330
0
100
AcDbSymbolTable
 70
     2
  0
APPID
  5
12
330
9
100
AcDbSymbolTableRecord
100
AcDbRegAppTableRecord
  2
ACAD
 70
     0
  0
APPID
  5
169
330
9
100
AcDbSymbolTableRecord
100
AcDbRegAppTableRecord
  2
PE_URL
 70
     0
  0
ENDTAB
  0
TABLE
  2
DIMSTYLE
  5
A
330
0
100
AcDbSymbolTable
 70
     4
100
AcDbDimStyleTable
  0
DIMSTYLE
105
27
330
A
100
AcDbSymbolTableRecord
100
AcDbDimStyleTableRecord
  2
ISO-25
 70
     0
 41
2.5
 42
0.625
 43
3.75
 44
1.25
 73
     0
 74
     0
 77
     1
 78
     8
140
2.5
141
2.5
143
0.03937007874016
147
0.625
171
     3
172
     1
178
     0
271
     2
272
     2
274
     3
278
    44
283
     0
284
     8
340
11
  0
DIMSTYLE
105
DF
102
{ACAD_REACTORS
330
DE
330
108
330
F3
330
11D
102
}
330
A
100
AcDbSymbolTableRecord
100
AcDbDimStyleTableRecord
  2
SLDDIMSTYLE0
 70
     0
 41
3.302
 44
0.0
 45
0.000000001
 73
     0
 74
     0
 77
     1
 78
    12
 79
     3
140
3.5
143
0.0393700787401575
147
0.875
148
0.000000001
170
     1
172
     1
173
     1
178
     0
271
     2
272
     2
276
     2
284
    12
289
     0
340
94
  0
DIMSTYLE
105
F4
330
A
100
AcDbSymbolTableRecord
100
AcDbDimStyleTableRecord
  2
SLDDIMSTYLE1
 70
     0
 41
3.302
 44
0.0
 45
0.000000001
 73
     0
 74
     0
 77
     1
 78
     8
 79
     2
140
3.5
143
0.0393700787401575
147
0.875
148
0.000000001
170
     1
172
     1
173
     1
178
     0
271
     2
272
     2
276
     2
284
    12
289
     0
340
94
  0
DIMSTYLE
105
11E
330
A
100
AcDbSymbolTableRecord
100
AcDbDimStyleTableRecord
  2
SLDDIMSTYLE2
 70
     0
 41
3.302
 44
0.0
 45
0.000000001
 73
     0
 74
     0
 77
     1
 78
    12
 79
     3
140
3.5
143
0.0393700787401575
147
0.875
148
0.000000001
170
     1
173
     1
178
     0
271
     2
272
     2
276
     2
284
    12
340
94
  0
ENDTAB
  0
TABLE
  2
BLOCK_RECORD
  5
1
330
0
100
AcDbSymbolTable
 70
     9
  0
BLOCK_RECORD
  5
1F
330
1
100
AcDbSymbolTableRecord
100
AcDbBlockTableRecord
  2
*Model_Space
340
22
  0
BLOCK_RECORD
  5
1B
330
1
100
AcDbSymbolTableRecord
100
AcDbBlockTableRecord
  2
*Paper_Space
340
1E
  0
BLOCK_RECORD
  5
23
330
1
100
AcDbSymbolTableRecord
100
AcDbBlockTableRecord
  2
*Paper_Space0
340
26
  0
BLOCK_RECORD
  5
7F
330
1
100
AcDbSymbolTableRecord
100
AcDbBlockTableRecord
  2
블럭10
340
0
102
{BLKREFS
331
D7
102
}
  0
BLOCK_RECORD
  5
E0
330
1
100
AcDbSymbolTableRecord
100
AcDbBlockTableRecord
  2
_D
340
0
  0
BLOCK_RECORD
  5
F5
330
1
100
AcDbSymbolTableRecord
100
AcDbBlockTableRecord
  2
_D_1
340
0
  0
BLOCK_RECORD
  5
109
330
1
100
AcDbSymbolTableRecord
100
AcDbBlockTableRecord
  2
_D_2
340
0
  0
BLOCK_RECORD
  5
11F
330
1
100
AcDbSymbolTableRecord
100
AcDbBlockTableRecord
  2
_D_3
340
0
  0
BLOCK_RECORD
  5
138
330
1
100
AcDbSymbolTableRecord
100
AcDbBlockTableRecord
  2
SW_DOWELSYMBOL_0
340
0
102
{BLKREFS
331
13E
102
}
  0
BLOCK_RECORD
  5
19B
330
1
100
AcDbSymbolTableRecord
100
AcDbBlockTableRecord
  2
*D7
340
0
  0
BLOCK_RECORD
  5
1AD
330
1
100
AcDbSymbolTableRecord
100
AcDbBlockTableRecord
  2
*D8
340
0
  0
ENDTAB
  0
ENDSEC
  0
SECTION
  2
BLOCKS
  0
BLOCK
  5
20
330
1F
100
AcDbEntity
  8
0
100
AcDbBlockBegin
  2
*Model_Space
 70
     0
 10
0.0
 20
0.0
 30
0.0
  3
*Model_Space
  1
*Model_Space
  0
ENDBLK
  5
21
330
1F
100
AcDbEntity
  8
0
100
AcDbBlockEnd
  0
BLOCK
  5
1C
330
1B
100
AcDbEntity
 67
     1
  8
0
100
AcDbBlockBegin
  2
*Paper_Space
 70
     0
 10
0.0
 20
0.0
 30
0.0
  3
*Paper_Space
  1
*Paper_Space
  0
ENDBLK
  5
1D
330
1B
100
AcDbEntity
 67
     1
  8
0
100
AcDbBlockEnd
  0
BLOCK
  5
24
330
23
100
AcDbEntity
  8
0
100
AcDbBlockBegin
  2
*Paper_Space0
 70
     0
 10
0.0
 20
0.0
 30
0.0
  3
*Paper_Space0
  1
*Paper_Space0
  0
ENDBLK
  5
25
330
23
100
AcDbEntity
  8
0
100
AcDbBlockEnd
  0
BLOCK
  5
80
330
7F
100
AcDbEntity
  8
0
100
AcDbBlockBegin
  2
블럭10
 70
     2
 10
0.0
 20
0.0
 30
0.0
  3
블럭10
  1
블럭10
  0
ELLIPSE
  5
82
330
7F
100
AcDbEntity
  8
중심선
100
AcDbEllipse
 10
20.54032771741204
 20
12.0471743016438
 30
0.0
 11
6.600054785286829
 21
-1.261213355974178E-13
 31
0.0
210
0.0
220
0.0
230
1.0
 40
0.636358354079598
 41
0.9219305317359503
 42
6.513795318482858
  0
ELLIPSE
  5
83
330
7F
100
AcDbEntity
  8
중심선
100
AcDbEllipse
 10
20.54032771746488
 20
12.04717430159265
 30
0.0
 11
3.960054785062283
 21
1.540847449632565E-10
 31
0.0
210
0.0
220
0.0
230
1.0
 40
0.3939339440162632
 41
1.131841032648279
 42
5.62031148352944
  0
LINE
  5
84
330
7F
100
AcDbEntity
  8
중심선
100
AcDbLine
 10
2.268634060543552
 20
16.24717430164393
 30
0.0
 11
5.714909304380834
 21
16.24717430164393
 31
0.0
  0
LINE
  5
85
330
7F
100
AcDbEntity
  8
중심선
100
AcDbLine
 10
5.245725140726316
 20
7.84717430164391
 30
0.0
 11
8.692000384563599
 21
7.84717430164391
 31
0.0
  0
LINE
  5
86
330
7F
100
AcDbEntity
  8
중심선
100
AcDbLine
 10
15.74043728645272
 20
16.24717430164393
 30
0.0
 11
8.692000384563599
 21
7.84717430164391
 31
0.0
  0
LINE
  5
87
330
7F
100
AcDbEntity
  8
중심선
100
AcDbLine
 10
0.1404042013395286
 20
13.71084872107135
 30
0.0
 11
3.58671253028996
 21
13.71088815037384
 31
0.0
  0
LINE
  5
88
330
7F
100
AcDbEntity
  8
중심선
100
AcDbLine
 10
2.750260043222114
 20
10.84717430164391
 30
0.0
 11
6.196535287059397
 21
10.84717430164391
 31
0.0
  0
LINE
  5
89
330
7F
100
AcDbEntity
  8
중심선
100
AcDbLine
 10
12.29416204261559
 20
16.24717430164393
 30
0.0
 11
5.245725140726316
 21
7.84717430164391
 31
0.0
  0
LINE
  5
8A
330
7F
100
AcDbEntity
  8
중심선
100
AcDbLine
 10
10.72767329541681
 20
16.24717430164393
 30
0.0
 11
6.196535287059397
 21
10.84717430164391
 31
0.0
  0
LINE
  5
8B
330
7F
100
AcDbEntity
  8
중심선
100
AcDbLine
 10
7.28139805157953
 20
16.24717430164393
 30
0.0
 11
2.750260043222114
 21
10.84717430164391
 31
0.0
  0
LINE
  5
8C
330
7F
100
AcDbEntity
  8
중심선
100
AcDbLine
 10
5.714909304380834
 20
16.24717430164393
 30
0.0
 11
3.58671253028996
 21
13.71088815037384
 31
0.0
  0
LINE
  5
8D
330
7F
100
AcDbEntity
  8
중심선
100
AcDbLine
 10
2.268634060543552
 20
16.24717430164393
 30
0.0
 11
0.1404042013395286
 21
13.71084872107135
 31
0.0
  0
LINE
  5
8E
330
7F
100
AcDbEntity
  8
중심선
100
AcDbLine
 10
7.28139805157953
 20
16.24717430164393
 30
0.0
 11
10.72767329541681
 21
16.24717430164393
 31
0.0
  0
LINE
  5
8F
330
7F
100
AcDbEntity
  8
중심선
100
AcDbLine
 10
12.29416204261559
 20
16.24717430164393
 30
0.0
 11
15.74043728645272
 21
16.24717430164393
 31
0.0
  0
LINE
  5
90
330
7F
100
AcDbEntity
  8
중심선
100
AcDbLine
 10
19.22036997980202
 20
11.08717430171403
 30
0.0
 11
23.66174974927406
 21
11.08717430171406
 31
0.0
  0
LINE
  5
91
330
7F
100
AcDbEntity
  8
중심선
100
AcDbLine
 10
19.22039502424796
 20
13.00717430171391
 30
0.0
 11
19.22036997980202
 21
11.08717430171403
 31
0.0
  0
LINE
  5
92
330
7F
100
AcDbEntity
  8
중심선
100
AcDbLine
 10
19.22039502424796
 20
13.00717430171391
 30
0.0
 11
26.96566020931264
 21
13.00717430171391
 31
0.0
  0
LINE
  5
93
330
7F
100
AcDbEntity
  8
중심선
100
AcDbLine
 10
22.22332737316547
 20
13.45928029700563
 30
0.0
 11
24.52862924686651
 21
15.39360700705356
 31
0.0
  0
ATTDEF
  5
95
330
7F
100
AcDbEntity
  8
FORMAT
 62
     2
100
AcDbText
 10
4.408487351596664
 20
2.075366912832191
 30
0.0
 40
4.233333333333333
  1
E1003002
 41
0.75
  7
SLDTEXTSTYLE0
 11
4.408487351596664
 21
-0.0412997538344756
 31
0.0
100
AcDbAttributeDefinition
  3

  2
AUTOATTR0
 70
     0
 74
     1
  0
ENDBLK
  5
81
330
7F
100
AcDbEntity
  8
0
100
AcDbBlockEnd
  0
BLOCK
  5
E1
330
E0
100
AcDbEntity
  8
0
100
AcDbBlockBegin
  2
_D
 70
     0
 10
0.0
 20
0.0
 30
0.0
  3
_D
  1
_D
  0
LINE
  5
E3
330
E0
100
AcDbEntity
  8
치수문자_일반주서
 62
     0
370
    -2
100
AcDbLine
 10
-18.35046167873055
 20
2.381249999999995
 30
0.0
 11
-36.57500000000001
 21
2.381249999999925
 31
0.0
  0
LINE
  5
E4
330
E0
100
AcDbEntity
  8
치수문자_일반주서
 62
     0
370
    -2
100
AcDbLine
 10
-18.35046167873055
 20
-2.381250000000006
 30
0.0
 11
-36.575
 21
-2.381250000000072
 31
0.0
  0
LINE
  5
E5
330
E0
100
AcDbEntity
  8
치수문자_일반주서
 62
     0
370
    -2
100
AcDbLine
 10
-36.57500000000001
 20
2.381249999999925
 30
0.0
 11
-36.57500000000008
 21
27.88124999999996
 31
0.0
  0
LINE
  5
E6
330
E0
100
AcDbEntity
  8
치수문자_일반주서
 62
     0
370
    -2
100
AcDbLine
 10
-36.57500000000001
 20
2.381249999999925
 30
0.0
 11
-36.575
 21
-2.381250000000072
 31
0.0
  0
LINE
  5
E7
330
E0
100
AcDbEntity
  8
치수문자_일반주서
 62
     0
370
    -2
100
AcDbLine
 10
-36.57500000000002
 20
4.881249999999925
 30
0.0
 11
-36.57500000000002
 21
7.381249999999925
 31
0.0
  0
LINE
  5
E8
330
E0
100
AcDbEntity
  8
치수문자_일반주서
 62
     0
370
    -2
100
AcDbLine
 10
-36.57499999999999
 20
-4.881250000000072
 30
0.0
 11
-36.57499999999998
 21
-7.381250000000072
 31
0.0
  0
SOLID
  5
E9
330
E0
100
AcDbEntity
  8
치수문자_일반주서
 62
     0
100
AcDbTrace
 10
-36.99166666666668
 20
4.881249999999924
 30
0.0
 11
-36.15833333333335
 21
4.881249999999926
 31
0.0
 12
-36.57500000000001
 22
2.381249999999925
 32
0.0
 13
-36.57500000000001
 23
2.381249999999925
 33
0.0
  0
SOLID
  5
EA
330
E0
100
AcDbEntity
  8
치수문자_일반주서
 62
     0
100
AcDbTrace
 10
-36.15833333333332
 20
-4.881250000000072
 30
0.0
 11
-36.99166666666665
 21
-4.881250000000073
 31
0.0
 12
-36.575
 22
-2.381250000000072
 32
0.0
 13
-36.575
 23
-2.381250000000072
 33
0.0
  0
MTEXT
  5
EB
330
E0
100
AcDbEntity
  8
치수문자_일반주서
 62
     0
100
AcDbMText
 10
-39.95000000000005
 20
17.63124999999995
 30
0.0
 40
2.5
 41
0.0
 71
     2
 72
     1
  1
\A1;%%c4.76 [3/16]
  7
SLDTEXTSTYLE0
 11
-2.983906501879685E-15
 21
1.0
 31
0.0
 73
     1
 44
1.0
  0
POINT
  5
1C6
330
E0
100
AcDbEntity
  8
Defpoints
 62
     0
100
AcDbPoint
 10
-18.28796167873055
 20
2.381249999999995
 30
0.0
  0
POINT
  5
1C7
330
E0
100
AcDbEntity
  8
Defpoints
 62
     0
100
AcDbPoint
 10
-18.28796167873055
 20
-2.381250000000006
 30
0.0
  0
POINT
  5
1C8
330
E0
100
AcDbEntity
  8
Defpoints
 62
     0
100
AcDbPoint
 10
-36.575
 20
-2.381250000000074
 30
0.0
  0
ENDBLK
  5
E2
330
E0
100
AcDbEntity
  8
0
100
AcDbBlockEnd
  0
BLOCK
  5
F6
330
F5
100
AcDbEntity
  8
0
100
AcDbBlockBegin
  2
_D_1
 70
     0
 10
0.0
 20
0.0
 30
0.0
  3
_D_1
  1
_D_1
  0
LINE
  5
F8
330
F5
100
AcDbEntity
  8
치수문자_일반주서
 62
     0
370
    -2
100
AcDbLine
 10
28.63750000000002
 20
-0.3965395672942644
 30
0.0
 11
57.24967155590263
 21
-0.3965395672941572
 31
0.0
  0
LINE
  5
F9
330
F5
100
AcDbEntity
  8
치수문자_일반주서
 62
     0
370
    -2
100
AcDbLine
 10
28.63750000000002
 20
0.3965395672942658
 30
0.0
 11
57.24967155590263
 21
0.3965395672943721
 31
0.0
  0
LINE
  5
FA
330
F5
100
AcDbEntity
  8
치수문자_일반주서
 62
     0
370
    -2
100
AcDbLine
 10
57.24967155590263
 20
0.3965395672943721
 30
0.0
 11
57.24967155590263
 21
24.02153956729438
 31
0.0
  0
LINE
  5
FB
330
F5
100
AcDbEntity
  8
치수문자_일반주서
 62
     0
370
    -2
100
AcDbLine
 10
57.24967155590263
 20
-0.3965395672941572
 30
0.0
 11
57.24967155590263
 21
0.3965395672943721
 31
0.0
  0
LINE
  5
FC
330
F5
100
AcDbEntity
  8
치수문자_일반주서
 62
     0
370
    -2
100
AcDbLine
 10
57.24967155590263
 20
-2.896539567294157
 30
0.0
 11
57.24967155590263
 21
-5.396539567294157
 31
0.0
  0
LINE
  5
FD
330
F5
100
AcDbEntity
  8
치수문자_일반주서
 62
     0
370
    -2
100
AcDbLine
 10
57.24967155590263
 20
2.896539567294372
 30
0.0
 11
57.24967155590263
 21
5.396539567294372
 31
0.0
  0
SOLID
  5
FE
330
F5
100
AcDbEntity
  8
치수문자_일반주서
 62
     0
100
AcDbTrace
 10
57.66633822256929
 20
-2.896539567294157
 30
0.0
 11
56.83300488923597
 21
-2.896539567294157
 31
0.0
 12
57.24967155590263
 22
-0.3965395672941572
 32
0.0
 13
57.24967155590263
 23
-0.3965395672941572
 33
0.0
  0
SOLID
  5
FF
330
F5
100
AcDbEntity
  8
치수문자_일반주서
 62
     0
100
AcDbTrace
 10
56.83300488923597
 20
2.896539567294372
 30
0.0
 11
57.66633822256929
 21
2.896539567294372
 31
0.0
 12
57.24967155590263
 22
0.3965395672943721
 32
0.0
 13
57.24967155590263
 23
0.3965395672943721
 33
0.0
  0
MTEXT
  5
100
330
F5
100
AcDbEntity
  8
치수문자_일반주서
 62
     0
100
AcDbMText
 10
53.87467155590263
 20
14.70903956729438
 30
0.0
 40
2.5
 41
0.0
 71
     2
 72
     1
  1
\A1;%%c.79 [1/32]
  7
SLDTEXTSTYLE0
 11
0.0
 21
1.0
 31
0.0
 73
     1
 44
1.0
  0
POINT
  5
101
330
F5
100
AcDbEntity
  8
Defpoints
 62
     0
100
AcDbPoint
 10
28.57500000000002
 20
-0.3965395672942646
 30
0.0
  0
POINT
  5
102
330
F5
100
AcDbEntity
  8
Defpoints
 62
     0
100
AcDbPoint
 10
28.57500000000002
 20
0.3965395672942655
 30
0.0
  0
POINT
  5
103
330
F5
100
AcDbEntity
  8
Defpoints
 62
     0
100
AcDbPoint
 10
57.24967155590263
 20
0.3965395672943727
 30
0.0
  0
ENDBLK
  5
F7
330
F5
100
AcDbEntity
  8
0
100
AcDbBlockEnd
  0
BLOCK
  5
10A
330
109
100
AcDbEntity
  8
0
100
AcDbBlockBegin
  2
_D_2
 70
     0
 10
0.0
 20
0.0
 30
0.0
  3
_D_2
  1
_D_2
  0
LINE
  5
10C
330
109
100
AcDbEntity
  8
치수문자_일반주서
 62
     0
370
    -2
100
AcDbLine
 10
28.57500000000002
 20
0.4590395672942655
 30
0.0
 11
28.57500000000002
 21
10.38125000000001
 31
0.0
  0
LINE
  5
10D
330
109
100
AcDbEntity
  8
치수문자_일반주서
 62
     0
370
    -2
100
AcDbLine
 10
26.19375000000002
 20
0.3198403442388506
 30
0.0
 11
26.19375000000002
 21
10.38125000000001
 31
0.0
  0
LINE
  5
10E
330
109
100
AcDbEntity
  8
치수문자_일반주서
 62
     0
370
    -2
100
AcDbLine
 10
28.57500000000002
 20
10.38125000000001
 30
0.0
 11
52.82500000000002
 21
10.38125000000001
 31
0.0
  0
LINE
  5
10F
330
109
100
AcDbEntity
  8
치수문자_일반주서
 62
     0
370
    -2
100
AcDbLine
 10
28.57500000000002
 20
10.38125000000001
 30
0.0
 11
26.19375000000002
 21
10.38125000000001
 31
0.0
  0
LINE
  5
110
330
109
100
AcDbEntity
  8
치수문자_일반주서
 62
     0
370
    -2
100
AcDbLine
 10
31.07500000000002
 20
10.38125000000001
 30
0.0
 11
33.57500000000002
 21
10.38125000000001
 31
0.0
  0
LINE
  5
111
330
109
100
AcDbEntity
  8
치수문자_일반주서
 62
     0
370
    -2
100
AcDbLine
 10
23.69375000000002
 20
10.38125000000001
 30
0.0
 11
21.19375000000002
 21
10.38125000000001
 31
0.0
  0
SOLID
  5
112
330
109
100
AcDbEntity
  8
치수문자_일반주서
 62
     0
100
AcDbTrace
 10
31.07500000000002
 20
10.79791666666668
 30
0.0
 11
31.07500000000002
 21
9.964583333333344
 31
0.0
 12
28.57500000000002
 22
10.38125000000001
 32
0.0
 13
28.57500000000002
 23
10.38125000000001
 33
0.0
  0
SOLID
  5
113
330
109
100
AcDbEntity
  8
치수문자_일반주서
 62
     0
100
AcDbTrace
 10
23.69375000000002
 20
9.964583333333344
 30
0.0
 11
23.69375000000002
 21
10.79791666666668
 31
0.0
 12
26.19375000000002
 22
10.38125000000001
 32
0.0
 13
26.19375000000002
 23
10.38125000000001
 33
0.0
  0
MTEXT
  5
114
330
109
100
AcDbEntity
  8
치수문자_일반주서
 62
     0
100
AcDbMText
 10
43.20000000000002
 20
13.75625000000001
 30
0.0
 40
2.5
 41
0.0
 71
     2
 72
     1
  1
\A1;2.38 [3/32]
  7
SLDTEXTSTYLE0
 73
     1
 44
1.0
  0
POINT
  5
115
330
109
100
AcDbEntity
  8
Defpoints
 62
     0
100
AcDbPoint
 10
28.57500000000002
 20
0.3965395672942655
 30
0.0
  0
POINT
  5
116
330
109
100
AcDbEntity
  8
Defpoints
 62
     0
100
AcDbPoint
 10
26.19375000000002
 20
0.2573403442388506
 30
0.0
  0
POINT
  5
117
330
109
100
AcDbEntity
  8
Defpoints
 62
     0
100
AcDbPoint
 10
26.19375000000002
 20
10.38125000000001
 30
0.0
  0
ENDBLK
  5
10B
330
109
100
AcDbEntity
  8
0
100
AcDbBlockEnd
  0
BLOCK
  5
120
330
11F
100
AcDbEntity
  8
0
100
AcDbBlockBegin
  2
_D_3
 70
     0
 10
0.0
 20
0.0
 30
0.0
  3
_D_3
  1
_D_3
  0
LINE
  5
122
330
11F
100
AcDbEntity
  8
치수문자_일반주서
 62
     0
370
    -2
100
AcDbLine
 10
-28.57500000000002
 20
0.4590395672942711
 30
0.0
 11
-28.57500000000002
 21
18.38125
 31
0.0
  0
LINE
  5
123
330
11F
100
AcDbEntity
  8
치수문자_일반주서
 62
     0
370
    -2
100
AcDbLine
 10
28.57500000000002
 20
0.4590395672942655
 30
0.0
 11
28.57500000000002
 21
18.38125
 31
0.0
  0
LINE
  5
124
330
11F
100
AcDbEntity
  8
치수문자_일반주서
 62
     0
370
    -2
100
AcDbLine
 10
-26.07500000000002
 20
18.38125
 30
0.0
 11
26.07500000000002
 21
18.38125
 31
0.0
  0
SOLID
  5
125
330
11F
100
AcDbEntity
  8
치수문자_일반주서
 62
     0
100
AcDbTrace
 10
-26.07500000000002
 20
18.79791666666667
 30
0.0
 11
-26.07500000000002
 21
17.96458333333333
 31
0.0
 12
-28.57500000000002
 22
18.38125
 32
0.0
 13
-28.57500000000002
 23
18.38125
 33
0.0
  0
SOLID
  5
126
330
11F
100
AcDbEntity
  8
치수문자_일반주서
 62
     0
100
AcDbTrace
 10
26.07500000000002
 20
17.96458333333333
 30
0.0
 11
26.07500000000002
 21
18.79791666666667
 31
0.0
 12
28.57500000000002
 22
18.38125
 32
0.0
 13
28.57500000000002
 23
18.38125
 33
0.0
  0
MTEXT
  5
127
330
11F
100
AcDbEntity
  8
치수문자_일반주서
 62
     0
100
AcDbMText
 10
0.0000000000000178
 20
21.75625
 30
0.0
 40
2.5
 41
0.0
 71
     2
 72
     1
  1
\A1;57.15 [2 1/4]
  7
SLDTEXTSTYLE0
 73
     1
 44
1.0
  0
POINT
  5
128
330
11F
100
AcDbEntity
  8
Defpoints
 62
     0
100
AcDbPoint
 10
-28.57500000000002
 20
0.3965395672942711
 30
0.0
  0
POINT
  5
129
330
11F
100
AcDbEntity
  8
Defpoints
 62
     0
100
AcDbPoint
 10
28.57500000000002
 20
0.3965395672942655
 30
0.0
  0
POINT
  5
12A
330
11F
100
AcDbEntity
  8
Defpoints
 62
     0
100
AcDbPoint
 10
28.57500000000002
 20
18.38125
 30
0.0
  0
ENDBLK
  5
121
330
11F
100
AcDbEntity
  8
0
100
AcDbBlockEnd
  0
BLOCK
  5
139
330
138
100
AcDbEntity
  8
0
100
AcDbBlockBegin
  2
SW_DOWELSYMBOL_0
 70
     0
 10
0.0
 20
0.0
 30
0.0
  3
SW_DOWELSYMBOL_0
  1
SW_DOWELSYMBOL_0
  0
CIRCLE
  5
13B
330
138
100
AcDbEntity
  8
해칭선
 62
     0
100
AcDbCircle
 10
0.0
 20
0.0
 30
0.0
 40
3.0
  0
HATCH
  5
13C
330
138
100
AcDbEntity
  8
0
  6
Continuous
 62
     0
370
     0
100
AcDbHatch
 10
0.0
 20
0.0
 30
0.0
210
0.0
220
0.0
230
1.0
  2
SOLID
 70
     1
 71
     0
 91
        1
 92
        0
 93
        3
 72
     2
 10
0.0000000000000087
 20
0.0
 40
3.0
 50
0.0
 51
90.0
 73
     1
 72
     1
 10
0.0000000000000087
 20
3.0
 11
0.0000000000000087
 21
0.0
 72
     1
 10
0.0000000000000087
 20
0.0
 11
3.000000000000008
 21
0.0
 97
        0
 75
     0
 76
     1
 98
        1
 10
0.0
 20
0.0
  0
HATCH
  5
13D
330
138
100
AcDbEntity
  8
0
  6
Continuous
 62
     0
370
     0
100
AcDbHatch
 10
0.0
 20
0.0
 30
0.0
210
0.0
220
0.0
230
1.0
  2
SOLID
 70
     1
 71
     0
 91
        1
 92
        0
 93
        3
 72
     2
 10
0.0000000000000087
 20
0.0
 40
3.0
 50
180.0
 51
270.0000000000007
 73
     1
 72
     1
 10
0.0000000000000087
 20
-3.0
 11
0.0000000000000087
 21
0.0
 72
     1
 10
0.0000000000000087
 20
0.0
 11
-2.999999999999991
 21
0.0
 97
        0
 75
     0
 76
     1
 98
        1
 10
0.0
 20
0.0
  0
ENDBLK
  5
13A
330
138
100
AcDbEntity
  8
0
100
AcDbBlockEnd
  0
BLOCK
  5
19C
330
19B
100
AcDbEntity
  8
0
100
AcDbBlockBegin
  2
*D7
 70
     1
 10
0.0
 20
0.0
 30
0.0
  3
*D7
  1
*D7
  0
LINE
  5
19E
330
19B
100
AcDbEntity
  8
치수문자_일반주서
 62
     0
370
    -2
100
AcDbLine
 10
7.381249999999984
 20
0.7853214860538494
 30
0.0
 11
7.381249999999984
 21
10.31324042902825
 31
0.0
  0
LINE
  5
19F
330
19B
100
AcDbEntity
  8
치수문자_일반주서
 62
     0
370
    -2
100
AcDbLine
 10
4.999999999999998
 20
0.7641000406186218
 30
0.0
 11
4.999999999999996
 21
10.31324042902825
 31
0.0
  0
LINE
  5
1A0
330
19B
100
AcDbEntity
  8
치수문자_일반주서
 62
     0
370
    -2
100
AcDbLine
 10
7.381249999999984
 20
10.31324042902825
 30
0.0
 11
31.63124999999998
 21
10.31324042902825
 31
0.0
  0
LINE
  5
1A1
330
19B
100
AcDbEntity
  8
치수문자_일반주서
 62
     0
370
    -2
100
AcDbLine
 10
7.381249999999984
 20
10.31324042902825
 30
0.0
 11
4.999999999999996
 21
10.31324042902825
 31
0.0
  0
LINE
  5
1A2
330
19B
100
AcDbEntity
  8
치수문자_일반주서
 62
     0
370
    -2
100
AcDbLine
 10
9.881249999999984
 20
10.31324042902825
 30
0.0
 11
12.38124999999998
 21
10.31324042902825
 31
0.0
  0
LINE
  5
1A3
330
19B
100
AcDbEntity
  8
치수문자_일반주서
 62
     0
370
    -2
100
AcDbLine
 10
2.499999999999996
 20
10.31324042902825
 30
0.0
 11
-0.0000000000000036
 21
10.31324042902825
 31
0.0
  0
SOLID
  5
1A4
330
19B
100
AcDbEntity
  8
치수문자_일반주서
 62
     0
100
AcDbTrace
 10
9.881249999999984
 20
10.72990709569492
 30
0.0
 11
9.881249999999984
 21
9.896573762361584
 31
0.0
 12
7.381249999999984
 22
10.31324042902825
 32
0.0
 13
7.381249999999984
 23
10.31324042902825
 33
0.0
  0
SOLID
  5
1A5
330
19B
100
AcDbEntity
  8
치수문자_일반주서
 62
     0
100
AcDbTrace
 10
2.499999999999996
 20
9.896573762361584
 30
0.0
 11
2.499999999999996
 21
10.72990709569492
 31
0.0
 12
4.999999999999996
 22
10.31324042902825
 32
0.0
 13
4.999999999999996
 23
10.31324042902825
 33
0.0
  0
MTEXT
  5
1A6
330
19B
100
AcDbEntity
  8
치수문자_일반주서
 62
     0
100
AcDbMText
 10
22.00624999999998
 20
13.68824042902825
 30
0.0
 40
2.5
 41
0.0
 71
     2
 72
     1
  1
\A1;2.38 [3/32]
  7
SLDTEXTSTYLE0
 73
     1
 44
1.0
  0
POINT
  5
1A7
330
19B
100
AcDbEntity
  8
Defpoints
 62
     0
100
AcDbPoint
 10
7.381249999999984
 20
0.7228214860538494
 30
0.0
  0
POINT
  5
1A8
330
19B
100
AcDbEntity
  8
Defpoints
 62
     0
100
AcDbPoint
 10
4.999999999999998
 20
0.7016000406186218
 30
0.0
  0
POINT
  5
1A9
330
19B
100
AcDbEntity
  8
Defpoints
 62
     0
100
AcDbPoint
 10
4.999999999999998
 20
10.31324042902825
 30
0.0
  0
ENDBLK
  5
19D
330
19B
100
AcDbEntity
  8
0
100
AcDbBlockEnd
  0
BLOCK
  5
1AE
330
1AD
100
AcDbEntity
  8
0
100
AcDbBlockBegin
  2
*D8
 70
     1
 10
0.0
 20
0.0
 30
0.0
  3
*D8
  1
*D8
  0
LINE
  5
1B0
330
1AD
100
AcDbEntity
  8
치수문자_일반주서
 62
     0
370
    -2
100
AcDbLine
 10
52.98721531597955
 20
-10.09813482699449
 30
0.0
 11
52.98721531597955
 21
-0.5702158840200919
 31
0.0
  0
LINE
  5
1B1
330
1AD
100
AcDbEntity
  8
치수문자_일반주서
 62
     0
370
    -2
100
AcDbLine
 10
50.60596531597957
 20
-10.11935627242972
 30
0.0
 11
50.60596531597957
 21
-0.5702158840200919
 31
0.0
  0
LINE
  5
1B2
330
1AD
100
AcDbEntity
  8
치수문자_일반주서
 62
     0
370
    -2
100
AcDbLine
 10
52.98721531597955
 20
-0.5702158840200919
 30
0.0
 11
77.23721531597955
 21
-0.5702158840200919
 31
0.0
  0
LINE
  5
1B3
330
1AD
100
AcDbEntity
  8
치수문자_일반주서
 62
     0
370
    -2
100
AcDbLine
 10
52.98721531597955
 20
-0.5702158840200919
 30
0.0
 11
50.60596531597957
 21
-0.5702158840200919
 31
0.0
  0
LINE
  5
1B4
330
1AD
100
AcDbEntity
  8
치수문자_일반주서
 62
     0
370
    -2
100
AcDbLine
 10
55.48721531597955
 20
-0.5702158840200919
 30
0.0
 11
57.98721531597955
 21
-0.5702158840200919
 31
0.0
  0
LINE
  5
1B5
330
1AD
100
AcDbEntity
  8
치수문자_일반주서
 62
     0
370
    -2
100
AcDbLine
 10
48.10596531597957
 20
-0.5702158840200919
 30
0.0
 11
45.60596531597957
 21
-0.5702158840200919
 31
0.0
  0
SOLID
  5
1B6
330
1AD
100
AcDbEntity
  8
치수문자_일반주서
 62
     0
100
AcDbTrace
 10
55.48721531597955
 20
-0.1535492173534252
 30
0.0
 11
55.48721531597955
 21
-0.9868825506867587
 31
0.0
 12
52.98721531597955
 22
-0.5702158840200919
 32
0.0
 13
52.98721531597955
 23
-0.5702158840200919
 33
0.0
  0
SOLID
  5
1B7
330
1AD
100
AcDbEntity
  8
치수문자_일반주서
 62
     0
100
AcDbTrace
 10
48.10596531597957
 20
-0.9868825506867587
 30
0.0
 11
48.10596531597957
 21
-0.1535492173534252
 31
0.0
 12
50.60596531597957
 22
-0.5702158840200919
 32
0.0
 13
50.60596531597957
 23
-0.5702158840200919
 33
0.0
  0
MTEXT
  5
1B8
330
1AD
100
AcDbEntity
  8
치수문자_일반주서
 62
     0
100
AcDbMText
 10
67.61221531597955
 20
2.804784115979908
 30
0.0
 40
2.5
 41
0.0
 71
     2
 72
     1
  1
\A1;2.38 [3/32]
  7
SLDTEXTSTYLE0
 73
     1
 44
1.0
  0
POINT
  5
1B9
330
1AD
100
AcDbEntity
  8
Defpoints
 62
     0
100
AcDbPoint
 10
52.98721531597955
 20
-10.16063482699449
 30
0.0
  0
POINT
  5
1BA
330
1AD
100
AcDbEntity
  8
Defpoints
 62
     0
100
AcDbPoint
 10
50.60596531597957
 20
-10.18185627242972
 30
0.0
  0
POINT
  5
1BB
330
1AD
100
AcDbEntity
  8
Defpoints
 62
     0
100
AcDbPoint
 10
50.60596531597957
 20
-0.5702158840200919
 30
0.0
  0
ENDBLK
  5
1AF
330
1AD
100
AcDbEntity
  8
0
100
AcDbBlockEnd
  0
ENDSEC
  0
SECTION
  2
ENTITIES
  0
LINE
  5
96
330
1F
100
AcDbEntity
  8
외형선
  6
Continuous
370
    15
100
AcDbLine
 10
18.28796167873055
 20
2.381249999999998
 30
0.0
 11
-18.28796167873055
 21
2.381249999999996
 31
0.0
  0
LINE
  5
97
330
1F
100
AcDbEntity
  8
외형선
  6
Continuous
370
    15
100
AcDbLine
 10
-18.28796167873055
 20
-2.381250000000001
 30
0.0
 11
18.28796167873055
 21
-2.381249999999998
 31
0.0
  0
LINE
  5
98
330
1F
100
AcDbEntity
  8
외형선
  6
Continuous
370
    15
100
AcDbLine
 10
18.28796167873055
 20
-2.38125
 30
0.0
 11
25.54603321523587
 21
-0.4364555931860761
 31
0.0
  0
LINE
  5
99
330
1F
100
AcDbEntity
  8
외형선
  6
Continuous
370
    15
100
AcDbLine
 10
25.54603321523587
 20
0.4364555931860773
 30
0.0
 11
18.28796167873055
 21
2.38125
 31
0.0
  0
SPLINE
  5
9C
330
1F
100
AcDbEntity
  8
외형선
  6
Continuous
370
    15
100
AcDbSpline
210
0.0
220
0.0
230
1.0
 70
     8
 71
     3
 72
     9
 73
     5
 74
     0
 42
0.000000001
 43
0.00000001
 40
0.0
 40
0.0
 40
0.0
 40
0.0
 40
0.4863049473149318
 40
1.0
 40
1.0
 40
1.0
 40
1.0
 10
26.19375000488885
 20
0.2660518935070033
 30
0.0
 10
26.09396385057756
 20
0.2629373474186171
 30
0.0
 10
25.88877129627138
 20
0.2565328349710618
 30
0.0
 10
25.68555302712298
 20
0.283644692784672
 30
0.0
 10
25.58116080764623
 20
0.2975719200126245
 30
0.0
  0
LINE
  5
9D
330
1F
100
AcDbEntity
  8
외형선
  6
Continuous
370
    15
100
AcDbLine
 10
25.58116080764623
 20
-0.2975719200126236
 30
0.0
 11
25.87252223500795
 21
-0.2665019037608483
 31
0.0
  0
LINE
  5
9E
330
1F
100
AcDbEntity
  8
0
  6
Continuous
 62
     1
370
    25
100
AcDbLine
 10
27.54519293433463
 20
0.1021072199995092
 30
0.0
 11
27.43815233245692
 21
0.1563978286715367
 31
0.0
1001
PE_URL
1000

  0
LINE
  5
9F
330
1F
100
AcDbEntity
  8
0
  6
Continuous
 62
     1
370
    25
100
AcDbLine
 10
26.63516636916914
 20
0.3968750000000007
 30
0.0
 11
26.44320438603221
 21
0.3968750000000007
 31
0.0
1001
PE_URL
1000

  0
LINE
  5
A0
330
1F
100
AcDbEntity
  8
0
  6
Continuous
 62
     1
370
    25
100
AcDbLine
 10
27.4166997673047
 20
0.3153886945178527
 30
0.0
 11
27.03959860665361
 21
0.3247530596251021
 31
0.0
1001
PE_URL
1000

  0
LINE
  5
A1
330
1F
100
AcDbEntity
  8
0
  6
Continuous
 62
     1
370
    25
100
AcDbLine
 10
26.81801398101161
 20
-0.3302555601559462
 30
0.0
 11
27.4166997673047
 21
-0.3153886945178517
 31
0.0
1001
PE_URL
1000

  0
SPLINE
  5
A2
330
1F
100
AcDbEntity
  8
0
  6
Continuous
 62
     1
370
    25
100
AcDbSpline
210
0.0
220
0.0
230
1.0
 70
     8
 71
     3
 72
     9
 73
     5
 74
     0
 42
0.000000001
 43
0.00000001
 40
0.0
 40
0.0
 40
0.0
 40
0.0
 40
0.9412007408666755
 40
1.0
 40
1.0
 40
1.0
 40
1.0
 10
27.73553338967903
 20
-0.2983921275494457
 30
0.0
 10
27.82831943884085
 20
-0.2850210708512889
 30
0.0
 10
27.92690207390802
 20
-0.2708146894518814
 30
0.0
 10
28.02455892798878
 20
-0.2664557815160438
 30
0.0
 10
28.03030107865802
 20
-0.2661994809587862
 30
0.0
1001
PE_URL
1000

  0
LINE
  5
A3
330
1F
100
AcDbEntity
  8
0
  6
Continuous
 62
     1
370
    25
100
AcDbLine
 10
26.37493317918595
 20
0.2773146774590416
 30
0.0
 11
26.19375000000002
 21
0.2660518932239992
 31
0.0
1001
PE_URL
1000

  0
SPLINE
  5
A4
330
1F
100
AcDbEntity
  8
0
  6
Continuous
 62
     1
370
    25
100
AcDbSpline
210
0.0
220
0.0
230
1.0
 70
     8
 71
     3
 72
    10
 73
     6
 74
     0
 42
0.000000001
 43
0.00000001
 40
0.0
 40
0.0
 40
0.0
 40
0.0
 40
0.3969081518737491
 40
0.6042454869275622
 40
0.9999999999999999
 40
0.9999999999999999
 40
0.9999999999999999
 40
0.9999999999999999
 10
28.36158357836914
 20
0.2645760893824784
 30
0.0
 10
28.28317622425873
 20
0.2623702877592941
 30
0.0
 10
28.16381034668859
 20
0.2590122169573353
 30
0.0
 10
27.94744919485795
 20
0.2692850051018458
 30
0.0
 10
27.81949688952128
 20
0.2868595480470634
 30
0.0
 10
27.73553338967903
 20
0.2983921275494466
 30
0.0
1001
PE_URL
1000

  0
LINE
  5
A5
330
1F
100
AcDbEntity
  8
0
  6
Continuous
 62
     1
370
    25
100
AcDbLine
 10
26.44320631907851
 20
-0.3968749999999997
 30
0.0
 11
26.63516636916914
 21
-0.3968749999999997
 31
0.0
1001
PE_URL
1000

  0
LINE
  5
A6
330
1F
100
AcDbEntity
  8
외형선
  6
Continuous
370
    15
100
AcDbLine
 10
18.28796167873055
 20
2.38125
 30
0.0
 11
18.28796167873055
 21
-2.381250000000002
 31
0.0
  0
SPLINE
  5
A8
330
1F
100
AcDbEntity
  8
외형선
  6
Continuous
370
    15
100
AcDbSpline
210
0.0
220
0.0
230
1.0
 70
    24
 71
     3
 72
    17
 73
    13
 74
     0
 42
0.000000001
 43
0.00000001
 40
0.0
 40
0.0
 40
0.0
 40
0.0
 40
0.103951222912908
 40
0.2109170383324467
 40
0.3148682612456147
 40
0.421834076665436
 40
0.5257852995781586
 40
0.6327511149973406
 40
0.7367023379102084
 40
0.843668153329703
 40
0.9476193762426516
 40
1.0
 40
1.0
 40
1.0
 40
1.0
 10
25.54563423357463
 20
-0.0125436733172699
 30
0.0
 10
25.54563423357463
 20
0.0116746339005171
 30
0.0
 10
25.54563423357463
 20
0.0608135808860716
 30
0.0
 10
25.54563423357463
 20
0.132576279689419
 30
0.0
 10
25.54563423357463
 20
0.2011881112698301
 30
0.0
 10
25.54563423357463
 20
0.263498663659021
 30
0.0
 10
25.54563423357463
 20
0.3188737247129602
 30
0.0
 10
25.54563423357463
 20
0.3646907703736986
 30
0.0
 10
25.54563423357463
 20
0.4007039995108418
 30
0.0
 10
25.54563423357463
 20
0.4244004103180724
 30
0.0
 10
25.54563423357463
 20
0.4362430777045809
 30
0.0
 10
25.54563423357463
 20
0.4352869379883727
 30
0.0
 10
25.54563423357463
 20
0.4349665733550565
 30
0.0
  0
SPLINE
  5
A9
330
1F
100
AcDbEntity
  8
외형선
  6
Continuous
370
    15
100
AcDbSpline
210
0.0
220
0.0
230
1.0
 70
     8
 71
     3
 72
     8
 73
     4
 74
     0
 42
0.000000001
 43
0.00000001
 40
0.0
 40
0.0
 40
0.0
 40
0.0
 40
0.0001690507803989
 40
0.0001690507803989
 40
0.0001690507803989
 40
0.0001690507803989
 10
25.69375000000002
 20
-0.0788157382400716
 30
0.0
 10
25.64428339915953
 20
-0.0584061366096889
 30
0.0
 10
25.59480075216273
 20
-0.0363305129948772
 30
0.0
 10
25.54563423357463
 20
-0.0125436733172701
 30
0.0
  0
LINE
  5
AA
330
1F
100
AcDbEntity
  8
외형선
  6
Continuous
370
    15
100
AcDbLine
 10
25.69375000000002
 20
-0.0788157382400794
 30
0.0
 11
25.69375000000002
 21
-0.1831763572070669
 31
0.0
  0
SPLINE
  5
AB
330
1F
100
AcDbEntity
  8
외형선
  6
Continuous
370
    15
100
AcDbSpline
210
0.0
220
0.0
230
1.0
 70
     8
 71
     3
 72
     8
 73
     4
 74
     0
 42
0.000000001
 43
0.00000001
 40
0.0
 40
0.0
 40
0.0
 40
0.0
 40
0.0001696831365436
 40
0.0001696831365436
 40
0.0001696831365436
 40
0.0001696831365436
 10
25.54563423357463
 20
-0.1310815023765433
 30
0.0
 10
25.59531370491389
 20
-0.1495337960305281
 30
0.0
 10
25.64474121716822
 20
-0.1670621746729744
 30
0.0
 10
25.69374999999545
 20
-0.1831763572464655
 30
0.0
  0
SPLINE
  5
AC
330
1F
100
AcDbEntity
  8
외형선
  6
Continuous
370
    15
100
AcDbSpline
210
0.0
220
0.0
230
1.0
 70
    24
 71
     3
 72
    15
 73
    11
 74
     0
 42
0.000000001
 43
0.00000001
 40
0.0
 40
0.0
 40
0.0
 40
0.0
 40
0.0689748201519702
 40
0.2003294364248717
 40
0.3354933454690115
 40
0.4668479617422727
 40
0.6020118707860518
 40
0.7333664870593061
 40
0.8685303961030779
 40
1.0
 40
1.0
 40
1.0
 40
1.0
 10
25.54563423357463
 20
-0.4349665733550556
 30
0.0
 10
25.54563423357463
 20
-0.4352638313645924
 30
0.0
 10
25.54563423357463
 20
-0.4361271830832644
 30
0.0
 10
25.54563423357463
 20
-0.4240276418348953
 30
0.0
 10
25.54563423357463
 20
-0.4000689825527309
 30
0.0
 10
25.54563423357463
 20
-0.363827896050524
 30
0.0
 10
25.54563423357463
 20
-0.3178224746943674
 30
0.0
 10
25.54563423357463
 20
-0.2622172411764705
 30
0.0
 10
25.54563423357463
 20
-0.1999650976315632
 30
0.0
 10
25.54563423357463
 20
-0.1538296261669614
 30
0.0
 10
25.54563423357463
 20
-0.1310815023765434
 30
0.0
  0
SPLINE
  5
AE
330
1F
100
AcDbEntity
  8
외형선
  6
Continuous
370
    15
100
AcDbSpline
210
0.0
220
0.0
230
1.0
 70
    24
 71
     3
 72
     8
 73
     4
 74
     0
 42
0.000000001
 43
0.00000001
 40
0.0
 40
0.0
 40
0.0
 40
0.0
 40
1.0
 40
1.0
 40
1.0
 40
1.0
 10
26.19375000000168
 20
-0.2573403442393711
 30
0.0
 10
26.19375000000168
 20
-0.276815157267303
 30
0.0
 10
26.19375000000168
 20
-0.297051303022739
 30
0.0
 10
26.19375000000168
 20
-0.3176694960134705
 30
0.0
  0
SPLINE
  5
AF
330
1F
100
AcDbEntity
  8
외형선
  6
Continuous
370
    15
100
AcDbSpline
210
0.0
220
0.0
230
1.0
 70
     8
 71
     3
 72
    10
 73
     6
 74
     0
 42
0.000000001
 43
0.00000001
 40
0.0
 40
0.0
 40
0.0
 40
0.0
 40
0.5
 40
0.5
 40
1.0
 40
1.0
 40
1.0
 40
1.0
 10
26.19375000000007
 20
-0.317669496012339
 30
0.0
 10
26.10907662134033
 20
-0.2886469126980668
 30
0.0
 10
26.02933360369991
 20
-0.2531962265557659
 30
0.0
 10
25.86080178800263
 20
-0.1715219659368968
 30
0.0
 10
25.77445057906078
 20
-0.1255187549457516
 30
0.0
 10
25.69375000000002
 20
-0.0788157382400793
 30
0.0
  0
SPLINE
  5
B0
330
1F
100
AcDbEntity
  8
외형선
  6
Continuous
370
    15
100
AcDbSpline
210
0.0
220
0.0
230
1.0
 70
     8
 71
     3
 72
    10
 73
     6
 74
     0
 42
0.000000001
 43
0.00000001
 40
0.0
 40
0.0
 40
0.0
 40
0.0
 40
0.0073161148360882
 40
0.6212645442758896
 40
1.0
 40
1.0
 40
1.0
 40
1.0
 10
26.19375000000002
 20
-0.2573403442388498
 30
0.0
 10
26.19217092811173
 20
-0.2568427375838912
 30
0.0
 10
26.05808044442778
 20
-0.2145873358238545
 30
0.0
 10
25.84185243993187
 20
-0.1207123713827042
 30
0.0
 10
25.62743878017366
 20
-0.0153969825961182
 30
0.0
 10
25.54563423357463
 20
0.0247836553320007
 30
0.0
  0
SPLINE
  5
B1
330
1F
100
AcDbEntity
  8
외형선
  6
Continuous
370
    15
100
AcDbSpline
210
0.0
220
0.0
230
1.0
 70
     8
 71
     3
 72
    10
 73
     6
 74
     0
 42
0.000000001
 43
0.00000001
 40
0.0
 40
0.0
 40
0.0
 40
0.0
 40
0.4999999999999999
 40
0.4999999999999999
 40
1.0
 40
1.0
 40
1.0
 40
1.0
 10
25.69374999998662
 20
-0.1831763572223952
 30
0.0
 10
25.7744505790516
 20
-0.2254493181746991
 30
0.0
 10
25.86080178799606
 20
-0.2645924108264035
 30
0.0
 10
26.02933360370091
 20
-0.3288030260214253
 30
0.0
 10
26.10907662134493
 20
-0.3538264572794429
 30
0.0
 10
26.19375000000851
 20
-0.3710170507962259
 30
0.0
  0
LINE
  5
B2
330
1F
100
AcDbEntity
  8
외형선
  6
Continuous
370
    15
100
AcDbLine
 10
26.19375000000002
 20
-0.3176694960123194
 30
0.0
 11
26.19375000000002
 21
-0.3710170508210528
 31
0.0
  0
SPLINE
  5
B3
330
1F
100
AcDbEntity
  8
외형선
  6
Continuous
370
    15
100
AcDbSpline
210
0.0
220
0.0
230
1.0
 70
    24
 71
     3
 72
    10
 73
     6
 74
     0
 42
0.000000001
 43
0.00000001
 40
0.0
 40
0.0
 40
0.0
 40
0.0
 40
0.4999999999999999
 40
0.4999999999999999
 40
1.0
 40
1.0
 40
1.0
 40
1.0
 10
26.19375000000019
 20
0.100433452996153
 30
0.0
 10
26.19375000000019
 20
0.0405125850797386
 30
0.0
 10
26.19375000000019
 20
-0.0250853712427134
 30
0.0
 10
26.19375000000019
 20
-0.1501450419761606
 30
0.0
 10
26.19375000000019
 20
-0.2090684506750618
 30
0.0
 10
26.19375000000019
 20
-0.2573403442389046
 30
0.0
  0
SPLINE
  5
B4
330
1F
100
AcDbEntity
  8
외형선
  6
Continuous
370
    15
100
AcDbSpline
210
0.0
220
0.0
230
1.0
 70
     8
 71
     3
 72
    10
 73
     6
 74
     0
 42
0.000000001
 43
0.00000001
 40
0.0
 40
0.0
 40
0.0
 40
0.0
 40
0.0072314510082851
 40
0.62116983794824
 40
0.9999999999999999
 40
0.9999999999999999
 40
0.9999999999999999
 40
0.9999999999999999
 10
26.19375000488885
 20
0.1004334508746872
 30
0.0
 10
26.19218906654498
 20
0.1011101994374377
 30
0.0
 10
26.05810701067574
 20
0.1592417963429274
 30
0.0
 10
25.84189699591848
 20
0.2532296106875171
 30
0.0
 10
25.62746084172537
 20
0.2805753163077034
 30
0.0
 10
25.54563423357463
 20
0.2910101534125212
 30
0.0
  0
SPLINE
  5
B5
330
1F
100
AcDbEntity
  8
외형선
  6
Continuous
370
    15
100
AcDbSpline
210
0.0
220
0.0
230
1.0
 70
    24
 71
     3
 72
    13
 73
     9
 74
     0
 42
0.000000001
 43
0.00000001
 40
0.0
 40
0.0
 40
0.0
 40
0.0
 40
0.0596288474491455
 40
0.2506407998036753
 40
0.4362695070701053
 40
0.62728145942657
 40
0.8110326915469788
 40
1.0
 40
1.0
 40
1.0
 40
1.0
 10
26.19375000000002
 20
0.2647369897582495
 30
0.0
 10
26.19375000000002
 20
0.2650613366330407
 30
0.0
 10
26.19375000000002
 20
0.2664246794375588
 30
0.0
 10
26.19375000000002
 20
0.256192471758759
 30
0.0
 10
26.19375000000002
 20
0.2340352444916488
 30
0.0
 10
26.19375000000002
 20
0.1997528214809629
 30
0.0
 10
26.19375000000002
 20
0.155631168995615
 30
0.0
 10
26.19375000000002
 20
0.1190035555602107
 30
0.0
 10
26.19375000000002
 20
0.1004334529962293
 30
0.0
  0
LINE
  5
B6
330
1F
100
AcDbEntity
  8
외형선
  6
Continuous
370
    15
100
AcDbLine
 10
25.58510267881199
 20
-0.2844335365215265
 30
0.0
 11
25.54563423357463
 21
-0.2910101534125202
 31
0.0
  0
SPLINE
  5
B7
330
1F
100
AcDbEntity
  8
외형선
  6
Continuous
370
    15
100
AcDbSpline
210
0.0
220
0.0
230
1.0
 70
     8
 71
     3
 72
    10
 73
     6
 74
     0
 42
0.000000001
 43
0.00000001
 40
0.0
 40
0.0
 40
0.0
 40
0.0
 40
0.2187364159138591
 40
0.607753913605637
 40
1.0
 40
1.0
 40
1.0
 40
1.0
 10
25.87343803446682
 20
0.2668837032843236
 30
0.0
 10
25.89688004550452
 20
0.27687713156495
 30
0.0
 10
25.96201311395785
 20
0.3046436336469798
 30
0.0
 10
26.06835944925655
 20
0.3415890560654082
 30
0.0
 10
26.15183815722856
 20
0.3611807315612309
 30
0.0
 10
26.19375000000002
 20
0.3710170508210537
 30
0.0
  0
SPLINE
  5
B8
330
1F
100
AcDbEntity
  8
외형선
  6
Continuous
370
    15
100
AcDbSpline
210
0.0
220
0.0
230
1.0
 70
    24
 71
     3
 72
     8
 73
     4
 74
     0
 42
0.000000001
 43
0.00000001
 40
0.0
 40
0.0
 40
0.0
 40
0.0
 40
1.0
 40
1.0
 40
1.0
 40
1.0
 10
26.19375000000004
 20
0.3710170508210513
 30
0.0
 10
26.19375000000004
 20
0.3300886962900156
 30
0.0
 10
26.19375000000004
 20
0.2893470047386132
 30
0.0
 10
26.19375000000004
 20
0.2635469954665219
 30
0.0
  0
SPLINE
  5
B9
330
1F
100
AcDbEntity
  8
0
  6
Continuous
 62
     1
370
    25
100
AcDbSpline
210
0.0
220
0.0
230
1.0
 70
     8
 71
     3
 72
    12
 73
     8
 74
     0
 42
0.000000001
 43
0.00000001
 40
0.0
 40
0.0
 40
0.0
 40
0.0
 40
0.2045417058359986
 40
0.4093561709647081
 40
0.6143745453184184
 40
0.8195250570845947
 40
1.0
 40
1.0
 40
1.0
 40
1.0
 10
28.57500000000002
 20
-0.3766109074764099
 30
0.0
 10
28.442798668579
 20
-0.3400998339531199
 30
0.0
 10
28.17821971336908
 20
-0.2670289988673473
 30
0.0
 10
27.78099049720318
 20
-0.0370939342653434
 30
0.0
 10
27.38330093731378
 20
0.1930562917934123
 30
0.0
 10
27.00128966018227
 20
0.3673194736779013
 30
0.0
 10
26.75188785589849
 20
0.382975828338823
 30
0.0
 10
26.63516636916914
 20
0.3903030928629617
 30
0.0
1001
PE_URL
1000

  0
SPLINE
  5
BA
330
1F
100
AcDbEntity
  8
0
  6
Continuous
 62
     1
370
    25
100
AcDbSpline
210
0.0
220
0.0
230
1.0
 70
     8
 71
     3
 72
    10
 73
     6
 74
     0
 42
0.000000001
 43
0.00000001
 40
0.0
 40
0.0
 40
0.0
 40
0.0
 40
0.3821736729234265
 40
0.7648797192980143
 40
0.9999999999999999
 40
0.9999999999999999
 40
0.9999999999999999
 40
0.9999999999999999
 10
28.57500000000002
 20
-0.3131233674211352
 30
0.0
 10
28.44279649738594
 20
-0.2788874319671254
 30
0.0
 10
28.1782053307675
 20
-0.2103678699060966
 30
0.0
 10
27.83219154675888
 20
-0.0333350934533397
 30
0.0
 10
27.61837966485592
 20
0.0653850857012798
 30
0.0
 10
27.5370113134483
 20
0.1029540840047588
 30
0.0
1001
PE_URL
1000

  0
LINE
  5
BB
330
1F
100
AcDbEntity
  8
0
  6
Continuous
 62
     1
370
    25
100
AcDbLine
 10
28.575
 20
-0.37661090747641
 30
0.0
 11
28.57500000000002
 21
-0.3131233674211352
 31
0.0
1001
PE_URL
1000

  0
SPLINE
  5
BC
330
1F
100
AcDbEntity
  8
0
  6
Continuous
 62
     1
370
    25
100
AcDbSpline
210
0.0
220
0.0
230
1.0
 70
     8
 71
     3
 72
    30
 73
    26
 74
     0
 42
0.000000001
 43
0.00000001
 40
0.0
 40
0.0
 40
0.0
 40
0.0
 40
0.0625
 40
0.0625
 40
0.125
 40
0.125
 40
0.2500000000000001
 40
0.2500000000000001
 40
0.3750000000000001
 40
0.3750000000000001
 40
0.4375
 40
0.4375
 40
0.5
 40
0.5
 40
0.5624999999999998
 40
0.5624999999999998
 40
0.6249999999999998
 40
0.6249999999999998
 40
0.7499999999999996
 40
0.7499999999999996
 40
0.8124999999999996
 40
0.8124999999999996
 40
0.8749999999999998
 40
0.8749999999999998
 40
1.0
 40
1.0
 40
1.0
 40
1.0
 10
26.19375000000588
 20
0.3710170508169541
 30
0.0
 10
26.24406858565467
 20
0.3812328514132983
 30
0.0
 10
26.2948762060379
 20
0.3885211164591023
 30
0.0
 10
26.39392518526523
 20
0.39682744864956
 30
0.0
 10
26.44120543142566
 20
0.3979055534151142
 30
0.0
 10
26.58999599299626
 20
0.3919257057115279
 30
0.0
 10
26.69257390157704
 20
0.3750912625058891
 30
0.0
 10
26.88570383501784
 20
0.3203732713235244
 30
0.0
 10
26.99005097062233
 20
0.2811493707682279
 30
0.0
 10
27.13725845002351
 20
0.2121979935029248
 30
0.0
 10
27.18487393836671
 20
0.1876373919068556
 30
0.0
 10
27.28476983726002
 20
0.135196008928479
 30
0.0
 10
27.33566797008089
 20
0.107530380698895
 30
0.0
 10
27.43579971249253
 20
0.0512426189079648
 30
0.0
 10
27.48371698500929
 20
0.0228874584034165
 30
0.0
 10
27.58143179162894
 20
-0.0340917390625168
 30
0.0
 10
27.63195597757381
 20
-0.0628589058230183
 30
0.0
 10
27.78330854901363
 20
-0.1469560990910086
 30
0.0
 10
27.87857341558746
 20
-0.1991165416622638
 30
0.0
 10
28.02919827835013
 20
-0.267072612121399
 30
0.0
 10
28.08006792180703
 20
-0.2878745656326829
 30
0.0
 10
28.17957150606507
 20
-0.3243612340195982
 30
0.0
 10
28.22692057306028
 20
-0.3399534268754315
 30
0.0
 10
28.374965034274
 20
-0.3791422244354461
 30
0.0
 10
28.47918917281926
 20
-0.3942123505437318
 30
0.0
 10
28.57500000000001
 20
-0.3965395672891274
 30
0.0
1001
PE_URL
1000

  0
SPLINE
  5
BD
330
1F
100
AcDbEntity
  8
0
  6
Continuous
 62
     1
370
    25
100
AcDbSpline
210
0.0
220
0.0
230
1.0
 70
     8
 71
     3
 72
    11
 73
     7
 74
     0
 42
0.000000001
 43
0.00000001
 40
0.0
 40
0.0
 40
0.0
 40
0.0
 40
0.159552262386477
 40
0.4879485855392431
 40
0.816446759361675
 40
1.0
 40
1.0
 40
1.0
 40
1.0
 10
27.57677912928644
 20
-0.0311771575786438
 30
0.0
 10
27.51232280446203
 20
-0.0055308998983685
 30
0.0
 10
27.315200105876
 20
0.0729014267404919
 30
0.0
 10
26.98533868988417
 20
0.1962301883030598
 30
0.0
 10
26.64576268701124
 20
0.2799633878575768
 30
0.0
 10
26.43889592518007
 20
0.2696794971044014
 30
0.0
 10
26.36474113634024
 20
0.2659930675373556
 30
0.0
1001
PE_URL
1000

  0
SPLINE
  5
BE
330
1F
100
AcDbEntity
  8
외형선
  6
Continuous
370
    15
100
AcDbSpline
210
0.0
220
0.0
230
1.0
 70
    24
 71
     3
 72
     8
 73
     4
 74
     0
 42
0.000000001
 43
0.00000001
 40
0.0
 40
0.0
 40
0.0
 40
0.0
 40
1.0
 40
1.0
 40
1.0
 40
1.0
 10
26.19375000000004
 20
0.3710170508210515
 30
0.0
 10
26.19375000000004
 20
0.3300886962900157
 30
0.0
 10
26.19375000000004
 20
0.2893470047386133
 30
0.0
 10
26.19375000000004
 20
0.2635469954665219
 30
0.0
  0
LINE
  5
BF
330
1F
100
AcDbEntity
  8
0
  6
Continuous
 62
     1
370
    25
100
AcDbLine
 10
28.57500000000002
 20
-0.3965395672942646
 30
0.0
 11
28.57499999999994
 21
-0.3766109074764088
 31
0.0
1001
PE_URL
1000

  0
SPLINE
  5
C0
330
1F
100
AcDbEntity
  8
0
  6
Continuous
 62
     1
370
    25
100
AcDbSpline
210
0.0
220
0.0
230
1.0
 70
     8
 71
     3
 72
     8
 73
     4
 74
     0
 42
0.000000001
 43
0.00000001
 40
0.0
 40
0.0
 40
0.0
 40
0.0
 40
1.0
 40
1.0
 40
1.0
 40
1.0
 10
28.32987869489137
 20
0.1105524090214969
 30
0.0
 10
28.3156261163446
 20
0.1274235236650931
 30
0.0
 10
28.30289810768624
 20
0.1436703987660585
 30
0.0
 10
28.29207500202797
 20
0.1591373058336996
 30
0.0
1001
PE_URL
1000

  0
LINE
  5
C1
330
1F
100
AcDbEntity
  8
0
  6
Continuous
 62
     1
370
    25
100
AcDbLine
 10
28.2970471952346
 20
0.1633094713309134
 30
0.0
 11
28.57500000000002
 21
0.0000000000000008
 31
0.0
1001
PE_URL
1000

  0
LINE
  5
C2
330
1F
100
AcDbEntity
  8
0
  6
Continuous
 62
     1
370
    25
100
AcDbLine
 10
28.57500000000002
 20
0.0000000000000008
 30
0.0
 11
28.57500000000002
 21
-0.1060620442055145
 31
0.0
1001
PE_URL
1000

  0
SPLINE
  5
C3
330
1F
100
AcDbEntity
  8
0
  6
Continuous
 62
     1
370
    25
100
AcDbSpline
210
0.0
220
0.0
230
1.0
 70
     8
 71
     3
 72
     8
 73
     4
 74
     0
 42
0.000000001
 43
0.00000001
 40
0.0
 40
0.0
 40
0.0
 40
0.0
 40
1.0
 40
1.0
 40
1.0
 40
1.0
 10
28.57500000000002
 20
-0.1060620442055144
 30
0.0
 10
28.49015313053236
 20
-0.0393536404118664
 30
0.0
 10
28.40656195477937
 20
0.0337168127794781
 30
0.0
 10
28.32987869489105
 20
0.1105524090207165
 30
0.0
1001
PE_URL
1000

  0
SPLINE
  5
C4
330
1F
100
AcDbEntity
  8
0
  6
Continuous
 62
     1
370
    25
100
AcDbSpline
210
0.0
220
0.0
230
1.0
 70
     8
 71
     3
 72
    10
 73
     6
 74
     0
 42
0.000000001
 43
0.00000001
 40
0.0
 40
0.0
 40
0.0
 40
0.0
 40
0.1663575558591355
 40
0.601076973824295
 40
1.0
 40
1.0
 40
1.0
 40
1.0
 10
28.32987869489137
 20
0.110552409021498
 30
0.0
 10
28.2794059163559
 20
0.1319504420255165
 30
0.0
 10
28.09703953794932
 20
0.2092650242061943
 30
0.0
 10
27.79192487421619
 20
0.3092932576988342
 30
0.0
 10
27.53803258483504
 20
0.3106972703015925
 30
0.0
 10
27.41653747489377
 20
0.3113691326332404
 30
0.0
1001
PE_URL
1000

  0
SPLINE
  5
C5
330
1F
100
AcDbEntity
  8
0
  6
Continuous
 62
     1
370
    25
100
AcDbSpline
210
0.0
220
0.0
230
1.0
 70
    24
 71
     3
 72
     8
 73
     4
 74
     0
 42
0.000000001
 43
0.00000001
 40
0.0
 40
0.0
 40
0.0
 40
0.0
 40
1.0
 40
1.0
 40
1.0
 40
1.0
 10
28.57500000000002
 20
-0.3131233674211351
 30
0.0
 10
28.57500000000002
 20
-0.2651166726006339
 30
0.0
 10
28.57500000000002
 20
-0.1902507387164485
 30
0.0
 10
28.57500000000002
 20
-0.1060620442055272
 30
0.0
1001
PE_URL
1000

  0
SPLINE
  5
C6
330
1F
100
AcDbEntity
  8
0
  6
Continuous
 62
     1
370
    25
100
AcDbSpline
210
0.0
220
0.0
230
1.0
 70
     8
 71
     3
 72
     9
 73
     5
 74
     0
 42
0.000000001
 43
0.00000001
 40
0.0
 40
0.0
 40
0.0
 40
0.0
 40
0.3722541284844175
 40
1.0
 40
1.0
 40
1.0
 40
1.0
 10
26.8204651023571
 20
-0.3166935296814417
 30
0.0
 10
26.7426934167329
 20
-0.3265463858971476
 30
0.0
 10
26.53377246818404
 20
-0.353014477079428
 30
0.0
 10
26.3248808505586
 20
-0.2942374071972008
 30
0.0
 10
26.19375000000002
 20
-0.2573403442388497
 30
0.0
1001
PE_URL
1000

  0
SPLINE
  5
C7
330
1F
100
AcDbEntity
  8
0
  6
Continuous
 62
     1
370
    25
100
AcDbSpline
210
0.0
220
0.0
230
1.0
 70
     8
 71
     3
 72
    11
 73
     7
 74
     0
 42
0.000000001
 43
0.00000001
 40
0.0
 40
0.0
 40
0.0
 40
0.0
 40
0.229469970514372
 40
0.4872732909229961
 40
0.7451544789437021
 40
0.9999999999999999
 40
0.9999999999999999
 40
0.9999999999999999
 40
0.9999999999999999
 10
27.73765950839453
 20
-0.2930586452125483
 30
0.0
 10
27.6195761608515
 20
-0.3060585588260127
 30
0.0
 10
27.36882935842013
 20
-0.333663524625887
 30
0.0
 10
26.98533342735982
 20
-0.2462427722351492
 30
0.0
 10
26.58875255209464
 20
-0.0825645409445434
 30
0.0
 10
26.32489678952922
 20
0.0396753661673642
 30
0.0
 10
26.19375000488885
 20
0.1004334508746872
 30
0.0
1001
PE_URL
1000

  0
SPLINE
  5
C8
330
1F
100
AcDbEntity
  8
외형선
  6
Continuous
370
    15
100
AcDbSpline
210
0.0
220
0.0
230
1.0
 70
    24
 71
     3
 72
    10
 73
     6
 74
     0
 42
0.000000001
 43
0.00000001
 40
0.0
 40
0.0
 40
0.0
 40
0.0
 40
0.4999999999999999
 40
0.4999999999999999
 40
1.0
 40
1.0
 40
1.0
 40
1.0
 10
26.19375000000019
 20
0.100433452996153
 30
0.0
 10
26.19375000000019
 20
0.0405125850797386
 30
0.0
 10
26.19375000000019
 20
-0.0250853712427134
 30
0.0
 10
26.19375000000019
 20
-0.1501450419761606
 30
0.0
 10
26.19375000000019
 20
-0.2090684506750618
 30
0.0
 10
26.19375000000019
 20
-0.2573403442389046
 30
0.0
  0
SPLINE
  5
C9
330
1F
100
AcDbEntity
  8
외형선
  6
Continuous
370
    15
100
AcDbSpline
210
0.0
220
0.0
230
1.0
 70
    24
 71
     3
 72
    13
 73
     9
 74
     0
 42
0.000000001
 43
0.00000001
 40
0.0
 40
0.0
 40
0.0
 40
0.0
 40
0.0565272943619424
 40
0.2481692465935537
 40
0.4344101985981746
 40
0.6260521508317272
 40
0.8104094353599688
 40
0.9999999999999999
 40
0.9999999999999999
 40
0.9999999999999999
 40
0.9999999999999999
 10
26.19375000000002
 20
0.2647680371194775
 30
0.0
 10
26.19375000000002
 20
0.2650691962059464
 30
0.0
 10
26.19375000000002
 20
0.2663913614437733
 30
0.0
 10
26.19375000000002
 20
0.2561762803718709
 30
0.0
 10
26.19375000000002
 20
0.2340396729732362
 30
0.0
 10
26.19375000000002
 20
0.1997516779986312
 30
0.0
 10
26.19375000000002
 20
0.1556314595816589
 30
0.0
 10
26.19375000000002
 20
0.1190036533217311
 30
0.0
 10
26.19375000000002
 20
0.1004334529962293
 30
0.0
  0
SPLINE
  5
CA
330
1F
100
AcDbEntity
  8
0
  6
Continuous
 62
     1
370
    25
100
AcDbSpline
210
0.0
220
0.0
230
1.0
 70
    24
 71
     3
 72
     8
 73
     4
 74
     0
 42
0.000000001
 43
0.00000001
 40
0.0
 40
0.0
 40
0.0
 40
0.0
 40
1.0
 40
1.0
 40
1.0
 40
1.0
 10
28.33326430936536
 20
0.1936992384402963
 30
0.0
 10
28.32022633921801
 20
0.1827590824983571
 30
0.0
 10
28.30645189846996
 20
0.1712009543470317
 30
0.0
 10
28.29207500202292
 20
0.1591373058408527
 30
0.0
1001
PE_URL
1000

  0
LINE
  5
CB
330
1F
100
AcDbEntity
  8
0
  6
Continuous
 62
     1
370
    25
100
AcDbLine
 10
28.57500000000002
 20
0.2778125000000004
 30
0.0
 11
28.35994317972018
 21
0.253353906461689
 31
0.0
1001
PE_URL
1000

  0
SPLINE
  5
CC
330
1F
100
AcDbEntity
  8
0
  6
Continuous
 62
     1
370
    25
100
AcDbSpline
210
0.0
220
0.0
230
1.0
 70
     8
 71
     3
 72
    17
 73
    13
 74
     0
 42
0.000000001
 43
0.00000001
 40
0.0
 40
0.0
 40
0.0
 40
0.0
 40
0.0001031126202385
 40
0.0001031126202385
 40
0.0001031126202385
 40
0.0002062313519065
 40
0.0002062313519065
 40
0.0002062313519065
 40
0.0002926365297924
 40
0.0002926365297924
 40
0.0002926365297924
 40
0.0003267556738153
 40
0.0003267556738153
 40
0.0003267556738153
 40
0.0003267556738153
 10
28.57500000000002
 20
0.2778125000000008
 30
0.0
 10
28.54922776876442
 20
0.2707777224272417
 30
0.0
 10
28.52353216522406
 20
0.2632411734053097
 30
0.0
 10
28.49794310127985
 20
0.2551467517548726
 30
0.0
 10
28.47235315484338
 20
0.2470520509514197
 30
0.0
 10
28.44686201679995
 20
0.23839791003081
 30
0.0
 10
28.42151216472758
 20
0.2291045903526638
 30
0.0
 10
28.40027052432441
 20
0.2213173514294795
 30
0.0
 10
28.37912183673334
 20
0.2130790880162352
 30
0.0
 10
28.3581028948481
 20
0.2043224395195957
 30
0.0
 10
28.34980276323088
 20
0.2008645425690921
 30
0.0
 10
28.34152223658384
 20
0.1973252428046878
 30
0.0
 10
28.33326430937969
 20
0.1936992384466177
 30
0.0
1001
PE_URL
1000

  0
SPLINE
  5
CD
330
1F
100
AcDbEntity
  8
0
  6
Continuous
 62
     1
370
    25
100
AcDbSpline
210
0.0
220
0.0
230
1.0
 70
     8
 71
     3
 72
    10
 73
     6
 74
     0
 42
0.000000001
 43
0.00000001
 40
0.0
 40
0.0
 40
0.0
 40
0.0
 40
0.0641550983239028
 40
0.5320891176383838
 40
1.0
 40
1.0
 40
1.0
 40
1.0
 10
27.03959860665361
 20
-0.3247530596251012
 30
0.0
 10
27.02151004873572
 20
-0.3323599278340181
 30
0.0
 10
26.87148729024367
 20
-0.3954497195889789
 30
0.0
 10
26.58953509457419
 20
-0.4179451959751362
 30
0.0
 10
26.32567619039143
 20
-0.3510941784126644
 30
0.0
 10
26.19375000000026
 20
-0.3176694960124024
 30
0.0
1001
PE_URL
1000

  0
SPLINE
  5
CE
330
1F
100
AcDbEntity
  8
외형선
  6
Continuous
370
    15
100
AcDbSpline
210
0.0
220
0.0
230
1.0
 70
    24
 71
     3
 72
     8
 73
     4
 74
     0
 42
0.000000001
 43
0.00000001
 40
0.0
 40
0.0
 40
0.0
 40
0.0
 40
1.0
 40
1.0
 40
1.0
 40
1.0
 10
26.19375000000003
 20
-0.2573403442388547
 30
0.0
 10
26.19375000000003
 20
-0.2768151572668808
 30
0.0
 10
26.19375000000003
 20
-0.2970513030224238
 30
0.0
 10
26.19375000000003
 20
-0.3176694960132683
 30
0.0
  0
SPLINE
  5
CF
330
1F
100
AcDbEntity
  8
0
  6
Continuous
 62
     1
370
    25
100
AcDbSpline
210
0.0
220
0.0
230
1.0
 70
     8
 71
     3
 72
     8
 73
     4
 74
     0
 42
0.000000001
 43
0.00000001
 40
0.0
 40
0.0
 40
0.0
 40
0.0
 40
1.0
 40
1.0
 40
1.0
 40
1.0
 10
26.19375000000522
 20
-0.3710170508221084
 30
0.0
 10
26.27814241835915
 20
-0.388150603099769
 30
0.0
 10
26.3616378092607
 20
-0.3968750437818378
 30
0.0
 10
26.44320551586901
 20
-0.3968749999998326
 30
0.0
1001
PE_URL
1000

  0
SPLINE
  5
D0
330
1F
100
AcDbEntity
  8
0
  6
Continuous
 62
     1
370
    25
100
AcDbSpline
210
0.0
220
0.0
230
1.0
 70
     8
 71
     3
 72
    15
 73
    11
 74
     0
 42
0.000000001
 43
0.00000001
 40
0.0
 40
0.0
 40
0.0
 40
0.0
 40
0.0195618311470618
 40
0.1237791221171565
 40
0.3327916988005127
 40
0.4378260783166195
 40
0.5772903168460467
 40
0.7171787047083086
 40
0.8583648123801714
 40
1.0
 40
1.0
 40
1.0
 40
1.0
 10
28.03013548127595
 20
0.2666253971895377
 30
0.0
 10
28.03369728518019
 20
0.2681742756543258
 30
0.0
 10
28.05623489718107
 20
0.2779749336395794
 30
0.0
 10
28.11685481215298
 20
0.3017910103977074
 30
0.0
 10
28.19273965969327
 20
0.3289605823569641
 30
0.0
 10
28.27468361648537
 20
0.3532290684230577
 30
0.0
 10
28.34462138981461
 20
0.3699968827294347
 30
0.0
 10
28.42121863268962
 20
0.3837069691730853
 30
0.0
 10
28.4981922241054
 20
0.3932022385384292
 30
0.0
 10
28.54937032019191
 20
0.3954259473979699
 30
0.0
 10
28.57500000000002
 20
0.3965395672942656
 30
0.0
1001
PE_URL
1000

  0
LINE
  5
D1
330
1F
100
AcDbEntity
  8
0
  6
Continuous
 62
     1
370
    25
100
AcDbLine
 10
28.57500000000002
 20
0.0000000000000008
 30
0.0
 11
28.57500000000002
 21
0.2778125000000008
 31
0.0
1001
PE_URL
1000

  0
SPLINE
  5
D2
330
1F
100
AcDbEntity
  8
0
  6
Continuous
 62
     1
370
    25
100
AcDbSpline
210
0.0
220
0.0
230
1.0
 70
    24
 71
     3
 72
     8
 73
     4
 74
     0
 42
0.000000001
 43
0.00000001
 40
0.0
 40
0.0
 40
0.0
 40
0.0
 40
1.0
 40
1.0
 40
1.0
 40
1.0
 10
28.57500000000002
 20
0.2778125000000004
 30
0.0
 10
28.57500000000002
 20
0.3114931038408058
 30
0.0
 10
28.57500000000002
 20
0.3567874723731544
 30
0.0
 10
28.57500000000001
 20
0.3965395672942655
 30
0.0
1001
PE_URL
1000

  0
LINE
  5
D3
330
1F
100
AcDbEntity
  8
중심선
 62
     1
100
AcDbLine
 10
-30.07500000000001
 20
-0.0000000000000044
 30
0.0
 11
30.02500000000001
 21
0.0000000000000038
 31
0.0
  0
LINE
  5
D4
330
1F
100
AcDbEntity
  8
참조1
100
AcDbLine
 10
0.0000000000000036
 20
-0.0000000000000039
 30
0.0
 11
0.0000000000000107
 21
-40.00000000000001
 31
0.0
  0
LINE
  5
D5
330
1F
100
AcDbEntity
  8
참조1
100
AcDbLine
 10
0.0000000000000107
 20
-40.00000000000001
 30
0.0
 11
-13.17196559669921
 21
-39.99999999999999
 31
0.0
  0
CIRCLE
  5
D6
330
1F
100
AcDbEntity
  8
해칭선
100
AcDbCircle
 10
0.0
 20
0.0
 30
0.0
 40
2.999999999999999
  0
INSERT
  5
D7
330
1F
100
AcDbEntity
  8
0
  6
Continuous
 62
     7
100
AcDbBlockReference
 66
     1
  2
블럭10
 10
-13.9402729321252
 20
-52.04717430164393
 30
0.0
  0
ATTRIB
  5
D8
330
D7
100
AcDbEntity
  8
FORMAT
 62
     2
100
AcDbText
 10
-23.12156822086648
 20
-49.97180738881174
 30
0.0
 40
4.233333333333333
  1
E2003002 [ 2 FLUTE ]
 41
0.75
  7
SLDTEXTSTYLE0
 11
-23.12156822086648
 21
-52.08847405547841
 31
0.0
100
AcDbAttribute
  2
AUTOATTR0
 70
     0
 74
     1
  0
SEQEND
  5
D9
330
D7
100
AcDbEntity
  8
0
  6
Continuous
 62
     7
  0
HATCH
  5
DA
330
1F
100
AcDbEntity
  8
중심선
100
AcDbHatch
 10
0.0
 20
0.0
 30
0.0
210
0.0
220
0.0
230
1.0
  2
SOLID
 70
     1
 71
     0
 91
        1
 92
        0
 93
        4
 72
     1
 10
-8.225363627744347
 20
-35.8
 11
-11.67163887158163
 21
-35.8
 72
     1
 10
-11.67163887158163
 20
-35.8
 11
-13.79986873078569
 21
-38.3363255805726
 72
     1
 10
-13.79986873078569
 20
-38.3363255805726
 11
-10.35356040183523
 21
-38.3362861512701
 72
     1
 10
-10.35356040183523
 20
-38.3362861512701
 11
-8.225363627744347
 21
-35.8
 97
        0
 75
     0
 76
     1
 98
        1
 10
16.28796167873053
 20
-0.0010749287238931
  0
HATCH
  5
DB
330
1F
100
AcDbEntity
  8
중심선
100
AcDbHatch
 10
0.0
 20
0.0
 30
0.0
210
0.0
220
0.0
230
1.0
  2
SOLID
 70
     1
 71
     0
 91
        1
 92
        0
 93
        4
 72
     1
 10
-3.212599636708369
 20
-35.8
 11
-6.658874880545657
 21
-35.8
 72
     1
 10
-6.658874880545657
 20
-35.8
 11
-11.19001288890307
 21
-41.20000000000002
 72
     1
 10
-11.19001288890307
 20
-41.20000000000002
 11
-7.743737645065789
 21
-41.20000000000002
 72
     1
 10
-7.743737645065789
 20
-41.20000000000002
 11
-3.212599636708369
 21
-35.8
 97
        0
 75
     0
 76
     1
 98
        1
 10
16.28796167873053
 20
-0.0010749287238931
  0
HATCH
  5
DC
330
1F
100
AcDbEntity
  8
중심선
100
AcDbHatch
 10
0.0
 20
0.0
 30
0.0
210
0.0
220
0.0
230
1.0
  2
SOLID
 70
     1
 71
     0
 91
        1
 92
        0
 93
        4
 72
     1
 10
1.800164354327523
 20
-35.8
 11
-1.646110889509597
 21
-35.79999999999998
 72
     1
 10
-1.646110889509597
 20
-35.79999999999998
 11
-8.694547791398868
 21
-44.20000000000002
 72
     1
 10
-8.694547791398868
 20
-44.20000000000002
 11
-5.248272547561587
 21
-44.20000000000002
 72
     1
 10
-5.248272547561587
 20
-44.20000000000002
 11
1.800164354327523
 21
-35.8
 97
        0
 75
     0
 76
     1
 98
        1
 10
16.28796167873053
 20
-0.0010749287238931
  0
HATCH
  5
DD
330
1F
100
AcDbEntity
  8
중심선
100
AcDbHatch
 10
0.0
 20
0.0
 30
0.0
210
0.0
220
0.0
230
1.0
  2
SOLID
 70
     1
 71
     0
 91
        1
 92
        0
 93
        6
 72
     3
 10
6.600054785339694
 20
-40.00000000005127
 11
3.960054785062283
 21
1.540882976769353E-10
 40
0.3939339440162628
 50
17.09539180608439
 51
320.0019657685078
 73
     0
 72
     1
 10
8.283054441040289
 20
-38.58789400463831
 11
10.58835631474136
 21
-36.65356729459035
 72
     3
 10
6.600054785286847
 20
-40.00000000000014
 11
6.600054785286829
 21
-1.278976924368180E-13
 40
0.636358354079598
 50
39.99873849337413
 51
368.4976242363724
 73
     1
 72
     1
 10
13.02538727718746
 20
-39.03999999993002
 11
5.280122092122771
 21
-39.03999999993
 72
     1
 10
5.280122092122772
 20
-39.03999999993
 11
5.280097047676833
 21
-40.95999999992991
 72
     1
 10
5.280097047676833
 20
-40.95999999992991
 11
9.721476817148872
 21
-40.95999999992988
 97
        0
 75
     0
 76
     1
 98
        1
 10
16.28796167873053
 20
-0.0010749287238931
  0
DIMENSION
  5
DE
330
1F
100
AcDbEntity
  8
치수문자_일반주서
100
AcDbDimension
  2
_D
 10
-36.575
 20
-2.381250000000072
 30
0.0
 11
-36.57500000000005
 21
17.63124999999996
 31
0.0
 70
   160
  1
%%c<>
 71
     2
 42
4.762500000000001
 52
-270.0
  3
SLDDIMSTYLE0
100
AcDbAlignedDimension
 13
-18.28796167873055
 23
2.381249999999995
 33
0.0
 14
-18.28796167873055
 24
-2.381250000000006
 34
0.0
 50
90.0000000000002
100
AcDbRotatedDimension
1001
PE_URL
1000

1001
ACAD
1000
DSTYLE
1002
{
1070
   171
1070
     8
1070
   273
1070
     7
1070
    41
1040
2.5
1070
   140
1040
2.5
1002
}
  0
DIMENSION
  5
F3
330
1F
100
AcDbEntity
  8
치수문자_일반주서
100
AcDbDimension
  2
_D_1
 10
57.24967155590263
 20
0.3965395672943721
 30
0.0
 11
57.24967155590263
 21
14.70903956729438
 31
0.0
 70
   160
  1
%%c<>
 71
     2
 42
0.7930791345885302
 52
-270.0
  3
SLDDIMSTYLE0
100
AcDbAlignedDimension
 13
28.57500000000002
 23
-0.3965395672942646
 33
0.0
 14
28.57500000000002
 24
0.3965395672942655
 34
0.0
 50
90.0000000000002
100
AcDbRotatedDimension
1001
PE_URL
1000

1001
ACAD
1000
DSTYLE
1002
{
1070
   171
1070
     8
1070
   273
1070
     7
1070
    41
1040
2.5
1070
   140
1040
2.5
1002
}
  0
DIMENSION
  5
108
330
1F
100
AcDbEntity
  8
치수문자_일반주서
100
AcDbDimension
  2
_D_2
 10
26.19375000000002
 20
10.38125000000001
 30
0.0
 11
43.20000000000002
 21
10.38125000000001
 31
0.0
 70
   160
  1
<>
 71
     2
 42
2.381250000000001
  3
SLDDIMSTYLE0
100
AcDbAlignedDimension
 13
28.57500000000002
 23
0.3965395672942655
 33
0.0
 14
26.19375000000002
 24
0.2573403442388506
 34
0.0
100
AcDbRotatedDimension
1001
PE_URL
1000

1001
ACAD
1000
DSTYLE
1002
{
1070
   171
1070
     8
1070
   273
1070
     7
1070
    41
1040
2.5
1070
   140
1040
2.5
1002
}
  0
DIMENSION
  5
11D
330
1F
100
AcDbEntity
  8
치수문자_일반주서
100
AcDbDimension
  2
_D_3
 10
28.57500000000002
 20
18.38125
 30
0.0
 11
0.0000000000000178
 21
18.38125
 31
0.0
 70
   160
  1
<>
 71
     2
 42
57.15000000000004
  3
SLDDIMSTYLE0
100
AcDbAlignedDimension
 13
-28.57500000000002
 23
0.3965395672942711
 33
0.0
 14
28.57500000000002
 24
0.3965395672942655
 34
0.0
100
AcDbRotatedDimension
1001
PE_URL
1000

1001
ACAD
1000
DSTYLE
1002
{
1070
   171
1070
     8
1070
   273
1070
     7
1070
    41
1040
2.5
1070
   140
1040
2.5
1002
}
  0
LINE
  5
131
330
1F
100
AcDbEntity
  8
참조1
100
AcDbLine
 10
84.80037503295506
 20
7.440000000000003
 30
0.0
 11
84.80037503295506
 21
-7.440000000000002
 31
0.0
  0
LINE
  5
132
330
1F
100
AcDbEntity
  8
참조1
100
AcDbLine
 10
97.50037503295505
 20
5.440000000000003
 30
0.0
 11
84.80037503295506
 21
5.440000000000003
 31
0.0
  0
SOLID
  5
133
330
1F
100
AcDbEntity
  8
참조1
100
AcDbTrace
 10
84.80037503295506
 20
5.440000000000003
 30
0.0
 11
91.15037503295505
 21
4.424000000000003
 31
0.0
 12
91.15037503295505
 22
6.456000000000003
 32
0.0
 13
91.15037503295505
 23
6.456000000000003
 33
0.0
  0
LINE
  5
134
330
1F
100
AcDbEntity
  8
참조1
100
AcDbLine
 10
97.50037503295505
 20
-5.440000000000002
 30
0.0
 11
84.80037503295506
 21
-5.440000000000002
 31
0.0
  0
SOLID
  5
135
330
1F
100
AcDbEntity
  8
참조1
100
AcDbTrace
 10
84.80037503295506
 20
-5.440000000000002
 30
0.0
 11
91.15037503295505
 21
-6.456000000000002
 31
0.0
 12
91.15037503295505
 22
-4.424000000000002
 32
0.0
 13
91.15037503295505
 23
-4.424000000000002
 33
0.0
  0
MTEXT
  5
136
330
1F
100
AcDbEntity
  8
참조1
100
AcDbMText
 10
94.18472516558106
 20
11.01029177718833
 30
0.0
 40
3.5
 41
0.0
 71
     1
 72
     1
  1
A
  7
SLDTEXTSTYLE0
 73
     1
 44
1.0
  0
MTEXT
  5
137
330
1F
100
AcDbEntity
  8
참조1
100
AcDbMText
 10
94.18472516558106
 20
0.1302917771883261
 30
0.0
 40
3.5
 41
0.0
 71
     1
 72
     1
  1
A
  7
SLDTEXTSTYLE0
 73
     1
 44
1.0
  0
INSERT
  5
13E
330
1F
100
AcDbEntity
  8
해칭선
100
AcDbBlockReference
  2
SW_DOWELSYMBOL_0
 10
0.0
 20
0.0
 30
0.0
  0
LINE
  5
222
330
1F
100
AcDbEntity
  8
외형선
  6
Continuous
370
    15
100
AcDbLine
 10
-18.28796167873055
 20
2.381249999999995
 30
0.0
 11
-25.54603321523587
 21
0.4364555931860788
 31
0.0
  0
LINE
  5
223
330
1F
100
AcDbEntity
  8
외형선
  6
Continuous
370
    15
100
AcDbLine
 10
-25.54603321523587
 20
-0.4364555931860765
 30
0.0
 11
-18.28796167873055
 21
-2.381250000000006
 31
0.0
  0
SPLINE
  5
224
330
1F
100
AcDbEntity
  8
외형선
  6
Continuous
370
    15
100
AcDbSpline
210
0.0
220
0.0
230
1.0
 70
     8
 71
     3
 72
     9
 73
     5
 74
     0
 42
0.000000001
 43
0.00000001
 40
0.0
 40
0.0
 40
0.0
 40
0.0
 40
0.4863049473149318
 40
1.0
 40
1.0
 40
1.0
 40
1.0
 10
-26.19375000488885
 20
-0.2660518935070006
 30
0.0
 10
-26.09396385057756
 20
-0.2629373474186136
 30
0.0
 10
-25.88877129627138
 20
-0.2565328349710591
 30
0.0
 10
-25.68555302712299
 20
-0.2836446927846691
 30
0.0
 10
-25.58116080764623
 20
-0.2975719200126218
 30
0.0
  0
LINE
  5
225
330
1F
100
AcDbEntity
  8
외형선
  6
Continuous
370
    15
100
AcDbLine
 10
-25.58116080764623
 20
0.2975719200126259
 30
0.0
 11
-25.87252223500796
 21
0.2665019037608512
 31
0.0
  0
LINE
  5
226
330
1F
100
AcDbEntity
  8
0
  6
Continuous
 62
     1
370
    25
100
AcDbLine
 10
-27.54519293433463
 20
-0.1021072199995047
 30
0.0
 11
-27.43815233245692
 21
-0.1563978286715312
 31
0.0
1001
PE_URL
1000

  0
LINE
  5
227
330
1F
100
AcDbEntity
  8
0
  6
Continuous
 62
     1
370
    25
100
AcDbLine
 10
-26.63516636916914
 20
-0.3968749999999976
 30
0.0
 11
-26.44320438603221
 21
-0.3968749999999976
 31
0.0
1001
PE_URL
1000

  0
LINE
  5
228
330
1F
100
AcDbEntity
  8
0
  6
Continuous
 62
     1
370
    25
100
AcDbLine
 10
-27.4166997673047
 20
-0.3153886945178478
 30
0.0
 11
-27.03959860665361
 21
-0.3247530596250987
 31
0.0
1001
PE_URL
1000

  0
LINE
  5
229
330
1F
100
AcDbEntity
  8
0
  6
Continuous
 62
     1
370
    25
100
AcDbLine
 10
-26.81801398101161
 20
0.3302555601559496
 30
0.0
 11
-27.4166997673047
 21
0.3153886945178555
 31
0.0
1001
PE_URL
1000

  0
SPLINE
  5
22A
330
1F
100
AcDbEntity
  8
0
  6
Continuous
 62
     1
370
    25
100
AcDbSpline
210
0.0
220
0.0
230
1.0
 70
     8
 71
     3
 72
     9
 73
     5
 74
     0
 42
0.000000001
 43
0.00000001
 40
0.0
 40
0.0
 40
0.0
 40
0.0
 40
0.9412007408666755
 40
1.0
 40
1.0
 40
1.0
 40
1.0
 10
-27.73553338967903
 20
0.2983921275494502
 30
0.0
 10
-27.82831943884085
 20
0.2850210708512935
 30
0.0
 10
-27.92690207390802
 20
0.2708146894518875
 30
0.0
 10
-28.02455892798879
 20
0.2664557815160492
 30
0.0
 10
-28.03030107865802
 20
0.2661994809587916
 30
0.0
1001
PE_URL
1000

  0
LINE
  5
22B
330
1F
100
AcDbEntity
  8
0
  6
Continuous
 62
     1
370
    25
100
AcDbLine
 10
-26.37493317918595
 20
-0.2773146774590384
 30
0.0
 11
-26.19375000000002
 21
-0.2660518932239967
 31
0.0
1001
PE_URL
1000

  0
SPLINE
  5
22C
330
1F
100
AcDbEntity
  8
0
  6
Continuous
 62
     1
370
    25
100
AcDbSpline
210
0.0
220
0.0
230
1.0
 70
     8
 71
     3
 72
    10
 73
     6
 74
     0
 42
0.000000001
 43
0.00000001
 40
0.0
 40
0.0
 40
0.0
 40
0.0
 40
0.3969081518737491
 40
0.6042454869275622
 40
0.9999999999999999
 40
0.9999999999999999
 40
0.9999999999999999
 40
0.9999999999999999
 10
-28.36158357836914
 20
-0.2645760893824726
 30
0.0
 10
-28.28317622425873
 20
-0.2623702877592888
 30
0.0
 10
-28.16381034668859
 20
-0.2590122169573303
 30
0.0
 10
-27.94744919485795
 20
-0.2692850051018404
 30
0.0
 10
-27.81949688952128
 20
-0.2868595480470579
 30
0.0
 10
-27.73553338967903
 20
-0.2983921275494407
 30
0.0
1001
PE_URL
1000

  0
LINE
  5
22D
330
1F
100
AcDbEntity
  8
0
  6
Continuous
 62
     1
370
    25
100
AcDbLine
 10
-26.44320631907851
 20
0.3968750000000035
 30
0.0
 11
-26.63516636916914
 21
0.3968750000000035
 31
0.0
1001
PE_URL
1000

  0
LINE
  5
22E
330
1F
100
AcDbEntity
  8
외형선
  6
Continuous
370
    15
100
AcDbLine
 10
-18.28796167873055
 20
-2.381250000000006
 30
0.0
 11
-18.28796167873055
 21
2.381249999999997
 31
0.0
  0
SPLINE
  5
22F
330
1F
100
AcDbEntity
  8
외형선
  6
Continuous
370
    15
100
AcDbSpline
210
0.0
220
0.0
230
1.0
 70
    24
 71
     3
 72
    17
 73
    13
 74
     0
 42
0.000000001
 43
0.00000001
 40
0.0
 40
0.0
 40
0.0
 40
0.0
 40
0.103951222912908
 40
0.2109170383324467
 40
0.3148682612456147
 40
0.421834076665436
 40
0.5257852995781586
 40
0.6327511149973406
 40
0.7367023379102084
 40
0.843668153329703
 40
0.9476193762426516
 40
1.0
 40
1.0
 40
1.0
 40
1.0
 10
-25.54563423357463
 20
0.0125436733172715
 30
0.0
 10
-25.54563423357463
 20
-0.0116746339005151
 30
0.0
 10
-25.54563423357463
 20
-0.0608135808860692
 30
0.0
 10
-25.54563423357463
 20
-0.1325762796894165
 30
0.0
 10
-25.54563423357463
 20
-0.201188111269827
 30
0.0
 10
-25.54563423357463
 20
-0.2634986636590192
 30
0.0
 10
-25.54563423357463
 20
-0.3188737247129578
 30
0.0
 10
-25.54563423357463
 20
-0.3646907703736965
 30
0.0
 10
-25.54563423357463
 20
-0.4007039995108401
 30
0.0
 10
-25.54563423357463
 20
-0.4244004103180694
 30
0.0
 10
-25.54563423357463
 20
-0.4362430777045795
 30
0.0
 10
-25.54563423357463
 20
-0.4352869379883708
 30
0.0
 10
-25.54563423357463
 20
-0.4349665733550531
 30
0.0
  0
SPLINE
  5
230
330
1F
100
AcDbEntity
  8
외형선
  6
Continuous
370
    15
100
AcDbSpline
210
0.0
220
0.0
230
1.0
 70
     8
 71
     3
 72
     8
 73
     4
 74
     0
 42
0.000000001
 43
0.00000001
 40
0.0
 40
0.0
 40
0.0
 40
0.0
 40
0.0001690507803989
 40
0.0001690507803989
 40
0.0001690507803989
 40
0.0001690507803989
 10
-25.69375000000002
 20
0.0788157382400743
 30
0.0
 10
-25.64428339915953
 20
0.0584061366096907
 30
0.0
 10
-25.59480075216273
 20
0.0363305129948801
 30
0.0
 10
-25.54563423357463
 20
0.0125436733172733
 30
0.0
  0
LINE
  5
231
330
1F
100
AcDbEntity
  8
외형선
  6
Continuous
370
    15
100
AcDbLine
 10
-25.69375000000002
 20
0.0788157382400814
 30
0.0
 11
-25.69375000000002
 21
0.1831763572070691
 31
0.0
  0
SPLINE
  5
232
330
1F
100
AcDbEntity
  8
외형선
  6
Continuous
370
    15
100
AcDbSpline
210
0.0
220
0.0
230
1.0
 70
     8
 71
     3
 72
     8
 73
     4
 74
     0
 42
0.000000001
 43
0.00000001
 40
0.0
 40
0.0
 40
0.0
 40
0.0
 40
0.0001696831365436
 40
0.0001696831365436
 40
0.0001696831365436
 40
0.0001696831365436
 10
-25.54563423357463
 20
0.131081502376546
 30
0.0
 10
-25.59531370491389
 20
0.1495337960305306
 30
0.0
 10
-25.64474121716822
 20
0.1670621746729764
 30
0.0
 10
-25.69374999999545
 20
0.1831763572464687
 30
0.0
  0
SPLINE
  5
233
330
1F
100
AcDbEntity
  8
외형선
  6
Continuous
370
    15
100
AcDbSpline
210
0.0
220
0.0
230
1.0
 70
    24
 71
     3
 72
    15
 73
    11
 74
     0
 42
0.000000001
 43
0.00000001
 40
0.0
 40
0.0
 40
0.0
 40
0.0
 40
0.0689748201519702
 40
0.2003294364248717
 40
0.3354933454690115
 40
0.4668479617422727
 40
0.6020118707860518
 40
0.7333664870593061
 40
0.8685303961030779
 40
1.0
 40
1.0
 40
1.0
 40
1.0
 10
-25.54563423357463
 20
0.4349665733550572
 30
0.0
 10
-25.54563423357463
 20
0.4352638313645943
 30
0.0
 10
-25.54563423357463
 20
0.436127183083267
 30
0.0
 10
-25.54563423357463
 20
0.4240276418348972
 30
0.0
 10
-25.54563423357463
 20
0.4000689825527338
 30
0.0
 10
-25.54563423357463
 20
0.3638278960505271
 30
0.0
 10
-25.54563423357463
 20
0.317822474694369
 30
0.0
 10
-25.54563423357463
 20
0.2622172411764725
 30
0.0
 10
-25.54563423357463
 20
0.1999650976315659
 30
0.0
 10
-25.54563423357463
 20
0.1538296261669639
 30
0.0
 10
-25.54563423357463
 20
0.131081502376546
 30
0.0
  0
SPLINE
  5
234
330
1F
100
AcDbEntity
  8
외형선
  6
Continuous
370
    15
100
AcDbSpline
210
0.0
220
0.0
230
1.0
 70
    24
 71
     3
 72
     8
 73
     4
 74
     0
 42
0.000000001
 43
0.00000001
 40
0.0
 40
0.0
 40
0.0
 40
0.0
 40
1.0
 40
1.0
 40
1.0
 40
1.0
 10
-26.19375000000168
 20
0.2573403442393743
 30
0.0
 10
-26.19375000000168
 20
0.2768151572673062
 30
0.0
 10
-26.19375000000168
 20
0.2970513030227429
 30
0.0
 10
-26.19375000000168
 20
0.3176694960134746
 30
0.0
  0
SPLINE
  5
235
330
1F
100
AcDbEntity
  8
외형선
  6
Continuous
370
    15
100
AcDbSpline
210
0.0
220
0.0
230
1.0
 70
     8
 71
     3
 72
    10
 73
     6
 74
     0
 42
0.000000001
 43
0.00000001
 40
0.0
 40
0.0
 40
0.0
 40
0.0
 40
0.5
 40
0.5
 40
1.0
 40
1.0
 40
1.0
 40
1.0
 10
-26.19375000000007
 20
0.317669496012343
 30
0.0
 10
-26.10907662134033
 20
0.2886469126980702
 30
0.0
 10
-26.02933360369992
 20
0.2531962265557691
 30
0.0
 10
-25.86080178800263
 20
0.171521965936899
 30
0.0
 10
-25.77445057906078
 20
0.1255187549457538
 30
0.0
 10
-25.69375000000002
 20
0.0788157382400814
 30
0.0
  0
SPLINE
  5
236
330
1F
100
AcDbEntity
  8
외형선
  6
Continuous
370
    15
100
AcDbSpline
210
0.0
220
0.0
230
1.0
 70
     8
 71
     3
 72
    10
 73
     6
 74
     0
 42
0.000000001
 43
0.00000001
 40
0.0
 40
0.0
 40
0.0
 40
0.0
 40
0.0073161148360882
 40
0.6212645442758896
 40
1.0
 40
1.0
 40
1.0
 40
1.0
 10
-26.19375000000002
 20
0.2573403442388538
 30
0.0
 10
-26.19217092811173
 20
0.2568427375838936
 30
0.0
 10
-26.05808044442778
 20
0.2145873358238577
 30
0.0
 10
-25.84185243993187
 20
0.1207123713827072
 30
0.0
 10
-25.62743878017366
 20
0.0153969825961211
 30
0.0
 10
-25.54563423357463
 20
-0.0247836553319975
 30
0.0
  0
SPLINE
  5
237
330
1F
100
AcDbEntity
  8
외형선
  6
Continuous
370
    15
100
AcDbSpline
210
0.0
220
0.0
230
1.0
 70
     8
 71
     3
 72
    10
 73
     6
 74
     0
 42
0.000000001
 43
0.00000001
 40
0.0
 40
0.0
 40
0.0
 40
0.0
 40
0.4999999999999999
 40
0.4999999999999999
 40
1.0
 40
1.0
 40
1.0
 40
1.0
 10
-25.69374999998662
 20
0.1831763572223973
 30
0.0
 10
-25.7744505790516
 20
0.2254493181747022
 30
0.0
 10
-25.86080178799606
 20
0.2645924108264064
 30
0.0
 10
-26.02933360370091
 20
0.3288030260214277
 30
0.0
 10
-26.10907662134493
 20
0.3538264572794463
 30
0.0
 10
-26.19375000000851
 20
0.3710170507962299
 30
0.0
  0
LINE
  5
238
330
1F
100
AcDbEntity
  8
외형선
  6
Continuous
370
    15
100
AcDbLine
 10
-26.19375000000002
 20
0.3176694960123235
 30
0.0
 11
-26.19375000000002
 21
0.3710170508210562
 31
0.0
  0
SPLINE
  5
239
330
1F
100
AcDbEntity
  8
외형선
  6
Continuous
370
    15
100
AcDbSpline
210
0.0
220
0.0
230
1.0
 70
    24
 71
     3
 72
    10
 73
     6
 74
     0
 42
0.000000001
 43
0.00000001
 40
0.0
 40
0.0
 40
0.0
 40
0.0
 40
0.4999999999999999
 40
0.4999999999999999
 40
1.0
 40
1.0
 40
1.0
 40
1.0
 10
-26.19375000000019
 20
-0.1004334529961494
 30
0.0
 10
-26.19375000000019
 20
-0.0405125850797352
 30
0.0
 10
-26.19375000000019
 20
0.0250853712427157
 30
0.0
 10
-26.19375000000019
 20
0.1501450419761635
 30
0.0
 10
-26.19375000000019
 20
0.2090684506750658
 30
0.0
 10
-26.19375000000019
 20
0.2573403442389071
 30
0.0
  0
SPLINE
  5
23A
330
1F
100
AcDbEntity
  8
외형선
  6
Continuous
370
    15
100
AcDbSpline
210
0.0
220
0.0
230
1.0
 70
     8
 71
     3
 72
    10
 73
     6
 74
     0
 42
0.000000001
 43
0.00000001
 40
0.0
 40
0.0
 40
0.0
 40
0.0
 40
0.0072314510082851
 40
0.62116983794824
 40
0.9999999999999999
 40
0.9999999999999999
 40
0.9999999999999999
 40
0.9999999999999999
 10
-26.19375000488885
 20
-0.1004334508746838
 30
0.0
 10
-26.19218906654498
 20
-0.1011101994374337
 30
0.0
 10
-26.05810701067574
 20
-0.1592417963429235
 30
0.0
 10
-25.84189699591848
 20
-0.2532296106875138
 30
0.0
 10
-25.62746084172537
 20
-0.2805753163077004
 30
0.0
 10
-25.54563423357463
 20
-0.291010153412518
 30
0.0
  0
SPLINE
  5
23B
330
1F
100
AcDbEntity
  8
외형선
  6
Continuous
370
    15
100
AcDbSpline
210
0.0
220
0.0
230
1.0
 70
    24
 71
     3
 72
    13
 73
     9
 74
     0
 42
0.000000001
 43
0.00000001
 40
0.0
 40
0.0
 40
0.0
 40
0.0
 40
0.0596288474491455
 40
0.2506407998036753
 40
0.4362695070701053
 40
0.62728145942657
 40
0.8110326915469788
 40
1.0
 40
1.0
 40
1.0
 40
1.0
 10
-26.19375000000002
 20
-0.2647369897582458
 30
0.0
 10
-26.19375000000002
 20
-0.2650613366330369
 30
0.0
 10
-26.19375000000002
 20
-0.2664246794375555
 30
0.0
 10
-26.19375000000002
 20
-0.2561924717587566
 30
0.0
 10
-26.19375000000002
 20
-0.2340352444916449
 30
0.0
 10
-26.19375000000002
 20
-0.1997528214809596
 30
0.0
 10
-26.19375000000002
 20
-0.1556311689956115
 30
0.0
 10
-26.19375000000002
 20
-0.1190035555602067
 30
0.0
 10
-26.19375000000002
 20
-0.1004334529962258
 30
0.0
  0
LINE
  5
23C
330
1F
100
AcDbEntity
  8
외형선
  6
Continuous
370
    15
100
AcDbLine
 10
-25.58510267881199
 20
0.2844335365215296
 30
0.0
 11
-25.54563423357463
 21
0.2910101534125221
 31
0.0
  0
SPLINE
  5
23D
330
1F
100
AcDbEntity
  8
외형선
  6
Continuous
370
    15
100
AcDbSpline
210
0.0
220
0.0
230
1.0
 70
     8
 71
     3
 72
    10
 73
     6
 74
     0
 42
0.000000001
 43
0.00000001
 40
0.0
 40
0.0
 40
0.0
 40
0.0
 40
0.2187364159138591
 40
0.607753913605637
 40
1.0
 40
1.0
 40
1.0
 40
1.0
 10
-25.87343803446682
 20
-0.2668837032843211
 30
0.0
 10
-25.89688004550452
 20
-0.2768771315649478
 30
0.0
 10
-25.96201311395785
 20
-0.3046436336469768
 30
0.0
 10
-26.06835944925655
 20
-0.3415890560654053
 30
0.0
 10
-26.15183815722856
 20
-0.3611807315612283
 30
0.0
 10
-26.19375000000002
 20
-0.3710170508210504
 30
0.0
  0
SPLINE
  5
23E
330
1F
100
AcDbEntity
  8
외형선
  6
Continuous
370
    15
100
AcDbSpline
210
0.0
220
0.0
230
1.0
 70
    24
 71
     3
 72
     8
 73
     4
 74
     0
 42
0.000000001
 43
0.00000001
 40
0.0
 40
0.0
 40
0.0
 40
0.0
 40
1.0
 40
1.0
 40
1.0
 40
1.0
 10
-26.19375000000004
 20
-0.3710170508210486
 30
0.0
 10
-26.19375000000004
 20
-0.330088696290012
 30
0.0
 10
-26.19375000000004
 20
-0.2893470047386104
 30
0.0
 10
-26.19375000000004
 20
-0.2635469954665194
 30
0.0
  0
SPLINE
  5
23F
330
1F
100
AcDbEntity
  8
0
  6
Continuous
 62
     1
370
    25
100
AcDbSpline
210
0.0
220
0.0
230
1.0
 70
     8
 71
     3
 72
    12
 73
     8
 74
     0
 42
0.000000001
 43
0.00000001
 40
0.0
 40
0.0
 40
0.0
 40
0.0
 40
0.2045417058359986
 40
0.4093561709647081
 40
0.6143745453184184
 40
0.8195250570845947
 40
1.0
 40
1.0
 40
1.0
 40
1.0
 10
-28.57500000000002
 20
0.3766109074764155
 30
0.0
 10
-28.442798668579
 20
0.3400998339531259
 30
0.0
 10
-28.17821971336908
 20
0.2670289988673534
 30
0.0
 10
-27.78099049720318
 20
0.0370939342653485
 30
0.0
 10
-27.38330093731378
 20
-0.1930562917934073
 30
0.0
 10
-27.00128966018227
 20
-0.3673194736778968
 30
0.0
 10
-26.7518878558985
 20
-0.3829758283388195
 30
0.0
 10
-26.63516636916914
 20
-0.3903030928629573
 30
0.0
1001
PE_URL
1000

  0
SPLINE
  5
240
330
1F
100
AcDbEntity
  8
0
  6
Continuous
 62
     1
370
    25
100
AcDbSpline
210
0.0
220
0.0
230
1.0
 70
     8
 71
     3
 72
    10
 73
     6
 74
     0
 42
0.000000001
 43
0.00000001
 40
0.0
 40
0.0
 40
0.0
 40
0.0
 40
0.3821736729234265
 40
0.7648797192980143
 40
0.9999999999999999
 40
0.9999999999999999
 40
0.9999999999999999
 40
0.9999999999999999
 10
-28.57500000000002
 20
0.3131233674211418
 30
0.0
 10
-28.44279649738594
 20
0.2788874319671318
 30
0.0
 10
-28.1782053307675
 20
0.2103678699061027
 30
0.0
 10
-27.83219154675889
 20
0.0333350934533441
 30
0.0
 10
-27.61837966485592
 20
-0.0653850857012743
 30
0.0
 10
-27.5370113134483
 20
-0.1029540840047535
 30
0.0
1001
PE_URL
1000

  0
LINE
  5
241
330
1F
100
AcDbEntity
  8
0
  6
Continuous
 62
     1
370
    25
100
AcDbLine
 10
-28.575
 20
0.3766109074764155
 30
0.0
 11
-28.57500000000002
 21
0.3131233674211418
 31
0.0
1001
PE_URL
1000

  0
SPLINE
  5
242
330
1F
100
AcDbEntity
  8
0
  6
Continuous
 62
     1
370
    25
100
AcDbSpline
210
0.0
220
0.0
230
1.0
 70
     8
 71
     3
 72
    30
 73
    26
 74
     0
 42
0.000000001
 43
0.00000001
 40
0.0
 40
0.0
 40
0.0
 40
0.0
 40
0.0625
 40
0.0625
 40
0.125
 40
0.125
 40
0.2500000000000001
 40
0.2500000000000001
 40
0.3750000000000001
 40
0.3750000000000001
 40
0.4375
 40
0.4375
 40
0.5
 40
0.5
 40
0.5624999999999998
 40
0.5624999999999998
 40
0.6249999999999998
 40
0.6249999999999998
 40
0.7499999999999996
 40
0.7499999999999996
 40
0.8124999999999996
 40
0.8124999999999996
 40
0.8749999999999998
 40
0.8749999999999998
 40
1.0
 40
1.0
 40
1.0
 40
1.0
 10
-26.19375000000588
 20
-0.3710170508169505
 30
0.0
 10
-26.24406858565467
 20
-0.3812328514132958
 30
0.0
 10
-26.29487620603791
 20
-0.3885211164590989
 30
0.0
 10
-26.39392518526523
 20
-0.3968274486495564
 30
0.0
 10
-26.44120543142567
 20
-0.3979055534151105
 30
0.0
 10
-26.58999599299626
 20
-0.391925705711525
 30
0.0
 10
-26.69257390157704
 20
-0.3750912625058846
 30
0.0
 10
-26.88570383501784
 20
-0.3203732713235198
 30
0.0
 10
-26.99005097062233
 20
-0.2811493707682239
 30
0.0
 10
-27.13725845002352
 20
-0.2121979935029203
 30
0.0
 10
-27.18487393836671
 20
-0.1876373919068521
 30
0.0
 10
-27.28476983726002
 20
-0.1351960089284742
 30
0.0
 10
-27.33566797008089
 20
-0.1075303806988896
 30
0.0
 10
-27.43579971249253
 20
-0.0512426189079595
 30
0.0
 10
-27.48371698500929
 20
-0.0228874584034117
 30
0.0
 10
-27.58143179162894
 20
0.0340917390625218
 30
0.0
 10
-27.63195597757381
 20
0.0628589058230225
 30
0.0
 10
-27.78330854901363
 20
0.1469560990910142
 30
0.0
 10
-27.87857341558746
 20
0.1991165416622692
 30
0.0
 10
-28.02919827835013
 20
0.2670726121214052
 30
0.0
 10
-28.08006792180704
 20
0.287874565632688
 30
0.0
 10
-28.17957150606507
 20
0.3243612340196037
 30
0.0
 10
-28.22692057306028
 20
0.3399534268754379
 30
0.0
 10
-28.37496503427401
 20
0.3791422244354517
 30
0.0
 10
-28.47918917281926
 20
0.3942123505437379
 30
0.0
 10
-28.57500000000001
 20
0.3965395672891339
 30
0.0
1001
PE_URL
1000

  0
SPLINE
  5
243
330
1F
100
AcDbEntity
  8
0
  6
Continuous
 62
     1
370
    25
100
AcDbSpline
210
0.0
220
0.0
230
1.0
 70
     8
 71
     3
 72
    11
 73
     7
 74
     0
 42
0.000000001
 43
0.00000001
 40
0.0
 40
0.0
 40
0.0
 40
0.0
 40
0.159552262386477
 40
0.4879485855392431
 40
0.816446759361675
 40
1.0
 40
1.0
 40
1.0
 40
1.0
 10
-27.57677912928644
 20
0.0311771575786486
 30
0.0
 10
-27.51232280446203
 20
0.0055308998983732
 30
0.0
 10
-27.315200105876
 20
-0.0729014267404879
 30
0.0
 10
-26.98533868988417
 20
-0.1962301883030563
 30
0.0
 10
-26.64576268701124
 20
-0.2799633878575737
 30
0.0
 10
-26.43889592518007
 20
-0.2696794971043983
 30
0.0
 10
-26.36474113634024
 20
-0.2659930675373531
 30
0.0
1001
PE_URL
1000

  0
SPLINE
  5
244
330
1F
100
AcDbEntity
  8
외형선
  6
Continuous
370
    15
100
AcDbSpline
210
0.0
220
0.0
230
1.0
 70
    24
 71
     3
 72
     8
 73
     4
 74
     0
 42
0.000000001
 43
0.00000001
 40
0.0
 40
0.0
 40
0.0
 40
0.0
 40
1.0
 40
1.0
 40
1.0
 40
1.0
 10
-26.19375000000004
 20
-0.3710170508210486
 30
0.0
 10
-26.19375000000004
 20
-0.330088696290012
 30
0.0
 10
-26.19375000000004
 20
-0.2893470047386104
 30
0.0
 10
-26.19375000000004
 20
-0.2635469954665194
 30
0.0
  0
LINE
  5
245
330
1F
100
AcDbEntity
  8
0
  6
Continuous
 62
     1
370
    25
100
AcDbLine
 10
-28.57500000000002
 20
0.3965395672942711
 30
0.0
 11
-28.57499999999994
 21
0.3766109074764155
 31
0.0
1001
PE_URL
1000

  0
SPLINE
  5
246
330
1F
100
AcDbEntity
  8
0
  6
Continuous
 62
     1
370
    25
100
AcDbSpline
210
0.0
220
0.0
230
1.0
 70
     8
 71
     3
 72
     8
 73
     4
 74
     0
 42
0.000000001
 43
0.00000001
 40
0.0
 40
0.0
 40
0.0
 40
0.0
 40
1.0
 40
1.0
 40
1.0
 40
1.0
 10
-28.32987869489137
 20
-0.1105524090214904
 30
0.0
 10
-28.3156261163446
 20
-0.1274235236650882
 30
0.0
 10
-28.30289810768624
 20
-0.143670398766053
 30
0.0
 10
-28.29207500202797
 20
-0.1591373058336935
 30
0.0
1001
PE_URL
1000

  0
LINE
  5
247
330
1F
100
AcDbEntity
  8
0
  6
Continuous
 62
     1
370
    25
100
AcDbLine
 10
-28.2970471952346
 20
-0.1633094713309082
 30
0.0
 11
-28.57500000000002
 21
0.0000000000000056
 31
0.0
1001
PE_URL
1000

  0
LINE
  5
248
330
1F
100
AcDbEntity
  8
0
  6
Continuous
 62
     1
370
    25
100
AcDbLine
 10
-28.57500000000002
 20
0.0000000000000056
 30
0.0
 11
-28.57500000000002
 21
0.1060620442055209
 31
0.0
1001
PE_URL
1000

  0
SPLINE
  5
249
330
1F
100
AcDbEntity
  8
0
  6
Continuous
 62
     1
370
    25
100
AcDbSpline
210
0.0
220
0.0
230
1.0
 70
     8
 71
     3
 72
     8
 73
     4
 74
     0
 42
0.000000001
 43
0.00000001
 40
0.0
 40
0.0
 40
0.0
 40
0.0
 40
1.0
 40
1.0
 40
1.0
 40
1.0
 10
-28.57500000000002
 20
0.1060620442055209
 30
0.0
 10
-28.49015313053236
 20
0.0393536404118715
 30
0.0
 10
-28.40656195477937
 20
-0.033716812779472
 30
0.0
 10
-28.32987869489105
 20
-0.1105524090207106
 30
0.0
1001
PE_URL
1000

  0
SPLINE
  5
24A
330
1F
100
AcDbEntity
  8
0
  6
Continuous
 62
     1
370
    25
100
AcDbSpline
210
0.0
220
0.0
230
1.0
 70
     8
 71
     3
 72
    10
 73
     6
 74
     0
 42
0.000000001
 43
0.00000001
 40
0.0
 40
0.0
 40
0.0
 40
0.0
 40
0.1663575558591355
 40
0.601076973824295
 40
1.0
 40
1.0
 40
1.0
 40
1.0
 10
-28.32987869489137
 20
-0.1105524090214922
 30
0.0
 10
-28.27940591635591
 20
-0.1319504420255108
 30
0.0
 10
-28.09703953794932
 20
-0.209265024206189
 30
0.0
 10
-27.79192487421619
 20
-0.3092932576988294
 30
0.0
 10
-27.53803258483504
 20
-0.3106972703015882
 30
0.0
 10
-27.41653747489377
 20
-0.3113691326332366
 30
0.0
1001
PE_URL
1000

  0
SPLINE
  5
24B
330
1F
100
AcDbEntity
  8
0
  6
Continuous
 62
     1
370
    25
100
AcDbSpline
210
0.0
220
0.0
230
1.0
 70
    24
 71
     3
 72
     8
 73
     4
 74
     0
 42
0.000000001
 43
0.00000001
 40
0.0
 40
0.0
 40
0.0
 40
0.0
 40
1.0
 40
1.0
 40
1.0
 40
1.0
 10
-28.57500000000002
 20
0.3131233674211418
 30
0.0
 10
-28.57500000000002
 20
0.2651166726006394
 30
0.0
 10
-28.57500000000002
 20
0.1902507387164543
 30
0.0
 10
-28.57500000000002
 20
0.1060620442055334
 30
0.0
1001
PE_URL
1000

  0
SPLINE
  5
24C
330
1F
100
AcDbEntity
  8
0
  6
Continuous
 62
     1
370
    25
100
AcDbSpline
210
0.0
220
0.0
230
1.0
 70
     8
 71
     3
 72
     9
 73
     5
 74
     0
 42
0.000000001
 43
0.00000001
 40
0.0
 40
0.0
 40
0.0
 40
0.0
 40
0.3722541284844175
 40
1.0
 40
1.0
 40
1.0
 40
1.0
 10
-26.8204651023571
 20
0.3166935296814464
 30
0.0
 10
-26.7426934167329
 20
0.3265463858971514
 30
0.0
 10
-26.53377246818404
 20
0.3530144770794322
 30
0.0
 10
-26.3248808505586
 20
0.294237407197205
 30
0.0
 10
-26.19375000000002
 20
0.257340344238852
 30
0.0
1001
PE_URL
1000

  0
SPLINE
  5
24D
330
1F
100
AcDbEntity
  8
0
  6
Continuous
 62
     1
370
    25
100
AcDbSpline
210
0.0
220
0.0
230
1.0
 70
     8
 71
     3
 72
    11
 73
     7
 74
     0
 42
0.000000001
 43
0.00000001
 40
0.0
 40
0.0
 40
0.0
 40
0.0
 40
0.229469970514372
 40
0.4872732909229961
 40
0.7451544789437021
 40
0.9999999999999999
 40
0.9999999999999999
 40
0.9999999999999999
 40
0.9999999999999999
 10
-27.73765950839454
 20
0.2930586452125541
 30
0.0
 10
-27.6195761608515
 20
0.306058558826017
 30
0.0
 10
-27.36882935842014
 20
0.3336635246258911
 30
0.0
 10
-26.98533342735983
 20
0.2462427722351531
 30
0.0
 10
-26.58875255209464
 20
0.0825645409445477
 30
0.0
 10
-26.32489678952923
 20
-0.0396753661673601
 30
0.0
 10
-26.19375000488885
 20
-0.1004334508746838
 30
0.0
1001
PE_URL
1000

  0
SPLINE
  5
24E
330
1F
100
AcDbEntity
  8
외형선
  6
Continuous
370
    15
100
AcDbSpline
210
0.0
220
0.0
230
1.0
 70
    24
 71
     3
 72
    10
 73
     6
 74
     0
 42
0.000000001
 43
0.00000001
 40
0.0
 40
0.0
 40
0.0
 40
0.0
 40
0.4999999999999999
 40
0.4999999999999999
 40
1.0
 40
1.0
 40
1.0
 40
1.0
 10
-26.19375000000019
 20
-0.1004334529961494
 30
0.0
 10
-26.19375000000019
 20
-0.0405125850797352
 30
0.0
 10
-26.19375000000019
 20
0.0250853712427157
 30
0.0
 10
-26.19375000000019
 20
0.1501450419761635
 30
0.0
 10
-26.19375000000019
 20
0.2090684506750658
 30
0.0
 10
-26.19375000000019
 20
0.2573403442389071
 30
0.0
  0
SPLINE
  5
24F
330
1F
100
AcDbEntity
  8
외형선
  6
Continuous
370
    15
100
AcDbSpline
210
0.0
220
0.0
230
1.0
 70
    24
 71
     3
 72
    13
 73
     9
 74
     0
 42
0.000000001
 43
0.00000001
 40
0.0
 40
0.0
 40
0.0
 40
0.0
 40
0.0565272943619424
 40
0.2481692465935537
 40
0.4344101985981746
 40
0.6260521508317272
 40
0.8104094353599688
 40
0.9999999999999999
 40
0.9999999999999999
 40
0.9999999999999999
 40
0.9999999999999999
 10
-26.19375000000002
 20
-0.2647680371194736
 30
0.0
 10
-26.19375000000002
 20
-0.2650691962059441
 30
0.0
 10
-26.19375000000002
 20
-0.2663913614437693
 30
0.0
 10
-26.19375000000002
 20
-0.2561762803718676
 30
0.0
 10
-26.19375000000002
 20
-0.2340396729732334
 30
0.0
 10
-26.19375000000002
 20
-0.1997516779986285
 30
0.0
 10
-26.19375000000002
 20
-0.1556314595816556
 30
0.0
 10
-26.19375000000002
 20
-0.1190036533217282
 30
0.0
 10
-26.19375000000002
 20
-0.1004334529962258
 30
0.0
  0
SPLINE
  5
250
330
1F
100
AcDbEntity
  8
0
  6
Continuous
 62
     1
370
    25
100
AcDbSpline
210
0.0
220
0.0
230
1.0
 70
    24
 71
     3
 72
     8
 73
     4
 74
     0
 42
0.000000001
 43
0.00000001
 40
0.0
 40
0.0
 40
0.0
 40
0.0
 40
1.0
 40
1.0
 40
1.0
 40
1.0
 10
-28.33326430936536
 20
-0.19369923844029
 30
0.0
 10
-28.32022633921801
 20
-0.1827590824983518
 30
0.0
 10
-28.30645189846997
 20
-0.1712009543470267
 30
0.0
 10
-28.29207500202292
 20
-0.1591373058408469
 30
0.0
1001
PE_URL
1000

  0
LINE
  5
251
330
1F
100
AcDbEntity
  8
0
  6
Continuous
 62
     1
370
    25
100
AcDbLine
 10
-28.57500000000002
 20
-0.277812499999994
 30
0.0
 11
-28.35994317972018
 21
-0.2533539064616829
 31
0.0
1001
PE_URL
1000

  0
SPLINE
  5
252
330
1F
100
AcDbEntity
  8
0
  6
Continuous
 62
     1
370
    25
100
AcDbSpline
210
0.0
220
0.0
230
1.0
 70
     8
 71
     3
 72
    17
 73
    13
 74
     0
 42
0.000000001
 43
0.00000001
 40
0.0
 40
0.0
 40
0.0
 40
0.0
 40
0.0001031126202385
 40
0.0001031126202385
 40
0.0001031126202385
 40
0.0002062313519065
 40
0.0002062313519065
 40
0.0002062313519065
 40
0.0002926365297924
 40
0.0002926365297924
 40
0.0002926365297924
 40
0.0003267556738153
 40
0.0003267556738153
 40
0.0003267556738153
 40
0.0003267556738153
 10
-28.57500000000002
 20
-0.277812499999994
 30
0.0
 10
-28.54922776876442
 20
-0.2707777224272349
 30
0.0
 10
-28.52353216522406
 20
-0.263241173405303
 30
0.0
 10
-28.49794310127985
 20
-0.255146751754866
 30
0.0
 10
-28.47235315484338
 20
-0.2470520509514135
 30
0.0
 10
-28.44686201679995
 20
-0.2383979100308033
 30
0.0
 10
-28.42151216472758
 20
-0.2291045903526585
 30
0.0
 10
-28.40027052432441
 20
-0.2213173514294746
 30
0.0
 10
-28.37912183673334
 20
-0.2130790880162292
 30
0.0
 10
-28.3581028948481
 20
-0.2043224395195897
 30
0.0
 10
-28.34980276323088
 20
-0.2008645425690855
 30
0.0
 10
-28.34152223658384
 20
-0.1973252428046821
 30
0.0
 10
-28.33326430937969
 20
-0.193699238446612
 30
0.0
1001
PE_URL
1000

  0
SPLINE
  5
253
330
1F
100
AcDbEntity
  8
0
  6
Continuous
 62
     1
370
    25
100
AcDbSpline
210
0.0
220
0.0
230
1.0
 70
     8
 71
     3
 72
    10
 73
     6
 74
     0
 42
0.000000001
 43
0.00000001
 40
0.0
 40
0.0
 40
0.0
 40
0.0
 40
0.0641550983239028
 40
0.5320891176383838
 40
1.0
 40
1.0
 40
1.0
 40
1.0
 10
-27.03959860665361
 20
0.3247530596251045
 30
0.0
 10
-27.02151004873572
 20
0.3323599278340217
 30
0.0
 10
-26.87148729024367
 20
0.3954497195889835
 30
0.0
 10
-26.5895350945742
 20
0.41794519597514
 30
0.0
 10
-26.32567619039143
 20
0.3510941784126678
 30
0.0
 10
-26.19375000000026
 20
0.3176694960124052
 30
0.0
1001
PE_URL
1000

  0
SPLINE
  5
254
330
1F
100
AcDbEntity
  8
외형선
  6
Continuous
370
    15
100
AcDbSpline
210
0.0
220
0.0
230
1.0
 70
    24
 71
     3
 72
     8
 73
     4
 74
     0
 42
0.000000001
 43
0.00000001
 40
0.0
 40
0.0
 40
0.0
 40
0.0
 40
1.0
 40
1.0
 40
1.0
 40
1.0
 10
-26.19375000000003
 20
0.2573403442388574
 30
0.0
 10
-26.19375000000003
 20
0.2768151572668834
 30
0.0
 10
-26.19375000000003
 20
0.2970513030224267
 30
0.0
 10
-26.19375000000003
 20
0.317669496013272
 30
0.0
  0
SPLINE
  5
255
330
1F
100
AcDbEntity
  8
0
  6
Continuous
 62
     1
370
    25
100
AcDbSpline
210
0.0
220
0.0
230
1.0
 70
     8
 71
     3
 72
     8
 73
     4
 74
     0
 42
0.000000001
 43
0.00000001
 40
0.0
 40
0.0
 40
0.0
 40
0.0
 40
1.0
 40
1.0
 40
1.0
 40
1.0
 10
-26.19375000000522
 20
0.3710170508221114
 30
0.0
 10
-26.27814241835915
 20
0.3881506030997726
 30
0.0
 10
-26.36163780926071
 20
0.3968750437818421
 30
0.0
 10
-26.44320551586901
 20
0.3968749999998365
 30
0.0
1001
PE_URL
1000

  0
SPLINE
  5
256
330
1F
100
AcDbEntity
  8
0
  6
Continuous
 62
     1
370
    25
100
AcDbSpline
210
0.0
220
0.0
230
1.0
 70
     8
 71
     3
 72
    15
 73
    11
 74
     0
 42
0.000000001
 43
0.00000001
 40
0.0
 40
0.0
 40
0.0
 40
0.0
 40
0.0195618311470618
 40
0.1237791221171565
 40
0.3327916988005127
 40
0.4378260783166195
 40
0.5772903168460467
 40
0.7171787047083086
 40
0.8583648123801714
 40
1.0
 40
1.0
 40
1.0
 40
1.0
 10
-28.03013548127596
 20
-0.266625397189532
 30
0.0
 10
-28.03369728518019
 20
-0.2681742756543206
 30
0.0
 10
-28.05623489718107
 20
-0.2779749336395747
 30
0.0
 10
-28.11685481215299
 20
-0.3017910103977017
 30
0.0
 10
-28.19273965969327
 20
-0.3289605823569592
 30
0.0
 10
-28.27468361648537
 20
-0.3532290684230525
 30
0.0
 10
-28.34462138981461
 20
-0.3699968827294293
 30
0.0
 10
-28.42121863268962
 20
-0.3837069691730794
 30
0.0
 10
-28.4981922241054
 20
-0.393202238538423
 30
0.0
 10
-28.54937032019191
 20
-0.3954259473979637
 30
0.0
 10
-28.57500000000002
 20
-0.3965395672942599
 30
0.0
1001
PE_URL
1000

  0
LINE
  5
257
330
1F
100
AcDbEntity
  8
0
  6
Continuous
 62
     1
370
    25
100
AcDbLine
 10
-28.57500000000002
 20
0.0000000000000056
 30
0.0
 11
-28.57500000000002
 21
-0.277812499999994
 31
0.0
1001
PE_URL
1000

  0
SPLINE
  5
258
330
1F
100
AcDbEntity
  8
0
  6
Continuous
 62
     1
370
    25
100
AcDbSpline
210
0.0
220
0.0
230
1.0
 70
    24
 71
     3
 72
     8
 73
     4
 74
     0
 42
0.000000001
 43
0.00000001
 40
0.0
 40
0.0
 40
0.0
 40
0.0
 40
1.0
 40
1.0
 40
1.0
 40
1.0
 10
-28.57500000000002
 20
-0.277812499999994
 30
0.0
 10
-28.57500000000002
 20
-0.3114931038407993
 30
0.0
 10
-28.57500000000002
 20
-0.356787472373149
 30
0.0
 10
-28.57500000000001
 20
-0.3965395672942599
 30
0.0
1001
PE_URL
1000

  0
ENDSEC
  0
SECTION
  2
OBJECTS
  0
DICTIONARY
  5
C
330
0
100
AcDbDictionary
281
     1
  3
ACAD_DETAILVIEWSTYLE
350
1C1
  3
ACAD_GROUP
350
D
  3
ACAD_IMAGE_VARS
350
29E
  3
ACAD_LAYOUT
350
1A
  3
ACAD_MLINESTYLE
350
17
  3
ACAD_PLOTSETTINGS
350
19
  3
ACAD_PLOTSTYLENAME
350
E
  3
ACAD_SCALELIST
350
47
  3
ACAD_SECTIONVIEWSTYLE
350
1C2
  3
AcDbVariableDictionary
350
1BC
  3
APPDATA
350
160
  3
DWGPROPS
350
29F
  0
DICTIONARY
  5
1C1
102
{ACAD_REACTORS
330
C
102
}
330
C
100
AcDbDictionary
281
     1
  0
DICTIONARY
  5
D
102
{ACAD_REACTORS
330
C
102
}
330
C
100
AcDbDictionary
281
     1
  0
RASTERVARIABLES
  5
29E
102
{ACAD_REACTORS
330
C
102
}
330
C
100
AcDbRasterVariables
 90
        0
 70
     1
 71
     1
 72
     1
  0
DICTIONARY
  5
1A
102
{ACAD_REACTORS
330
C
102
}
330
C
100
AcDbDictionary
281
     1
  3
Layout1
350
1E
  3
Layout2
350
26
  3
Model
350
22
  0
DICTIONARY
  5
17
102
{ACAD_REACTORS
330
C
102
}
330
C
100
AcDbDictionary
281
     1
  3
Standard
350
18
  0
DICTIONARY
  5
19
102
{ACAD_REACTORS
330
C
102
}
330
C
100
AcDbDictionary
281
     1
  0
ACDBDICTIONARYWDFLT
  5
E
102
{ACAD_REACTORS
330
C
102
}
330
C
100
AcDbDictionary
281
     1
  3
Normal
350
F
100
AcDbDictionaryWithDefault
340
F
  0
DICTIONARY
  5
47
102
{ACAD_REACTORS
330
C
102
}
330
C
100
AcDbDictionary
281
     1
  3
A0
350
48
  3
A1
350
49
  3
A2
350
4A
  3
A3
350
4B
  3
A4
350
4C
  3
A5
350
4D
  3
A6
350
4E
  3
A7
350
4F
  3
A8
350
50
  3
A9
350
51
  3
B0
350
52
  3
B1
350
53
  3
B2
350
54
  3
B3
350
55
  3
B4
350
56
  3
B5
350
57
  3
B6
350
58
  3
B7
350
59
  3
B8
350
5A
  3
B9
350
5B
  3
C0
350
5C
  3
C1
350
5D
  3
C2
350
5E
  3
C3
350
5F
  3
C4
350
60
  3
C5
350
61
  3
C6
350
62
  3
C7
350
63
  3
C8
350
64
  3
C9
350
65
  3
D0
350
66
  3
D1
350
67
  3
D2
350
68
  0
DICTIONARY
  5
1C2
102
{ACAD_REACTORS
330
C
102
}
330
C
100
AcDbDictionary
281
     1
  0
DICTIONARY
  5
1BC
102
{ACAD_REACTORS
330
C
102
}
330
C
100
AcDbDictionary
281
     1
  0
DICTIONARY
  5
160
102
{ACAD_REACTORS
330
C
102
}
330
C
100
AcDbDictionary
281
     1
  0
XRECORD
  5
29F
102
{ACAD_REACTORS
330
C
102
}
330
C
100
AcDbXrecord
280
     1
  1
DWGPROPS COOKIE
  2

  3

  4

  6

  7

  8
12016016
  9

300
=
301
=
302
=
303
=
304
=
305
=
306
=
307
=
308
=
309
=
 40
0.0
 41
2458313.014534456
 42
2458318.278763322
  1

 90
        0
  0
LAYOUT
  5
1E
102
{ACAD_REACTORS
330
1A
102
}
330
1A
100
AcDbPlotSettings
  1

  2
none_device
  4

  6

 40
0.0
 41
0.0
 42
0.0
 43
0.0
 44
0.0
 45
0.0
 46
0.0
 47
0.0
 48
0.0
 49
0.0
140
0.0
141
0.0
142
1.0
143
1.0
 70
   688
 72
     1
 73
     0
 74
     5
  7

 75
    16
147
1.0
148
0.0
149
0.0
100
AcDbLayout
  1
Layout1
 70
     1
 71
     1
 10
0.0
 20
0.0
 11
420.0
 21
297.0
 12
0.0
 22
0.0
 32
0.0
 14
1.000000000000000E+20
 24
1.000000000000000E+20
 34
1.000000000000000E+20
 15
-1.000000000000000E+20
 25
-1.000000000000000E+20
 35
-1.000000000000000E+20
146
0.0
 13
0.0
 23
0.0
 33
0.0
 16
1.0
 26
0.0
 36
0.0
 17
0.0
 27
1.0
 37
0.0
 76
     0
330
1B
  0
LAYOUT
  5
26
102
{ACAD_REACTORS
330
1A
102
}
330
1A
100
AcDbPlotSettings
  1

  2
none_device
  4

  6

 40
0.0
 41
0.0
 42
0.0
 43
0.0
 44
0.0
 45
0.0
 46
0.0
 47
0.0
 48
0.0
 49
0.0
140
0.0
141
0.0
142
1.0
143
1.0
 70
   688
 72
     1
 73
     0
 74
     5
  7

 75
    16
147
1.0
148
0.0
149
0.0
100
AcDbLayout
  1
Layout2
 70
     1
 71
     2
 10
0.0
 20
0.0
 11
0.0
 21
0.0
 12
0.0
 22
0.0
 32
0.0
 14
0.0
 24
0.0
 34
0.0
 15
0.0
 25
0.0
 35
0.0
146
0.0
 13
0.0
 23
0.0
 33
0.0
 16
1.0
 26
0.0
 36
0.0
 17
0.0
 27
1.0
 37
0.0
 76
     0
330
23
  0
LAYOUT
  5
22
102
{ACAD_REACTORS
330
1A
102
}
330
1A
100
AcDbPlotSettings
  1

  2
none_device
  4
ANSI_A_(11.00_x_8.50_Inches)
  6

 40
6.35
 41
19.05
 42
6.35000508
 43
19.05000254
 44
279.4
 45
215.9
 46
121.7624115844233
 47
92.16634952969886
 48
0.0
 49
0.0
140
0.0
141
0.0
142
0.0726638197856587
143
1.0
 70
  1696
 72
     0
 73
     0
 74
     0
  7

 75
     0
147
0.0235690232323232
148
0.0
149
0.0
100
AcDbLayout
  1
Model
 70
     1
 71
     0
 10
0.0
 20
0.0
 11
420.0
 21
297.0
 12
0.0
 22
0.0
 32
0.0
 14
-39.95000000000009
 24
-49.97180738881174
 34
0.0
 15
97.50037503295506
 25
27.88124999999996
 35
0.0
146
0.0
 13
0.0
 23
0.0
 33
0.0
 16
1.0
 26
0.0
 36
0.0
 17
0.0
 27
1.0
 37
0.0
 76
     0
330
1F
331
29
  0
MLINESTYLE
  5
18
102
{ACAD_REACTORS
330
17
102
}
330
17
100
AcDbMlineStyle
  2
Standard
 70
     0
  3

 62
   256
 51
90.0
 52
90.0
 71
     2
 49
0.5
 62
   256
  6
BYLAYER
 49
-0.5
 62
   256
  6
BYLAYER
  0
ACDBPLACEHOLDER
  5
F
102
{ACAD_REACTORS
330
E
102
}
330
E
  0
SCALE
  5
48
102
{ACAD_REACTORS
330
47
102
}
330
47
100
AcDbScale
 70
     0
300
1:1
140
1.0
141
1.0
290
     1
  0
SCALE
  5
49
102
{ACAD_REACTORS
330
47
102
}
330
47
100
AcDbScale
 70
     0
300
1:2
140
1.0
141
2.0
290
     0
  0
SCALE
  5
4A
102
{ACAD_REACTORS
330
47
102
}
330
47
100
AcDbScale
 70
     0
300
1:4
140
1.0
141
4.0
290
     0
  0
SCALE
  5
4B
102
{ACAD_REACTORS
330
47
102
}
330
47
100
AcDbScale
 70
     0
300
1:5
140
1.0
141
5.0
290
     0
  0
SCALE
  5
4C
102
{ACAD_REACTORS
330
47
102
}
330
47
100
AcDbScale
 70
     0
300
1:8
140
1.0
141
8.0
290
     0
  0
SCALE
  5
4D
102
{ACAD_REACTORS
330
47
102
}
330
47
100
AcDbScale
 70
     0
300
1:10
140
1.0
141
10.0
290
     0
  0
SCALE
  5
4E
102
{ACAD_REACTORS
330
47
102
}
330
47
100
AcDbScale
 70
     0
300
1:16
140
1.0
141
16.0
290
     0
  0
SCALE
  5
4F
102
{ACAD_REACTORS
330
47
102
}
330
47
100
AcDbScale
 70
     0
300
1:20
140
1.0
141
20.0
290
     0
  0
SCALE
  5
50
102
{ACAD_REACTORS
330
47
102
}
330
47
100
AcDbScale
 70
     0
300
1:30
140
1.0
141
30.0
290
     0
  0
SCALE
  5
51
102
{ACAD_REACTORS
330
47
102
}
330
47
100
AcDbScale
 70
     0
300
1:40
140
1.0
141
40.0
290
     0
  0
SCALE
  5
52
102
{ACAD_REACTORS
330
47
102
}
330
47
100
AcDbScale
 70
     0
300
1:50
140
1.0
141
50.0
290
     0
  0
SCALE
  5
53
102
{ACAD_REACTORS
330
47
102
}
330
47
100
AcDbScale
 70
     0
300
1:100
140
1.0
141
100.0
290
     0
  0
SCALE
  5
54
102
{ACAD_REACTORS
330
47
102
}
330
47
100
AcDbScale
 70
     0
300
2:1
140
2.0
141
1.0
290
     0
  0
SCALE
  5
55
102
{ACAD_REACTORS
330
47
102
}
330
47
100
AcDbScale
 70
     0
300
4:1
140
4.0
141
1.0
290
     0
  0
SCALE
  5
56
102
{ACAD_REACTORS
330
47
102
}
330
47
100
AcDbScale
 70
     0
300
8:1
140
8.0
141
1.0
290
     0
  0
SCALE
  5
57
102
{ACAD_REACTORS
330
47
102
}
330
47
100
AcDbScale
 70
     0
300
10:1
140
10.0
141
1.0
290
     0
  0
SCALE
  5
58
102
{ACAD_REACTORS
330
47
102
}
330
47
100
AcDbScale
 70
     0
300
100:1
140
100.0
141
1.0
290
     0
  0
SCALE
  5
59
102
{ACAD_REACTORS
330
47
102
}
330
47
100
AcDbScale
 70
     0
300
1/128" = 1'-0"
140
0.0078125
141
12.0
290
     0
  0
SCALE
  5
5A
102
{ACAD_REACTORS
330
47
102
}
330
47
100
AcDbScale
 70
     0
300
1/64" = 1'-0"
140
0.015625
141
12.0
290
     0
  0
SCALE
  5
5B
102
{ACAD_REACTORS
330
47
102
}
330
47
100
AcDbScale
 70
     0
300
1/32" = 1'-0"
140
0.03125
141
12.0
290
     0
  0
SCALE
  5
5C
102
{ACAD_REACTORS
330
47
102
}
330
47
100
AcDbScale
 70
     0
300
1/16" = 1'-0"
140
0.0625
141
12.0
290
     0
  0
SCALE
  5
5D
102
{ACAD_REACTORS
330
47
102
}
330
47
100
AcDbScale
 70
     0
300
3/32" = 1'-0"
140
0.09375
141
12.0
290
     0
  0
SCALE
  5
5E
102
{ACAD_REACTORS
330
47
102
}
330
47
100
AcDbScale
 70
     0
300
1/8" = 1'-0"
140
0.125
141
12.0
290
     0
  0
SCALE
  5
5F
102
{ACAD_REACTORS
330
47
102
}
330
47
100
AcDbScale
 70
     0
300
3/16" = 1'-0"
140
0.1875
141
12.0
290
     0
  0
SCALE
  5
60
102
{ACAD_REACTORS
330
47
102
}
330
47
100
AcDbScale
 70
     0
300
1/4" = 1'-0"
140
0.25
141
12.0
290
     0
  0
SCALE
  5
61
102
{ACAD_REACTORS
330
47
102
}
330
47
100
AcDbScale
 70
     0
300
3/8" = 1'-0"
140
0.375
141
12.0
290
     0
  0
SCALE
  5
62
102
{ACAD_REACTORS
330
47
102
}
330
47
100
AcDbScale
 70
     0
300
1/2" = 1'-0"
140
0.5
141
12.0
290
     0
  0
SCALE
  5
63
102
{ACAD_REACTORS
330
47
102
}
330
47
100
AcDbScale
 70
     0
300
3/4" = 1'-0"
140
0.75
141
12.0
290
     0
  0
SCALE
  5
64
102
{ACAD_REACTORS
330
47
102
}
330
47
100
AcDbScale
 70
     0
300
1" = 1'-0"
140
1.0
141
12.0
290
     0
  0
SCALE
  5
65
102
{ACAD_REACTORS
330
47
102
}
330
47
100
AcDbScale
 70
     0
300
1-1/2" = 1'-0"
140
1.5
141
12.0
290
     0
  0
SCALE
  5
66
102
{ACAD_REACTORS
330
47
102
}
330
47
100
AcDbScale
 70
     0
300
3" = 1'-0"
140
3.0
141
12.0
290
     0
  0
SCALE
  5
67
102
{ACAD_REACTORS
330
47
102
}
330
47
100
AcDbScale
 70
     0
300
6" = 1'-0"
140
6.0
141
12.0
290
     0
  0
SCALE
  5
68
102
{ACAD_REACTORS
330
47
102
}
330
47
100
AcDbScale
 70
     0
300
1'-0" = 1'-0"
140
12.0
141
12.0
290
     0
  0
ENDSEC
  0
EOF
