  0
SECTION
  2
HEADER
  9
$ACADVER
  1
AC1015
  9
$ACADMAINTVER
 70
     6
  9
$DWGCODEPAGE
  3
ANSI_949
  9
$INSBASE
 10
0.0
 20
0.0
 30
0.0
  9
$EXTMIN
 10
-39.95468750000008
 20
-49.97180738881175
 30
0.0
  9
$EXTMAX
 10
96.00506253295504
 20
27.88124999999997
 30
0.0
  9
$LIMMIN
 10
0.0
 20
0.0
  9
$LIMMAX
 10
420.0
 20
297.0
  9
$ORTHOMODE
 70
     1
  9
$REGENMODE
 70
     1
  9
$FILLMODE
 70
     1
  9
$QTEXTMODE
 70
     0
  9
$MIRRTEXT
 70
     1
  9
$LTSCALE
 40
1.0
  9
$ATTMODE
 70
     1
  9
$TEXTSIZE
 40
3.5
  9
$TRACEWID
 40
1.0
  9
$TEXTSTYLE
  7
Standard
  9
$CLAYER
  8
0
  9
$CELTYPE
  6
ByLayer
  9
$CECOLOR
 62
   256
  9
$CELTSCALE
 40
1.0
  9
$DISPSILH
 70
     0
  9
$DIMSCALE
 40
1.0
  9
$DIMASZ
 40
3.302
  9
$DIMEXO
 40
1.0
  9
$DIMDLI
 40
3.75
  9
$DIMRND
 40
0.0
  9
$DIMDLE
 40
0.0
  9
$DIMEXE
 40
1.0
  9
$DIMTP
 40
0.0
  9
$DIMTM
 40
0.0
  9
$DIMTXT
 40
3.5
  9
$DIMCEN
 40
2.5
  9
$DIMTSZ
 40
0.0
  9
$DIMTOL
 70
     0
  9
$DIMLIM
 70
     0
  9
$DIMTIH
 70
     1
  9
$DIMTOH
 70
     1
  9
$DIMSE1
 70
     0
  9
$DIMSE2
 70
     0
  9
$DIMTAD
 70
     1
  9
$DIMZIN
 70
     0
  9
$DIMBLK
  1

  9
$DIMASO
 70
     1
  9
$DIMSHO
 70
     1
  9
$DIMPOST
  1

  9
$DIMAPOST
  1

  9
$DIMALT
 70
     0
  9
$DIMALTD
 70
     3
  9
$DIMALTF
 40
0.0393700787401575
  9
$DIMLFAC
 40
1.0
  9
$DIMTOFL
 70
     1
  9
$DIMTVP
 40
0.0
  9
$DIMTIX
 70
     0
  9
$DIMSOXD
 70
     0
  9
$DIMSAH
 70
     0
  9
$DIMBLK1
  1

  9
$DIMBLK2
  1

  9
$DIMSTYLE
  2
ISO-25
  9
$DIMCLRD
 70
     0
  9
$DIMCLRE
 70
     0
  9
$DIMCLRT
 70
     0
  9
$DIMTFAC
 40
1.0
  9
$DIMGAP
 40
1.524
  9
$DIMJUST
 70
     0
  9
$DIMSD1
 70
     0
  9
$DIMSD2
 70
     0
  9
$DIMTOLJ
 70
     0
  9
$DIMTZIN
 70
     0
  9
$DIMALTZ
 70
     0
  9
$DIMALTTZ
 70
     0
  9
$DIMUPT
 70
     0
  9
$DIMDEC
 70
     2
  9
$DIMTDEC
 70
     2
  9
$DIMALTU
 70
     2
  9
$DIMALTTD
 70
     3
  9
$DIMTXSTY
  7
Standard
  9
$DIMAUNIT
 70
     0
  9
$DIMADEC
 70
     2
  9
$DIMALTRND
 40
0.0
  9
$DIMAZIN
 70
     0
  9
$DIMDSEP
 70
    44
  9
$DIMATFIT
 70
     3
  9
$DIMFRAC
 70
     0
  9
$DIMLDRBLK
  1

  9
$DIMLUNIT
 70
     2
  9
$DIMLWD
 70
    -2
  9
$DIMLWE
 70
    -2
  9
$DIMTMOVE
 70
     0
  9
$LUNITS
 70
     2
  9
$LUPREC
 70
     2
  9
$SKETCHINC
 40
1.0
  9
$FILLETRAD
 40
10.0
  9
$AUNITS
 70
     0
  9
$AUPREC
 70
     2
  9
$MENU
  1
.
  9
$ELEVATION
 40
0.0
  9
$PELEVATION
 40
0.0
  9
$THICKNESS
 40
0.0
  9
$LIMCHECK
 70
     0
  9
$CHAMFERA
 40
0.0
  9
$CHAMFERB
 40
0.0
  9
$CHAMFERC
 40
0.0
  9
$CHAMFERD
 40
0.0
  9
$SKPOLY
 70
     0
  9
$TDCREATE
 40
2458313.389746053
  9
$TDUCREATE
 40
2458313.014746053
  9
$TDUPDATE
 40
2458318.653718299
  9
$TDUUPDATE
 40
2458318.278718299
  9
$TDINDWG
 40
0.0023715394
  9
$TDUSRTIMER
 40
2458318.278667477
  9
$USRTIMER
 70
     1
  9
$ANGBASE
 50
0.0
  9
$ANGDIR
 70
     0
  9
$PDMODE
 70
     0
  9
$PDSIZE
 40
-1.0
  9
$PLINEWID
 40
0.0
  9
$SPLFRAME
 70
     0
  9
$SPLINETYPE
 70
     6
  9
$SPLINESEGS
 70
     8
  9
$HANDSEED
  5
3CC
  9
$SURFTAB1
 70
     6
  9
$SURFTAB2
 70
     6
  9
$SURFTYPE
 70
     6
  9
$SURFU
 70
     6
  9
$SURFV
 70
     6
  9
$UCSBASE
  2

  9
$UCSNAME
  2

  9
$UCSORG
 10
0.0
 20
0.0
 30
0.0
  9
$UCSXDIR
 10
1.0
 20
0.0
 30
0.0
  9
$UCSYDIR
 10
0.0
 20
1.0
 30
0.0
  9
$UCSORTHOREF
  2

  9
$UCSORTHOVIEW
 70
     0
  9
$UCSORGTOP
 10
0.0
 20
0.0
 30
0.0
  9
$UCSORGBOTTOM
 10
0.0
 20
0.0
 30
0.0
  9
$UCSORGLEFT
 10
0.0
 20
0.0
 30
0.0
  9
$UCSORGRIGHT
 10
0.0
 20
0.0
 30
0.0
  9
$UCSORGFRONT
 10
0.0
 20
0.0
 30
0.0
  9
$UCSORGBACK
 10
0.0
 20
0.0
 30
0.0
  9
$PUCSBASE
  2

  9
$PUCSNAME
  2

  9
$PUCSORG
 10
0.0
 20
0.0
 30
0.0
  9
$PUCSXDIR
 10
1.0
 20
0.0
 30
0.0
  9
$PUCSYDIR
 10
0.0
 20
1.0
 30
0.0
  9
$PUCSORTHOREF
  2

  9
$PUCSORTHOVIEW
 70
     0
  9
$PUCSORGTOP
 10
0.0
 20
0.0
 30
0.0
  9
$PUCSORGBOTTOM
 10
0.0
 20
0.0
 30
0.0
  9
$PUCSORGLEFT
 10
0.0
 20
0.0
 30
0.0
  9
$PUCSORGRIGHT
 10
0.0
 20
0.0
 30
0.0
  9
$PUCSORGFRONT
 10
0.0
 20
0.0
 30
0.0
  9
$PUCSORGBACK
 10
0.0
 20
0.0
 30
0.0
  9
$USERI1
 70
     0
  9
$USERI2
 70
     0
  9
$USERI3
 70
     0
  9
$USERI4
 70
     0
  9
$USERI5
 70
     0
  9
$USERR1
 40
0.0
  9
$USERR2
 40
0.0
  9
$USERR3
 40
0.0
  9
$USERR4
 40
0.0
  9
$USERR5
 40
0.0
  9
$WORLDVIEW
 70
     1
  9
$SHADEDGE
 70
     3
  9
$SHADEDIF
 70
    70
  9
$TILEMODE
 70
     1
  9
$MAXACTVP
 70
    64
  9
$PINSBASE
 10
0.0
 20
0.0
 30
0.0
  9
$PLIMCHECK
 70
     0
  9
$PEXTMIN
 10
1.000000000000000E+20
 20
1.000000000000000E+20
 30
1.000000000000000E+20
  9
$PEXTMAX
 10
-1.000000000000000E+20
 20
-1.000000000000000E+20
 30
-1.000000000000000E+20
  9
$PLIMMIN
 10
0.0
 20
0.0
  9
$PLIMMAX
 10
0.0
 20
0.0
  9
$UNITMODE
 70
     0
  9
$VISRETAIN
 70
     1
  9
$PLINEGEN
 70
     0
  9
$PSLTSCALE
 70
     1
  9
$TREEDEPTH
 70
  3020
  9
$CMLSTYLE
  2
Standard
  9
$CMLJUST
 70
     0
  9
$CMLSCALE
 40
20.0
  9
$PROXYGRAPHICS
 70
     1
  9
$MEASUREMENT
 70
     1
  9
$CELWEIGHT
370
    -1
  9
$ENDCAPS
280
     0
  9
$JOINSTYLE
280
     0
  9
$LWDISPLAY
290
     1
  9
$INSUNITS
 70
     4
  9
$HYPERLINKBASE
  1

  9
$STYLESHEET
  1

  9
$XEDIT
290
     1
  9
$CEPSNTYPE
380
     0
  9
$PSTYLEMODE
290
     1
  9
$FINGERPRINTGUID
  2
{4754E1C8-475D-439B-815F-DC39BFAEE89A}
  9
$VERSIONGUID
  2
{FAEB1C32-E019-11D5-929B-00C0DF256EC4}
  9
$EXTNAMES
290
     1
  9
$PSVPSCALE
 40
0.0
  9
$OLESTARTUP
290
     0
  0
ENDSEC
  0
SECTION
  2
CLASSES
  0
CLASS
  1
ACDBDICTIONARYWDFLT
  2
AcDbDictionaryWithDefault
  3
ObjectDBX Classes
 90
        0
280
     0
281
     0
  0
CLASS
  1
VISUALSTYLE
  2
AcDbVisualStyle
  3
ObjectDBX Classes
 90
     4095
280
     0
281
     0
  0
CLASS
  1
MATERIAL
  2
AcDbMaterial
  3
ObjectDBX Classes
 90
     1153
280
     0
281
     0
  0
CLASS
  1
SCALE
  2
AcDbScale
  3
ObjectDBX Classes
 90
     1153
280
     0
281
     0
  0
CLASS
  1
SUN
  2
AcDbSun
  3
SCENEOE
 90
     1153
280
     0
281
     0
  0
CLASS
  1
ACDBPLACEHOLDER
  2
AcDbPlaceHolder
  3
ObjectDBX Classes
 90
        0
280
     0
281
     0
  0
CLASS
  1
LAYOUT
  2
AcDbLayout
  3
ObjectDBX Classes
 90
        0
280
     0
281
     0
  0
CLASS
  1
TABLESTYLE
  2
AcDbTableStyle
  3
ObjectDBX Classes
 90
     4095
280
     0
281
     0
  0
CLASS
  1
MLEADERSTYLE
  2
AcDbMLeaderStyle
  3
ACDB_MLEADERSTYLE_CLASS
 90
     4095
280
     0
281
     0
  0
CLASS
  1
DICTIONARYVAR
  2
AcDbDictionaryVar
  3
ObjectDBX Classes
 90
        0
280
     0
281
     0
  0
CLASS
  1
RASTERVARIABLES
  2
AcDbRasterVariables
  3
ISM
 90
        0
280
     0
281
     0
  0
ENDSEC
  0
SECTION
  2
TABLES
  0
TABLE
  2
VPORT
  5
8
330
0
100
AcDbSymbolTable
 70
     1
  0
VPORT
  5
29
330
8
100
AcDbSymbolTableRecord
100
AcDbViewportTableRecord
  2
*Active
 70
     0
 10
0.0
 20
0.0
 11
1.0
 21
1.0
 12
28.02518751647748
 22
-11.04527869440589
 13
0.0
 23
0.0
 14
10.0
 24
10.0
 15
10.0
 25
10.0
 16
0.0
 26
0.0
 36
1.0
 17
0.0
 27
0.0
 37
0.0
 40
79.41011853658796
 41
1.782762691853601
 42
50.0
 43
0.0
 44
0.0
 50
0.0
 51
0.0
 71
    16
 72
  2000
 73
     1
 74
     3
 75
     0
 76
     0
 77
     0
 78
     0
281
     0
 65
     1
110
0.0
120
0.0
130
0.0
111
1.0
121
0.0
131
0.0
112
0.0
122
1.0
132
0.0
 79
     0
146
0.0
  0
ENDTAB
  0
TABLE
  2
LTYPE
  5
5
330
0
100
AcDbSymbolTable
 70
     6
  0
LTYPE
  5
14
330
5
100
AcDbSymbolTableRecord
100
AcDbLinetypeTableRecord
  2
ByBlock
 70
     0
  3

 72
    65
 73
     0
 40
0.0
  0
LTYPE
  5
15
330
5
100
AcDbSymbolTableRecord
100
AcDbLinetypeTableRecord
  2
ByLayer
 70
     0
  3

 72
    65
 73
     0
 40
0.0
  0
LTYPE
  5
16
330
5
100
AcDbSymbolTableRecord
100
AcDbLinetypeTableRecord
  2
Continuous
 70
     0
  3
Solid line
 72
    65
 73
     0
 40
0.0
  0
LTYPE
  5
6A
330
5
100
AcDbSymbolTableRecord
100
AcDbLinetypeTableRecord
  2
HIDDEN
 70
     0
  3
Hidden __ __ __ __ __ __ __ __ __ __ __ __ __ __
 72
    65
 73
     2
 40
1.905
 49
1.27
 74
     0
 49
-0.635
 74
     0
  0
LTYPE
  5
6B
330
5
100
AcDbSymbolTableRecord
100
AcDbLinetypeTableRecord
  2
PHANTOM
 70
     0
  3
Phantom ______  __  __  ______  __  __  ______
 72
    65
 73
     6
 40
12.7
 49
6.35
 74
     0
 49
-1.27
 74
     0
 49
1.27
 74
     0
 49
-1.27
 74
     0
 49
1.27
 74
     0
 49
-1.27
 74
     0
  0
LTYPE
  5
6C
330
5
100
AcDbSymbolTableRecord
100
AcDbLinetypeTableRecord
  2
CENTER
 70
     0
  3
Center ____ _ ____ _ ____ _ ____ _ ____ _ ____
 72
    65
 73
     4
 40
10.16
 49
6.35
 74
     0
 49
-1.27
 74
     0
 49
1.27
 74
     0
 49
-1.27
 74
     0
  0
LTYPE
  5
6D
330
5
100
AcDbSymbolTableRecord
100
AcDbLinetypeTableRecord
  2
CENTERX2
 70
     0
  3
Center (2x) ________  __  ________  __  _____
 72
    65
 73
     4
 40
20.32
 49
12.7
 74
     0
 49
-2.54
 74
     0
 49
2.54
 74
     0
 49
-2.54
 74
     0
  0
LTYPE
  5
6E
330
5
100
AcDbSymbolTableRecord
100
AcDbLinetypeTableRecord
  2
DOT2
 70
     0
  3
Dot (.5x) ........................................
 72
    65
 73
     2
 40
0.635
 49
0.0
 74
     0
 49
-0.635
 74
     0
  0
ENDTAB
  0
TABLE
  2
LAYER
  5
2
330
0
100
AcDbSymbolTable
 70
    18
  0
LAYER
  5
10
330
2
100
AcDbSymbolTableRecord
100
AcDbLayerTableRecord
  2
0
 70
     0
 62
     7
  6
Continuous
370
    -3
390
F
  0
LAYER
  5
6F
330
2
100
AcDbSymbolTableRecord
100
AcDbLayerTableRecord
  2
FORMAT
 70
     0
 62
     2
  6
Continuous
370
    -3
390
F
  0
LAYER
  5
70
330
2
100
AcDbSymbolTableRecord
100
AcDbLayerTableRecord
  2
외형선
 70
     0
 62
     4
  6
Continuous
370
    30
390
F
  0
LAYER
  5
71
330
2
100
AcDbSymbolTableRecord
100
AcDbLayerTableRecord
  2
숨은선
 70
     0
 62
     2
  6
HIDDEN
370
    15
390
F
  0
LAYER
  5
72
330
2
100
AcDbSymbolTableRecord
100
AcDbLayerTableRecord
  2
중심선
 70
     0
 62
     1
  6
CENTERX2
370
    -3
390
F
  0
LAYER
  5
73
330
2
100
AcDbSymbolTableRecord
100
AcDbLayerTableRecord
  2
파단선
 70
     0
 62
     4
  6
Continuous
370
    -3
390
F
  0
LAYER
  5
74
330
2
100
AcDbSymbolTableRecord
100
AcDbLayerTableRecord
  2
해칭선
 70
     0
 62
   100
  6
Continuous
370
    -3
390
F
  0
LAYER
  5
75
330
2
100
AcDbSymbolTableRecord
100
AcDbLayerTableRecord
  2
가는실선
 70
     0
 62
     4
  6
Continuous
370
    -3
390
F
  0
LAYER
  5
76
330
2
100
AcDbSymbolTableRecord
100
AcDbLayerTableRecord
  2
치수_보조선
 70
     0
 62
     4
  6
Continuous
370
    -3
390
F
  0
LAYER
  5
77
330
2
100
AcDbSymbolTableRecord
100
AcDbLayerTableRecord
  2
치수문자_일반주서
 70
     0
 62
     7
  6
Continuous
370
    15
390
F
  0
LAYER
  5
78
330
2
100
AcDbSymbolTableRecord
100
AcDbLayerTableRecord
  2
개별주서
 70
     0
 62
   100
  6
Continuous
370
    30
390
F
  0
LAYER
  5
79
330
2
100
AcDbSymbolTableRecord
100
AcDbLayerTableRecord
  2
중간선
 70
     0
 62
     2
  6
Continuous
370
    15
390
F
  0
LAYER
  5
7A
330
2
100
AcDbSymbolTableRecord
100
AcDbLayerTableRecord
  2
윤곽선
 70
     0
 62
     3
  6
Continuous
370
    40
390
F
  0
LAYER
  5
7B
330
2
100
AcDbSymbolTableRecord
100
AcDbLayerTableRecord
  2
중심마크
 70
     0
 62
   100
  6
Continuous
370
    30
390
F
  0
LAYER
  5
7C
330
2
100
AcDbSymbolTableRecord
100
AcDbLayerTableRecord
  2
가상선
 70
     0
 62
     4
  6
PHANTOM
370
    -3
390
F
  0
LAYER
  5
7D
330
2
100
AcDbSymbolTableRecord
100
AcDbLayerTableRecord
  2
특수지정선
 70
     0
 62
     5
  6
CENTERX2
370
    60
390
F
  0
LAYER
  5
7E
330
2
100
AcDbSymbolTableRecord
100
AcDbLayerTableRecord
  2
참조1
 70
     0
 62
    -4
  6
Continuous
370
    -3
390
F
  0
LAYER
  5
14B
330
2
100
AcDbSymbolTableRecord
100
AcDbLayerTableRecord
  2
Defpoints
 70
     0
 62
     7
  6
Continuous
290
     0
370
    -3
390
F
  0
ENDTAB
  0
TABLE
  2
STYLE
  5
3
330
0
100
AcDbSymbolTable
 70
     2
  0
STYLE
  5
11
330
3
100
AcDbSymbolTableRecord
100
AcDbTextStyleTableRecord
  2
Standard
 70
     0
 40
0.0
 41
1.0
 50
0.0
 71
     0
 42
3.5
  3
txt
  4

  0
STYLE
  5
94
330
3
100
AcDbSymbolTableRecord
100
AcDbTextStyleTableRecord
  2
SLDTEXTSTYLE0
 70
     0
 40
0.0
 41
0.75
 50
0.0
 71
     0
 42
3.5
  3
TXT
  4

  0
ENDTAB
  0
TABLE
  2
VIEW
  5
6
330
0
100
AcDbSymbolTable
 70
     0
  0
ENDTAB
  0
TABLE
  2
UCS
  5
7
330
0
100
AcDbSymbolTable
 70
     0
  0
ENDTAB
  0
TABLE
  2
APPID
  5
9
330
0
100
AcDbSymbolTable
 70
     2
  0
APPID
  5
12
330
9
100
AcDbSymbolTableRecord
100
AcDbRegAppTableRecord
  2
ACAD
 70
     0
  0
APPID
  5
152
330
9
100
AcDbSymbolTableRecord
100
AcDbRegAppTableRecord
  2
PE_URL
 70
     0
  0
ENDTAB
  0
TABLE
  2
DIMSTYLE
  5
A
330
0
100
AcDbSymbolTable
 70
     4
100
AcDbDimStyleTable
  0
DIMSTYLE
105
27
330
A
100
AcDbSymbolTableRecord
100
AcDbDimStyleTableRecord
  2
ISO-25
 70
     0
 41
2.5
 42
0.625
 43
3.75
 44
1.25
 73
     0
 74
     0
 77
     1
 78
     8
140
2.5
141
2.5
143
0.03937007874016
147
0.625
171
     3
172
     1
178
     0
271
     2
272
     2
274
     3
278
    44
283
     0
284
     8
340
11
  0
DIMSTYLE
105
C8
102
{ACAD_REACTORS
330
C7
330
F1
330
DC
330
106
102
}
330
A
100
AcDbSymbolTableRecord
100
AcDbDimStyleTableRecord
  2
SLDDIMSTYLE0
 70
     0
 41
3.302
 44
0.0
 45
0.000000001
 73
     0
 74
     0
 77
     1
 78
    12
 79
     3
140
3.5
143
0.0393700787401575
147
0.875
148
0.000000001
170
     1
172
     1
173
     1
178
     0
271
     2
272
     2
276
     2
284
    12
289
     0
340
94
  0
DIMSTYLE
105
DD
330
A
100
AcDbSymbolTableRecord
100
AcDbDimStyleTableRecord
  2
SLDDIMSTYLE1
 70
     0
 41
3.302
 44
0.0
 45
0.000000001
 73
     0
 74
     0
 77
     1
 78
     8
 79
     2
140
3.5
143
0.0393700787401575
147
0.875
148
0.000000001
170
     1
172
     1
173
     1
178
     0
271
     2
272
     2
276
     2
284
    12
289
     0
340
94
  0
DIMSTYLE
105
107
330
A
100
AcDbSymbolTableRecord
100
AcDbDimStyleTableRecord
  2
SLDDIMSTYLE2
 70
     0
 41
3.302
 44
0.0
 45
0.000000001
 73
     0
 74
     0
 77
     1
 78
    12
 79
     3
140
3.5
143
0.0393700787401575
147
0.875
148
0.000000001
170
     1
173
     1
178
     0
271
     2
272
     2
276
     2
284
    12
340
94
  0
ENDTAB
  0
TABLE
  2
BLOCK_RECORD
  5
1
330
0
100
AcDbSymbolTable
 70
     9
  0
BLOCK_RECORD
  5
1F
330
1
100
AcDbSymbolTableRecord
100
AcDbBlockTableRecord
  2
*Model_Space
340
22
  0
BLOCK_RECORD
  5
1B
330
1
100
AcDbSymbolTableRecord
100
AcDbBlockTableRecord
  2
*Paper_Space
340
1E
  0
BLOCK_RECORD
  5
23
330
1
100
AcDbSymbolTableRecord
100
AcDbBlockTableRecord
  2
*Paper_Space0
340
26
  0
BLOCK_RECORD
  5
7F
330
1
100
AcDbSymbolTableRecord
100
AcDbBlockTableRecord
  2
블럭10
340
0
102
{BLKREFS
331
C0
102
}
  0
BLOCK_RECORD
  5
C9
330
1
100
AcDbSymbolTableRecord
100
AcDbBlockTableRecord
  2
_D
340
0
  0
BLOCK_RECORD
  5
DE
330
1
100
AcDbSymbolTableRecord
100
AcDbBlockTableRecord
  2
_D_1
340
0
  0
BLOCK_RECORD
  5
F2
330
1
100
AcDbSymbolTableRecord
100
AcDbBlockTableRecord
  2
_D_2
340
0
  0
BLOCK_RECORD
  5
108
330
1
100
AcDbSymbolTableRecord
100
AcDbBlockTableRecord
  2
_D_3
340
0
  0
BLOCK_RECORD
  5
121
330
1
100
AcDbSymbolTableRecord
100
AcDbBlockTableRecord
  2
SW_DOWELSYMBOL_0
340
0
102
{BLKREFS
331
127
102
}
  0
BLOCK_RECORD
  5
184
330
1
100
AcDbSymbolTableRecord
100
AcDbBlockTableRecord
  2
*D7
340
0
  0
BLOCK_RECORD
  5
196
330
1
100
AcDbSymbolTableRecord
100
AcDbBlockTableRecord
  2
*D8
340
0
  0
ENDTAB
  0
ENDSEC
  0
SECTION
  2
BLOCKS
  0
BLOCK
  5
20
330
1F
100
AcDbEntity
  8
0
100
AcDbBlockBegin
  2
*Model_Space
 70
     0
 10
0.0
 20
0.0
 30
0.0
  3
*Model_Space
  1
*Model_Space
  0
ENDBLK
  5
21
330
1F
100
AcDbEntity
  8
0
100
AcDbBlockEnd
  0
BLOCK
  5
1C
330
1B
100
AcDbEntity
 67
     1
  8
0
100
AcDbBlockBegin
  2
*Paper_Space
 70
     0
 10
0.0
 20
0.0
 30
0.0
  3
*Paper_Space
  1
*Paper_Space
  0
ENDBLK
  5
1D
330
1B
100
AcDbEntity
 67
     1
  8
0
100
AcDbBlockEnd
  0
BLOCK
  5
24
330
23
100
AcDbEntity
  8
0
100
AcDbBlockBegin
  2
*Paper_Space0
 70
     0
 10
0.0
 20
0.0
 30
0.0
  3
*Paper_Space0
  1
*Paper_Space0
  0
ENDBLK
  5
25
330
23
100
AcDbEntity
  8
0
100
AcDbBlockEnd
  0
BLOCK
  5
80
330
7F
100
AcDbEntity
  8
0
100
AcDbBlockBegin
  2
블럭10
 70
     2
 10
0.0
 20
0.0
 30
0.0
  3
블럭10
  1
블럭10
  0
ELLIPSE
  5
82
330
7F
100
AcDbEntity
  8
중심선
100
AcDbEllipse
 10
20.54032771741204
 20
12.0471743016438
 30
0.0
 11
6.600054785286829
 21
-1.261213355974178E-13
 31
0.0
210
0.0
220
0.0
230
1.0
 40
0.636358354079598
 41
0.9219305317359503
 42
6.513795318482858
  0
ELLIPSE
  5
83
330
7F
100
AcDbEntity
  8
중심선
100
AcDbEllipse
 10
20.54032771746488
 20
12.04717430159265
 30
0.0
 11
3.960054785062283
 21
1.540847449632565E-10
 31
0.0
210
0.0
220
0.0
230
1.0
 40
0.3939339440162632
 41
1.131841032648279
 42
5.62031148352944
  0
LINE
  5
84
330
7F
100
AcDbEntity
  8
중심선
100
AcDbLine
 10
2.268634060543552
 20
16.24717430164393
 30
0.0
 11
5.714909304380834
 21
16.24717430164393
 31
0.0
  0
LINE
  5
85
330
7F
100
AcDbEntity
  8
중심선
100
AcDbLine
 10
5.245725140726316
 20
7.84717430164391
 30
0.0
 11
8.692000384563599
 21
7.84717430164391
 31
0.0
  0
LINE
  5
86
330
7F
100
AcDbEntity
  8
중심선
100
AcDbLine
 10
15.74043728645272
 20
16.24717430164393
 30
0.0
 11
8.692000384563599
 21
7.84717430164391
 31
0.0
  0
LINE
  5
87
330
7F
100
AcDbEntity
  8
중심선
100
AcDbLine
 10
0.1404042013395286
 20
13.71084872107135
 30
0.0
 11
3.58671253028996
 21
13.71088815037384
 31
0.0
  0
LINE
  5
88
330
7F
100
AcDbEntity
  8
중심선
100
AcDbLine
 10
2.750260043222114
 20
10.84717430164391
 30
0.0
 11
6.196535287059397
 21
10.84717430164391
 31
0.0
  0
LINE
  5
89
330
7F
100
AcDbEntity
  8
중심선
100
AcDbLine
 10
12.29416204261559
 20
16.24717430164393
 30
0.0
 11
5.245725140726316
 21
7.84717430164391
 31
0.0
  0
LINE
  5
8A
330
7F
100
AcDbEntity
  8
중심선
100
AcDbLine
 10
10.72767329541681
 20
16.24717430164393
 30
0.0
 11
6.196535287059397
 21
10.84717430164391
 31
0.0
  0
LINE
  5
8B
330
7F
100
AcDbEntity
  8
중심선
100
AcDbLine
 10
7.28139805157953
 20
16.24717430164393
 30
0.0
 11
2.750260043222114
 21
10.84717430164391
 31
0.0
  0
LINE
  5
8C
330
7F
100
AcDbEntity
  8
중심선
100
AcDbLine
 10
5.714909304380834
 20
16.24717430164393
 30
0.0
 11
3.58671253028996
 21
13.71088815037384
 31
0.0
  0
LINE
  5
8D
330
7F
100
AcDbEntity
  8
중심선
100
AcDbLine
 10
2.268634060543552
 20
16.24717430164393
 30
0.0
 11
0.1404042013395286
 21
13.71084872107135
 31
0.0
  0
LINE
  5
8E
330
7F
100
AcDbEntity
  8
중심선
100
AcDbLine
 10
7.28139805157953
 20
16.24717430164393
 30
0.0
 11
10.72767329541681
 21
16.24717430164393
 31
0.0
  0
LINE
  5
8F
330
7F
100
AcDbEntity
  8
중심선
100
AcDbLine
 10
12.29416204261559
 20
16.24717430164393
 30
0.0
 11
15.74043728645272
 21
16.24717430164393
 31
0.0
  0
LINE
  5
90
330
7F
100
AcDbEntity
  8
중심선
100
AcDbLine
 10
19.22036997980202
 20
11.08717430171403
 30
0.0
 11
23.66174974927406
 21
11.08717430171406
 31
0.0
  0
LINE
  5
91
330
7F
100
AcDbEntity
  8
중심선
100
AcDbLine
 10
19.22039502424796
 20
13.00717430171391
 30
0.0
 11
19.22036997980202
 21
11.08717430171403
 31
0.0
  0
LINE
  5
92
330
7F
100
AcDbEntity
  8
중심선
100
AcDbLine
 10
19.22039502424796
 20
13.00717430171391
 30
0.0
 11
26.96566020931264
 21
13.00717430171391
 31
0.0
  0
LINE
  5
93
330
7F
100
AcDbEntity
  8
중심선
100
AcDbLine
 10
22.22332737316547
 20
13.45928029700563
 30
0.0
 11
24.52862924686651
 21
15.39360700705356
 31
0.0
  0
ATTDEF
  5
95
330
7F
100
AcDbEntity
  8
FORMAT
 62
     2
100
AcDbText
 10
4.408487351596664
 20
2.075366912832191
 30
0.0
 40
4.233333333333333
  1
E1003003
 41
0.75
  7
SLDTEXTSTYLE0
 11
4.408487351596664
 21
-0.0412997538344756
 31
0.0
100
AcDbAttributeDefinition
  3

  2
AUTOATTR0
 70
     0
 74
     1
  0
ENDBLK
  5
81
330
7F
100
AcDbEntity
  8
0
100
AcDbBlockEnd
  0
BLOCK
  5
CA
330
C9
100
AcDbEntity
  8
0
100
AcDbBlockBegin
  2
_D
 70
     0
 10
0.0
 20
0.0
 30
0.0
  3
_D
  1
_D
  0
LINE
  5
CC
330
C9
100
AcDbEntity
  8
치수문자_일반주서
 62
     0
370
    -2
100
AcDbLine
 10
-17.59572801085749
 20
2.381249999999997
 30
0.0
 11
-36.57968750000001
 21
2.381249999999927
 31
0.0
  0
LINE
  5
CD
330
C9
100
AcDbEntity
  8
치수문자_일반주서
 62
     0
370
    -2
100
AcDbLine
 10
-17.59572801085751
 20
-2.381250000000003
 30
0.0
 11
-36.5796875
 21
-2.381250000000072
 31
0.0
  0
LINE
  5
CE
330
C9
100
AcDbEntity
  8
치수문자_일반주서
 62
     0
370
    -2
100
AcDbLine
 10
-36.57968750000001
 20
2.381249999999927
 30
0.0
 11
-36.57968750000008
 21
27.88124999999997
 31
0.0
  0
LINE
  5
CF
330
C9
100
AcDbEntity
  8
치수문자_일반주서
 62
     0
370
    -2
100
AcDbLine
 10
-36.57968750000001
 20
2.381249999999927
 30
0.0
 11
-36.5796875
 21
-2.381250000000072
 31
0.0
  0
LINE
  5
D0
330
C9
100
AcDbEntity
  8
치수문자_일반주서
 62
     0
370
    -2
100
AcDbLine
 10
-36.57968750000002
 20
4.881249999999927
 30
0.0
 11
-36.57968750000003
 21
7.381249999999927
 31
0.0
  0
LINE
  5
D1
330
C9
100
AcDbEntity
  8
치수문자_일반주서
 62
     0
370
    -2
100
AcDbLine
 10
-36.57968749999999
 20
-4.881250000000072
 30
0.0
 11
-36.57968749999998
 21
-7.381250000000072
 31
0.0
  0
SOLID
  5
D2
330
C9
100
AcDbEntity
  8
치수문자_일반주서
 62
     0
100
AcDbTrace
 10
-36.99635416666668
 20
4.881249999999926
 30
0.0
 11
-36.16302083333336
 21
4.881249999999928
 31
0.0
 12
-36.57968750000001
 22
2.381249999999927
 32
0.0
 13
-36.57968750000001
 23
2.381249999999927
 33
0.0
  0
SOLID
  5
D3
330
C9
100
AcDbEntity
  8
치수문자_일반주서
 62
     0
100
AcDbTrace
 10
-36.16302083333333
 20
-4.881250000000072
 30
0.0
 11
-36.99635416666666
 21
-4.881250000000073
 31
0.0
 12
-36.5796875
 22
-2.381250000000072
 32
0.0
 13
-36.5796875
 23
-2.381250000000072
 33
0.0
  0
MTEXT
  5
D4
330
C9
100
AcDbEntity
  8
치수문자_일반주서
 62
     0
100
AcDbMText
 10
-39.95468750000006
 20
17.63124999999996
 30
0.0
 40
2.5
 41
0.0
 71
     2
 72
     1
  1
\A1;%%c4.76 [3/16]
  7
SLDTEXTSTYLE0
 11
-2.983906501879686E-15
 21
1.0
 31
0.0
 73
     1
 44
1.0
  0
POINT
  5
2C7
330
C9
100
AcDbEntity
  8
Defpoints
 62
     0
100
AcDbPoint
 10
-17.53322801085749
 20
2.381249999999997
 30
0.0
  0
POINT
  5
2C8
330
C9
100
AcDbEntity
  8
Defpoints
 62
     0
100
AcDbPoint
 10
-17.53322801085751
 20
-2.381250000000003
 30
0.0
  0
POINT
  5
2C9
330
C9
100
AcDbEntity
  8
Defpoints
 62
     0
100
AcDbPoint
 10
-36.5796875
 20
-2.381250000000074
 30
0.0
  0
ENDBLK
  5
CB
330
C9
100
AcDbEntity
  8
0
100
AcDbBlockEnd
  0
BLOCK
  5
DF
330
DE
100
AcDbEntity
  8
0
100
AcDbBlockBegin
  2
_D_1
 70
     0
 10
0.0
 20
0.0
 30
0.0
  3
_D_1
  1
_D_1
  0
LINE
  5
E1
330
DE
100
AcDbEntity
  8
치수문자_일반주서
 62
     0
370
    -2
100
AcDbLine
 10
28.63281250000001
 20
-0.5948093509413968
 30
0.0
 11
57.76788705061242
 21
-0.5948093509412882
 31
0.0
  0
LINE
  5
E2
330
DE
100
AcDbEntity
  8
치수문자_일반주서
 62
     0
370
    -2
100
AcDbLine
 10
28.63281250000001
 20
0.5953125000000014
 30
0.0
 11
57.76788705061242
 21
0.5953125000001087
 31
0.0
  0
LINE
  5
E3
330
DE
100
AcDbEntity
  8
치수문자_일반주서
 62
     0
370
    -2
100
AcDbLine
 10
57.76788705061242
 20
0.5953125000001087
 30
0.0
 11
57.76788705061227
 21
25.47031250000012
 31
0.0
  0
LINE
  5
E4
330
DE
100
AcDbEntity
  8
치수문자_일반주서
 62
     0
370
    -2
100
AcDbLine
 10
57.76788705061242
 20
-0.5948093509412882
 30
0.0
 11
57.76788705061242
 21
0.5953125000001087
 31
0.0
  0
LINE
  5
E5
330
DE
100
AcDbEntity
  8
치수문자_일반주서
 62
     0
370
    -2
100
AcDbLine
 10
57.76788705061244
 20
-3.094809350941288
 30
0.0
 11
57.76788705061245
 21
-5.594809350941288
 31
0.0
  0
LINE
  5
E6
330
DE
100
AcDbEntity
  8
치수문자_일반주서
 62
     0
370
    -2
100
AcDbLine
 10
57.7678870506124
 20
3.095312500000109
 30
0.0
 11
57.76788705061239
 21
5.595312500000109
 31
0.0
  0
SOLID
  5
E7
330
DE
100
AcDbEntity
  8
치수문자_일반주서
 62
     0
100
AcDbTrace
 10
58.1845537172791
 20
-3.094809350941286
 30
0.0
 11
57.35122038394577
 21
-3.094809350941291
 31
0.0
 12
57.76788705061242
 22
-0.5948093509412882
 32
0.0
 13
57.76788705061242
 23
-0.5948093509412882
 33
0.0
  0
SOLID
  5
E8
330
DE
100
AcDbEntity
  8
치수문자_일반주서
 62
     0
100
AcDbTrace
 10
57.35122038394574
 20
3.095312500000106
 30
0.0
 11
58.18455371727907
 21
3.095312500000111
 31
0.0
 12
57.76788705061242
 22
0.5953125000001087
 32
0.0
 13
57.76788705061242
 23
0.5953125000001087
 33
0.0
  0
MTEXT
  5
E9
330
DE
100
AcDbEntity
  8
치수문자_일반주서
 62
     0
100
AcDbMText
 10
54.39288705061232
 20
15.53281250000009
 30
0.0
 40
2.5
 41
0.0
 71
     2
 72
     1
  1
\A1;%%c1.19 [3/64]
  7
SLDTEXTSTYLE0
 11
-5.970336022299346E-15
 21
1.0
 31
0.0
 73
     1
 44
1.0
  0
POINT
  5
EA
330
DE
100
AcDbEntity
  8
Defpoints
 62
     0
100
AcDbPoint
 10
28.57031250000001
 20
-0.594809350941397
 30
0.0
  0
POINT
  5
EB
330
DE
100
AcDbEntity
  8
Defpoints
 62
     0
100
AcDbPoint
 10
28.57031250000001
 20
0.5953125000000011
 30
0.0
  0
POINT
  5
EC
330
DE
100
AcDbEntity
  8
Defpoints
 62
     0
100
AcDbPoint
 10
57.76788705061241
 20
0.5953125000001103
 30
0.0
  0
ENDBLK
  5
E0
330
DE
100
AcDbEntity
  8
0
100
AcDbBlockEnd
  0
BLOCK
  5
F3
330
F2
100
AcDbEntity
  8
0
100
AcDbBlockBegin
  2
_D_2
 70
     0
 10
0.0
 20
0.0
 30
0.0
  3
_D_2
  1
_D_2
  0
LINE
  5
F5
330
F2
100
AcDbEntity
  8
치수문자_일반주서
 62
     0
370
    -2
100
AcDbLine
 10
28.57031250000001
 20
0.6575609254706987
 30
0.0
 11
28.57031250000001
 21
10.38125
 31
0.0
  0
LINE
  5
F6
330
F2
100
AcDbEntity
  8
치수문자_일반주서
 62
     0
370
    -2
100
AcDbLine
 10
24.99843750000001
 20
0.6190281455129589
 30
0.0
 11
24.99843750000001
 21
10.38125
 31
0.0
  0
LINE
  5
F7
330
F2
100
AcDbEntity
  8
치수문자_일반주서
 62
     0
370
    -2
100
AcDbLine
 10
28.57031250000001
 20
10.38125
 30
0.0
 11
52.82031250000001
 21
10.38125
 31
0.0
  0
LINE
  5
F8
330
F2
100
AcDbEntity
  8
치수문자_일반주서
 62
     0
370
    -2
100
AcDbLine
 10
28.57031250000001
 20
10.38125
 30
0.0
 11
24.99843750000001
 21
10.38125
 31
0.0
  0
LINE
  5
F9
330
F2
100
AcDbEntity
  8
치수문자_일반주서
 62
     0
370
    -2
100
AcDbLine
 10
31.07031250000001
 20
10.38125
 30
0.0
 11
33.57031250000001
 21
10.38125
 31
0.0
  0
LINE
  5
FA
330
F2
100
AcDbEntity
  8
치수문자_일반주서
 62
     0
370
    -2
100
AcDbLine
 10
22.49843750000001
 20
10.38125
 30
0.0
 11
19.99843750000001
 21
10.38125
 31
0.0
  0
SOLID
  5
FB
330
F2
100
AcDbEntity
  8
치수문자_일반주서
 62
     0
100
AcDbTrace
 10
31.07031250000001
 20
10.79791666666666
 30
0.0
 11
31.07031250000001
 21
9.96458333333333
 31
0.0
 12
28.57031250000001
 22
10.38125
 32
0.0
 13
28.57031250000001
 23
10.38125
 33
0.0
  0
SOLID
  5
FC
330
F2
100
AcDbEntity
  8
치수문자_일반주서
 62
     0
100
AcDbTrace
 10
22.49843750000001
 20
9.96458333333333
 30
0.0
 11
22.49843750000001
 21
10.79791666666666
 31
0.0
 12
24.99843750000001
 22
10.38125
 32
0.0
 13
24.99843750000001
 23
10.38125
 33
0.0
  0
MTEXT
  5
FD
330
F2
100
AcDbEntity
  8
치수문자_일반주서
 62
     0
100
AcDbMText
 10
43.19531250000001
 20
13.75625
 30
0.0
 40
2.5
 41
0.0
 71
     2
 72
     1
  1
\A1;3.57 [9/64]
  7
SLDTEXTSTYLE0
 73
     1
 44
1.0
  0
POINT
  5
FE
330
F2
100
AcDbEntity
  8
Defpoints
 62
     0
100
AcDbPoint
 10
28.57031250000001
 20
0.5950609254706987
 30
0.0
  0
POINT
  5
FF
330
F2
100
AcDbEntity
  8
Defpoints
 62
     0
100
AcDbPoint
 10
24.99843750000001
 20
0.5565281455129589
 30
0.0
  0
POINT
  5
100
330
F2
100
AcDbEntity
  8
Defpoints
 62
     0
100
AcDbPoint
 10
24.99843750000001
 20
10.38125
 30
0.0
  0
ENDBLK
  5
F4
330
F2
100
AcDbEntity
  8
0
100
AcDbBlockEnd
  0
BLOCK
  5
109
330
108
100
AcDbEntity
  8
0
100
AcDbBlockBegin
  2
_D_3
 70
     0
 10
0.0
 20
0.0
 30
0.0
  3
_D_3
  1
_D_3
  0
LINE
  5
10B
330
108
100
AcDbEntity
  8
치수문자_일반주서
 62
     0
370
    -2
100
AcDbLine
 10
-28.57031250000002
 20
0.6573093509414218
 30
0.0
 11
-28.57031250000002
 21
18.38125000000001
 31
0.0
  0
LINE
  5
10C
330
108
100
AcDbEntity
  8
치수문자_일반주서
 62
     0
370
    -2
100
AcDbLine
 10
28.57031250000001
 20
0.6575609254706987
 30
0.0
 11
28.57031250000001
 21
18.38125000000001
 31
0.0
  0
LINE
  5
10D
330
108
100
AcDbEntity
  8
치수문자_일반주서
 62
     0
370
    -2
100
AcDbLine
 10
-26.07031250000002
 20
18.38125000000001
 30
0.0
 11
26.07031250000001
 21
18.38125000000001
 31
0.0
  0
SOLID
  5
10E
330
108
100
AcDbEntity
  8
치수문자_일반주서
 62
     0
100
AcDbTrace
 10
-26.07031250000002
 20
18.79791666666668
 30
0.0
 11
-26.07031250000002
 21
17.96458333333334
 31
0.0
 12
-28.57031250000002
 22
18.38125000000001
 32
0.0
 13
-28.57031250000002
 23
18.38125000000001
 33
0.0
  0
SOLID
  5
10F
330
108
100
AcDbEntity
  8
치수문자_일반주서
 62
     0
100
AcDbTrace
 10
26.07031250000001
 20
17.96458333333334
 30
0.0
 11
26.07031250000001
 21
18.79791666666668
 31
0.0
 12
28.57031250000001
 22
18.38125000000001
 32
0.0
 13
28.57031250000001
 23
18.38125000000001
 33
0.0
  0
MTEXT
  5
110
330
108
100
AcDbEntity
  8
치수문자_일반주서
 62
     0
100
AcDbMText
 10
-1.495312499999986
 20
21.75625000000001
 30
0.0
 40
2.5
 41
0.0
 71
     2
 72
     1
  1
\A1;57.14 [2 1/4]
  7
SLDTEXTSTYLE0
 73
     1
 44
1.0
  0
POINT
  5
111
330
108
100
AcDbEntity
  8
Defpoints
 62
     0
100
AcDbPoint
 10
-28.57031250000002
 20
0.5948093509414218
 30
0.0
  0
POINT
  5
112
330
108
100
AcDbEntity
  8
Defpoints
 62
     0
100
AcDbPoint
 10
28.57031250000001
 20
0.5950609254706987
 30
0.0
  0
POINT
  5
113
330
108
100
AcDbEntity
  8
Defpoints
 62
     0
100
AcDbPoint
 10
28.57031250000001
 20
18.38125000000001
 30
0.0
  0
ENDBLK
  5
10A
330
108
100
AcDbEntity
  8
0
100
AcDbBlockEnd
  0
BLOCK
  5
122
330
121
100
AcDbEntity
  8
0
100
AcDbBlockBegin
  2
SW_DOWELSYMBOL_0
 70
     0
 10
0.0
 20
0.0
 30
0.0
  3
SW_DOWELSYMBOL_0
  1
SW_DOWELSYMBOL_0
  0
CIRCLE
  5
124
330
121
100
AcDbEntity
  8
해칭선
 62
     0
100
AcDbCircle
 10
0.0
 20
0.0
 30
0.0
 40
3.000000000000003
  0
HATCH
  5
125
330
121
100
AcDbEntity
  8
0
  6
Continuous
 62
     0
370
     0
100
AcDbHatch
 10
0.0
 20
0.0
 30
0.0
210
0.0
220
0.0
230
1.0
  2
SOLID
 70
     1
 71
     0
 91
        1
 92
        0
 93
        3
 72
     2
 10
0.0
 20
0.0
 40
3.000000000000003
 50
0.0
 51
90.0
 73
     1
 72
     1
 10
0.0
 20
3.000000000000003
 11
0.0
 21
0.0
 72
     1
 10
0.0
 20
0.0
 11
3.000000000000003
 21
0.0
 97
        0
 75
     0
 76
     1
 98
        1
 10
0.0
 20
0.0
  0
HATCH
  5
126
330
121
100
AcDbEntity
  8
0
  6
Continuous
 62
     0
370
     0
100
AcDbHatch
 10
0.0
 20
0.0
 30
0.0
210
0.0
220
0.0
230
1.0
  2
SOLID
 70
     1
 71
     0
 91
        1
 92
        0
 93
        3
 72
     2
 10
0.0
 20
0.0
 40
3.000000000000003
 50
180.0
 51
270.0000000000007
 73
     1
 72
     1
 10
0.0
 20
-3.000000000000003
 11
0.0
 21
0.0
 72
     1
 10
0.0
 20
0.0
 11
-3.000000000000003
 21
0.0
 97
        0
 75
     0
 76
     1
 98
        1
 10
0.0
 20
0.0
  0
ENDBLK
  5
123
330
121
100
AcDbEntity
  8
0
100
AcDbBlockEnd
  0
BLOCK
  5
185
330
184
100
AcDbEntity
  8
0
100
AcDbBlockBegin
  2
*D7
 70
     1
 10
0.0
 20
0.0
 30
0.0
  3
*D7
  1
*D7
  0
LINE
  5
187
330
184
100
AcDbEntity
  8
치수문자_일반주서
 62
     0
370
    -2
100
AcDbLine
 10
7.381249999999984
 20
0.7853214860538494
 30
0.0
 11
7.381249999999984
 21
10.31324042902825
 31
0.0
  0
LINE
  5
188
330
184
100
AcDbEntity
  8
치수문자_일반주서
 62
     0
370
    -2
100
AcDbLine
 10
4.999999999999998
 20
0.7641000406186218
 30
0.0
 11
4.999999999999996
 21
10.31324042902825
 31
0.0
  0
LINE
  5
189
330
184
100
AcDbEntity
  8
치수문자_일반주서
 62
     0
370
    -2
100
AcDbLine
 10
7.381249999999984
 20
10.31324042902825
 30
0.0
 11
31.63124999999998
 21
10.31324042902825
 31
0.0
  0
LINE
  5
18A
330
184
100
AcDbEntity
  8
치수문자_일반주서
 62
     0
370
    -2
100
AcDbLine
 10
7.381249999999984
 20
10.31324042902825
 30
0.0
 11
4.999999999999996
 21
10.31324042902825
 31
0.0
  0
LINE
  5
18B
330
184
100
AcDbEntity
  8
치수문자_일반주서
 62
     0
370
    -2
100
AcDbLine
 10
9.881249999999984
 20
10.31324042902825
 30
0.0
 11
12.38124999999998
 21
10.31324042902825
 31
0.0
  0
LINE
  5
18C
330
184
100
AcDbEntity
  8
치수문자_일반주서
 62
     0
370
    -2
100
AcDbLine
 10
2.499999999999996
 20
10.31324042902825
 30
0.0
 11
-0.0000000000000036
 21
10.31324042902825
 31
0.0
  0
SOLID
  5
18D
330
184
100
AcDbEntity
  8
치수문자_일반주서
 62
     0
100
AcDbTrace
 10
9.881249999999984
 20
10.72990709569492
 30
0.0
 11
9.881249999999984
 21
9.896573762361584
 31
0.0
 12
7.381249999999984
 22
10.31324042902825
 32
0.0
 13
7.381249999999984
 23
10.31324042902825
 33
0.0
  0
SOLID
  5
18E
330
184
100
AcDbEntity
  8
치수문자_일반주서
 62
     0
100
AcDbTrace
 10
2.499999999999996
 20
9.896573762361584
 30
0.0
 11
2.499999999999996
 21
10.72990709569492
 31
0.0
 12
4.999999999999996
 22
10.31324042902825
 32
0.0
 13
4.999999999999996
 23
10.31324042902825
 33
0.0
  0
MTEXT
  5
18F
330
184
100
AcDbEntity
  8
치수문자_일반주서
 62
     0
100
AcDbMText
 10
22.00624999999998
 20
13.68824042902825
 30
0.0
 40
2.5
 41
0.0
 71
     2
 72
     1
  1
\A1;2.38 [3/32]
  7
SLDTEXTSTYLE0
 73
     1
 44
1.0
  0
POINT
  5
190
330
184
100
AcDbEntity
  8
Defpoints
 62
     0
100
AcDbPoint
 10
7.381249999999984
 20
0.7228214860538494
 30
0.0
  0
POINT
  5
191
330
184
100
AcDbEntity
  8
Defpoints
 62
     0
100
AcDbPoint
 10
4.999999999999998
 20
0.7016000406186218
 30
0.0
  0
POINT
  5
192
330
184
100
AcDbEntity
  8
Defpoints
 62
     0
100
AcDbPoint
 10
4.999999999999998
 20
10.31324042902825
 30
0.0
  0
ENDBLK
  5
186
330
184
100
AcDbEntity
  8
0
100
AcDbBlockEnd
  0
BLOCK
  5
197
330
196
100
AcDbEntity
  8
0
100
AcDbBlockBegin
  2
*D8
 70
     1
 10
0.0
 20
0.0
 30
0.0
  3
*D8
  1
*D8
  0
LINE
  5
199
330
196
100
AcDbEntity
  8
치수문자_일반주서
 62
     0
370
    -2
100
AcDbLine
 10
54.80836101666729
 20
-11.65211611687686
 30
0.0
 11
54.80836101666729
 21
-2.124197173902465
 31
0.0
  0
LINE
  5
19A
330
196
100
AcDbEntity
  8
치수문자_일반주서
 62
     0
370
    -2
100
AcDbLine
 10
52.42711101666731
 20
-11.67333756231209
 30
0.0
 11
52.42711101666731
 21
-2.124197173902465
 31
0.0
  0
LINE
  5
19B
330
196
100
AcDbEntity
  8
치수문자_일반주서
 62
     0
370
    -2
100
AcDbLine
 10
54.80836101666729
 20
-2.124197173902465
 30
0.0
 11
79.05836101666729
 21
-2.124197173902465
 31
0.0
  0
LINE
  5
19C
330
196
100
AcDbEntity
  8
치수문자_일반주서
 62
     0
370
    -2
100
AcDbLine
 10
54.80836101666729
 20
-2.124197173902465
 30
0.0
 11
52.42711101666731
 21
-2.124197173902465
 31
0.0
  0
LINE
  5
19D
330
196
100
AcDbEntity
  8
치수문자_일반주서
 62
     0
370
    -2
100
AcDbLine
 10
57.30836101666729
 20
-2.124197173902465
 30
0.0
 11
59.80836101666729
 21
-2.124197173902465
 31
0.0
  0
LINE
  5
19E
330
196
100
AcDbEntity
  8
치수문자_일반주서
 62
     0
370
    -2
100
AcDbLine
 10
49.92711101666731
 20
-2.124197173902465
 30
0.0
 11
47.42711101666731
 21
-2.124197173902465
 31
0.0
  0
SOLID
  5
19F
330
196
100
AcDbEntity
  8
치수문자_일반주서
 62
     0
100
AcDbTrace
 10
57.30836101666729
 20
-1.707530507235798
 30
0.0
 11
57.30836101666729
 21
-2.540863840569131
 31
0.0
 12
54.80836101666729
 22
-2.124197173902465
 32
0.0
 13
54.80836101666729
 23
-2.124197173902465
 33
0.0
  0
SOLID
  5
1A0
330
196
100
AcDbEntity
  8
치수문자_일반주서
 62
     0
100
AcDbTrace
 10
49.92711101666731
 20
-2.540863840569131
 30
0.0
 11
49.92711101666731
 21
-1.707530507235798
 31
0.0
 12
52.42711101666731
 22
-2.124197173902465
 32
0.0
 13
52.42711101666731
 23
-2.124197173902465
 33
0.0
  0
MTEXT
  5
1A1
330
196
100
AcDbEntity
  8
치수문자_일반주서
 62
     0
100
AcDbMText
 10
69.43336101666729
 20
1.250802826097535
 30
0.0
 40
2.5
 41
0.0
 71
     2
 72
     1
  1
\A1;2.38 [3/32]
  7
SLDTEXTSTYLE0
 73
     1
 44
1.0
  0
POINT
  5
1A2
330
196
100
AcDbEntity
  8
Defpoints
 62
     0
100
AcDbPoint
 10
54.80836101666729
 20
-11.71461611687686
 30
0.0
  0
POINT
  5
1A3
330
196
100
AcDbEntity
  8
Defpoints
 62
     0
100
AcDbPoint
 10
52.42711101666731
 20
-11.73583756231209
 30
0.0
  0
POINT
  5
1A4
330
196
100
AcDbEntity
  8
Defpoints
 62
     0
100
AcDbPoint
 10
52.42711101666731
 20
-2.124197173902465
 30
0.0
  0
ENDBLK
  5
198
330
196
100
AcDbEntity
  8
0
100
AcDbBlockEnd
  0
ENDSEC
  0
SECTION
  2
ENTITIES
  0
LINE
  5
96
330
1F
100
AcDbEntity
  8
외형선
  6
Continuous
370
    15
100
AcDbLine
 10
17.53322801085748
 20
-2.38125
 30
0.0
 11
24.19843750000001
 21
-0.5953124999999994
 31
0.0
  0
LINE
  5
97
330
1F
100
AcDbEntity
  8
외형선
  6
Continuous
370
    15
100
AcDbLine
 10
24.19848710611481
 20
0.595299208081601
 30
0.0
 11
17.53322801085748
 21
2.38125
 31
0.0
  0
LINE
  5
98
330
1F
100
AcDbEntity
  8
외형선
  6
Continuous
370
    15
100
AcDbLine
 10
17.53322801085748
 20
2.381249999999999
 30
0.0
 11
-17.53322801085749
 21
2.381249999999997
 31
0.0
  0
LINE
  5
99
330
1F
100
AcDbEntity
  8
외형선
  6
Continuous
370
    15
100
AcDbLine
 10
-17.53322801085748
 20
-2.381250000000001
 30
0.0
 11
17.53322801085748
 21
-2.381249999999999
 31
0.0
  0
LINE
  5
9C
330
1F
100
AcDbEntity
  8
외형선
  6
Continuous
370
    15
100
AcDbLine
 10
24.19843750000001
 20
-0.5953124999999994
 30
0.0
 11
24.99843750000001
 21
-0.5953124999999994
 31
0.0
  0
SPLINE
  5
9D
330
1F
100
AcDbEntity
  8
외형선
  6
Continuous
370
    15
100
AcDbSpline
210
0.0
220
0.0
230
1.0
 70
     8
 71
     3
 72
    10
 73
     6
 74
     0
 42
0.000000001
 43
0.00000001
 40
0.0
 40
0.0
 40
0.0
 40
0.0
 40
0.4369620015572632
 40
0.6153156050055703
 40
1.0
 40
1.0
 40
1.0
 40
1.0
 10
24.99843750000046
 20
0.3990785727998931
 30
0.0
 10
24.88168624834249
 20
0.3949113096919246
 30
0.0
 10
24.71728095270338
 20
0.3890431060235079
 30
0.0
 10
24.45083575817151
 20
0.4007391160461836
 30
0.0
 10
24.30090794604934
 20
0.4176451164049415
 30
0.0
 10
24.19847278206648
 20
0.4291958013281114
 30
0.0
  0
LINE
  5
9E
330
1F
100
AcDbEntity
  8
0
  6
Continuous
 62
     1
370
    25
100
AcDbLine
 10
26.74507738162909
 20
0.1436606790610638
 30
0.0
 11
26.69309380114481
 21
0.1709498471244592
 31
0.0
1001
PE_URL
1000

  0
LINE
  5
9F
330
1F
100
AcDbEntity
  8
0
  6
Continuous
 62
     1
370
    25
100
AcDbLine
 10
24.99843750000001
 20
-0.5953124999999998
 30
0.0
 11
25.66217314307171
 21
-0.5953124999999998
 31
0.0
1001
PE_URL
1000

  0
SPLINE
  5
A1
330
1F
100
AcDbEntity
  8
0
  6
Continuous
 62
     1
370
    25
100
AcDbSpline
210
0.0
220
0.0
230
1.0
 70
     8
 71
     3
 72
     9
 73
     5
 74
     0
 42
0.000000001
 43
0.00000001
 40
0.0
 40
0.0
 40
0.0
 40
0.0
 40
0.4363731147909193
 40
0.9999999999999999
 40
0.9999999999999999
 40
0.9999999999999999
 40
0.9999999999999999
 10
25.93559610270947
 20
-0.4953428073088068
 30
0.0
 10
26.06578759058174
 20
-0.4841902935445584
 30
0.0
 10
26.36413660306533
 20
-0.4586330046414788
 30
0.0
 10
26.66257856787672
 20
-0.4678695430457868
 30
0.0
 10
26.83078848291905
 20
-0.473075504416721
 30
0.0
1001
PE_URL
1000

  0
LINE
  5
A3
330
1F
100
AcDbEntity
  8
0
  6
Continuous
 62
     1
370
    25
100
AcDbLine
 10
25.26972950158903
 20
0.4159677585341732
 30
0.0
 11
24.99843750000002
 21
0.3990785727998666
 31
0.0
1001
PE_URL
1000

  0
ELLIPSE
  5
A4
330
1F
100
AcDbEntity
  8
외형선
  6
Continuous
370
    15
100
AcDbEllipse
 10
24.19847414059286
 20
-0.0000034740729681
 30
0.0
 11
1.296541683792896E-5
 21
0.5953026821686526
 31
0.0
210
0.0
220
0.0
230
1.0
 40
0.0000256716235689
 41
4.561066733488731
 42
6.283178429706354
  0
LINE
  5
A5
330
1F
100
AcDbEntity
  8
외형선
  6
Continuous
370
    15
100
AcDbLine
 10
24.19843750000001
 20
-0.0897446256632286
 30
0.0
 11
24.19843750000001
 21
-0.5953124999999994
 31
0.0
  0
LINE
  5
A6
330
1F
100
AcDbEntity
  8
외형선
  6
Continuous
370
    15
100
AcDbLine
 10
17.53322801085748
 20
2.38125
 30
0.0
 11
17.53322801085748
 21
-2.381250000000002
 31
0.0
  0
SPLINE
  5
A9
330
1F
100
AcDbEntity
  8
외형선
  6
Continuous
370
    15
100
AcDbSpline
210
0.0
220
0.0
230
1.0
 70
     8
 71
     3
 72
    12
 73
     8
 74
     0
 42
0.000000001
 43
0.00000001
 40
0.0
 40
0.0
 40
0.0
 40
0.0
 40
0.25
 40
0.25
 40
0.5
 40
0.5
 40
1.0
 40
1.0
 40
1.0
 40
1.0
 10
24.99843750000001
 20
-0.4765085817262449
 30
0.0
 10
24.93129723215853
 20
-0.4533576703916761
 30
0.0
 10
24.86655577379545
 20
-0.4275057173446546
 30
0.0
 10
24.73382290278271
 20
-0.3703935937379464
 30
0.0
 10
24.66591221650759
 20
-0.3390943392394783
 30
0.0
 10
24.46325855562046
 20
-0.2394916707187871
 30
0.0
 10
24.33368067434943
 20
-0.166289522142149
 30
0.0
 10
24.19849527812438
 20
-0.0897572354949753
 30
0.0
  0
LINE
  5
AA
330
1F
100
AcDbEntity
  8
외형선
  6
Continuous
370
    15
100
AcDbLine
 10
24.99843750000001
 20
-0.4765085817262449
 30
0.0
 11
24.99843750000001
 21
-0.5953124999999994
 31
0.0
  0
SPLINE
  5
AB
330
1F
100
AcDbEntity
  8
외형선
  6
Continuous
370
    15
100
AcDbSpline
210
0.0
220
0.0
230
1.0
 70
     8
 71
     3
 72
     9
 73
     5
 74
     0
 42
0.000000001
 43
0.00000001
 40
0.0
 40
0.0
 40
0.0
 40
0.0
 40
0.2554322162839175
 40
1.0
 40
1.0
 40
1.0
 40
1.0
 10
24.52631542678765
 20
0.3984709425787346
 30
0.0
 10
24.56655709182987
 20
0.4176837699517301
 30
0.0
 10
24.72410051226316
 20
0.49290070089532
 30
0.0
 10
24.88135263528041
 20
0.5293724535045004
 30
0.0
 10
24.99843750000001
 20
0.5565281455129589
 30
0.0
  0
SPLINE
  5
AC
330
1F
100
AcDbEntity
  8
외형선
  6
Continuous
370
    15
100
AcDbSpline
210
0.0
220
0.0
230
1.0
 70
    24
 71
     3
 72
     8
 73
     4
 74
     0
 42
0.000000001
 43
0.00000001
 40
0.0
 40
0.0
 40
0.0
 40
0.0
 40
1.0
 40
1.0
 40
1.0
 40
1.0
 10
24.99843750000002
 20
-0.3860144934515758
 30
0.0
 10
24.99843750000002
 20
-0.4152268618119869
 30
0.0
 10
24.99843750000002
 20
-0.4455812015497307
 30
0.0
 10
24.99843750000002
 20
-0.4765085817278977
 30
0.0
  0
SPLINE
  5
AD
330
1F
100
AcDbEntity
  8
외형선
  6
Continuous
370
    15
100
AcDbSpline
210
0.0
220
0.0
230
1.0
 70
     8
 71
     3
 72
    12
 73
     8
 74
     0
 42
0.000000001
 43
0.00000001
 40
0.0
 40
0.0
 40
0.0
 40
0.0
 40
0.25
 40
0.25
 40
0.5
 40
0.5
 40
1.0
 40
1.0
 40
1.0
 40
1.0
 10
24.9984375000001
 20
-0.3860144934516052
 30
0.0
 10
24.93129723215862
 20
-0.3647882084224178
 30
0.0
 10
24.86655577379553
 20
-0.3414033768955121
 30
0.0
 10
24.73382290278277
 20
-0.2903045246790671
 30
0.0
 10
24.66591221650765
 20
-0.2625606252395484
 30
0.0
 10
24.46325855562049
 20
-0.174995947516303
 30
0.0
 10
24.33368067434945
 20
-0.1115372235861725
 30
0.0
 10
24.19849527812438
 20
-0.0460050520463531
 30
0.0
  0
SPLINE
  5
AE
330
1F
100
AcDbEntity
  8
외형선
  6
Continuous
370
    15
100
AcDbSpline
210
0.0
220
0.0
230
1.0
 70
    24
 71
     3
 72
    10
 73
     6
 74
     0
 42
0.000000001
 43
0.00000001
 40
0.0
 40
0.0
 40
0.0
 40
0.0
 40
0.5
 40
0.5
 40
1.0
 40
1.0
 40
1.0
 40
1.0
 10
24.99843750000002
 20
0.1506446875972458
 30
0.0
 10
24.99843750000002
 20
0.0607631573994328
 30
0.0
 10
24.99843750000002
 20
-0.0376337755325218
 30
0.0
 10
24.99843750000002
 20
-0.2252227521337141
 30
0.0
 10
24.99843750000002
 20
-0.313607339513982
 30
0.0
 10
24.99843750000002
 20
-0.3860144934515757
 30
0.0
  0
SPLINE
  5
AF
330
1F
100
AcDbEntity
  8
외형선
  6
Continuous
370
    15
100
AcDbSpline
210
0.0
220
0.0
230
1.0
 70
     8
 71
     3
 72
    12
 73
     8
 74
     0
 42
0.000000001
 43
0.00000001
 40
0.0
 40
0.0
 40
0.0
 40
0.0
 40
0.2500000000000001
 40
0.2500000000000001
 40
0.5000000000000001
 40
0.5000000000000001
 40
1.0
 40
1.0
 40
1.0
 40
1.0
 10
24.99843750000002
 20
0.1506446875972457
 30
0.0
 10
24.93129567438887
 20
0.179956635092413
 30
0.0
 10
24.86655276524938
 20
0.2079769033252758
 30
0.0
 10
24.73381667243126
 20
0.2615377513877948
 30
0.0
 10
24.66590434603127
 20
0.2870395377030661
 30
0.0
 10
24.4632460850997
 20
0.3574658661350018
 30
0.0
 10
24.33366507787525
 20
0.3959444785655492
 30
0.0
 10
24.19847645891643
 20
0.4241192531320198
 30
0.0
  0
SPLINE
  5
B0
330
1F
100
AcDbEntity
  8
외형선
  6
Continuous
370
    15
100
AcDbSpline
210
0.0
220
0.0
230
1.0
 70
    24
 71
     3
 72
    12
 73
     8
 74
     0
 42
0.000000001
 43
0.00000001
 40
0.0
 40
0.0
 40
0.0
 40
0.0
 40
0.0597046504480201
 40
0.2509650304316358
 40
0.4368351639495018
 40
0.6280955439350555
 40
1.0
 40
1.0
 40
1.0
 40
1.0
 10
24.99843750000002
 20
0.3971062146353873
 30
0.0
 10
24.99843750000002
 20
0.3975917232027761
 30
0.0
 10
24.99843750000002
 20
0.3996325302668032
 30
0.0
 10
24.99843750000001
 20
0.3843555367552204
 30
0.0
 10
24.99843750000001
 20
0.3508094055789795
 30
0.0
 10
24.99843750000001
 20
0.2837031941162722
 30
0.0
 10
24.99843750000001
 20
0.2035659544049928
 30
0.0
 10
24.99843750000001
 20
0.1506446875972461
 30
0.0
  0
SPLINE
  5
B1
330
1F
100
AcDbEntity
  8
외형선
  6
Continuous
370
    15
100
AcDbSpline
210
0.0
220
0.0
230
1.0
 70
    24
 71
     3
 72
     8
 73
     4
 74
     0
 42
0.000000001
 43
0.00000001
 40
0.0
 40
0.0
 40
0.0
 40
0.0
 40
1.0
 40
1.0
 40
1.0
 40
1.0
 10
24.99843750000016
 20
0.5565281455129607
 30
0.0
 10
24.99843750000016
 20
0.4951355603800773
 30
0.0
 10
24.99843750000016
 20
0.4340226400434392
 30
0.0
 10
24.99843750000016
 20
0.3953220955226474
 30
0.0
  0
SPLINE
  5
B2
330
1F
100
AcDbEntity
  8
0
  6
Continuous
 62
     1
370
    25
100
AcDbSpline
210
0.0
220
0.0
230
1.0
 70
     8
 71
     3
 72
    34
 73
    30
 74
     0
 42
0.000000001
 43
0.00000001
 40
0.0
 40
0.0
 40
0.0
 40
0.0
 40
0.1250000000000001
 40
0.1250000000000001
 40
0.25
 40
0.25
 40
0.3124999999999999
 40
0.3124999999999999
 40
0.3749999999999999
 40
0.3749999999999999
 40
0.4374999999999999
 40
0.4374999999999999
 40
0.4999999999999998
 40
0.4999999999999998
 40
0.5624999999999998
 40
0.5624999999999998
 40
0.6249999999999997
 40
0.6249999999999997
 40
0.6874999999999997
 40
0.6874999999999997
 40
0.7499999999999997
 40
0.7499999999999997
 40
0.8124999999999998
 40
0.8124999999999998
 40
0.8749999999999999
 40
0.8749999999999999
 40
0.9374999999999999
 40
0.9374999999999999
 40
1.0
 40
1.0
 40
1.0
 40
1.0
 10
28.57031250000001
 20
-0.5948093509413965
 30
0.0
 10
28.42525767471946
 20
-0.5913079073790268
 30
0.0
 10
28.26939727249182
 20
-0.5686027753628922
 30
0.0
 10
27.9777781331966
 20
-0.4906878296756441
 30
0.0
 10
27.82345599637027
 20
-0.434051801668861
 30
0.0
 10
27.60368694048329
 20
-0.3330683145206199
 30
0.0
 10
27.53017470326594
 20
-0.2965320070875367
 30
0.0
 10
27.37968086546331
 20
-0.2187983487547382
 30
0.0
 10
27.30395521146354
 20
-0.1778042201440654
 30
0.0
 10
27.15679184787081
 20
-0.0944824863751997
 30
0.0
 10
27.08391219104521
 20
-0.0518991427670792
 30
0.0
 10
26.93359111900632
 20
0.0342874842798893
 30
0.0
 10
26.85775295537434
 20
0.0775743927281401
 30
0.0
 10
26.70999221128422
 20
0.1615333994539102
 30
0.0
 10
26.63759884675031
 20
0.2023149645754398
 30
0.0
 10
26.48750778651165
 20
0.2810480390019867
 30
0.0
 10
26.41158658837436
 20
0.3186424395743712
 30
0.0
 10
26.2632824854981
 20
0.3877194688682528
 30
0.0
 10
26.19122851966578
 20
0.4192138697733137
 30
0.0
 10
26.04142442482639
 20
0.4759789451539436
 30
0.0
 10
25.9654497762974
 20
0.5009416852383197
 30
0.0
 10
25.8166570149472
 20
0.5423358353300939
 30
0.0
 10
25.74479513110217
 20
0.5587758367474739
 30
0.0
 10
25.59533459118049
 20
0.5831332735369693
 30
0.0
 10
25.51933614660878
 20
0.5908554254843648
 30
0.0
 10
25.37011003999317
 20
0.5968615317291084
 30
0.0
 10
25.29829268176053
 20
0.5952391816748107
 30
0.0
 10
25.14923185151887
 20
0.5827494189950555
 30
0.0
 10
25.07323929654208
 20
0.5718053891532953
 30
0.0
 10
24.99843750000002
 20
0.5565281455129599
 30
0.0
1001
PE_URL
1000

  0
SPLINE
  5
B3
330
1F
100
AcDbEntity
  8
0
  6
Continuous
 62
     1
370
    25
100
AcDbSpline
210
0.0
220
0.0
230
1.0
 70
     8
 71
     3
 72
    12
 73
     8
 74
     0
 42
0.000000001
 43
0.00000001
 40
0.0
 40
0.0
 40
0.0
 40
0.0
 40
0.0850838583326365
 40
0.3863843846680998
 40
0.6871675888067618
 40
0.9872854060262353
 40
1.0
 40
1.0
 40
1.0
 40
1.0
 10
27.08506975856226
 20
-0.051736568792415
 30
0.0
 10
27.0335494152982
 20
-0.0319098453845329
 30
0.0
 10
26.79958428348496
 20
0.058127636155025
 30
0.0
 10
26.38348200325211
 20
0.2302430857669876
 30
0.0
 10
25.8373105000904
 20
0.3803329715549104
 30
0.0
 10
25.46585915627125
 20
0.4294599348875631
 30
0.0
 10
25.27657733989392
 20
0.4153287123036442
 30
0.0
 10
25.26888427051957
 20
0.4147543704161714
 30
0.0
1001
PE_URL
1000

  0
SPLINE
  5
B4
330
1F
100
AcDbEntity
  8
외형선
  6
Continuous
370
    15
100
AcDbSpline
210
0.0
220
0.0
230
1.0
 70
    24
 71
     3
 72
     8
 73
     4
 74
     0
 42
0.000000001
 43
0.00000001
 40
0.0
 40
0.0
 40
0.0
 40
0.0
 40
1.0
 40
1.0
 40
1.0
 40
1.0
 10
24.99843750000016
 20
0.5565281455129604
 30
0.0
 10
24.99843750000016
 20
0.4951355603800772
 30
0.0
 10
24.99843750000016
 20
0.4340226400434392
 30
0.0
 10
24.99843750000016
 20
0.3953220955226475
 30
0.0
  0
SPLINE
  5
B5
330
1F
100
AcDbEntity
  8
0
  6
Continuous
 62
     1
370
    25
100
AcDbSpline
210
0.0
220
0.0
230
1.0
 70
     8
 71
     3
 72
    11
 73
     7
 74
     0
 42
0.000000001
 43
0.00000001
 40
0.0
 40
0.0
 40
0.0
 40
0.0
 40
0.1105677099310386
 40
0.4071557084826714
 40
0.7039381978200466
 40
1.0
 40
1.0
 40
1.0
 40
1.0
 10
26.32563122700624
 20
-0.4685490249203303
 30
0.0
 10
26.27673524925465
 20
-0.4875263126628486
 30
0.0
 10
26.09668018185914
 20
-0.5574084784479925
 30
0.0
 10
25.78518403356143
 20
-0.6019485021016819
 30
0.0
 10
25.39154420276637
 20
-0.593010700805995
 30
0.0
 10
25.12936682953822
 20
-0.5153111364360855
 30
0.0
 10
24.99843750000033
 20
-0.4765085817263546
 30
0.0
1001
PE_URL
1000

  0
LINE
  5
B6
330
1F
100
AcDbEntity
  8
0
  6
Continuous
 62
     1
370
    25
100
AcDbLine
 10
28.57031250000001
 20
-0.594809350941397
 30
0.0
 11
28.57031250000001
 21
0.5953125000000011
 31
0.0
1001
PE_URL
1000

  0
SPLINE
  5
B7
330
1F
100
AcDbEntity
  8
0
  6
Continuous
 62
     1
370
    25
100
AcDbSpline
210
0.0
220
0.0
230
1.0
 70
     8
 71
     3
 72
    10
 73
     6
 74
     0
 42
0.000000001
 43
0.00000001
 40
0.0
 40
0.0
 40
0.0
 40
0.0
 40
0.1073350994299025
 40
0.6873988435040824
 40
1.0
 40
1.0
 40
1.0
 40
1.0
 10
25.93779409232282
 20
-0.485037769514319
 30
0.0
 10
25.90417075189137
 20
-0.4915979764990671
 30
0.0
 10
25.6888390901136
 20
-0.53361106185898
 30
0.0
 10
25.37567418694233
 20
-0.4897832927716947
 30
0.0
 10
25.09627865624895
 20
-0.412928257832075
 30
0.0
 10
24.9984375000001
 20
-0.3860144934516052
 30
0.0
1001
PE_URL
1000

  0
SPLINE
  5
B8
330
1F
100
AcDbEntity
  8
0
  6
Continuous
 62
     1
370
    25
100
AcDbSpline
210
0.0
220
0.0
230
1.0
 70
     8
 71
     3
 72
    13
 73
     9
 74
     0
 42
0.000000001
 43
0.00000001
 40
0.0
 40
0.0
 40
0.0
 40
0.0
 40
0.0016017008536452
 40
0.1957231533873914
 40
0.3898343973729596
 40
0.5932254170888128
 40
0.7966140179009822
 40
1.0
 40
1.0
 40
1.0
 40
1.0
 10
27.30907691382892
 20
-0.4473288563138267
 30
0.0
 10
27.75480897556348
 20
-0.4011892311110857
 30
0.0
 10
27.15710874342977
 20
-0.4845571778770474
 30
0.0
 10
26.85687768174578
 20
-0.4835161487058088
 30
0.0
 10
26.401279808795
 20
-0.4258199997932738
 30
0.0
 10
25.93840355670243
 20
-0.2741053902535663
 30
0.0
 10
25.46842301169311
 20
-0.0645283295868538
 30
0.0
 10
25.15509866486309
 20
0.0789206563654585
 30
0.0
 10
24.99843750000002
 20
0.1506446875972457
 30
0.0
1001
PE_URL
1000

  0
SPLINE
  5
B9
330
1F
100
AcDbEntity
  8
외형선
  6
Continuous
370
    15
100
AcDbSpline
210
0.0
220
0.0
230
1.0
 70
    24
 71
     3
 72
    10
 73
     6
 74
     0
 42
0.000000001
 43
0.00000001
 40
0.0
 40
0.0
 40
0.0
 40
0.0
 40
0.5
 40
0.5
 40
1.0
 40
1.0
 40
1.0
 40
1.0
 10
24.99843750000002
 20
0.1506446875972458
 30
0.0
 10
24.99843750000002
 20
0.0607631573994328
 30
0.0
 10
24.99843750000002
 20
-0.0376337755325218
 30
0.0
 10
24.99843750000002
 20
-0.2252227521337141
 30
0.0
 10
24.99843750000002
 20
-0.313607339513982
 30
0.0
 10
24.99843750000002
 20
-0.3860144934515757
 30
0.0
  0
SPLINE
  5
BA
330
1F
100
AcDbEntity
  8
외형선
  6
Continuous
370
    15
100
AcDbSpline
210
0.0
220
0.0
230
1.0
 70
    24
 71
     3
 72
    12
 73
     8
 74
     0
 42
0.000000001
 43
0.00000001
 40
0.0
 40
0.0
 40
0.0
 40
0.0
 40
0.0575914491920363
 40
0.2492816639880794
 40
0.435569518384589
 40
0.6272597331825741
 40
1.0
 40
1.0
 40
1.0
 40
1.0
 10
24.99843750000002
 20
0.3971379238096691
 30
0.0
 10
24.99843750000002
 20
0.3975997235377803
 30
0.0
 10
24.99843750000002
 20
0.3995986002159648
 30
0.0
 10
24.99843750000001
 20
0.3843391733769722
 30
0.0
 10
24.99843750000001
 20
0.3508137653126628
 30
0.0
 10
24.99843750000001
 20
0.2837008220739569
 30
0.0
 10
24.99843750000001
 20
0.2035650109742606
 30
0.0
 10
24.99843750000001
 20
0.1506446875972461
 30
0.0
  0
SPLINE
  5
BB
330
1F
100
AcDbEntity
  8
외형선
  6
Continuous
370
    15
100
AcDbSpline
210
0.0
220
0.0
230
1.0
 70
    24
 71
     3
 72
     8
 73
     4
 74
     0
 42
0.000000001
 43
0.00000001
 40
0.0
 40
0.0
 40
0.0
 40
0.0
 40
1.0
 40
1.0
 40
1.0
 40
1.0
 10
24.99843750000002
 20
-0.3860144934515758
 30
0.0
 10
24.99843750000002
 20
-0.4152268618119869
 30
0.0
 10
24.99843750000002
 20
-0.4455812015497305
 30
0.0
 10
24.99843750000002
 20
-0.4765085817278975
 30
0.0
  0
LINE
  5
BC
330
1F
100
AcDbEntity
  8
중심선
 62
     1
100
AcDbLine
 10
-30.0796875
 20
-0.0000000000000041
 30
0.0
 11
30.0796875
 21
0.0000000000000041
 31
0.0
  0
LINE
  5
BD
330
1F
100
AcDbEntity
  8
참조1
100
AcDbLine
 10
-0.75
 20
-0.0000000000000037
 30
0.0
 11
-0.7499999999999893
 21
-40.00000000000001
 31
0.0
  0
LINE
  5
BE
330
1F
100
AcDbEntity
  8
참조1
100
AcDbLine
 10
-0.7499999999999893
 20
-40.00000000000001
 30
0.0
 11
-14.66727809669921
 21
-39.99999999999999
 31
0.0
  0
CIRCLE
  5
BF
330
1F
100
AcDbEntity
  8
해칭선
100
AcDbCircle
 10
0.0
 20
0.0
 30
0.0
 40
3.000000000000003
  0
INSERT
  5
C0
330
1F
100
AcDbEntity
  8
0
  6
Continuous
 62
     7
100
AcDbBlockReference
 66
     1
  2
블럭10
 10
-14.6902729321252
 20
-52.04717430164393
 30
0.0
  0
ATTRIB
  5
C1
330
C0
100
AcDbEntity
  8
FORMAT
 62
     2
100
AcDbText
 10
-23.87156822086649
 20
-49.97180738881174
 30
0.0
 40
4.233333333333333
  1
E2003003 [ 2 FLUTE ]
 41
0.75
  7
SLDTEXTSTYLE0
 11
-23.87156822086649
 21
-52.08847405547841
 31
0.0
100
AcDbAttribute
  2
AUTOATTR0
 70
     0
 74
     1
  0
SEQEND
  5
C2
330
C0
100
AcDbEntity
  8
0
  6
Continuous
 62
     7
  0
HATCH
  5
C3
330
1F
100
AcDbEntity
  8
중심선
100
AcDbHatch
 10
0.0
 20
0.0
 30
0.0
210
0.0
220
0.0
230
1.0
  2
SOLID
 70
     1
 71
     0
 91
        1
 92
        0
 93
        4
 72
     1
 10
-8.97536362774435
 20
-35.8
 11
-12.42163887158163
 21
-35.8
 72
     1
 10
-12.42163887158163
 20
-35.8
 11
-14.54986873078565
 21
-38.3363255805726
 72
     1
 10
-14.54986873078565
 20
-38.3363255805726
 11
-11.10356040183519
 21
-38.3362861512701
 72
     1
 10
-11.10356040183519
 20
-38.3362861512701
 11
-8.97536362774435
 21
-35.8
 97
        0
 75
     0
 76
     1
 98
        1
 10
14.79264917873052
 20
-0.0010749287238929
  0
HATCH
  5
C4
330
1F
100
AcDbEntity
  8
중심선
100
AcDbHatch
 10
0.0
 20
0.0
 30
0.0
210
0.0
220
0.0
230
1.0
  2
SOLID
 70
     1
 71
     0
 91
        1
 92
        0
 93
        4
 72
     1
 10
-3.962599636708401
 20
-35.8
 11
-7.408874880545678
 21
-35.8
 72
     1
 10
-7.408874880545678
 20
-35.8
 11
-11.94001288890307
 21
-41.20000000000002
 72
     1
 10
-11.94001288890307
 20
-41.20000000000002
 11
-8.493737645065789
 21
-41.20000000000002
 72
     1
 10
-8.493737645065789
 20
-41.20000000000002
 11
-3.962599636708401
 21
-35.8
 97
        0
 75
     0
 76
     1
 98
        1
 10
14.79264917873052
 20
-0.0010749287238929
  0
HATCH
  5
C5
330
1F
100
AcDbEntity
  8
중심선
100
AcDbHatch
 10
0.0
 20
0.0
 30
0.0
210
0.0
220
0.0
230
1.0
  2
SOLID
 70
     1
 71
     0
 91
        1
 92
        0
 93
        4
 72
     1
 10
1.050164354327471
 20
-35.8
 11
-2.39611088950959
 21
-35.8
 72
     1
 10
-2.39611088950959
 20
-35.8
 11
-9.444547791398868
 21
-44.20000000000002
 72
     1
 10
-9.444547791398868
 20
-44.20000000000002
 11
-5.99827254756158
 21
-44.20000000000002
 72
     1
 10
-5.99827254756158
 20
-44.20000000000002
 11
1.050164354327471
 21
-35.8
 97
        0
 75
     0
 76
     1
 98
        1
 10
14.79264917873052
 20
-0.0010749287238929
  0
HATCH
  5
C6
330
1F
100
AcDbEntity
  8
중심선
100
AcDbHatch
 10
0.0
 20
0.0
 30
0.0
210
0.0
220
0.0
230
1.0
  2
SOLID
 70
     1
 71
     0
 91
        1
 92
        0
 93
        6
 72
     3
 10
5.850054785339697
 20
-40.00000000005127
 11
3.960054785062283
 21
1.540882976769353E-10
 40
0.3939339440162628
 50
17.09539180608439
 51
320.0019657685086
 73
     0
 72
     1
 10
7.533054441040294
 20
-38.58789400463832
 11
9.83835631474136
 21
-36.65356729459039
 72
     3
 10
5.850054785286851
 20
-40.00000000000014
 11
6.600054785286829
 21
-1.278976924368180E-13
 40
0.636358354079598
 50
39.99873849337385
 51
368.4976242363724
 73
     1
 72
     1
 10
12.27538727718746
 20
-39.03999999993002
 11
4.53012209212277
 21
-39.03999999993
 72
     1
 10
4.53012209212277
 20
-39.03999999993
 11
4.53009704767684
 21
-40.95999999992991
 72
     1
 10
4.53009704767684
 20
-40.95999999992991
 11
8.971476817148876
 21
-40.95999999992988
 97
        0
 75
     0
 76
     1
 98
        1
 10
14.79264917873052
 20
-0.0010749287238929
  0
DIMENSION
  5
C7
330
1F
100
AcDbEntity
  8
치수문자_일반주서
100
AcDbDimension
  2
_D
 10
-36.5796875
 20
-2.381250000000072
 30
0.0
 11
-36.57968750000006
 21
17.63124999999997
 31
0.0
 70
   160
  1
%%c<>
 71
     2
 42
4.762499999999999
 52
-270.0
  3
SLDDIMSTYLE0
100
AcDbAlignedDimension
 13
-17.53322801085749
 23
2.381249999999997
 33
0.0
 14
-17.53322801085751
 24
-2.381250000000003
 34
0.0
 50
90.0000000000002
100
AcDbRotatedDimension
1001
PE_URL
1000

1001
ACAD
1000
DSTYLE
1002
{
1070
   171
1070
     8
1070
   273
1070
     7
1070
    41
1040
2.5
1070
   140
1040
2.5
1002
}
  0
DIMENSION
  5
DC
330
1F
100
AcDbEntity
  8
치수문자_일반주서
100
AcDbDimension
  2
_D_1
 10
57.76788705061242
 20
0.5953125000001087
 30
0.0
 11
57.76788705061232
 21
15.53281250000011
 31
0.0
 70
   160
  1
%%c<>
 71
     2
 42
1.190121850941398
 52
-270.0
  3
SLDDIMSTYLE0
100
AcDbAlignedDimension
 13
28.57031250000001
 23
-0.594809350941397
 33
0.0
 14
28.57031250000001
 24
0.5953125000000011
 34
0.0
 50
90.0000000000002
100
AcDbRotatedDimension
1001
PE_URL
1000

1001
ACAD
1000
DSTYLE
1002
{
1070
   171
1070
     8
1070
   273
1070
     7
1070
    41
1040
2.5
1070
   140
1040
2.5
1002
}
  0
DIMENSION
  5
F1
330
1F
100
AcDbEntity
  8
치수문자_일반주서
100
AcDbDimension
  2
_D_2
 10
24.99843750000001
 20
10.38125
 30
0.0
 11
43.19531250000001
 21
10.38125
 31
0.0
 70
   160
  1
<>
 71
     2
 42
3.571875000000002
  3
SLDDIMSTYLE0
100
AcDbAlignedDimension
 13
28.57031250000001
 23
0.5950609254706987
 33
0.0
 14
24.99843750000001
 24
0.5565281455129589
 34
0.0
100
AcDbRotatedDimension
1001
PE_URL
1000

1001
ACAD
1000
DSTYLE
1002
{
1070
   171
1070
     8
1070
   273
1070
     7
1070
    41
1040
2.5
1070
   140
1040
2.5
1002
}
  0
DIMENSION
  5
106
330
1F
100
AcDbEntity
  8
치수문자_일반주서
100
AcDbDimension
  2
_D_3
 10
28.57031250000001
 20
18.38125000000001
 30
0.0
 11
-1.495312499999986
 21
18.38125000000001
 31
0.0
 70
   160
  1
<>
 71
     2
 42
57.14062500000003
  3
SLDDIMSTYLE0
100
AcDbAlignedDimension
 13
-28.57031250000002
 23
0.5948093509414218
 33
0.0
 14
28.57031250000001
 24
0.5950609254706987
 34
0.0
100
AcDbRotatedDimension
1001
PE_URL
1000

1001
ACAD
1000
DSTYLE
1002
{
1070
   171
1070
     8
1070
   273
1070
     7
1070
    41
1040
2.5
1070
   140
1040
2.5
1002
}
  0
LINE
  5
11A
330
1F
100
AcDbEntity
  8
참조1
100
AcDbLine
 10
83.30506253295505
 20
7.440000000000004
 30
0.0
 11
83.30506253295505
 21
-7.440000000000001
 31
0.0
  0
LINE
  5
11B
330
1F
100
AcDbEntity
  8
참조1
100
AcDbLine
 10
96.00506253295505
 20
5.440000000000004
 30
0.0
 11
83.30506253295505
 21
5.440000000000004
 31
0.0
  0
SOLID
  5
11C
330
1F
100
AcDbEntity
  8
참조1
100
AcDbTrace
 10
83.30506253295505
 20
5.440000000000004
 30
0.0
 11
89.65506253295504
 21
4.424000000000004
 31
0.0
 12
89.65506253295504
 22
6.456000000000004
 32
0.0
 13
89.65506253295504
 23
6.456000000000004
 33
0.0
  0
LINE
  5
11D
330
1F
100
AcDbEntity
  8
참조1
100
AcDbLine
 10
96.00506253295505
 20
-5.440000000000001
 30
0.0
 11
83.30506253295505
 21
-5.440000000000001
 31
0.0
  0
SOLID
  5
11E
330
1F
100
AcDbEntity
  8
참조1
100
AcDbTrace
 10
83.30506253295505
 20
-5.440000000000001
 30
0.0
 11
89.65506253295504
 21
-6.456000000000001
 31
0.0
 12
89.65506253295504
 22
-4.424000000000001
 32
0.0
 13
89.65506253295504
 23
-4.424000000000001
 33
0.0
  0
MTEXT
  5
11F
330
1F
100
AcDbEntity
  8
참조1
100
AcDbMText
 10
92.68941266558105
 20
11.01029177718833
 30
0.0
 40
3.5
 41
0.0
 71
     1
 72
     1
  1
A
  7
SLDTEXTSTYLE0
 73
     1
 44
1.0
  0
MTEXT
  5
120
330
1F
100
AcDbEntity
  8
참조1
100
AcDbMText
 10
92.68941266558105
 20
0.1302917771883263
 30
0.0
 40
3.5
 41
0.0
 71
     1
 72
     1
  1
A
  7
SLDTEXTSTYLE0
 73
     1
 44
1.0
  0
INSERT
  5
127
330
1F
100
AcDbEntity
  8
해칭선
100
AcDbBlockReference
  2
SW_DOWELSYMBOL_0
 10
0.0
 20
0.0
 30
0.0
  0
LINE
  5
29E
330
1F
100
AcDbEntity
  8
0
  6
Continuous
 62
     1
370
    25
100
AcDbLine
 10
26.85476655963822
 20
0.239713421094762
 30
0.0
 11
26.82780777016573
 21
0.2534666033235909
 31
0.0
1001
PE_URL
1000

  0
LINE
  5
29F
330
1F
100
AcDbEntity
  8
0
  6
Continuous
 62
     1
370
    25
100
AcDbLine
 10
26.9828125
 20
0.1743900447148541
 30
0.0
 11
26.85476655963822
 21
0.239713421094762
 31
0.0
1001
PE_URL
1000

  0
SPLINE
  5
2A0
330
1F
100
AcDbEntity
  8
0
  6
Continuous
 62
     1
370
    25
100
AcDbSpline
210
0.0
220
0.0
230
1.0
 70
     8
 71
     3
 72
    10
 73
     6
 74
     0
 42
0.000000001
 43
0.00000001
 40
0.0
 40
0.0
 40
0.0
 40
0.0
 40
0.1638873047685493
 40
0.7611252891582325
 40
1.0
 40
1.0
 40
1.0
 40
1.0
 10
26.63270685949342
 20
0.4567162741613082
 30
0.0
 10
26.61897179234333
 20
0.4573392924510664
 30
0.0
 10
26.555183404518
 20
0.4602327134918973
 30
0.0
 10
26.44754258821803
 20
0.4631793648160294
 30
0.0
 10
26.35567530099591
 20
0.4674698003080444
 30
0.0
 10
26.32942911217931
 20
0.4686955639441978
 30
0.0
1001
PE_URL
1000

  0
LINE
  5
2A1
330
1F
100
AcDbEntity
  8
0
  6
Continuous
 62
     1
370
    25
100
AcDbLine
 10
26.18295143875742
 20
-0.475222099680004
 30
0.0
 11
26.81107434636419
 21
-0.4716886171569132
 31
0.0
1001
PE_URL
1000

  0
LINE
  5
2A2
330
1F
100
AcDbEntity
  8
0
  6
Continuous
 62
     1
370
    25
100
AcDbLine
 10
27.1017445616886
 20
0.1182778799955131
 30
0.0
 11
26.99148577399621
 21
0.1702979927297019
 31
0.0
1001
PE_URL
1000

  0
SPLINE
  5
2A3
330
1F
100
AcDbEntity
  8
0
  6
Continuous
 62
     1
370
    25
100
AcDbSpline
210
0.0
220
0.0
230
1.0
 70
     8
 71
     3
 72
    10
 73
     6
 74
     0
 42
0.000000001
 43
0.00000001
 40
0.0
 40
0.0
 40
0.0
 40
0.0
 40
0.2604817444871663
 40
0.5970288346849748
 40
1.0
 40
1.0
 40
1.0
 40
1.0
 10
28.27349507304506
 20
0.3998815462250475
 30
0.0
 10
28.19316686329
 20
0.3963557010802419
 30
0.0
 10
28.00905316443248
 20
0.3882744007103203
 30
0.0
 10
27.69707768786921
 20
0.3970883661261903
 30
0.0
 10
27.46230278632154
 20
0.4273262528044957
 30
0.0
 10
27.33437150814401
 20
0.4438031907848441
 30
0.0
1001
PE_URL
1000

  0
SPLINE
  5
2A5
330
1F
100
AcDbEntity
  8
0
  6
Continuous
 62
     1
370
    25
100
AcDbSpline
210
0.0
220
0.0
230
1.0
 70
     8
 71
     3
 72
    14
 73
    10
 74
     0
 42
0.000000001
 43
0.00000001
 40
0.0
 40
0.0
 40
0.0
 40
0.0
 40
0.2499999999999999
 40
0.2499999999999999
 40
0.4999999999999998
 40
0.4999999999999998
 40
0.7499999999999999
 40
0.7499999999999999
 40
1.0
 40
1.0
 40
1.0
 40
1.0
 10
26.98281249999681
 20
-0.0126393939490519
 30
0.0
 10
26.91530165138951
 20
0.0144163834298124
 30
0.0
 10
26.84749271493234
 20
0.0415916230680254
 30
0.0
 10
26.71506858555922
 20
0.0946621715475751
 30
0.0
 10
26.65027216580097
 20
0.1205910074135013
 30
0.0
 10
26.51600449099356
 20
0.1712193401959497
 30
0.0
 10
26.44796820048608
 20
0.1957180563010976
 30
0.0
 10
26.3139223306274
 20
0.2417086139641296
 30
0.0
 10
26.24932828451918
 20
0.2630645374867122
 30
0.0
 10
26.18293837806671
 20
0.282847597961964
 30
0.0
1001
PE_URL
1000

  0
SPLINE
  5
2A6
330
1F
100
AcDbEntity
  8
0
  6
Continuous
 62
     1
370
    25
100
AcDbSpline
210
0.0
220
0.0
230
1.0
 70
     8
 71
     3
 72
    14
 73
    10
 74
     0
 42
0.000000001
 43
0.00000001
 40
0.0
 40
0.0
 40
0.0
 40
0.0
 40
0.25
 40
0.25
 40
0.5
 40
0.5
 40
0.75
 40
0.75
 40
1.0
 40
1.0
 40
1.0
 40
1.0
 10
26.9828124999922
 20
0.0063103264868307
 30
0.0
 10
26.91529950426974
 20
0.044979170752691
 30
0.0
 10
26.84748840257444
 20
0.0836623520347371
 30
0.0
 10
26.71506026306597
 20
0.1589011296837513
 30
0.0
 10
26.65026160469116
 20
0.1955072563901308
 30
0.0
 10
26.51598943057618
 20
0.2666651595834016
 30
0.0
 10
26.44795095507743
 20
0.3009316321379399
 30
0.0
 10
26.31390120732637
 20
0.3649154945538833
 30
0.0
 10
26.24930543455967
 20
0.3944475052084465
 30
0.0
 10
26.182913040414
 20
0.4216134318309835
 30
0.0
1001
PE_URL
1000

  0
SPLINE
  5
2A7
330
1F
100
AcDbEntity
  8
0
  6
Continuous
 62
     1
370
    25
100
AcDbSpline
210
0.0
220
0.0
230
1.0
 70
     8
 71
     3
 72
    14
 73
    10
 74
     0
 42
0.000000001
 43
0.00000001
 40
0.0
 40
0.0
 40
0.0
 40
0.0
 40
0.25
 40
0.25
 40
0.5
 40
0.5
 40
0.75
 40
0.75
 40
1.0
 40
1.0
 40
1.0
 40
1.0
 10
26.98281249999225
 20
0.1704800280439181
 30
0.0
 10
26.91530840870206
 20
0.2075312910905833
 30
0.0
 10
26.84750628659529
 20
0.2435461487608735
 30
0.0
 10
26.71509477789558
 20
0.311535962043352
 30
0.0
 10
26.65030540310087
 20
0.3435761017148143
 30
0.0
 10
26.51605188844258
 20
0.4036936796726505
 30
0.0
 10
26.44802247460231
 20
0.4315089334212641
 30
0.0
 10
26.31398880970113
 20
0.4810946629881461
 30
0.0
 10
26.24940019583867
 20
0.5027468537587503
 30
0.0
 10
26.18301811878423
 20
0.5213395975464838
 30
0.0
1001
PE_URL
1000

  0
SPLINE
  5
2A9
330
1F
100
AcDbEntity
  8
0
  6
Continuous
 62
     1
370
    25
100
AcDbSpline
210
0.0
220
0.0
230
1.0
 70
     8
 71
     3
 72
     9
 73
     5
 74
     0
 42
0.000000001
 43
0.00000001
 40
0.0
 40
0.0
 40
0.0
 40
0.0
 40
0.5863429208167552
 40
1.0
 40
1.0
 40
1.0
 40
1.0
 10
26.9828125
 20
0.4762736484928223
 30
0.0
 10
26.91454430345717
 20
0.4766542239758612
 30
0.0
 10
26.79811380840195
 20
0.4773032903660711
 30
0.0
 10
26.68170653819736
 20
0.4560702446994374
 30
0.0
 10
26.63355384680883
 20
0.447287045046813
 30
0.0
1001
PE_URL
1000

  0
SPLINE
  5
2AB
330
1F
100
AcDbEntity
  8
0
  6
Continuous
 62
     1
370
    25
100
AcDbSpline
210
0.0
220
0.0
230
1.0
 70
     8
 71
     3
 72
    14
 73
    10
 74
     0
 42
0.000000001
 43
0.00000001
 40
0.0
 40
0.0
 40
0.0
 40
0.0
 40
0.2500000000000001
 40
0.2500000000000001
 40
0.5000000000000001
 40
0.5000000000000001
 40
0.7500000000000002
 40
0.7500000000000002
 40
1.0
 40
1.0
 40
1.0
 40
1.0
 10
26.98281249999813
 20
-0.4757704994342445
 30
0.0
 10
26.91530275815986
 20
-0.4767274626515927
 30
0.0
 10
26.8474949378134
 20
-0.4746449375386781
 30
0.0
 10
26.71507287554439
 20
-0.4646325476608577
 30
0.0
 10
26.65027760970188
 20
-0.4567532806553227
 30
0.0
 10
26.51601225414951
 20
-0.4351687156944385
 30
0.0
 10
26.44797708994385
 20
-0.4214886791528787
 30
0.0
 10
26.31393321905065
 20
-0.3891323260817791
 30
0.0
 10
26.24934006287021
 20
-0.3706234844507202
 30
0.0
 10
26.18295143875742
 20
-0.3497617500760934
 30
0.0
1001
PE_URL
1000

  0
LINE
  5
2AD
330
1F
100
AcDbEntity
  8
0
  6
Continuous
 62
     1
370
    25
100
AcDbLine
 10
26.31189586846708
 20
-0.4744967274904029
 30
0.0
 11
26.18301811878423
 21
-0.5208364484878796
 31
0.0
1001
PE_URL
1000

  0
SPLINE
  5
2AE
330
1F
100
AcDbEntity
  8
0
  6
Continuous
 62
     1
370
    25
100
AcDbSpline
210
0.0
220
0.0
230
1.0
 70
     8
 71
     3
 72
    18
 73
    14
 74
     0
 42
0.000000001
 43
0.00000001
 40
0.0
 40
0.0
 40
0.0
 40
0.0
 40
0.25
 40
0.25
 40
0.375
 40
0.375
 40
0.5
 40
0.5
 40
0.625
 40
0.625
 40
0.75
 40
0.75
 40
1.0
 40
1.0
 40
1.0
 40
1.0
 10
28.57031250000001
 20
-0.5646647866853136
 30
0.0
 10
28.4413055187444
 20
-0.5407665885105029
 30
0.0
 10
28.30373829472989
 20
-0.5021277596399407
 30
0.0
 10
28.10661043330046
 20
-0.4279242480825088
 30
0.0
 10
28.04241406655532
 20
-0.4006200912500322
 30
0.0
 10
27.90933430515882
 20
-0.3407523428104386
 30
0.0
 10
27.8418651477753
 20
-0.3083600345111612
 30
0.0
 10
27.70880647831759
 20
-0.2404539101925269
 30
0.0
 10
27.64463073070771
 20
-0.2052171706112193
 30
0.0
 10
27.51317755967349
 20
-0.1321194936732126
 30
0.0
 10
27.44591549858952
 20
-0.0942395853104461
 30
0.0
 10
27.24507410789512
 20
0.0202927553195569
 30
0.0
 10
27.11672083927119
 20
0.0969811777084868
 30
0.0
 10
26.98281249999226
 20
0.1704800280439127
 30
0.0
1001
PE_URL
1000

  0
SPLINE
  5
2AF
330
1F
100
AcDbEntity
  8
0
  6
Continuous
 62
     1
370
    25
100
AcDbSpline
210
0.0
220
0.0
230
1.0
 70
     8
 71
     3
 72
    12
 73
     8
 74
     0
 42
0.000000001
 43
0.00000001
 40
0.0
 40
0.0
 40
0.0
 40
0.0
 40
0.2005350339943409
 40
0.3995688228379385
 40
0.6005973890149078
 40
0.800588774054713
 40
1.0
 40
1.0
 40
1.0
 40
1.0
 10
28.57031250000001
 20
-0.4694334766024013
 30
0.0
 10
28.47049514487724
 20
-0.4475007795898189
 30
0.0
 10
28.27160768720575
 20
-0.403799578096884
 30
0.0
 10
27.97341222733449
 20
-0.2928442913762576
 30
0.0
 10
27.67446748926831
 20
-0.1622886233950698
 30
0.0
 10
27.37600684283481
 20
-0.0150715496180307
 30
0.0
 10
27.17727746066717
 20
0.0803375784934393
 30
0.0
 10
27.07805710346504
 20
0.1279728484686491
 30
0.0
1001
PE_URL
1000

  0
LINE
  5
2B0
330
1F
100
AcDbEntity
  8
0
  6
Continuous
 62
     1
370
    25
100
AcDbLine
 10
28.5703125
 20
-0.5646647866853136
 30
0.0
 11
28.57031250000001
 21
-0.4694334766024013
 31
0.0
1001
PE_URL
1000

  0
SPLINE
  5
2B1
330
1F
100
AcDbEntity
  8
0
  6
Continuous
 62
     1
370
    25
100
AcDbSpline
210
0.0
220
0.0
230
1.0
 70
     8
 71
     3
 72
    18
 73
    14
 74
     0
 42
0.000000001
 43
0.00000001
 40
0.0
 40
0.0
 40
0.0
 40
0.0
 40
0.25
 40
0.25
 40
0.375
 40
0.375
 40
0.5
 40
0.5
 40
0.625
 40
0.625
 40
0.75
 40
0.75
 40
1.0
 40
1.0
 40
1.0
 40
1.0
 10
28.57031250000001
 20
-0.5945577764120944
 30
0.0
 10
28.4413055187444
 20
-0.5914437078994161
 30
0.0
 10
28.30373829472989
 20
-0.5732755559861367
 30
0.0
 10
28.10661043330046
 20
-0.5259821204347375
 30
0.0
 10
28.04241406655531
 20
-0.5070377459795778
 30
0.0
 10
27.9093343051588
 20
-0.4626706313924333
 30
0.0
 10
27.8418651477753
 20
-0.437349836700643
 30
0.0
 10
27.70880647831759
 20
-0.3818375717999707
 30
0.0
 10
27.6446307307077
 20
-0.35189482118069
 30
0.0
 10
27.51317755967346
 20
-0.2876141590902256
 30
0.0
 10
27.4459154985895
 20
-0.2532391315672686
 30
0.0
 10
27.2450741078951
 20
-0.1461671242390572
 30
0.0
 10
27.11672083927118
 20
-0.0703872139210293
 30
0.0
 10
26.98281249999223
 20
0.0063103264868094
 30
0.0
1001
PE_URL
1000

  0
LINE
  5
2B2
330
1F
100
AcDbEntity
  8
0
  6
Continuous
 62
     1
370
    25
100
AcDbLine
 10
27.09520766982707
 20
-0.0567475212685309
 30
0.0
 11
26.9828125
 21
-0.0126393939503362
 31
0.0
1001
PE_URL
1000

  0
LINE
  5
2B3
330
1F
100
AcDbEntity
  8
0
  6
Continuous
 62
     1
370
    25
100
AcDbLine
 10
28.57031250000001
 20
-0.5945577764120944
 30
0.0
 11
28.57031250000004
 21
-0.5646647866853118
 31
0.0
1001
PE_URL
1000

  0
SPLINE
  5
2B4
330
1F
100
AcDbEntity
  8
0
  6
Continuous
 62
     1
370
    25
100
AcDbSpline
210
0.0
220
0.0
230
1.0
 70
     8
 71
     3
 72
     8
 73
     4
 74
     0
 42
0.000000001
 43
0.00000001
 40
0.0
 40
0.0
 40
0.0
 40
0.0
 40
1.0
 40
1.0
 40
1.0
 40
1.0
 10
28.20247187932361
 20
0.1662440290574321
 30
0.0
 10
28.18114721749006
 20
0.1914773026071839
 30
0.0
 10
28.16209456378126
 20
0.2157815228456717
 30
0.0
 10
28.14588435925065
 20
0.2389234290975513
 30
0.0
1001
PE_URL
1000

  0
LINE
  5
2B5
330
1F
100
AcDbEntity
  8
0
  6
Continuous
 62
     1
370
    25
100
AcDbLine
 10
28.15338329285188
 20
0.2452157815256719
 30
0.0
 11
28.57031250000001
 21
0.0002515745293022
 31
0.0
1001
PE_URL
1000

  0
LINE
  5
2B6
330
1F
100
AcDbEntity
  8
0
  6
Continuous
 62
     1
370
    25
100
AcDbLine
 10
28.57031250000001
 20
0.0002515745293022
 30
0.0
 11
28.57031250000001
 21
-0.1588414917789709
 31
0.0
1001
PE_URL
1000

  0
SPLINE
  5
2B7
330
1F
100
AcDbEntity
  8
0
  6
Continuous
 62
     1
370
    25
100
AcDbSpline
210
0.0
220
0.0
230
1.0
 70
     8
 71
     3
 72
    10
 73
     6
 74
     0
 42
0.000000001
 43
0.00000001
 40
0.0
 40
0.0
 40
0.0
 40
0.0
 40
0.5
 40
0.5
 40
1.0
 40
1.0
 40
1.0
 40
1.0
 10
28.57031250000001
 20
-0.1588414917789709
 30
0.0
 10
28.50664656132909
 20
-0.1087870849225421
 30
0.0
 10
28.44404354768477
 20
-0.0566805534835974
 30
0.0
 10
28.32100789714854
 20
0.0517227235444307
 30
0.0
 10
28.25999786489291
 20
0.1085854771502402
 30
0.0
 10
28.20247187932312
 20
0.1662440290562224
 30
0.0
1001
PE_URL
1000

  0
SPLINE
  5
2B8
330
1F
100
AcDbEntity
  8
0
  6
Continuous
 62
     1
370
    25
100
AcDbSpline
210
0.0
220
0.0
230
1.0
 70
     8
 71
     3
 72
    14
 73
    10
 74
     0
 42
0.000000001
 43
0.00000001
 40
0.0
 40
0.0
 40
0.0
 40
0.0
 40
0.25
 40
0.25
 40
0.5
 40
0.5
 40
0.75
 40
0.75
 40
1.0
 40
1.0
 40
1.0
 40
1.0
 10
28.20247187932366
 20
0.1662440290574072
 30
0.0
 10
28.10074801543571
 20
0.2102943759252789
 30
0.0
 10
28.00160163354675
 20
0.2515696121736639
 30
0.0
 10
27.79555951515918
 20
0.3266195470396459
 30
0.0
 10
27.69462855272865
 20
0.3596123047404086
 30
0.0
 10
27.49318453089307
 20
0.414296412072502
 30
0.0
 10
27.38849720760794
 20
0.4362525201745744
 30
0.0
 10
27.18468551966579
 20
0.4664203817057502
 30
0.0
 10
27.08579549362198
 20
0.4748138452966473
 30
0.0
 10
26.98281249999813
 20
0.4762736484928508
 30
0.0
1001
PE_URL
1000

  0
SPLINE
  5
2B9
330
1F
100
AcDbEntity
  8
0
  6
Continuous
 62
     1
370
    25
100
AcDbSpline
210
0.0
220
0.0
230
1.0
 70
    24
 71
     3
 72
     8
 73
     4
 74
     0
 42
0.000000001
 43
0.00000001
 40
0.0
 40
0.0
 40
0.0
 40
0.0
 40
1.0
 40
1.0
 40
1.0
 40
1.0
 10
28.57031250000001
 20
-0.4694334766024013
 30
0.0
 10
28.57031250000001
 20
-0.3974234343716485
 30
0.0
 10
28.57031250000001
 20
-0.2851245335453718
 30
0.0
 10
28.57031250000001
 20
-0.1588414917789886
 30
0.0
1001
PE_URL
1000

  0
SPLINE
  5
2BB
330
1F
100
AcDbEntity
  8
0
  6
Continuous
 62
     1
370
    25
100
AcDbSpline
210
0.0
220
0.0
230
1.0
 70
    24
 71
     3
 72
     8
 73
     4
 74
     0
 42
0.000000001
 43
0.00000001
 40
0.0
 40
0.0
 40
0.0
 40
0.0
 40
1.0
 40
1.0
 40
1.0
 40
1.0
 10
28.20775958401944
 20
0.2908429073891068
 30
0.0
 10
28.18817175907035
 20
0.2744067706987636
 30
0.0
 10
28.16747866974034
 20
0.257043207074083
 30
0.0
 10
28.14588435924659
 20
0.2389234291032516
 30
0.0
1001
PE_URL
1000

  0
LINE
  5
2BC
330
1F
100
AcDbEntity
  8
0
  6
Continuous
 62
     1
370
    25
100
AcDbLine
 10
28.57031250000001
 20
0.4169703245293033
 30
0.0
 11
28.27346176888376
 21
0.3997379871223176
 31
0.0
1001
PE_URL
1000

  0
SPLINE
  5
2BD
330
1F
100
AcDbEntity
  8
0
  6
Continuous
 62
     1
370
    25
100
AcDbSpline
210
0.0
220
0.0
230
1.0
 70
     8
 71
     3
 72
    14
 73
    10
 74
     0
 42
0.000000001
 43
0.00000001
 40
0.0
 40
0.0
 40
0.0
 40
0.0
 40
0.000283652241095
 40
0.000283652241095
 40
0.000283652241095
 40
0.0004260012873325
 40
0.0004260012873325
 40
0.0004260012873325
 40
0.0004899499954576
 40
0.0004899499954576
 40
0.0004899499954576
 40
0.0004899499954576
 10
28.57031250000001
 20
0.4169703245293033
 30
0.0
 10
28.49940964699204
 20
0.3976564230393216
 30
0.0
 10
28.42887739278481
 20
0.3757584498551421
 30
0.0
 10
28.35902489244239
 20
0.3507591720015448
 30
0.0
 10
28.32395773115752
 20
0.3382091028672936
 30
0.0
 10
28.2890493362361
 20
0.3248670559669881
 30
0.0
 10
28.25436551748822
 20
0.3106168269359142
 30
0.0
 10
28.23878380020093
 20
0.3042149067305424
 30
0.0
 10
28.22324578133054
 20
0.2976283068879575
 30
0.0
 10
28.207759584035
 20
0.2908429073959583
 30
0.0
1001
PE_URL
1000

  0
LINE
  5
2C0
330
1F
100
AcDbEntity
  8
0
  6
Continuous
 62
     1
370
    25
100
AcDbLine
 10
28.57031250000001
 20
0.0002515745293022
 30
0.0
 11
28.57031250000001
 21
0.4169703245293033
 31
0.0
1001
PE_URL
1000

  0
SPLINE
  5
2C1
330
1F
100
AcDbEntity
  8
0
  6
Continuous
 62
     1
370
    25
100
AcDbSpline
210
0.0
220
0.0
230
1.0
 70
     8
 71
     3
 72
    10
 73
     6
 74
     0
 42
0.000000001
 43
0.00000001
 40
0.0
 40
0.0
 40
0.0
 40
0.0
 40
0.1305916801046275
 40
0.5641799088897166
 40
1.0
 40
1.0
 40
1.0
 40
1.0
 10
27.76655932206254
 20
0.399908983964939
 30
0.0
 10
27.80157281749649
 20
0.4165601718682564
 30
0.0
 10
27.95283751252154
 20
0.4884963447291384
 30
0.0
 10
28.22032680889134
 20
0.5646283578851901
 30
0.0
 10
28.45345111811455
 20
0.5848993903202218
 30
0.0
 10
28.57031250000001
 20
0.5950609254706987
 30
0.0
1001
PE_URL
1000

  0
SPLINE
  5
2C2
330
1F
100
AcDbEntity
  8
0
  6
Continuous
 62
     1
370
    25
100
AcDbSpline
210
0.0
220
0.0
230
1.0
 70
    24
 71
     3
 72
     8
 73
     4
 74
     0
 42
0.000000001
 43
0.00000001
 40
0.0
 40
0.0
 40
0.0
 40
0.0
 40
1.0
 40
1.0
 40
1.0
 40
1.0
 10
28.57031250000001
 20
0.4169703245293033
 30
0.0
 10
28.57031250000001
 20
0.4674912302905103
 30
0.0
 10
28.57031250000001
 20
0.5354327830890331
 30
0.0
 10
28.57031250000001
 20
0.5950609254706987
 30
0.0
1001
PE_URL
1000

  0
SPLINE
  5
2C3
330
1F
100
AcDbEntity
  8
0
  6
Continuous
 62
     1
370
    25
100
AcDbSpline
210
0.0
220
0.0
230
1.0
 70
  1064
 71
     3
 72
    10
 73
     6
 74
     4
 42
0.000000001
 43
0.0000000001
 44
0.0
 40
0.0
 40
0.0
 40
0.0
 40
0.0
 40
0.3513199830628815
 40
0.6941522670354381
 40
0.809806105924771
 40
0.809806105924771
 40
0.809806105924771
 40
0.809806105924771
 10
25.37815974182313
 20
0.5953125000000011
 30
0.0
 10
25.49507048426636
 20
0.5912994072764914
 30
0.0
 10
25.72606746940865
 20
0.583370175959897
 30
0.0
 10
25.99703524164812
 20
0.5671787663348002
 30
0.0
 10
26.14555402441451
 20
0.5305733666534007
 30
0.0
 10
26.18301811878423
 20
0.5213395975464838
 30
0.0
 11
25.37815974182313
 21
0.5953125000000011
 31
0.0
 11
25.72921780947782
 21
0.5817491805737751
 31
0.0
 11
26.07031439839964
 21
0.5472949796725813
 31
0.0
 11
26.18301811878423
 21
0.5213395975464838
 31
0.0
1001
PE_URL
1000

  0
LINE
  5
36A
330
1F
100
AcDbEntity
  8
외형선
  6
Continuous
370
    15
100
AcDbLine
 10
-17.53322801085749
 20
2.381249999999997
 30
0.0
 11
-24.19843750000003
 21
0.5953125000000132
 31
0.0
  0
LINE
  5
36B
330
1F
100
AcDbEntity
  8
외형선
  6
Continuous
370
    15
100
AcDbLine
 10
-24.19848710611483
 20
-0.5952992080815878
 30
0.0
 11
-17.53322801085751
 21
-2.381250000000003
 31
0.0
  0
LINE
  5
36C
330
1F
100
AcDbEntity
  8
외형선
  6
Continuous
370
    15
100
AcDbLine
 10
-24.19843750000003
 20
0.5953125000000132
 30
0.0
 11
-24.99843750000002
 21
0.595312500000015
 31
0.0
  0
SPLINE
  5
36D
330
1F
100
AcDbEntity
  8
외형선
  6
Continuous
370
    15
100
AcDbSpline
210
0.0
220
0.0
230
1.0
 70
     8
 71
     3
 72
    10
 73
     6
 74
     0
 42
0.000000001
 43
0.00000001
 40
0.0
 40
0.0
 40
0.0
 40
0.0
 40
0.4369620015572632
 40
0.6153156050055703
 40
1.0
 40
1.0
 40
1.0
 40
1.0
 10
-24.99843750000048
 20
-0.3990785727998775
 30
0.0
 10
-24.88168624834251
 20
-0.3949113096919094
 30
0.0
 10
-24.7172809527034
 20
-0.3890431060234926
 30
0.0
 10
-24.45083575817153
 20
-0.4007391160461692
 30
0.0
 10
-24.30090794604935
 20
-0.4176451164049281
 30
0.0
 10
-24.1984727820665
 20
-0.4291958013280985
 30
0.0
  0
LINE
  5
36E
330
1F
100
AcDbEntity
  8
0
  6
Continuous
 62
     1
370
    25
100
AcDbLine
 10
-26.7450773816291
 20
-0.1436606790610439
 30
0.0
 11
-26.69309380114483
 21
-0.1709498471244397
 31
0.0
1001
PE_URL
1000

  0
LINE
  5
36F
330
1F
100
AcDbEntity
  8
0
  6
Continuous
 62
     1
370
    25
100
AcDbLine
 10
-24.99843750000002
 20
0.595312500000015
 30
0.0
 11
-25.66217314307173
 21
0.5953125000000168
 31
0.0
1001
PE_URL
1000

  0
SPLINE
  5
370
330
1F
100
AcDbEntity
  8
0
  6
Continuous
 62
     1
370
    25
100
AcDbSpline
210
0.0
220
0.0
230
1.0
 70
     8
 71
     3
 72
     9
 73
     5
 74
     0
 42
0.000000001
 43
0.00000001
 40
0.0
 40
0.0
 40
0.0
 40
0.0
 40
0.4363731147909193
 40
0.9999999999999999
 40
0.9999999999999999
 40
0.9999999999999999
 40
0.9999999999999999
 10
-25.93559610270948
 20
0.4953428073088256
 30
0.0
 10
-26.06578759058175
 20
0.4841902935445775
 30
0.0
 10
-26.36413660306535
 20
0.4586330046414973
 30
0.0
 10
-26.66257856787674
 20
0.4678695430458065
 30
0.0
 10
-26.83078848291906
 20
0.4730755044167415
 30
0.0
1001
PE_URL
1000

  0
LINE
  5
371
330
1F
100
AcDbEntity
  8
0
  6
Continuous
 62
     1
370
    25
100
AcDbLine
 10
-25.26972950158905
 20
-0.4159677585341561
 30
0.0
 11
-24.99843750000003
 21
-0.3990785727998509
 31
0.0
1001
PE_URL
1000

  0
ELLIPSE
  5
372
330
1F
100
AcDbEntity
  8
외형선
  6
Continuous
370
    15
100
AcDbEllipse
 10
-24.19847414059287
 20
0.0000034740729818
 30
0.0
 11
-1.296541683937769E-5
 21
-0.5953026821686526
 31
0.0
210
0.0
220
0.0
230
1.0
 40
0.0000256716235689
 41
4.561066733488731
 42
6.283178429706354
  0
LINE
  5
373
330
1F
100
AcDbEntity
  8
외형선
  6
Continuous
370
    15
100
AcDbLine
 10
-24.19843750000003
 20
0.0897446256632422
 30
0.0
 11
-24.19843750000003
 21
0.5953125000000132
 31
0.0
  0
LINE
  5
374
330
1F
100
AcDbEntity
  8
외형선
  6
Continuous
370
    15
100
AcDbLine
 10
-17.53322801085751
 20
-2.381250000000003
 30
0.0
 11
-17.53322801085749
 21
2.381249999999999
 31
0.0
  0
SPLINE
  5
375
330
1F
100
AcDbEntity
  8
외형선
  6
Continuous
370
    15
100
AcDbSpline
210
0.0
220
0.0
230
1.0
 70
     8
 71
     3
 72
    12
 73
     8
 74
     0
 42
0.000000001
 43
0.00000001
 40
0.0
 40
0.0
 40
0.0
 40
0.0
 40
0.25
 40
0.25
 40
0.5
 40
0.5
 40
1.0
 40
1.0
 40
1.0
 40
1.0
 10
-24.99843750000002
 20
0.4765085817262614
 30
0.0
 10
-24.93129723215855
 20
0.4533576703916916
 30
0.0
 10
-24.86655577379546
 20
0.4275057173446695
 30
0.0
 10
-24.73382290278272
 20
0.3703935937379606
 30
0.0
 10
-24.66591221650761
 20
0.3390943392394932
 30
0.0
 10
-24.46325855562048
 20
0.2394916707188011
 30
0.0
 10
-24.33368067434944
 20
0.1662895221421637
 30
0.0
 10
-24.1984952781244
 20
0.0897572354949881
 30
0.0
  0
LINE
  5
376
330
1F
100
AcDbEntity
  8
외형선
  6
Continuous
370
    15
100
AcDbLine
 10
-24.99843750000002
 20
0.4765085817262614
 30
0.0
 11
-24.99843750000002
 21
0.595312500000015
 31
0.0
  0
SPLINE
  5
377
330
1F
100
AcDbEntity
  8
외형선
  6
Continuous
370
    15
100
AcDbSpline
210
0.0
220
0.0
230
1.0
 70
     8
 71
     3
 72
     9
 73
     5
 74
     0
 42
0.000000001
 43
0.00000001
 40
0.0
 40
0.0
 40
0.0
 40
0.0
 40
0.2554322162839175
 40
1.0
 40
1.0
 40
1.0
 40
1.0
 10
-24.52631542678766
 20
-0.39847094257872
 30
0.0
 10
-24.56655709182989
 20
-0.4176837699517164
 30
0.0
 10
-24.72410051226317
 20
-0.4929007008953045
 30
0.0
 10
-24.88135263528042
 20
-0.5293724535044855
 30
0.0
 10
-24.99843750000002
 20
-0.5565281455129436
 30
0.0
  0
SPLINE
  5
378
330
1F
100
AcDbEntity
  8
외형선
  6
Continuous
370
    15
100
AcDbSpline
210
0.0
220
0.0
230
1.0
 70
    24
 71
     3
 72
     8
 73
     4
 74
     0
 42
0.000000001
 43
0.00000001
 40
0.0
 40
0.0
 40
0.0
 40
0.0
 40
1.0
 40
1.0
 40
1.0
 40
1.0
 10
-24.99843750000002
 20
0.3860144934515924
 30
0.0
 10
-24.99843750000002
 20
0.4152268618120024
 30
0.0
 10
-24.99843750000002
 20
0.445581201549747
 30
0.0
 10
-24.99843750000002
 20
0.4765085817279134
 30
0.0
  0
SPLINE
  5
379
330
1F
100
AcDbEntity
  8
외형선
  6
Continuous
370
    15
100
AcDbSpline
210
0.0
220
0.0
230
1.0
 70
     8
 71
     3
 72
    12
 73
     8
 74
     0
 42
0.000000001
 43
0.00000001
 40
0.0
 40
0.0
 40
0.0
 40
0.0
 40
0.25
 40
0.25
 40
0.5
 40
0.5
 40
1.0
 40
1.0
 40
1.0
 40
1.0
 10
-24.99843750000012
 20
0.3860144934516208
 30
0.0
 10
-24.93129723215863
 20
0.3647882084224326
 30
0.0
 10
-24.86655577379554
 20
0.3414033768955283
 30
0.0
 10
-24.73382290278278
 20
0.2903045246790819
 30
0.0
 10
-24.66591221650766
 20
0.2625606252395625
 30
0.0
 10
-24.46325855562051
 20
0.1749959475163174
 30
0.0
 10
-24.33368067434947
 20
0.1115372235861867
 30
0.0
 10
-24.1984952781244
 20
0.0460050520463669
 30
0.0
  0
SPLINE
  5
37A
330
1F
100
AcDbEntity
  8
외형선
  6
Continuous
370
    15
100
AcDbSpline
210
0.0
220
0.0
230
1.0
 70
    24
 71
     3
 72
    10
 73
     6
 74
     0
 42
0.000000001
 43
0.00000001
 40
0.0
 40
0.0
 40
0.0
 40
0.0
 40
0.5
 40
0.5
 40
1.0
 40
1.0
 40
1.0
 40
1.0
 10
-24.99843750000003
 20
-0.15064468759723
 30
0.0
 10
-24.99843750000003
 20
-0.0607631573994172
 30
0.0
 10
-24.99843750000003
 20
0.0376337755325378
 30
0.0
 10
-24.99843750000003
 20
0.2252227521337305
 30
0.0
 10
-24.99843750000003
 20
0.3136073395139972
 30
0.0
 10
-24.99843750000002
 20
0.3860144934515906
 30
0.0
  0
SPLINE
  5
37B
330
1F
100
AcDbEntity
  8
외형선
  6
Continuous
370
    15
100
AcDbSpline
210
0.0
220
0.0
230
1.0
 70
     8
 71
     3
 72
    12
 73
     8
 74
     0
 42
0.000000001
 43
0.00000001
 40
0.0
 40
0.0
 40
0.0
 40
0.0
 40
0.2500000000000001
 40
0.2500000000000001
 40
0.5000000000000001
 40
0.5000000000000001
 40
1.0
 40
1.0
 40
1.0
 40
1.0
 10
-24.99843750000003
 20
-0.15064468759723
 30
0.0
 10
-24.93129567438888
 20
-0.1799566350923984
 30
0.0
 10
-24.86655276524939
 20
-0.2079769033252598
 30
0.0
 10
-24.73381667243127
 20
-0.2615377513877805
 30
0.0
 10
-24.66590434603128
 20
-0.2870395377030514
 30
0.0
 10
-24.46324608509972
 20
-0.3574658661349867
 30
0.0
 10
-24.33366507787526
 20
-0.3959444785655352
 30
0.0
 10
-24.19847645891645
 20
-0.4241192531320065
 30
0.0
  0
SPLINE
  5
37C
330
1F
100
AcDbEntity
  8
외형선
  6
Continuous
370
    15
100
AcDbSpline
210
0.0
220
0.0
230
1.0
 70
    24
 71
     3
 72
    12
 73
     8
 74
     0
 42
0.000000001
 43
0.00000001
 40
0.0
 40
0.0
 40
0.0
 40
0.0
 40
0.0597046504480201
 40
0.2509650304316358
 40
0.4368351639495018
 40
0.6280955439350555
 40
1.0
 40
1.0
 40
1.0
 40
1.0
 10
-24.99843750000003
 20
-0.3971062146353712
 30
0.0
 10
-24.99843750000003
 20
-0.3975917232027597
 30
0.0
 10
-24.99843750000003
 20
-0.3996325302667869
 30
0.0
 10
-24.99843750000002
 20
-0.3843555367552045
 30
0.0
 10
-24.99843750000002
 20
-0.3508094055789636
 30
0.0
 10
-24.99843750000002
 20
-0.2837031941162559
 30
0.0
 10
-24.99843750000002
 20
-0.203565954404977
 30
0.0
 10
-24.99843750000002
 20
-0.15064468759723
 30
0.0
  0
SPLINE
  5
37D
330
1F
100
AcDbEntity
  8
외형선
  6
Continuous
370
    15
100
AcDbSpline
210
0.0
220
0.0
230
1.0
 70
    24
 71
     3
 72
     8
 73
     4
 74
     0
 42
0.000000001
 43
0.00000001
 40
0.0
 40
0.0
 40
0.0
 40
0.0
 40
1.0
 40
1.0
 40
1.0
 40
1.0
 10
-24.99843750000018
 20
-0.5565281455129454
 30
0.0
 10
-24.99843750000018
 20
-0.4951355603800613
 30
0.0
 10
-24.99843750000018
 20
-0.4340226400434228
 30
0.0
 10
-24.99843750000018
 20
-0.3953220955226313
 30
0.0
  0
SPLINE
  5
37E
330
1F
100
AcDbEntity
  8
0
  6
Continuous
 62
     1
370
    25
100
AcDbSpline
210
0.0
220
0.0
230
1.0
 70
     8
 71
     3
 72
    34
 73
    30
 74
     0
 42
0.000000001
 43
0.00000001
 40
0.0
 40
0.0
 40
0.0
 40
0.0
 40
0.1250000000000001
 40
0.1250000000000001
 40
0.25
 40
0.25
 40
0.3124999999999999
 40
0.3124999999999999
 40
0.3749999999999999
 40
0.3749999999999999
 40
0.4374999999999999
 40
0.4374999999999999
 40
0.4999999999999998
 40
0.4999999999999998
 40
0.5624999999999998
 40
0.5624999999999998
 40
0.6249999999999997
 40
0.6249999999999997
 40
0.6874999999999997
 40
0.6874999999999997
 40
0.7499999999999997
 40
0.7499999999999997
 40
0.8124999999999998
 40
0.8124999999999998
 40
0.8749999999999999
 40
0.8749999999999999
 40
0.9374999999999999
 40
0.9374999999999999
 40
1.0
 40
1.0
 40
1.0
 40
1.0
 10
-28.57031250000002
 20
0.5948093509414201
 30
0.0
 10
-28.42525767471948
 20
0.591307907379051
 30
0.0
 10
-28.26939727249183
 20
0.5686027753629159
 30
0.0
 10
-27.97777813319662
 20
0.4906878296756668
 30
0.0
 10
-27.82345599637028
 20
0.4340518016688831
 30
0.0
 10
-27.60368694048331
 20
0.333068314520642
 30
0.0
 10
-27.53017470326596
 20
0.2965320070875586
 30
0.0
 10
-27.37968086546333
 20
0.2187983487547603
 30
0.0
 10
-27.30395521146355
 20
0.1778042201440866
 30
0.0
 10
-27.15679184787082
 20
0.0944824863752207
 30
0.0
 10
-27.08391219104523
 20
0.0518991427671005
 30
0.0
 10
-26.93359111900634
 20
-0.0342874842798681
 30
0.0
 10
-26.85775295537435
 20
-0.07757439272812
 30
0.0
 10
-26.70999221128423
 20
-0.1615333994538903
 30
0.0
 10
-26.63759884675032
 20
-0.2023149645754194
 30
0.0
 10
-26.48750778651166
 20
-0.2810480390019676
 30
0.0
 10
-26.41158658837438
 20
-0.3186424395743521
 30
0.0
 10
-26.26328248549812
 20
-0.3877194688682332
 30
0.0
 10
-26.1912285196658
 20
-0.4192138697732956
 30
0.0
 10
-26.0414244248264
 20
-0.4759789451539257
 30
0.0
 10
-25.96544977629742
 20
-0.5009416852383022
 30
0.0
 10
-25.81665701494722
 20
-0.5423358353300762
 30
0.0
 10
-25.74479513110219
 20
-0.5587758367474573
 30
0.0
 10
-25.5953345911805
 20
-0.5831332735369528
 30
0.0
 10
-25.51933614660879
 20
-0.5908554254843472
 30
0.0
 10
-25.37011003999319
 20
-0.5968615317290911
 30
0.0
 10
-25.29829268176054
 20
-0.5952391816747951
 30
0.0
 10
-25.14923185151888
 20
-0.5827494189950388
 30
0.0
 10
-25.07323929654209
 20
-0.5718053891532793
 30
0.0
 10
-24.99843750000003
 20
-0.5565281455129436
 30
0.0
1001
PE_URL
1000

  0
SPLINE
  5
37F
330
1F
100
AcDbEntity
  8
0
  6
Continuous
 62
     1
370
    25
100
AcDbSpline
210
0.0
220
0.0
230
1.0
 70
     8
 71
     3
 72
    12
 73
     8
 74
     0
 42
0.000000001
 43
0.00000001
 40
0.0
 40
0.0
 40
0.0
 40
0.0
 40
0.0850838583326365
 40
0.3863843846680998
 40
0.6871675888067618
 40
0.9872854060262353
 40
1.0
 40
1.0
 40
1.0
 40
1.0
 10
-27.08506975856228
 20
0.0517365687924358
 30
0.0
 10
-27.03354941529821
 20
0.0319098453845528
 30
0.0
 10
-26.79958428348498
 20
-0.0581276361550045
 30
0.0
 10
-26.38348200325213
 20
-0.2302430857669679
 30
0.0
 10
-25.83731050009042
 20
-0.3803329715548922
 30
0.0
 10
-25.46585915627126
 20
-0.429459934887546
 30
0.0
 10
-25.27657733989393
 20
-0.4153287123036277
 30
0.0
 10
-25.26888427051959
 20
-0.4147543704161544
 30
0.0
1001
PE_URL
1000

  0
SPLINE
  5
380
330
1F
100
AcDbEntity
  8
외형선
  6
Continuous
370
    15
100
AcDbSpline
210
0.0
220
0.0
230
1.0
 70
    24
 71
     3
 72
     8
 73
     4
 74
     0
 42
0.000000001
 43
0.00000001
 40
0.0
 40
0.0
 40
0.0
 40
0.0
 40
1.0
 40
1.0
 40
1.0
 40
1.0
 10
-24.99843750000018
 20
-0.5565281455129454
 30
0.0
 10
-24.99843750000018
 20
-0.4951355603800613
 30
0.0
 10
-24.99843750000018
 20
-0.4340226400434228
 30
0.0
 10
-24.99843750000018
 20
-0.3953220955226313
 30
0.0
  0
SPLINE
  5
381
330
1F
100
AcDbEntity
  8
0
  6
Continuous
 62
     1
370
    25
100
AcDbSpline
210
0.0
220
0.0
230
1.0
 70
     8
 71
     3
 72
    11
 73
     7
 74
     0
 42
0.000000001
 43
0.00000001
 40
0.0
 40
0.0
 40
0.0
 40
0.0
 40
0.1105677099310386
 40
0.4071557084826714
 40
0.7039381978200466
 40
1.0
 40
1.0
 40
1.0
 40
1.0
 10
-26.32563122700626
 20
0.4685490249203484
 30
0.0
 10
-26.27673524925466
 20
0.4875263126628676
 30
0.0
 10
-26.09668018185916
 20
0.5574084784480111
 30
0.0
 10
-25.78518403356144
 20
0.6019485021016995
 30
0.0
 10
-25.39154420276638
 20
0.5930107008060106
 30
0.0
 10
-25.12936682953823
 20
0.5153111364361007
 30
0.0
 10
-24.99843750000034
 20
0.4765085817263697
 30
0.0
1001
PE_URL
1000

  0
LINE
  5
382
330
1F
100
AcDbEntity
  8
0
  6
Continuous
 62
     1
370
    25
100
AcDbLine
 10
-28.57031250000002
 20
0.5948093509414218
 30
0.0
 11
-28.57031250000003
 21
-0.5953124999999768
 31
0.0
1001
PE_URL
1000

  0
SPLINE
  5
383
330
1F
100
AcDbEntity
  8
0
  6
Continuous
 62
     1
370
    25
100
AcDbSpline
210
0.0
220
0.0
230
1.0
 70
     8
 71
     3
 72
    10
 73
     6
 74
     0
 42
0.000000001
 43
0.00000001
 40
0.0
 40
0.0
 40
0.0
 40
0.0
 40
0.1073350994299025
 40
0.6873988435040824
 40
1.0
 40
1.0
 40
1.0
 40
1.0
 10
-25.93779409232283
 20
0.4850377695143374
 30
0.0
 10
-25.90417075189139
 20
0.4915979764990853
 30
0.0
 10
-25.68883909011361
 20
0.5336110618589971
 30
0.0
 10
-25.37567418694234
 20
0.4897832927717106
 30
0.0
 10
-25.09627865624896
 20
0.4129282578320913
 30
0.0
 10
-24.99843750000012
 20
0.3860144934516208
 30
0.0
1001
PE_URL
1000

  0
SPLINE
  5
384
330
1F
100
AcDbEntity
  8
0
  6
Continuous
 62
     1
370
    25
100
AcDbSpline
210
0.0
220
0.0
230
1.0
 70
     8
 71
     3
 72
    13
 73
     9
 74
     0
 42
0.000000001
 43
0.00000001
 40
0.0
 40
0.0
 40
0.0
 40
0.0
 40
0.0016017008536452
 40
0.1957231533873914
 40
0.3898343973729596
 40
0.5932254170888128
 40
0.7966140179009822
 40
1.0
 40
1.0
 40
1.0
 40
1.0
 10
-27.30907691382893
 20
0.4473288563138476
 30
0.0
 10
-27.75480897556349
 20
0.4011892311111081
 30
0.0
 10
-27.15710874342978
 20
0.4845571778770688
 30
0.0
 10
-26.85687768174579
 20
0.4835161487058284
 30
0.0
 10
-26.40127980879501
 20
0.4258199997932928
 30
0.0
 10
-25.93840355670245
 20
0.2741053902535833
 30
0.0
 10
-25.46842301169313
 20
0.0645283295868713
 30
0.0
 10
-25.1550986648631
 20
-0.0789206563654434
 30
0.0
 10
-24.99843750000003
 20
-0.15064468759723
 30
0.0
1001
PE_URL
1000

  0
SPLINE
  5
385
330
1F
100
AcDbEntity
  8
외형선
  6
Continuous
370
    15
100
AcDbSpline
210
0.0
220
0.0
230
1.0
 70
    24
 71
     3
 72
    10
 73
     6
 74
     0
 42
0.000000001
 43
0.00000001
 40
0.0
 40
0.0
 40
0.0
 40
0.0
 40
0.5
 40
0.5
 40
1.0
 40
1.0
 40
1.0
 40
1.0
 10
-24.99843750000003
 20
-0.15064468759723
 30
0.0
 10
-24.99843750000003
 20
-0.0607631573994172
 30
0.0
 10
-24.99843750000003
 20
0.0376337755325378
 30
0.0
 10
-24.99843750000003
 20
0.2252227521337305
 30
0.0
 10
-24.99843750000003
 20
0.3136073395139972
 30
0.0
 10
-24.99843750000002
 20
0.3860144934515906
 30
0.0
  0
SPLINE
  5
386
330
1F
100
AcDbEntity
  8
외형선
  6
Continuous
370
    15
100
AcDbSpline
210
0.0
220
0.0
230
1.0
 70
    24
 71
     3
 72
    12
 73
     8
 74
     0
 42
0.000000001
 43
0.00000001
 40
0.0
 40
0.0
 40
0.0
 40
0.0
 40
0.0575914491920363
 40
0.2492816639880794
 40
0.435569518384589
 40
0.6272597331825741
 40
1.0
 40
1.0
 40
1.0
 40
1.0
 10
-24.99843750000003
 20
-0.397137923809653
 30
0.0
 10
-24.99843750000003
 20
-0.3975997235377639
 30
0.0
 10
-24.99843750000003
 20
-0.3995986002159486
 30
0.0
 10
-24.99843750000002
 20
-0.3843391733769574
 30
0.0
 10
-24.99843750000002
 20
-0.350813765312647
 30
0.0
 10
-24.99843750000002
 20
-0.2837008220739405
 30
0.0
 10
-24.99843750000002
 20
-0.2035650109742444
 30
0.0
 10
-24.99843750000002
 20
-0.15064468759723
 30
0.0
  0
SPLINE
  5
387
330
1F
100
AcDbEntity
  8
외형선
  6
Continuous
370
    15
100
AcDbSpline
210
0.0
220
0.0
230
1.0
 70
    24
 71
     3
 72
     8
 73
     4
 74
     0
 42
0.000000001
 43
0.00000001
 40
0.0
 40
0.0
 40
0.0
 40
0.0
 40
1.0
 40
1.0
 40
1.0
 40
1.0
 10
-24.99843750000002
 20
0.3860144934515924
 30
0.0
 10
-24.99843750000002
 20
0.4152268618120024
 30
0.0
 10
-24.99843750000002
 20
0.445581201549747
 30
0.0
 10
-24.99843750000002
 20
0.4765085817279134
 30
0.0
  0
LINE
  5
388
330
1F
100
AcDbEntity
  8
0
  6
Continuous
 62
     1
370
    25
100
AcDbLine
 10
-26.85476655963824
 20
-0.2397134210947427
 30
0.0
 11
-26.82780777016575
 21
-0.2534666033235715
 31
0.0
1001
PE_URL
1000

  0
LINE
  5
389
330
1F
100
AcDbEntity
  8
0
  6
Continuous
 62
     1
370
    25
100
AcDbLine
 10
-26.98281250000002
 20
-0.174390044714833
 30
0.0
 11
-26.85476655963824
 21
-0.2397134210947427
 31
0.0
1001
PE_URL
1000

  0
SPLINE
  5
38A
330
1F
100
AcDbEntity
  8
0
  6
Continuous
 62
     1
370
    25
100
AcDbSpline
210
0.0
220
0.0
230
1.0
 70
     8
 71
     3
 72
    10
 73
     6
 74
     0
 42
0.000000001
 43
0.00000001
 40
0.0
 40
0.0
 40
0.0
 40
0.0
 40
0.1638873047685493
 40
0.7611252891582325
 40
1.0
 40
1.0
 40
1.0
 40
1.0
 10
-26.63270685949344
 20
-0.4567162741612888
 30
0.0
 10
-26.61897179234334
 20
-0.457339292451047
 30
0.0
 10
-26.55518340451802
 20
-0.4602327134918779
 30
0.0
 10
-26.44754258821805
 20
-0.46317936481601
 30
0.0
 10
-26.35567530099593
 20
-0.467469800308025
 30
0.0
 10
-26.32942911217933
 20
-0.4686955639441783
 30
0.0
1001
PE_URL
1000

  0
LINE
  5
38B
330
1F
100
AcDbEntity
  8
0
  6
Continuous
 62
     1
370
    25
100
AcDbLine
 10
-26.18295143875743
 20
0.4752220996800217
 30
0.0
 11
-26.8110743463642
 21
0.4716886171569326
 31
0.0
1001
PE_URL
1000

  0
LINE
  5
38C
330
1F
100
AcDbEntity
  8
0
  6
Continuous
 62
     1
370
    25
100
AcDbLine
 10
-27.10174456168862
 20
-0.118277879995492
 30
0.0
 11
-26.99148577399622
 21
-0.1702979927296808
 31
0.0
1001
PE_URL
1000

  0
SPLINE
  5
38D
330
1F
100
AcDbEntity
  8
0
  6
Continuous
 62
     1
370
    25
100
AcDbSpline
210
0.0
220
0.0
230
1.0
 70
     8
 71
     3
 72
    10
 73
     6
 74
     0
 42
0.000000001
 43
0.00000001
 40
0.0
 40
0.0
 40
0.0
 40
0.0
 40
0.2604817444871663
 40
0.5970288346849748
 40
1.0
 40
1.0
 40
1.0
 40
1.0
 10
-28.27349507304508
 20
-0.3998815462250244
 30
0.0
 10
-28.19316686329002
 20
-0.3963557010802189
 30
0.0
 10
-28.0090531644325
 20
-0.3882744007102973
 30
0.0
 10
-27.69707768786922
 20
-0.3970883661261672
 30
0.0
 10
-27.46230278632156
 20
-0.4273262528044745
 30
0.0
 10
-27.33437150814403
 20
-0.4438031907848229
 30
0.0
1001
PE_URL
1000

  0
SPLINE
  5
38E
330
1F
100
AcDbEntity
  8
0
  6
Continuous
 62
     1
370
    25
100
AcDbSpline
210
0.0
220
0.0
230
1.0
 70
     8
 71
     3
 72
    14
 73
    10
 74
     0
 42
0.000000001
 43
0.00000001
 40
0.0
 40
0.0
 40
0.0
 40
0.0
 40
0.2499999999999999
 40
0.2499999999999999
 40
0.4999999999999998
 40
0.4999999999999998
 40
0.7499999999999999
 40
0.7499999999999999
 40
1.0
 40
1.0
 40
1.0
 40
1.0
 10
-26.98281249999683
 20
0.012639393949073
 30
0.0
 10
-26.91530165138953
 20
-0.014416383429793
 30
0.0
 10
-26.84749271493236
 20
-0.041591623068006
 30
0.0
 10
-26.71506858555924
 20
-0.0946621715475557
 30
0.0
 10
-26.65027216580098
 20
-0.1205910074134819
 30
0.0
 10
-26.51600449099357
 20
-0.1712193401959303
 30
0.0
 10
-26.44796820048609
 20
-0.1957180563010783
 30
0.0
 10
-26.31392233062741
 20
-0.2417086139641102
 30
0.0
 10
-26.24932828451919
 20
-0.2630645374866928
 30
0.0
 10
-26.18293837806672
 20
-0.2828475979619446
 30
0.0
1001
PE_URL
1000

  0
SPLINE
  5
38F
330
1F
100
AcDbEntity
  8
0
  6
Continuous
 62
     1
370
    25
100
AcDbSpline
210
0.0
220
0.0
230
1.0
 70
     8
 71
     3
 72
    14
 73
    10
 74
     0
 42
0.000000001
 43
0.00000001
 40
0.0
 40
0.0
 40
0.0
 40
0.0
 40
0.25
 40
0.25
 40
0.5
 40
0.5
 40
0.75
 40
0.75
 40
1.0
 40
1.0
 40
1.0
 40
1.0
 10
-26.98281249999221
 20
-0.0063103264868096
 30
0.0
 10
-26.91529950426975
 20
-0.0449791707526699
 30
0.0
 10
-26.84748840257446
 20
-0.0836623520347177
 30
0.0
 10
-26.71506026306599
 20
-0.1589011296837319
 30
0.0
 10
-26.65026160469117
 20
-0.1955072563901114
 30
0.0
 10
-26.5159894305762
 20
-0.2666651595833822
 30
0.0
 10
-26.44795095507745
 20
-0.3009316321379205
 30
0.0
 10
-26.31390120732639
 20
-0.3649154945538639
 30
0.0
 10
-26.24930543455969
 20
-0.394447505208427
 30
0.0
 10
-26.18291304041401
 20
-0.4216134318309658
 30
0.0
1001
PE_URL
1000

  0
SPLINE
  5
390
330
1F
100
AcDbEntity
  8
0
  6
Continuous
 62
     1
370
    25
100
AcDbSpline
210
0.0
220
0.0
230
1.0
 70
     8
 71
     3
 72
    14
 73
    10
 74
     0
 42
0.000000001
 43
0.00000001
 40
0.0
 40
0.0
 40
0.0
 40
0.0
 40
0.25
 40
0.25
 40
0.5
 40
0.5
 40
0.75
 40
0.75
 40
1.0
 40
1.0
 40
1.0
 40
1.0
 10
-26.98281249999226
 20
-0.1704800280438969
 30
0.0
 10
-26.91530840870207
 20
-0.2075312910905622
 30
0.0
 10
-26.8475062865953
 20
-0.2435461487608541
 30
0.0
 10
-26.71509477789559
 20
-0.3115359620433326
 30
0.0
 10
-26.65030540310089
 20
-0.3435761017147949
 30
0.0
 10
-26.5160518884426
 20
-0.4036936796726311
 30
0.0
 10
-26.44802247460233
 20
-0.4315089334212447
 30
0.0
 10
-26.31398880970114
 20
-0.4810946629881267
 30
0.0
 10
-26.24940019583869
 20
-0.502746853758731
 30
0.0
 10
-26.18301811878425
 20
-0.5213395975464663
 30
0.0
1001
PE_URL
1000

  0
SPLINE
  5
391
330
1F
100
AcDbEntity
  8
0
  6
Continuous
 62
     1
370
    25
100
AcDbSpline
210
0.0
220
0.0
230
1.0
 70
     8
 71
     3
 72
     9
 73
     5
 74
     0
 42
0.000000001
 43
0.00000001
 40
0.0
 40
0.0
 40
0.0
 40
0.0
 40
0.5863429208167552
 40
1.0
 40
1.0
 40
1.0
 40
1.0
 10
-26.98281250000002
 20
-0.4762736484928011
 30
0.0
 10
-26.91454430345718
 20
-0.47665422397584
 30
0.0
 10
-26.79811380840196
 20
-0.4773032903660516
 30
0.0
 10
-26.68170653819737
 20
-0.456070244699418
 30
0.0
 10
-26.63355384680884
 20
-0.4472870450467936
 30
0.0
1001
PE_URL
1000

  0
SPLINE
  5
392
330
1F
100
AcDbEntity
  8
0
  6
Continuous
 62
     1
370
    25
100
AcDbSpline
210
0.0
220
0.0
230
1.0
 70
     8
 71
     3
 72
    14
 73
    10
 74
     0
 42
0.000000001
 43
0.00000001
 40
0.0
 40
0.0
 40
0.0
 40
0.0
 40
0.2500000000000001
 40
0.2500000000000001
 40
0.5000000000000001
 40
0.5000000000000001
 40
0.7500000000000002
 40
0.7500000000000002
 40
1.0
 40
1.0
 40
1.0
 40
1.0
 10
-26.98281249999815
 20
0.4757704994342658
 30
0.0
 10
-26.91530275815987
 20
0.4767274626516121
 30
0.0
 10
-26.84749493781342
 20
0.4746449375386975
 30
0.0
 10
-26.7150728755444
 20
0.4646325476608771
 30
0.0
 10
-26.6502776097019
 20
0.4567532806553421
 30
0.0
 10
-26.51601225414952
 20
0.435168715694458
 30
0.0
 10
-26.44797708994386
 20
0.4214886791528981
 30
0.0
 10
-26.31393321905066
 20
0.3891323260817985
 30
0.0
 10
-26.24934006287022
 20
0.3706234844507397
 30
0.0
 10
-26.18295143875743
 20
0.349761750076111
 30
0.0
1001
PE_URL
1000

  0
LINE
  5
393
330
1F
100
AcDbEntity
  8
0
  6
Continuous
 62
     1
370
    25
100
AcDbLine
 10
-26.31189586846709
 20
0.4744967274904224
 30
0.0
 11
-26.18301811878425
 21
0.5208364484878971
 31
0.0
1001
PE_URL
1000

  0
SPLINE
  5
394
330
1F
100
AcDbEntity
  8
0
  6
Continuous
 62
     1
370
    25
100
AcDbSpline
210
0.0
220
0.0
230
1.0
 70
     8
 71
     3
 72
    18
 73
    14
 74
     0
 42
0.000000001
 43
0.00000001
 40
0.0
 40
0.0
 40
0.0
 40
0.0
 40
0.25
 40
0.25
 40
0.375
 40
0.375
 40
0.5
 40
0.5
 40
0.625
 40
0.625
 40
0.75
 40
0.75
 40
1.0
 40
1.0
 40
1.0
 40
1.0
 10
-28.57031250000002
 20
0.5646647866853383
 30
0.0
 10
-28.44130551874441
 20
0.5407665885105275
 30
0.0
 10
-28.3037382947299
 20
0.5021277596399636
 30
0.0
 10
-28.10661043330047
 20
0.4279242480825319
 30
0.0
 10
-28.04241406655533
 20
0.4006200912500551
 30
0.0
 10
-27.90933430515884
 20
0.3407523428104616
 30
0.0
 10
-27.84186514777532
 20
0.3083600345111842
 30
0.0
 10
-27.70880647831761
 20
0.2404539101925498
 30
0.0
 10
-27.64463073070772
 20
0.2052171706112405
 30
0.0
 10
-27.51317755967351
 20
0.1321194936732338
 30
0.0
 10
-27.44591549858954
 20
0.0942395853104672
 30
0.0
 10
-27.24507410789514
 20
-0.0202927553195358
 30
0.0
 10
-27.1167208392712
 20
-0.0969811777084657
 30
0.0
 10
-26.98281249999228
 20
-0.1704800280438916
 30
0.0
1001
PE_URL
1000

  0
SPLINE
  5
395
330
1F
100
AcDbEntity
  8
0
  6
Continuous
 62
     1
370
    25
100
AcDbSpline
210
0.0
220
0.0
230
1.0
 70
     8
 71
     3
 72
    12
 73
     8
 74
     0
 42
0.000000001
 43
0.00000001
 40
0.0
 40
0.0
 40
0.0
 40
0.0
 40
0.2005350339943409
 40
0.3995688228379385
 40
0.6005973890149078
 40
0.800588774054713
 40
1.0
 40
1.0
 40
1.0
 40
1.0
 10
-28.57031250000002
 20
0.469433476602426
 30
0.0
 10
-28.47049514487725
 20
0.4475007795898436
 30
0.0
 10
-28.27160768720577
 20
0.4037995780969071
 30
0.0
 10
-27.97341222733451
 20
0.2928442913762806
 30
0.0
 10
-27.67446748926832
 20
0.1622886233950927
 30
0.0
 10
-27.37600684283483
 20
0.0150715496180518
 30
0.0
 10
-27.17727746066718
 20
-0.0803375784934181
 30
0.0
 10
-27.07805710346506
 20
-0.127972848468628
 30
0.0
1001
PE_URL
1000

  0
LINE
  5
396
330
1F
100
AcDbEntity
  8
0
  6
Continuous
 62
     1
370
    25
100
AcDbLine
 10
-28.57031250000001
 20
0.5646647866853383
 30
0.0
 11
-28.57031250000002
 21
0.469433476602426
 31
0.0
1001
PE_URL
1000

  0
SPLINE
  5
397
330
1F
100
AcDbEntity
  8
0
  6
Continuous
 62
     1
370
    25
100
AcDbSpline
210
0.0
220
0.0
230
1.0
 70
     8
 71
     3
 72
    18
 73
    14
 74
     0
 42
0.000000001
 43
0.00000001
 40
0.0
 40
0.0
 40
0.0
 40
0.0
 40
0.25
 40
0.25
 40
0.375
 40
0.375
 40
0.5
 40
0.5
 40
0.625
 40
0.625
 40
0.75
 40
0.75
 40
1.0
 40
1.0
 40
1.0
 40
1.0
 10
-28.57031250000002
 20
0.594557776412119
 30
0.0
 10
-28.44130551874441
 20
0.5914437078994408
 30
0.0
 10
-28.3037382947299
 20
0.5732755559861595
 30
0.0
 10
-28.10661043330047
 20
0.5259821204347603
 30
0.0
 10
-28.04241406655532
 20
0.5070377459796007
 30
0.0
 10
-27.90933430515881
 20
0.4626706313924563
 30
0.0
 10
-27.84186514777531
 20
0.4373498367006659
 30
0.0
 10
-27.70880647831761
 20
0.3818375717999936
 30
0.0
 10
-27.64463073070772
 20
0.351894821180713
 30
0.0
 10
-27.51317755967347
 20
0.2876141590902468
 30
0.0
 10
-27.44591549858951
 20
0.2532391315672898
 30
0.0
 10
-27.24507410789511
 20
0.1461671242390783
 30
0.0
 10
-27.1167208392712
 20
0.0703872139210504
 30
0.0
 10
-26.98281249999224
 20
-0.0063103264867883
 30
0.0
1001
PE_URL
1000

  0
LINE
  5
398
330
1F
100
AcDbEntity
  8
0
  6
Continuous
 62
     1
370
    25
100
AcDbLine
 10
-27.09520766982708
 20
0.056747521268552
 30
0.0
 11
-26.98281250000002
 21
0.0126393939503573
 31
0.0
1001
PE_URL
1000

  0
LINE
  5
399
330
1F
100
AcDbEntity
  8
0
  6
Continuous
 62
     1
370
    25
100
AcDbLine
 10
-28.57031250000002
 20
0.594557776412119
 30
0.0
 11
-28.57031250000006
 21
0.5646647866853365
 31
0.0
1001
PE_URL
1000

  0
SPLINE
  5
39A
330
1F
100
AcDbEntity
  8
0
  6
Continuous
 62
     1
370
    25
100
AcDbSpline
210
0.0
220
0.0
230
1.0
 70
     8
 71
     3
 72
     8
 73
     4
 74
     0
 42
0.000000001
 43
0.00000001
 40
0.0
 40
0.0
 40
0.0
 40
0.0
 40
1.0
 40
1.0
 40
1.0
 40
1.0
 10
-28.20247187932362
 20
-0.1662440290574092
 30
0.0
 10
-28.18114721749008
 20
-0.191477302607161
 30
0.0
 10
-28.16209456378127
 20
-0.2157815228456487
 30
0.0
 10
-28.14588435925067
 20
-0.2389234290975284
 30
0.0
1001
PE_URL
1000

  0
LINE
  5
39B
330
1F
100
AcDbEntity
  8
0
  6
Continuous
 62
     1
370
    25
100
AcDbLine
 10
-28.1533832928519
 20
-0.245215781525649
 30
0.0
 11
-28.57031250000003
 21
-0.0002515745292775
 31
0.0
1001
PE_URL
1000

  0
LINE
  5
39C
330
1F
100
AcDbEntity
  8
0
  6
Continuous
 62
     1
370
    25
100
AcDbLine
 10
-28.57031250000003
 20
-0.0002515745292775
 30
0.0
 11
-28.57031250000003
 21
0.1588414917789956
 31
0.0
1001
PE_URL
1000

  0
SPLINE
  5
39D
330
1F
100
AcDbEntity
  8
0
  6
Continuous
 62
     1
370
    25
100
AcDbSpline
210
0.0
220
0.0
230
1.0
 70
     8
 71
     3
 72
    10
 73
     6
 74
     0
 42
0.000000001
 43
0.00000001
 40
0.0
 40
0.0
 40
0.0
 40
0.0
 40
0.5
 40
0.5
 40
1.0
 40
1.0
 40
1.0
 40
1.0
 10
-28.57031250000003
 20
0.1588414917789956
 30
0.0
 10
-28.50664656132911
 20
0.1087870849225668
 30
0.0
 10
-28.44404354768479
 20
0.0566805534836221
 30
0.0
 10
-28.32100789714855
 20
-0.0517227235444077
 30
0.0
 10
-28.25999786489292
 20
-0.1085854771502172
 30
0.0
 10
-28.20247187932313
 20
-0.1662440290561995
 30
0.0
1001
PE_URL
1000

  0
SPLINE
  5
39E
330
1F
100
AcDbEntity
  8
0
  6
Continuous
 62
     1
370
    25
100
AcDbSpline
210
0.0
220
0.0
230
1.0
 70
     8
 71
     3
 72
    14
 73
    10
 74
     0
 42
0.000000001
 43
0.00000001
 40
0.0
 40
0.0
 40
0.0
 40
0.0
 40
0.25
 40
0.25
 40
0.5
 40
0.5
 40
0.75
 40
0.75
 40
1.0
 40
1.0
 40
1.0
 40
1.0
 10
-28.20247187932367
 20
-0.1662440290573843
 30
0.0
 10
-28.10074801543573
 20
-0.210294375925256
 30
0.0
 10
-28.00160163354676
 20
-0.251569612173641
 30
0.0
 10
-27.7955595151592
 20
-0.3266195470396229
 30
0.0
 10
-27.69462855272867
 20
-0.3596123047403856
 30
0.0
 10
-27.49318453089309
 20
-0.4142964120724807
 30
0.0
 10
-27.38849720760795
 20
-0.4362525201745532
 30
0.0
 10
-27.18468551966581
 20
-0.466420381705729
 30
0.0
 10
-27.085795493622
 20
-0.4748138452966261
 30
0.0
 10
-26.98281249999815
 20
-0.4762736484928295
 30
0.0
1001
PE_URL
1000

  0
SPLINE
  5
39F
330
1F
100
AcDbEntity
  8
0
  6
Continuous
 62
     1
370
    25
100
AcDbSpline
210
0.0
220
0.0
230
1.0
 70
    24
 71
     3
 72
     8
 73
     4
 74
     0
 42
0.000000001
 43
0.00000001
 40
0.0
 40
0.0
 40
0.0
 40
0.0
 40
1.0
 40
1.0
 40
1.0
 40
1.0
 10
-28.57031250000002
 20
0.469433476602426
 30
0.0
 10
-28.57031250000002
 20
0.3974234343716732
 30
0.0
 10
-28.57031250000003
 20
0.2851245335453965
 30
0.0
 10
-28.57031250000003
 20
0.1588414917790133
 30
0.0
1001
PE_URL
1000

  0
SPLINE
  5
3A0
330
1F
100
AcDbEntity
  8
0
  6
Continuous
 62
     1
370
    25
100
AcDbSpline
210
0.0
220
0.0
230
1.0
 70
    24
 71
     3
 72
     8
 73
     4
 74
     0
 42
0.000000001
 43
0.00000001
 40
0.0
 40
0.0
 40
0.0
 40
0.0
 40
1.0
 40
1.0
 40
1.0
 40
1.0
 10
-28.20775958401946
 20
-0.2908429073890839
 30
0.0
 10
-28.18817175907036
 20
-0.2744067706987407
 30
0.0
 10
-28.16747866974035
 20
-0.25704320707406
 30
0.0
 10
-28.14588435924661
 20
-0.2389234291032287
 30
0.0
1001
PE_URL
1000

  0
LINE
  5
3A1
330
1F
100
AcDbEntity
  8
0
  6
Continuous
 62
     1
370
    25
100
AcDbLine
 10
-28.57031250000003
 20
-0.4169703245292786
 30
0.0
 11
-28.27346176888378
 21
-0.3997379871222945
 31
0.0
1001
PE_URL
1000

  0
SPLINE
  5
3A2
330
1F
100
AcDbEntity
  8
0
  6
Continuous
 62
     1
370
    25
100
AcDbSpline
210
0.0
220
0.0
230
1.0
 70
     8
 71
     3
 72
    14
 73
    10
 74
     0
 42
0.000000001
 43
0.00000001
 40
0.0
 40
0.0
 40
0.0
 40
0.0
 40
0.000283652241095
 40
0.000283652241095
 40
0.000283652241095
 40
0.0004260012873325
 40
0.0004260012873325
 40
0.0004260012873325
 40
0.0004899499954576
 40
0.0004899499954576
 40
0.0004899499954576
 40
0.0004899499954576
 10
-28.57031250000003
 20
-0.4169703245292786
 30
0.0
 10
-28.49940964699206
 20
-0.3976564230392969
 30
0.0
 10
-28.42887739278483
 20
-0.3757584498551174
 30
0.0
 10
-28.35902489244241
 20
-0.3507591720015219
 30
0.0
 10
-28.32395773115753
 20
-0.3382091028672706
 30
0.0
 10
-28.28904933623612
 20
-0.324867055966965
 30
0.0
 10
-28.25436551748824
 20
-0.3106168269358913
 30
0.0
 10
-28.23878380020095
 20
-0.3042149067305195
 30
0.0
 10
-28.22324578133055
 20
-0.2976283068879346
 30
0.0
 10
-28.20775958403502
 20
-0.2908429073959353
 30
0.0
1001
PE_URL
1000

  0
LINE
  5
3A3
330
1F
100
AcDbEntity
  8
0
  6
Continuous
 62
     1
370
    25
100
AcDbLine
 10
-28.57031250000003
 20
-0.0002515745292775
 30
0.0
 11
-28.57031250000003
 21
-0.4169703245292786
 31
0.0
1001
PE_URL
1000

  0
SPLINE
  5
3A4
330
1F
100
AcDbEntity
  8
0
  6
Continuous
 62
     1
370
    25
100
AcDbSpline
210
0.0
220
0.0
230
1.0
 70
     8
 71
     3
 72
    10
 73
     6
 74
     0
 42
0.000000001
 43
0.00000001
 40
0.0
 40
0.0
 40
0.0
 40
0.0
 40
0.1305916801046275
 40
0.5641799088897166
 40
1.0
 40
1.0
 40
1.0
 40
1.0
 10
-27.76655932206256
 20
-0.3999089839649161
 30
0.0
 10
-27.80157281749651
 20
-0.4165601718682334
 30
0.0
 10
-27.95283751252155
 20
-0.4884963447291155
 30
0.0
 10
-28.22032680889136
 20
-0.5646283578851672
 30
0.0
 10
-28.45345111811456
 20
-0.5848993903201971
 30
0.0
 10
-28.57031250000003
 20
-0.595060925470674
 30
0.0
1001
PE_URL
1000

  0
SPLINE
  5
3A5
330
1F
100
AcDbEntity
  8
0
  6
Continuous
 62
     1
370
    25
100
AcDbSpline
210
0.0
220
0.0
230
1.0
 70
    24
 71
     3
 72
     8
 73
     4
 74
     0
 42
0.000000001
 43
0.00000001
 40
0.0
 40
0.0
 40
0.0
 40
0.0
 40
1.0
 40
1.0
 40
1.0
 40
1.0
 10
-28.57031250000003
 20
-0.4169703245292786
 30
0.0
 10
-28.57031250000003
 20
-0.4674912302904856
 30
0.0
 10
-28.57031250000003
 20
-0.5354327830890084
 30
0.0
 10
-28.57031250000003
 20
-0.595060925470674
 30
0.0
1001
PE_URL
1000

  0
SPLINE
  5
3A6
330
1F
100
AcDbEntity
  8
0
  6
Continuous
 62
     1
370
    25
100
AcDbSpline
210
0.0
220
0.0
230
1.0
 70
  1064
 71
     3
 72
    10
 73
     6
 74
     4
 42
0.000000001
 43
0.0000000001
 44
0.0
 40
0.0
 40
0.0
 40
0.0
 40
0.0
 40
0.3513199830628814
 40
0.6941522670354381
 40
0.8098061059247711
 40
0.8098061059247711
 40
0.8098061059247711
 40
0.8098061059247711
 10
-25.37815974182315
 20
-0.5953124999999839
 30
0.0
 10
-25.49507048426639
 20
-0.5912994072764746
 30
0.0
 10
-25.72606746940866
 20
-0.5833701759598807
 30
0.0
 10
-25.99703524164814
 20
-0.5671787663347827
 30
0.0
 10
-26.14555402441453
 20
-0.5305733666533833
 30
0.0
 10
-26.18301811878425
 20
-0.5213395975464663
 30
0.0
 11
-25.37815974182315
 21
-0.5953124999999839
 31
0.0
 11
-25.72921780947784
 21
-0.5817491805737585
 31
0.0
 11
-26.07031439839966
 21
-0.5472949796725639
 31
0.0
 11
-26.18301811878425
 21
-0.5213395975464663
 31
0.0
1001
PE_URL
1000

  0
ENDSEC
  0
SECTION
  2
OBJECTS
  0
DICTIONARY
  5
C
330
0
100
AcDbDictionary
281
     1
  3
ACAD_DETAILVIEWSTYLE
350
1AA
  3
ACAD_GROUP
350
D
  3
ACAD_IMAGE_VARS
350
3CA
  3
ACAD_LAYOUT
350
1A
  3
ACAD_MLINESTYLE
350
17
  3
ACAD_PLOTSETTINGS
350
19
  3
ACAD_PLOTSTYLENAME
350
E
  3
ACAD_SCALELIST
350
47
  3
ACAD_SECTIONVIEWSTYLE
350
1AB
  3
AcDbVariableDictionary
350
1A5
  3
APPDATA
350
149
  3
DWGPROPS
350
3CB
  0
DICTIONARY
  5
1AA
102
{ACAD_REACTORS
330
C
102
}
330
C
100
AcDbDictionary
281
     1
  0
DICTIONARY
  5
D
102
{ACAD_REACTORS
330
C
102
}
330
C
100
AcDbDictionary
281
     1
  0
RASTERVARIABLES
  5
3CA
102
{ACAD_REACTORS
330
C
102
}
330
C
100
AcDbRasterVariables
 90
        0
 70
     1
 71
     1
 72
     1
  0
DICTIONARY
  5
1A
102
{ACAD_REACTORS
330
C
102
}
330
C
100
AcDbDictionary
281
     1
  3
Layout1
350
1E
  3
Layout2
350
26
  3
Model
350
22
  0
DICTIONARY
  5
17
102
{ACAD_REACTORS
330
C
102
}
330
C
100
AcDbDictionary
281
     1
  3
Standard
350
18
  0
DICTIONARY
  5
19
102
{ACAD_REACTORS
330
C
102
}
330
C
100
AcDbDictionary
281
     1
  0
ACDBDICTIONARYWDFLT
  5
E
102
{ACAD_REACTORS
330
C
102
}
330
C
100
AcDbDictionary
281
     1
  3
Normal
350
F
100
AcDbDictionaryWithDefault
340
F
  0
DICTIONARY
  5
47
102
{ACAD_REACTORS
330
C
102
}
330
C
100
AcDbDictionary
281
     1
  3
A0
350
48
  3
A1
350
49
  3
A2
350
4A
  3
A3
350
4B
  3
A4
350
4C
  3
A5
350
4D
  3
A6
350
4E
  3
A7
350
4F
  3
A8
350
50
  3
A9
350
51
  3
B0
350
52
  3
B1
350
53
  3
B2
350
54
  3
B3
350
55
  3
B4
350
56
  3
B5
350
57
  3
B6
350
58
  3
B7
350
59
  3
B8
350
5A
  3
B9
350
5B
  3
C0
350
5C
  3
C1
350
5D
  3
C2
350
5E
  3
C3
350
5F
  3
C4
350
60
  3
C5
350
61
  3
C6
350
62
  3
C7
350
63
  3
C8
350
64
  3
C9
350
65
  3
D0
350
66
  3
D1
350
67
  3
D2
350
68
  0
DICTIONARY
  5
1AB
102
{ACAD_REACTORS
330
C
102
}
330
C
100
AcDbDictionary
281
     1
  0
DICTIONARY
  5
1A5
102
{ACAD_REACTORS
330
C
102
}
330
C
100
AcDbDictionary
281
     1
  0
DICTIONARY
  5
149
102
{ACAD_REACTORS
330
C
102
}
330
C
100
AcDbDictionary
281
     1
  0
XRECORD
  5
3CB
102
{ACAD_REACTORS
330
C
102
}
330
C
100
AcDbXrecord
280
     1
  1
DWGPROPS COOKIE
  2

  3

  4

  6

  7

  8
12016016
  9

300
=
301
=
302
=
303
=
304
=
305
=
306
=
307
=
308
=
309
=
 40
0.0
 41
2458313.014746053
 42
2458318.278718299
  1

 90
        0
  0
LAYOUT
  5
1E
102
{ACAD_REACTORS
330
1A
102
}
330
1A
100
AcDbPlotSettings
  1

  2
none_device
  4

  6

 40
0.0
 41
0.0
 42
0.0
 43
0.0
 44
0.0
 45
0.0
 46
0.0
 47
0.0
 48
0.0
 49
0.0
140
0.0
141
0.0
142
1.0
143
1.0
 70
   688
 72
     1
 73
     0
 74
     5
  7

 75
    16
147
1.0
148
0.0
149
0.0
100
AcDbLayout
  1
Layout1
 70
     1
 71
     1
 10
0.0
 20
0.0
 11
420.0
 21
297.0
 12
0.0
 22
0.0
 32
0.0
 14
1.000000000000000E+20
 24
1.000000000000000E+20
 34
1.000000000000000E+20
 15
-1.000000000000000E+20
 25
-1.000000000000000E+20
 35
-1.000000000000000E+20
146
0.0
 13
0.0
 23
0.0
 33
0.0
 16
1.0
 26
0.0
 36
0.0
 17
0.0
 27
1.0
 37
0.0
 76
     0
330
1B
  0
LAYOUT
  5
26
102
{ACAD_REACTORS
330
1A
102
}
330
1A
100
AcDbPlotSettings
  1

  2
none_device
  4

  6

 40
0.0
 41
0.0
 42
0.0
 43
0.0
 44
0.0
 45
0.0
 46
0.0
 47
0.0
 48
0.0
 49
0.0
140
0.0
141
0.0
142
1.0
143
1.0
 70
   688
 72
     1
 73
     0
 74
     5
  7

 75
    16
147
1.0
148
0.0
149
0.0
100
AcDbLayout
  1
Layout2
 70
     1
 71
     2
 10
0.0
 20
0.0
 11
0.0
 21
0.0
 12
0.0
 22
0.0
 32
0.0
 14
0.0
 24
0.0
 34
0.0
 15
0.0
 25
0.0
 35
0.0
146
0.0
 13
0.0
 23
0.0
 33
0.0
 16
1.0
 26
0.0
 36
0.0
 17
0.0
 27
1.0
 37
0.0
 76
     0
330
23
  0
LAYOUT
  5
22
102
{ACAD_REACTORS
330
1A
102
}
330
1A
100
AcDbPlotSettings
  1

  2
none_device
  4
ANSI_A_(11.00_x_8.50_Inches)
  6

 40
6.35
 41
19.05
 42
6.35000508
 43
19.05000254
 44
279.4
 45
215.9
 46
120.2565872095691
 47
92.19916380300549
 48
0.0
 49
0.0
140
0.0
141
0.0
142
0.0733938119353597
143
1.0
 70
  1696
 72
     0
 73
     0
 74
     0
  7

 75
     0
147
0.0235690232323232
148
0.0
149
0.0
100
AcDbLayout
  1
Model
 70
     1
 71
     0
 10
0.0
 20
0.0
 11
420.0
 21
297.0
 12
0.0
 22
0.0
 32
0.0
 14
-39.95468750000008
 24
-49.97180738881175
 34
0.0
 15
96.00506253295504
 25
27.88124999999997
 35
0.0
146
0.0
 13
0.0
 23
0.0
 33
0.0
 16
1.0
 26
0.0
 36
0.0
 17
0.0
 27
1.0
 37
0.0
 76
     0
330
1F
331
29
  0
MLINESTYLE
  5
18
102
{ACAD_REACTORS
330
17
102
}
330
17
100
AcDbMlineStyle
  2
Standard
 70
     0
  3

 62
   256
 51
90.0
 52
90.0
 71
     2
 49
0.5
 62
   256
  6
BYLAYER
 49
-0.5
 62
   256
  6
BYLAYER
  0
ACDBPLACEHOLDER
  5
F
102
{ACAD_REACTORS
330
E
102
}
330
E
  0
SCALE
  5
48
102
{ACAD_REACTORS
330
47
102
}
330
47
100
AcDbScale
 70
     0
300
1:1
140
1.0
141
1.0
290
     1
  0
SCALE
  5
49
102
{ACAD_REACTORS
330
47
102
}
330
47
100
AcDbScale
 70
     0
300
1:2
140
1.0
141
2.0
290
     0
  0
SCALE
  5
4A
102
{ACAD_REACTORS
330
47
102
}
330
47
100
AcDbScale
 70
     0
300
1:4
140
1.0
141
4.0
290
     0
  0
SCALE
  5
4B
102
{ACAD_REACTORS
330
47
102
}
330
47
100
AcDbScale
 70
     0
300
1:5
140
1.0
141
5.0
290
     0
  0
SCALE
  5
4C
102
{ACAD_REACTORS
330
47
102
}
330
47
100
AcDbScale
 70
     0
300
1:8
140
1.0
141
8.0
290
     0
  0
SCALE
  5
4D
102
{ACAD_REACTORS
330
47
102
}
330
47
100
AcDbScale
 70
     0
300
1:10
140
1.0
141
10.0
290
     0
  0
SCALE
  5
4E
102
{ACAD_REACTORS
330
47
102
}
330
47
100
AcDbScale
 70
     0
300
1:16
140
1.0
141
16.0
290
     0
  0
SCALE
  5
4F
102
{ACAD_REACTORS
330
47
102
}
330
47
100
AcDbScale
 70
     0
300
1:20
140
1.0
141
20.0
290
     0
  0
SCALE
  5
50
102
{ACAD_REACTORS
330
47
102
}
330
47
100
AcDbScale
 70
     0
300
1:30
140
1.0
141
30.0
290
     0
  0
SCALE
  5
51
102
{ACAD_REACTORS
330
47
102
}
330
47
100
AcDbScale
 70
     0
300
1:40
140
1.0
141
40.0
290
     0
  0
SCALE
  5
52
102
{ACAD_REACTORS
330
47
102
}
330
47
100
AcDbScale
 70
     0
300
1:50
140
1.0
141
50.0
290
     0
  0
SCALE
  5
53
102
{ACAD_REACTORS
330
47
102
}
330
47
100
AcDbScale
 70
     0
300
1:100
140
1.0
141
100.0
290
     0
  0
SCALE
  5
54
102
{ACAD_REACTORS
330
47
102
}
330
47
100
AcDbScale
 70
     0
300
2:1
140
2.0
141
1.0
290
     0
  0
SCALE
  5
55
102
{ACAD_REACTORS
330
47
102
}
330
47
100
AcDbScale
 70
     0
300
4:1
140
4.0
141
1.0
290
     0
  0
SCALE
  5
56
102
{ACAD_REACTORS
330
47
102
}
330
47
100
AcDbScale
 70
     0
300
8:1
140
8.0
141
1.0
290
     0
  0
SCALE
  5
57
102
{ACAD_REACTORS
330
47
102
}
330
47
100
AcDbScale
 70
     0
300
10:1
140
10.0
141
1.0
290
     0
  0
SCALE
  5
58
102
{ACAD_REACTORS
330
47
102
}
330
47
100
AcDbScale
 70
     0
300
100:1
140
100.0
141
1.0
290
     0
  0
SCALE
  5
59
102
{ACAD_REACTORS
330
47
102
}
330
47
100
AcDbScale
 70
     0
300
1/128" = 1'-0"
140
0.0078125
141
12.0
290
     0
  0
SCALE
  5
5A
102
{ACAD_REACTORS
330
47
102
}
330
47
100
AcDbScale
 70
     0
300
1/64" = 1'-0"
140
0.015625
141
12.0
290
     0
  0
SCALE
  5
5B
102
{ACAD_REACTORS
330
47
102
}
330
47
100
AcDbScale
 70
     0
300
1/32" = 1'-0"
140
0.03125
141
12.0
290
     0
  0
SCALE
  5
5C
102
{ACAD_REACTORS
330
47
102
}
330
47
100
AcDbScale
 70
     0
300
1/16" = 1'-0"
140
0.0625
141
12.0
290
     0
  0
SCALE
  5
5D
102
{ACAD_REACTORS
330
47
102
}
330
47
100
AcDbScale
 70
     0
300
3/32" = 1'-0"
140
0.09375
141
12.0
290
     0
  0
SCALE
  5
5E
102
{ACAD_REACTORS
330
47
102
}
330
47
100
AcDbScale
 70
     0
300
1/8" = 1'-0"
140
0.125
141
12.0
290
     0
  0
SCALE
  5
5F
102
{ACAD_REACTORS
330
47
102
}
330
47
100
AcDbScale
 70
     0
300
3/16" = 1'-0"
140
0.1875
141
12.0
290
     0
  0
SCALE
  5
60
102
{ACAD_REACTORS
330
47
102
}
330
47
100
AcDbScale
 70
     0
300
1/4" = 1'-0"
140
0.25
141
12.0
290
     0
  0
SCALE
  5
61
102
{ACAD_REACTORS
330
47
102
}
330
47
100
AcDbScale
 70
     0
300
3/8" = 1'-0"
140
0.375
141
12.0
290
     0
  0
SCALE
  5
62
102
{ACAD_REACTORS
330
47
102
}
330
47
100
AcDbScale
 70
     0
300
1/2" = 1'-0"
140
0.5
141
12.0
290
     0
  0
SCALE
  5
63
102
{ACAD_REACTORS
330
47
102
}
330
47
100
AcDbScale
 70
     0
300
3/4" = 1'-0"
140
0.75
141
12.0
290
     0
  0
SCALE
  5
64
102
{ACAD_REACTORS
330
47
102
}
330
47
100
AcDbScale
 70
     0
300
1" = 1'-0"
140
1.0
141
12.0
290
     0
  0
SCALE
  5
65
102
{ACAD_REACTORS
330
47
102
}
330
47
100
AcDbScale
 70
     0
300
1-1/2" = 1'-0"
140
1.5
141
12.0
290
     0
  0
SCALE
  5
66
102
{ACAD_REACTORS
330
47
102
}
330
47
100
AcDbScale
 70
     0
300
3" = 1'-0"
140
3.0
141
12.0
290
     0
  0
SCALE
  5
67
102
{ACAD_REACTORS
330
47
102
}
330
47
100
AcDbScale
 70
     0
300
6" = 1'-0"
140
6.0
141
12.0
290
     0
  0
SCALE
  5
68
102
{ACAD_REACTORS
330
47
102
}
330
47
100
AcDbScale
 70
     0
300
1'-0" = 1'-0"
140
12.0
141
12.0
290
     0
  0
ENDSEC
  0
EOF
