  0
SECTION
  2
HEADER
  9
$ACADVER
  1
AC1015
  9
$ACADMAINTVER
 70
     6
  9
$DWGCODEPAGE
  3
ANSI_949
  9
$INSBASE
 10
0.0
 20
0.0
 30
0.0
  9
$EXTMIN
 10
-39.95000000000009
 20
-49.97180738881174
 30
0.0
  9
$EXTMAX
 10
93.42850003295507
 20
27.88124999999998
 30
0.0
  9
$LIMMIN
 10
0.0
 20
0.0
  9
$LIMMAX
 10
420.0
 20
297.0
  9
$ORTHOMODE
 70
     1
  9
$REGENMODE
 70
     1
  9
$FILLMODE
 70
     1
  9
$QTEXTMODE
 70
     0
  9
$MIRRTEXT
 70
     1
  9
$LTSCALE
 40
1.0
  9
$ATTMODE
 70
     1
  9
$TEXTSIZE
 40
3.5
  9
$TRACEWID
 40
1.0
  9
$TEXTSTYLE
  7
Standard
  9
$CLAYER
  8
0
  9
$CELTYPE
  6
ByLayer
  9
$CECOLOR
 62
   256
  9
$CELTSCALE
 40
1.0
  9
$DISPSILH
 70
     0
  9
$DIMSCALE
 40
1.0
  9
$DIMASZ
 40
3.302
  9
$DIMEXO
 40
1.0
  9
$DIMDLI
 40
3.75
  9
$DIMRND
 40
0.0
  9
$DIMDLE
 40
0.0
  9
$DIMEXE
 40
1.0
  9
$DIMTP
 40
0.0
  9
$DIMTM
 40
0.0
  9
$DIMTXT
 40
3.5
  9
$DIMCEN
 40
2.5
  9
$DIMTSZ
 40
0.0
  9
$DIMTOL
 70
     0
  9
$DIMLIM
 70
     0
  9
$DIMTIH
 70
     1
  9
$DIMTOH
 70
     1
  9
$DIMSE1
 70
     0
  9
$DIMSE2
 70
     0
  9
$DIMTAD
 70
     1
  9
$DIMZIN
 70
     0
  9
$DIMBLK
  1

  9
$DIMASO
 70
     1
  9
$DIMSHO
 70
     1
  9
$DIMPOST
  1

  9
$DIMAPOST
  1

  9
$DIMALT
 70
     0
  9
$DIMALTD
 70
     3
  9
$DIMALTF
 40
0.0393700787401575
  9
$DIMLFAC
 40
1.0
  9
$DIMTOFL
 70
     1
  9
$DIMTVP
 40
0.0
  9
$DIMTIX
 70
     0
  9
$DIMSOXD
 70
     0
  9
$DIMSAH
 70
     0
  9
$DIMBLK1
  1

  9
$DIMBLK2
  1

  9
$DIMSTYLE
  2
ISO-25
  9
$DIMCLRD
 70
     0
  9
$DIMCLRE
 70
     0
  9
$DIMCLRT
 70
     0
  9
$DIMTFAC
 40
1.0
  9
$DIMGAP
 40
1.524
  9
$DIMJUST
 70
     0
  9
$DIMSD1
 70
     0
  9
$DIMSD2
 70
     0
  9
$DIMTOLJ
 70
     0
  9
$DIMTZIN
 70
     0
  9
$DIMALTZ
 70
     0
  9
$DIMALTTZ
 70
     0
  9
$DIMUPT
 70
     0
  9
$DIMDEC
 70
     2
  9
$DIMTDEC
 70
     2
  9
$DIMALTU
 70
     2
  9
$DIMALTTD
 70
     3
  9
$DIMTXSTY
  7
Standard
  9
$DIMAUNIT
 70
     0
  9
$DIMADEC
 70
     2
  9
$DIMALTRND
 40
0.0
  9
$DIMAZIN
 70
     0
  9
$DIMDSEP
 70
    44
  9
$DIMATFIT
 70
     3
  9
$DIMFRAC
 70
     0
  9
$DIMLDRBLK
  1

  9
$DIMLUNIT
 70
     2
  9
$DIMLWD
 70
    -2
  9
$DIMLWE
 70
    -2
  9
$DIMTMOVE
 70
     0
  9
$LUNITS
 70
     2
  9
$LUPREC
 70
     2
  9
$SKETCHINC
 40
1.0
  9
$FILLETRAD
 40
10.0
  9
$AUNITS
 70
     0
  9
$AUPREC
 70
     2
  9
$MENU
  1
.
  9
$ELEVATION
 40
0.0
  9
$PELEVATION
 40
0.0
  9
$THICKNESS
 40
0.0
  9
$LIMCHECK
 70
     0
  9
$CHAMFERA
 40
0.0
  9
$CHAMFERB
 40
0.0
  9
$CHAMFERC
 40
0.0
  9
$CHAMFERD
 40
0.0
  9
$SKPOLY
 70
     0
  9
$TDCREATE
 40
2458313.390169838
  9
$TDUCREATE
 40
2458313.015169838
  9
$TDUPDATE
 40
2458318.654281412
  9
$TDUUPDATE
 40
2458318.279281412
  9
$TDINDWG
 40
0.0015406481
  9
$TDUSRTIMER
 40
2458318.279242489
  9
$USRTIMER
 70
     1
  9
$ANGBASE
 50
0.0
  9
$ANGDIR
 70
     0
  9
$PDMODE
 70
     0
  9
$PDSIZE
 40
-1.0
  9
$PLINEWID
 40
0.0
  9
$SPLFRAME
 70
     0
  9
$SPLINETYPE
 70
     6
  9
$SPLINESEGS
 70
     8
  9
$HANDSEED
  5
29C
  9
$SURFTAB1
 70
     6
  9
$SURFTAB2
 70
     6
  9
$SURFTYPE
 70
     6
  9
$SURFU
 70
     6
  9
$SURFV
 70
     6
  9
$UCSBASE
  2

  9
$UCSNAME
  2

  9
$UCSORG
 10
0.0
 20
0.0
 30
0.0
  9
$UCSXDIR
 10
1.0
 20
0.0
 30
0.0
  9
$UCSYDIR
 10
0.0
 20
1.0
 30
0.0
  9
$UCSORTHOREF
  2

  9
$UCSORTHOVIEW
 70
     0
  9
$UCSORGTOP
 10
0.0
 20
0.0
 30
0.0
  9
$UCSORGBOTTOM
 10
0.0
 20
0.0
 30
0.0
  9
$UCSORGLEFT
 10
0.0
 20
0.0
 30
0.0
  9
$UCSORGRIGHT
 10
0.0
 20
0.0
 30
0.0
  9
$UCSORGFRONT
 10
0.0
 20
0.0
 30
0.0
  9
$UCSORGBACK
 10
0.0
 20
0.0
 30
0.0
  9
$PUCSBASE
  2

  9
$PUCSNAME
  2

  9
$PUCSORG
 10
0.0
 20
0.0
 30
0.0
  9
$PUCSXDIR
 10
1.0
 20
0.0
 30
0.0
  9
$PUCSYDIR
 10
0.0
 20
1.0
 30
0.0
  9
$PUCSORTHOREF
  2

  9
$PUCSORTHOVIEW
 70
     0
  9
$PUCSORGTOP
 10
0.0
 20
0.0
 30
0.0
  9
$PUCSORGBOTTOM
 10
0.0
 20
0.0
 30
0.0
  9
$PUCSORGLEFT
 10
0.0
 20
0.0
 30
0.0
  9
$PUCSORGRIGHT
 10
0.0
 20
0.0
 30
0.0
  9
$PUCSORGFRONT
 10
0.0
 20
0.0
 30
0.0
  9
$PUCSORGBACK
 10
0.0
 20
0.0
 30
0.0
  9
$USERI1
 70
     0
  9
$USERI2
 70
     0
  9
$USERI3
 70
     0
  9
$USERI4
 70
     0
  9
$USERI5
 70
     0
  9
$USERR1
 40
0.0
  9
$USERR2
 40
0.0
  9
$USERR3
 40
0.0
  9
$USERR4
 40
0.0
  9
$USERR5
 40
0.0
  9
$WORLDVIEW
 70
     1
  9
$SHADEDGE
 70
     3
  9
$SHADEDIF
 70
    70
  9
$TILEMODE
 70
     1
  9
$MAXACTVP
 70
    64
  9
$PINSBASE
 10
0.0
 20
0.0
 30
0.0
  9
$PLIMCHECK
 70
     0
  9
$PEXTMIN
 10
1.000000000000000E+20
 20
1.000000000000000E+20
 30
1.000000000000000E+20
  9
$PEXTMAX
 10
-1.000000000000000E+20
 20
-1.000000000000000E+20
 30
-1.000000000000000E+20
  9
$PLIMMIN
 10
0.0
 20
0.0
  9
$PLIMMAX
 10
0.0
 20
0.0
  9
$UNITMODE
 70
     0
  9
$VISRETAIN
 70
     1
  9
$PLINEGEN
 70
     0
  9
$PSLTSCALE
 70
     1
  9
$TREEDEPTH
 70
  3020
  9
$CMLSTYLE
  2
Standard
  9
$CMLJUST
 70
     0
  9
$CMLSCALE
 40
20.0
  9
$PROXYGRAPHICS
 70
     1
  9
$MEASUREMENT
 70
     1
  9
$CELWEIGHT
370
    -1
  9
$ENDCAPS
280
     0
  9
$JOINSTYLE
280
     0
  9
$LWDISPLAY
290
     1
  9
$INSUNITS
 70
     4
  9
$HYPERLINKBASE
  1

  9
$STYLESHEET
  1

  9
$XEDIT
290
     1
  9
$CEPSNTYPE
380
     0
  9
$PSTYLEMODE
290
     1
  9
$FINGERPRINTGUID
  2
{68EE6F0C-3D6D-4F9B-BEC4-0C6A4E40562B}
  9
$VERSIONGUID
  2
{FAEB1C32-E019-11D5-929B-00C0DF256EC4}
  9
$EXTNAMES
290
     1
  9
$PSVPSCALE
 40
0.0
  9
$OLESTARTUP
290
     0
  0
ENDSEC
  0
SECTION
  2
CLASSES
  0
CLASS
  1
ACDBDICTIONARYWDFLT
  2
AcDbDictionaryWithDefault
  3
ObjectDBX Classes
 90
        0
280
     0
281
     0
  0
CLASS
  1
VISUALSTYLE
  2
AcDbVisualStyle
  3
ObjectDBX Classes
 90
     4095
280
     0
281
     0
  0
CLASS
  1
MATERIAL
  2
AcDbMaterial
  3
ObjectDBX Classes
 90
     1153
280
     0
281
     0
  0
CLASS
  1
SCALE
  2
AcDbScale
  3
ObjectDBX Classes
 90
     1153
280
     0
281
     0
  0
CLASS
  1
SUN
  2
AcDbSun
  3
SCENEOE
 90
     1153
280
     0
281
     0
  0
CLASS
  1
ACDBPLACEHOLDER
  2
AcDbPlaceHolder
  3
ObjectDBX Classes
 90
        0
280
     0
281
     0
  0
CLASS
  1
LAYOUT
  2
AcDbLayout
  3
ObjectDBX Classes
 90
        0
280
     0
281
     0
  0
CLASS
  1
TABLESTYLE
  2
AcDbTableStyle
  3
ObjectDBX Classes
 90
     4095
280
     0
281
     0
  0
CLASS
  1
MLEADERSTYLE
  2
AcDbMLeaderStyle
  3
ACDB_MLEADERSTYLE_CLASS
 90
     4095
280
     0
281
     0
  0
CLASS
  1
DICTIONARYVAR
  2
AcDbDictionaryVar
  3
ObjectDBX Classes
 90
        0
280
     0
281
     0
  0
CLASS
  1
RASTERVARIABLES
  2
AcDbRasterVariables
  3
ISM
 90
        0
280
     0
281
     0
  0
ENDSEC
  0
SECTION
  2
TABLES
  0
TABLE
  2
VPORT
  5
8
330
0
100
AcDbSymbolTable
 70
     1
  0
VPORT
  5
29
330
8
100
AcDbSymbolTableRecord
100
AcDbViewportTableRecord
  2
*Active
 70
     0
 10
0.0
 20
0.0
 11
1.0
 21
1.0
 12
26.73925001647748
 22
-11.04527869440589
 13
0.0
 23
0.0
 14
10.0
 24
10.0
 15
10.0
 25
10.0
 16
0.0
 26
0.0
 36
1.0
 17
0.0
 27
0.0
 37
0.0
 40
79.41011853658796
 41
1.782762691853601
 42
50.0
 43
0.0
 44
0.0
 50
0.0
 51
0.0
 71
    16
 72
  2000
 73
     1
 74
     3
 75
     0
 76
     0
 77
     0
 78
     0
281
     0
 65
     1
110
0.0
120
0.0
130
0.0
111
1.0
121
0.0
131
0.0
112
0.0
122
1.0
132
0.0
 79
     0
146
0.0
  0
ENDTAB
  0
TABLE
  2
LTYPE
  5
5
330
0
100
AcDbSymbolTable
 70
     6
  0
LTYPE
  5
14
330
5
100
AcDbSymbolTableRecord
100
AcDbLinetypeTableRecord
  2
ByBlock
 70
     0
  3

 72
    65
 73
     0
 40
0.0
  0
LTYPE
  5
15
330
5
100
AcDbSymbolTableRecord
100
AcDbLinetypeTableRecord
  2
ByLayer
 70
     0
  3

 72
    65
 73
     0
 40
0.0
  0
LTYPE
  5
16
330
5
100
AcDbSymbolTableRecord
100
AcDbLinetypeTableRecord
  2
Continuous
 70
     0
  3
Solid line
 72
    65
 73
     0
 40
0.0
  0
LTYPE
  5
6A
330
5
100
AcDbSymbolTableRecord
100
AcDbLinetypeTableRecord
  2
HIDDEN
 70
     0
  3
Hidden __ __ __ __ __ __ __ __ __ __ __ __ __ __
 72
    65
 73
     2
 40
1.905
 49
1.27
 74
     0
 49
-0.635
 74
     0
  0
LTYPE
  5
6B
330
5
100
AcDbSymbolTableRecord
100
AcDbLinetypeTableRecord
  2
PHANTOM
 70
     0
  3
Phantom ______  __  __  ______  __  __  ______
 72
    65
 73
     6
 40
12.7
 49
6.35
 74
     0
 49
-1.27
 74
     0
 49
1.27
 74
     0
 49
-1.27
 74
     0
 49
1.27
 74
     0
 49
-1.27
 74
     0
  0
LTYPE
  5
6C
330
5
100
AcDbSymbolTableRecord
100
AcDbLinetypeTableRecord
  2
CENTER
 70
     0
  3
Center ____ _ ____ _ ____ _ ____ _ ____ _ ____
 72
    65
 73
     4
 40
10.16
 49
6.35
 74
     0
 49
-1.27
 74
     0
 49
1.27
 74
     0
 49
-1.27
 74
     0
  0
LTYPE
  5
6D
330
5
100
AcDbSymbolTableRecord
100
AcDbLinetypeTableRecord
  2
CENTERX2
 70
     0
  3
Center (2x) ________  __  ________  __  _____
 72
    65
 73
     4
 40
20.32
 49
12.7
 74
     0
 49
-2.54
 74
     0
 49
2.54
 74
     0
 49
-2.54
 74
     0
  0
LTYPE
  5
6E
330
5
100
AcDbSymbolTableRecord
100
AcDbLinetypeTableRecord
  2
DOT2
 70
     0
  3
Dot (.5x) ........................................
 72
    65
 73
     2
 40
0.635
 49
0.0
 74
     0
 49
-0.635
 74
     0
  0
ENDTAB
  0
TABLE
  2
LAYER
  5
2
330
0
100
AcDbSymbolTable
 70
    18
  0
LAYER
  5
10
330
2
100
AcDbSymbolTableRecord
100
AcDbLayerTableRecord
  2
0
 70
     0
 62
     7
  6
Continuous
370
    -3
390
F
  0
LAYER
  5
6F
330
2
100
AcDbSymbolTableRecord
100
AcDbLayerTableRecord
  2
FORMAT
 70
     0
 62
     2
  6
Continuous
370
    -3
390
F
  0
LAYER
  5
70
330
2
100
AcDbSymbolTableRecord
100
AcDbLayerTableRecord
  2
외형선
 70
     0
 62
     4
  6
Continuous
370
    30
390
F
  0
LAYER
  5
71
330
2
100
AcDbSymbolTableRecord
100
AcDbLayerTableRecord
  2
숨은선
 70
     0
 62
     2
  6
HIDDEN
370
    15
390
F
  0
LAYER
  5
72
330
2
100
AcDbSymbolTableRecord
100
AcDbLayerTableRecord
  2
중심선
 70
     0
 62
     1
  6
CENTERX2
370
    -3
390
F
  0
LAYER
  5
73
330
2
100
AcDbSymbolTableRecord
100
AcDbLayerTableRecord
  2
파단선
 70
     0
 62
     4
  6
Continuous
370
    -3
390
F
  0
LAYER
  5
74
330
2
100
AcDbSymbolTableRecord
100
AcDbLayerTableRecord
  2
해칭선
 70
     0
 62
   100
  6
Continuous
370
    -3
390
F
  0
LAYER
  5
75
330
2
100
AcDbSymbolTableRecord
100
AcDbLayerTableRecord
  2
가는실선
 70
     0
 62
     4
  6
Continuous
370
    -3
390
F
  0
LAYER
  5
76
330
2
100
AcDbSymbolTableRecord
100
AcDbLayerTableRecord
  2
치수_보조선
 70
     0
 62
     4
  6
Continuous
370
    -3
390
F
  0
LAYER
  5
77
330
2
100
AcDbSymbolTableRecord
100
AcDbLayerTableRecord
  2
치수문자_일반주서
 70
     0
 62
     7
  6
Continuous
370
    15
390
F
  0
LAYER
  5
78
330
2
100
AcDbSymbolTableRecord
100
AcDbLayerTableRecord
  2
개별주서
 70
     0
 62
   100
  6
Continuous
370
    30
390
F
  0
LAYER
  5
79
330
2
100
AcDbSymbolTableRecord
100
AcDbLayerTableRecord
  2
중간선
 70
     0
 62
     2
  6
Continuous
370
    15
390
F
  0
LAYER
  5
7A
330
2
100
AcDbSymbolTableRecord
100
AcDbLayerTableRecord
  2
윤곽선
 70
     0
 62
     3
  6
Continuous
370
    40
390
F
  0
LAYER
  5
7B
330
2
100
AcDbSymbolTableRecord
100
AcDbLayerTableRecord
  2
중심마크
 70
     0
 62
   100
  6
Continuous
370
    30
390
F
  0
LAYER
  5
7C
330
2
100
AcDbSymbolTableRecord
100
AcDbLayerTableRecord
  2
가상선
 70
     0
 62
     4
  6
PHANTOM
370
    -3
390
F
  0
LAYER
  5
7D
330
2
100
AcDbSymbolTableRecord
100
AcDbLayerTableRecord
  2
특수지정선
 70
     0
 62
     5
  6
CENTERX2
370
    60
390
F
  0
LAYER
  5
7E
330
2
100
AcDbSymbolTableRecord
100
AcDbLayerTableRecord
  2
참조1
 70
     0
 62
    -4
  6
Continuous
370
    -3
390
F
  0
LAYER
  5
160
330
2
100
AcDbSymbolTableRecord
100
AcDbLayerTableRecord
  2
Defpoints
 70
     0
 62
     7
  6
Continuous
290
     0
370
    -3
390
F
  0
ENDTAB
  0
TABLE
  2
STYLE
  5
3
330
0
100
AcDbSymbolTable
 70
     2
  0
STYLE
  5
11
330
3
100
AcDbSymbolTableRecord
100
AcDbTextStyleTableRecord
  2
Standard
 70
     0
 40
0.0
 41
1.0
 50
0.0
 71
     0
 42
3.5
  3
txt
  4

  0
STYLE
  5
94
330
3
100
AcDbSymbolTableRecord
100
AcDbTextStyleTableRecord
  2
SLDTEXTSTYLE0
 70
     0
 40
0.0
 41
0.75
 50
0.0
 71
     0
 42
3.5
  3
TXT
  4

  0
ENDTAB
  0
TABLE
  2
VIEW
  5
6
330
0
100
AcDbSymbolTable
 70
     0
  0
ENDTAB
  0
TABLE
  2
UCS
  5
7
330
0
100
AcDbSymbolTable
 70
     0
  0
ENDTAB
  0
TABLE
  2
APPID
  5
9
330
0
100
AcDbSymbolTable
 70
     2
  0
APPID
  5
12
330
9
100
AcDbSymbolTableRecord
100
AcDbRegAppTableRecord
  2
ACAD
 70
     0
  0
APPID
  5
167
330
9
100
AcDbSymbolTableRecord
100
AcDbRegAppTableRecord
  2
PE_URL
 70
     0
  0
ENDTAB
  0
TABLE
  2
DIMSTYLE
  5
A
330
0
100
AcDbSymbolTable
 70
     3
100
AcDbDimStyleTable
  0
DIMSTYLE
105
27
330
A
100
AcDbSymbolTableRecord
100
AcDbDimStyleTableRecord
  2
ISO-25
 70
     0
 41
2.5
 42
0.625
 43
3.75
 44
1.25
 73
     0
 74
     0
 77
     1
 78
     8
140
2.5
141
2.5
143
0.03937007874016
147
0.625
171
     3
172
     1
178
     0
271
     2
272
     2
274
     3
278
    44
283
     0
284
     8
340
11
  0
DIMSTYLE
105
DE
102
{ACAD_REACTORS
330
DD
330
F2
330
106
330
11B
102
}
330
A
100
AcDbSymbolTableRecord
100
AcDbDimStyleTableRecord
  2
SLDDIMSTYLE0
 70
     0
 41
3.302
 44
0.0
 45
0.000000001
 73
     0
 74
     0
 77
     1
 78
    12
 79
     3
140
3.5
143
0.0393700787401575
147
0.875
148
0.000000001
170
     1
172
     1
173
     1
178
     0
271
     2
272
     2
276
     2
284
    12
289
     0
340
94
  0
DIMSTYLE
105
11C
330
A
100
AcDbSymbolTableRecord
100
AcDbDimStyleTableRecord
  2
SLDDIMSTYLE1
 70
     0
 41
3.302
 44
0.0
 45
0.000000001
 73
     0
 74
     0
 77
     1
 78
    12
 79
     3
140
3.5
143
0.0393700787401575
147
0.875
148
0.000000001
170
     1
173
     1
178
     0
271
     2
272
     2
276
     2
284
    12
340
94
  0
ENDTAB
  0
TABLE
  2
BLOCK_RECORD
  5
1
330
0
100
AcDbSymbolTable
 70
     9
  0
BLOCK_RECORD
  5
1F
330
1
100
AcDbSymbolTableRecord
100
AcDbBlockTableRecord
  2
*Model_Space
340
22
  0
BLOCK_RECORD
  5
1B
330
1
100
AcDbSymbolTableRecord
100
AcDbBlockTableRecord
  2
*Paper_Space
340
1E
  0
BLOCK_RECORD
  5
23
330
1
100
AcDbSymbolTableRecord
100
AcDbBlockTableRecord
  2
*Paper_Space0
340
26
  0
BLOCK_RECORD
  5
7F
330
1
100
AcDbSymbolTableRecord
100
AcDbBlockTableRecord
  2
블럭10
340
0
102
{BLKREFS
331
D6
102
}
  0
BLOCK_RECORD
  5
DF
330
1
100
AcDbSymbolTableRecord
100
AcDbBlockTableRecord
  2
_D
340
0
  0
BLOCK_RECORD
  5
F3
330
1
100
AcDbSymbolTableRecord
100
AcDbBlockTableRecord
  2
_D_1
340
0
  0
BLOCK_RECORD
  5
107
330
1
100
AcDbSymbolTableRecord
100
AcDbBlockTableRecord
  2
_D_2
340
0
  0
BLOCK_RECORD
  5
11D
330
1
100
AcDbSymbolTableRecord
100
AcDbBlockTableRecord
  2
_D_3
340
0
  0
BLOCK_RECORD
  5
136
330
1
100
AcDbSymbolTableRecord
100
AcDbBlockTableRecord
  2
SW_DOWELSYMBOL_0
340
0
102
{BLKREFS
331
13C
102
}
  0
BLOCK_RECORD
  5
199
330
1
100
AcDbSymbolTableRecord
100
AcDbBlockTableRecord
  2
*D7
340
0
  0
BLOCK_RECORD
  5
1AB
330
1
100
AcDbSymbolTableRecord
100
AcDbBlockTableRecord
  2
*D8
340
0
  0
ENDTAB
  0
ENDSEC
  0
SECTION
  2
BLOCKS
  0
BLOCK
  5
20
330
1F
100
AcDbEntity
  8
0
100
AcDbBlockBegin
  2
*Model_Space
 70
     0
 10
0.0
 20
0.0
 30
0.0
  3
*Model_Space
  1
*Model_Space
  0
ENDBLK
  5
21
330
1F
100
AcDbEntity
  8
0
100
AcDbBlockEnd
  0
BLOCK
  5
1C
330
1B
100
AcDbEntity
 67
     1
  8
0
100
AcDbBlockBegin
  2
*Paper_Space
 70
     0
 10
0.0
 20
0.0
 30
0.0
  3
*Paper_Space
  1
*Paper_Space
  0
ENDBLK
  5
1D
330
1B
100
AcDbEntity
 67
     1
  8
0
100
AcDbBlockEnd
  0
BLOCK
  5
24
330
23
100
AcDbEntity
  8
0
100
AcDbBlockBegin
  2
*Paper_Space0
 70
     0
 10
0.0
 20
0.0
 30
0.0
  3
*Paper_Space0
  1
*Paper_Space0
  0
ENDBLK
  5
25
330
23
100
AcDbEntity
  8
0
100
AcDbBlockEnd
  0
BLOCK
  5
80
330
7F
100
AcDbEntity
  8
0
100
AcDbBlockBegin
  2
블럭10
 70
     2
 10
0.0
 20
0.0
 30
0.0
  3
블럭10
  1
블럭10
  0
ELLIPSE
  5
82
330
7F
100
AcDbEntity
  8
중심선
100
AcDbEllipse
 10
20.54032771741204
 20
12.0471743016438
 30
0.0
 11
6.600054785286829
 21
-1.261213355974178E-13
 31
0.0
210
0.0
220
0.0
230
1.0
 40
0.636358354079598
 41
0.9219305317359503
 42
6.513795318482858
  0
ELLIPSE
  5
83
330
7F
100
AcDbEntity
  8
중심선
100
AcDbEllipse
 10
20.54032771746488
 20
12.04717430159265
 30
0.0
 11
3.960054785062283
 21
1.540847449632565E-10
 31
0.0
210
0.0
220
0.0
230
1.0
 40
0.3939339440162632
 41
1.131841032648279
 42
5.62031148352944
  0
LINE
  5
84
330
7F
100
AcDbEntity
  8
중심선
100
AcDbLine
 10
2.268634060543552
 20
16.24717430164393
 30
0.0
 11
5.714909304380834
 21
16.24717430164393
 31
0.0
  0
LINE
  5
85
330
7F
100
AcDbEntity
  8
중심선
100
AcDbLine
 10
5.245725140726316
 20
7.84717430164391
 30
0.0
 11
8.692000384563599
 21
7.84717430164391
 31
0.0
  0
LINE
  5
86
330
7F
100
AcDbEntity
  8
중심선
100
AcDbLine
 10
15.74043728645272
 20
16.24717430164393
 30
0.0
 11
8.692000384563599
 21
7.84717430164391
 31
0.0
  0
LINE
  5
87
330
7F
100
AcDbEntity
  8
중심선
100
AcDbLine
 10
0.1404042013395286
 20
13.71084872107135
 30
0.0
 11
3.58671253028996
 21
13.71088815037384
 31
0.0
  0
LINE
  5
88
330
7F
100
AcDbEntity
  8
중심선
100
AcDbLine
 10
2.750260043222114
 20
10.84717430164391
 30
0.0
 11
6.196535287059397
 21
10.84717430164391
 31
0.0
  0
LINE
  5
89
330
7F
100
AcDbEntity
  8
중심선
100
AcDbLine
 10
12.29416204261559
 20
16.24717430164393
 30
0.0
 11
5.245725140726316
 21
7.84717430164391
 31
0.0
  0
LINE
  5
8A
330
7F
100
AcDbEntity
  8
중심선
100
AcDbLine
 10
10.72767329541681
 20
16.24717430164393
 30
0.0
 11
6.196535287059397
 21
10.84717430164391
 31
0.0
  0
LINE
  5
8B
330
7F
100
AcDbEntity
  8
중심선
100
AcDbLine
 10
7.28139805157953
 20
16.24717430164393
 30
0.0
 11
2.750260043222114
 21
10.84717430164391
 31
0.0
  0
LINE
  5
8C
330
7F
100
AcDbEntity
  8
중심선
100
AcDbLine
 10
5.714909304380834
 20
16.24717430164393
 30
0.0
 11
3.58671253028996
 21
13.71088815037384
 31
0.0
  0
LINE
  5
8D
330
7F
100
AcDbEntity
  8
중심선
100
AcDbLine
 10
2.268634060543552
 20
16.24717430164393
 30
0.0
 11
0.1404042013395286
 21
13.71084872107135
 31
0.0
  0
LINE
  5
8E
330
7F
100
AcDbEntity
  8
중심선
100
AcDbLine
 10
7.28139805157953
 20
16.24717430164393
 30
0.0
 11
10.72767329541681
 21
16.24717430164393
 31
0.0
  0
LINE
  5
8F
330
7F
100
AcDbEntity
  8
중심선
100
AcDbLine
 10
12.29416204261559
 20
16.24717430164393
 30
0.0
 11
15.74043728645272
 21
16.24717430164393
 31
0.0
  0
LINE
  5
90
330
7F
100
AcDbEntity
  8
중심선
100
AcDbLine
 10
19.22036997980202
 20
11.08717430171403
 30
0.0
 11
23.66174974927406
 21
11.08717430171406
 31
0.0
  0
LINE
  5
91
330
7F
100
AcDbEntity
  8
중심선
100
AcDbLine
 10
19.22039502424796
 20
13.00717430171391
 30
0.0
 11
19.22036997980202
 21
11.08717430171403
 31
0.0
  0
LINE
  5
92
330
7F
100
AcDbEntity
  8
중심선
100
AcDbLine
 10
19.22039502424796
 20
13.00717430171391
 30
0.0
 11
26.96566020931264
 21
13.00717430171391
 31
0.0
  0
LINE
  5
93
330
7F
100
AcDbEntity
  8
중심선
100
AcDbLine
 10
22.22332737316547
 20
13.45928029700563
 30
0.0
 11
24.52862924686651
 21
15.39360700705356
 31
0.0
  0
ATTDEF
  5
95
330
7F
100
AcDbEntity
  8
FORMAT
 62
     2
100
AcDbText
 10
4.408487351596664
 20
2.075366912832191
 30
0.0
 40
4.233333333333333
  1
E1003005
 41
0.75
  7
SLDTEXTSTYLE0
 11
4.408487351596664
 21
-0.0412997538344756
 31
0.0
100
AcDbAttributeDefinition
  3

  2
AUTOATTR0
 70
     0
 74
     1
  0
ENDBLK
  5
81
330
7F
100
AcDbEntity
  8
0
100
AcDbBlockEnd
  0
BLOCK
  5
E0
330
DF
100
AcDbEntity
  8
0
100
AcDbBlockBegin
  2
_D
 70
     0
 10
0.0
 20
0.0
 30
0.0
  3
_D
  1
_D
  0
LINE
  5
E2
330
DF
100
AcDbEntity
  8
치수문자_일반주서
 62
     0
370
    -2
100
AcDbLine
 10
-16.50032317511139
 20
2.381249999999997
 30
0.0
 11
-36.57500000000002
 21
2.381249999999921
 31
0.0
  0
LINE
  5
E3
330
DF
100
AcDbEntity
  8
치수문자_일반주서
 62
     0
370
    -2
100
AcDbLine
 10
-16.50032317511137
 20
-2.381250000000001
 30
0.0
 11
-36.575
 21
-2.381250000000076
 31
0.0
  0
LINE
  5
E4
330
DF
100
AcDbEntity
  8
치수문자_일반주서
 62
     0
370
    -2
100
AcDbLine
 10
-36.57500000000002
 20
2.381249999999921
 30
0.0
 11
-36.57500000000009
 21
27.88124999999997
 31
0.0
  0
LINE
  5
E5
330
DF
100
AcDbEntity
  8
치수문자_일반주서
 62
     0
370
    -2
100
AcDbLine
 10
-36.57500000000002
 20
2.381249999999921
 30
0.0
 11
-36.575
 21
-2.381250000000076
 31
0.0
  0
LINE
  5
E6
330
DF
100
AcDbEntity
  8
치수문자_일반주서
 62
     0
370
    -2
100
AcDbLine
 10
-36.57500000000002
 20
4.881249999999921
 30
0.0
 11
-36.57500000000003
 21
7.381249999999921
 31
0.0
  0
LINE
  5
E7
330
DF
100
AcDbEntity
  8
치수문자_일반주서
 62
     0
370
    -2
100
AcDbLine
 10
-36.575
 20
-4.881250000000076
 30
0.0
 11
-36.57499999999999
 21
-7.381250000000076
 31
0.0
  0
SOLID
  5
E8
330
DF
100
AcDbEntity
  8
치수문자_일반주서
 62
     0
100
AcDbTrace
 10
-36.99166666666669
 20
4.881249999999921
 30
0.0
 11
-36.15833333333336
 21
4.881249999999922
 31
0.0
 12
-36.57500000000002
 22
2.381249999999921
 32
0.0
 13
-36.57500000000002
 23
2.381249999999921
 33
0.0
  0
SOLID
  5
E9
330
DF
100
AcDbEntity
  8
치수문자_일반주서
 62
     0
100
AcDbTrace
 10
-36.15833333333333
 20
-4.881250000000075
 30
0.0
 11
-36.99166666666666
 21
-4.881250000000077
 31
0.0
 12
-36.575
 22
-2.381250000000076
 32
0.0
 13
-36.575
 23
-2.381250000000076
 33
0.0
  0
MTEXT
  5
EA
330
DF
100
AcDbEntity
  8
치수문자_일반주서
 62
     0
100
AcDbMText
 10
-39.95000000000006
 20
17.63124999999996
 30
0.0
 40
2.5
 41
0.0
 71
     2
 72
     1
  1
\A1;%%c4.76 [3/16]
  7
SLDTEXTSTYLE0
 11
-2.983906501879687E-15
 21
1.0
 31
0.0
 73
     1
 44
1.0
  0
POINT
  5
1C4
330
DF
100
AcDbEntity
  8
Defpoints
 62
     0
100
AcDbPoint
 10
-16.43782317511139
 20
2.381249999999997
 30
0.0
  0
POINT
  5
1C5
330
DF
100
AcDbEntity
  8
Defpoints
 62
     0
100
AcDbPoint
 10
-16.43782317511137
 20
-2.381250000000001
 30
0.0
  0
POINT
  5
1C6
330
DF
100
AcDbEntity
  8
Defpoints
 62
     0
100
AcDbPoint
 10
-36.575
 20
-2.381250000000076
 30
0.0
  0
ENDBLK
  5
E1
330
DF
100
AcDbEntity
  8
0
100
AcDbBlockEnd
  0
BLOCK
  5
F4
330
F3
100
AcDbEntity
  8
0
100
AcDbBlockBegin
  2
_D_1
 70
     0
 10
0.0
 20
0.0
 30
0.0
  3
_D_1
  1
_D_1
  0
LINE
  5
F6
330
F3
100
AcDbEntity
  8
치수문자_일반주서
 62
     0
370
    -2
100
AcDbLine
 10
28.63750000000001
 20
-0.9913489182356613
 30
0.0
 11
58.93121123573001
 21
-0.9913489182355484
 31
0.0
  0
LINE
  5
F7
330
F3
100
AcDbEntity
  8
치수문자_일반주서
 62
     0
370
    -2
100
AcDbLine
 10
28.63750000000001
 20
0.9913489182356626
 30
0.0
 11
58.93121123573
 21
0.9913489182357758
 31
0.0
  0
LINE
  5
F8
330
F3
100
AcDbEntity
  8
치수문자_일반주서
 62
     0
370
    -2
100
AcDbLine
 10
58.93121123573
 20
0.9913489182357758
 30
0.0
 11
58.93121123572991
 21
26.49134891823578
 31
0.0
  0
LINE
  5
F9
330
F3
100
AcDbEntity
  8
치수문자_일반주서
 62
     0
370
    -2
100
AcDbLine
 10
58.93121123573001
 20
-0.9913489182355484
 30
0.0
 11
58.93121123573
 21
0.9913489182357758
 31
0.0
  0
LINE
  5
FA
330
F3
100
AcDbEntity
  8
치수문자_일반주서
 62
     0
370
    -2
100
AcDbLine
 10
58.93121123573002
 20
-3.491348918235548
 30
0.0
 11
58.93121123573003
 21
-5.991348918235548
 31
0.0
  0
LINE
  5
FB
330
F3
100
AcDbEntity
  8
치수문자_일반주서
 62
     0
370
    -2
100
AcDbLine
 10
58.93121123573
 20
3.491348918235776
 30
0.0
 11
58.93121123572999
 21
5.991348918235776
 31
0.0
  0
SOLID
  5
FC
330
F3
100
AcDbEntity
  8
치수문자_일반주서
 62
     0
100
AcDbTrace
 10
59.34787790239668
 20
-3.491348918235547
 30
0.0
 11
58.51454456906335
 21
-3.49134891823555
 31
0.0
 12
58.93121123573001
 22
-0.9913489182355484
 32
0.0
 13
58.93121123573001
 23
-0.9913489182355484
 33
0.0
  0
SOLID
  5
FD
330
F3
100
AcDbEntity
  8
치수문자_일반주서
 62
     0
100
AcDbTrace
 10
58.51454456906333
 20
3.491348918235774
 30
0.0
 11
59.34787790239666
 21
3.491348918235777
 31
0.0
 12
58.93121123573
 22
0.9913489182357758
 32
0.0
 13
58.93121123573
 23
0.9913489182357758
 33
0.0
  0
MTEXT
  5
FE
330
F3
100
AcDbEntity
  8
치수문자_일반주서
 62
     0
100
AcDbMText
 10
55.55621123572995
 20
16.24134891823577
 30
0.0
 40
2.5
 41
0.0
 71
     2
 72
     1
  1
\A1;%%c1.98 [5/64]
  7
SLDTEXTSTYLE0
 11
-3.583716705035991E-15
 21
1.0
 31
0.0
 73
     1
 44
1.0
  0
POINT
  5
FF
330
F3
100
AcDbEntity
  8
Defpoints
 62
     0
100
AcDbPoint
 10
28.57500000000001
 20
-0.9913489182356615
 30
0.0
  0
POINT
  5
100
330
F3
100
AcDbEntity
  8
Defpoints
 62
     0
100
AcDbPoint
 10
28.57500000000001
 20
0.9913489182356624
 30
0.0
  0
POINT
  5
101
330
F3
100
AcDbEntity
  8
Defpoints
 62
     0
100
AcDbPoint
 10
58.93121123573
 20
0.9913489182357759
 30
0.0
  0
ENDBLK
  5
F5
330
F3
100
AcDbEntity
  8
0
100
AcDbBlockEnd
  0
BLOCK
  5
108
330
107
100
AcDbEntity
  8
0
100
AcDbBlockBegin
  2
_D_2
 70
     0
 10
0.0
 20
0.0
 30
0.0
  3
_D_2
  1
_D_2
  0
LINE
  5
10A
330
107
100
AcDbEntity
  8
치수문자_일반주서
 62
     0
370
    -2
100
AcDbLine
 10
28.57500000000001
 20
1.053848918235663
 30
0.0
 11
28.57500000000001
 21
10.38125000000001
 31
0.0
  0
LINE
  5
10B
330
107
100
AcDbEntity
  8
치수문자_일반주서
 62
     0
370
    -2
100
AcDbLine
 10
22.62187500000001
 20
0.7276281206713391
 30
0.0
 11
22.62187500000001
 21
10.38125000000001
 31
0.0
  0
LINE
  5
10C
330
107
100
AcDbEntity
  8
치수문자_일반주서
 62
     0
370
    -2
100
AcDbLine
 10
28.57500000000001
 20
10.38125000000001
 30
0.0
 11
54.07500000000001
 21
10.38125000000001
 31
0.0
  0
LINE
  5
10D
330
107
100
AcDbEntity
  8
치수문자_일반주서
 62
     0
370
    -2
100
AcDbLine
 10
28.57500000000001
 20
10.38125000000001
 30
0.0
 11
22.62187500000001
 21
10.38125000000001
 31
0.0
  0
LINE
  5
10E
330
107
100
AcDbEntity
  8
치수문자_일반주서
 62
     0
370
    -2
100
AcDbLine
 10
31.07500000000001
 20
10.38125000000001
 30
0.0
 11
33.57500000000001
 21
10.38125000000001
 31
0.0
  0
LINE
  5
10F
330
107
100
AcDbEntity
  8
치수문자_일반주서
 62
     0
370
    -2
100
AcDbLine
 10
20.12187500000001
 20
10.38125000000001
 30
0.0
 11
17.62187500000001
 21
10.38125000000001
 31
0.0
  0
SOLID
  5
110
330
107
100
AcDbEntity
  8
치수문자_일반주서
 62
     0
100
AcDbTrace
 10
31.07500000000001
 20
10.79791666666668
 30
0.0
 11
31.07500000000001
 21
9.964583333333344
 31
0.0
 12
28.57500000000001
 22
10.38125000000001
 32
0.0
 13
28.57500000000001
 23
10.38125000000001
 33
0.0
  0
SOLID
  5
111
330
107
100
AcDbEntity
  8
치수문자_일반주서
 62
     0
100
AcDbTrace
 10
20.12187500000001
 20
9.964583333333344
 30
0.0
 11
20.12187500000001
 21
10.79791666666668
 31
0.0
 12
22.62187500000001
 22
10.38125000000001
 32
0.0
 13
22.62187500000001
 23
10.38125000000001
 33
0.0
  0
MTEXT
  5
112
330
107
100
AcDbEntity
  8
치수문자_일반주서
 62
     0
100
AcDbMText
 10
43.82500000000001
 20
13.75625000000001
 30
0.0
 40
2.5
 41
0.0
 71
     2
 72
     1
  1
\A1;5.95 [15/64]
  7
SLDTEXTSTYLE0
 73
     1
 44
1.0
  0
POINT
  5
113
330
107
100
AcDbEntity
  8
Defpoints
 62
     0
100
AcDbPoint
 10
28.57500000000001
 20
0.9913489182356624
 30
0.0
  0
POINT
  5
114
330
107
100
AcDbEntity
  8
Defpoints
 62
     0
100
AcDbPoint
 10
22.62187500000001
 20
0.6651281206713391
 30
0.0
  0
POINT
  5
115
330
107
100
AcDbEntity
  8
Defpoints
 62
     0
100
AcDbPoint
 10
22.62187500000001
 20
10.38125000000001
 30
0.0
  0
ENDBLK
  5
109
330
107
100
AcDbEntity
  8
0
100
AcDbBlockEnd
  0
BLOCK
  5
11E
330
11D
100
AcDbEntity
  8
0
100
AcDbBlockBegin
  2
_D_3
 70
     0
 10
0.0
 20
0.0
 30
0.0
  3
_D_3
  1
_D_3
  0
LINE
  5
120
330
11D
100
AcDbEntity
  8
치수문자_일반주서
 62
     0
370
    -2
100
AcDbLine
 10
-28.57500000000001
 20
1.053848918235663
 30
0.0
 11
-28.57500000000001
 21
18.38125
 31
0.0
  0
LINE
  5
121
330
11D
100
AcDbEntity
  8
치수문자_일반주서
 62
     0
370
    -2
100
AcDbLine
 10
28.57500000000001
 20
1.053848918235663
 30
0.0
 11
28.57500000000001
 21
18.38125
 31
0.0
  0
LINE
  5
122
330
11D
100
AcDbEntity
  8
치수문자_일반주서
 62
     0
370
    -2
100
AcDbLine
 10
-26.07500000000001
 20
18.38125
 30
0.0
 11
26.07500000000001
 21
18.38125
 31
0.0
  0
SOLID
  5
123
330
11D
100
AcDbEntity
  8
치수문자_일반주서
 62
     0
100
AcDbTrace
 10
-26.07500000000001
 20
18.79791666666667
 30
0.0
 11
-26.07500000000001
 21
17.96458333333333
 31
0.0
 12
-28.57500000000001
 22
18.38125
 32
0.0
 13
-28.57500000000001
 23
18.38125
 33
0.0
  0
SOLID
  5
124
330
11D
100
AcDbEntity
  8
치수문자_일반주서
 62
     0
100
AcDbTrace
 10
26.07500000000001
 20
17.96458333333333
 30
0.0
 11
26.07500000000001
 21
18.79791666666667
 31
0.0
 12
28.57500000000001
 22
18.38125
 32
0.0
 13
28.57500000000001
 23
18.38125
 33
0.0
  0
MTEXT
  5
125
330
11D
100
AcDbEntity
  8
치수문자_일반주서
 62
     0
100
AcDbMText
 10
0.0000000000000178
 20
21.75625
 30
0.0
 40
2.5
 41
0.0
 71
     2
 72
     1
  1
\A1;57.15 [2 1/4]
  7
SLDTEXTSTYLE0
 73
     1
 44
1.0
  0
POINT
  5
126
330
11D
100
AcDbEntity
  8
Defpoints
 62
     0
100
AcDbPoint
 10
-28.57500000000001
 20
0.9913489182356627
 30
0.0
  0
POINT
  5
127
330
11D
100
AcDbEntity
  8
Defpoints
 62
     0
100
AcDbPoint
 10
28.57500000000001
 20
0.9913489182356624
 30
0.0
  0
POINT
  5
128
330
11D
100
AcDbEntity
  8
Defpoints
 62
     0
100
AcDbPoint
 10
28.57500000000001
 20
18.38125
 30
0.0
  0
ENDBLK
  5
11F
330
11D
100
AcDbEntity
  8
0
100
AcDbBlockEnd
  0
BLOCK
  5
137
330
136
100
AcDbEntity
  8
0
100
AcDbBlockBegin
  2
SW_DOWELSYMBOL_0
 70
     0
 10
0.0
 20
0.0
 30
0.0
  3
SW_DOWELSYMBOL_0
  1
SW_DOWELSYMBOL_0
  0
CIRCLE
  5
139
330
136
100
AcDbEntity
  8
해칭선
 62
     0
100
AcDbCircle
 10
0.0
 20
0.0
 30
0.0
 40
3.000000000000001
  0
HATCH
  5
13A
330
136
100
AcDbEntity
  8
0
  6
Continuous
 62
     0
370
     0
100
AcDbHatch
 10
0.0
 20
0.0
 30
0.0
210
0.0
220
0.0
230
1.0
  2
SOLID
 70
     1
 71
     0
 91
        1
 92
        0
 93
        3
 72
     2
 10
0.0
 20
0.0
 40
3.000000000000001
 50
0.0
 51
90.0
 73
     1
 72
     1
 10
0.0
 20
3.000000000000001
 11
0.0
 21
0.0
 72
     1
 10
0.0
 20
0.0
 11
3.000000000000001
 21
0.0
 97
        0
 75
     0
 76
     1
 98
        1
 10
0.0
 20
0.0
  0
HATCH
  5
13B
330
136
100
AcDbEntity
  8
0
  6
Continuous
 62
     0
370
     0
100
AcDbHatch
 10
0.0
 20
0.0
 30
0.0
210
0.0
220
0.0
230
1.0
  2
SOLID
 70
     1
 71
     0
 91
        1
 92
        0
 93
        3
 72
     2
 10
0.0
 20
0.0
 40
3.000000000000001
 50
180.0
 51
270.0000000000007
 73
     1
 72
     1
 10
0.0
 20
-3.000000000000001
 11
0.0
 21
0.0
 72
     1
 10
0.0
 20
0.0
 11
-3.000000000000001
 21
0.0
 97
        0
 75
     0
 76
     1
 98
        1
 10
0.0
 20
0.0
  0
ENDBLK
  5
138
330
136
100
AcDbEntity
  8
0
100
AcDbBlockEnd
  0
BLOCK
  5
19A
330
199
100
AcDbEntity
  8
0
100
AcDbBlockBegin
  2
*D7
 70
     1
 10
0.0
 20
0.0
 30
0.0
  3
*D7
  1
*D7
  0
LINE
  5
19C
330
199
100
AcDbEntity
  8
치수문자_일반주서
 62
     0
370
    -2
100
AcDbLine
 10
7.381249999999984
 20
0.7853214860538494
 30
0.0
 11
7.381249999999984
 21
10.31324042902825
 31
0.0
  0
LINE
  5
19D
330
199
100
AcDbEntity
  8
치수문자_일반주서
 62
     0
370
    -2
100
AcDbLine
 10
4.999999999999998
 20
0.7641000406186218
 30
0.0
 11
4.999999999999996
 21
10.31324042902825
 31
0.0
  0
LINE
  5
19E
330
199
100
AcDbEntity
  8
치수문자_일반주서
 62
     0
370
    -2
100
AcDbLine
 10
7.381249999999984
 20
10.31324042902825
 30
0.0
 11
31.63124999999998
 21
10.31324042902825
 31
0.0
  0
LINE
  5
19F
330
199
100
AcDbEntity
  8
치수문자_일반주서
 62
     0
370
    -2
100
AcDbLine
 10
7.381249999999984
 20
10.31324042902825
 30
0.0
 11
4.999999999999996
 21
10.31324042902825
 31
0.0
  0
LINE
  5
1A0
330
199
100
AcDbEntity
  8
치수문자_일반주서
 62
     0
370
    -2
100
AcDbLine
 10
9.881249999999984
 20
10.31324042902825
 30
0.0
 11
12.38124999999998
 21
10.31324042902825
 31
0.0
  0
LINE
  5
1A1
330
199
100
AcDbEntity
  8
치수문자_일반주서
 62
     0
370
    -2
100
AcDbLine
 10
2.499999999999996
 20
10.31324042902825
 30
0.0
 11
-0.0000000000000036
 21
10.31324042902825
 31
0.0
  0
SOLID
  5
1A2
330
199
100
AcDbEntity
  8
치수문자_일반주서
 62
     0
100
AcDbTrace
 10
9.881249999999984
 20
10.72990709569492
 30
0.0
 11
9.881249999999984
 21
9.896573762361584
 31
0.0
 12
7.381249999999984
 22
10.31324042902825
 32
0.0
 13
7.381249999999984
 23
10.31324042902825
 33
0.0
  0
SOLID
  5
1A3
330
199
100
AcDbEntity
  8
치수문자_일반주서
 62
     0
100
AcDbTrace
 10
2.499999999999996
 20
9.896573762361584
 30
0.0
 11
2.499999999999996
 21
10.72990709569492
 31
0.0
 12
4.999999999999996
 22
10.31324042902825
 32
0.0
 13
4.999999999999996
 23
10.31324042902825
 33
0.0
  0
MTEXT
  5
1A4
330
199
100
AcDbEntity
  8
치수문자_일반주서
 62
     0
100
AcDbMText
 10
22.00624999999998
 20
13.68824042902825
 30
0.0
 40
2.5
 41
0.0
 71
     2
 72
     1
  1
\A1;2.38 [3/32]
  7
SLDTEXTSTYLE0
 73
     1
 44
1.0
  0
POINT
  5
1A5
330
199
100
AcDbEntity
  8
Defpoints
 62
     0
100
AcDbPoint
 10
7.381249999999984
 20
0.7228214860538494
 30
0.0
  0
POINT
  5
1A6
330
199
100
AcDbEntity
  8
Defpoints
 62
     0
100
AcDbPoint
 10
4.999999999999998
 20
0.7016000406186218
 30
0.0
  0
POINT
  5
1A7
330
199
100
AcDbEntity
  8
Defpoints
 62
     0
100
AcDbPoint
 10
4.999999999999998
 20
10.31324042902825
 30
0.0
  0
ENDBLK
  5
19B
330
199
100
AcDbEntity
  8
0
100
AcDbBlockEnd
  0
BLOCK
  5
1AC
330
1AB
100
AcDbEntity
  8
0
100
AcDbBlockBegin
  2
*D8
 70
     1
 10
0.0
 20
0.0
 30
0.0
  3
*D8
  1
*D8
  0
LINE
  5
1AE
330
1AB
100
AcDbEntity
  8
치수문자_일반주서
 62
     0
370
    -2
100
AcDbLine
 10
59.39845903550498
 20
-18.58526341019823
 30
0.0
 11
59.39845903550498
 21
-9.057344467223826
 31
0.0
  0
LINE
  5
1AF
330
1AB
100
AcDbEntity
  8
치수문자_일반주서
 62
     0
370
    -2
100
AcDbLine
 10
57.017209035505
 20
-18.60648485563345
 30
0.0
 11
57.017209035505
 21
-9.057344467223826
 31
0.0
  0
LINE
  5
1B0
330
1AB
100
AcDbEntity
  8
치수문자_일반주서
 62
     0
370
    -2
100
AcDbLine
 10
59.39845903550498
 20
-9.057344467223826
 30
0.0
 11
83.64845903550498
 21
-9.057344467223826
 31
0.0
  0
LINE
  5
1B1
330
1AB
100
AcDbEntity
  8
치수문자_일반주서
 62
     0
370
    -2
100
AcDbLine
 10
59.39845903550498
 20
-9.057344467223826
 30
0.0
 11
57.017209035505
 21
-9.057344467223826
 31
0.0
  0
LINE
  5
1B2
330
1AB
100
AcDbEntity
  8
치수문자_일반주서
 62
     0
370
    -2
100
AcDbLine
 10
61.89845903550498
 20
-9.057344467223826
 30
0.0
 11
64.39845903550498
 21
-9.057344467223826
 31
0.0
  0
LINE
  5
1B3
330
1AB
100
AcDbEntity
  8
치수문자_일반주서
 62
     0
370
    -2
100
AcDbLine
 10
54.517209035505
 20
-9.057344467223826
 30
0.0
 11
52.017209035505
 21
-9.057344467223826
 31
0.0
  0
SOLID
  5
1B4
330
1AB
100
AcDbEntity
  8
치수문자_일반주서
 62
     0
100
AcDbTrace
 10
61.89845903550498
 20
-8.64067780055716
 30
0.0
 11
61.89845903550498
 21
-9.474011133890492
 31
0.0
 12
59.39845903550498
 22
-9.057344467223826
 32
0.0
 13
59.39845903550498
 23
-9.057344467223826
 33
0.0
  0
SOLID
  5
1B5
330
1AB
100
AcDbEntity
  8
치수문자_일반주서
 62
     0
100
AcDbTrace
 10
54.517209035505
 20
-9.474011133890492
 30
0.0
 11
54.517209035505
 21
-8.64067780055716
 31
0.0
 12
57.017209035505
 22
-9.057344467223826
 32
0.0
 13
57.017209035505
 23
-9.057344467223826
 33
0.0
  0
MTEXT
  5
1B6
330
1AB
100
AcDbEntity
  8
치수문자_일반주서
 62
     0
100
AcDbMText
 10
74.02345903550498
 20
-5.682344467223826
 30
0.0
 40
2.5
 41
0.0
 71
     2
 72
     1
  1
\A1;2.38 [3/32]
  7
SLDTEXTSTYLE0
 73
     1
 44
1.0
  0
POINT
  5
1B7
330
1AB
100
AcDbEntity
  8
Defpoints
 62
     0
100
AcDbPoint
 10
59.39845903550498
 20
-18.64776341019823
 30
0.0
  0
POINT
  5
1B8
330
1AB
100
AcDbEntity
  8
Defpoints
 62
     0
100
AcDbPoint
 10
57.017209035505
 20
-18.66898485563345
 30
0.0
  0
POINT
  5
1B9
330
1AB
100
AcDbEntity
  8
Defpoints
 62
     0
100
AcDbPoint
 10
57.017209035505
 20
-9.057344467223826
 30
0.0
  0
ENDBLK
  5
1AD
330
1AB
100
AcDbEntity
  8
0
100
AcDbBlockEnd
  0
ENDSEC
  0
SECTION
  2
ENTITIES
  0
LINE
  5
96
330
1F
100
AcDbEntity
  8
외형선
  6
Continuous
370
    15
100
AcDbLine
 10
16.43782317511138
 20
2.381249999999999
 30
0.0
 11
-16.43782317511139
 21
2.381249999999997
 31
0.0
  0
LINE
  5
97
330
1F
100
AcDbEntity
  8
외형선
  6
Continuous
370
    15
100
AcDbLine
 10
-16.43782317511137
 20
-2.381250000000001
 30
0.0
 11
16.43782317511137
 21
-2.381249999999999
 31
0.0
  0
LINE
  5
98
330
1F
100
AcDbEntity
  8
외형선
  6
Continuous
370
    15
100
AcDbLine
 10
16.43782317511138
 20
-2.38125
 30
0.0
 11
21.62187500000001
 21
-0.9921874999999996
 31
0.0
  0
LINE
  5
99
330
1F
100
AcDbEntity
  8
외형선
  6
Continuous
370
    15
100
AcDbLine
 10
21.62187500000001
 20
0.9921875000000004
 30
0.0
 11
16.43782317511138
 21
2.38125
 31
0.0
  0
LINE
  5
9C
330
1F
100
AcDbEntity
  8
외형선
  6
Continuous
370
    15
100
AcDbLine
 10
21.82188781796705
 20
0.9921875000000004
 30
0.0
 11
21.62187500000001
 21
0.9921875000000004
 31
0.0
  0
LINE
  5
9D
330
1F
100
AcDbEntity
  8
외형선
  6
Continuous
370
    15
100
AcDbLine
 10
21.62187500000001
 20
-0.9921874999999996
 30
0.0
 11
21.82188781796705
 21
-0.9921874999999996
 31
0.0
  0
SPLINE
  5
9E
330
1F
100
AcDbEntity
  8
외형선
  6
Continuous
370
    15
100
AcDbSpline
210
0.0
220
0.0
230
1.0
 70
     8
 71
     3
 72
    12
 73
     8
 74
     0
 42
0.000000001
 43
0.00000001
 40
0.0
 40
0.0
 40
0.0
 40
0.0
 40
0.0554803227272144
 40
0.2093970001230986
 40
0.4447189092530543
 40
0.7243241255732433
 40
1.0
 40
1.0
 40
1.0
 40
1.0
 10
21.82326238731272
 20
-0.9737602261222763
 30
0.0
 10
21.8236893910456
 20
-0.9685229238307066
 30
0.0
 10
21.825301012902
 20
-0.9487559986456336
 30
0.0
 10
21.83427422401539
 20
-0.9046672494871948
 30
0.0
 10
21.85782232784315
 20
-0.84268121963167
 30
0.0
 10
21.9001579769912
 20
-0.7747585390732232
 30
0.0
 10
21.94370057963152
 20
-0.7403366115519061
 30
0.0
 10
21.96531782044472
 20
-0.7232474379297162
 30
0.0
  0
SPLINE
  5
9F
330
1F
100
AcDbEntity
  8
외형선
  6
Continuous
370
    15
100
AcDbSpline
210
0.0
220
0.0
230
1.0
 70
     8
 71
     3
 72
     9
 73
     5
 74
     0
 42
0.000000001
 43
0.00000001
 40
0.0
 40
0.0
 40
0.0
 40
0.0
 40
0.503289656122942
 40
1.0
 40
1.0
 40
1.0
 40
1.0
 10
22.62187500000046
 20
0.6651120032559237
 30
0.0
 10
22.48732965768866
 20
0.6590504075022786
 30
0.0
 10
22.21999783261548
 20
0.6470064569066312
 30
0.0
 10
21.95400608584429
 20
0.658646949074802
 30
0.0
 10
21.82188523383711
 20
0.6644289019425524
 30
0.0
  0
SPLINE
  5
A0
330
1F
100
AcDbEntity
  8
0
  6
Continuous
 62
     1
370
    25
100
AcDbSpline
210
0.0
220
0.0
230
1.0
 70
     8
 71
     3
 72
     9
 73
     5
 74
     0
 42
0.000000001
 43
0.00000001
 40
0.0
 40
0.0
 40
0.0
 40
0.0
 40
0.4995144150128933
 40
1.0
 40
1.0
 40
1.0
 40
1.0
 10
26.00362404638195
 20
0.2542505361548666
 30
0.0
 10
25.95823701046108
 20
0.2760458375853015
 30
0.0
 10
25.86737469586764
 20
0.3196788154841922
 30
0.0
 10
25.7764805215292
 20
0.3675026938072339
 30
0.0
 10
25.7309892975135
 20
0.3914378555260937
 30
0.0
1001
PE_URL
1000

  0
LINE
  5
A1
330
1F
100
AcDbEntity
  8
0
  6
Continuous
 62
     1
370
    25
100
AcDbLine
 10
23.72756317523859
 20
0.9921875000000009
 30
0.0
 11
23.2464499706176
 21
0.9921875000000009
 31
0.0
1001
PE_URL
1000

  0
SPLINE
  5
A2
330
1F
100
AcDbEntity
  8
0
  6
Continuous
 62
     1
370
    25
100
AcDbSpline
210
0.0
220
0.0
230
1.0
 70
     8
 71
     3
 72
     9
 73
     5
 74
     0
 42
0.000000001
 43
0.00000001
 40
0.0
 40
0.0
 40
0.0
 40
0.0
 40
0.9335251994436621
 40
1.0
 40
1.0
 40
1.0
 40
1.0
 10
25.67760784633455
 20
0.7884506355385001
 30
0.0
 10
25.41399315891879
 20
0.7788976291473173
 30
0.0
 10
25.13160690135138
 20
0.7686643688166095
 30
0.0
 10
24.84933441636513
 20
0.7806729346408493
 30
0.0
 10
24.83057040922313
 20
0.7814712016589833
 30
0.0
1001
PE_URL
1000

  0
SPLINE
  5
A3
330
1F
100
AcDbEntity
  8
0
  6
Continuous
 62
     1
370
    25
100
AcDbSpline
210
0.0
220
0.0
230
1.0
 70
     8
 71
     3
 72
     9
 73
     5
 74
     0
 42
0.000000001
 43
0.00000001
 40
0.0
 40
0.0
 40
0.0
 40
0.0
 40
0.5005081191578589
 40
0.9999999999999999
 40
0.9999999999999999
 40
0.9999999999999999
 40
0.9999999999999999
 10
24.18455232633584
 20
-0.8256008769639674
 30
0.0
 10
24.43365004182097
 20
-0.8048512062352071
 30
0.0
 10
24.93133970148973
 20
-0.7633939951840198
 30
0.0
 10
25.42902038544629
 20
-0.7801040825640244
 30
0.0
 10
25.67760784633455
 20
-0.7884506355384994
 30
0.0
1001
PE_URL
1000

  0
SPLINE
  5
A4
330
1F
100
AcDbEntity
  8
0
  6
Continuous
 62
     1
370
    25
100
AcDbSpline
210
0.0
220
0.0
230
1.0
 70
     8
 71
     3
 72
    11
 73
     7
 74
     0
 42
0.000000001
 43
0.00000001
 40
0.0
 40
0.0
 40
0.0
 40
0.0
 40
0.376117456313208
 40
0.6088938850867859
 40
0.8054111814243525
 40
1.0
 40
1.0
 40
1.0
 40
1.0
 10
26.47403857991628
 20
-0.7462080054203417
 30
0.0
 10
26.5670427749491
 20
-0.732310961345638
 30
0.0
 10
26.71760660731679
 20
-0.70981313515907
 30
0.0
 10
26.91645329270537
 20
-0.6882487504530663
 30
0.0
 10
27.07069940633779
 20
-0.6741139312154674
 30
0.0
 10
27.16720524718277
 20
-0.6680853384878541
 30
0.0
 10
27.21522024065798
 20
-0.6650859051069663
 30
0.0
1001
PE_URL
1000

  0
SPLINE
  5
A5
330
1F
100
AcDbEntity
  8
0
  6
Continuous
 62
     1
370
    25
100
AcDbSpline
210
0.0
220
0.0
230
1.0
 70
     8
 71
     3
 72
     9
 73
     5
 74
     0
 42
0.000000001
 43
0.00000001
 40
0.0
 40
0.0
 40
0.0
 40
0.0
 40
0.5014466086918385
 40
1.0
 40
1.0
 40
1.0
 40
1.0
 10
22.8901533252044
 20
0.6849165291098909
 30
0.0
 10
22.8453171688964
 20
0.6811147861074908
 30
0.0
 10
22.75590354931889
 20
0.6735332351776361
 30
0.0
 10
22.66646492798163
 20
0.6679136610132562
 30
0.0
 10
22.62187500000001
 20
0.665112003255897
 30
0.0
1001
PE_URL
1000

  0
SPLINE
  5
A6
330
1F
100
AcDbEntity
  8
0
  6
Continuous
 62
     1
370
    25
100
AcDbSpline
210
0.0
220
0.0
230
1.0
 70
     8
 71
     3
 72
    17
 73
    13
 74
     0
 42
0.000000001
 43
0.00000001
 40
0.0
 40
0.0
 40
0.0
 40
0.0
 40
0.1385457159102639
 40
0.23299043675223
 40
0.2997753673564811
 40
0.3790498360866769
 40
0.4704012584043602
 40
0.5531028495801954
 40
0.6551508183575897
 40
0.7392927205108986
 40
0.8389595277512084
 40
1.0
 40
1.0
 40
1.0
 40
1.0
 10
28.20497935219075
 20
0.6785120027538116
 30
0.0
 10
28.12482774462412
 20
0.6724080490107545
 30
0.0
 10
27.99003788172113
 20
0.6621431134321509
 30
0.0
 10
27.81775552314549
 20
0.6554826514641338
 30
0.0
 10
27.67894492293699
 20
0.6528190809328173
 30
0.0
 10
27.54187216416063
 20
0.6527943421939096
 30
0.0
 10
27.39558743690599
 20
0.655908927252538
 30
0.0
 10
27.23646430656856
 20
0.6628859705220066
 30
0.0
 10
27.08151082300622
 20
0.6733714187671018
 30
0.0
 10
26.91645471904118
 20
0.688176131142983
 30
0.0
 10
26.71760594497642
 20
0.709846857021999
 30
0.0
 10
26.56704252204056
 20
0.7323238377266241
 30
0.0
 10
26.47403857991628
 20
0.7462080054203426
 30
0.0
1001
PE_URL
1000

  0
LINE
  5
A7
330
1F
100
AcDbEntity
  8
0
  6
Continuous
 62
     1
370
    25
100
AcDbLine
 10
23.24644997061761
 20
-0.9921875
 30
0.0
 11
23.72756317523859
 21
-0.9921875
 31
0.0
1001
PE_URL
1000

  0
LINE
  5
A8
330
1F
100
AcDbEntity
  8
외형선
  6
Continuous
370
    15
100
AcDbLine
 10
16.43782317511138
 20
2.38125
 30
0.0
 11
16.43782317511138
 21
-2.381250000000002
 31
0.0
  0
LINE
  5
AA
330
1F
100
AcDbEntity
  8
외형선
  6
Continuous
370
    15
100
AcDbLine
 10
21.62187500000001
 20
0.9921875000000004
 30
0.0
 11
21.62187500000001
 21
-0.9921874999999996
 31
0.0
  0
SPLINE
  5
AC
330
1F
100
AcDbEntity
  8
외형선
  6
Continuous
370
    15
100
AcDbSpline
210
0.0
220
0.0
230
1.0
 70
     8
 71
     3
 72
    10
 73
     6
 74
     0
 42
0.000000001
 43
0.00000001
 40
0.0
 40
0.0
 40
0.0
 40
0.0
 40
0.5
 40
0.5
 40
1.0
 40
1.0
 40
1.0
 40
1.0
 10
22.62187500000001
 20
0.9274804142533143
 30
0.0
 10
22.48861883207182
 20
0.9001109175489163
 30
0.0
 10
22.35773260010085
 20
0.8645600924176108
 30
0.0
 10
22.08827468649574
 20
0.7777487000326181
 30
0.0
 10
21.95297168691432
 20
0.7267154597139848
 30
0.0
 10
21.82188317928845
 20
0.670209437273211
 30
0.0
  0
SPLINE
  5
AD
330
1F
100
AcDbEntity
  8
외형선
  6
Continuous
370
    15
100
AcDbSpline
210
0.0
220
0.0
230
1.0
 70
     8
 71
     3
 72
    10
 73
     6
 74
     0
 42
0.000000001
 43
0.00000001
 40
0.0
 40
0.0
 40
0.0
 40
0.0
 40
0.4999999999999999
 40
0.4999999999999999
 40
1.0
 40
1.0
 40
1.0
 40
1.0
 10
22.62187500000001
 20
-0.7940687192614093
 30
0.0
 10
22.48862027262533
 20
-0.7478723500964921
 30
0.0
 10
22.35773549556216
 20
-0.6948048018865335
 30
0.0
 10
22.08828052988359
 20
-0.5760193303345907
 30
0.0
 10
21.95297857989489
 20
-0.5106929769413172
 30
0.0
 10
21.82189168200349
 20
-0.4420895414331807
 30
0.0
  0
LINE
  5
AE
330
1F
100
AcDbEntity
  8
외형선
  6
Continuous
370
    15
100
AcDbLine
 10
22.62187500000001
 20
-0.794068719261409
 30
0.0
 11
22.621875
 21
-0.9274804142533137
 31
0.0
  0
SPLINE
  5
AF
330
1F
100
AcDbEntity
  8
외형선
  6
Continuous
370
    15
100
AcDbSpline
210
0.0
220
0.0
230
1.0
 70
     8
 71
     3
 72
    10
 73
     6
 74
     0
 42
0.000000001
 43
0.00000001
 40
0.0
 40
0.0
 40
0.0
 40
0.0
 40
0.5
 40
0.5
 40
1.0
 40
1.0
 40
1.0
 40
1.0
 10
22.62187500000001
 20
-0.9274804142533135
 30
0.0
 10
22.48861883207182
 20
-0.9001109175489154
 30
0.0
 10
22.35773260010085
 20
-0.8645600924176099
 30
0.0
 10
22.08827468649574
 20
-0.7777487000326172
 30
0.0
 10
21.95297168691432
 20
-0.7267154597139839
 30
0.0
 10
21.82188317928845
 20
-0.6702094372732101
 30
0.0
  0
LWPOLYLINE
  5
B0
330
1F
100
AcDbEntity
  8
외형선
  6
Continuous
370
    15
100
AcDbPolyline
 90
        8
 70
   128
 43
0.0
 10
21.82188781796705
 20
-0.9921874999999996
 10
21.8218876966077
 20
-0.9919311752114924
 10
21.821886958853
 20
-0.979954123977556
 10
21.82188619682616
 20
-0.9502857039709259
 10
21.82188542428425
 20
-0.903461526957906
 10
21.82188465517417
 20
-0.840326922084776
 10
21.82188390338087
 20
-0.7620216749290436
 10
21.82188318247667
 20
-0.6699594506515287
  0
LWPOLYLINE
  5
B1
330
1F
100
AcDbEntity
  8
외형선
  6
Continuous
370
    15
100
AcDbPolyline
 90
       11
 70
   128
 43
0.0
 10
21.82188939031916
 20
-0.442051472996764
 10
21.82189019286515
 20
-0.2525153748587482
 10
21.82189080472646
 20
-0.0524625223923793
 10
21.8218912004203
 20
0.1497752879592471
 10
21.82189136346683
 20
0.3457752606789794
 10
21.82189128707548
 20
0.5273743935630495
 10
21.8218909744278
 20
0.6870094502427727
 10
21.82189043854494
 20
0.8180319536730088
 10
21.82188970174533
 20
0.9149850817460651
 10
21.82188879471518
 20
0.9738309328890963
 10
21.82188781796705
 20
0.9921875000000004
  0
SPLINE
  5
B2
330
1F
100
AcDbEntity
  8
외형선
  6
Continuous
370
    15
100
AcDbSpline
210
0.0
220
0.0
230
1.0
 70
    24
 71
     3
 72
     8
 73
     4
 74
     0
 42
0.000000001
 43
0.00000001
 40
0.0
 40
0.0
 40
0.0
 40
0.0
 40
1.0
 40
1.0
 40
1.0
 40
1.0
 10
22.62187500000001
 20
-0.643254572121062
 30
0.0
 10
22.62187500000001
 20
-0.691938001275303
 30
0.0
 10
22.62187500000001
 20
-0.7425254331178075
 30
0.0
 10
22.62187500000001
 20
-0.7940687192613384
 30
0.0
  0
SPLINE
  5
B3
330
1F
100
AcDbEntity
  8
외형선
  6
Continuous
370
    15
100
AcDbSpline
210
0.0
220
0.0
230
1.0
 70
     8
 71
     3
 72
    10
 73
     6
 74
     0
 42
0.000000001
 43
0.00000001
 40
0.0
 40
0.0
 40
0.0
 40
0.0
 40
0.5
 40
0.5
 40
1.0
 40
1.0
 40
1.0
 40
1.0
 10
22.62187500000001
 20
-0.6432545721210624
 30
0.0
 10
22.48862027262533
 20
-0.6008999315327683
 30
0.0
 10
22.35773549556216
 20
-0.5530079781973063
 30
0.0
 10
22.08828052988359
 20
-0.4471495229635431
 30
0.0
 10
21.95297857989488
 20
-0.3895429032917316
 30
0.0
 10
21.82189168200349
 20
-0.3295867391441819
 30
0.0
  0
SPLINE
  5
B4
330
1F
100
AcDbEntity
  8
외형선
  6
Continuous
370
    15
100
AcDbSpline
210
0.0
220
0.0
230
1.0
 70
    24
 71
     3
 72
    10
 73
     6
 74
     0
 42
0.000000001
 43
0.00000001
 40
0.0
 40
0.0
 40
0.0
 40
0.0
 40
0.5
 40
0.5
 40
1.0
 40
1.0
 40
1.0
 40
1.0
 10
22.62187500000001
 20
0.2512165765437876
 30
0.0
 10
22.62187500000001
 20
0.1014199365126289
 30
0.0
 10
22.62187500000001
 20
-0.0625749891256228
 30
0.0
 10
22.62187500000001
 20
-0.3752369788998507
 30
0.0
 10
22.62187500000001
 20
-0.5225582236036871
 30
0.0
 10
22.62187500000001
 20
-0.643254572121062
 30
0.0
  0
SPLINE
  5
B5
330
1F
100
AcDbEntity
  8
외형선
  6
Continuous
370
    15
100
AcDbSpline
210
0.0
220
0.0
230
1.0
 70
     8
 71
     3
 72
    10
 73
     6
 74
     0
 42
0.000000001
 43
0.00000001
 40
0.0
 40
0.0
 40
0.0
 40
0.0
 40
0.5000000000000001
 40
0.5000000000000001
 40
1.0
 40
1.0
 40
1.0
 40
1.0
 10
22.62187500000001
 20
0.2512165765437876
 30
0.0
 10
22.48861935940141
 20
0.3096875828730789
 30
0.0
 10
22.35773366001473
 20
0.3655572151218659
 30
0.0
 10
22.08827682552856
 20
0.4707277872016139
 30
0.0
 10
21.95297421016301
 20
0.5195201109510041
 30
0.0
 10
21.82188629179712
 20
0.5627540831889715
 30
0.0
  0
SPLINE
  5
B6
330
1F
100
AcDbEntity
  8
외형선
  6
Continuous
370
    15
100
AcDbSpline
210
0.0
220
0.0
230
1.0
 70
    24
 71
     3
 72
    13
 73
     9
 74
     0
 42
0.000000001
 43
0.00000001
 40
0.0
 40
0.0
 40
0.0
 40
0.0
 40
0.0594970829471569
 40
0.2505357998349636
 40
0.4361905173380511
 40
0.6272292342258851
 40
0.8110062135091887
 40
0.9999999999999999
 40
0.9999999999999999
 40
0.9999999999999999
 40
0.9999999999999999
 10
22.62187500000001
 20
0.6618287224799231
 30
0.0
 10
22.62187500000001
 20
0.6626405150322808
 30
0.0
 10
22.62187500000001
 20
0.6660588859225928
 30
0.0
 10
22.62187500000001
 20
0.6405051666750122
 30
0.0
 10
22.62187500000001
 20
0.5851454554190426
 30
0.0
 10
22.62187500000001
 20
0.4994674278276843
 30
0.0
 10
22.62187500000001
 20
0.3891895988579378
 30
0.0
 10
22.62187500000001
 20
0.2976346778917614
 30
0.0
 10
22.62187500000001
 20
0.2512165765437876
 30
0.0
  0
SPLINE
  5
B7
330
1F
100
AcDbEntity
  8
외형선
  6
Continuous
370
    15
100
AcDbSpline
210
0.0
220
0.0
230
1.0
 70
    24
 71
     3
 72
    10
 73
     6
 74
     0
 42
0.000000001
 43
0.00000001
 40
0.0
 40
0.0
 40
0.0
 40
0.0
 40
0.5
 40
0.5
 40
1.0
 40
1.0
 40
1.0
 40
1.0
 10
22.62187500000039
 20
0.9274804142533216
 30
0.0
 10
22.62187500000039
 20
0.8763206175267585
 30
0.0
 10
22.62187500000039
 20
0.8246567661794627
 30
0.0
 10
22.62187500000039
 20
0.7319265352183449
 30
0.0
 10
22.62187500000039
 20
0.6910722770424299
 30
0.0
 10
22.62187500000039
 20
0.6588286885440555
 30
0.0
  0
SPLINE
  5
B8
330
1F
100
AcDbEntity
  8
0
  6
Continuous
 62
     1
370
    25
100
AcDbSpline
210
0.0
220
0.0
230
1.0
 70
     8
 71
     3
 72
    16
 73
    12
 74
     0
 42
0.000000001
 43
0.00000001
 40
0.0
 40
0.0
 40
0.0
 40
0.0
 40
0.11482906442291
 40
0.2293865401502909
 40
0.3438198189767903
 40
0.4582791046104009
 40
0.5729140103612006
 40
0.6878207989394677
 40
0.8228882348606334
 40
0.9579459304215227
 40
1.0
 40
1.0
 40
1.0
 40
1.0
 10
28.57500000000001
 20
-0.9415272686910253
 30
0.0
 10
28.38940046511766
 20
-0.8982446816503409
 30
0.0
 10
28.01864036727897
 20
-0.811781877656306
 30
0.0
 10
27.4632899544043
 20
-0.5716629780494586
 30
0.0
 10
26.90863130333081
 20
-0.2794681566822864
 30
0.0
 10
26.3538246027696
 20
0.0437074935087875
 30
0.0
 10
25.79809857206532
 20
0.3614790760727777
 30
0.0
 10
25.20867570224704
 20
0.6602775168628803
 30
0.0
 10
24.58637331564438
 20
0.8856077984335445
 30
0.0
 10
24.08179298471932
 20
0.9994461755327468
 30
0.0
 10
23.79553364642928
 20
0.9811552908374638
 30
0.0
 10
23.72756317523859
 20
0.976812235834754
 30
0.0
1001
PE_URL
1000

  0
SPLINE
  5
B9
330
1F
100
AcDbEntity
  8
0
  6
Continuous
 62
     1
370
    25
100
AcDbSpline
210
0.0
220
0.0
230
1.0
 70
     8
 71
     3
 72
    14
 73
    10
 74
     0
 42
0.000000001
 43
0.00000001
 40
0.0
 40
0.0
 40
0.0
 40
0.0
 40
0.1634722874225583
 40
0.3260150821499305
 40
0.4899981884169305
 40
0.6528576016920768
 40
0.8157044023321524
 40
0.9796944416271619
 40
1.0
 40
1.0
 40
1.0
 40
1.0
 10
28.57500000000001
 20
-0.7828084185528389
 30
0.0
 10
28.43400434768735
 20
-0.7526090058660532
 30
0.0
 10
28.15281473508545
 20
-0.692381892370586
 30
0.0
 10
27.73104569847833
 20
-0.5464875124097164
 30
0.0
 10
27.30852398057845
 20
-0.373410818351966
 30
0.0
 10
26.88669070546642
 20
-0.1748906852562188
 30
0.0
 10
26.46491383165809
 20
0.0323045335170641
 30
0.0
 10
26.16508820942644
 20
0.1810471853341286
 30
0.0
 10
26.00633596847158
 20
0.2523643028233999
 30
0.0
 10
25.98884475904325
 20
0.2602219722983425
 30
0.0
1001
PE_URL
1000

  0
LINE
  5
BA
330
1F
100
AcDbEntity
  8
0
  6
Continuous
 62
     1
370
    25
100
AcDbLine
 10
28.57499999999997
 20
-0.941527268691026
 30
0.0
 11
28.57500000000001
 21
-0.7828084185528389
 31
0.0
1001
PE_URL
1000

  0
SPLINE
  5
BB
330
1F
100
AcDbEntity
  8
0
  6
Continuous
 62
     1
370
    25
100
AcDbSpline
210
0.0
220
0.0
230
1.0
 70
     8
 71
     3
 72
    38
 73
    34
 74
     0
 42
0.000000001
 43
0.00000001
 40
0.0
 40
0.0
 40
0.0
 40
0.0
 40
0.0624999999999999
 40
0.0624999999999999
 40
0.1249999999999998
 40
0.1249999999999998
 40
0.1874999999999997
 40
0.1874999999999997
 40
0.2499999999999996
 40
0.2499999999999996
 40
0.3124999999999994
 40
0.3124999999999994
 40
0.3749999999999993
 40
0.3749999999999993
 40
0.4374999999999992
 40
0.4374999999999992
 40
0.4999999999999991
 40
0.4999999999999991
 40
0.5624999999999992
 40
0.5624999999999992
 40
0.6249999999999993
 40
0.6249999999999993
 40
0.6874999999999994
 40
0.6874999999999994
 40
0.7499999999999996
 40
0.7499999999999996
 40
0.8124999999999997
 40
0.8124999999999997
 40
0.8749999999999998
 40
0.8749999999999998
 40
0.9374999999999999
 40
0.9374999999999999
 40
1.0
 40
1.0
 40
1.0
 40
1.0
 10
28.57500000000001
 20
-0.9913489182356617
 30
0.0
 10
28.45338482747066
 20
-0.9884250481356289
 30
0.0
 10
28.32783739003516
 20
-0.9777369367116079
 30
0.0
 10
28.07751262804959
 20
-0.9411404111581385
 30
0.0
 10
27.95488510339267
 20
-0.9154374828180414
 30
0.0
 10
27.7090444657121
 20
-0.8502902426496723
 30
0.0
 10
27.58296726395894
 20
-0.8105048959856087
 30
0.0
 10
27.33325310316616
 20
-0.7190800746778231
 30
0.0
 10
27.21221981588793
 20
-0.6678844845848384
 30
0.0
 10
26.96434344042837
 20
-0.5551493596936822
 30
0.0
 10
26.83804909263288
 20
-0.4936000314996285
 30
0.0
 10
26.58955117896042
 20
-0.3644080671740662
 30
0.0
 10
26.46877369847584
 20
-0.2970870083237921
 30
0.0
 10
26.21945240594715
 20
-0.1574654559402895
 30
0.0
 10
26.09325534747946
 20
-0.0855745008994509
 30
0.0
 10
25.84656950054564
 20
0.0573402961014935
 30
0.0
 10
25.72470734549207
 20
0.1286267221109624
 30
0.0
 10
25.47454360135159
 20
0.2693064712305704
 30
0.0
 10
25.34875745297284
 20
0.3381867434736673
 30
0.0
 10
25.10446496104009
 20
0.4683557378072062
 30
0.0
 10
24.98018633796223
 20
0.5306815209111275
 30
0.0
 10
24.72978943524684
 20
0.6463271711073557
 30
0.0
 10
24.60620358278103
 20
0.6992551651002477
 30
0.0
 10
24.36129178142874
 20
0.7932245727463013
 30
0.0
 10
24.2353799407365
 20
0.8347995712058649
 30
0.0
 10
23.9853610670644
 20
0.9039826928511318
 30
0.0
 10
23.86387715704794
 20
0.9314628555039247
 30
0.0
 10
23.61670831592625
 20
0.9719091867306167
 30
0.0
 10
23.49045973714856
 20
0.9847727737221539
 30
0.0
 10
23.24142700946437
 20
0.9947713750617533
 30
0.0
 10
23.12071022114079
 20
0.9920425063123233
 30
0.0
 10
22.87186948902987
 20
0.9711579010406483
 30
0.0
 10
22.74559822421236
 20
0.9528919387627288
 30
0.0
 10
22.62187500000001
 20
0.9274804142533154
 30
0.0
1001
PE_URL
1000

  0
SPLINE
  5
BC
330
1F
100
AcDbEntity
  8
0
  6
Continuous
 62
     1
370
    25
100
AcDbSpline
210
0.0
220
0.0
230
1.0
 70
     8
 71
     3
 72
    13
 73
     9
 74
     0
 42
0.000000001
 43
0.00000001
 40
0.0
 40
0.0
 40
0.0
 40
0.0
 40
0.0623346150226022
 40
0.2690610906935381
 40
0.4721354485183156
 40
0.6751938824493834
 40
0.8782375112776306
 40
1.0
 40
1.0
 40
1.0
 40
1.0
 10
26.10904531608575
 20
-0.09216587970294
 30
0.0
 10
26.04203264980649
 20
-0.0659689419201242
 30
0.0
 10
25.75277922178994
 20
0.0471075028468707
 30
0.0
 10
25.24520963258862
 20
0.2558013023351476
 30
0.0
 10
24.58636871076343
 20
0.4854260541507392
 30
0.0
 10
23.93149023143939
 20
0.6411214364738568
 30
0.0
 10
23.3640280016899
 20
0.7098418817984467
 30
0.0
 10
23.01485959064758
 20
0.6827810014020873
 30
0.0
 10
22.8839642274926
 20
0.6726364875951217
 30
0.0
1001
PE_URL
1000

  0
SPLINE
  5
BD
330
1F
100
AcDbEntity
  8
외형선
  6
Continuous
370
    15
100
AcDbSpline
210
0.0
220
0.0
230
1.0
 70
    24
 71
     3
 72
    10
 73
     6
 74
     0
 42
0.000000001
 43
0.00000001
 40
0.0
 40
0.0
 40
0.0
 40
0.0
 40
0.5
 40
0.5
 40
1.0
 40
1.0
 40
1.0
 40
1.0
 10
22.62187500000039
 20
0.9274804142533217
 30
0.0
 10
22.62187500000039
 20
0.8763206175267584
 30
0.0
 10
22.62187500000039
 20
0.8246567661794635
 30
0.0
 10
22.62187500000039
 20
0.731926535218345
 30
0.0
 10
22.62187500000039
 20
0.6910722770424298
 30
0.0
 10
22.62187500000039
 20
0.6588286885440555
 30
0.0
  0
LINE
  5
BE
330
1F
100
AcDbEntity
  8
0
  6
Continuous
 62
     1
370
    25
100
AcDbLine
 10
28.57500000000001
 20
-0.9913489182356615
 30
0.0
 11
28.57499999999996
 21
-0.9415272686910232
 31
0.0
1001
PE_URL
1000

  0
SPLINE
  5
BF
330
1F
100
AcDbEntity
  8
0
  6
Continuous
 62
     1
370
    25
100
AcDbSpline
210
0.0
220
0.0
230
1.0
 70
     8
 71
     3
 72
     8
 73
     4
 74
     0
 42
0.000000001
 43
0.00000001
 40
0.0
 40
0.0
 40
0.0
 40
0.0
 40
1.0
 40
1.0
 40
1.0
 40
1.0
 10
27.96145648003368
 20
0.2771455591120032
 30
0.0
 10
27.92607854129341
 20
0.3190069411504183
 30
0.0
 10
27.89444619038866
 20
0.3593360420193179
 30
0.0
 10
27.86754979533608
 20
0.397727712425865
 30
0.0
1001
PE_URL
1000

  0
LINE
  5
C0
330
1F
100
AcDbEntity
  8
0
  6
Continuous
 62
     1
370
    25
100
AcDbLine
 10
27.88011798808646
 20
0.4082736783272827
 30
0.0
 11
28.57500000000001
 21
0.0000000000000013
 31
0.0
1001
PE_URL
1000

  0
LINE
  5
C1
330
1F
100
AcDbEntity
  8
0
  6
Continuous
 62
     1
370
    25
100
AcDbLine
 10
28.57500000000001
 20
0.0000000000000013
 30
0.0
 11
28.57500000000001
 21
-0.2651551105137871
 31
0.0
1001
PE_URL
1000

  0
SPLINE
  5
C2
330
1F
100
AcDbEntity
  8
0
  6
Continuous
 62
     1
370
    25
100
AcDbSpline
210
0.0
220
0.0
230
1.0
 70
     8
 71
     3
 72
    10
 73
     6
 74
     0
 42
0.000000001
 43
0.00000001
 40
0.0
 40
0.0
 40
0.0
 40
0.0
 40
0.5
 40
0.5
 40
1.0
 40
1.0
 40
1.0
 40
1.0
 10
28.57500000000001
 20
-0.2651551105137876
 30
0.0
 10
28.46879960073016
 20
-0.1816611239832065
 30
0.0
 10
28.36437334291143
 20
-0.0947429862225269
 30
0.0
 10
28.1591477173493
 20
0.0860933061830761
 30
0.0
 10
28.05738182579838
 20
0.1809588001028425
 30
0.0
 10
27.96145648003285
 20
0.277145559109879
 30
0.0
1001
PE_URL
1000

  0
SPLINE
  5
C3
330
1F
100
AcDbEntity
  8
0
  6
Continuous
 62
     1
370
    25
100
AcDbSpline
210
0.0
220
0.0
230
1.0
 70
     8
 71
     3
 72
    11
 73
     7
 74
     0
 42
0.000000001
 43
0.00000001
 40
0.0
 40
0.0
 40
0.0
 40
0.0
 40
0.261843816675209
 40
0.523456638868294
 40
0.784927025449316
 40
1.0
 40
1.0
 40
1.0
 40
1.0
 10
27.96145648003369
 20
0.2771455591119992
 30
0.0
 10
27.76199728576643
 20
0.3603002961328732
 30
0.0
 10
27.36325485698481
 20
0.5265364123781372
 30
0.0
 10
26.76543324060175
 20
0.7014709910505413
 30
0.0
 10
26.20326828187924
 20
0.7985959036469011
 30
0.0
 10
25.84035133932508
 20
0.7867823841408109
 30
0.0
 10
25.67656010285796
 20
0.7814507207764249
 30
0.0
1001
PE_URL
1000

  0
SPLINE
  5
C4
330
1F
100
AcDbEntity
  8
0
  6
Continuous
 62
     1
370
    25
100
AcDbSpline
210
0.0
220
0.0
230
1.0
 70
    24
 71
     3
 72
    10
 73
     6
 74
     0
 42
0.000000001
 43
0.00000001
 40
0.0
 40
0.0
 40
0.0
 40
0.0
 40
0.5
 40
0.5
 40
1.0
 40
1.0
 40
1.0
 40
1.0
 10
28.57500000000001
 20
-0.7828084185528388
 30
0.0
 10
28.57500000000001
 20
-0.7228000500272123
 30
0.0
 10
28.57500000000001
 20
-0.6469771754384487
 30
0.0
 10
28.57500000000001
 20
-0.4706962891573149
 30
0.0
 10
28.57500000000001
 20
-0.370390978652471
 30
0.0
 10
28.57500000000001
 20
-0.2651551105138195
 30
0.0
1001
PE_URL
1000

  0
SPLINE
  5
C5
330
1F
100
AcDbEntity
  8
0
  6
Continuous
 62
     1
370
    25
100
AcDbSpline
210
0.0
220
0.0
230
1.0
 70
     8
 71
     3
 72
    12
 73
     8
 74
     0
 42
0.000000001
 43
0.00000001
 40
0.0
 40
0.0
 40
0.0
 40
0.0
 40
0.1628742755092207
 40
0.4321810678189142
 40
0.7014252958994847
 40
0.9725911659238557
 40
1.0
 40
1.0
 40
1.0
 40
1.0
 10
24.18604104753226
 20
-0.8194697621238747
 30
0.0
 10
24.10105621961752
 20
-0.8285956291610687
 30
0.0
 10
23.87555201668695
 20
-0.8528107911231217
 30
0.0
 10
23.51008204135995
 20
-0.8357645963697594
 30
0.0
 10
23.08831537557482
 20
-0.7734504346386555
 30
0.0
 10
22.7917244256565
 20
-0.6966521724478077
 30
0.0
 10
22.63615601170933
 20
-0.6477442649920772
 30
0.0
 10
22.62187500000001
 20
-0.643254572121062
 30
0.0
1001
PE_URL
1000

  0
SPLINE
  5
C6
330
1F
100
AcDbEntity
  8
0
  6
Continuous
 62
     1
370
    25
100
AcDbSpline
210
0.0
220
0.0
230
1.0
 70
     8
 71
     3
 72
    14
 73
    10
 74
     0
 42
0.000000001
 43
0.00000001
 40
0.0
 40
0.0
 40
0.0
 40
0.0
 40
0.0805678402312793
 40
0.2354500753405345
 40
0.3903547889877701
 40
0.5425705991511786
 40
0.6949623986509719
 40
0.8475601511870415
 40
1.0
 40
1.0
 40
1.0
 40
1.0
 10
26.47863093551743
 20
-0.7340510221691618
 30
0.0
 10
26.37506522369882
 20
-0.752514770631366
 30
0.0
 10
26.07240656262028
 20
-0.8064729126644067
 30
0.0
 10
25.57065199243373
 20
-0.7943445738163962
 30
0.0
 10
24.97677484837034
 20
-0.7020072030243196
 30
0.0
 10
24.38610042882912
 20
-0.5233074181511054
 30
0.0
 10
23.79829998321681
 20
-0.286769848604643
 30
0.0
 10
23.21003630644032
 20
-0.0148832250256347
 30
0.0
 10
22.81786109854901
 20
0.1625472585128378
 30
0.0
 10
22.62187500000001
 20
0.251216576543787
 30
0.0
1001
PE_URL
1000

  0
SPLINE
  5
C7
330
1F
100
AcDbEntity
  8
외형선
  6
Continuous
370
    15
100
AcDbSpline
210
0.0
220
0.0
230
1.0
 70
    24
 71
     3
 72
    10
 73
     6
 74
     0
 42
0.000000001
 43
0.00000001
 40
0.0
 40
0.0
 40
0.0
 40
0.0
 40
0.5
 40
0.5
 40
1.0
 40
1.0
 40
1.0
 40
1.0
 10
22.62187500000001
 20
0.2512165765437876
 30
0.0
 10
22.62187500000001
 20
0.1014199365126289
 30
0.0
 10
22.62187500000001
 20
-0.0625749891256228
 30
0.0
 10
22.62187500000001
 20
-0.3752369788998507
 30
0.0
 10
22.62187500000001
 20
-0.5225582236036871
 30
0.0
 10
22.62187500000001
 20
-0.643254572121062
 30
0.0
  0
SPLINE
  5
C8
330
1F
100
AcDbEntity
  8
외형선
  6
Continuous
370
    15
100
AcDbSpline
210
0.0
220
0.0
230
1.0
 70
    24
 71
     3
 72
    10
 73
     6
 74
     0
 42
0.000000001
 43
0.00000001
 40
0.0
 40
0.0
 40
0.0
 40
0.0
 40
0.2512030378364942
 40
0.6275472561335965
 40
1.0
 40
1.0
 40
1.0
 40
1.0
 10
22.62187500000001
 20
0.6513768607741509
 30
0.0
 10
22.62187500000001
 20
0.650910671543298
 30
0.0
 10
22.62187500000001
 20
0.6497460527744311
 30
0.0
 10
22.62187500000001
 20
0.5130394275632405
 30
0.0
 10
22.62187500000001
 20
0.3381879610130009
 30
0.0
 10
22.62187500000001
 20
0.2512165765437873
 30
0.0
  0
SPLINE
  5
C9
330
1F
100
AcDbEntity
  8
0
  6
Continuous
 62
     1
370
    25
100
AcDbSpline
210
0.0
220
0.0
230
1.0
 70
    24
 71
     3
 72
     8
 73
     4
 74
     0
 42
0.000000001
 43
0.00000001
 40
0.0
 40
0.0
 40
0.0
 40
0.0
 40
1.0
 40
1.0
 40
1.0
 40
1.0
 10
27.97091123438481
 20
0.4844582578096108
 30
0.0
 10
27.9381522198247
 20
0.456970180774494
 30
0.0
 10
27.90359892796101
 20
0.4279765263157085
 30
0.0
 10
27.86754979533608
 20
0.3977277124258646
 30
0.0
1001
PE_URL
1000

  0
LINE
  5
CA
330
1F
100
AcDbEntity
  8
0
  6
Continuous
 62
     1
370
    25
100
AcDbLine
 10
28.57500000000001
 20
0.6945312500000003
 30
0.0
 11
28.20163625653402
 21
0.6656329732783999
 31
0.0
1001
PE_URL
1000

  0
SPLINE
  5
CB
330
1F
100
AcDbEntity
  8
0
  6
Continuous
 62
     1
370
    25
100
AcDbSpline
210
0.0
220
0.0
230
1.0
 70
     8
 71
     3
 72
     8
 73
     4
 74
     0
 42
0.000000001
 43
0.00000001
 40
0.0
 40
0.0
 40
0.0
 40
0.0
 40
1.0
 40
1.0
 40
1.0
 40
1.0
 10
28.57500000000001
 20
0.6945312500000012
 30
0.0
 10
28.37084217823097
 20
0.6389920726160935
 30
0.0
 10
28.16863053354739
 20
0.5708998726219304
 30
0.0
 10
27.97091123438537
 20
0.4844582578092953
 30
0.0
1001
PE_URL
1000

  0
SPLINE
  5
CC
330
1F
100
AcDbEntity
  8
0
  6
Continuous
 62
     1
370
    25
100
AcDbSpline
210
0.0
220
0.0
230
1.0
 70
     8
 71
     3
 72
    11
 73
     7
 74
     0
 42
0.000000001
 43
0.00000001
 40
0.0
 40
0.0
 40
0.0
 40
0.0
 40
0.1066621830129073
 40
0.4044609146903839
 40
0.7022396793026954
 40
1.0
 40
1.0
 40
1.0
 40
1.0
 10
24.82091195292364
 20
-0.7850007433273066
 30
0.0
 10
24.74272521546548
 20
-0.8152548338010084
 30
0.0
 10
24.44624263414465
 20
-0.9299777539632385
 30
0.0
 10
23.93148878421947
 20
-1.003192310288145
 30
0.0
 10
23.2766624772613
 20
-0.9881882140924785
 30
0.0
 10
22.84013298596402
 20
-0.8587738815461106
 30
0.0
 10
22.62187500000004
 20
-0.7940687192614214
 30
0.0
1001
PE_URL
1000

  0
SPLINE
  5
CD
330
1F
100
AcDbEntity
  8
외형선
  6
Continuous
370
    15
100
AcDbSpline
210
0.0
220
0.0
230
1.0
 70
    24
 71
     3
 72
     8
 73
     4
 74
     0
 42
0.000000001
 43
0.00000001
 40
0.0
 40
0.0
 40
0.0
 40
0.0
 40
1.0
 40
1.0
 40
1.0
 40
1.0
 10
22.62187500000001
 20
-0.643254572121062
 30
0.0
 10
22.62187500000001
 20
-0.6919380012753029
 30
0.0
 10
22.62187500000001
 20
-0.7425254331178072
 30
0.0
 10
22.62187500000001
 20
-0.7940687192613377
 30
0.0
  0
SPLINE
  5
CE
330
1F
100
AcDbEntity
  8
0
  6
Continuous
 62
     1
370
    25
100
AcDbSpline
210
0.0
220
0.0
230
1.0
 70
     8
 71
     3
 72
     9
 73
     5
 74
     0
 42
0.000000001
 43
0.00000001
 40
0.0
 40
0.0
 40
0.0
 40
0.0
 40
0.8913207079388624
 40
0.9999999999999999
 40
0.9999999999999999
 40
0.9999999999999999
 40
0.9999999999999999
 10
22.62187500000001
 20
-0.9274804142533146
 30
0.0
 10
22.80743800384776
 20
-0.9640661377461432
 30
0.0
 10
23.01562682095362
 20
-1.005112781414314
 30
0.0
 10
23.2238233222474
 20
-0.9884711042407316
 30
0.0
 10
23.24644997061761
 20
-0.9866624985467967
 30
0.0
1001
PE_URL
1000

  0
SPLINE
  5
CF
330
1F
100
AcDbEntity
  8
0
  6
Continuous
 62
     1
370
    25
100
AcDbSpline
210
0.0
220
0.0
230
1.0
 70
     8
 71
     3
 72
    10
 73
     6
 74
     0
 42
0.000000001
 43
0.00000001
 40
0.0
 40
0.0
 40
0.0
 40
0.0
 40
0.0365662081071308
 40
0.5182632732827658
 40
1.0
 40
1.0
 40
1.0
 40
1.0
 10
27.21522024065798
 20
0.6650859051069672
 30
0.0
 10
27.2317938537364
 20
0.6731217751853948
 30
0.0
 10
27.46669638831094
 20
0.7870164486040699
 30
0.0
 10
27.91995450463824
 20
0.9288152658319017
 30
0.0
 10
28.3566455091473
 20
0.970503795372491
 30
0.0
 10
28.57500000000001
 20
0.9913489182356626
 30
0.0
1001
PE_URL
1000

  0
LINE
  5
D0
330
1F
100
AcDbEntity
  8
0
  6
Continuous
 62
     1
370
    25
100
AcDbLine
 10
28.57500000000001
 20
0.0000000000000013
 30
0.0
 11
28.57500000000001
 21
0.6945312500000012
 31
0.0
1001
PE_URL
1000

  0
SPLINE
  5
D1
330
1F
100
AcDbEntity
  8
0
  6
Continuous
 62
     1
370
    25
100
AcDbSpline
210
0.0
220
0.0
230
1.0
 70
    24
 71
     3
 72
    10
 73
     6
 74
     0
 42
0.000000001
 43
0.00000001
 40
0.0
 40
0.0
 40
0.0
 40
0.0
 40
0.5
 40
0.5
 40
1.0
 40
1.0
 40
1.0
 40
1.0
 10
28.57500000000001
 20
0.6945312500000004
 30
0.0
 10
28.57500000000001
 20
0.7366320048010068
 30
0.0
 10
28.57500000000001
 20
0.7855569808290933
 30
0.0
 10
28.57500000000001
 20
0.8882014487658489
 30
0.0
 10
28.57500000000001
 20
0.9416587995842736
 30
0.0
 10
28.57500000000001
 20
0.9913489182356626
 30
0.0
1001
PE_URL
1000

  0
LINE
  5
D2
330
1F
100
AcDbEntity
  8
중심선
 62
     1
100
AcDbLine
 10
-30.075
 20
-0.0000000000000021
 30
0.0
 11
30.075
 21
0.0000000000000046
 31
0.0
  0
LINE
  5
D3
330
1F
100
AcDbEntity
  8
참조1
100
AcDbLine
 10
-0.0000000000000018
 20
-0.0000000000000039
 30
0.0
 11
0.0000000000000089
 21
-40.00000000000001
 31
0.0
  0
LINE
  5
D4
330
1F
100
AcDbEntity
  8
참조1
100
AcDbLine
 10
0.0000000000000089
 20
-40.00000000000001
 30
0.0
 11
-17.24384059669922
 21
-39.99999999999999
 31
0.0
  0
CIRCLE
  5
D5
330
1F
100
AcDbEntity
  8
해칭선
100
AcDbCircle
 10
0.0
 20
0.0
 30
0.0
 40
3.000000000000001
  0
INSERT
  5
D6
330
1F
100
AcDbEntity
  8
0
  6
Continuous
 62
     7
100
AcDbBlockReference
 66
     1
  2
블럭10
 10
-13.94027293212521
 20
-52.04717430164393
 30
0.0
  0
ATTRIB
  5
D7
330
D6
100
AcDbEntity
  8
FORMAT
 62
     2
100
AcDbText
 10
-23.12156822086649
 20
-49.97180738881174
 30
0.0
 40
4.233333333333333
  1
E2003005 [ 2 FLUTE ]
 41
0.75
  7
SLDTEXTSTYLE0
 11
-23.12156822086649
 21
-52.08847405547841
 31
0.0
100
AcDbAttribute
  2
AUTOATTR0
 70
     0
 74
     1
  0
SEQEND
  5
D8
330
D6
100
AcDbEntity
  8
0
  6
Continuous
 62
     7
  0
HATCH
  5
D9
330
1F
100
AcDbEntity
  8
중심선
100
AcDbHatch
 10
0.0
 20
0.0
 30
0.0
210
0.0
220
0.0
230
1.0
  2
SOLID
 70
     1
 71
     0
 91
        1
 92
        0
 93
        4
 72
     1
 10
-8.225363627744361
 20
-35.8
 11
-11.67163887158164
 21
-35.8
 72
     1
 10
-11.67163887158164
 20
-35.8
 11
-13.79986873078567
 21
-38.3363255805726
 72
     1
 10
-13.79986873078567
 20
-38.3363255805726
 11
-10.35356040183524
 21
-38.3362861512701
 72
     1
 10
-10.35356040183524
 20
-38.3362861512701
 11
-8.225363627744361
 21
-35.8
 97
        0
 75
     0
 76
     1
 98
        1
 10
12.21608667873051
 20
-0.0010749287238931
  0
HATCH
  5
DA
330
1F
100
AcDbEntity
  8
중심선
100
AcDbHatch
 10
0.0
 20
0.0
 30
0.0
210
0.0
220
0.0
230
1.0
  2
SOLID
 70
     1
 71
     0
 91
        1
 92
        0
 93
        4
 72
     1
 10
-3.212599636708411
 20
-35.80000000000003
 11
-6.65887488054566
 21
-35.79999999999998
 72
     1
 10
-6.658874880545671
 20
-35.79999999999998
 11
-11.19001288890308
 21
-41.20000000000002
 72
     1
 10
-11.19001288890308
 20
-41.20000000000002
 11
-7.743737645065803
 21
-41.20000000000002
 72
     1
 10
-7.743737645065803
 20
-41.20000000000002
 11
-3.212599636708411
 21
-35.80000000000003
 97
        0
 75
     0
 76
     1
 98
        1
 10
12.21608667873051
 20
-0.0010749287238931
  0
HATCH
  5
DB
330
1F
100
AcDbEntity
  8
중심선
100
AcDbHatch
 10
0.0
 20
0.0
 30
0.0
210
0.0
220
0.0
230
1.0
  2
SOLID
 70
     1
 71
     0
 91
        1
 92
        0
 93
        4
 72
     1
 10
1.800164354327489
 20
-35.8
 11
-1.6461108895096
 21
-35.8
 72
     1
 10
-1.6461108895096
 20
-35.8
 11
-8.694547791398882
 21
-44.20000000000002
 72
     1
 10
-8.694547791398882
 20
-44.20000000000002
 11
-5.248272547561601
 21
-44.20000000000002
 72
     1
 10
-5.248272547561601
 20
-44.20000000000002
 11
1.800164354327478
 21
-35.8
 97
        0
 75
     0
 76
     1
 98
        1
 10
12.21608667873051
 20
-0.0010749287238931
  0
HATCH
  5
DC
330
1F
100
AcDbEntity
  8
중심선
100
AcDbHatch
 10
0.0
 20
0.0
 30
0.0
210
0.0
220
0.0
230
1.0
  2
SOLID
 70
     1
 71
     0
 91
        1
 92
        0
 93
        6
 72
     3
 10
6.600054785339683
 20
-40.00000000005127
 11
3.960054785062283
 21
1.540882976769353E-10
 40
0.3939339440162628
 50
17.09539180608439
 51
320.0019657685078
 73
     0
 72
     1
 10
8.283054441040278
 20
-38.58789400463831
 11
10.58835631474132
 21
-36.65356729459035
 72
     3
 10
6.600054785286837
 20
-40.00000000000014
 11
6.600054785286829
 21
-1.278976924368180E-13
 40
0.636358354079598
 50
39.9987384933743
 51
368.4976242363725
 73
     1
 72
     1
 10
13.02538727718745
 20
-39.03999999993002
 11
5.28012209212276
 21
-39.03999999993002
 72
     1
 10
5.28012209212276
 20
-39.03999999993002
 11
5.280097047676826
 21
-40.95999999992991
 72
     1
 10
5.280097047676826
 20
-40.95999999992991
 11
9.721476817148861
 21
-40.95999999992988
 97
        0
 75
     0
 76
     1
 98
        1
 10
12.21608667873051
 20
-0.0010749287238931
  0
DIMENSION
  5
DD
330
1F
100
AcDbEntity
  8
치수문자_일반주서
100
AcDbDimension
  2
_D
 10
-36.575
 20
-2.381250000000076
 30
0.0
 11
-36.57500000000006
 21
17.63124999999997
 31
0.0
 70
   160
  1
%%c<>
 71
     2
 42
4.762499999999998
 52
-270.0
  3
SLDDIMSTYLE0
100
AcDbAlignedDimension
 13
-16.43782317511139
 23
2.381249999999997
 33
0.0
 14
-16.43782317511137
 24
-2.381250000000001
 34
0.0
 50
90.0000000000002
100
AcDbRotatedDimension
1001
PE_URL
1000

1001
ACAD
1000
DSTYLE
1002
{
1070
   171
1070
     8
1070
   273
1070
     7
1070
    41
1040
2.5
1070
   140
1040
2.5
1002
}
  0
DIMENSION
  5
F2
330
1F
100
AcDbEntity
  8
치수문자_일반주서
100
AcDbDimension
  2
_D_1
 10
58.93121123573
 20
0.9913489182357758
 30
0.0
 11
58.93121123572995
 21
16.24134891823578
 31
0.0
 70
   160
  1
%%c<>
 71
     2
 42
1.982697836471324
 52
-270.0
  3
SLDDIMSTYLE0
100
AcDbAlignedDimension
 13
28.57500000000001
 23
-0.9913489182356615
 33
0.0
 14
28.57500000000001
 24
0.9913489182356624
 34
0.0
 50
90.0000000000002
100
AcDbRotatedDimension
1001
PE_URL
1000

1001
ACAD
1000
DSTYLE
1002
{
1070
   171
1070
     8
1070
   273
1070
     7
1070
    41
1040
2.5
1070
   140
1040
2.5
1002
}
  0
DIMENSION
  5
106
330
1F
100
AcDbEntity
  8
치수문자_일반주서
100
AcDbDimension
  2
_D_2
 10
22.62187500000001
 20
10.38125000000001
 30
0.0
 11
43.82500000000001
 21
10.38125000000001
 31
0.0
 70
   160
  1
<>
 71
     2
 42
5.953125
  3
SLDDIMSTYLE0
100
AcDbAlignedDimension
 13
28.57500000000001
 23
0.9913489182356624
 33
0.0
 14
22.62187500000001
 24
0.6651281206713391
 34
0.0
100
AcDbRotatedDimension
1001
PE_URL
1000

1001
ACAD
1000
DSTYLE
1002
{
1070
   171
1070
     8
1070
   273
1070
     7
1070
    41
1040
2.5
1070
   140
1040
2.5
1002
}
  0
DIMENSION
  5
11B
330
1F
100
AcDbEntity
  8
치수문자_일반주서
100
AcDbDimension
  2
_D_3
 10
28.57500000000001
 20
18.38125
 30
0.0
 11
0.0000000000000178
 21
18.38125
 31
0.0
 70
   160
  1
<>
 71
     2
 42
57.15000000000002
  3
SLDDIMSTYLE0
100
AcDbAlignedDimension
 13
-28.57500000000001
 23
0.9913489182356627
 33
0.0
 14
28.57500000000001
 24
0.9913489182356624
 34
0.0
100
AcDbRotatedDimension
1001
PE_URL
1000

1001
ACAD
1000
DSTYLE
1002
{
1070
   171
1070
     8
1070
   273
1070
     7
1070
    41
1040
2.5
1070
   140
1040
2.5
1002
}
  0
LINE
  5
12F
330
1F
100
AcDbEntity
  8
참조1
100
AcDbLine
 10
80.72850003295505
 20
7.440000000000003
 30
0.0
 11
80.72850003295505
 21
-7.440000000000002
 31
0.0
  0
LINE
  5
130
330
1F
100
AcDbEntity
  8
참조1
100
AcDbLine
 10
93.42850003295506
 20
5.440000000000003
 30
0.0
 11
80.72850003295505
 21
5.440000000000003
 31
0.0
  0
SOLID
  5
131
330
1F
100
AcDbEntity
  8
참조1
100
AcDbTrace
 10
80.72850003295505
 20
5.440000000000003
 30
0.0
 11
87.07850003295505
 21
4.424000000000003
 31
0.0
 12
87.07850003295505
 22
6.456000000000003
 32
0.0
 13
87.07850003295505
 23
6.456000000000003
 33
0.0
  0
LINE
  5
132
330
1F
100
AcDbEntity
  8
참조1
100
AcDbLine
 10
93.42850003295506
 20
-5.440000000000002
 30
0.0
 11
80.72850003295505
 21
-5.440000000000002
 31
0.0
  0
SOLID
  5
133
330
1F
100
AcDbEntity
  8
참조1
100
AcDbTrace
 10
80.72850003295505
 20
-5.440000000000002
 30
0.0
 11
87.07850003295505
 21
-6.456000000000002
 31
0.0
 12
87.07850003295505
 22
-4.424000000000002
 32
0.0
 13
87.07850003295505
 23
-4.424000000000002
 33
0.0
  0
MTEXT
  5
134
330
1F
100
AcDbEntity
  8
참조1
100
AcDbMText
 10
90.11285016558105
 20
11.01029177718833
 30
0.0
 40
3.5
 41
0.0
 71
     1
 72
     1
  1
A
  7
SLDTEXTSTYLE0
 73
     1
 44
1.0
  0
MTEXT
  5
135
330
1F
100
AcDbEntity
  8
참조1
100
AcDbMText
 10
90.11285016558105
 20
0.1302917771883261
 30
0.0
 40
3.5
 41
0.0
 71
     1
 72
     1
  1
A
  7
SLDTEXTSTYLE0
 73
     1
 44
1.0
  0
INSERT
  5
13C
330
1F
100
AcDbEntity
  8
해칭선
100
AcDbBlockReference
  2
SW_DOWELSYMBOL_0
 10
0.0
 20
0.0
 30
0.0
  0
LINE
  5
21F
330
1F
100
AcDbEntity
  8
외형선
  6
Continuous
370
    15
100
AcDbLine
 10
-16.43782317511139
 20
2.381249999999997
 30
0.0
 11
-21.62187500000001
 21
0.9921874999999971
 31
0.0
  0
LINE
  5
220
330
1F
100
AcDbEntity
  8
외형선
  6
Continuous
370
    15
100
AcDbLine
 10
-21.62187500000001
 20
-0.9921875000000029
 30
0.0
 11
-16.43782317511138
 21
-2.381250000000004
 31
0.0
  0
LINE
  5
221
330
1F
100
AcDbEntity
  8
외형선
  6
Continuous
370
    15
100
AcDbLine
 10
-21.82188781796706
 20
-0.9921875000000029
 30
0.0
 11
-21.62187500000001
 21
-0.9921875000000029
 31
0.0
  0
LINE
  5
222
330
1F
100
AcDbEntity
  8
외형선
  6
Continuous
370
    15
100
AcDbLine
 10
-21.62187500000001
 20
0.9921874999999971
 30
0.0
 11
-21.82188781796706
 21
0.9921874999999971
 31
0.0
  0
SPLINE
  5
223
330
1F
100
AcDbEntity
  8
외형선
  6
Continuous
370
    15
100
AcDbSpline
210
0.0
220
0.0
230
1.0
 70
     8
 71
     3
 72
    12
 73
     8
 74
     0
 42
0.000000001
 43
0.00000001
 40
0.0
 40
0.0
 40
0.0
 40
0.0
 40
0.0554803227272144
 40
0.2093970001230986
 40
0.4447189092530543
 40
0.7243241255732433
 40
1.0
 40
1.0
 40
1.0
 40
1.0
 10
-21.82326238731272
 20
0.973760226122274
 30
0.0
 10
-21.82368939104562
 20
0.9685229238307052
 30
0.0
 10
-21.82530101290201
 20
0.9487559986456329
 30
0.0
 10
-21.8342742240154
 20
0.9046672494871941
 30
0.0
 10
-21.85782232784315
 20
0.8426812196316689
 30
0.0
 10
-21.90015797699121
 20
0.7747585390732226
 30
0.0
 10
-21.94370057963154
 20
0.7403366115519041
 30
0.0
 10
-21.96531782044472
 20
0.7232474379297151
 30
0.0
  0
SPLINE
  5
224
330
1F
100
AcDbEntity
  8
외형선
  6
Continuous
370
    15
100
AcDbSpline
210
0.0
220
0.0
230
1.0
 70
     8
 71
     3
 72
     9
 73
     5
 74
     0
 42
0.000000001
 43
0.00000001
 40
0.0
 40
0.0
 40
0.0
 40
0.0
 40
0.503289656122942
 40
1.0
 40
1.0
 40
1.0
 40
1.0
 10
-22.62187500000047
 20
-0.6651120032559252
 30
0.0
 10
-22.48732965768867
 20
-0.6590504075022807
 30
0.0
 10
-22.21999783261549
 20
-0.647006456906632
 30
0.0
 10
-21.95400608584431
 20
-0.658646949074803
 30
0.0
 10
-21.82188523383713
 20
-0.6644289019425547
 30
0.0
  0
SPLINE
  5
225
330
1F
100
AcDbEntity
  8
0
  6
Continuous
 62
     1
370
    25
100
AcDbSpline
210
0.0
220
0.0
230
1.0
 70
     8
 71
     3
 72
     9
 73
     5
 74
     0
 42
0.000000001
 43
0.00000001
 40
0.0
 40
0.0
 40
0.0
 40
0.0
 40
0.4995144150128933
 40
1.0
 40
1.0
 40
1.0
 40
1.0
 10
-26.00362404638195
 20
-0.2542505361548663
 30
0.0
 10
-25.95823701046109
 20
-0.2760458375853016
 30
0.0
 10
-25.86737469586765
 20
-0.3196788154841911
 30
0.0
 10
-25.7764805215292
 20
-0.3675026938072332
 30
0.0
 10
-25.73098929751351
 20
-0.3914378555260935
 30
0.0
1001
PE_URL
1000

  0
LINE
  5
226
330
1F
100
AcDbEntity
  8
0
  6
Continuous
 62
     1
370
    25
100
AcDbLine
 10
-23.72756317523861
 20
-0.9921875000000011
 30
0.0
 11
-23.24644997061761
 21
-0.9921875000000011
 31
0.0
1001
PE_URL
1000

  0
SPLINE
  5
227
330
1F
100
AcDbEntity
  8
0
  6
Continuous
 62
     1
370
    25
100
AcDbSpline
210
0.0
220
0.0
230
1.0
 70
     8
 71
     3
 72
     9
 73
     5
 74
     0
 42
0.000000001
 43
0.00000001
 40
0.0
 40
0.0
 40
0.0
 40
0.0
 40
0.9335251994436621
 40
1.0
 40
1.0
 40
1.0
 40
1.0
 10
-25.67760784633456
 20
-0.7884506355385004
 30
0.0
 10
-25.4139931589188
 20
-0.7788976291473173
 30
0.0
 10
-25.13160690135139
 20
-0.7686643688166097
 30
0.0
 10
-24.84933441636514
 20
-0.7806729346408503
 30
0.0
 10
-24.83057040922314
 20
-0.7814712016589838
 30
0.0
1001
PE_URL
1000

  0
SPLINE
  5
228
330
1F
100
AcDbEntity
  8
0
  6
Continuous
 62
     1
370
    25
100
AcDbSpline
210
0.0
220
0.0
230
1.0
 70
     8
 71
     3
 72
     9
 73
     5
 74
     0
 42
0.000000001
 43
0.00000001
 40
0.0
 40
0.0
 40
0.0
 40
0.0
 40
0.5005081191578589
 40
0.9999999999999999
 40
0.9999999999999999
 40
0.9999999999999999
 40
0.9999999999999999
 10
-24.18455232633584
 20
0.8256008769639667
 30
0.0
 10
-24.43365004182098
 20
0.8048512062352067
 30
0.0
 10
-24.93133970148973
 20
0.7633939951840201
 30
0.0
 10
-25.42902038544629
 20
0.7801040825640235
 30
0.0
 10
-25.67760784633455
 20
0.7884506355384999
 30
0.0
1001
PE_URL
1000

  0
SPLINE
  5
229
330
1F
100
AcDbEntity
  8
0
  6
Continuous
 62
     1
370
    25
100
AcDbSpline
210
0.0
220
0.0
230
1.0
 70
     8
 71
     3
 72
    11
 73
     7
 74
     0
 42
0.000000001
 43
0.00000001
 40
0.0
 40
0.0
 40
0.0
 40
0.0
 40
0.376117456313208
 40
0.6088938850867859
 40
0.8054111814243525
 40
1.0
 40
1.0
 40
1.0
 40
1.0
 10
-26.47403857991629
 20
0.7462080054203415
 30
0.0
 10
-26.56704277494911
 20
0.7323109613456384
 30
0.0
 10
-26.71760660731679
 20
0.7098131351590709
 30
0.0
 10
-26.91645329270538
 20
0.6882487504530672
 30
0.0
 10
-27.07069940633779
 20
0.6741139312154683
 30
0.0
 10
-27.16720524718277
 20
0.6680853384878549
 30
0.0
 10
-27.21522024065798
 20
0.6650859051069673
 30
0.0
1001
PE_URL
1000

  0
SPLINE
  5
22A
330
1F
100
AcDbEntity
  8
0
  6
Continuous
 62
     1
370
    25
100
AcDbSpline
210
0.0
220
0.0
230
1.0
 70
     8
 71
     3
 72
     9
 73
     5
 74
     0
 42
0.000000001
 43
0.00000001
 40
0.0
 40
0.0
 40
0.0
 40
0.0
 40
0.5014466086918385
 40
1.0
 40
1.0
 40
1.0
 40
1.0
 10
-22.89015332520441
 20
-0.6849165291098924
 30
0.0
 10
-22.84531716889641
 20
-0.6811147861074922
 30
0.0
 10
-22.7559035493189
 20
-0.6735332351776375
 30
0.0
 10
-22.66646492798163
 20
-0.6679136610132581
 30
0.0
 10
-22.62187500000001
 20
-0.6651120032558986
 30
0.0
1001
PE_URL
1000

  0
SPLINE
  5
22B
330
1F
100
AcDbEntity
  8
0
  6
Continuous
 62
     1
370
    25
100
AcDbSpline
210
0.0
220
0.0
230
1.0
 70
     8
 71
     3
 72
    17
 73
    13
 74
     0
 42
0.000000001
 43
0.00000001
 40
0.0
 40
0.0
 40
0.0
 40
0.0
 40
0.1385457159102639
 40
0.23299043675223
 40
0.2997753673564811
 40
0.3790498360866769
 40
0.4704012584043602
 40
0.5531028495801954
 40
0.6551508183575897
 40
0.7392927205108986
 40
0.8389595277512084
 40
1.0
 40
1.0
 40
1.0
 40
1.0
 10
-28.20497935219076
 20
-0.6785120027538103
 30
0.0
 10
-28.12482774462412
 20
-0.6724080490107529
 30
0.0
 10
-27.99003788172113
 20
-0.6621431134321505
 30
0.0
 10
-27.8177555231455
 20
-0.6554826514641328
 30
0.0
 10
-27.678944922937
 20
-0.6528190809328163
 30
0.0
 10
-27.54187216416063
 20
-0.6527943421939082
 30
0.0
 10
-27.39558743690599
 20
-0.6559089272525374
 30
0.0
 10
-27.23646430656857
 20
-0.6628859705220063
 30
0.0
 10
-27.08151082300622
 20
-0.6733714187671016
 30
0.0
 10
-26.91645471904119
 20
-0.6881761311429824
 30
0.0
 10
-26.71760594497642
 20
-0.7098468570219982
 30
0.0
 10
-26.56704252204056
 20
-0.7323238377266243
 30
0.0
 10
-26.47403857991629
 20
-0.7462080054203419
 30
0.0
1001
PE_URL
1000

  0
LINE
  5
22C
330
1F
100
AcDbEntity
  8
0
  6
Continuous
 62
     1
370
    25
100
AcDbLine
 10
-23.24644997061761
 20
0.9921874999999989
 30
0.0
 11
-23.7275631752386
 21
0.9921874999999989
 31
0.0
1001
PE_URL
1000

  0
LINE
  5
22D
330
1F
100
AcDbEntity
  8
외형선
  6
Continuous
370
    15
100
AcDbLine
 10
-16.43782317511138
 20
-2.381250000000004
 30
0.0
 11
-16.43782317511139
 21
2.381249999999999
 31
0.0
  0
LINE
  5
22E
330
1F
100
AcDbEntity
  8
외형선
  6
Continuous
370
    15
100
AcDbLine
 10
-21.62187500000001
 20
-0.9921875000000029
 30
0.0
 11
-21.62187500000001
 21
0.9921874999999971
 31
0.0
  0
SPLINE
  5
22F
330
1F
100
AcDbEntity
  8
외형선
  6
Continuous
370
    15
100
AcDbSpline
210
0.0
220
0.0
230
1.0
 70
     8
 71
     3
 72
    10
 73
     6
 74
     0
 42
0.000000001
 43
0.00000001
 40
0.0
 40
0.0
 40
0.0
 40
0.0
 40
0.5
 40
0.5
 40
1.0
 40
1.0
 40
1.0
 40
1.0
 10
-22.62187500000001
 20
-0.9274804142533164
 30
0.0
 10
-22.48861883207183
 20
-0.9001109175489177
 30
0.0
 10
-22.35773260010086
 20
-0.8645600924176116
 30
0.0
 10
-22.08827468649575
 20
-0.7777487000326204
 30
0.0
 10
-21.95297168691432
 20
-0.7267154597139858
 30
0.0
 10
-21.82188317928846
 20
-0.6702094372732124
 30
0.0
  0
SPLINE
  5
230
330
1F
100
AcDbEntity
  8
외형선
  6
Continuous
370
    15
100
AcDbSpline
210
0.0
220
0.0
230
1.0
 70
     8
 71
     3
 72
    10
 73
     6
 74
     0
 42
0.000000001
 43
0.00000001
 40
0.0
 40
0.0
 40
0.0
 40
0.0
 40
0.4999999999999999
 40
0.4999999999999999
 40
1.0
 40
1.0
 40
1.0
 40
1.0
 10
-22.62187500000001
 20
0.7940687192614078
 30
0.0
 10
-22.48862027262534
 20
0.7478723500964903
 30
0.0
 10
-22.35773549556216
 20
0.6948048018865325
 30
0.0
 10
-22.0882805298836
 20
0.5760193303345893
 30
0.0
 10
-21.9529785798949
 20
0.5106929769413149
 30
0.0
 10
-21.82189168200351
 20
0.4420895414331792
 30
0.0
  0
LINE
  5
231
330
1F
100
AcDbEntity
  8
외형선
  6
Continuous
370
    15
100
AcDbLine
 10
-22.62187500000001
 20
0.7940687192614078
 30
0.0
 11
-22.62187500000001
 21
0.9274804142533124
 31
0.0
  0
SPLINE
  5
232
330
1F
100
AcDbEntity
  8
외형선
  6
Continuous
370
    15
100
AcDbSpline
210
0.0
220
0.0
230
1.0
 70
     8
 71
     3
 72
    10
 73
     6
 74
     0
 42
0.000000001
 43
0.00000001
 40
0.0
 40
0.0
 40
0.0
 40
0.0
 40
0.5
 40
0.5
 40
1.0
 40
1.0
 40
1.0
 40
1.0
 10
-22.62187500000001
 20
0.9274804142533124
 30
0.0
 10
-22.48861883207183
 20
0.9001109175489137
 30
0.0
 10
-22.35773260010086
 20
0.8645600924176093
 30
0.0
 10
-22.08827468649575
 20
0.7777487000326164
 30
0.0
 10
-21.95297168691432
 20
0.7267154597139818
 30
0.0
 10
-21.82188317928846
 20
0.6702094372732084
 30
0.0
  0
LWPOLYLINE
  5
233
330
1F
100
AcDbEntity
  8
외형선
  6
Continuous
370
    15
100
AcDbPolyline
 90
        8
 70
   128
 43
0.0
 10
-21.82188781796706
 20
0.9921874999999971
 10
-21.8218876966077
 20
0.9919311752114914
 10
-21.82188695885301
 20
0.9799541239775535
 10
-21.82188619682617
 20
0.950285703970924
 10
-21.82188542428426
 20
0.9034615269579038
 10
-21.82188465517418
 20
0.8403269220847747
 10
-21.82188390338088
 20
0.762021674929042
 10
-21.82188318247668
 20
0.6699594506515278
  0
LWPOLYLINE
  5
234
330
1F
100
AcDbEntity
  8
외형선
  6
Continuous
370
    15
100
AcDbPolyline
 90
       11
 70
   128
 43
0.0
 10
-21.82188939031917
 20
0.4420514729967618
 10
-21.82189019286517
 20
0.2525153748587464
 10
-21.82189080472648
 20
0.0524625223923774
 10
-21.82189120042031
 20
-0.1497752879592486
 10
-21.82189136346683
 20
-0.3457752606789814
 10
-21.82189128707548
 20
-0.5273743935630517
 10
-21.82189097442781
 20
-0.6870094502427737
 10
-21.82189043854495
 20
-0.8180319536730096
 10
-21.82188970174533
 20
-0.9149850817460667
 10
-21.82188879471519
 20
-0.9738309328890982
 10
-21.82188781796706
 20
-0.9921875000000029
  0
SPLINE
  5
235
330
1F
100
AcDbEntity
  8
외형선
  6
Continuous
370
    15
100
AcDbSpline
210
0.0
220
0.0
230
1.0
 70
    24
 71
     3
 72
     8
 73
     4
 74
     0
 42
0.000000001
 43
0.00000001
 40
0.0
 40
0.0
 40
0.0
 40
0.0
 40
1.0
 40
1.0
 40
1.0
 40
1.0
 10
-22.62187500000001
 20
0.6432545721210612
 30
0.0
 10
-22.62187500000001
 20
0.6919380012753009
 30
0.0
 10
-22.62187500000001
 20
0.7425254331178059
 30
0.0
 10
-22.62187500000001
 20
0.7940687192613367
 30
0.0
  0
SPLINE
  5
236
330
1F
100
AcDbEntity
  8
외형선
  6
Continuous
370
    15
100
AcDbSpline
210
0.0
220
0.0
230
1.0
 70
     8
 71
     3
 72
    10
 73
     6
 74
     0
 42
0.000000001
 43
0.00000001
 40
0.0
 40
0.0
 40
0.0
 40
0.0
 40
0.5
 40
0.5
 40
1.0
 40
1.0
 40
1.0
 40
1.0
 10
-22.62187500000001
 20
0.6432545721210612
 30
0.0
 10
-22.48862027262534
 20
0.6008999315327663
 30
0.0
 10
-22.35773549556216
 20
0.5530079781973043
 30
0.0
 10
-22.0882805298836
 20
0.4471495229635412
 30
0.0
 10
-21.9529785798949
 20
0.3895429032917306
 30
0.0
 10
-21.82189168200351
 20
0.3295867391441803
 30
0.0
  0
SPLINE
  5
237
330
1F
100
AcDbEntity
  8
외형선
  6
Continuous
370
    15
100
AcDbSpline
210
0.0
220
0.0
230
1.0
 70
    24
 71
     3
 72
    10
 73
     6
 74
     0
 42
0.000000001
 43
0.00000001
 40
0.0
 40
0.0
 40
0.0
 40
0.0
 40
0.5
 40
0.5
 40
1.0
 40
1.0
 40
1.0
 40
1.0
 10
-22.62187500000001
 20
-0.2512165765437892
 30
0.0
 10
-22.62187500000001
 20
-0.1014199365126302
 30
0.0
 10
-22.62187500000001
 20
0.0625749891256209
 30
0.0
 10
-22.62187500000001
 20
0.37523697889985
 30
0.0
 10
-22.62187500000001
 20
0.5225582236036856
 30
0.0
 10
-22.62187500000001
 20
0.6432545721210612
 30
0.0
  0
SPLINE
  5
238
330
1F
100
AcDbEntity
  8
외형선
  6
Continuous
370
    15
100
AcDbSpline
210
0.0
220
0.0
230
1.0
 70
     8
 71
     3
 72
    10
 73
     6
 74
     0
 42
0.000000001
 43
0.00000001
 40
0.0
 40
0.0
 40
0.0
 40
0.0
 40
0.5000000000000001
 40
0.5000000000000001
 40
1.0
 40
1.0
 40
1.0
 40
1.0
 10
-22.62187500000001
 20
-0.2512165765437892
 30
0.0
 10
-22.48861935940142
 20
-0.3096875828730809
 30
0.0
 10
-22.35773366001474
 20
-0.3655572151218671
 30
0.0
 10
-22.08827682552858
 20
-0.4707277872016153
 30
0.0
 10
-21.95297421016303
 20
-0.5195201109510059
 30
0.0
 10
-21.82188629179714
 20
-0.5627540831889732
 30
0.0
  0
SPLINE
  5
239
330
1F
100
AcDbEntity
  8
외형선
  6
Continuous
370
    15
100
AcDbSpline
210
0.0
220
0.0
230
1.0
 70
    24
 71
     3
 72
    13
 73
     9
 74
     0
 42
0.000000001
 43
0.00000001
 40
0.0
 40
0.0
 40
0.0
 40
0.0
 40
0.0594970829471569
 40
0.2505357998349636
 40
0.4361905173380511
 40
0.6272292342258851
 40
0.8110062135091887
 40
0.9999999999999999
 40
0.9999999999999999
 40
0.9999999999999999
 40
0.9999999999999999
 10
-22.62187500000001
 20
-0.661828722479924
 30
0.0
 10
-22.62187500000001
 20
-0.6626405150322825
 30
0.0
 10
-22.62187500000001
 20
-0.6660588859225947
 30
0.0
 10
-22.62187500000001
 20
-0.6405051666750137
 30
0.0
 10
-22.62187500000001
 20
-0.5851454554190447
 30
0.0
 10
-22.62187500000001
 20
-0.4994674278276847
 30
0.0
 10
-22.62187500000001
 20
-0.3891895988579385
 30
0.0
 10
-22.62187500000001
 20
-0.297634677891762
 30
0.0
 10
-22.62187500000001
 20
-0.2512165765437892
 30
0.0
  0
SPLINE
  5
23A
330
1F
100
AcDbEntity
  8
외형선
  6
Continuous
370
    15
100
AcDbSpline
210
0.0
220
0.0
230
1.0
 70
    24
 71
     3
 72
    10
 73
     6
 74
     0
 42
0.000000001
 43
0.00000001
 40
0.0
 40
0.0
 40
0.0
 40
0.0
 40
0.5
 40
0.5
 40
1.0
 40
1.0
 40
1.0
 40
1.0
 10
-22.6218750000004
 20
-0.9274804142533235
 30
0.0
 10
-22.6218750000004
 20
-0.8763206175267595
 30
0.0
 10
-22.6218750000004
 20
-0.8246567661794633
 30
0.0
 10
-22.6218750000004
 20
-0.7319265352183468
 30
0.0
 10
-22.6218750000004
 20
-0.6910722770424311
 30
0.0
 10
-22.6218750000004
 20
-0.6588286885440564
 30
0.0
  0
SPLINE
  5
23B
330
1F
100
AcDbEntity
  8
0
  6
Continuous
 62
     1
370
    25
100
AcDbSpline
210
0.0
220
0.0
230
1.0
 70
     8
 71
     3
 72
    16
 73
    12
 74
     0
 42
0.000000001
 43
0.00000001
 40
0.0
 40
0.0
 40
0.0
 40
0.0
 40
0.11482906442291
 40
0.2293865401502909
 40
0.3438198189767903
 40
0.4582791046104009
 40
0.5729140103612006
 40
0.6878207989394677
 40
0.8228882348606334
 40
0.9579459304215227
 40
1.0
 40
1.0
 40
1.0
 40
1.0
 10
-28.57500000000001
 20
0.9415272686910263
 30
0.0
 10
-28.38940046511767
 20
0.8982446816503422
 30
0.0
 10
-28.01864036727897
 20
0.8117818776563073
 30
0.0
 10
-27.46328995440431
 20
0.5716629780494589
 30
0.0
 10
-26.90863130333082
 20
0.279468156682287
 30
0.0
 10
-26.3538246027696
 20
-0.0437074935087864
 30
0.0
 10
-25.79809857206532
 20
-0.3614790760727768
 30
0.0
 10
-25.20867570224705
 20
-0.6602775168628796
 30
0.0
 10
-24.58637331564439
 20
-0.8856077984335446
 30
0.0
 10
-24.08179298471934
 20
-0.9994461755327475
 30
0.0
 10
-23.7955336464293
 20
-0.9811552908374648
 30
0.0
 10
-23.72756317523861
 20
-0.9768122358347544
 30
0.0
1001
PE_URL
1000

  0
SPLINE
  5
23C
330
1F
100
AcDbEntity
  8
0
  6
Continuous
 62
     1
370
    25
100
AcDbSpline
210
0.0
220
0.0
230
1.0
 70
     8
 71
     3
 72
    14
 73
    10
 74
     0
 42
0.000000001
 43
0.00000001
 40
0.0
 40
0.0
 40
0.0
 40
0.0
 40
0.1634722874225583
 40
0.3260150821499305
 40
0.4899981884169305
 40
0.6528576016920768
 40
0.8157044023321524
 40
0.9796944416271619
 40
1.0
 40
1.0
 40
1.0
 40
1.0
 10
-28.57500000000001
 20
0.7828084185528403
 30
0.0
 10
-28.43400434768736
 20
0.7526090058660546
 30
0.0
 10
-28.15281473508545
 20
0.692381892370588
 30
0.0
 10
-27.73104569847834
 20
0.5464875124097179
 30
0.0
 10
-27.30852398057845
 20
0.3734108183519663
 30
0.0
 10
-26.88669070546643
 20
0.17489068525622
 30
0.0
 10
-26.46491383165809
 20
-0.0323045335170644
 30
0.0
 10
-26.16508820942645
 20
-0.1810471853341273
 30
0.0
 10
-26.00633596847159
 20
-0.2523643028233994
 30
0.0
 10
-25.98884475904326
 20
-0.260221972298342
 30
0.0
1001
PE_URL
1000

  0
LINE
  5
23D
330
1F
100
AcDbEntity
  8
0
  6
Continuous
 62
     1
370
    25
100
AcDbLine
 10
-28.57499999999997
 20
0.9415272686910281
 30
0.0
 11
-28.57500000000001
 21
0.7828084185528403
 31
0.0
1001
PE_URL
1000

  0
SPLINE
  5
23E
330
1F
100
AcDbEntity
  8
0
  6
Continuous
 62
     1
370
    25
100
AcDbSpline
210
0.0
220
0.0
230
1.0
 70
     8
 71
     3
 72
    38
 73
    34
 74
     0
 42
0.000000001
 43
0.00000001
 40
0.0
 40
0.0
 40
0.0
 40
0.0
 40
0.0624999999999999
 40
0.0624999999999999
 40
0.1249999999999998
 40
0.1249999999999998
 40
0.1874999999999997
 40
0.1874999999999997
 40
0.2499999999999996
 40
0.2499999999999996
 40
0.3124999999999994
 40
0.3124999999999994
 40
0.3749999999999993
 40
0.3749999999999993
 40
0.4374999999999992
 40
0.4374999999999992
 40
0.4999999999999991
 40
0.4999999999999991
 40
0.5624999999999992
 40
0.5624999999999992
 40
0.6249999999999993
 40
0.6249999999999993
 40
0.6874999999999994
 40
0.6874999999999994
 40
0.7499999999999996
 40
0.7499999999999996
 40
0.8124999999999997
 40
0.8124999999999997
 40
0.8749999999999998
 40
0.8749999999999998
 40
0.9374999999999999
 40
0.9374999999999999
 40
1.0
 40
1.0
 40
1.0
 40
1.0
 10
-28.57500000000001
 20
0.9913489182356627
 30
0.0
 10
-28.45338482747067
 20
0.9884250481356307
 30
0.0
 10
-28.32783739003517
 20
0.9777369367116087
 30
0.0
 10
-28.0775126280496
 20
0.9411404111581401
 30
0.0
 10
-27.95488510339268
 20
0.9154374828180429
 30
0.0
 10
-27.70904446571211
 20
0.8502902426496728
 30
0.0
 10
-27.58296726395895
 20
0.8105048959856098
 30
0.0
 10
-27.33325310316617
 20
0.7190800746778236
 30
0.0
 10
-27.21221981588794
 20
0.6678844845848395
 30
0.0
 10
-26.96434344042838
 20
0.5551493596936836
 30
0.0
 10
-26.83804909263288
 20
0.4936000314996292
 30
0.0
 10
-26.58955117896043
 20
0.3644080671740671
 30
0.0
 10
-26.46877369847585
 20
0.2970870083237934
 30
0.0
 10
-26.21945240594716
 20
0.1574654559402909
 30
0.0
 10
-26.09325534747947
 20
0.0855745008994518
 30
0.0
 10
-25.84656950054565
 20
-0.0573402961014928
 30
0.0
 10
-25.72470734549207
 20
-0.1286267221109629
 30
0.0
 10
-25.47454360135159
 20
-0.2693064712305706
 30
0.0
 10
-25.34875745297284
 20
-0.338186743473668
 30
0.0
 10
-25.1044649610401
 20
-0.4683557378072056
 30
0.0
 10
-24.98018633796223
 20
-0.5306815209111282
 30
0.0
 10
-24.72978943524685
 20
-0.6463271711073564
 30
0.0
 10
-24.60620358278105
 20
-0.6992551651002483
 30
0.0
 10
-24.36129178142874
 20
-0.7932245727463016
 30
0.0
 10
-24.23537994073652
 20
-0.8347995712058662
 30
0.0
 10
-23.98536106706441
 20
-0.9039826928511332
 30
0.0
 10
-23.86387715704796
 20
-0.9314628555039246
 30
0.0
 10
-23.61670831592626
 20
-0.971909186730618
 30
0.0
 10
-23.49045973714858
 20
-0.9847727737221554
 30
0.0
 10
-23.24142700946438
 20
-0.9947713750617535
 30
0.0
 10
-23.12071022114079
 20
-0.9920425063123244
 30
0.0
 10
-22.87186948902989
 20
-0.9711579010406493
 30
0.0
 10
-22.74559822421237
 20
-0.9528919387627302
 30
0.0
 10
-22.62187500000001
 20
-0.9274804142533164
 30
0.0
1001
PE_URL
1000

  0
SPLINE
  5
23F
330
1F
100
AcDbEntity
  8
0
  6
Continuous
 62
     1
370
    25
100
AcDbSpline
210
0.0
220
0.0
230
1.0
 70
     8
 71
     3
 72
    13
 73
     9
 74
     0
 42
0.000000001
 43
0.00000001
 40
0.0
 40
0.0
 40
0.0
 40
0.0
 40
0.0623346150226022
 40
0.2690610906935381
 40
0.4721354485183156
 40
0.6751938824493834
 40
0.8782375112776306
 40
1.0
 40
1.0
 40
1.0
 40
1.0
 10
-26.10904531608575
 20
0.0921658797029401
 30
0.0
 10
-26.0420326498065
 20
0.0659689419201246
 30
0.0
 10
-25.75277922178995
 20
-0.0471075028468697
 30
0.0
 10
-25.24520963258862
 20
-0.2558013023351481
 30
0.0
 10
-24.58636871076343
 20
-0.4854260541507386
 30
0.0
 10
-23.93149023143939
 20
-0.6411214364738573
 30
0.0
 10
-23.36402800168991
 20
-0.7098418817984478
 30
0.0
 10
-23.01485959064759
 20
-0.6827810014020887
 30
0.0
 10
-22.88396422749261
 20
-0.6726364875951234
 30
0.0
1001
PE_URL
1000

  0
SPLINE
  5
240
330
1F
100
AcDbEntity
  8
외형선
  6
Continuous
370
    15
100
AcDbSpline
210
0.0
220
0.0
230
1.0
 70
    24
 71
     3
 72
    10
 73
     6
 74
     0
 42
0.000000001
 43
0.00000001
 40
0.0
 40
0.0
 40
0.0
 40
0.0
 40
0.5
 40
0.5
 40
1.0
 40
1.0
 40
1.0
 40
1.0
 10
-22.6218750000004
 20
-0.9274804142533235
 30
0.0
 10
-22.6218750000004
 20
-0.8763206175267595
 30
0.0
 10
-22.6218750000004
 20
-0.824656766179465
 30
0.0
 10
-22.6218750000004
 20
-0.7319265352183468
 30
0.0
 10
-22.6218750000004
 20
-0.6910722770424311
 30
0.0
 10
-22.6218750000004
 20
-0.6588286885440564
 30
0.0
  0
LINE
  5
241
330
1F
100
AcDbEntity
  8
0
  6
Continuous
 62
     1
370
    25
100
AcDbLine
 10
-28.57500000000001
 20
0.9913489182356627
 30
0.0
 11
-28.57499999999997
 21
0.9415272686910245
 31
0.0
1001
PE_URL
1000

  0
SPLINE
  5
242
330
1F
100
AcDbEntity
  8
0
  6
Continuous
 62
     1
370
    25
100
AcDbSpline
210
0.0
220
0.0
230
1.0
 70
     8
 71
     3
 72
     8
 73
     4
 74
     0
 42
0.000000001
 43
0.00000001
 40
0.0
 40
0.0
 40
0.0
 40
0.0
 40
1.0
 40
1.0
 40
1.0
 40
1.0
 10
-27.96145648003369
 20
-0.2771455591120013
 30
0.0
 10
-27.92607854129342
 20
-0.3190069411504172
 30
0.0
 10
-27.89444619038867
 20
-0.3593360420193161
 30
0.0
 10
-27.86754979533609
 20
-0.3977277124258631
 30
0.0
1001
PE_URL
1000

  0
LINE
  5
243
330
1F
100
AcDbEntity
  8
0
  6
Continuous
 62
     1
370
    25
100
AcDbLine
 10
-27.88011798808646
 20
-0.4082736783272811
 30
0.0
 11
-28.57500000000001
 21
0.0000000000000007
 31
0.0
1001
PE_URL
1000

  0
LINE
  5
244
330
1F
100
AcDbEntity
  8
0
  6
Continuous
 62
     1
370
    25
100
AcDbLine
 10
-28.57500000000001
 20
0.0000000000000007
 30
0.0
 11
-28.57500000000001
 21
0.2651551105137891
 31
0.0
1001
PE_URL
1000

  0
SPLINE
  5
245
330
1F
100
AcDbEntity
  8
0
  6
Continuous
 62
     1
370
    25
100
AcDbSpline
210
0.0
220
0.0
230
1.0
 70
     8
 71
     3
 72
    10
 73
     6
 74
     0
 42
0.000000001
 43
0.00000001
 40
0.0
 40
0.0
 40
0.0
 40
0.0
 40
0.5
 40
0.5
 40
1.0
 40
1.0
 40
1.0
 40
1.0
 10
-28.57500000000001
 20
0.2651551105137891
 30
0.0
 10
-28.46879960073016
 20
0.1816611239832085
 30
0.0
 10
-28.36437334291143
 20
0.0947429862225285
 30
0.0
 10
-28.15914771734931
 20
-0.0860933061830746
 30
0.0
 10
-28.05738182579838
 20
-0.1809588001028405
 30
0.0
 10
-27.96145648003286
 20
-0.2771455591098785
 30
0.0
1001
PE_URL
1000

  0
SPLINE
  5
246
330
1F
100
AcDbEntity
  8
0
  6
Continuous
 62
     1
370
    25
100
AcDbSpline
210
0.0
220
0.0
230
1.0
 70
     8
 71
     3
 72
    11
 73
     7
 74
     0
 42
0.000000001
 43
0.00000001
 40
0.0
 40
0.0
 40
0.0
 40
0.0
 40
0.261843816675209
 40
0.523456638868294
 40
0.784927025449316
 40
1.0
 40
1.0
 40
1.0
 40
1.0
 10
-27.9614564800337
 20
-0.2771455591119977
 30
0.0
 10
-27.76199728576644
 20
-0.3603002961328727
 30
0.0
 10
-27.36325485698482
 20
-0.5265364123781364
 30
0.0
 10
-26.76543324060176
 20
-0.701470991050541
 30
0.0
 10
-26.20326828187924
 20
-0.7985959036469013
 30
0.0
 10
-25.84035133932509
 20
-0.7867823841408115
 30
0.0
 10
-25.67656010285797
 20
-0.7814507207764241
 30
0.0
1001
PE_URL
1000

  0
SPLINE
  5
247
330
1F
100
AcDbEntity
  8
0
  6
Continuous
 62
     1
370
    25
100
AcDbSpline
210
0.0
220
0.0
230
1.0
 70
    24
 71
     3
 72
    10
 73
     6
 74
     0
 42
0.000000001
 43
0.00000001
 40
0.0
 40
0.0
 40
0.0
 40
0.0
 40
0.5
 40
0.5
 40
1.0
 40
1.0
 40
1.0
 40
1.0
 10
-28.57500000000001
 20
0.7828084185528403
 30
0.0
 10
-28.57500000000001
 20
0.7228000500272145
 30
0.0
 10
-28.57500000000001
 20
0.6469771754384499
 30
0.0
 10
-28.57500000000001
 20
0.4706962891573159
 30
0.0
 10
-28.57500000000001
 20
0.3703909786524722
 30
0.0
 10
-28.57500000000001
 20
0.2651551105138211
 30
0.0
1001
PE_URL
1000

  0
SPLINE
  5
248
330
1F
100
AcDbEntity
  8
0
  6
Continuous
 62
     1
370
    25
100
AcDbSpline
210
0.0
220
0.0
230
1.0
 70
     8
 71
     3
 72
    12
 73
     8
 74
     0
 42
0.000000001
 43
0.00000001
 40
0.0
 40
0.0
 40
0.0
 40
0.0
 40
0.1628742755092207
 40
0.4321810678189142
 40
0.7014252958994847
 40
0.9725911659238557
 40
1.0
 40
1.0
 40
1.0
 40
1.0
 10
-24.18604104753227
 20
0.8194697621238738
 30
0.0
 10
-24.10105621961753
 20
0.8285956291610688
 30
0.0
 10
-23.87555201668695
 20
0.8528107911231213
 30
0.0
 10
-23.51008204135996
 20
0.8357645963697589
 30
0.0
 10
-23.08831537557483
 20
0.773450434638655
 30
0.0
 10
-22.79172442565651
 20
0.6966521724478063
 30
0.0
 10
-22.63615601170934
 20
0.6477442649920764
 30
0.0
 10
-22.62187500000001
 20
0.6432545721210612
 30
0.0
1001
PE_URL
1000

  0
SPLINE
  5
249
330
1F
100
AcDbEntity
  8
0
  6
Continuous
 62
     1
370
    25
100
AcDbSpline
210
0.0
220
0.0
230
1.0
 70
     8
 71
     3
 72
    14
 73
    10
 74
     0
 42
0.000000001
 43
0.00000001
 40
0.0
 40
0.0
 40
0.0
 40
0.0
 40
0.0805678402312793
 40
0.2354500753405345
 40
0.3903547889877701
 40
0.5425705991511786
 40
0.6949623986509719
 40
0.8475601511870415
 40
1.0
 40
1.0
 40
1.0
 40
1.0
 10
-26.47863093551744
 20
0.7340510221691623
 30
0.0
 10
-26.37506522369882
 20
0.7525147706313671
 30
0.0
 10
-26.07240656262028
 20
0.8064729126644063
 30
0.0
 10
-25.57065199243373
 20
0.7943445738163966
 30
0.0
 10
-24.97677484837035
 20
0.7020072030243198
 30
0.0
 10
-24.38610042882913
 20
0.5233074181511046
 30
0.0
 10
-23.79829998321683
 20
0.2867698486046429
 30
0.0
 10
-23.21003630644033
 20
0.0148832250256337
 30
0.0
 10
-22.81786109854901
 20
-0.1625472585128389
 30
0.0
 10
-22.62187500000001
 20
-0.2512165765437874
 30
0.0
1001
PE_URL
1000

  0
SPLINE
  5
24A
330
1F
100
AcDbEntity
  8
외형선
  6
Continuous
370
    15
100
AcDbSpline
210
0.0
220
0.0
230
1.0
 70
    24
 71
     3
 72
    10
 73
     6
 74
     0
 42
0.000000001
 43
0.00000001
 40
0.0
 40
0.0
 40
0.0
 40
0.0
 40
0.5
 40
0.5
 40
1.0
 40
1.0
 40
1.0
 40
1.0
 10
-22.62187500000001
 20
-0.2512165765437892
 30
0.0
 10
-22.62187500000001
 20
-0.1014199365126302
 30
0.0
 10
-22.62187500000001
 20
0.0625749891256209
 30
0.0
 10
-22.62187500000001
 20
0.37523697889985
 30
0.0
 10
-22.62187500000001
 20
0.5225582236036856
 30
0.0
 10
-22.62187500000001
 20
0.6432545721210612
 30
0.0
  0
SPLINE
  5
24B
330
1F
100
AcDbEntity
  8
외형선
  6
Continuous
370
    15
100
AcDbSpline
210
0.0
220
0.0
230
1.0
 70
    24
 71
     3
 72
    10
 73
     6
 74
     0
 42
0.000000001
 43
0.00000001
 40
0.0
 40
0.0
 40
0.0
 40
0.0
 40
0.2512030378364942
 40
0.6275472561335965
 40
1.0
 40
1.0
 40
1.0
 40
1.0
 10
-22.62187500000001
 20
-0.6513768607741526
 30
0.0
 10
-22.62187500000001
 20
-0.6509106715433
 30
0.0
 10
-22.62187500000001
 20
-0.6497460527744316
 30
0.0
 10
-22.62187500000001
 20
-0.513039427563242
 30
0.0
 10
-22.62187500000001
 20
-0.3381879610130014
 30
0.0
 10
-22.62187500000001
 20
-0.2512165765437892
 30
0.0
  0
SPLINE
  5
24C
330
1F
100
AcDbEntity
  8
0
  6
Continuous
 62
     1
370
    25
100
AcDbSpline
210
0.0
220
0.0
230
1.0
 70
    24
 71
     3
 72
     8
 73
     4
 74
     0
 42
0.000000001
 43
0.00000001
 40
0.0
 40
0.0
 40
0.0
 40
0.0
 40
1.0
 40
1.0
 40
1.0
 40
1.0
 10
-27.97091123438481
 20
-0.4844582578096094
 30
0.0
 10
-27.93815221982471
 20
-0.4569701807744934
 30
0.0
 10
-27.90359892796102
 20
-0.4279765263157078
 30
0.0
 10
-27.86754979533609
 20
-0.3977277124258631
 30
0.0
1001
PE_URL
1000

  0
LINE
  5
24D
330
1F
100
AcDbEntity
  8
0
  6
Continuous
 62
     1
370
    25
100
AcDbLine
 10
-28.57500000000001
 20
-0.6945312499999983
 30
0.0
 11
-28.20163625653403
 21
-0.6656329732783981
 31
0.0
1001
PE_URL
1000

  0
SPLINE
  5
24E
330
1F
100
AcDbEntity
  8
0
  6
Continuous
 62
     1
370
    25
100
AcDbSpline
210
0.0
220
0.0
230
1.0
 70
     8
 71
     3
 72
     8
 73
     4
 74
     0
 42
0.000000001
 43
0.00000001
 40
0.0
 40
0.0
 40
0.0
 40
0.0
 40
1.0
 40
1.0
 40
1.0
 40
1.0
 10
-28.57500000000001
 20
-0.69453125
 30
0.0
 10
-28.37084217823098
 20
-0.638992072616092
 30
0.0
 10
-28.1686305335474
 20
-0.5708998726219285
 30
0.0
 10
-27.97091123438538
 20
-0.4844582578092932
 30
0.0
1001
PE_URL
1000

  0
SPLINE
  5
24F
330
1F
100
AcDbEntity
  8
0
  6
Continuous
 62
     1
370
    25
100
AcDbSpline
210
0.0
220
0.0
230
1.0
 70
     8
 71
     3
 72
    11
 73
     7
 74
     0
 42
0.000000001
 43
0.00000001
 40
0.0
 40
0.0
 40
0.0
 40
0.0
 40
0.1066621830129073
 40
0.4044609146903839
 40
0.7022396793026954
 40
1.0
 40
1.0
 40
1.0
 40
1.0
 10
-24.82091195292365
 20
0.7850007433273063
 30
0.0
 10
-24.74272521546548
 20
0.8152548338010088
 30
0.0
 10
-24.44624263414465
 20
0.9299777539632383
 30
0.0
 10
-23.93148878421948
 20
1.003192310288145
 30
0.0
 10
-23.27666247726131
 20
0.9881882140924769
 30
0.0
 10
-22.84013298596403
 20
0.858773881546109
 30
0.0
 10
-22.62187500000004
 20
0.7940687192614202
 30
0.0
1001
PE_URL
1000

  0
SPLINE
  5
250
330
1F
100
AcDbEntity
  8
외형선
  6
Continuous
370
    15
100
AcDbSpline
210
0.0
220
0.0
230
1.0
 70
    24
 71
     3
 72
     8
 73
     4
 74
     0
 42
0.000000001
 43
0.00000001
 40
0.0
 40
0.0
 40
0.0
 40
0.0
 40
1.0
 40
1.0
 40
1.0
 40
1.0
 10
-22.62187500000001
 20
0.6432545721210612
 30
0.0
 10
-22.62187500000001
 20
0.6919380012753009
 30
0.0
 10
-22.62187500000001
 20
0.7425254331178059
 30
0.0
 10
-22.62187500000001
 20
0.7940687192613367
 30
0.0
  0
SPLINE
  5
251
330
1F
100
AcDbEntity
  8
0
  6
Continuous
 62
     1
370
    25
100
AcDbSpline
210
0.0
220
0.0
230
1.0
 70
     8
 71
     3
 72
     9
 73
     5
 74
     0
 42
0.000000001
 43
0.00000001
 40
0.0
 40
0.0
 40
0.0
 40
0.0
 40
0.8913207079388624
 40
0.9999999999999999
 40
0.9999999999999999
 40
0.9999999999999999
 40
0.9999999999999999
 10
-22.62187500000001
 20
0.9274804142533142
 30
0.0
 10
-22.80743800384776
 20
0.9640661377461412
 30
0.0
 10
-23.01562682095362
 20
1.005112781414312
 30
0.0
 10
-23.22382332224741
 20
0.988471104240731
 30
0.0
 10
-23.24644997061761
 20
0.9866624985467964
 30
0.0
1001
PE_URL
1000

  0
SPLINE
  5
252
330
1F
100
AcDbEntity
  8
0
  6
Continuous
 62
     1
370
    25
100
AcDbSpline
210
0.0
220
0.0
230
1.0
 70
     8
 71
     3
 72
    10
 73
     6
 74
     0
 42
0.000000001
 43
0.00000001
 40
0.0
 40
0.0
 40
0.0
 40
0.0
 40
0.0365662081071308
 40
0.5182632732827658
 40
1.0
 40
1.0
 40
1.0
 40
1.0
 10
-27.21522024065798
 20
-0.665085905106966
 30
0.0
 10
-27.2317938537364
 20
-0.6731217751853944
 30
0.0
 10
-27.46669638831095
 20
-0.7870164486040683
 30
0.0
 10
-27.91995450463825
 20
-0.9288152658319
 30
0.0
 10
-28.35664550914731
 20
-0.9705037953724898
 30
0.0
 10
-28.57500000000001
 20
-0.9913489182356614
 30
0.0
1001
PE_URL
1000

  0
LINE
  5
253
330
1F
100
AcDbEntity
  8
0
  6
Continuous
 62
     1
370
    25
100
AcDbLine
 10
-28.57500000000001
 20
0.0000000000000007
 30
0.0
 11
-28.57500000000001
 21
-0.69453125
 31
0.0
1001
PE_URL
1000

  0
SPLINE
  5
254
330
1F
100
AcDbEntity
  8
0
  6
Continuous
 62
     1
370
    25
100
AcDbSpline
210
0.0
220
0.0
230
1.0
 70
    24
 71
     3
 72
    10
 73
     6
 74
     0
 42
0.000000001
 43
0.00000001
 40
0.0
 40
0.0
 40
0.0
 40
0.0
 40
0.5
 40
0.5
 40
1.0
 40
1.0
 40
1.0
 40
1.0
 10
-28.57500000000001
 20
-0.6945312499999983
 30
0.0
 10
-28.57500000000001
 20
-0.7366320048010053
 30
0.0
 10
-28.57500000000001
 20
-0.7855569808290916
 30
0.0
 10
-28.57500000000001
 20
-0.8882014487658474
 30
0.0
 10
-28.57500000000001
 20
-0.9416587995842722
 30
0.0
 10
-28.57500000000001
 20
-0.9913489182356614
 30
0.0
1001
PE_URL
1000

  0
ENDSEC
  0
SECTION
  2
OBJECTS
  0
DICTIONARY
  5
C
330
0
100
AcDbDictionary
281
     1
  3
ACAD_DETAILVIEWSTYLE
350
1BF
  3
ACAD_GROUP
350
D
  3
ACAD_IMAGE_VARS
350
29A
  3
ACAD_LAYOUT
350
1A
  3
ACAD_MLINESTYLE
350
17
  3
ACAD_PLOTSETTINGS
350
19
  3
ACAD_PLOTSTYLENAME
350
E
  3
ACAD_SCALELIST
350
47
  3
ACAD_SECTIONVIEWSTYLE
350
1C0
  3
AcDbVariableDictionary
350
1BA
  3
APPDATA
350
15E
  3
DWGPROPS
350
29B
  0
DICTIONARY
  5
1BF
102
{ACAD_REACTORS
330
C
102
}
330
C
100
AcDbDictionary
281
     1
  0
DICTIONARY
  5
D
102
{ACAD_REACTORS
330
C
102
}
330
C
100
AcDbDictionary
281
     1
  0
RASTERVARIABLES
  5
29A
102
{ACAD_REACTORS
330
C
102
}
330
C
100
AcDbRasterVariables
 90
        0
 70
     1
 71
     1
 72
     1
  0
DICTIONARY
  5
1A
102
{ACAD_REACTORS
330
C
102
}
330
C
100
AcDbDictionary
281
     1
  3
Layout1
350
1E
  3
Layout2
350
26
  3
Model
350
22
  0
DICTIONARY
  5
17
102
{ACAD_REACTORS
330
C
102
}
330
C
100
AcDbDictionary
281
     1
  3
Standard
350
18
  0
DICTIONARY
  5
19
102
{ACAD_REACTORS
330
C
102
}
330
C
100
AcDbDictionary
281
     1
  0
ACDBDICTIONARYWDFLT
  5
E
102
{ACAD_REACTORS
330
C
102
}
330
C
100
AcDbDictionary
281
     1
  3
Normal
350
F
100
AcDbDictionaryWithDefault
340
F
  0
DICTIONARY
  5
47
102
{ACAD_REACTORS
330
C
102
}
330
C
100
AcDbDictionary
281
     1
  3
A0
350
48
  3
A1
350
49
  3
A2
350
4A
  3
A3
350
4B
  3
A4
350
4C
  3
A5
350
4D
  3
A6
350
4E
  3
A7
350
4F
  3
A8
350
50
  3
A9
350
51
  3
B0
350
52
  3
B1
350
53
  3
B2
350
54
  3
B3
350
55
  3
B4
350
56
  3
B5
350
57
  3
B6
350
58
  3
B7
350
59
  3
B8
350
5A
  3
B9
350
5B
  3
C0
350
5C
  3
C1
350
5D
  3
C2
350
5E
  3
C3
350
5F
  3
C4
350
60
  3
C5
350
61
  3
C6
350
62
  3
C7
350
63
  3
C8
350
64
  3
C9
350
65
  3
D0
350
66
  3
D1
350
67
  3
D2
350
68
  0
DICTIONARY
  5
1C0
102
{ACAD_REACTORS
330
C
102
}
330
C
100
AcDbDictionary
281
     1
  0
DICTIONARY
  5
1BA
102
{ACAD_REACTORS
330
C
102
}
330
C
100
AcDbDictionary
281
     1
  0
DICTIONARY
  5
15E
102
{ACAD_REACTORS
330
C
102
}
330
C
100
AcDbDictionary
281
     1
  0
XRECORD
  5
29B
102
{ACAD_REACTORS
330
C
102
}
330
C
100
AcDbXrecord
280
     1
  1
DWGPROPS COOKIE
  2

  3

  4

  6

  7

  8
12016016
  9

300
=
301
=
302
=
303
=
304
=
305
=
306
=
307
=
308
=
309
=
 40
0.0
 41
2458313.015169838
 42
2458318.279281412
  1

 90
        0
  0
LAYOUT
  5
1E
102
{ACAD_REACTORS
330
1A
102
}
330
1A
100
AcDbPlotSettings
  1

  2
none_device
  4

  6

 40
0.0
 41
0.0
 42
0.0
 43
0.0
 44
0.0
 45
0.0
 46
0.0
 47
0.0
 48
0.0
 49
0.0
140
0.0
141
0.0
142
1.0
143
1.0
 70
   688
 72
     1
 73
     0
 74
     5
  7

 75
    16
147
1.0
148
0.0
149
0.0
100
AcDbLayout
  1
Layout1
 70
     1
 71
     1
 10
0.0
 20
0.0
 11
420.0
 21
297.0
 12
0.0
 22
0.0
 32
0.0
 14
1.000000000000000E+20
 24
1.000000000000000E+20
 34
1.000000000000000E+20
 15
-1.000000000000000E+20
 25
-1.000000000000000E+20
 35
-1.000000000000000E+20
146
0.0
 13
0.0
 23
0.0
 33
0.0
 16
1.0
 26
0.0
 36
0.0
 17
0.0
 27
1.0
 37
0.0
 76
     0
330
1B
  0
LAYOUT
  5
26
102
{ACAD_REACTORS
330
1A
102
}
330
1A
100
AcDbPlotSettings
  1

  2
none_device
  4

  6

 40
0.0
 41
0.0
 42
0.0
 43
0.0
 44
0.0
 45
0.0
 46
0.0
 47
0.0
 48
0.0
 49
0.0
140
0.0
141
0.0
142
1.0
143
1.0
 70
   688
 72
     1
 73
     0
 74
     5
  7

 75
    16
147
1.0
148
0.0
149
0.0
100
AcDbLayout
  1
Layout2
 70
     1
 71
     2
 10
0.0
 20
0.0
 11
0.0
 21
0.0
 12
0.0
 22
0.0
 32
0.0
 14
0.0
 24
0.0
 34
0.0
 15
0.0
 25
0.0
 35
0.0
146
0.0
 13
0.0
 23
0.0
 33
0.0
 16
1.0
 26
0.0
 36
0.0
 17
0.0
 27
1.0
 37
0.0
 76
     0
330
23
  0
LAYOUT
  5
22
102
{ACAD_REACTORS
330
1A
102
}
330
1A
100
AcDbPlotSettings
  1

  2
none_device
  4
ANSI_A_(11.00_x_8.50_Inches)
  6

 40
6.35
 41
19.05
 42
6.35000508
 43
19.05000254
 44
279.4
 45
215.9
 46
117.455336096159
 47
92.25426211309689
 48
0.0
 49
0.0
140
0.0
141
0.0
142
0.0746195387235984
143
1.0
 70
  1696
 72
     0
 73
     0
 74
     0
  7

 75
     0
147
0.0235690232323232
148
0.0
149
0.0
100
AcDbLayout
  1
Model
 70
     1
 71
     0
 10
0.0
 20
0.0
 11
420.0
 21
297.0
 12
0.0
 22
0.0
 32
0.0
 14
-39.95000000000009
 24
-49.97180738881174
 34
0.0
 15
93.42850003295507
 25
27.88124999999998
 35
0.0
146
0.0
 13
0.0
 23
0.0
 33
0.0
 16
1.0
 26
0.0
 36
0.0
 17
0.0
 27
1.0
 37
0.0
 76
     0
330
1F
331
29
  0
MLINESTYLE
  5
18
102
{ACAD_REACTORS
330
17
102
}
330
17
100
AcDbMlineStyle
  2
Standard
 70
     0
  3

 62
   256
 51
90.0
 52
90.0
 71
     2
 49
0.5
 62
   256
  6
BYLAYER
 49
-0.5
 62
   256
  6
BYLAYER
  0
ACDBPLACEHOLDER
  5
F
102
{ACAD_REACTORS
330
E
102
}
330
E
  0
SCALE
  5
48
102
{ACAD_REACTORS
330
47
102
}
330
47
100
AcDbScale
 70
     0
300
1:1
140
1.0
141
1.0
290
     1
  0
SCALE
  5
49
102
{ACAD_REACTORS
330
47
102
}
330
47
100
AcDbScale
 70
     0
300
1:2
140
1.0
141
2.0
290
     0
  0
SCALE
  5
4A
102
{ACAD_REACTORS
330
47
102
}
330
47
100
AcDbScale
 70
     0
300
1:4
140
1.0
141
4.0
290
     0
  0
SCALE
  5
4B
102
{ACAD_REACTORS
330
47
102
}
330
47
100
AcDbScale
 70
     0
300
1:5
140
1.0
141
5.0
290
     0
  0
SCALE
  5
4C
102
{ACAD_REACTORS
330
47
102
}
330
47
100
AcDbScale
 70
     0
300
1:8
140
1.0
141
8.0
290
     0
  0
SCALE
  5
4D
102
{ACAD_REACTORS
330
47
102
}
330
47
100
AcDbScale
 70
     0
300
1:10
140
1.0
141
10.0
290
     0
  0
SCALE
  5
4E
102
{ACAD_REACTORS
330
47
102
}
330
47
100
AcDbScale
 70
     0
300
1:16
140
1.0
141
16.0
290
     0
  0
SCALE
  5
4F
102
{ACAD_REACTORS
330
47
102
}
330
47
100
AcDbScale
 70
     0
300
1:20
140
1.0
141
20.0
290
     0
  0
SCALE
  5
50
102
{ACAD_REACTORS
330
47
102
}
330
47
100
AcDbScale
 70
     0
300
1:30
140
1.0
141
30.0
290
     0
  0
SCALE
  5
51
102
{ACAD_REACTORS
330
47
102
}
330
47
100
AcDbScale
 70
     0
300
1:40
140
1.0
141
40.0
290
     0
  0
SCALE
  5
52
102
{ACAD_REACTORS
330
47
102
}
330
47
100
AcDbScale
 70
     0
300
1:50
140
1.0
141
50.0
290
     0
  0
SCALE
  5
53
102
{ACAD_REACTORS
330
47
102
}
330
47
100
AcDbScale
 70
     0
300
1:100
140
1.0
141
100.0
290
     0
  0
SCALE
  5
54
102
{ACAD_REACTORS
330
47
102
}
330
47
100
AcDbScale
 70
     0
300
2:1
140
2.0
141
1.0
290
     0
  0
SCALE
  5
55
102
{ACAD_REACTORS
330
47
102
}
330
47
100
AcDbScale
 70
     0
300
4:1
140
4.0
141
1.0
290
     0
  0
SCALE
  5
56
102
{ACAD_REACTORS
330
47
102
}
330
47
100
AcDbScale
 70
     0
300
8:1
140
8.0
141
1.0
290
     0
  0
SCALE
  5
57
102
{ACAD_REACTORS
330
47
102
}
330
47
100
AcDbScale
 70
     0
300
10:1
140
10.0
141
1.0
290
     0
  0
SCALE
  5
58
102
{ACAD_REACTORS
330
47
102
}
330
47
100
AcDbScale
 70
     0
300
100:1
140
100.0
141
1.0
290
     0
  0
SCALE
  5
59
102
{ACAD_REACTORS
330
47
102
}
330
47
100
AcDbScale
 70
     0
300
1/128" = 1'-0"
140
0.0078125
141
12.0
290
     0
  0
SCALE
  5
5A
102
{ACAD_REACTORS
330
47
102
}
330
47
100
AcDbScale
 70
     0
300
1/64" = 1'-0"
140
0.015625
141
12.0
290
     0
  0
SCALE
  5
5B
102
{ACAD_REACTORS
330
47
102
}
330
47
100
AcDbScale
 70
     0
300
1/32" = 1'-0"
140
0.03125
141
12.0
290
     0
  0
SCALE
  5
5C
102
{ACAD_REACTORS
330
47
102
}
330
47
100
AcDbScale
 70
     0
300
1/16" = 1'-0"
140
0.0625
141
12.0
290
     0
  0
SCALE
  5
5D
102
{ACAD_REACTORS
330
47
102
}
330
47
100
AcDbScale
 70
     0
300
3/32" = 1'-0"
140
0.09375
141
12.0
290
     0
  0
SCALE
  5
5E
102
{ACAD_REACTORS
330
47
102
}
330
47
100
AcDbScale
 70
     0
300
1/8" = 1'-0"
140
0.125
141
12.0
290
     0
  0
SCALE
  5
5F
102
{ACAD_REACTORS
330
47
102
}
330
47
100
AcDbScale
 70
     0
300
3/16" = 1'-0"
140
0.1875
141
12.0
290
     0
  0
SCALE
  5
60
102
{ACAD_REACTORS
330
47
102
}
330
47
100
AcDbScale
 70
     0
300
1/4" = 1'-0"
140
0.25
141
12.0
290
     0
  0
SCALE
  5
61
102
{ACAD_REACTORS
330
47
102
}
330
47
100
AcDbScale
 70
     0
300
3/8" = 1'-0"
140
0.375
141
12.0
290
     0
  0
SCALE
  5
62
102
{ACAD_REACTORS
330
47
102
}
330
47
100
AcDbScale
 70
     0
300
1/2" = 1'-0"
140
0.5
141
12.0
290
     0
  0
SCALE
  5
63
102
{ACAD_REACTORS
330
47
102
}
330
47
100
AcDbScale
 70
     0
300
3/4" = 1'-0"
140
0.75
141
12.0
290
     0
  0
SCALE
  5
64
102
{ACAD_REACTORS
330
47
102
}
330
47
100
AcDbScale
 70
     0
300
1" = 1'-0"
140
1.0
141
12.0
290
     0
  0
SCALE
  5
65
102
{ACAD_REACTORS
330
47
102
}
330
47
100
AcDbScale
 70
     0
300
1-1/2" = 1'-0"
140
1.5
141
12.0
290
     0
  0
SCALE
  5
66
102
{ACAD_REACTORS
330
47
102
}
330
47
100
AcDbScale
 70
     0
300
3" = 1'-0"
140
3.0
141
12.0
290
     0
  0
SCALE
  5
67
102
{ACAD_REACTORS
330
47
102
}
330
47
100
AcDbScale
 70
     0
300
6" = 1'-0"
140
6.0
141
12.0
290
     0
  0
SCALE
  5
68
102
{ACAD_REACTORS
330
47
102
}
330
47
100
AcDbScale
 70
     0
300
1'-0" = 1'-0"
140
12.0
141
12.0
290
     0
  0
ENDSEC
  0
EOF
