  0
SECTION
  2
HEADER
  9
$ACADVER
  1
AC1015
  9
$ACADMAINTVER
 70
     6
  9
$DWGCODEPAGE
  3
ANSI_949
  9
$INSBASE
 10
0.0
 20
0.0
 30
0.0
  9
$EXTMIN
 10
-42.9500000000001
 20
-49.97180738881175
 30
0.0
  9
$EXTMAX
 10
89.85662503295505
 20
36.98524999999997
 30
0.0
  9
$LIMMIN
 10
0.0
 20
0.0
  9
$LIMMAX
 10
420.0
 20
297.0
  9
$ORTHOMODE
 70
     1
  9
$REGENMODE
 70
     1
  9
$FILLMODE
 70
     1
  9
$QTEXTMODE
 70
     0
  9
$MIRRTEXT
 70
     1
  9
$LTSCALE
 40
1.0
  9
$ATTMODE
 70
     1
  9
$TEXTSIZE
 40
3.5
  9
$TRACEWID
 40
1.0
  9
$TEXTSTYLE
  7
Standard
  9
$CLAYER
  8
0
  9
$CELTYPE
  6
ByLayer
  9
$CECOLOR
 62
   256
  9
$CELTSCALE
 40
1.0
  9
$DISPSILH
 70
     0
  9
$DIMSCALE
 40
1.0
  9
$DIMASZ
 40
3.302
  9
$DIMEXO
 40
1.0
  9
$DIMDLI
 40
3.75
  9
$DIMRND
 40
0.0
  9
$DIMDLE
 40
0.0
  9
$DIMEXE
 40
1.0
  9
$DIMTP
 40
0.0
  9
$DIMTM
 40
0.0
  9
$DIMTXT
 40
3.5
  9
$DIMCEN
 40
2.5
  9
$DIMTSZ
 40
0.0
  9
$DIMTOL
 70
     0
  9
$DIMLIM
 70
     0
  9
$DIMTIH
 70
     1
  9
$DIMTOH
 70
     1
  9
$DIMSE1
 70
     0
  9
$DIMSE2
 70
     0
  9
$DIMTAD
 70
     1
  9
$DIMZIN
 70
     0
  9
$DIMBLK
  1

  9
$DIMASO
 70
     1
  9
$DIMSHO
 70
     1
  9
$DIMPOST
  1

  9
$DIMAPOST
  1

  9
$DIMALT
 70
     0
  9
$DIMALTD
 70
     3
  9
$DIMALTF
 40
0.0393700787401575
  9
$DIMLFAC
 40
1.0
  9
$DIMTOFL
 70
     1
  9
$DIMTVP
 40
0.0
  9
$DIMTIX
 70
     0
  9
$DIMSOXD
 70
     0
  9
$DIMSAH
 70
     0
  9
$DIMBLK1
  1

  9
$DIMBLK2
  1

  9
$DIMSTYLE
  2
ISO-25
  9
$DIMCLRD
 70
     0
  9
$DIMCLRE
 70
     0
  9
$DIMCLRT
 70
     0
  9
$DIMTFAC
 40
1.0
  9
$DIMGAP
 40
1.524
  9
$DIMJUST
 70
     0
  9
$DIMSD1
 70
     0
  9
$DIMSD2
 70
     0
  9
$DIMTOLJ
 70
     0
  9
$DIMTZIN
 70
     0
  9
$DIMALTZ
 70
     0
  9
$DIMALTTZ
 70
     0
  9
$DIMUPT
 70
     0
  9
$DIMDEC
 70
     2
  9
$DIMTDEC
 70
     2
  9
$DIMALTU
 70
     2
  9
$DIMALTTD
 70
     3
  9
$DIMTXSTY
  7
Standard
  9
$DIMAUNIT
 70
     0
  9
$DIMADEC
 70
     2
  9
$DIMALTRND
 40
0.0
  9
$DIMAZIN
 70
     0
  9
$DIMDSEP
 70
    44
  9
$DIMATFIT
 70
     3
  9
$DIMFRAC
 70
     0
  9
$DIMLDRBLK
  1

  9
$DIMLUNIT
 70
     2
  9
$DIMLWD
 70
    -2
  9
$DIMLWE
 70
    -2
  9
$DIMTMOVE
 70
     0
  9
$LUNITS
 70
     2
  9
$LUPREC
 70
     2
  9
$SKETCHINC
 40
1.0
  9
$FILLETRAD
 40
10.0
  9
$AUNITS
 70
     0
  9
$AUPREC
 70
     2
  9
$MENU
  1
.
  9
$ELEVATION
 40
0.0
  9
$PELEVATION
 40
0.0
  9
$THICKNESS
 40
0.0
  9
$LIMCHECK
 70
     0
  9
$CHAMFERA
 40
0.0
  9
$CHAMFERB
 40
0.0
  9
$CHAMFERC
 40
0.0
  9
$CHAMFERD
 40
0.0
  9
$SKPOLY
 70
     0
  9
$TDCREATE
 40
2458313.390805035
  9
$TDUCREATE
 40
2458313.015805035
  9
$TDUPDATE
 40
2458318.654143889
  9
$TDUUPDATE
 40
2458318.279143889
  9
$TDINDWG
 40
0.0018099537
  9
$TDUSRTIMER
 40
2458318.279104942
  9
$USRTIMER
 70
     1
  9
$ANGBASE
 50
0.0
  9
$ANGDIR
 70
     0
  9
$PDMODE
 70
     0
  9
$PDSIZE
 40
-1.0
  9
$PLINEWID
 40
0.0
  9
$SPLFRAME
 70
     0
  9
$SPLINETYPE
 70
     6
  9
$SPLINESEGS
 70
     8
  9
$HANDSEED
  5
277
  9
$SURFTAB1
 70
     6
  9
$SURFTAB2
 70
     6
  9
$SURFTYPE
 70
     6
  9
$SURFU
 70
     6
  9
$SURFV
 70
     6
  9
$UCSBASE
  2

  9
$UCSNAME
  2

  9
$UCSORG
 10
0.0
 20
0.0
 30
0.0
  9
$UCSXDIR
 10
1.0
 20
0.0
 30
0.0
  9
$UCSYDIR
 10
0.0
 20
1.0
 30
0.0
  9
$UCSORTHOREF
  2

  9
$UCSORTHOVIEW
 70
     0
  9
$UCSORGTOP
 10
0.0
 20
0.0
 30
0.0
  9
$UCSORGBOTTOM
 10
0.0
 20
0.0
 30
0.0
  9
$UCSORGLEFT
 10
0.0
 20
0.0
 30
0.0
  9
$UCSORGRIGHT
 10
0.0
 20
0.0
 30
0.0
  9
$UCSORGFRONT
 10
0.0
 20
0.0
 30
0.0
  9
$UCSORGBACK
 10
0.0
 20
0.0
 30
0.0
  9
$PUCSBASE
  2

  9
$PUCSNAME
  2

  9
$PUCSORG
 10
0.0
 20
0.0
 30
0.0
  9
$PUCSXDIR
 10
1.0
 20
0.0
 30
0.0
  9
$PUCSYDIR
 10
0.0
 20
1.0
 30
0.0
  9
$PUCSORTHOREF
  2

  9
$PUCSORTHOVIEW
 70
     0
  9
$PUCSORGTOP
 10
0.0
 20
0.0
 30
0.0
  9
$PUCSORGBOTTOM
 10
0.0
 20
0.0
 30
0.0
  9
$PUCSORGLEFT
 10
0.0
 20
0.0
 30
0.0
  9
$PUCSORGRIGHT
 10
0.0
 20
0.0
 30
0.0
  9
$PUCSORGFRONT
 10
0.0
 20
0.0
 30
0.0
  9
$PUCSORGBACK
 10
0.0
 20
0.0
 30
0.0
  9
$USERI1
 70
     0
  9
$USERI2
 70
     0
  9
$USERI3
 70
     0
  9
$USERI4
 70
     0
  9
$USERI5
 70
     0
  9
$USERR1
 40
0.0
  9
$USERR2
 40
0.0
  9
$USERR3
 40
0.0
  9
$USERR4
 40
0.0
  9
$USERR5
 40
0.0
  9
$WORLDVIEW
 70
     1
  9
$SHADEDGE
 70
     3
  9
$SHADEDIF
 70
    70
  9
$TILEMODE
 70
     1
  9
$MAXACTVP
 70
    64
  9
$PINSBASE
 10
0.0
 20
0.0
 30
0.0
  9
$PLIMCHECK
 70
     0
  9
$PEXTMIN
 10
1.000000000000000E+20
 20
1.000000000000000E+20
 30
1.000000000000000E+20
  9
$PEXTMAX
 10
-1.000000000000000E+20
 20
-1.000000000000000E+20
 30
-1.000000000000000E+20
  9
$PLIMMIN
 10
0.0
 20
0.0
  9
$PLIMMAX
 10
0.0
 20
0.0
  9
$UNITMODE
 70
     0
  9
$VISRETAIN
 70
     1
  9
$PLINEGEN
 70
     0
  9
$PSLTSCALE
 70
     1
  9
$TREEDEPTH
 70
  3020
  9
$CMLSTYLE
  2
Standard
  9
$CMLJUST
 70
     0
  9
$CMLSCALE
 40
20.0
  9
$PROXYGRAPHICS
 70
     1
  9
$MEASUREMENT
 70
     1
  9
$CELWEIGHT
370
    -1
  9
$ENDCAPS
280
     0
  9
$JOINSTYLE
280
     0
  9
$LWDISPLAY
290
     1
  9
$INSUNITS
 70
     4
  9
$HYPERLINKBASE
  1

  9
$STYLESHEET
  1

  9
$XEDIT
290
     1
  9
$CEPSNTYPE
380
     0
  9
$PSTYLEMODE
290
     1
  9
$FINGERPRINTGUID
  2
{35F947E3-57E9-4964-A4CC-6AF62C01349B}
  9
$VERSIONGUID
  2
{FAEB1C32-E019-11D5-929B-00C0DF256EC4}
  9
$EXTNAMES
290
     1
  9
$PSVPSCALE
 40
0.0
  9
$OLESTARTUP
290
     0
  0
ENDSEC
  0
SECTION
  2
CLASSES
  0
CLASS
  1
ACDBDICTIONARYWDFLT
  2
AcDbDictionaryWithDefault
  3
ObjectDBX Classes
 90
        0
280
     0
281
     0
  0
CLASS
  1
VISUALSTYLE
  2
AcDbVisualStyle
  3
ObjectDBX Classes
 90
     4095
280
     0
281
     0
  0
CLASS
  1
MATERIAL
  2
AcDbMaterial
  3
ObjectDBX Classes
 90
     1153
280
     0
281
     0
  0
CLASS
  1
SCALE
  2
AcDbScale
  3
ObjectDBX Classes
 90
     1153
280
     0
281
     0
  0
CLASS
  1
SUN
  2
AcDbSun
  3
SCENEOE
 90
     1153
280
     0
281
     0
  0
CLASS
  1
ACDBPLACEHOLDER
  2
AcDbPlaceHolder
  3
ObjectDBX Classes
 90
        0
280
     0
281
     0
  0
CLASS
  1
LAYOUT
  2
AcDbLayout
  3
ObjectDBX Classes
 90
        0
280
     0
281
     0
  0
CLASS
  1
TABLESTYLE
  2
AcDbTableStyle
  3
ObjectDBX Classes
 90
     4095
280
     0
281
     0
  0
CLASS
  1
MLEADERSTYLE
  2
AcDbMLeaderStyle
  3
ACDB_MLEADERSTYLE_CLASS
 90
     4095
280
     0
281
     0
  0
CLASS
  1
RASTERVARIABLES
  2
AcDbRasterVariables
  3
ISM
 90
        0
280
     0
281
     0
  0
ENDSEC
  0
SECTION
  2
TABLES
  0
TABLE
  2
VPORT
  5
8
330
0
100
AcDbSymbolTable
 70
     1
  0
VPORT
  5
29
330
8
100
AcDbSymbolTableRecord
100
AcDbViewportTableRecord
  2
*Active
 70
     0
 10
0.0
 20
0.0
 11
1.0
 21
1.0
 12
23.45331251647747
 22
-6.493278694405895
 13
0.0
 23
0.0
 14
10.0
 24
10.0
 15
10.0
 25
10.0
 16
0.0
 26
0.0
 36
1.0
 17
0.0
 27
0.0
 37
0.0
 40
88.69619853658794
 41
1.782762691853601
 42
50.0
 43
0.0
 44
0.0
 50
0.0
 51
0.0
 71
    16
 72
  2000
 73
     1
 74
     3
 75
     0
 76
     0
 77
     0
 78
     0
281
     0
 65
     1
110
0.0
120
0.0
130
0.0
111
1.0
121
0.0
131
0.0
112
0.0
122
1.0
132
0.0
 79
     0
146
0.0
  0
ENDTAB
  0
TABLE
  2
LTYPE
  5
5
330
0
100
AcDbSymbolTable
 70
     6
  0
LTYPE
  5
14
330
5
100
AcDbSymbolTableRecord
100
AcDbLinetypeTableRecord
  2
ByBlock
 70
     0
  3

 72
    65
 73
     0
 40
0.0
  0
LTYPE
  5
15
330
5
100
AcDbSymbolTableRecord
100
AcDbLinetypeTableRecord
  2
ByLayer
 70
     0
  3

 72
    65
 73
     0
 40
0.0
  0
LTYPE
  5
16
330
5
100
AcDbSymbolTableRecord
100
AcDbLinetypeTableRecord
  2
Continuous
 70
     0
  3
Solid line
 72
    65
 73
     0
 40
0.0
  0
LTYPE
  5
6A
330
5
100
AcDbSymbolTableRecord
100
AcDbLinetypeTableRecord
  2
HIDDEN
 70
     0
  3
Hidden __ __ __ __ __ __ __ __ __ __ __ __ __ __
 72
    65
 73
     2
 40
1.905
 49
1.27
 74
     0
 49
-0.635
 74
     0
  0
LTYPE
  5
6B
330
5
100
AcDbSymbolTableRecord
100
AcDbLinetypeTableRecord
  2
PHANTOM
 70
     0
  3
Phantom ______  __  __  ______  __  __  ______
 72
    65
 73
     6
 40
12.7
 49
6.35
 74
     0
 49
-1.27
 74
     0
 49
1.27
 74
     0
 49
-1.27
 74
     0
 49
1.27
 74
     0
 49
-1.27
 74
     0
  0
LTYPE
  5
6C
330
5
100
AcDbSymbolTableRecord
100
AcDbLinetypeTableRecord
  2
CENTER
 70
     0
  3
Center ____ _ ____ _ ____ _ ____ _ ____ _ ____
 72
    65
 73
     4
 40
10.16
 49
6.35
 74
     0
 49
-1.27
 74
     0
 49
1.27
 74
     0
 49
-1.27
 74
     0
  0
LTYPE
  5
6D
330
5
100
AcDbSymbolTableRecord
100
AcDbLinetypeTableRecord
  2
CENTERX2
 70
     0
  3
Center (2x) ________  __  ________  __  _____
 72
    65
 73
     4
 40
20.32
 49
12.7
 74
     0
 49
-2.54
 74
     0
 49
2.54
 74
     0
 49
-2.54
 74
     0
  0
LTYPE
  5
6E
330
5
100
AcDbSymbolTableRecord
100
AcDbLinetypeTableRecord
  2
DOT2
 70
     0
  3
Dot (.5x) ........................................
 72
    65
 73
     2
 40
0.635
 49
0.0
 74
     0
 49
-0.635
 74
     0
  0
ENDTAB
  0
TABLE
  2
LAYER
  5
2
102
{ACAD_XDICTIONARY
360
197
102
}
330
0
100
AcDbSymbolTable
 70
    18
  0
LAYER
  5
10
330
2
100
AcDbSymbolTableRecord
100
AcDbLayerTableRecord
  2
0
 70
     0
 62
     7
  6
Continuous
370
    -3
390
F
  0
LAYER
  5
6F
330
2
100
AcDbSymbolTableRecord
100
AcDbLayerTableRecord
  2
FORMAT
 70
     0
 62
     2
  6
Continuous
370
    -3
390
F
  0
LAYER
  5
70
330
2
100
AcDbSymbolTableRecord
100
AcDbLayerTableRecord
  2
외형선
 70
     0
 62
     4
  6
Continuous
370
    30
390
F
  0
LAYER
  5
71
330
2
100
AcDbSymbolTableRecord
100
AcDbLayerTableRecord
  2
숨은선
 70
     0
 62
     2
  6
HIDDEN
370
    15
390
F
  0
LAYER
  5
72
330
2
100
AcDbSymbolTableRecord
100
AcDbLayerTableRecord
  2
중심선
 70
     0
 62
     1
  6
CENTERX2
370
    -3
390
F
  0
LAYER
  5
73
330
2
100
AcDbSymbolTableRecord
100
AcDbLayerTableRecord
  2
파단선
 70
     0
 62
     4
  6
Continuous
370
    -3
390
F
  0
LAYER
  5
74
330
2
100
AcDbSymbolTableRecord
100
AcDbLayerTableRecord
  2
해칭선
 70
     0
 62
   100
  6
Continuous
370
    -3
390
F
  0
LAYER
  5
75
330
2
100
AcDbSymbolTableRecord
100
AcDbLayerTableRecord
  2
가는실선
 70
     0
 62
     4
  6
Continuous
370
    -3
390
F
  0
LAYER
  5
76
330
2
100
AcDbSymbolTableRecord
100
AcDbLayerTableRecord
  2
치수_보조선
 70
     0
 62
     4
  6
Continuous
370
    -3
390
F
  0
LAYER
  5
77
330
2
100
AcDbSymbolTableRecord
100
AcDbLayerTableRecord
  2
치수문자_일반주서
 70
     0
 62
     7
  6
Continuous
370
    15
390
F
  0
LAYER
  5
78
330
2
100
AcDbSymbolTableRecord
100
AcDbLayerTableRecord
  2
개별주서
 70
     0
 62
   100
  6
Continuous
370
    30
390
F
  0
LAYER
  5
79
330
2
100
AcDbSymbolTableRecord
100
AcDbLayerTableRecord
  2
중간선
 70
     0
 62
     2
  6
Continuous
370
    15
390
F
  0
LAYER
  5
7A
330
2
100
AcDbSymbolTableRecord
100
AcDbLayerTableRecord
  2
윤곽선
 70
     0
 62
     3
  6
Continuous
370
    40
390
F
  0
LAYER
  5
7B
330
2
100
AcDbSymbolTableRecord
100
AcDbLayerTableRecord
  2
중심마크
 70
     0
 62
   100
  6
Continuous
370
    30
390
F
  0
LAYER
  5
7C
330
2
100
AcDbSymbolTableRecord
100
AcDbLayerTableRecord
  2
가상선
 70
     0
 62
     4
  6
PHANTOM
370
    -3
390
F
  0
LAYER
  5
7D
330
2
100
AcDbSymbolTableRecord
100
AcDbLayerTableRecord
  2
특수지정선
 70
     0
 62
     5
  6
CENTERX2
370
    60
390
F
  0
LAYER
  5
7E
330
2
100
AcDbSymbolTableRecord
100
AcDbLayerTableRecord
  2
참조1
 70
     0
 62
    -4
  6
Continuous
370
    -3
390
F
  0
LAYER
  5
160
330
2
100
AcDbSymbolTableRecord
100
AcDbLayerTableRecord
  2
Defpoints
 70
     0
 62
     7
  6
Continuous
290
     0
370
    -3
390
F
  0
ENDTAB
  0
TABLE
  2
STYLE
  5
3
330
0
100
AcDbSymbolTable
 70
     2
  0
STYLE
  5
11
330
3
100
AcDbSymbolTableRecord
100
AcDbTextStyleTableRecord
  2
Standard
 70
     0
 40
0.0
 41
1.0
 50
0.0
 71
     0
 42
3.5
  3
txt
  4

  0
STYLE
  5
94
330
3
100
AcDbSymbolTableRecord
100
AcDbTextStyleTableRecord
  2
SLDTEXTSTYLE0
 70
     0
 40
0.0
 41
0.75
 50
0.0
 71
     0
 42
3.5
  3
TXT
  4

  0
ENDTAB
  0
TABLE
  2
VIEW
  5
6
330
0
100
AcDbSymbolTable
 70
     0
  0
ENDTAB
  0
TABLE
  2
UCS
  5
7
330
0
100
AcDbSymbolTable
 70
     0
  0
ENDTAB
  0
TABLE
  2
APPID
  5
9
330
0
100
AcDbSymbolTable
 70
     2
  0
APPID
  5
12
330
9
100
AcDbSymbolTableRecord
100
AcDbRegAppTableRecord
  2
ACAD
 70
     0
  0
APPID
  5
167
330
9
100
AcDbSymbolTableRecord
100
AcDbRegAppTableRecord
  2
PE_URL
 70
     0
  0
ENDTAB
  0
TABLE
  2
DIMSTYLE
  5
A
330
0
100
AcDbSymbolTable
 70
     3
100
AcDbDimStyleTable
  0
DIMSTYLE
105
27
330
A
100
AcDbSymbolTableRecord
100
AcDbDimStyleTableRecord
  2
ISO-25
 70
     0
 41
2.5
 42
0.625
 43
3.75
 44
1.25
 73
     0
 74
     0
 77
     1
 78
     8
140
2.5
141
2.5
143
0.03937007874016
147
0.625
171
     3
172
     1
178
     0
271
     2
272
     2
274
     3
278
    44
283
     0
284
     8
340
11
  0
DIMSTYLE
105
DF
102
{ACAD_REACTORS
330
DE
330
F3
330
107
330
11C
102
}
330
A
100
AcDbSymbolTableRecord
100
AcDbDimStyleTableRecord
  2
SLDDIMSTYLE0
 70
     0
 41
3.302
 44
0.0
 45
0.000000001
 73
     0
 74
     0
 77
     1
 78
    12
 79
     3
140
3.5
143
0.0393700787401575
147
0.875
148
0.000000001
170
     1
172
     1
173
     1
178
     0
271
     2
272
     2
276
     2
284
    12
289
     0
340
94
  0
DIMSTYLE
105
108
330
A
100
AcDbSymbolTableRecord
100
AcDbDimStyleTableRecord
  2
SLDDIMSTYLE1
 70
     0
 41
3.302
 44
0.0
 45
0.000000001
 73
     0
 74
     0
 77
     1
 78
    12
 79
     3
140
3.5
143
0.0393700787401575
147
0.875
148
0.000000001
170
     1
173
     1
178
     0
271
     2
272
     2
276
     2
284
    12
340
94
  0
ENDTAB
  0
TABLE
  2
BLOCK_RECORD
  5
1
330
0
100
AcDbSymbolTable
 70
     9
  0
BLOCK_RECORD
  5
1F
330
1
100
AcDbSymbolTableRecord
100
AcDbBlockTableRecord
  2
*Model_Space
340
22
  0
BLOCK_RECORD
  5
1B
330
1
100
AcDbSymbolTableRecord
100
AcDbBlockTableRecord
  2
*Paper_Space
340
1E
  0
BLOCK_RECORD
  5
23
330
1
100
AcDbSymbolTableRecord
100
AcDbBlockTableRecord
  2
*Paper_Space0
340
26
  0
BLOCK_RECORD
  5
7F
330
1
100
AcDbSymbolTableRecord
100
AcDbBlockTableRecord
  2
블럭10
340
0
102
{BLKREFS
331
D7
102
}
  0
BLOCK_RECORD
  5
E0
330
1
100
AcDbSymbolTableRecord
100
AcDbBlockTableRecord
  2
_D
340
0
  0
BLOCK_RECORD
  5
F4
330
1
100
AcDbSymbolTableRecord
100
AcDbBlockTableRecord
  2
_D_1
340
0
  0
BLOCK_RECORD
  5
109
330
1
100
AcDbSymbolTableRecord
100
AcDbBlockTableRecord
  2
_D_2
340
0
  0
BLOCK_RECORD
  5
11D
330
1
100
AcDbSymbolTableRecord
100
AcDbBlockTableRecord
  2
_D_3
340
0
  0
BLOCK_RECORD
  5
136
330
1
100
AcDbSymbolTableRecord
100
AcDbBlockTableRecord
  2
SW_DOWELSYMBOL_0
340
0
102
{BLKREFS
331
13C
102
}
  0
BLOCK_RECORD
  5
19B
330
1
100
AcDbSymbolTableRecord
100
AcDbBlockTableRecord
  2
*D7
340
0
  0
BLOCK_RECORD
  5
1AD
330
1
100
AcDbSymbolTableRecord
100
AcDbBlockTableRecord
  2
*D8
340
0
  0
ENDTAB
  0
ENDSEC
  0
SECTION
  2
BLOCKS
  0
BLOCK
  5
20
330
1F
100
AcDbEntity
  8
0
100
AcDbBlockBegin
  2
*Model_Space
 70
     0
 10
0.0
 20
0.0
 30
0.0
  3
*Model_Space
  1
*Model_Space
  0
ENDBLK
  5
21
330
1F
100
AcDbEntity
  8
0
100
AcDbBlockEnd
  0
BLOCK
  5
1C
330
1B
100
AcDbEntity
 67
     1
  8
0
100
AcDbBlockBegin
  2
*Paper_Space
 70
     0
 10
0.0
 20
0.0
 30
0.0
  3
*Paper_Space
  1
*Paper_Space
  0
ENDBLK
  5
1D
330
1B
100
AcDbEntity
 67
     1
  8
0
100
AcDbBlockEnd
  0
BLOCK
  5
24
330
23
100
AcDbEntity
  8
0
100
AcDbBlockBegin
  2
*Paper_Space0
 70
     0
 10
0.0
 20
0.0
 30
0.0
  3
*Paper_Space0
  1
*Paper_Space0
  0
ENDBLK
  5
25
330
23
100
AcDbEntity
  8
0
100
AcDbBlockEnd
  0
BLOCK
  5
80
330
7F
100
AcDbEntity
  8
0
100
AcDbBlockBegin
  2
블럭10
 70
     2
 10
0.0
 20
0.0
 30
0.0
  3
블럭10
  1
블럭10
  0
ELLIPSE
  5
82
330
7F
100
AcDbEntity
  8
중심선
100
AcDbEllipse
 10
20.54032771741204
 20
12.0471743016438
 30
0.0
 11
6.600054785286829
 21
-1.261213355974178E-13
 31
0.0
210
0.0
220
0.0
230
1.0
 40
0.636358354079598
 41
0.9219305317359503
 42
6.513795318482858
  0
ELLIPSE
  5
83
330
7F
100
AcDbEntity
  8
중심선
100
AcDbEllipse
 10
20.54032771746488
 20
12.04717430159265
 30
0.0
 11
3.960054785062283
 21
1.540847449632565E-10
 31
0.0
210
0.0
220
0.0
230
1.0
 40
0.3939339440162632
 41
1.131841032648279
 42
5.62031148352944
  0
LINE
  5
84
330
7F
100
AcDbEntity
  8
중심선
100
AcDbLine
 10
2.268634060543552
 20
16.24717430164393
 30
0.0
 11
5.714909304380834
 21
16.24717430164393
 31
0.0
  0
LINE
  5
85
330
7F
100
AcDbEntity
  8
중심선
100
AcDbLine
 10
5.245725140726316
 20
7.84717430164391
 30
0.0
 11
8.692000384563599
 21
7.84717430164391
 31
0.0
  0
LINE
  5
86
330
7F
100
AcDbEntity
  8
중심선
100
AcDbLine
 10
15.74043728645272
 20
16.24717430164393
 30
0.0
 11
8.692000384563599
 21
7.84717430164391
 31
0.0
  0
LINE
  5
87
330
7F
100
AcDbEntity
  8
중심선
100
AcDbLine
 10
0.1404042013395286
 20
13.71084872107135
 30
0.0
 11
3.58671253028996
 21
13.71088815037384
 31
0.0
  0
LINE
  5
88
330
7F
100
AcDbEntity
  8
중심선
100
AcDbLine
 10
2.750260043222114
 20
10.84717430164391
 30
0.0
 11
6.196535287059397
 21
10.84717430164391
 31
0.0
  0
LINE
  5
89
330
7F
100
AcDbEntity
  8
중심선
100
AcDbLine
 10
12.29416204261559
 20
16.24717430164393
 30
0.0
 11
5.245725140726316
 21
7.84717430164391
 31
0.0
  0
LINE
  5
8A
330
7F
100
AcDbEntity
  8
중심선
100
AcDbLine
 10
10.72767329541681
 20
16.24717430164393
 30
0.0
 11
6.196535287059397
 21
10.84717430164391
 31
0.0
  0
LINE
  5
8B
330
7F
100
AcDbEntity
  8
중심선
100
AcDbLine
 10
7.28139805157953
 20
16.24717430164393
 30
0.0
 11
2.750260043222114
 21
10.84717430164391
 31
0.0
  0
LINE
  5
8C
330
7F
100
AcDbEntity
  8
중심선
100
AcDbLine
 10
5.714909304380834
 20
16.24717430164393
 30
0.0
 11
3.58671253028996
 21
13.71088815037384
 31
0.0
  0
LINE
  5
8D
330
7F
100
AcDbEntity
  8
중심선
100
AcDbLine
 10
2.268634060543552
 20
16.24717430164393
 30
0.0
 11
0.1404042013395286
 21
13.71084872107135
 31
0.0
  0
LINE
  5
8E
330
7F
100
AcDbEntity
  8
중심선
100
AcDbLine
 10
7.28139805157953
 20
16.24717430164393
 30
0.0
 11
10.72767329541681
 21
16.24717430164393
 31
0.0
  0
LINE
  5
8F
330
7F
100
AcDbEntity
  8
중심선
100
AcDbLine
 10
12.29416204261559
 20
16.24717430164393
 30
0.0
 11
15.74043728645272
 21
16.24717430164393
 31
0.0
  0
LINE
  5
90
330
7F
100
AcDbEntity
  8
중심선
100
AcDbLine
 10
19.22036997980202
 20
11.08717430171403
 30
0.0
 11
23.66174974927406
 21
11.08717430171406
 31
0.0
  0
LINE
  5
91
330
7F
100
AcDbEntity
  8
중심선
100
AcDbLine
 10
19.22039502424796
 20
13.00717430171391
 30
0.0
 11
19.22036997980202
 21
11.08717430171403
 31
0.0
  0
LINE
  5
92
330
7F
100
AcDbEntity
  8
중심선
100
AcDbLine
 10
19.22039502424796
 20
13.00717430171391
 30
0.0
 11
26.96566020931264
 21
13.00717430171391
 31
0.0
  0
LINE
  5
93
330
7F
100
AcDbEntity
  8
중심선
100
AcDbLine
 10
22.22332737316547
 20
13.45928029700563
 30
0.0
 11
24.52862924686651
 21
15.39360700705356
 31
0.0
  0
ATTDEF
  5
95
330
7F
100
AcDbEntity
  8
FORMAT
 62
     2
100
AcDbText
 10
4.408487351596664
 20
2.075366912832191
 30
0.0
 40
4.233333333333333
  1
E1003008
 41
0.75
  7
SLDTEXTSTYLE0
 11
4.408487351596664
 21
-0.0412997538344756
 31
0.0
100
AcDbAttributeDefinition
  3

  2
AUTOATTR0
 70
     0
 74
     1
  0
ENDBLK
  5
81
330
7F
100
AcDbEntity
  8
0
100
AcDbBlockEnd
  0
BLOCK
  5
E1
330
E0
100
AcDbEntity
  8
0
100
AcDbBlockBegin
  2
_D
 70
     0
 10
0.0
 20
0.0
 30
0.0
  3
_D
  1
_D
  0
LINE
  5
E3
330
E0
100
AcDbEntity
  8
치수문자_일반주서
 62
     0
370
    -2
100
AcDbLine
 10
-15.15018467149221
 20
2.381249999999996
 30
0.0
 11
-38.575
 21
2.381249999999909
 31
0.0
  0
LINE
  5
E4
330
E0
100
AcDbEntity
  8
치수문자_일반주서
 62
     0
370
    -2
100
AcDbLine
 10
-15.1501846714922
 20
-2.381250000000003
 30
0.0
 11
-38.57499999999998
 21
-2.38125000000009
 31
0.0
  0
LINE
  5
E5
330
E0
100
AcDbEntity
  8
치수문자_일반주서
 62
     0
370
    -2
100
AcDbLine
 10
-38.575
 20
2.381249999999909
 30
0.0
 11
-38.5750000000001
 21
36.98524999999997
 31
0.0
  0
LINE
  5
E6
330
E0
100
AcDbEntity
  8
치수문자_일반주서
 62
     0
370
    -2
100
AcDbLine
 10
-38.575
 20
2.381249999999909
 30
0.0
 11
-38.57499999999998
 21
-2.38125000000009
 31
0.0
  0
LINE
  5
E7
330
E0
100
AcDbEntity
  8
치수문자_일반주서
 62
     0
370
    -2
100
AcDbLine
 10
-38.575
 20
5.683249999999909
 30
0.0
 11
-38.57500000000001
 21
8.985249999999908
 31
0.0
  0
LINE
  5
E8
330
E0
100
AcDbEntity
  8
치수문자_일반주서
 62
     0
370
    -2
100
AcDbLine
 10
-38.57499999999997
 20
-5.68325000000009
 30
0.0
 11
-38.57499999999997
 21
-8.98525000000009
 31
0.0
  0
SOLID
  5
E9
330
E0
100
AcDbEntity
  8
치수문자_일반주서
 62
     0
100
AcDbTrace
 10
-39.12533333333334
 20
5.683249999999907
 30
0.0
 11
-38.02466666666667
 21
5.68324999999991
 31
0.0
 12
-38.575
 22
2.381249999999909
 32
0.0
 13
-38.575
 23
2.381249999999909
 33
0.0
  0
SOLID
  5
EA
330
E0
100
AcDbEntity
  8
치수문자_일반주서
 62
     0
100
AcDbTrace
 10
-38.02466666666664
 20
-5.683250000000088
 30
0.0
 11
-39.12533333333331
 21
-5.683250000000092
 31
0.0
 12
-38.57499999999998
 22
-2.38125000000009
 32
0.0
 13
-38.57499999999998
 23
-2.38125000000009
 33
0.0
  0
MTEXT
  5
EB
330
E0
100
AcDbEntity
  8
치수문자_일반주서
 62
     0
100
AcDbMText
 10
-42.95000000000006
 20
22.98524999999995
 30
0.0
 40
3.5
 41
0.0
 71
     2
 72
     1
  1
\A1;%%c4.76 [3/16]
  7
SLDTEXTSTYLE0
 11
-2.983906501879686E-15
 21
1.0
 31
0.0
 73
     1
 44
1.0
  0
POINT
  5
1BF
330
E0
100
AcDbEntity
  8
Defpoints
 62
     0
100
AcDbPoint
 10
-15.08768467149221
 20
2.381249999999997
 30
0.0
  0
POINT
  5
1C0
330
E0
100
AcDbEntity
  8
Defpoints
 62
     0
100
AcDbPoint
 10
-15.0876846714922
 20
-2.381250000000003
 30
0.0
  0
POINT
  5
1C1
330
E0
100
AcDbEntity
  8
Defpoints
 62
     0
100
AcDbPoint
 10
-38.57499999999998
 20
-2.381250000000091
 30
0.0
  0
ENDBLK
  5
E2
330
E0
100
AcDbEntity
  8
0
100
AcDbBlockEnd
  0
BLOCK
  5
F5
330
F4
100
AcDbEntity
  8
0
100
AcDbBlockBegin
  2
_D_1
 70
     0
 10
0.0
 20
0.0
 30
0.0
  3
_D_1
  1
_D_1
  0
LINE
  5
F7
330
F4
100
AcDbEntity
  8
치수문자_일반주서
 62
     0
370
    -2
100
AcDbLine
 10
28.63750000000001
 20
-1.58615826917706
 30
0.0
 11
64.8843824645664
 21
-1.586158269176924
 31
0.0
  0
LINE
  5
F8
330
F4
100
AcDbEntity
  8
치수문자_일반주서
 62
     0
370
    -2
100
AcDbLine
 10
28.63750000000001
 20
1.586158269177061
 30
0.0
 11
64.88438246456639
 21
1.586158269177197
 31
0.0
  0
LINE
  5
F9
330
F4
100
AcDbEntity
  8
치수문자_일반주서
 62
     0
370
    -2
100
AcDbLine
 10
64.88438246456639
 20
1.586158269177197
 30
0.0
 11
64.88438246456624
 21
32.6901582691772
 31
0.0
  0
LINE
  5
FA
330
F4
100
AcDbEntity
  8
치수문자_일반주서
 62
     0
370
    -2
100
AcDbLine
 10
64.8843824645664
 20
-1.586158269176924
 30
0.0
 11
64.88438246456639
 21
1.586158269177197
 31
0.0
  0
LINE
  5
FB
330
F4
100
AcDbEntity
  8
치수문자_일반주서
 62
     0
370
    -2
100
AcDbLine
 10
64.88438246456641
 20
-4.888158269176923
 30
0.0
 11
64.88438246456643
 21
-8.190158269176923
 31
0.0
  0
LINE
  5
FC
330
F4
100
AcDbEntity
  8
치수문자_일반주서
 62
     0
370
    -2
100
AcDbLine
 10
64.88438246456637
 20
4.888158269177197
 30
0.0
 11
64.88438246456636
 21
8.190158269177196
 31
0.0
  0
SOLID
  5
FD
330
F4
100
AcDbEntity
  8
치수문자_일반주서
 62
     0
100
AcDbTrace
 10
65.43471579789974
 20
-4.888158269176921
 30
0.0
 11
64.33404913123309
 21
-4.888158269176926
 31
0.0
 12
64.8843824645664
 22
-1.586158269176924
 32
0.0
 13
64.8843824645664
 23
-1.586158269176924
 33
0.0
  0
SOLID
  5
FE
330
F4
100
AcDbEntity
  8
치수문자_일반주서
 62
     0
100
AcDbTrace
 10
64.33404913123304
 20
4.888158269177194
 30
0.0
 11
65.4347157978997
 21
4.888158269177199
 31
0.0
 12
64.88438246456639
 22
1.586158269177197
 32
0.0
 13
64.88438246456639
 23
1.586158269177197
 33
0.0
  0
MTEXT
  5
FF
330
F4
100
AcDbEntity
  8
치수문자_일반주서
 62
     0
100
AcDbMText
 10
60.5093824645663
 20
20.44015826917718
 30
0.0
 40
3.5
 41
0.0
 71
     2
 72
     1
  1
\A1;%%c3.17 [1/8]
  7
SLDTEXTSTYLE0
 11
-4.479645881294985E-15
 21
1.0
 31
0.0
 73
     1
 44
1.0
  0
POINT
  5
100
330
F4
100
AcDbEntity
  8
Defpoints
 62
     0
100
AcDbPoint
 10
28.57500000000001
 20
-1.58615826917706
 30
0.0
  0
POINT
  5
101
330
F4
100
AcDbEntity
  8
Defpoints
 62
     0
100
AcDbPoint
 10
28.57500000000001
 20
1.586158269177061
 30
0.0
  0
POINT
  5
102
330
F4
100
AcDbEntity
  8
Defpoints
 62
     0
100
AcDbPoint
 10
64.88438246456639
 20
1.586158269177196
 30
0.0
  0
ENDBLK
  5
F6
330
F4
100
AcDbEntity
  8
0
100
AcDbBlockEnd
  0
BLOCK
  5
10A
330
109
100
AcDbEntity
  8
0
100
AcDbBlockBegin
  2
_D_2
 70
     0
 10
0.0
 20
0.0
 30
0.0
  3
_D_2
  1
_D_2
  0
LINE
  5
10C
330
109
100
AcDbEntity
  8
치수문자_일반주서
 62
     0
370
    -2
100
AcDbLine
 10
28.57500000000001
 20
1.648658269177061
 30
0.0
 11
28.57500000000001
 21
12.38125
 31
0.0
  0
LINE
  5
10D
330
109
100
AcDbEntity
  8
치수문자_일반주서
 62
     0
370
    -2
100
AcDbLine
 10
19.05
 20
1.126615960438773
 30
0.0
 11
19.05
 21
12.38125
 31
0.0
  0
LINE
  5
10E
330
109
100
AcDbEntity
  8
치수문자_일반주서
 62
     0
370
    -2
100
AcDbLine
 10
28.57500000000001
 20
12.38125
 30
0.0
 11
58.80400000000001
 21
12.38125
 31
0.0
  0
LINE
  5
10F
330
109
100
AcDbEntity
  8
치수문자_일반주서
 62
     0
370
    -2
100
AcDbLine
 10
28.57500000000001
 20
12.38125
 30
0.0
 11
19.05
 21
12.38125
 31
0.0
  0
LINE
  5
110
330
109
100
AcDbEntity
  8
치수문자_일반주서
 62
     0
370
    -2
100
AcDbLine
 10
31.87700000000001
 20
12.38125
 30
0.0
 11
35.17900000000001
 21
12.38125
 31
0.0
  0
LINE
  5
111
330
109
100
AcDbEntity
  8
치수문자_일반주서
 62
     0
370
    -2
100
AcDbLine
 10
15.748
 20
12.38125
 30
0.0
 11
12.44600000000001
 21
12.38125
 31
0.0
  0
SOLID
  5
112
330
109
100
AcDbEntity
  8
치수문자_일반주서
 62
     0
100
AcDbTrace
 10
31.87700000000001
 20
12.93158333333333
 30
0.0
 11
31.87700000000001
 21
11.83091666666666
 31
0.0
 12
28.57500000000001
 22
12.38125
 32
0.0
 13
28.57500000000001
 23
12.38125
 33
0.0
  0
SOLID
  5
113
330
109
100
AcDbEntity
  8
치수문자_일반주서
 62
     0
100
AcDbTrace
 10
15.748
 20
11.83091666666666
 30
0.0
 11
15.748
 21
12.93158333333333
 31
0.0
 12
19.05
 22
12.38125
 32
0.0
 13
19.05
 23
12.38125
 33
0.0
  0
MTEXT
  5
114
330
109
100
AcDbEntity
  8
치수문자_일반주서
 62
     0
100
AcDbMText
 10
46.99150000000001
 20
16.75624999999999
 30
0.0
 40
3.5
 41
0.0
 71
     2
 72
     1
  1
\A1;9.53 [3/8]
  7
SLDTEXTSTYLE0
 73
     1
 44
1.0
  0
POINT
  5
115
330
109
100
AcDbEntity
  8
Defpoints
 62
     0
100
AcDbPoint
 10
28.57500000000001
 20
1.586158269177061
 30
0.0
  0
POINT
  5
116
330
109
100
AcDbEntity
  8
Defpoints
 62
     0
100
AcDbPoint
 10
19.05
 20
1.064115960438773
 30
0.0
  0
POINT
  5
117
330
109
100
AcDbEntity
  8
Defpoints
 62
     0
100
AcDbPoint
 10
19.05
 20
12.38125
 30
0.0
  0
ENDBLK
  5
10B
330
109
100
AcDbEntity
  8
0
100
AcDbBlockEnd
  0
BLOCK
  5
11E
330
11D
100
AcDbEntity
  8
0
100
AcDbBlockBegin
  2
_D_3
 70
     0
 10
0.0
 20
0.0
 30
0.0
  3
_D_3
  1
_D_3
  0
LINE
  5
120
330
11D
100
AcDbEntity
  8
치수문자_일반주서
 62
     0
370
    -2
100
AcDbLine
 10
-28.575
 20
1.648658269177041
 30
0.0
 11
-28.575
 21
22.38125
 31
0.0
  0
LINE
  5
121
330
11D
100
AcDbEntity
  8
치수문자_일반주서
 62
     0
370
    -2
100
AcDbLine
 10
28.57500000000001
 20
1.648658269177061
 30
0.0
 11
28.57500000000001
 21
22.38125
 31
0.0
  0
LINE
  5
122
330
11D
100
AcDbEntity
  8
치수문자_일반주서
 62
     0
370
    -2
100
AcDbLine
 10
-25.273
 20
22.38125
 30
0.0
 11
25.27300000000001
 21
22.38125
 31
0.0
  0
SOLID
  5
123
330
11D
100
AcDbEntity
  8
치수문자_일반주서
 62
     0
100
AcDbTrace
 10
-25.273
 20
22.93158333333333
 30
0.0
 11
-25.273
 21
21.83091666666666
 31
0.0
 12
-28.575
 22
22.38125
 32
0.0
 13
-28.575
 23
22.38125
 33
0.0
  0
SOLID
  5
124
330
11D
100
AcDbEntity
  8
치수문자_일반주서
 62
     0
100
AcDbTrace
 10
25.27300000000001
 20
21.83091666666666
 30
0.0
 11
25.27300000000001
 21
22.93158333333333
 31
0.0
 12
28.57500000000001
 22
22.38125
 32
0.0
 13
28.57500000000001
 23
22.38125
 33
0.0
  0
MTEXT
  5
125
330
11D
100
AcDbEntity
  8
치수문자_일반주서
 62
     0
100
AcDbMText
 10
0.0000000000000089
 20
26.75625
 30
0.0
 40
3.5
 41
0.0
 71
     2
 72
     1
  1
\A1;57.15 [2 1/4]
  7
SLDTEXTSTYLE0
 73
     1
 44
1.0
  0
POINT
  5
126
330
11D
100
AcDbEntity
  8
Defpoints
 62
     0
100
AcDbPoint
 10
-28.575
 20
1.586158269177041
 30
0.0
  0
POINT
  5
127
330
11D
100
AcDbEntity
  8
Defpoints
 62
     0
100
AcDbPoint
 10
28.57500000000001
 20
1.586158269177061
 30
0.0
  0
POINT
  5
128
330
11D
100
AcDbEntity
  8
Defpoints
 62
     0
100
AcDbPoint
 10
28.57500000000001
 20
22.38125
 30
0.0
  0
ENDBLK
  5
11F
330
11D
100
AcDbEntity
  8
0
100
AcDbBlockEnd
  0
BLOCK
  5
137
330
136
100
AcDbEntity
  8
0
100
AcDbBlockBegin
  2
SW_DOWELSYMBOL_0
 70
     0
 10
0.0
 20
0.0
 30
0.0
  3
SW_DOWELSYMBOL_0
  1
SW_DOWELSYMBOL_0
  0
CIRCLE
  5
139
330
136
100
AcDbEntity
  8
해칭선
 62
     0
100
AcDbCircle
 10
0.0
 20
0.0
 30
0.0
 40
3.000000000000001
  0
HATCH
  5
13A
330
136
100
AcDbEntity
  8
0
  6
Continuous
 62
     0
370
     0
100
AcDbHatch
 10
0.0
 20
0.0
 30
0.0
210
0.0
220
0.0
230
1.0
  2
SOLID
 70
     1
 71
     0
 91
        1
 92
        0
 93
        3
 72
     2
 10
0.0
 20
0.0
 40
3.000000000000001
 50
0.0
 51
90.0
 73
     1
 72
     1
 10
0.0
 20
3.000000000000001
 11
0.0
 21
0.0
 72
     1
 10
0.0
 20
0.0
 11
3.000000000000001
 21
0.0
 97
        0
 75
     0
 76
     1
 98
        1
 10
0.0
 20
0.0
  0
HATCH
  5
13B
330
136
100
AcDbEntity
  8
0
  6
Continuous
 62
     0
370
     0
100
AcDbHatch
 10
0.0
 20
0.0
 30
0.0
210
0.0
220
0.0
230
1.0
  2
SOLID
 70
     1
 71
     0
 91
        1
 92
        0
 93
        3
 72
     2
 10
0.0
 20
0.0
 40
3.000000000000001
 50
180.0
 51
270.0000000000007
 73
     1
 72
     1
 10
0.0
 20
-3.000000000000001
 11
0.0
 21
0.0
 72
     1
 10
0.0
 20
0.0
 11
-3.000000000000001
 21
0.0
 97
        0
 75
     0
 76
     1
 98
        1
 10
0.0
 20
0.0
  0
ENDBLK
  5
138
330
136
100
AcDbEntity
  8
0
100
AcDbBlockEnd
  0
BLOCK
  5
19C
330
19B
100
AcDbEntity
  8
0
100
AcDbBlockBegin
  2
*D7
 70
     1
 10
0.0
 20
0.0
 30
0.0
  3
*D7
  1
*D7
  0
LINE
  5
19E
330
19B
100
AcDbEntity
  8
치수문자_일반주서
 62
     0
370
    -2
100
AcDbLine
 10
12.55712500000001
 20
1.869553715134623
 30
0.0
 11
12.55712500000001
 21
12.2112260725706
 31
0.0
  0
LINE
  5
19F
330
19B
100
AcDbEntity
  8
치수문자_일반주서
 62
     0
370
    -2
100
AcDbLine
 10
6.603999999999999
 20
1.816614246319745
 30
0.0
 11
6.603999999999999
 21
12.2112260725706
 31
0.0
  0
LINE
  5
1A0
330
19B
100
AcDbEntity
  8
치수문자_일반주서
 62
     0
370
    -2
100
AcDbLine
 10
12.55712500000001
 20
12.2112260725706
 30
0.0
 11
47.16112500000001
 21
12.2112260725706
 31
0.0
  0
LINE
  5
1A1
330
19B
100
AcDbEntity
  8
치수문자_일반주서
 62
     0
370
    -2
100
AcDbLine
 10
12.55712500000001
 20
12.2112260725706
 30
0.0
 11
6.603999999999999
 21
12.2112260725706
 31
0.0
  0
LINE
  5
1A2
330
19B
100
AcDbEntity
  8
치수문자_일반주서
 62
     0
370
    -2
100
AcDbLine
 10
15.85912500000001
 20
12.2112260725706
 30
0.0
 11
19.16112500000001
 21
12.2112260725706
 31
0.0
  0
LINE
  5
1A3
330
19B
100
AcDbEntity
  8
치수문자_일반주서
 62
     0
370
    -2
100
AcDbLine
 10
3.302
 20
12.2112260725706
 30
0.0
 11
0.0
 21
12.2112260725706
 31
0.0
  0
SOLID
  5
1A4
330
19B
100
AcDbEntity
  8
치수문자_일반주서
 62
     0
100
AcDbTrace
 10
15.85912500000001
 20
12.76155940590393
 30
0.0
 11
15.85912500000001
 21
11.66089273923727
 31
0.0
 12
12.55712500000001
 22
12.2112260725706
 32
0.0
 13
12.55712500000001
 23
12.2112260725706
 33
0.0
  0
SOLID
  5
1A5
330
19B
100
AcDbEntity
  8
치수문자_일반주서
 62
     0
100
AcDbTrace
 10
3.302
 20
11.66089273923727
 30
0.0
 11
3.302
 21
12.76155940590393
 31
0.0
 12
6.603999999999999
 22
12.2112260725706
 32
0.0
 13
6.603999999999999
 23
12.2112260725706
 33
0.0
  0
MTEXT
  5
1A6
330
19B
100
AcDbEntity
  8
치수문자_일반주서
 62
     0
100
AcDbMText
 10
33.16112500000001
 20
16.5862260725706
 30
0.0
 40
3.5
 41
0.0
 71
     2
 72
     1
  1
\A1;5.95 [15/64]
  7
SLDTEXTSTYLE0
 73
     1
 44
1.0
  0
POINT
  5
1A7
330
19B
100
AcDbEntity
  8
Defpoints
 62
     0
100
AcDbPoint
 10
12.55712500000001
 20
1.807053715134623
 30
0.0
  0
POINT
  5
1A8
330
19B
100
AcDbEntity
  8
Defpoints
 62
     0
100
AcDbPoint
 10
6.603999999999999
 20
1.754114246319745
 30
0.0
  0
POINT
  5
1A9
330
19B
100
AcDbEntity
  8
Defpoints
 62
     0
100
AcDbPoint
 10
6.603999999999999
 20
12.2112260725706
 30
0.0
  0
ENDBLK
  5
19D
330
19B
100
AcDbEntity
  8
0
100
AcDbBlockEnd
  0
BLOCK
  5
1AE
330
1AD
100
AcDbEntity
  8
0
100
AcDbBlockBegin
  2
*D8
 70
     1
 10
0.0
 20
0.0
 30
0.0
  3
*D8
  1
*D8
  0
LINE
  5
1B0
330
1AD
100
AcDbEntity
  8
치수문자_일반주서
 62
     0
370
    -2
100
AcDbLine
 10
68.28187280263111
 20
-13.12115341829754
 30
0.0
 11
68.28187280263111
 21
-2.77948106086156
 31
0.0
  0
LINE
  5
1B1
330
1AD
100
AcDbEntity
  8
치수문자_일반주서
 62
     0
370
    -2
100
AcDbLine
 10
62.3287478026311
 20
-13.17409288711242
 30
0.0
 11
62.3287478026311
 21
-2.77948106086156
 31
0.0
  0
LINE
  5
1B2
330
1AD
100
AcDbEntity
  8
치수문자_일반주서
 62
     0
370
    -2
100
AcDbLine
 10
68.28187280263111
 20
-2.77948106086156
 30
0.0
 11
102.8858728026311
 21
-2.77948106086156
 31
0.0
  0
LINE
  5
1B3
330
1AD
100
AcDbEntity
  8
치수문자_일반주서
 62
     0
370
    -2
100
AcDbLine
 10
68.28187280263111
 20
-2.77948106086156
 30
0.0
 11
62.3287478026311
 21
-2.77948106086156
 31
0.0
  0
LINE
  5
1B4
330
1AD
100
AcDbEntity
  8
치수문자_일반주서
 62
     0
370
    -2
100
AcDbLine
 10
71.5838728026311
 20
-2.77948106086156
 30
0.0
 11
74.8858728026311
 21
-2.77948106086156
 31
0.0
  0
LINE
  5
1B5
330
1AD
100
AcDbEntity
  8
치수문자_일반주서
 62
     0
370
    -2
100
AcDbLine
 10
59.0267478026311
 20
-2.77948106086156
 30
0.0
 11
55.7247478026311
 21
-2.77948106086156
 31
0.0
  0
SOLID
  5
1B6
330
1AD
100
AcDbEntity
  8
치수문자_일반주서
 62
     0
100
AcDbTrace
 10
71.5838728026311
 20
-2.229147727528227
 30
0.0
 11
71.5838728026311
 21
-3.329814394194893
 31
0.0
 12
68.28187280263111
 22
-2.77948106086156
 32
0.0
 13
68.28187280263111
 23
-2.77948106086156
 33
0.0
  0
SOLID
  5
1B7
330
1AD
100
AcDbEntity
  8
치수문자_일반주서
 62
     0
100
AcDbTrace
 10
59.0267478026311
 20
-3.329814394194893
 30
0.0
 11
59.0267478026311
 21
-2.229147727528227
 31
0.0
 12
62.3287478026311
 22
-2.77948106086156
 32
0.0
 13
62.3287478026311
 23
-2.77948106086156
 33
0.0
  0
MTEXT
  5
1B8
330
1AD
100
AcDbEntity
  8
치수문자_일반주서
 62
     0
100
AcDbMText
 10
88.88587280263111
 20
1.59551893913844
 30
0.0
 40
3.5
 41
0.0
 71
     2
 72
     1
  1
\A1;5.95 [15/64]
  7
SLDTEXTSTYLE0
 73
     1
 44
1.0
  0
POINT
  5
1B9
330
1AD
100
AcDbEntity
  8
Defpoints
 62
     0
100
AcDbPoint
 10
68.28187280263111
 20
-13.18365341829754
 30
0.0
  0
POINT
  5
1BA
330
1AD
100
AcDbEntity
  8
Defpoints
 62
     0
100
AcDbPoint
 10
62.3287478026311
 20
-13.23659288711242
 30
0.0
  0
POINT
  5
1BB
330
1AD
100
AcDbEntity
  8
Defpoints
 62
     0
100
AcDbPoint
 10
62.3287478026311
 20
-2.77948106086156
 30
0.0
  0
ENDBLK
  5
1AF
330
1AD
100
AcDbEntity
  8
0
100
AcDbBlockEnd
  0
ENDSEC
  0
SECTION
  2
ENTITIES
  0
LINE
  5
96
330
1F
100
AcDbEntity
  8
외형선
  6
Continuous
370
    15
100
AcDbLine
 10
15.08768467149221
 20
2.38125
 30
0.0
 11
-15.08768467149221
 21
2.381249999999997
 31
0.0
  0
LINE
  5
97
330
1F
100
AcDbEntity
  8
외형선
  6
Continuous
370
    15
100
AcDbLine
 10
-15.08768467149222
 20
-2.38125
 30
0.0
 11
15.08768467149221
 21
-2.381249999999998
 31
0.0
  0
LINE
  5
98
330
1F
100
AcDbEntity
  8
외형선
  6
Continuous
370
    15
100
AcDbLine
 10
15.08768467149221
 20
-2.381249999999999
 30
0.0
 11
18.05
 21
-1.587499999999999
 31
0.0
  0
LINE
  5
99
330
1F
100
AcDbEntity
  8
외형선
  6
Continuous
370
    15
100
AcDbLine
 10
18.05
 20
1.5875
 30
0.0
 11
15.08768467149221
 21
2.38125
 31
0.0
  0
LINE
  5
9C
330
1F
100
AcDbEntity
  8
외형선
  6
Continuous
370
    15
100
AcDbLine
 10
18.16004797477743
 20
1.5875
 30
0.0
 11
18.05
 21
1.5875
 31
0.0
  0
LINE
  5
9D
330
1F
100
AcDbEntity
  8
외형선
  6
Continuous
370
    15
100
AcDbLine
 10
18.05
 20
-1.587499999999999
 30
0.0
 11
18.16004797477743
 21
-1.587499999999999
 31
0.0
  0
SPLINE
  5
9E
330
1F
100
AcDbEntity
  8
외형선
  6
Continuous
370
    15
100
AcDbSpline
210
0.0
220
0.0
230
1.0
 70
     8
 71
     3
 72
     9
 73
     5
 74
     0
 42
0.000000001
 43
0.00000001
 40
0.0
 40
0.0
 40
0.0
 40
0.0
 40
0.4366873180895269
 40
1.0
 40
1.0
 40
1.0
 40
1.0
 10
19.05
 20
1.064092140547916
 30
0.0
 10
18.92000688333099
 20
1.057497509111745
 30
0.0
 10
18.62232680130406
 20
1.042396013916
 30
0.0
 10
18.3266298803203
 20
1.045586728143363
 30
0.0
 10
18.16006005472827
 20
1.047384097931989
 30
0.0
  0
ARC
  5
9F
330
1F
100
AcDbEntity
  8
외형선
  6
Continuous
370
    15
100
AcDbCircle
 10
18.51004092859799
 20
-1.39523198335505
 30
0.0
 40
0.3499929538805873
100
AcDbArc
 50
153.2698060081829
 51
179.9670247459056
  0
SPLINE
  5
A0
330
1F
100
AcDbEntity
  8
0
  6
Continuous
 62
     1
370
    15
100
AcDbSpline
210
0.0
220
0.0
230
1.0
 70
     8
 71
     3
 72
     9
 73
     5
 74
     0
 42
0.000000001
 43
0.00000001
 40
0.0
 40
0.0
 40
0.0
 40
0.0
 40
0.4806102673678178
 40
1.0
 40
1.0
 40
1.0
 40
1.0
 10
24.46145685935254
 20
0.406798660754562
 30
0.0
 10
24.39113930623127
 20
0.4404228806372408
 30
0.0
 10
24.24483041960181
 20
0.5103843903378769
 30
0.0
 10
24.0985019261408
 20
0.5871599285217692
 30
0.0
 10
24.02250040904562
 20
0.627036354771793
 30
0.0
1001
PE_URL
1000

  0
LINE
  5
A1
330
1F
100
AcDbEntity
  8
0
  6
Continuous
 62
     1
370
    15
100
AcDbLine
 10
20.8192081472743
 20
1.587500000000001
 30
0.0
 11
20.05007750891643
 21
1.587500000000001
 31
0.0
1001
PE_URL
1000

  0
SPLINE
  5
A2
330
1F
100
AcDbEntity
  8
0
  6
Continuous
 62
     1
370
    15
100
AcDbSpline
210
0.0
220
0.0
230
1.0
 70
     8
 71
     3
 72
    15
 73
    11
 74
     0
 42
0.000000001
 43
0.00000001
 40
0.0
 40
0.0
 40
0.0
 40
0.0
 40
0.2561778782150093
 40
0.4235803699956651
 40
0.5297000955721514
 40
0.6353525482793657
 40
0.7424598457376562
 40
0.8498500751722594
 40
0.9570208976438966
 40
1.0
 40
1.0
 40
1.0
 40
1.0
 10
23.93793702048183
 20
1.261495359913704
 30
0.0
 10
23.82519518868456
 20
1.256182082075407
 30
0.0
 10
23.63878086142326
 20
1.247396779424305
 30
0.0
 10
23.40634819752324
 20
1.241986242401142
 30
0.0
 10
23.23977422413452
 20
1.239933962594728
 30
0.0
 10
23.09966041386586
 20
1.239573461947454
 30
0.0
 10
22.95896656439663
 20
1.240479042715029
 30
0.0
 10
22.81761548573619
 20
1.242845357536229
 30
0.0
 10
22.70443682701778
 20
1.24541958845014
 30
0.0
 10
22.638496564027
 20
1.247945480343185
 30
0.0
 10
22.6196217406415
 20
1.248668494799144
 30
0.0
1001
PE_URL
1000

  0
SPLINE
  5
A3
330
1F
100
AcDbEntity
  8
0
  6
Continuous
 62
     1
370
    15
100
AcDbSpline
210
0.0
220
0.0
230
1.0
 70
     8
 71
     3
 72
    17
 73
    13
 74
     0
 42
0.000000001
 43
0.00000001
 40
0.0
 40
0.0
 40
0.0
 40
0.0
 40
0.1246756816412729
 40
0.2131567427548544
 40
0.2898774477514547
 40
0.3708154038807145
 40
0.4515887831945082
 40
0.6522366499648969
 40
0.6981126383462773
 40
0.764605079159608
 40
0.8648792595835864
 40
1.0
 40
1.0
 40
1.0
 40
1.0
 10
21.55057549162591
 20
-1.32099638381773
 30
0.0
 10
21.65009373496116
 20
-1.311453660952934
 30
0.0
 10
21.82023906173838
 20
-1.295138564888532
 30
0.0
 10
22.05051452422573
 20
-1.277833147326948
 30
0.0
 10
22.24587840054707
 20
-1.265309603271514
 30
0.0
 10
22.43573104932791
 20
-1.255399689403284
 30
0.0
 10
22.72384167425489
 20
-1.243862863651171
 30
0.0
 10
22.98445792683494
 20
-1.239375871251782
 30
0.0
 10
23.2336216941834
 20
-1.239907564537615
 30
0.0
 10
23.40258830595675
 20
-1.241841453214106
 30
0.0
 10
23.64254109720194
 20
-1.247509387422195
 30
0.0
 10
23.83021116691284
 20
-1.256394914356055
 30
0.0
 10
23.93793702048183
 20
-1.261495359913703
 30
0.0
1001
PE_URL
1000

  0
SPLINE
  5
A4
330
1F
100
AcDbEntity
  8
0
  6
Continuous
 62
     1
370
    15
100
AcDbSpline
210
0.0
220
0.0
230
1.0
 70
     8
 71
     3
 72
     9
 73
     5
 74
     0
 42
0.000000001
 43
0.00000001
 40
0.0
 40
0.0
 40
0.0
 40
0.0
 40
0.4986227459807924
 40
1.0
 40
1.0
 40
1.0
 40
1.0
 10
19.04999999999992
 20
-1.06409214054791
 30
0.0
 10
19.09914338943169
 20
-1.067218303000711
 30
0.0
 10
19.19770164781018
 20
-1.073487897554911
 30
0.0
 10
19.29674104813526
 20
-1.081676049111834
 30
0.0
 10
19.34639715070995
 20
-1.085781402054936
 30
0.0
1001
PE_URL
1000

  0
SPLINE
  5
A5
330
1F
100
AcDbEntity
  8
0
  6
Continuous
 62
     1
370
    15
100
AcDbSpline
210
0.0
220
0.0
230
1.0
 70
     8
 71
     3
 72
    23
 73
    19
 74
     0
 42
0.000000001
 43
0.00000001
 40
0.0
 40
0.0
 40
0.0
 40
0.0
 40
0.1125262675112593
 40
0.1926883430441992
 40
0.2447719314736633
 40
0.2945394131864523
 40
0.3460492479757108
 40
0.3975355761957146
 40
0.448780174819734
 40
0.5004140720275545
 40
0.5521996867056366
 40
0.6022783366194416
 40
0.6498705681975078
 40
0.6959596110267262
 40
0.7410624831522699
 40
0.7936689168140016
 40
0.8796134947579497
 40
1.0
 40
1.0
 40
1.0
 40
1.0
 10
27.98454602437251
 20
1.085775343113482
 30
0.0
 10
27.87979977069377
 20
1.077544825974997
 30
0.0
 10
27.70043381012438
 20
1.063451008194602
 30
0.0
 10
27.4737523156507
 20
1.052881523296618
 30
0.0
 10
27.30727116752151
 20
1.047701229687881
 30
0.0
 10
27.16620783515395
 20
1.045133981281439
 30
0.0
 10
27.02490013636643
 20
1.044374444797907
 30
0.0
 10
26.8823858668384
 20
1.045501850742076
 30
0.0
 10
26.73980743879028
 20
1.048547456020181
 30
0.0
 10
26.59681829806982
 20
1.053463914205489
 30
0.0
 10
26.45486496008802
 20
1.06018282265233
 30
0.0
 10
26.31665158625546
 20
1.068474861383182
 30
0.0
 10
26.18373965395796
 20
1.078067225904196
 30
0.0
 10
26.05550291150337
 20
1.088826589222643
 30
0.0
 10
25.92275351612388
 20
1.101524272547182
 30
0.0
 10
25.75312099077983
 20
1.119663262728056
 30
0.0
 10
25.51389045779674
 20
1.148518954965444
 30
0.0
 10
25.32276372122855
 20
1.177258015367055
 30
0.0
 10
25.21124838617348
 20
1.194026187143535
 30
0.0
1001
PE_URL
1000

  0
SPLINE
  5
A6
330
1F
100
AcDbEntity
  8
0
  6
Continuous
 62
     1
370
    15
100
AcDbSpline
210
0.0
220
0.0
230
1.0
 70
     8
 71
     3
 72
    14
 73
    10
 74
     0
 42
0.000000001
 43
0.00000001
 40
0.0
 40
0.0
 40
0.0
 40
0.0
 40
0.2774777999175825
 40
0.4755707037258883
 40
0.5968228112159963
 40
0.7007800255416134
 40
0.8070102560715688
 40
0.9167051731629664
 40
1.0
 40
1.0
 40
1.0
 40
1.0
 10
25.21124838617348
 20
-1.194026187143534
 30
0.0
 10
25.32276372297095
 20
-1.177258226991161
 30
0.0
 10
25.51389046252545
 20
-1.148519529293253
 30
0.0
 10
25.7531209799866
 20
-1.119661951833203
 30
0.0
 10
25.92275353838722
 20
-1.101526976548485
 30
0.0
 10
26.05550283976022
 20
-1.088817875634048
 30
0.0
 10
26.18373993381788
 20
-1.078101216385189
 30
0.0
 10
26.30376218107505
 20
-1.069287009209662
 30
0.0
 10
26.38119369506104
 20
-1.064815937524054
 30
0.0
 10
26.41461331839389
 20
-1.062886212481428
 30
0.0
1001
PE_URL
1000

  0
SPLINE
  5
A7
330
1F
100
AcDbEntity
  8
0
  6
Continuous
 62
     1
370
    15
100
AcDbSpline
210
0.0
220
0.0
230
1.0
 70
     8
 71
     3
 72
     9
 73
     5
 74
     0
 42
0.000000001
 43
0.00000001
 40
0.0
 40
0.0
 40
0.0
 40
0.0
 40
0.5013772540192076
 40
1.0
 40
1.0
 40
1.0
 40
1.0
 10
19.34639715070995
 20
1.085781402054937
 30
0.0
 10
19.29674104813526
 20
1.081676049111835
 30
0.0
 10
19.19770164781018
 20
1.073487897554912
 30
0.0
 10
19.09914338943169
 20
1.067218303000712
 30
0.0
 10
19.04999999999992
 20
1.064092140547911
 30
0.0
1001
PE_URL
1000

  0
LINE
  5
A8
330
1F
100
AcDbEntity
  8
0
  6
Continuous
 62
     1
370
    15
100
AcDbLine
 10
20.05007750891642
 20
-1.5875
 30
0.0
 11
20.81920814727431
 21
-1.5875
 31
0.0
1001
PE_URL
1000

  0
LINE
  5
A9
330
1F
100
AcDbEntity
  8
외형선
  6
Continuous
370
    15
100
AcDbLine
 10
15.08768467149221
 20
2.38125
 30
0.0
 11
15.08768467149221
 21
-2.381250000000001
 31
0.0
  0
LINE
  5
AB
330
1F
100
AcDbEntity
  8
외형선
  6
Continuous
370
    15
100
AcDbLine
 10
18.05
 20
1.5875
 30
0.0
 11
18.05
 21
-1.587499999999999
 31
0.0
  0
SPLINE
  5
AD
330
1F
100
AcDbEntity
  8
외형선
  6
Continuous
370
    15
100
AcDbSpline
210
0.0
220
0.0
230
1.0
 70
     8
 71
     3
 72
     8
 73
     4
 74
     0
 42
0.000000001
 43
0.00000001
 40
0.0
 40
0.0
 40
0.0
 40
0.0
 40
1.0
 40
1.0
 40
1.0
 40
1.0
 10
19.05
 20
1.483662624305114
 30
0.0
 10
18.75635102678262
 20
1.422931400264774
 30
0.0
 10
18.45430681906535
 20
1.335370569183874
 30
0.0
 10
18.16004797477743
 20
1.226964101768935
 30
0.0
  0
SPLINE
  5
AE
330
1F
100
AcDbEntity
  8
외형선
  6
Continuous
370
    15
100
AcDbSpline
210
0.0
220
0.0
230
1.0
 70
     8
 71
     3
 72
     8
 73
     4
 74
     0
 42
0.000000001
 43
0.00000001
 40
0.0
 40
0.0
 40
0.0
 40
0.0
 40
1.0
 40
1.0
 40
1.0
 40
1.0
 10
19.05
 20
-1.26999357111528
 30
0.0
 10
18.75636768264474
 20
-1.167563367890989
 30
0.0
 10
18.45433907004387
 20
-1.041708574802219
 30
0.0
 10
18.16009804604391
 20
-0.9010607330287294
 30
0.0
  0
LINE
  5
AF
330
1F
100
AcDbEntity
  8
외형선
  6
Continuous
370
    15
100
AcDbLine
 10
19.05
 20
-1.26999357111528
 30
0.0
 11
19.05
 21
-1.483662624305114
 31
0.0
  0
SPLINE
  5
B0
330
1F
100
AcDbEntity
  8
외형선
  6
Continuous
370
    15
100
AcDbSpline
210
0.0
220
0.0
230
1.0
 70
     8
 71
     3
 72
     8
 73
     4
 74
     0
 42
0.000000001
 43
0.00000001
 40
0.0
 40
0.0
 40
0.0
 40
0.0
 40
1.0
 40
1.0
 40
1.0
 40
1.0
 10
19.05
 20
-1.483662624305113
 30
0.0
 10
18.75635102678262
 20
-1.422931400264772
 30
0.0
 10
18.45430681906535
 20
-1.335370569183873
 30
0.0
 10
18.16004797477743
 20
-1.226964101768934
 30
0.0
  0
LINE
  5
B1
330
1F
100
AcDbEntity
  8
외형선
  6
Continuous
370
    15
100
AcDbLine
 10
18.16004797477743
 20
-1.587499999999999
 30
0.0
 11
18.16004797477743
 21
-1.22661988599587
 31
0.0
  0
LINE
  5
B2
330
1F
100
AcDbEntity
  8
외형선
  6
Continuous
370
    15
100
AcDbLine
 10
18.16004797477743
 20
-0.9010047179106022
 30
0.0
 11
18.16004797477743
 21
1.5875
 31
0.0
  0
SPLINE
  5
B3
330
1F
100
AcDbEntity
  8
외형선
  6
Continuous
370
    15
100
AcDbSpline
210
0.0
220
0.0
230
1.0
 70
     8
 71
     3
 72
     8
 73
     4
 74
     0
 42
0.000000001
 43
0.00000001
 40
0.0
 40
0.0
 40
0.0
 40
0.0
 40
1.0
 40
1.0
 40
1.0
 40
1.0
 10
19.04999999999998
 20
-1.028733898204998
 30
0.0
 10
18.75636768264473
 20
-0.9348297869370656
 30
0.0
 10
18.45433907004386
 20
-0.8218510739607543
 30
0.0
 10
18.16009804604391
 20
-0.6975501586593087
 30
0.0
  0
SPLINE
  5
B4
330
1F
100
AcDbEntity
  8
외형선
  6
Continuous
370
    15
100
AcDbSpline
210
0.0
220
0.0
230
1.0
 70
     8
 71
     3
 72
     8
 73
     4
 74
     0
 42
0.000000001
 43
0.00000001
 40
0.0
 40
0.0
 40
0.0
 40
0.0
 40
1.0
 40
1.0
 40
1.0
 40
1.0
 10
19.05
 20
0.4025998071203749
 30
0.0
 10
18.75635711595804
 20
0.5321328442318434
 30
0.0
 10
18.45431860964497
 20
0.6557207306040218
 30
0.0
 10
18.16006628023015
 20
0.7648288532026056
 30
0.0
  0
SPLINE
  5
B5
330
1F
100
AcDbEntity
  8
외형선
  6
Continuous
370
    15
100
AcDbSpline
210
0.0
220
0.0
230
1.0
 70
    24
 71
     3
 72
    10
 73
     6
 74
     0
 42
0.000000001
 43
0.00000001
 40
0.0
 40
0.0
 40
0.0
 40
0.0
 40
0.5
 40
0.5
 40
1.0
 40
1.0
 40
1.0
 40
1.0
 10
19.05
 20
0.4025998071203732
 30
0.0
 10
19.05
 20
0.1629524061890458
 30
0.0
 10
19.05
 20
-0.0994395948683161
 30
0.0
 10
19.05
 20
-0.5997616510978054
 30
0.0
 10
19.05
 20
-0.8355381245502997
 30
0.0
 10
19.05
 20
-1.028733898205003
 30
0.0
  0
SPLINE
  5
B6
330
1F
100
AcDbEntity
  8
외형선
  6
Continuous
370
    15
100
AcDbSpline
210
0.0
220
0.0
230
1.0
 70
    24
 71
     3
 72
     8
 73
     4
 74
     0
 42
0.000000001
 43
0.00000001
 40
0.0
 40
0.0
 40
0.0
 40
0.0
 40
1.0
 40
1.0
 40
1.0
 40
1.0
 10
19.05
 20
-1.028733898205004
 30
0.0
 10
19.05
 20
-1.106609660428162
 30
0.0
 10
19.05
 20
-1.187535123394707
 30
0.0
 10
19.05
 20
-1.269993571114861
 30
0.0
  0
SPLINE
  5
B7
330
1F
100
AcDbEntity
  8
외형선
  6
Continuous
370
    15
100
AcDbSpline
210
0.0
220
0.0
230
1.0
 70
    24
 71
     3
 72
    13
 73
     9
 74
     0
 42
0.000000001
 43
0.00000001
 40
0.0
 40
0.0
 40
0.0
 40
0.0
 40
0.0591431213761746
 40
0.2502573303838772
 40
0.4359854124301293
 40
0.6270996214378417
 40
0.813549810718921
 40
1.0
 40
1.0
 40
1.0
 40
1.0
 10
19.05
 20
1.058856583839427
 30
0.0
 10
19.05
 20
1.060161326782831
 30
0.0
 10
19.05
 20
1.065682196805512
 30
0.0
 10
19.05
 20
1.024931725876844
 30
0.0
 10
19.05
 20
0.9364971993579249
 30
0.0
 10
19.05
 20
0.7989965142901169
 30
0.0
 10
19.05
 20
0.6221217392856335
 30
0.0
 10
19.05
 20
0.475773784508793
 30
0.0
 10
19.05
 20
0.4025998071203727
 30
0.0
  0
SPLINE
  5
B8
330
1F
100
AcDbEntity
  8
외형선
  6
Continuous
370
    15
100
AcDbSpline
210
0.0
220
0.0
230
1.0
 70
    24
 71
     3
 72
    10
 73
     6
 74
     0
 42
0.000000001
 43
0.00000001
 40
0.0
 40
0.0
 40
0.0
 40
0.0
 40
0.4999999999999999
 40
0.4999999999999999
 40
1.0
 40
1.0
 40
1.0
 40
1.0
 10
19.05
 20
1.483662624305104
 30
0.0
 10
19.05
 20
1.401810142460643
 30
0.0
 10
19.05
 20
1.319160190886575
 30
0.0
 10
19.05
 20
1.170832093560165
 30
0.0
 10
19.05
 20
1.105493175026517
 30
0.0
 10
19.05
 20
1.053935010226744
 30
0.0
  0
SPLINE
  5
B9
330
1F
100
AcDbEntity
  8
0
  6
Continuous
 62
     1
370
    15
100
AcDbSpline
210
0.0
220
0.0
230
1.0
 70
     8
 71
     3
 72
    38
 73
    34
 74
     0
 42
0.000000001
 43
0.00000001
 40
0.0
 40
0.0
 40
0.0
 40
0.0
 40
0.0625
 40
0.0625
 40
0.1250000000000001
 40
0.1250000000000001
 40
0.1875000000000001
 40
0.1875000000000001
 40
0.2500000000000002
 40
0.2500000000000002
 40
0.3125000000000002
 40
0.3125000000000002
 40
0.3750000000000002
 40
0.3750000000000002
 40
0.4375000000000003
 40
0.4375000000000003
 40
0.5000000000000003
 40
0.5000000000000003
 40
0.5625000000000003
 40
0.5625000000000003
 40
0.6250000000000004
 40
0.6250000000000004
 40
0.6875000000000004
 40
0.6875000000000004
 40
0.7500000000000003
 40
0.7500000000000003
 40
0.8125000000000003
 40
0.8125000000000003
 40
0.8750000000000002
 40
0.8750000000000002
 40
0.9375000000000002
 40
0.9375000000000002
 40
1.0
 40
1.0
 40
1.0
 40
1.0
 10
28.57500000000001
 20
-1.586158269177059
 30
0.0
 10
28.37900017442153
 20
-1.581468119098027
 30
0.0
 10
28.17794627196325
 20
-1.564302173387232
 30
0.0
 10
27.77966273521353
 20
-1.505827503480508
 30
0.0
 10
27.58440683559761
 20
-1.464819891069906
 30
0.0
 10
27.18550148072985
 20
-1.360037182869542
 30
0.0
 10
26.98651114337179
 20
-1.296556515398501
 30
0.0
 10
26.59267549020946
 20
-1.15096957638177
 30
0.0
 10
26.39137099838352
 20
-1.068017963315923
 30
0.0
 10
25.99397764047933
 20
-0.8874140850266258
 30
0.0
 10
25.79826993103544
 20
-0.7899464117528175
 30
0.0
 10
25.39901252056273
 20
-0.5829220931530441
 30
0.0
 10
25.20164230656635
 20
-0.4744178822334367
 30
0.0
 10
24.80622906305058
 20
-0.2516224952184725
 30
0.0
 10
24.60481300927144
 20
-0.1366767953232881
 30
0.0
 10
24.20857618883168
 20
0.0923187916355375
 30
0.0
 10
24.01196587517373
 20
0.2067018184709013
 30
0.0
 10
23.61262696644496
 20
0.4316269274518802
 30
0.0
 10
23.41642981071707
 20
0.5409348979546431
 30
0.0
 10
23.01970090161939
 20
0.7502463018051331
 30
0.0
 10
22.81831257293428
 20
0.8503204502744967
 30
0.0
 10
22.42349605558131
 20
1.03440268454109
 30
0.0
 10
22.22553436942654
 20
1.119173217800035
 30
0.0
 10
21.82638470391126
 20
1.270343783585556
 30
0.0
 10
21.63091091115412
 20
1.336081947643286
 30
0.0
 10
21.23313120424636
 20
1.446512821648461
 30
0.0
 10
21.03190982316238
 20
1.490923864838664
 30
0.0
 10
20.63877420280109
 20
1.555314526333399
 30
0.0
 10
20.43901540310864
 20
1.575763126083853
 30
0.0
 10
20.04032529480903
 20
1.59163459302591
 30
0.0
 10
19.84512354501332
 20
1.587169955946421
 30
0.0
 10
19.44656026718235
 20
1.553533779720712
 30
0.0
 10
19.24638056842728
 20
1.524277213103617
 30
0.0
 10
19.05000000000001
 20
1.483662624305116
 30
0.0
1001
PE_URL
1000

  0
SPLINE
  5
BA
330
1F
100
AcDbEntity
  8
0
  6
Continuous
 62
     1
370
    15
100
AcDbSpline
210
0.0
220
0.0
230
1.0
 70
     8
 71
     3
 72
    14
 73
    10
 74
     0
 42
0.000000001
 43
0.00000001
 40
0.0
 40
0.0
 40
0.0
 40
0.0
 40
0.0745558422928192
 40
0.2387449256029197
 40
0.40293424362856
 40
0.5671237940713523
 40
0.7313135746303783
 40
0.8934209736013898
 40
1.0
 40
1.0
 40
1.0
 40
1.0
 10
24.62957126787172
 20
-0.1485134530456363
 30
0.0
 10
24.49820275091876
 20
-0.0963708847725541
 30
0.0
 10
24.07753059643729
 20
0.0706015911631269
 30
0.0
 10
23.36755427500684
 20
0.3593936393414831
 30
0.0
 10
22.49964177825807
 20
0.6733171844356163
 30
0.0
 10
21.63172830631211
 20
0.922715455462551
 30
0.0
 10
20.76748164901906
 20
1.075849699395293
 30
0.0
 10
20.00475038735204
 20
1.131847747188527
 30
0.0
 10
19.53132179792713
 20
1.090103601437656
 30
0.0
 10
19.34352832060217
 20
1.073545078222912
 30
0.0
1001
PE_URL
1000

  0
SPLINE
  5
BB
330
1F
100
AcDbEntity
  8
외형선
  6
Continuous
370
    15
100
AcDbSpline
210
0.0
220
0.0
230
1.0
 70
    24
 71
     3
 72
    10
 73
     6
 74
     0
 42
0.000000001
 43
0.00000001
 40
0.0
 40
0.0
 40
0.0
 40
0.0
 40
0.5
 40
0.5
 40
1.0
 40
1.0
 40
1.0
 40
1.0
 10
19.05
 20
1.483662624305103
 30
0.0
 10
19.05
 20
1.401810142460643
 30
0.0
 10
19.05
 20
1.319160190886575
 30
0.0
 10
19.05
 20
1.170832093560165
 30
0.0
 10
19.05
 20
1.105493175026517
 30
0.0
 10
19.05
 20
1.053935010226744
 30
0.0
  0
SPLINE
  5
BC
330
1F
100
AcDbEntity
  8
0
  6
Continuous
 62
     1
370
    15
100
AcDbSpline
210
0.0
220
0.0
230
1.0
 70
     8
 71
     3
 72
    17
 73
    13
 74
     0
 42
0.000000001
 43
0.00000001
 40
0.0
 40
0.0
 40
0.0
 40
0.0
 40
0.0983465750624046
 40
0.1966203526923269
 40
0.2948434820249751
 40
0.393038440200057
 40
0.4912278875687598
 40
0.589434520386364
 40
0.6876809230109519
 40
0.7957505084111172
 40
0.9038243731977342
 40
0.9999999999999999
 40
0.9999999999999999
 40
0.9999999999999999
 40
0.9999999999999999
 10
28.57500000000001
 20
-1.506443629905641
 30
0.0
 10
28.32070214024121
 20
-1.448963528227368
 30
0.0
 10
27.81229465535471
 20
-1.334045872400499
 30
0.0
 10
27.05006015113727
 20
-1.028969661572922
 30
0.0
 10
26.28828595806496
 20
-0.6536792438791725
 30
0.0
 10
25.52677570432269
 20
-0.2263670834113405
 30
0.0
 10
24.76531835337689
 20
0.2176705170485507
 30
0.0
 10
24.00369239820278
 20
0.6450742209176774
 30
0.0
 10
23.21649827825355
 20
1.036638270435602
 30
0.0
 10
22.40354760692581
 20
1.349875514753658
 30
0.0
 10
21.59601379625139
 20
1.554159050013996
 30
0.0
 10
21.0678883195382
 20
1.571937735713578
 30
0.0
 10
20.81920814727431
 20
1.58030924365505
 30
0.0
1001
PE_URL
1000

  0
SPLINE
  5
BD
330
1F
100
AcDbEntity
  8
0
  6
Continuous
 62
     1
370
    15
100
AcDbSpline
210
0.0
220
0.0
230
1.0
 70
     8
 71
     3
 72
    14
 73
    10
 74
     0
 42
0.000000001
 43
0.00000001
 40
0.0
 40
0.0
 40
0.0
 40
0.0
 40
0.158006618803089
 40
0.3155965841092762
 40
0.4731747096973857
 40
0.6311461441184604
 40
0.789186533404212
 40
0.9467897125701419
 40
1.0
 40
1.0
 40
1.0
 40
1.0
 10
28.57500000000001
 20
-1.252493469684543
 30
0.0
 10
28.35765553346942
 20
-1.206091547668067
 30
0.0
 10
27.9235397240704
 20
-1.11341006257943
 30
0.0
 10
27.27305148265035
 20
-0.8932163069193063
 30
0.0
 10
26.62261147234061
 20
-0.628240726490791
 30
0.0
 10
25.97121366322977
 20
-0.3267582592845278
 30
0.0
 10
25.31968919479786
 20
-0.0092972130713067
 30
0.0
 10
24.81263276677106
 20
0.2440576979981764
 30
0.0
 10
24.52279553033457
 20
0.3765024297299168
 30
0.0
 10
24.44963928036771
 20
0.4099320884600633
 30
0.0
1001
PE_URL
1000

  0
LINE
  5
BE
330
1F
100
AcDbEntity
  8
0
  6
Continuous
 62
     1
370
    15
100
AcDbLine
 10
28.57500000000001
 20
-1.506443629905641
 30
0.0
 11
28.57500000000001
 21
-1.252493469684543
 31
0.0
1001
PE_URL
1000

  0
LINE
  5
BF
330
1F
100
AcDbEntity
  8
0
  6
Continuous
 62
     1
370
    15
100
AcDbLine
 10
28.57500000000001
 20
-1.58615826917706
 30
0.0
 11
28.57500000000001
 21
-1.506443629905641
 31
0.0
1001
PE_URL
1000

  0
SPLINE
  5
C0
330
1F
100
AcDbEntity
  8
0
  6
Continuous
 62
     1
370
    15
100
AcDbSpline
210
0.0
220
0.0
230
1.0
 70
     8
 71
     3
 72
     8
 73
     4
 74
     0
 42
0.000000001
 43
0.00000001
 40
0.0
 40
0.0
 40
0.0
 40
0.0
 40
1.0
 40
1.0
 40
1.0
 40
1.0
 10
27.59220542367653
 20
0.4445952940611994
 30
0.0
 10
27.53598835895934
 20
0.511194162703622
 30
0.0
 10
27.48580531521135
 20
0.575312387012588
 30
0.0
 10
27.44308004190775
 20
0.6363646498196529
 30
0.0
1001
PE_URL
1000

  0
LINE
  5
C1
330
1F
100
AcDbEntity
  8
0
  6
Continuous
 62
     1
370
    15
100
AcDbLine
 10
27.46318878093834
 20
0.653237885323652
 30
0.0
 11
28.57500000000001
 21
0.0000000000000018
 31
0.0
1001
PE_URL
1000

  0
LINE
  5
C2
330
1F
100
AcDbEntity
  8
0
  6
Continuous
 62
     1
370
    15
100
AcDbLine
 10
28.57500000000001
 20
0.0000000000000018
 30
0.0
 11
28.57500000000001
 21
-0.4242481768220594
 31
0.0
1001
PE_URL
1000

  0
SPLINE
  5
C3
330
1F
100
AcDbEntity
  8
0
  6
Continuous
 62
     1
370
    15
100
AcDbSpline
210
0.0
220
0.0
230
1.0
 70
     8
 71
     3
 72
    10
 73
     6
 74
     0
 42
0.000000001
 43
0.00000001
 40
0.0
 40
0.0
 40
0.0
 40
0.0
 40
0.5
 40
0.5
 40
1.0
 40
1.0
 40
1.0
 40
1.0
 10
28.57500000000001
 20
-0.4242481768220593
 30
0.0
 10
28.40486692683486
 20
-0.2904929793873587
 30
0.0
 10
28.23757873071863
 20
-0.1512488725093305
 30
0.0
 10
27.90882815368846
 20
0.1384796766034573
 30
0.0
 10
27.74583634149637
 20
0.2904950568623476
 30
0.0
 10
27.59220542367653
 20
0.4445952940612005
 30
0.0
1001
PE_URL
1000

  0
SPLINE
  5
C4
330
1F
100
AcDbEntity
  8
0
  6
Continuous
 62
     1
370
    15
100
AcDbSpline
210
0.0
220
0.0
230
1.0
 70
     8
 71
     3
 72
    12
 73
     8
 74
     0
 42
0.000000001
 43
0.00000001
 40
0.0
 40
0.0
 40
0.0
 40
0.0
 40
0.2216322041801748
 40
0.443314817433622
 40
0.6806764249269033
 40
0.9180383693105743
 40
1.0
 40
1.0
 40
1.0
 40
1.0
 10
27.59220542367653
 20
0.4445952940611978
 30
0.0
 10
27.32208869643674
 20
0.5575862819995895
 30
0.0
 10
26.78179380533544
 20
0.7835939570792988
 30
0.0
 10
25.95217750221616
 20
1.052832071834406
 30
0.0
 10
25.10337643218376
 20
1.225269153274861
 30
0.0
 10
24.42487442569433
 20
1.292285212985472
 30
0.0
 10
24.03567424105962
 20
1.256471723098948
 30
0.0
 10
23.93577719528095
 20
1.247279379467236
 30
0.0
1001
PE_URL
1000

  0
SPLINE
  5
C5
330
1F
100
AcDbEntity
  8
0
  6
Continuous
 62
     1
370
    15
100
AcDbSpline
210
0.0
220
0.0
230
1.0
 70
    24
 71
     3
 72
    10
 73
     6
 74
     0
 42
0.000000001
 43
0.00000001
 40
0.0
 40
0.0
 40
0.0
 40
0.0
 40
0.5
 40
0.5
 40
1.0
 40
1.0
 40
1.0
 40
1.0
 10
28.57500000000001
 20
-1.252493469684542
 30
0.0
 10
28.57500000000001
 20
-1.15648008004354
 30
0.0
 10
28.57500000000001
 20
-1.035163480701518
 30
0.0
 10
28.575
 20
-0.7531140626517033
 30
0.0
 10
28.57500000000001
 20
-0.5926255658439533
 30
0.0
 10
28.57500000000001
 20
-0.4242481768221104
 30
0.0
1001
PE_URL
1000

  0
SPLINE
  5
C6
330
1F
100
AcDbEntity
  8
0
  6
Continuous
 62
     1
370
    15
100
AcDbSpline
210
0.0
220
0.0
230
1.0
 70
     8
 71
     3
 72
    12
 73
     8
 74
     0
 42
0.000000001
 43
0.00000001
 40
0.0
 40
0.0
 40
0.0
 40
0.0
 40
0.0547023373454709
 40
0.3150378575410878
 40
0.5756872029679129
 40
0.8355753402848303
 40
1.0
 40
1.0
 40
1.0
 40
1.0
 10
21.55217792024716
 20
-1.314748187506293
 30
0.0
 10
21.5065631624208
 20
-1.321209758611022
 30
0.0
 10
21.24386185430091
 20
-1.358422784890453
 30
0.0
 10
20.76360692832731
 20
-1.353810470383154
 30
0.0
 10
20.1120183973067
 20
-1.29465179815615
 30
0.0
 10
19.54082079060065
 20
-1.176373063818138
 30
0.0
 10
19.18707815011722
 20
-1.069967081669649
 30
0.0
 10
19.04999999999998
 20
-1.028733898204997
 30
0.0
1001
PE_URL
1000

  0
SPLINE
  5
C7
330
1F
100
AcDbEntity
  8
0
  6
Continuous
 62
     1
370
    15
100
AcDbSpline
210
0.0
220
0.0
230
1.0
 70
     8
 71
     3
 72
    15
 73
    11
 74
     0
 42
0.000000001
 43
0.00000001
 40
0.0
 40
0.0
 40
0.0
 40
0.0
 40
0.0181019116907707
 40
0.1588824627301479
 40
0.2996632116659271
 40
0.4404441565810011
 40
0.5812252955561423
 40
0.722006626670022
 40
0.8610030371277214
 40
0.9999999999999999
 40
0.9999999999999999
 40
0.9999999999999999
 40
0.9999999999999999
 10
25.21497534101203
 20
-1.187105081816392
 30
0.0
 10
25.17777604588778
 20
-1.195050667221847
 30
0.0
 10
24.85127375584618
 20
-1.264789941096173
 30
0.0
 10
24.2354679025275
 20
-1.284150099726329
 30
0.0
 10
23.36755740877772
 20
-1.226321980882142
 30
0.0
 10
22.49964540353094
 20
-1.036170295929383
 30
0.0
 10
21.63173252215368
 20
-0.7464309037217358
 30
0.0
 10
20.76748492890468
 20
-0.3844094314774937
 30
0.0
 10
19.90691016448129
 20
0.0158748878383982
 30
0.0
 10
19.33563709989555
 20
0.2736913299197204
 30
0.0
 10
19.05
 20
0.4025998071203749
 30
0.0
1001
PE_URL
1000

  0
SPLINE
  5
C8
330
1F
100
AcDbEntity
  8
외형선
  6
Continuous
370
    15
100
AcDbSpline
210
0.0
220
0.0
230
1.0
 70
    24
 71
     3
 72
    10
 73
     6
 74
     0
 42
0.000000001
 43
0.00000001
 40
0.0
 40
0.0
 40
0.0
 40
0.0
 40
0.5
 40
0.5
 40
1.0
 40
1.0
 40
1.0
 40
1.0
 10
19.05
 20
0.4025998071203732
 30
0.0
 10
19.05
 20
0.1629524061890458
 30
0.0
 10
19.05
 20
-0.0994395948683161
 30
0.0
 10
19.05
 20
-0.5997616510978054
 30
0.0
 10
19.05
 20
-0.8355381245502997
 30
0.0
 10
19.05
 20
-1.028733898205003
 30
0.0
  0
SPLINE
  5
C9
330
1F
100
AcDbEntity
  8
0
  6
Continuous
 62
     1
370
    15
100
AcDbSpline
210
0.0
220
0.0
230
1.0
 70
    24
 71
     3
 72
     8
 73
     4
 74
     0
 42
0.000000001
 43
0.00000001
 40
0.0
 40
0.0
 40
0.0
 40
0.0
 40
1.0
 40
1.0
 40
1.0
 40
1.0
 10
27.60890102197992
 20
0.7755049730396688
 30
0.0
 10
27.55657355845531
 20
0.7315970176957277
 30
0.0
 10
27.50093116363164
 20
0.6849075047213325
 30
0.0
 10
27.44308004190777
 20
0.6363646498196425
 30
0.0
1001
PE_URL
1000

  0
LINE
  5
CA
330
1F
100
AcDbEntity
  8
0
  6
Continuous
 62
     1
370
    15
100
AcDbLine
 10
28.57500000000001
 20
1.11125
 30
0.0
 11
27.98149374697593
 21
1.073704797117714
 31
0.0
1001
PE_URL
1000

  0
SPLINE
  5
CB
330
1F
100
AcDbEntity
  8
0
  6
Continuous
 62
     1
370
    15
100
AcDbSpline
210
0.0
220
0.0
230
1.0
 70
     8
 71
     3
 72
     8
 73
     4
 74
     0
 42
0.000000001
 43
0.00000001
 40
0.0
 40
0.0
 40
0.0
 40
0.0
 40
1.0
 40
1.0
 40
1.0
 40
1.0
 10
28.57500000000001
 20
1.111250000000002
 30
0.0
 10
28.2484891193413
 20
1.022562296472512
 30
0.0
 10
27.92510172563279
 20
0.9136763805407353
 30
0.0
 10
27.60890102198985
 20
0.77550497304402
 30
0.0
1001
PE_URL
1000

  0
SPLINE
  5
CC
330
1F
100
AcDbEntity
  8
외형선
  6
Continuous
370
    15
100
AcDbSpline
210
0.0
220
0.0
230
1.0
 70
    24
 71
     3
 72
    13
 73
     9
 74
     0
 42
0.000000001
 43
0.00000001
 40
0.0
 40
0.0
 40
0.0
 40
0.0
 40
0.0608116810591197
 40
0.2515869591717699
 40
0.4369856623329508
 40
0.6277609404456107
 40
0.8138804702228052
 40
1.0
 40
1.0
 40
1.0
 40
1.0
 10
19.05
 20
1.058787510422942
 30
0.0
 10
19.05
 20
1.060143613788434
 30
0.0
 10
19.05
 20
1.065754014884155
 30
0.0
 10
19.05
 20
1.024966079542505
 30
0.0
 10
19.05
 20
0.9364878070218509
 30
0.0
 10
19.05
 20
0.7989989801657142
 30
0.0
 10
19.05
 20
0.6221211291758133
 30
0.0
 10
19.05
 20
0.4757735811388525
 30
0.0
 10
19.05
 20
0.402599807120372
 30
0.0
  0
SPLINE
  5
CD
330
1F
100
AcDbEntity
  8
0
  6
Continuous
 62
     1
370
    15
100
AcDbSpline
210
0.0
220
0.0
230
1.0
 70
     8
 71
     3
 72
    12
 73
     8
 74
     0
 42
0.000000001
 43
0.00000001
 40
0.0
 40
0.0
 40
0.0
 40
0.0
 40
0.0606894588832785
 40
0.295501253462752
 40
0.5303231055450265
 40
0.7651557706850343
 40
1.0
 40
1.0
 40
1.0
 40
1.0
 10
22.62024109637005
 20
-1.24843139105957
 30
0.0
 10
22.54801726164497
 20
-1.277001057403481
 30
0.0
 10
22.19635431911991
 20
-1.416108776783138
 30
0.0
 10
21.56523384546005
 20
-1.548240588994022
 30
0.0
 10
20.72686570101754
 20
-1.611417053841288
 30
0.0
 10
19.88845138707512
 20
-1.525662994362824
 30
0.0
 10
19.32948838320432
 20
-1.355218111070436
 30
0.0
 10
19.05000000000007
 20
-1.269993571115304
 30
0.0
1001
PE_URL
1000

  0
SPLINE
  5
CE
330
1F
100
AcDbEntity
  8
외형선
  6
Continuous
370
    15
100
AcDbSpline
210
0.0
220
0.0
230
1.0
 70
    24
 71
     3
 72
     8
 73
     4
 74
     0
 42
0.000000001
 43
0.00000001
 40
0.0
 40
0.0
 40
0.0
 40
0.0
 40
1.0
 40
1.0
 40
1.0
 40
1.0
 10
19.05
 20
-1.028733898205004
 30
0.0
 10
19.05
 20
-1.106609660428162
 30
0.0
 10
19.05
 20
-1.187535123394707
 30
0.0
 10
19.05
 20
-1.26999357111486
 30
0.0
  0
SPLINE
  5
CF
330
1F
100
AcDbEntity
  8
0
  6
Continuous
 62
     1
370
    15
100
AcDbSpline
210
0.0
220
0.0
230
1.0
 70
     8
 71
     3
 72
     9
 73
     5
 74
     0
 42
0.000000001
 43
0.00000001
 40
0.0
 40
0.0
 40
0.0
 40
0.0
 40
0.7626118931554402
 40
1.0
 40
1.0
 40
1.0
 40
1.0
 10
19.05
 20
-1.483662624305115
 30
0.0
 10
19.30424529719225
 20
-1.531646640021784
 30
0.0
 10
19.63763282953227
 20
-1.594567263404835
 30
0.0
 10
19.97095159759116
 20
-1.578313140620738
 30
0.0
 10
20.05007750891642
 20
-1.574454605184602
 30
0.0
1001
PE_URL
1000

  0
SPLINE
  5
D0
330
1F
100
AcDbEntity
  8
0
  6
Continuous
 62
     1
370
    15
100
AcDbSpline
210
0.0
220
0.0
230
1.0
 70
     8
 71
     3
 72
    10
 73
     6
 74
     0
 42
0.000000001
 43
0.00000001
 40
0.0
 40
0.0
 40
0.0
 40
0.0
 40
0.2237666664107125
 40
0.6118732179573078
 40
1.0
 40
1.0
 40
1.0
 40
1.0
 10
26.41461331839389
 20
1.062886212481429
 30
0.0
 10
26.57575206297579
 20
1.132702088772653
 30
0.0
 10
27.01637391146847
 20
1.323608382261482
 30
0.0
 10
27.73650182700448
 20
1.520792552868519
 30
0.0
 10
28.29549575276221
 20
1.564369318502655
 30
0.0
 10
28.57500000000001
 20
1.58615826917706
 30
0.0
1001
PE_URL
1000

  0
LINE
  5
D1
330
1F
100
AcDbEntity
  8
0
  6
Continuous
 62
     1
370
    15
100
AcDbLine
 10
28.57500000000001
 20
0.0000000000000018
 30
0.0
 11
28.57500000000001
 21
1.111250000000002
 31
0.0
1001
PE_URL
1000

  0
SPLINE
  5
D2
330
1F
100
AcDbEntity
  8
0
  6
Continuous
 62
     1
370
    15
100
AcDbSpline
210
0.0
220
0.0
230
1.0
 70
    24
 71
     3
 72
    10
 73
     6
 74
     0
 42
0.000000001
 43
0.00000001
 40
0.0
 40
0.0
 40
0.0
 40
0.0
 40
0.5
 40
0.5
 40
1.0
 40
1.0
 40
1.0
 40
1.0
 10
28.57500000000001
 20
1.11125
 30
0.0
 10
28.57500000000001
 20
1.178611207681611
 30
0.0
 10
28.575
 20
1.256891169326549
 30
0.0
 10
28.575
 20
1.421122318025358
 30
0.0
 10
28.57500000000001
 20
1.506654079334838
 30
0.0
 10
28.57500000000001
 20
1.586158269177061
 30
0.0
1001
PE_URL
1000

  0
LINE
  5
D3
330
1F
100
AcDbEntity
  8
중심선
 62
     1
100
AcDbLine
 10
-31.575
 20
-0.0000000000000039
 30
0.0
 11
31.575
 21
0.0000000000000039
 31
0.0
  0
LINE
  5
D4
330
1F
100
AcDbEntity
  8
참조1
100
AcDbLine
 10
-0.0000000000000018
 20
-0.0000000000000039
 30
0.0
 11
0.0000000000000089
 21
-40.00000000000001
 31
0.0
  0
LINE
  5
D5
330
1F
100
AcDbEntity
  8
참조1
100
AcDbLine
 10
0.0000000000000089
 20
-40.00000000000001
 30
0.0
 11
-20.81571559669922
 21
-39.99999999999999
 31
0.0
  0
CIRCLE
  5
D6
330
1F
100
AcDbEntity
  8
해칭선
100
AcDbCircle
 10
0.0
 20
0.0
 30
0.0
 40
3.000000000000001
  0
INSERT
  5
D7
330
1F
100
AcDbEntity
  8
0
  6
Continuous
 62
     7
100
AcDbBlockReference
 66
     1
  2
블럭10
 10
-13.9402729321252
 20
-52.04717430164393
 30
0.0
  0
ATTRIB
  5
D8
330
D7
100
AcDbEntity
  8
FORMAT
 62
     2
100
AcDbText
 10
-23.12156822086648
 20
-49.97180738881174
 30
0.0
 40
4.233333333333333
  1
E2003008 [ 2 FLUTE ]
 41
0.75
  7
SLDTEXTSTYLE0
 11
-23.12156822086648
 21
-52.08847405547841
 31
0.0
100
AcDbAttribute
  2
AUTOATTR0
 70
     0
 74
     1
  0
SEQEND
  5
D9
330
D7
100
AcDbEntity
  8
0
  6
Continuous
 62
     7
  0
HATCH
  5
DA
330
1F
100
AcDbEntity
  8
중심선
100
AcDbHatch
 10
0.0
 20
0.0
 30
0.0
210
0.0
220
0.0
230
1.0
  2
SOLID
 70
     1
 71
     0
 91
        1
 92
        0
 93
        4
 72
     1
 10
-8.225363627744361
 20
-35.8
 11
-11.67163887158164
 21
-35.8
 72
     1
 10
-11.67163887158164
 20
-35.8
 11
-13.79986873078566
 21
-38.3363255805726
 72
     1
 10
-13.79986873078567
 20
-38.3363255805726
 11
-10.35356040183524
 21
-38.3362861512701
 72
     1
 10
-10.35356040183524
 20
-38.3362861512701
 11
-8.225363627744361
 21
-35.8
 97
        0
 75
     0
 76
     1
 98
        1
 10
8.644211678730509
 20
-0.0010749287238931
  0
HATCH
  5
DB
330
1F
100
AcDbEntity
  8
중심선
100
AcDbHatch
 10
0.0
 20
0.0
 30
0.0
210
0.0
220
0.0
230
1.0
  2
SOLID
 70
     1
 71
     0
 91
        1
 92
        0
 93
        4
 72
     1
 10
-3.212599636708411
 20
-35.8
 11
-6.658874880545692
 21
-35.8
 72
     1
 10
-6.658874880545692
 20
-35.8
 11
-11.19001288890308
 21
-41.20000000000002
 72
     1
 10
-11.19001288890308
 20
-41.20000000000002
 11
-7.743737645065803
 21
-41.20000000000002
 72
     1
 10
-7.743737645065803
 20
-41.20000000000002
 11
-3.212599636708411
 21
-35.8
 97
        0
 75
     0
 76
     1
 98
        1
 10
8.644211678730509
 20
-0.0010749287238931
  0
HATCH
  5
DC
330
1F
100
AcDbEntity
  8
중심선
100
AcDbHatch
 10
0.0
 20
0.0
 30
0.0
210
0.0
220
0.0
230
1.0
  2
SOLID
 70
     1
 71
     0
 91
        1
 92
        0
 93
        4
 72
     1
 10
1.800164354327489
 20
-35.8
 11
-1.646110889509602
 21
-35.8
 72
     1
 10
-1.646110889509602
 20
-35.8
 11
-8.694547791398882
 21
-44.20000000000002
 72
     1
 10
-8.694547791398882
 20
-44.20000000000002
 11
-5.248272547561601
 21
-44.20000000000002
 72
     1
 10
-5.248272547561601
 20
-44.20000000000002
 11
1.800164354327489
 21
-35.8
 97
        0
 75
     0
 76
     1
 98
        1
 10
8.644211678730509
 20
-0.0010749287238931
  0
HATCH
  5
DD
330
1F
100
AcDbEntity
  8
중심선
100
AcDbHatch
 10
0.0
 20
0.0
 30
0.0
210
0.0
220
0.0
230
1.0
  2
SOLID
 70
     1
 71
     0
 91
        1
 92
        0
 93
        6
 72
     3
 10
6.600054785339683
 20
-40.00000000005127
 11
3.960054785062283
 21
1.540882976769353E-10
 40
0.3939339440162628
 50
17.09539180608439
 51
320.0019657685077
 73
     0
 72
     1
 10
8.283054441040251
 20
-38.58789400463831
 11
10.58835631474134
 21
-36.65356729459035
 72
     3
 10
6.600054785286837
 20
-40.00000000000014
 11
6.600054785286829
 21
-1.278976924368180E-13
 40
0.636358354079598
 50
39.99873849337413
 51
368.4976242363724
 73
     1
 72
     1
 10
13.02538727718745
 20
-39.03999999993002
 11
5.280122092122759
 21
-39.03999999993002
 72
     1
 10
5.280122092122759
 20
-39.03999999993002
 11
5.280097047676825
 21
-40.95999999992991
 72
     1
 10
5.280097047676825
 20
-40.95999999992991
 11
9.721476817148861
 21
-40.95999999992988
 97
        0
 75
     0
 76
     1
 98
        1
 10
8.644211678730509
 20
-0.0010749287238931
  0
DIMENSION
  5
DE
330
1F
100
AcDbEntity
  8
치수문자_일반주서
100
AcDbDimension
  2
_D
 10
-38.57499999999998
 20
-2.38125000000009
 30
0.0
 11
-38.57500000000006
 21
22.98524999999997
 31
0.0
 70
   160
  1
%%c<>
 71
     2
 42
4.762499999999999
 52
-270.0
  3
SLDDIMSTYLE0
100
AcDbAlignedDimension
 13
-15.08768467149221
 23
2.381249999999997
 33
0.0
 14
-15.0876846714922
 24
-2.381250000000003
 34
0.0
 50
90.0000000000002
100
AcDbRotatedDimension
1001
PE_URL
1000

1001
ACAD
1000
DSTYLE
1002
{
1070
   171
1070
     8
1070
   273
1070
     7
1002
}
  0
DIMENSION
  5
F3
330
1F
100
AcDbEntity
  8
치수문자_일반주서
100
AcDbDimension
  2
_D_1
 10
64.88438246456639
 20
1.586158269177197
 30
0.0
 11
64.8843824645663
 21
20.4401582691772
 31
0.0
 70
   160
  1
%%c<>
 71
     2
 42
3.172316538354121
 52
-270.0
  3
SLDDIMSTYLE0
100
AcDbAlignedDimension
 13
28.57500000000001
 23
-1.58615826917706
 33
0.0
 14
28.57500000000001
 24
1.586158269177061
 34
0.0
 50
90.0000000000002
100
AcDbRotatedDimension
1001
PE_URL
1000

1001
ACAD
1000
DSTYLE
1002
{
1070
   171
1070
     8
1070
   273
1070
     7
1002
}
  0
DIMENSION
  5
107
330
1F
100
AcDbEntity
  8
치수문자_일반주서
100
AcDbDimension
  2
_D_2
 10
19.05
 20
12.38125
 30
0.0
 11
46.99150000000001
 21
12.38125
 31
0.0
 70
   160
  1
<>
 71
     2
 42
9.525000000000006
  3
SLDDIMSTYLE0
100
AcDbAlignedDimension
 13
28.57500000000001
 23
1.586158269177061
 33
0.0
 14
19.05
 24
1.064115960438773
 34
0.0
100
AcDbRotatedDimension
1001
PE_URL
1000

1001
ACAD
1000
DSTYLE
1002
{
1070
   171
1070
     8
1070
   273
1070
     7
1002
}
  0
DIMENSION
  5
11C
330
1F
100
AcDbEntity
  8
치수문자_일반주서
100
AcDbDimension
  2
_D_3
 10
28.57500000000001
 20
22.38125
 30
0.0
 11
0.0000000000000089
 21
22.38125
 31
0.0
 70
   160
  1
<>
 71
     2
 42
57.15000000000001
  3
SLDDIMSTYLE0
100
AcDbAlignedDimension
 13
-28.575
 23
1.586158269177041
 33
0.0
 14
28.57500000000001
 24
1.586158269177061
 34
0.0
100
AcDbRotatedDimension
1001
PE_URL
1000

1001
ACAD
1000
DSTYLE
1002
{
1070
   171
1070
     8
1070
   273
1070
     7
1002
}
  0
LINE
  5
12F
330
1F
100
AcDbEntity
  8
참조1
100
AcDbLine
 10
77.15662503295505
 20
7.440000000000003
 30
0.0
 11
77.15662503295505
 21
-7.440000000000002
 31
0.0
  0
LINE
  5
130
330
1F
100
AcDbEntity
  8
참조1
100
AcDbLine
 10
89.85662503295505
 20
5.440000000000003
 30
0.0
 11
77.15662503295505
 21
5.440000000000003
 31
0.0
  0
SOLID
  5
131
330
1F
100
AcDbEntity
  8
참조1
100
AcDbTrace
 10
77.15662503295505
 20
5.440000000000003
 30
0.0
 11
83.50662503295504
 21
4.424000000000003
 31
0.0
 12
83.50662503295504
 22
6.456000000000003
 32
0.0
 13
83.50662503295504
 23
6.456000000000003
 33
0.0
  0
LINE
  5
132
330
1F
100
AcDbEntity
  8
참조1
100
AcDbLine
 10
89.85662503295505
 20
-5.440000000000002
 30
0.0
 11
77.15662503295505
 21
-5.440000000000002
 31
0.0
  0
SOLID
  5
133
330
1F
100
AcDbEntity
  8
참조1
100
AcDbTrace
 10
77.15662503295505
 20
-5.440000000000002
 30
0.0
 11
83.50662503295504
 21
-6.456000000000002
 31
0.0
 12
83.50662503295504
 22
-4.424000000000002
 32
0.0
 13
83.50662503295504
 23
-4.424000000000002
 33
0.0
  0
MTEXT
  5
134
330
1F
100
AcDbEntity
  8
참조1
100
AcDbMText
 10
86.54097516558105
 20
11.01029177718833
 30
0.0
 40
3.5
 41
0.0
 71
     1
 72
     1
  1
A
  7
SLDTEXTSTYLE0
 73
     1
 44
1.0
  0
MTEXT
  5
135
330
1F
100
AcDbEntity
  8
참조1
100
AcDbMText
 10
86.54097516558105
 20
0.1302917771883261
 30
0.0
 40
3.5
 41
0.0
 71
     1
 72
     1
  1
A
  7
SLDTEXTSTYLE0
 73
     1
 44
1.0
  0
INSERT
  5
13C
330
1F
100
AcDbEntity
  8
해칭선
100
AcDbBlockReference
  2
SW_DOWELSYMBOL_0
 10
0.0
 20
0.0
 30
0.0
  0
LINE
  5
21B
330
1F
100
AcDbEntity
  8
외형선
  6
Continuous
370
    15
100
AcDbLine
 10
-15.08768467149221
 20
2.381249999999997
 30
0.0
 11
-18.05
 21
1.587499999999993
 31
0.0
  0
LINE
  5
21C
330
1F
100
AcDbEntity
  8
외형선
  6
Continuous
370
    15
100
AcDbLine
 10
-18.05
 20
-1.587500000000005
 30
0.0
 11
-15.0876846714922
 21
-2.381250000000003
 31
0.0
  0
LINE
  5
21D
330
1F
100
AcDbEntity
  8
외형선
  6
Continuous
370
    15
100
AcDbLine
 10
-18.16004797477742
 20
-1.587500000000005
 30
0.0
 11
-18.05
 21
-1.587500000000005
 31
0.0
  0
LINE
  5
21E
330
1F
100
AcDbEntity
  8
외형선
  6
Continuous
370
    15
100
AcDbLine
 10
-18.05
 20
1.587499999999993
 30
0.0
 11
-18.16004797477742
 21
1.587499999999993
 31
0.0
  0
SPLINE
  5
21F
330
1F
100
AcDbEntity
  8
외형선
  6
Continuous
370
    15
100
AcDbSpline
210
0.0
220
0.0
230
1.0
 70
     8
 71
     3
 72
     9
 73
     5
 74
     0
 42
0.000000001
 43
0.00000001
 40
0.0
 40
0.0
 40
0.0
 40
0.0
 40
0.4366873180895269
 40
1.0
 40
1.0
 40
1.0
 40
1.0
 10
-19.04999999999999
 20
-1.064092140547922
 30
0.0
 10
-18.92000688333098
 20
-1.057497509111751
 30
0.0
 10
-18.62232680130404
 20
-1.042396013916006
 30
0.0
 10
-18.32662988032029
 20
-1.04558672814337
 30
0.0
 10
-18.16006005472826
 20
-1.047384097931994
 30
0.0
  0
ARC
  5
220
330
1F
100
AcDbEntity
  8
외형선
  6
Continuous
370
    15
100
AcDbCircle
 10
-18.51004092859799
 20
1.395231983355045
 30
0.0
 40
0.3499929538805873
100
AcDbArc
 50
333.2698060081827
 51
359.9670247459057
  0
SPLINE
  5
221
330
1F
100
AcDbEntity
  8
0
  6
Continuous
 62
     1
370
    15
100
AcDbSpline
210
0.0
220
0.0
230
1.0
 70
     8
 71
     3
 72
     9
 73
     5
 74
     0
 42
0.000000001
 43
0.00000001
 40
0.0
 40
0.0
 40
0.0
 40
0.0
 40
0.4806102673678178
 40
1.0
 40
1.0
 40
1.0
 40
1.0
 10
-24.46145685935253
 20
-0.4067986607545763
 30
0.0
 10
-24.39113930623126
 20
-0.4404228806372552
 30
0.0
 10
-24.2448304196018
 20
-0.51038439033789
 30
0.0
 10
-24.09850192614079
 20
-0.5871599285217834
 30
0.0
 10
-24.02250040904561
 20
-0.6270363547718067
 30
0.0
1001
PE_URL
1000

  0
LINE
  5
222
330
1F
100
AcDbEntity
  8
0
  6
Continuous
 62
     1
370
    15
100
AcDbLine
 10
-20.8192081472743
 20
-1.587500000000011
 30
0.0
 11
-20.05007750891642
 21
-1.587500000000009
 31
0.0
1001
PE_URL
1000

  0
SPLINE
  5
223
330
1F
100
AcDbEntity
  8
0
  6
Continuous
 62
     1
370
    15
100
AcDbSpline
210
0.0
220
0.0
230
1.0
 70
     8
 71
     3
 72
    15
 73
    11
 74
     0
 42
0.000000001
 43
0.00000001
 40
0.0
 40
0.0
 40
0.0
 40
0.0
 40
0.2561778782150093
 40
0.4235803699956651
 40
0.5297000955721514
 40
0.6353525482793657
 40
0.7424598457376562
 40
0.8498500751722594
 40
0.9570208976438966
 40
1.0
 40
1.0
 40
1.0
 40
1.0
 10
-23.93793702048182
 20
-1.261495359913716
 30
0.0
 10
-23.82519518868455
 20
-1.256182082075421
 30
0.0
 10
-23.63878086142325
 20
-1.247396779424317
 30
0.0
 10
-23.40634819752323
 20
-1.241986242401154
 30
0.0
 10
-23.23977422413451
 20
-1.23993396259474
 30
0.0
 10
-23.09966041386585
 20
-1.239573461947467
 30
0.0
 10
-22.95896656439663
 20
-1.240479042715041
 30
0.0
 10
-22.81761548573618
 20
-1.242845357536241
 30
0.0
 10
-22.70443682701777
 20
-1.245419588450152
 30
0.0
 10
-22.63849656402699
 20
-1.247945480343196
 30
0.0
 10
-22.61962174064149
 20
-1.248668494799155
 30
0.0
1001
PE_URL
1000

  0
SPLINE
  5
224
330
1F
100
AcDbEntity
  8
0
  6
Continuous
 62
     1
370
    15
100
AcDbSpline
210
0.0
220
0.0
230
1.0
 70
     8
 71
     3
 72
    17
 73
    13
 74
     0
 42
0.000000001
 43
0.00000001
 40
0.0
 40
0.0
 40
0.0
 40
0.0
 40
0.1246756816412729
 40
0.2131567427548544
 40
0.2898774477514547
 40
0.3708154038807145
 40
0.4515887831945082
 40
0.6522366499648969
 40
0.6981126383462773
 40
0.764605079159608
 40
0.8648792595835864
 40
1.0
 40
1.0
 40
1.0
 40
1.0
 10
-21.55057549162591
 20
1.32099638381772
 30
0.0
 10
-21.65009373496115
 20
1.311453660952923
 30
0.0
 10
-21.82023906173837
 20
1.295138564888522
 30
0.0
 10
-22.05051452422572
 20
1.277833147326938
 30
0.0
 10
-22.24587840054706
 20
1.265309603271503
 30
0.0
 10
-22.4357310493279
 20
1.255399689403273
 30
0.0
 10
-22.72384167425488
 20
1.24386286365116
 30
0.0
 10
-22.98445792683493
 20
1.23937587125177
 30
0.0
 10
-23.23362169418339
 20
1.239907564537603
 30
0.0
 10
-23.40258830595674
 20
1.241841453214093
 30
0.0
 10
-23.64254109720193
 20
1.247509387422183
 30
0.0
 10
-23.83021116691283
 20
1.256394914356042
 30
0.0
 10
-23.93793702048182
 20
1.26149535991369
 30
0.0
1001
PE_URL
1000

  0
SPLINE
  5
225
330
1F
100
AcDbEntity
  8
0
  6
Continuous
 62
     1
370
    15
100
AcDbSpline
210
0.0
220
0.0
230
1.0
 70
     8
 71
     3
 72
     9
 73
     5
 74
     0
 42
0.000000001
 43
0.00000001
 40
0.0
 40
0.0
 40
0.0
 40
0.0
 40
0.4986227459807924
 40
1.0
 40
1.0
 40
1.0
 40
1.0
 10
-19.04999999999991
 20
1.064092140547903
 30
0.0
 10
-19.09914338943168
 20
1.067218303000704
 30
0.0
 10
-19.19770164781017
 20
1.073487897554904
 30
0.0
 10
-19.29674104813525
 20
1.081676049111826
 30
0.0
 10
-19.34639715070995
 20
1.085781402054929
 30
0.0
1001
PE_URL
1000

  0
SPLINE
  5
226
330
1F
100
AcDbEntity
  8
0
  6
Continuous
 62
     1
370
    15
100
AcDbSpline
210
0.0
220
0.0
230
1.0
 70
     8
 71
     3
 72
    23
 73
    19
 74
     0
 42
0.000000001
 43
0.00000001
 40
0.0
 40
0.0
 40
0.0
 40
0.0
 40
0.1125262675112593
 40
0.1926883430441992
 40
0.2447719314736633
 40
0.2945394131864523
 40
0.3460492479757108
 40
0.3975355761957146
 40
0.448780174819734
 40
0.5004140720275545
 40
0.5521996867056366
 40
0.6022783366194416
 40
0.6498705681975078
 40
0.6959596110267262
 40
0.7410624831522699
 40
0.7936689168140016
 40
0.8796134947579497
 40
1.0
 40
1.0
 40
1.0
 40
1.0
 10
-27.9845460243725
 20
-1.0857753431135
 30
0.0
 10
-27.87979977069376
 20
-1.077544825975016
 30
0.0
 10
-27.70043381012437
 20
-1.06345100819462
 30
0.0
 10
-27.47375231565069
 20
-1.052881523296635
 30
0.0
 10
-27.3072711675215
 20
-1.047701229687899
 30
0.0
 10
-27.16620783515394
 20
-1.045133981281456
 30
0.0
 10
-27.02490013636642
 20
-1.044374444797924
 30
0.0
 10
-26.88238586683839
 20
-1.045501850742093
 30
0.0
 10
-26.73980743879027
 20
-1.048547456020197
 30
0.0
 10
-26.59681829806981
 20
-1.053463914205505
 30
0.0
 10
-26.45486496008801
 20
-1.060182822652345
 30
0.0
 10
-26.31665158625545
 20
-1.068474861383198
 30
0.0
 10
-26.18373965395795
 20
-1.078067225904211
 30
0.0
 10
-26.05550291150336
 20
-1.088826589222659
 30
0.0
 10
-25.92275351612387
 20
-1.101524272547198
 30
0.0
 10
-25.75312099077982
 20
-1.119663262728071
 30
0.0
 10
-25.51389045779673
 20
-1.148518954965459
 30
0.0
 10
-25.32276372122854
 20
-1.177258015367069
 30
0.0
 10
-25.21124838617347
 20
-1.194026187143549
 30
0.0
1001
PE_URL
1000

  0
SPLINE
  5
227
330
1F
100
AcDbEntity
  8
0
  6
Continuous
 62
     1
370
    15
100
AcDbSpline
210
0.0
220
0.0
230
1.0
 70
     8
 71
     3
 72
    14
 73
    10
 74
     0
 42
0.000000001
 43
0.00000001
 40
0.0
 40
0.0
 40
0.0
 40
0.0
 40
0.2774777999175825
 40
0.4755707037258883
 40
0.5968228112159963
 40
0.7007800255416134
 40
0.8070102560715688
 40
0.9167051731629664
 40
1.0
 40
1.0
 40
1.0
 40
1.0
 10
-25.21124838617347
 20
1.19402618714352
 30
0.0
 10
-25.32276372297094
 20
1.177258226991146
 30
0.0
 10
-25.51389046252545
 20
1.148519529293237
 30
0.0
 10
-25.75312097998659
 20
1.119661951833187
 30
0.0
 10
-25.92275353838721
 20
1.101526976548469
 30
0.0
 10
-26.05550283976022
 20
1.088817875634032
 30
0.0
 10
-26.18373993381787
 20
1.078101216385173
 30
0.0
 10
-26.30376218107504
 20
1.069287009209646
 30
0.0
 10
-26.38119369506104
 20
1.064815937524038
 30
0.0
 10
-26.41461331839388
 20
1.062886212481411
 30
0.0
1001
PE_URL
1000

  0
SPLINE
  5
228
330
1F
100
AcDbEntity
  8
0
  6
Continuous
 62
     1
370
    15
100
AcDbSpline
210
0.0
220
0.0
230
1.0
 70
     8
 71
     3
 72
     9
 73
     5
 74
     0
 42
0.000000001
 43
0.00000001
 40
0.0
 40
0.0
 40
0.0
 40
0.0
 40
0.5013772540192076
 40
1.0
 40
1.0
 40
1.0
 40
1.0
 10
-19.34639715070994
 20
-1.085781402054945
 30
0.0
 10
-19.29674104813525
 20
-1.081676049111843
 30
0.0
 10
-19.19770164781017
 20
-1.073487897554919
 30
0.0
 10
-19.09914338943168
 20
-1.06721830300072
 30
0.0
 10
-19.04999999999991
 20
-1.064092140547918
 30
0.0
1001
PE_URL
1000

  0
LINE
  5
229
330
1F
100
AcDbEntity
  8
0
  6
Continuous
 62
     1
370
    15
100
AcDbLine
 10
-20.05007750891642
 20
1.587499999999992
 30
0.0
 11
-20.8192081472743
 21
1.58749999999999
 31
0.0
1001
PE_URL
1000

  0
LINE
  5
22A
330
1F
100
AcDbEntity
  8
외형선
  6
Continuous
370
    15
100
AcDbLine
 10
-15.0876846714922
 20
-2.381250000000003
 30
0.0
 11
-15.08768467149221
 21
2.381249999999998
 31
0.0
  0
LINE
  5
22B
330
1F
100
AcDbEntity
  8
외형선
  6
Continuous
370
    15
100
AcDbLine
 10
-18.05
 20
-1.587500000000005
 30
0.0
 11
-18.05
 21
1.587499999999993
 31
0.0
  0
SPLINE
  5
22C
330
1F
100
AcDbEntity
  8
외형선
  6
Continuous
370
    15
100
AcDbSpline
210
0.0
220
0.0
230
1.0
 70
     8
 71
     3
 72
     8
 73
     4
 74
     0
 42
0.000000001
 43
0.00000001
 40
0.0
 40
0.0
 40
0.0
 40
0.0
 40
1.0
 40
1.0
 40
1.0
 40
1.0
 10
-19.04999999999999
 20
-1.48366262430512
 30
0.0
 10
-18.75635102678261
 20
-1.422931400264781
 30
0.0
 10
-18.45430681906534
 20
-1.33537056918388
 30
0.0
 10
-18.16004797477742
 20
-1.22696410176894
 30
0.0
  0
SPLINE
  5
22D
330
1F
100
AcDbEntity
  8
외형선
  6
Continuous
370
    15
100
AcDbSpline
210
0.0
220
0.0
230
1.0
 70
     8
 71
     3
 72
     8
 73
     4
 74
     0
 42
0.000000001
 43
0.00000001
 40
0.0
 40
0.0
 40
0.0
 40
0.0
 40
1.0
 40
1.0
 40
1.0
 40
1.0
 10
-19.05
 20
1.269993571115274
 30
0.0
 10
-18.75636768264474
 20
1.167563367890983
 30
0.0
 10
-18.45433907004387
 20
1.041708574802213
 30
0.0
 10
-18.16009804604391
 20
0.9010607330287235
 30
0.0
  0
LINE
  5
22E
330
1F
100
AcDbEntity
  8
외형선
  6
Continuous
370
    15
100
AcDbLine
 10
-19.05
 20
1.269993571115274
 30
0.0
 11
-19.05
 21
1.483662624305106
 31
0.0
  0
SPLINE
  5
22F
330
1F
100
AcDbEntity
  8
외형선
  6
Continuous
370
    15
100
AcDbSpline
210
0.0
220
0.0
230
1.0
 70
     8
 71
     3
 72
     8
 73
     4
 74
     0
 42
0.000000001
 43
0.00000001
 40
0.0
 40
0.0
 40
0.0
 40
0.0
 40
1.0
 40
1.0
 40
1.0
 40
1.0
 10
-19.05
 20
1.483662624305106
 30
0.0
 10
-18.75635102678261
 20
1.422931400264766
 30
0.0
 10
-18.45430681906534
 20
1.335370569183868
 30
0.0
 10
-18.16004797477742
 20
1.226964101768928
 30
0.0
  0
LINE
  5
230
330
1F
100
AcDbEntity
  8
외형선
  6
Continuous
370
    15
100
AcDbLine
 10
-18.16004797477742
 20
1.587499999999993
 30
0.0
 11
-18.16004797477742
 21
1.226619885995865
 31
0.0
  0
LINE
  5
231
330
1F
100
AcDbEntity
  8
외형선
  6
Continuous
370
    15
100
AcDbLine
 10
-18.16004797477742
 20
0.9010047179105956
 30
0.0
 11
-18.16004797477742
 21
-1.587500000000005
 31
0.0
  0
SPLINE
  5
232
330
1F
100
AcDbEntity
  8
외형선
  6
Continuous
370
    15
100
AcDbSpline
210
0.0
220
0.0
230
1.0
 70
     8
 71
     3
 72
     8
 73
     4
 74
     0
 42
0.000000001
 43
0.00000001
 40
0.0
 40
0.0
 40
0.0
 40
0.0
 40
1.0
 40
1.0
 40
1.0
 40
1.0
 10
-19.04999999999998
 20
1.028733898204991
 30
0.0
 10
-18.75636768264472
 20
0.9348297869370585
 30
0.0
 10
-18.45433907004386
 20
0.8218510739607476
 30
0.0
 10
-18.16009804604391
 20
0.6975501586593025
 30
0.0
  0
SPLINE
  5
233
330
1F
100
AcDbEntity
  8
외형선
  6
Continuous
370
    15
100
AcDbSpline
210
0.0
220
0.0
230
1.0
 70
     8
 71
     3
 72
     8
 73
     4
 74
     0
 42
0.000000001
 43
0.00000001
 40
0.0
 40
0.0
 40
0.0
 40
0.0
 40
1.0
 40
1.0
 40
1.0
 40
1.0
 10
-19.04999999999999
 20
-0.4025998071203813
 30
0.0
 10
-18.75635711595803
 20
-0.5321328442318494
 30
0.0
 10
-18.45431860964496
 20
-0.6557207306040291
 30
0.0
 10
-18.16006628023014
 20
-0.764828853202612
 30
0.0
  0
SPLINE
  5
234
330
1F
100
AcDbEntity
  8
외형선
  6
Continuous
370
    15
100
AcDbSpline
210
0.0
220
0.0
230
1.0
 70
    24
 71
     3
 72
    10
 73
     6
 74
     0
 42
0.000000001
 43
0.00000001
 40
0.0
 40
0.0
 40
0.0
 40
0.0
 40
0.5
 40
0.5
 40
1.0
 40
1.0
 40
1.0
 40
1.0
 10
-19.04999999999999
 20
-0.4025998071203795
 30
0.0
 10
-19.05
 20
-0.1629524061890525
 30
0.0
 10
-19.05
 20
0.0994395948683098
 30
0.0
 10
-19.05
 20
0.599761651097799
 30
0.0
 10
-19.05
 20
0.8355381245502917
 30
0.0
 10
-19.05
 20
1.028733898204996
 30
0.0
  0
SPLINE
  5
235
330
1F
100
AcDbEntity
  8
외형선
  6
Continuous
370
    15
100
AcDbSpline
210
0.0
220
0.0
230
1.0
 70
    24
 71
     3
 72
     8
 73
     4
 74
     0
 42
0.000000001
 43
0.00000001
 40
0.0
 40
0.0
 40
0.0
 40
0.0
 40
1.0
 40
1.0
 40
1.0
 40
1.0
 10
-19.05
 20
1.028733898204998
 30
0.0
 10
-19.05
 20
1.106609660428156
 30
0.0
 10
-19.05
 20
1.1875351233947
 30
0.0
 10
-19.05
 20
1.269993571114855
 30
0.0
  0
SPLINE
  5
236
330
1F
100
AcDbEntity
  8
외형선
  6
Continuous
370
    15
100
AcDbSpline
210
0.0
220
0.0
230
1.0
 70
    24
 71
     3
 72
    13
 73
     9
 74
     0
 42
0.000000001
 43
0.00000001
 40
0.0
 40
0.0
 40
0.0
 40
0.0
 40
0.0591431213761746
 40
0.2502573303838772
 40
0.4359854124301293
 40
0.6270996214378417
 40
0.813549810718921
 40
1.0
 40
1.0
 40
1.0
 40
1.0
 10
-19.04999999999999
 20
-1.058856583839434
 30
0.0
 10
-19.04999999999999
 20
-1.060161326782838
 30
0.0
 10
-19.04999999999999
 20
-1.06568219680552
 30
0.0
 10
-19.05
 20
-1.02493172587685
 30
0.0
 10
-19.04999999999999
 20
-0.9364971993579319
 30
0.0
 10
-19.04999999999999
 20
-0.7989965142901239
 30
0.0
 10
-19.04999999999999
 20
-0.6221217392856404
 30
0.0
 10
-19.04999999999999
 20
-0.475773784508801
 30
0.0
 10
-19.04999999999999
 20
-0.4025998071203795
 30
0.0
  0
SPLINE
  5
237
330
1F
100
AcDbEntity
  8
외형선
  6
Continuous
370
    15
100
AcDbSpline
210
0.0
220
0.0
230
1.0
 70
    24
 71
     3
 72
    10
 73
     6
 74
     0
 42
0.000000001
 43
0.00000001
 40
0.0
 40
0.0
 40
0.0
 40
0.0
 40
0.4999999999999999
 40
0.4999999999999999
 40
1.0
 40
1.0
 40
1.0
 40
1.0
 10
-19.04999999999999
 20
-1.483662624305111
 30
0.0
 10
-19.04999999999999
 20
-1.40181014246065
 30
0.0
 10
-19.04999999999999
 20
-1.319160190886583
 30
0.0
 10
-19.05
 20
-1.170832093560172
 30
0.0
 10
-19.04999999999999
 20
-1.105493175026524
 30
0.0
 10
-19.04999999999999
 20
-1.053935010226752
 30
0.0
  0
SPLINE
  5
238
330
1F
100
AcDbEntity
  8
0
  6
Continuous
 62
     1
370
    15
100
AcDbSpline
210
0.0
220
0.0
230
1.0
 70
     8
 71
     3
 72
    38
 73
    34
 74
     0
 42
0.000000001
 43
0.00000001
 40
0.0
 40
0.0
 40
0.0
 40
0.0
 40
0.0625
 40
0.0625
 40
0.1250000000000001
 40
0.1250000000000001
 40
0.1875000000000001
 40
0.1875000000000001
 40
0.2500000000000002
 40
0.2500000000000002
 40
0.3125000000000002
 40
0.3125000000000002
 40
0.3750000000000002
 40
0.3750000000000002
 40
0.4375000000000003
 40
0.4375000000000003
 40
0.5000000000000003
 40
0.5000000000000003
 40
0.5625000000000003
 40
0.5625000000000003
 40
0.6250000000000004
 40
0.6250000000000004
 40
0.6875000000000004
 40
0.6875000000000004
 40
0.7500000000000003
 40
0.7500000000000003
 40
0.8125000000000003
 40
0.8125000000000003
 40
0.8750000000000002
 40
0.8750000000000002
 40
0.9375000000000002
 40
0.9375000000000002
 40
1.0
 40
1.0
 40
1.0
 40
1.0
 10
-28.575
 20
1.586158269177039
 30
0.0
 10
-28.37900017442152
 20
1.581468119098009
 30
0.0
 10
-28.17794627196324
 20
1.564302173387214
 30
0.0
 10
-27.77966273521352
 20
1.50582750348049
 30
0.0
 10
-27.5844068355976
 20
1.464819891069889
 30
0.0
 10
-27.18550148072984
 20
1.360037182869524
 30
0.0
 10
-26.98651114337178
 20
1.296556515398484
 30
0.0
 10
-26.59267549020945
 20
1.150969576381753
 30
0.0
 10
-26.39137099838351
 20
1.068017963315907
 30
0.0
 10
-25.99397764047932
 20
0.8874140850266097
 30
0.0
 10
-25.79826993103543
 20
0.7899464117528014
 30
0.0
 10
-25.39901252056272
 20
0.5829220931530286
 30
0.0
 10
-25.20164230656634
 20
0.4744178822334216
 30
0.0
 10
-24.80622906305057
 20
0.2516224952184579
 30
0.0
 10
-24.60481300927143
 20
0.1366767953232738
 30
0.0
 10
-24.20857618883167
 20
-0.0923187916355503
 30
0.0
 10
-24.01196587517372
 20
-0.2067018184709146
 30
0.0
 10
-23.61262696644495
 20
-0.4316269274518924
 30
0.0
 10
-23.41642981071706
 20
-0.5409348979546562
 30
0.0
 10
-23.01970090161938
 20
-0.7502463018051448
 30
0.0
 10
-22.81831257293427
 20
-0.850320450274509
 30
0.0
 10
-22.4234960555813
 20
-1.034402684541101
 30
0.0
 10
-22.22553436942653
 20
-1.119173217800046
 30
0.0
 10
-21.82638470391125
 20
-1.270343783585566
 30
0.0
 10
-21.63091091115411
 20
-1.336081947643297
 30
0.0
 10
-21.23313120424635
 20
-1.44651282164847
 30
0.0
 10
-21.03190982316237
 20
-1.490923864838674
 30
0.0
 10
-20.63877420280108
 20
-1.555314526333408
 30
0.0
 10
-20.43901540310863
 20
-1.575763126083862
 30
0.0
 10
-20.04032529480902
 20
-1.591634593025919
 30
0.0
 10
-19.84512354501332
 20
-1.587169955946429
 30
0.0
 10
-19.44656026718234
 20
-1.55353377972072
 30
0.0
 10
-19.24638056842726
 20
-1.524277213103625
 30
0.0
 10
-19.05
 20
-1.483662624305124
 30
0.0
1001
PE_URL
1000

  0
SPLINE
  5
239
330
1F
100
AcDbEntity
  8
0
  6
Continuous
 62
     1
370
    15
100
AcDbSpline
210
0.0
220
0.0
230
1.0
 70
     8
 71
     3
 72
    14
 73
    10
 74
     0
 42
0.000000001
 43
0.00000001
 40
0.0
 40
0.0
 40
0.0
 40
0.0
 40
0.0745558422928192
 40
0.2387449256029197
 40
0.40293424362856
 40
0.5671237940713523
 40
0.7313135746303783
 40
0.8934209736013898
 40
1.0
 40
1.0
 40
1.0
 40
1.0
 10
-24.62957126787171
 20
0.1485134530456221
 30
0.0
 10
-24.49820275091875
 20
0.0963708847725402
 30
0.0
 10
-24.07753059643728
 20
-0.0706015911631394
 30
0.0
 10
-23.36755427500683
 20
-0.3593936393414958
 30
0.0
 10
-22.49964177825806
 20
-0.6733171844356283
 30
0.0
 10
-21.63172830631209
 20
-0.9227154554625618
 30
0.0
 10
-20.76748164901905
 20
-1.075849699395302
 30
0.0
 10
-20.00475038735203
 20
-1.131847747188535
 30
0.0
 10
-19.53132179792711
 20
-1.090103601437663
 30
0.0
 10
-19.34352832060215
 20
-1.073545078222919
 30
0.0
1001
PE_URL
1000

  0
SPLINE
  5
23A
330
1F
100
AcDbEntity
  8
외형선
  6
Continuous
370
    15
100
AcDbSpline
210
0.0
220
0.0
230
1.0
 70
    24
 71
     3
 72
    10
 73
     6
 74
     0
 42
0.000000001
 43
0.00000001
 40
0.0
 40
0.0
 40
0.0
 40
0.0
 40
0.5
 40
0.5
 40
1.0
 40
1.0
 40
1.0
 40
1.0
 10
-19.05
 20
-1.483662624305109
 30
0.0
 10
-19.05
 20
-1.40181014246065
 30
0.0
 10
-19.05
 20
-1.319160190886583
 30
0.0
 10
-19.05
 20
-1.170832093560172
 30
0.0
 10
-19.05
 20
-1.105493175026524
 30
0.0
 10
-19.05
 20
-1.053935010226752
 30
0.0
  0
SPLINE
  5
23B
330
1F
100
AcDbEntity
  8
0
  6
Continuous
 62
     1
370
    15
100
AcDbSpline
210
0.0
220
0.0
230
1.0
 70
     8
 71
     3
 72
    17
 73
    13
 74
     0
 42
0.000000001
 43
0.00000001
 40
0.0
 40
0.0
 40
0.0
 40
0.0
 40
0.0983465750624046
 40
0.1966203526923269
 40
0.2948434820249751
 40
0.393038440200057
 40
0.4912278875687598
 40
0.589434520386364
 40
0.6876809230109519
 40
0.7957505084111172
 40
0.9038243731977342
 40
0.9999999999999999
 40
0.9999999999999999
 40
0.9999999999999999
 40
0.9999999999999999
 10
-28.575
 20
1.506443629905622
 30
0.0
 10
-28.3207021402412
 20
1.448963528227349
 30
0.0
 10
-27.81229465535471
 20
1.334045872400481
 30
0.0
 10
-27.05006015113727
 20
1.028969661572905
 30
0.0
 10
-26.28828595806495
 20
0.6536792438791557
 30
0.0
 10
-25.52677570432268
 20
0.2263670834113259
 30
0.0
 10
-24.76531835337688
 20
-0.2176705170485655
 30
0.0
 10
-24.00369239820277
 20
-0.6450742209176903
 30
0.0
 10
-23.21649827825354
 20
-1.036638270435615
 30
0.0
 10
-22.40354760692581
 20
-1.34987551475367
 30
0.0
 10
-21.59601379625138
 20
-1.554159050014005
 30
0.0
 10
-21.06788831953819
 20
-1.571937735713588
 30
0.0
 10
-20.8192081472743
 20
-1.58030924365506
 30
0.0
1001
PE_URL
1000

  0
SPLINE
  5
23C
330
1F
100
AcDbEntity
  8
0
  6
Continuous
 62
     1
370
    15
100
AcDbSpline
210
0.0
220
0.0
230
1.0
 70
     8
 71
     3
 72
    14
 73
    10
 74
     0
 42
0.000000001
 43
0.00000001
 40
0.0
 40
0.0
 40
0.0
 40
0.0
 40
0.158006618803089
 40
0.3155965841092762
 40
0.4731747096973857
 40
0.6311461441184604
 40
0.789186533404212
 40
0.9467897125701419
 40
1.0
 40
1.0
 40
1.0
 40
1.0
 10
-28.575
 20
1.252493469684524
 30
0.0
 10
-28.35765553346941
 20
1.206091547668049
 30
0.0
 10
-27.92353972407039
 20
1.113410062579412
 30
0.0
 10
-27.27305148265035
 20
0.8932163069192891
 30
0.0
 10
-26.6226114723406
 20
0.6282407264907752
 30
0.0
 10
-25.97121366322976
 20
0.3267582592845122
 30
0.0
 10
-25.31968919479785
 20
0.0092972130712925
 30
0.0
 10
-24.81263276677105
 20
-0.2440576979981903
 30
0.0
 10
-24.52279553033456
 20
-0.3765024297299299
 30
0.0
 10
-24.4496392803677
 20
-0.4099320884600776
 30
0.0
1001
PE_URL
1000

  0
LINE
  5
23D
330
1F
100
AcDbEntity
  8
0
  6
Continuous
 62
     1
370
    15
100
AcDbLine
 10
-28.575
 20
1.506443629905622
 30
0.0
 11
-28.575
 21
1.252493469684524
 31
0.0
1001
PE_URL
1000

  0
LINE
  5
23E
330
1F
100
AcDbEntity
  8
0
  6
Continuous
 62
     1
370
    15
100
AcDbLine
 10
-28.575
 20
1.586158269177041
 30
0.0
 11
-28.575
 21
1.506443629905622
 31
0.0
1001
PE_URL
1000

  0
SPLINE
  5
23F
330
1F
100
AcDbEntity
  8
0
  6
Continuous
 62
     1
370
    15
100
AcDbSpline
210
0.0
220
0.0
230
1.0
 70
     8
 71
     3
 72
     8
 73
     4
 74
     0
 42
0.000000001
 43
0.00000001
 40
0.0
 40
0.0
 40
0.0
 40
0.0
 40
1.0
 40
1.0
 40
1.0
 40
1.0
 10
-27.59220542367652
 20
-0.4445952940612174
 30
0.0
 10
-27.53598835895933
 20
-0.5111941627036403
 30
0.0
 10
-27.48580531521134
 20
-0.5753123870126051
 30
0.0
 10
-27.44308004190774
 20
-0.6363646498196702
 30
0.0
1001
PE_URL
1000

  0
LINE
  5
240
330
1F
100
AcDbEntity
  8
0
  6
Continuous
 62
     1
370
    15
100
AcDbLine
 10
-27.46318878093833
 20
-0.6532378853236691
 30
0.0
 11
-28.575
 21
-0.0000000000000211
 31
0.0
1001
PE_URL
1000

  0
LINE
  5
241
330
1F
100
AcDbEntity
  8
0
  6
Continuous
 62
     1
370
    15
100
AcDbLine
 10
-28.575
 20
-0.0000000000000211
 30
0.0
 11
-28.575
 21
0.4242481768220404
 31
0.0
1001
PE_URL
1000

  0
SPLINE
  5
242
330
1F
100
AcDbEntity
  8
0
  6
Continuous
 62
     1
370
    15
100
AcDbSpline
210
0.0
220
0.0
230
1.0
 70
     8
 71
     3
 72
    10
 73
     6
 74
     0
 42
0.000000001
 43
0.00000001
 40
0.0
 40
0.0
 40
0.0
 40
0.0
 40
0.5
 40
0.5
 40
1.0
 40
1.0
 40
1.0
 40
1.0
 10
-28.575
 20
0.4242481768220404
 30
0.0
 10
-28.40486692683485
 20
0.2904929793873399
 30
0.0
 10
-28.23757873071862
 20
0.151248872509312
 30
0.0
 10
-27.90882815368845
 20
-0.1384796766034754
 30
0.0
 10
-27.74583634149636
 20
-0.2904950568623652
 30
0.0
 10
-27.59220542367652
 20
-0.4445952940612174
 30
0.0
1001
PE_URL
1000

  0
SPLINE
  5
243
330
1F
100
AcDbEntity
  8
0
  6
Continuous
 62
     1
370
    15
100
AcDbSpline
210
0.0
220
0.0
230
1.0
 70
     8
 71
     3
 72
    12
 73
     8
 74
     0
 42
0.000000001
 43
0.00000001
 40
0.0
 40
0.0
 40
0.0
 40
0.0
 40
0.2216322041801748
 40
0.443314817433622
 40
0.6806764249269033
 40
0.9180383693105743
 40
1.0
 40
1.0
 40
1.0
 40
1.0
 10
-27.59220542367652
 20
-0.4445952940612156
 30
0.0
 10
-27.32208869643673
 20
-0.5575862819996062
 30
0.0
 10
-26.78179380533543
 20
-0.7835939570793149
 30
0.0
 10
-25.95217750221615
 20
-1.052832071834421
 30
0.0
 10
-25.10337643218375
 20
-1.225269153274876
 30
0.0
 10
-24.42487442569432
 20
-1.292285212985485
 30
0.0
 10
-24.03567424105961
 20
-1.256471723098961
 30
0.0
 10
-23.93577719528094
 20
-1.247279379467249
 30
0.0
1001
PE_URL
1000

  0
SPLINE
  5
244
330
1F
100
AcDbEntity
  8
0
  6
Continuous
 62
     1
370
    15
100
AcDbSpline
210
0.0
220
0.0
230
1.0
 70
    24
 71
     3
 72
    10
 73
     6
 74
     0
 42
0.000000001
 43
0.00000001
 40
0.0
 40
0.0
 40
0.0
 40
0.0
 40
0.5
 40
0.5
 40
1.0
 40
1.0
 40
1.0
 40
1.0
 10
-28.575
 20
1.252493469684524
 30
0.0
 10
-28.575
 20
1.156480080043521
 30
0.0
 10
-28.575
 20
1.035163480701499
 30
0.0
 10
-28.575
 20
0.753114062651685
 30
0.0
 10
-28.575
 20
0.5926255658439337
 30
0.0
 10
-28.575
 20
0.4242481768220919
 30
0.0
1001
PE_URL
1000

  0
SPLINE
  5
245
330
1F
100
AcDbEntity
  8
0
  6
Continuous
 62
     1
370
    15
100
AcDbSpline
210
0.0
220
0.0
230
1.0
 70
     8
 71
     3
 72
    12
 73
     8
 74
     0
 42
0.000000001
 43
0.00000001
 40
0.0
 40
0.0
 40
0.0
 40
0.0
 40
0.0547023373454709
 40
0.3150378575410878
 40
0.5756872029679129
 40
0.8355753402848303
 40
1.0
 40
1.0
 40
1.0
 40
1.0
 10
-21.55217792024715
 20
1.314748187506283
 30
0.0
 10
-21.5065631624208
 20
1.321209758611012
 30
0.0
 10
-21.2438618543009
 20
1.358422784890444
 30
0.0
 10
-20.76360692832731
 20
1.353810470383145
 30
0.0
 10
-20.11201839730669
 20
1.294651798156142
 30
0.0
 10
-19.54082079060064
 20
1.176373063818131
 30
0.0
 10
-19.18707815011722
 20
1.069967081669642
 30
0.0
 10
-19.04999999999997
 20
1.028733898204991
 30
0.0
1001
PE_URL
1000

  0
SPLINE
  5
246
330
1F
100
AcDbEntity
  8
0
  6
Continuous
 62
     1
370
    15
100
AcDbSpline
210
0.0
220
0.0
230
1.0
 70
     8
 71
     3
 72
    15
 73
    11
 74
     0
 42
0.000000001
 43
0.00000001
 40
0.0
 40
0.0
 40
0.0
 40
0.0
 40
0.0181019116907707
 40
0.1588824627301479
 40
0.2996632116659271
 40
0.4404441565810011
 40
0.5812252955561423
 40
0.722006626670022
 40
0.8610030371277214
 40
0.9999999999999999
 40
0.9999999999999999
 40
0.9999999999999999
 40
0.9999999999999999
 10
-25.21497534101202
 20
1.187105081816377
 30
0.0
 10
-25.17777604588778
 20
1.195050667221832
 30
0.0
 10
-24.85127375584617
 20
1.264789941096158
 30
0.0
 10
-24.2354679025275
 20
1.284150099726315
 30
0.0
 10
-23.36755740877771
 20
1.22632198088213
 30
0.0
 10
-22.49964540353093
 20
1.036170295929372
 30
0.0
 10
-21.63173252215368
 20
0.7464309037217254
 30
0.0
 10
-20.76748492890468
 20
0.3844094314774849
 30
0.0
 10
-19.90691016448128
 20
-0.0158748878384071
 30
0.0
 10
-19.33563709989554
 20
-0.2736913299197281
 30
0.0
 10
-19.04999999999999
 20
-0.4025998071203813
 30
0.0
1001
PE_URL
1000

  0
SPLINE
  5
247
330
1F
100
AcDbEntity
  8
외형선
  6
Continuous
370
    15
100
AcDbSpline
210
0.0
220
0.0
230
1.0
 70
    24
 71
     3
 72
    10
 73
     6
 74
     0
 42
0.000000001
 43
0.00000001
 40
0.0
 40
0.0
 40
0.0
 40
0.0
 40
0.5
 40
0.5
 40
1.0
 40
1.0
 40
1.0
 40
1.0
 10
-19.04999999999999
 20
-0.4025998071203795
 30
0.0
 10
-19.05
 20
-0.1629524061890525
 30
0.0
 10
-19.05
 20
0.0994395948683098
 30
0.0
 10
-19.05
 20
0.599761651097799
 30
0.0
 10
-19.05
 20
0.8355381245502917
 30
0.0
 10
-19.05
 20
1.028733898204996
 30
0.0
  0
SPLINE
  5
248
330
1F
100
AcDbEntity
  8
0
  6
Continuous
 62
     1
370
    15
100
AcDbSpline
210
0.0
220
0.0
230
1.0
 70
    24
 71
     3
 72
     8
 73
     4
 74
     0
 42
0.000000001
 43
0.00000001
 40
0.0
 40
0.0
 40
0.0
 40
0.0
 40
1.0
 40
1.0
 40
1.0
 40
1.0
 10
-27.60890102197991
 20
-0.7755049730396857
 30
0.0
 10
-27.5565735584553
 20
-0.7315970176957458
 30
0.0
 10
-27.50093116363163
 20
-0.6849075047213498
 30
0.0
 10
-27.44308004190776
 20
-0.6363646498196596
 30
0.0
1001
PE_URL
1000

  0
LINE
  5
249
330
1F
100
AcDbEntity
  8
0
  6
Continuous
 62
     1
370
    15
100
AcDbLine
 10
-28.575
 20
-1.111250000000019
 30
0.0
 11
-27.98149374697592
 21
-1.073704797117733
 31
0.0
1001
PE_URL
1000

  0
SPLINE
  5
24A
330
1F
100
AcDbEntity
  8
0
  6
Continuous
 62
     1
370
    15
100
AcDbSpline
210
0.0
220
0.0
230
1.0
 70
     8
 71
     3
 72
     8
 73
     4
 74
     0
 42
0.000000001
 43
0.00000001
 40
0.0
 40
0.0
 40
0.0
 40
0.0
 40
1.0
 40
1.0
 40
1.0
 40
1.0
 10
-28.575
 20
-1.111250000000021
 30
0.0
 10
-28.24848911934129
 20
-1.02256229647253
 30
0.0
 10
-27.92510172563278
 20
-0.9136763805407531
 30
0.0
 10
-27.60890102198984
 20
-0.7755049730440378
 30
0.0
1001
PE_URL
1000

  0
SPLINE
  5
24B
330
1F
100
AcDbEntity
  8
외형선
  6
Continuous
370
    15
100
AcDbSpline
210
0.0
220
0.0
230
1.0
 70
    24
 71
     3
 72
    13
 73
     9
 74
     0
 42
0.000000001
 43
0.00000001
 40
0.0
 40
0.0
 40
0.0
 40
0.0
 40
0.0608116810591197
 40
0.2515869591717699
 40
0.4369856623329508
 40
0.6277609404456107
 40
0.8138804702228052
 40
1.0
 40
1.0
 40
1.0
 40
1.0
 10
-19.05
 20
-1.058787510422949
 30
0.0
 10
-19.05
 20
-1.06014361378844
 30
0.0
 10
-19.05
 20
-1.065754014884161
 30
0.0
 10
-19.05
 20
-1.024966079542512
 30
0.0
 10
-19.05
 20
-0.9364878070218585
 30
0.0
 10
-19.05
 20
-0.7989989801657218
 30
0.0
 10
-19.05
 20
-0.62212112917582
 30
0.0
 10
-19.05
 20
-0.4757735811388596
 30
0.0
 10
-19.05
 20
-0.4025998071203795
 30
0.0
  0
SPLINE
  5
24C
330
1F
100
AcDbEntity
  8
0
  6
Continuous
 62
     1
370
    15
100
AcDbSpline
210
0.0
220
0.0
230
1.0
 70
     8
 71
     3
 72
    12
 73
     8
 74
     0
 42
0.000000001
 43
0.00000001
 40
0.0
 40
0.0
 40
0.0
 40
0.0
 40
0.0606894588832785
 40
0.295501253462752
 40
0.5303231055450265
 40
0.7651557706850343
 40
1.0
 40
1.0
 40
1.0
 40
1.0
 10
-22.62024109637004
 20
1.248431391059558
 30
0.0
 10
-22.54801726164497
 20
1.277001057403469
 30
0.0
 10
-22.19635431911991
 20
1.416108776783126
 30
0.0
 10
-21.56523384546005
 20
1.548240588994011
 30
0.0
 10
-20.72686570101754
 20
1.61141705384128
 30
0.0
 10
-19.88845138707511
 20
1.525662994362817
 30
0.0
 10
-19.32948838320432
 20
1.355218111070428
 30
0.0
 10
-19.05000000000006
 20
1.269993571115297
 30
0.0
1001
PE_URL
1000

  0
SPLINE
  5
24D
330
1F
100
AcDbEntity
  8
외형선
  6
Continuous
370
    15
100
AcDbSpline
210
0.0
220
0.0
230
1.0
 70
    24
 71
     3
 72
     8
 73
     4
 74
     0
 42
0.000000001
 43
0.00000001
 40
0.0
 40
0.0
 40
0.0
 40
0.0
 40
1.0
 40
1.0
 40
1.0
 40
1.0
 10
-19.05
 20
1.028733898204998
 30
0.0
 10
-19.05
 20
1.106609660428156
 30
0.0
 10
-19.05
 20
1.1875351233947
 30
0.0
 10
-19.05
 20
1.269993571114853
 30
0.0
  0
SPLINE
  5
24E
330
1F
100
AcDbEntity
  8
0
  6
Continuous
 62
     1
370
    15
100
AcDbSpline
210
0.0
220
0.0
230
1.0
 70
     8
 71
     3
 72
     9
 73
     5
 74
     0
 42
0.000000001
 43
0.00000001
 40
0.0
 40
0.0
 40
0.0
 40
0.0
 40
0.7626118931554402
 40
1.0
 40
1.0
 40
1.0
 40
1.0
 10
-19.05
 20
1.483662624305108
 30
0.0
 10
-19.30424529719225
 20
1.531646640021777
 30
0.0
 10
-19.63763282953227
 20
1.594567263404827
 30
0.0
 10
-19.97095159759116
 20
1.578313140620731
 30
0.0
 10
-20.05007750891642
 20
1.574454605184594
 30
0.0
1001
PE_URL
1000

  0
SPLINE
  5
24F
330
1F
100
AcDbEntity
  8
0
  6
Continuous
 62
     1
370
    15
100
AcDbSpline
210
0.0
220
0.0
230
1.0
 70
     8
 71
     3
 72
    10
 73
     6
 74
     0
 42
0.000000001
 43
0.00000001
 40
0.0
 40
0.0
 40
0.0
 40
0.0
 40
0.2237666664107125
 40
0.6118732179573078
 40
1.0
 40
1.0
 40
1.0
 40
1.0
 10
-26.41461331839388
 20
-1.062886212481444
 30
0.0
 10
-26.57575206297578
 20
-1.132702088772669
 30
0.0
 10
-27.01637391146846
 20
-1.323608382261499
 30
0.0
 10
-27.73650182700447
 20
-1.520792552868537
 30
0.0
 10
-28.2954957527622
 20
-1.564369318502674
 30
0.0
 10
-28.575
 20
-1.586158269177078
 30
0.0
1001
PE_URL
1000

  0
LINE
  5
250
330
1F
100
AcDbEntity
  8
0
  6
Continuous
 62
     1
370
    15
100
AcDbLine
 10
-28.575
 20
-0.0000000000000211
 30
0.0
 11
-28.575
 21
-1.111250000000021
 31
0.0
1001
PE_URL
1000

  0
SPLINE
  5
251
330
1F
100
AcDbEntity
  8
0
  6
Continuous
 62
     1
370
    15
100
AcDbSpline
210
0.0
220
0.0
230
1.0
 70
    24
 71
     3
 72
    10
 73
     6
 74
     0
 42
0.000000001
 43
0.00000001
 40
0.0
 40
0.0
 40
0.0
 40
0.0
 40
0.5
 40
0.5
 40
1.0
 40
1.0
 40
1.0
 40
1.0
 10
-28.575
 20
-1.111250000000019
 30
0.0
 10
-28.575
 20
-1.17861120768163
 30
0.0
 10
-28.57499999999999
 20
-1.256891169326568
 30
0.0
 10
-28.57499999999999
 20
-1.421122318025377
 30
0.0
 10
-28.575
 20
-1.506654079334856
 30
0.0
 10
-28.575
 20
-1.58615826917708
 30
0.0
1001
PE_URL
1000

  0
ENDSEC
  0
SECTION
  2
OBJECTS
  0
DICTIONARY
  5
C
330
0
100
AcDbDictionary
281
     1
  3
ACAD_GROUP
350
D
  3
ACAD_IMAGE_VARS
350
275
  3
ACAD_LAYOUT
350
1A
  3
ACAD_MLINESTYLE
350
17
  3
ACAD_PLOTSETTINGS
350
19
  3
ACAD_PLOTSTYLENAME
350
E
  3
ACAD_SCALELIST
350
47
  3
APPDATA
350
15E
  3
DWGPROPS
350
276
  0
DICTIONARY
  5
197
330
2
100
AcDbDictionary
280
     1
281
     1
  3
ACAD_LAYERSTATES
360
198
  0
DICTIONARY
  5
D
102
{ACAD_REACTORS
330
C
102
}
330
C
100
AcDbDictionary
281
     1
  0
RASTERVARIABLES
  5
275
102
{ACAD_REACTORS
330
C
102
}
330
C
100
AcDbRasterVariables
 90
        0
 70
     1
 71
     1
 72
     1
  0
DICTIONARY
  5
1A
102
{ACAD_REACTORS
330
C
102
}
330
C
100
AcDbDictionary
281
     1
  3
Layout1
350
1E
  3
Layout2
350
26
  3
Model
350
22
  0
DICTIONARY
  5
17
102
{ACAD_REACTORS
330
C
102
}
330
C
100
AcDbDictionary
281
     1
  3
Standard
350
18
  0
DICTIONARY
  5
19
102
{ACAD_REACTORS
330
C
102
}
330
C
100
AcDbDictionary
281
     1
  0
ACDBDICTIONARYWDFLT
  5
E
102
{ACAD_REACTORS
330
C
102
}
330
C
100
AcDbDictionary
281
     1
  3
Normal
350
F
100
AcDbDictionaryWithDefault
340
F
  0
DICTIONARY
  5
47
102
{ACAD_REACTORS
330
C
102
}
330
C
100
AcDbDictionary
281
     1
  3
A0
350
48
  3
A1
350
49
  3
A2
350
4A
  3
A3
350
4B
  3
A4
350
4C
  3
A5
350
4D
  3
A6
350
4E
  3
A7
350
4F
  3
A8
350
50
  3
A9
350
51
  3
B0
350
52
  3
B1
350
53
  3
B2
350
54
  3
B3
350
55
  3
B4
350
56
  3
B5
350
57
  3
B6
350
58
  3
B7
350
59
  3
B8
350
5A
  3
B9
350
5B
  3
C0
350
5C
  3
C1
350
5D
  3
C2
350
5E
  3
C3
350
5F
  3
C4
350
60
  3
C5
350
61
  3
C6
350
62
  3
C7
350
63
  3
C8
350
64
  3
C9
350
65
  3
D0
350
66
  3
D1
350
67
  3
D2
350
68
  0
DICTIONARY
  5
15E
102
{ACAD_REACTORS
330
C
102
}
330
C
100
AcDbDictionary
281
     1
  0
XRECORD
  5
276
102
{ACAD_REACTORS
330
C
102
}
330
C
100
AcDbXrecord
280
     1
  1
DWGPROPS COOKIE
  2

  3

  4

  6

  7

  8
12016016
  9

300
=
301
=
302
=
303
=
304
=
305
=
306
=
307
=
308
=
309
=
 40
0.0
 41
2458313.015805035
 42
2458318.279143889
  1

 90
        0
  0
DICTIONARY
  5
198
102
{ACAD_REACTORS
330
197
102
}
330
197
100
AcDbDictionary
281
     1
  0
LAYOUT
  5
1E
102
{ACAD_REACTORS
330
1A
102
}
330
1A
100
AcDbPlotSettings
  1

  2
none_device
  4

  6

 40
0.0
 41
0.0
 42
0.0
 43
0.0
 44
0.0
 45
0.0
 46
0.0
 47
0.0
 48
0.0
 49
0.0
140
0.0
141
0.0
142
1.0
143
1.0
 70
   688
 72
     1
 73
     0
 74
     5
  7

 75
    16
147
1.0
148
0.0
149
0.0
100
AcDbLayout
  1
Layout1
 70
     1
 71
     1
 10
0.0
 20
0.0
 11
420.0
 21
297.0
 12
0.0
 22
0.0
 32
0.0
 14
1.000000000000000E+20
 24
1.000000000000000E+20
 34
1.000000000000000E+20
 15
-1.000000000000000E+20
 25
-1.000000000000000E+20
 35
-1.000000000000000E+20
146
0.0
 13
0.0
 23
0.0
 33
0.0
 16
1.0
 26
0.0
 36
0.0
 17
0.0
 27
1.0
 37
0.0
 76
     0
330
1B
  0
LAYOUT
  5
26
102
{ACAD_REACTORS
330
1A
102
}
330
1A
100
AcDbPlotSettings
  1

  2
none_device
  4

  6

 40
0.0
 41
0.0
 42
0.0
 43
0.0
 44
0.0
 45
0.0
 46
0.0
 47
0.0
 48
0.0
 49
0.0
140
0.0
141
0.0
142
1.0
143
1.0
 70
   688
 72
     1
 73
     0
 74
     5
  7

 75
    16
147
1.0
148
0.0
149
0.0
100
AcDbLayout
  1
Layout2
 70
     1
 71
     2
 10
0.0
 20
0.0
 11
0.0
 21
0.0
 12
0.0
 22
0.0
 32
0.0
 14
0.0
 24
0.0
 34
0.0
 15
0.0
 25
0.0
 35
0.0
146
0.0
 13
0.0
 23
0.0
 33
0.0
 16
1.0
 26
0.0
 36
0.0
 17
0.0
 27
1.0
 37
0.0
 76
     0
330
23
  0
LAYOUT
  5
22
102
{ACAD_REACTORS
330
1A
102
}
330
1A
100
AcDbPlotSettings
  1

  2
none_device
  4
ANSI_A_(11.00_x_8.50_Inches)
  6

 40
6.35
 41
19.05
 42
6.35000508
 43
19.05000254
 44
279.4
 45
215.9
 46
88.71692931477334
 47
91.33557115399195
 48
0.0
 49
0.0
140
0.0
141
0.0
142
0.0604436331801644
143
1.0
 70
  1696
 72
     0
 73
     0
 74
     0
  7

 75
     0
147
0.0235690232323232
148
0.0
149
0.0
100
AcDbLayout
  1
Model
 70
     1
 71
     0
 10
0.0
 20
0.0
 11
420.0
 21
297.0
 12
0.0
 22
0.0
 32
0.0
 14
-42.9500000000001
 24
-49.97180738881175
 34
0.0
 15
89.85662503295505
 25
36.98524999999997
 35
0.0
146
0.0
 13
0.0
 23
0.0
 33
0.0
 16
1.0
 26
0.0
 36
0.0
 17
0.0
 27
1.0
 37
0.0
 76
     0
330
1F
331
29
  0
MLINESTYLE
  5
18
102
{ACAD_REACTORS
330
17
102
}
330
17
100
AcDbMlineStyle
  2
Standard
 70
     0
  3

 62
   256
 51
90.0
 52
90.0
 71
     2
 49
0.5
 62
   256
  6
BYLAYER
 49
-0.5
 62
   256
  6
BYLAYER
  0
ACDBPLACEHOLDER
  5
F
102
{ACAD_REACTORS
330
E
102
}
330
E
  0
SCALE
  5
48
102
{ACAD_REACTORS
330
47
102
}
330
47
100
AcDbScale
 70
     0
300
1:1
140
1.0
141
1.0
290
     1
  0
SCALE
  5
49
102
{ACAD_REACTORS
330
47
102
}
330
47
100
AcDbScale
 70
     0
300
1:2
140
1.0
141
2.0
290
     0
  0
SCALE
  5
4A
102
{ACAD_REACTORS
330
47
102
}
330
47
100
AcDbScale
 70
     0
300
1:4
140
1.0
141
4.0
290
     0
  0
SCALE
  5
4B
102
{ACAD_REACTORS
330
47
102
}
330
47
100
AcDbScale
 70
     0
300
1:5
140
1.0
141
5.0
290
     0
  0
SCALE
  5
4C
102
{ACAD_REACTORS
330
47
102
}
330
47
100
AcDbScale
 70
     0
300
1:8
140
1.0
141
8.0
290
     0
  0
SCALE
  5
4D
102
{ACAD_REACTORS
330
47
102
}
330
47
100
AcDbScale
 70
     0
300
1:10
140
1.0
141
10.0
290
     0
  0
SCALE
  5
4E
102
{ACAD_REACTORS
330
47
102
}
330
47
100
AcDbScale
 70
     0
300
1:16
140
1.0
141
16.0
290
     0
  0
SCALE
  5
4F
102
{ACAD_REACTORS
330
47
102
}
330
47
100
AcDbScale
 70
     0
300
1:20
140
1.0
141
20.0
290
     0
  0
SCALE
  5
50
102
{ACAD_REACTORS
330
47
102
}
330
47
100
AcDbScale
 70
     0
300
1:30
140
1.0
141
30.0
290
     0
  0
SCALE
  5
51
102
{ACAD_REACTORS
330
47
102
}
330
47
100
AcDbScale
 70
     0
300
1:40
140
1.0
141
40.0
290
     0
  0
SCALE
  5
52
102
{ACAD_REACTORS
330
47
102
}
330
47
100
AcDbScale
 70
     0
300
1:50
140
1.0
141
50.0
290
     0
  0
SCALE
  5
53
102
{ACAD_REACTORS
330
47
102
}
330
47
100
AcDbScale
 70
     0
300
1:100
140
1.0
141
100.0
290
     0
  0
SCALE
  5
54
102
{ACAD_REACTORS
330
47
102
}
330
47
100
AcDbScale
 70
     0
300
2:1
140
2.0
141
1.0
290
     0
  0
SCALE
  5
55
102
{ACAD_REACTORS
330
47
102
}
330
47
100
AcDbScale
 70
     0
300
4:1
140
4.0
141
1.0
290
     0
  0
SCALE
  5
56
102
{ACAD_REACTORS
330
47
102
}
330
47
100
AcDbScale
 70
     0
300
8:1
140
8.0
141
1.0
290
     0
  0
SCALE
  5
57
102
{ACAD_REACTORS
330
47
102
}
330
47
100
AcDbScale
 70
     0
300
10:1
140
10.0
141
1.0
290
     0
  0
SCALE
  5
58
102
{ACAD_REACTORS
330
47
102
}
330
47
100
AcDbScale
 70
     0
300
100:1
140
100.0
141
1.0
290
     0
  0
SCALE
  5
59
102
{ACAD_REACTORS
330
47
102
}
330
47
100
AcDbScale
 70
     0
300
1/128" = 1'-0"
140
0.0078125
141
12.0
290
     0
  0
SCALE
  5
5A
102
{ACAD_REACTORS
330
47
102
}
330
47
100
AcDbScale
 70
     0
300
1/64" = 1'-0"
140
0.015625
141
12.0
290
     0
  0
SCALE
  5
5B
102
{ACAD_REACTORS
330
47
102
}
330
47
100
AcDbScale
 70
     0
300
1/32" = 1'-0"
140
0.03125
141
12.0
290
     0
  0
SCALE
  5
5C
102
{ACAD_REACTORS
330
47
102
}
330
47
100
AcDbScale
 70
     0
300
1/16" = 1'-0"
140
0.0625
141
12.0
290
     0
  0
SCALE
  5
5D
102
{ACAD_REACTORS
330
47
102
}
330
47
100
AcDbScale
 70
     0
300
3/32" = 1'-0"
140
0.09375
141
12.0
290
     0
  0
SCALE
  5
5E
102
{ACAD_REACTORS
330
47
102
}
330
47
100
AcDbScale
 70
     0
300
1/8" = 1'-0"
140
0.125
141
12.0
290
     0
  0
SCALE
  5
5F
102
{ACAD_REACTORS
330
47
102
}
330
47
100
AcDbScale
 70
     0
300
3/16" = 1'-0"
140
0.1875
141
12.0
290
     0
  0
SCALE
  5
60
102
{ACAD_REACTORS
330
47
102
}
330
47
100
AcDbScale
 70
     0
300
1/4" = 1'-0"
140
0.25
141
12.0
290
     0
  0
SCALE
  5
61
102
{ACAD_REACTORS
330
47
102
}
330
47
100
AcDbScale
 70
     0
300
3/8" = 1'-0"
140
0.375
141
12.0
290
     0
  0
SCALE
  5
62
102
{ACAD_REACTORS
330
47
102
}
330
47
100
AcDbScale
 70
     0
300
1/2" = 1'-0"
140
0.5
141
12.0
290
     0
  0
SCALE
  5
63
102
{ACAD_REACTORS
330
47
102
}
330
47
100
AcDbScale
 70
     0
300
3/4" = 1'-0"
140
0.75
141
12.0
290
     0
  0
SCALE
  5
64
102
{ACAD_REACTORS
330
47
102
}
330
47
100
AcDbScale
 70
     0
300
1" = 1'-0"
140
1.0
141
12.0
290
     0
  0
SCALE
  5
65
102
{ACAD_REACTORS
330
47
102
}
330
47
100
AcDbScale
 70
     0
300
1-1/2" = 1'-0"
140
1.5
141
12.0
290
     0
  0
SCALE
  5
66
102
{ACAD_REACTORS
330
47
102
}
330
47
100
AcDbScale
 70
     0
300
3" = 1'-0"
140
3.0
141
12.0
290
     0
  0
SCALE
  5
67
102
{ACAD_REACTORS
330
47
102
}
330
47
100
AcDbScale
 70
     0
300
6" = 1'-0"
140
6.0
141
12.0
290
     0
  0
SCALE
  5
68
102
{ACAD_REACTORS
330
47
102
}
330
47
100
AcDbScale
 70
     0
300
1'-0" = 1'-0"
140
12.0
141
12.0
290
     0
  0
ENDSEC
  0
EOF
