  0
SECTION
  2
HEADER
  9
$ACADVER
  1
AC1015
  9
$ACADMAINTVER
 70
     6
  9
$DWGCODEPAGE
  3
ANSI_949
  9
$INSBASE
 10
0.0
 20
0.0
 30
0.0
  9
$EXTMIN
 10
-42.9500000000001
 20
-49.97180738881175
 30
0.0
  9
$EXTMAX
 10
88.26912503295505
 20
37.46169783647147
 30
0.0
  9
$LIMMIN
 10
0.0
 20
0.0
  9
$LIMMAX
 10
420.0
 20
297.0
  9
$ORTHOMODE
 70
     1
  9
$REGENMODE
 70
     1
  9
$FILLMODE
 70
     1
  9
$QTEXTMODE
 70
     0
  9
$MIRRTEXT
 70
     1
  9
$LTSCALE
 40
1.0
  9
$ATTMODE
 70
     1
  9
$TEXTSIZE
 40
3.5
  9
$TRACEWID
 40
1.0
  9
$TEXTSTYLE
  7
Standard
  9
$CLAYER
  8
0
  9
$CELTYPE
  6
ByLayer
  9
$CECOLOR
 62
   256
  9
$CELTSCALE
 40
1.0
  9
$DISPSILH
 70
     0
  9
$DIMSCALE
 40
1.0
  9
$DIMASZ
 40
3.302
  9
$DIMEXO
 40
1.0
  9
$DIMDLI
 40
3.75
  9
$DIMRND
 40
0.0
  9
$DIMDLE
 40
0.0
  9
$DIMEXE
 40
1.0
  9
$DIMTP
 40
0.0
  9
$DIMTM
 40
0.0
  9
$DIMTXT
 40
3.5
  9
$DIMCEN
 40
2.5
  9
$DIMTSZ
 40
0.0
  9
$DIMTOL
 70
     0
  9
$DIMLIM
 70
     0
  9
$DIMTIH
 70
     1
  9
$DIMTOH
 70
     1
  9
$DIMSE1
 70
     0
  9
$DIMSE2
 70
     0
  9
$DIMTAD
 70
     1
  9
$DIMZIN
 70
     0
  9
$DIMBLK
  1

  9
$DIMASO
 70
     1
  9
$DIMSHO
 70
     1
  9
$DIMPOST
  1

  9
$DIMAPOST
  1

  9
$DIMALT
 70
     0
  9
$DIMALTD
 70
     3
  9
$DIMALTF
 40
0.0393700787401575
  9
$DIMLFAC
 40
1.0
  9
$DIMTOFL
 70
     1
  9
$DIMTVP
 40
0.0
  9
$DIMTIX
 70
     0
  9
$DIMSOXD
 70
     0
  9
$DIMSAH
 70
     0
  9
$DIMBLK1
  1

  9
$DIMBLK2
  1

  9
$DIMSTYLE
  2
ISO-25
  9
$DIMCLRD
 70
     0
  9
$DIMCLRE
 70
     0
  9
$DIMCLRT
 70
     0
  9
$DIMTFAC
 40
1.0
  9
$DIMGAP
 40
1.524
  9
$DIMJUST
 70
     0
  9
$DIMSD1
 70
     0
  9
$DIMSD2
 70
     0
  9
$DIMTOLJ
 70
     0
  9
$DIMTZIN
 70
     0
  9
$DIMALTZ
 70
     0
  9
$DIMALTTZ
 70
     0
  9
$DIMUPT
 70
     0
  9
$DIMDEC
 70
     2
  9
$DIMTDEC
 70
     2
  9
$DIMALTU
 70
     2
  9
$DIMALTTD
 70
     3
  9
$DIMTXSTY
  7
Standard
  9
$DIMAUNIT
 70
     0
  9
$DIMADEC
 70
     2
  9
$DIMALTRND
 40
0.0
  9
$DIMAZIN
 70
     0
  9
$DIMDSEP
 70
    44
  9
$DIMATFIT
 70
     3
  9
$DIMFRAC
 70
     0
  9
$DIMLDRBLK
  1

  9
$DIMLUNIT
 70
     2
  9
$DIMLWD
 70
    -2
  9
$DIMLWE
 70
    -2
  9
$DIMTMOVE
 70
     0
  9
$LUNITS
 70
     2
  9
$LUPREC
 70
     2
  9
$SKETCHINC
 40
1.0
  9
$FILLETRAD
 40
10.0
  9
$AUNITS
 70
     0
  9
$AUPREC
 70
     2
  9
$MENU
  1
.
  9
$ELEVATION
 40
0.0
  9
$PELEVATION
 40
0.0
  9
$THICKNESS
 40
0.0
  9
$LIMCHECK
 70
     0
  9
$CHAMFERA
 40
0.0
  9
$CHAMFERB
 40
0.0
  9
$CHAMFERC
 40
0.0
  9
$CHAMFERD
 40
0.0
  9
$SKPOLY
 70
     0
  9
$TDCREATE
 40
2458313.391228785
  9
$TDUCREATE
 40
2458313.016228785
  9
$TDUPDATE
 40
2458318.653903854
  9
$TDUUPDATE
 40
2458318.278903854
  9
$TDINDWG
 40
0.0050034838
  9
$TDUSRTIMER
 40
2458318.278864005
  9
$USRTIMER
 70
     1
  9
$ANGBASE
 50
0.0
  9
$ANGDIR
 70
     0
  9
$PDMODE
 70
     0
  9
$PDSIZE
 40
-1.0
  9
$PLINEWID
 40
0.0
  9
$SPLFRAME
 70
     0
  9
$SPLINETYPE
 70
     6
  9
$SPLINESEGS
 70
     8
  9
$HANDSEED
  5
27E
  9
$SURFTAB1
 70
     6
  9
$SURFTAB2
 70
     6
  9
$SURFTYPE
 70
     6
  9
$SURFU
 70
     6
  9
$SURFV
 70
     6
  9
$UCSBASE
  2

  9
$UCSNAME
  2

  9
$UCSORG
 10
0.0
 20
0.0
 30
0.0
  9
$UCSXDIR
 10
1.0
 20
0.0
 30
0.0
  9
$UCSYDIR
 10
0.0
 20
1.0
 30
0.0
  9
$UCSORTHOREF
  2

  9
$UCSORTHOVIEW
 70
     0
  9
$UCSORGTOP
 10
0.0
 20
0.0
 30
0.0
  9
$UCSORGBOTTOM
 10
0.0
 20
0.0
 30
0.0
  9
$UCSORGLEFT
 10
0.0
 20
0.0
 30
0.0
  9
$UCSORGRIGHT
 10
0.0
 20
0.0
 30
0.0
  9
$UCSORGFRONT
 10
0.0
 20
0.0
 30
0.0
  9
$UCSORGBACK
 10
0.0
 20
0.0
 30
0.0
  9
$PUCSBASE
  2

  9
$PUCSNAME
  2

  9
$PUCSORG
 10
0.0
 20
0.0
 30
0.0
  9
$PUCSXDIR
 10
1.0
 20
0.0
 30
0.0
  9
$PUCSYDIR
 10
0.0
 20
1.0
 30
0.0
  9
$PUCSORTHOREF
  2

  9
$PUCSORTHOVIEW
 70
     0
  9
$PUCSORGTOP
 10
0.0
 20
0.0
 30
0.0
  9
$PUCSORGBOTTOM
 10
0.0
 20
0.0
 30
0.0
  9
$PUCSORGLEFT
 10
0.0
 20
0.0
 30
0.0
  9
$PUCSORGRIGHT
 10
0.0
 20
0.0
 30
0.0
  9
$PUCSORGFRONT
 10
0.0
 20
0.0
 30
0.0
  9
$PUCSORGBACK
 10
0.0
 20
0.0
 30
0.0
  9
$USERI1
 70
     0
  9
$USERI2
 70
     0
  9
$USERI3
 70
     0
  9
$USERI4
 70
     0
  9
$USERI5
 70
     0
  9
$USERR1
 40
0.0
  9
$USERR2
 40
0.0
  9
$USERR3
 40
0.0
  9
$USERR4
 40
0.0
  9
$USERR5
 40
0.0
  9
$WORLDVIEW
 70
     1
  9
$SHADEDGE
 70
     3
  9
$SHADEDIF
 70
    70
  9
$TILEMODE
 70
     1
  9
$MAXACTVP
 70
    64
  9
$PINSBASE
 10
0.0
 20
0.0
 30
0.0
  9
$PLIMCHECK
 70
     0
  9
$PEXTMIN
 10
1.000000000000000E+20
 20
1.000000000000000E+20
 30
1.000000000000000E+20
  9
$PEXTMAX
 10
-1.000000000000000E+20
 20
-1.000000000000000E+20
 30
-1.000000000000000E+20
  9
$PLIMMIN
 10
0.0
 20
0.0
  9
$PLIMMAX
 10
0.0
 20
0.0
  9
$UNITMODE
 70
     0
  9
$VISRETAIN
 70
     1
  9
$PLINEGEN
 70
     0
  9
$PSLTSCALE
 70
     1
  9
$TREEDEPTH
 70
  3020
  9
$CMLSTYLE
  2
Standard
  9
$CMLJUST
 70
     0
  9
$CMLSCALE
 40
20.0
  9
$PROXYGRAPHICS
 70
     1
  9
$MEASUREMENT
 70
     1
  9
$CELWEIGHT
370
    -1
  9
$ENDCAPS
280
     0
  9
$JOINSTYLE
280
     0
  9
$LWDISPLAY
290
     1
  9
$INSUNITS
 70
     4
  9
$HYPERLINKBASE
  1

  9
$STYLESHEET
  1

  9
$XEDIT
290
     1
  9
$CEPSNTYPE
380
     0
  9
$PSTYLEMODE
290
     1
  9
$FINGERPRINTGUID
  2
{73DC6D30-BA19-472F-AA41-2FF7A69F1066}
  9
$VERSIONGUID
  2
{FAEB1C32-E019-11D5-929B-00C0DF256EC4}
  9
$EXTNAMES
290
     1
  9
$PSVPSCALE
 40
0.0
  9
$OLESTARTUP
290
     0
  0
ENDSEC
  0
SECTION
  2
CLASSES
  0
CLASS
  1
ACDBDICTIONARYWDFLT
  2
AcDbDictionaryWithDefault
  3
ObjectDBX Classes
 90
        0
280
     0
281
     0
  0
CLASS
  1
VISUALSTYLE
  2
AcDbVisualStyle
  3
ObjectDBX Classes
 90
     4095
280
     0
281
     0
  0
CLASS
  1
MATERIAL
  2
AcDbMaterial
  3
ObjectDBX Classes
 90
     1153
280
     0
281
     0
  0
CLASS
  1
SCALE
  2
AcDbScale
  3
ObjectDBX Classes
 90
     1153
280
     0
281
     0
  0
CLASS
  1
SUN
  2
AcDbSun
  3
SCENEOE
 90
     1153
280
     0
281
     0
  0
CLASS
  1
ACDBPLACEHOLDER
  2
AcDbPlaceHolder
  3
ObjectDBX Classes
 90
        0
280
     0
281
     0
  0
CLASS
  1
LAYOUT
  2
AcDbLayout
  3
ObjectDBX Classes
 90
        0
280
     0
281
     0
  0
CLASS
  1
TABLESTYLE
  2
AcDbTableStyle
  3
ObjectDBX Classes
 90
     4095
280
     0
281
     0
  0
CLASS
  1
MLEADERSTYLE
  2
AcDbMLeaderStyle
  3
ACDB_MLEADERSTYLE_CLASS
 90
     4095
280
     0
281
     0
  0
CLASS
  1
DICTIONARYVAR
  2
AcDbDictionaryVar
  3
ObjectDBX Classes
 90
        0
280
     0
281
     0
  0
CLASS
  1
RASTERVARIABLES
  2
AcDbRasterVariables
  3
ISM
 90
        0
280
     0
281
     0
  0
ENDSEC
  0
SECTION
  2
TABLES
  0
TABLE
  2
VPORT
  5
8
330
0
100
AcDbSymbolTable
 70
     1
  0
VPORT
  5
29
330
8
100
AcDbSymbolTableRecord
100
AcDbViewportTableRecord
  2
*Active
 70
     0
 10
0.0
 20
0.0
 11
1.0
 21
1.0
 12
22.65956251647747
 22
-6.255054776170134
 13
0.0
 23
0.0
 14
10.0
 24
10.0
 15
10.0
 25
10.0
 16
0.0
 26
0.0
 36
1.0
 17
0.0
 27
0.0
 37
0.0
 40
89.18217532978889
 41
1.782762691853601
 42
50.0
 43
0.0
 44
0.0
 50
0.0
 51
0.0
 71
    16
 72
  2000
 73
     1
 74
     3
 75
     0
 76
     0
 77
     0
 78
     0
281
     0
 65
     1
110
0.0
120
0.0
130
0.0
111
1.0
121
0.0
131
0.0
112
0.0
122
1.0
132
0.0
 79
     0
146
0.0
  0
ENDTAB
  0
TABLE
  2
LTYPE
  5
5
330
0
100
AcDbSymbolTable
 70
     6
  0
LTYPE
  5
14
330
5
100
AcDbSymbolTableRecord
100
AcDbLinetypeTableRecord
  2
ByBlock
 70
     0
  3

 72
    65
 73
     0
 40
0.0
  0
LTYPE
  5
15
330
5
100
AcDbSymbolTableRecord
100
AcDbLinetypeTableRecord
  2
ByLayer
 70
     0
  3

 72
    65
 73
     0
 40
0.0
  0
LTYPE
  5
16
330
5
100
AcDbSymbolTableRecord
100
AcDbLinetypeTableRecord
  2
Continuous
 70
     0
  3
Solid line
 72
    65
 73
     0
 40
0.0
  0
LTYPE
  5
6A
330
5
100
AcDbSymbolTableRecord
100
AcDbLinetypeTableRecord
  2
HIDDEN
 70
     0
  3
Hidden __ __ __ __ __ __ __ __ __ __ __ __ __ __
 72
    65
 73
     2
 40
1.905
 49
1.27
 74
     0
 49
-0.635
 74
     0
  0
LTYPE
  5
6B
330
5
100
AcDbSymbolTableRecord
100
AcDbLinetypeTableRecord
  2
PHANTOM
 70
     0
  3
Phantom ______  __  __  ______  __  __  ______
 72
    65
 73
     6
 40
12.7
 49
6.35
 74
     0
 49
-1.27
 74
     0
 49
1.27
 74
     0
 49
-1.27
 74
     0
 49
1.27
 74
     0
 49
-1.27
 74
     0
  0
LTYPE
  5
6C
330
5
100
AcDbSymbolTableRecord
100
AcDbLinetypeTableRecord
  2
CENTER
 70
     0
  3
Center ____ _ ____ _ ____ _ ____ _ ____ _ ____
 72
    65
 73
     4
 40
10.16
 49
6.35
 74
     0
 49
-1.27
 74
     0
 49
1.27
 74
     0
 49
-1.27
 74
     0
  0
LTYPE
  5
6D
330
5
100
AcDbSymbolTableRecord
100
AcDbLinetypeTableRecord
  2
CENTERX2
 70
     0
  3
Center (2x) ________  __  ________  __  _____
 72
    65
 73
     4
 40
20.32
 49
12.7
 74
     0
 49
-2.54
 74
     0
 49
2.54
 74
     0
 49
-2.54
 74
     0
  0
LTYPE
  5
6E
330
5
100
AcDbSymbolTableRecord
100
AcDbLinetypeTableRecord
  2
DOT2
 70
     0
  3
Dot (.5x) ........................................
 72
    65
 73
     2
 40
0.635
 49
0.0
 74
     0
 49
-0.635
 74
     0
  0
ENDTAB
  0
TABLE
  2
LAYER
  5
2
102
{ACAD_XDICTIONARY
360
197
102
}
330
0
100
AcDbSymbolTable
 70
    18
  0
LAYER
  5
10
330
2
100
AcDbSymbolTableRecord
100
AcDbLayerTableRecord
  2
0
 70
     0
 62
     7
  6
Continuous
370
    -3
390
F
  0
LAYER
  5
6F
330
2
100
AcDbSymbolTableRecord
100
AcDbLayerTableRecord
  2
FORMAT
 70
     0
 62
     2
  6
Continuous
370
    -3
390
F
  0
LAYER
  5
70
330
2
100
AcDbSymbolTableRecord
100
AcDbLayerTableRecord
  2
외형선
 70
     0
 62
     4
  6
Continuous
370
    30
390
F
  0
LAYER
  5
71
330
2
100
AcDbSymbolTableRecord
100
AcDbLayerTableRecord
  2
숨은선
 70
     0
 62
     2
  6
HIDDEN
370
    15
390
F
  0
LAYER
  5
72
330
2
100
AcDbSymbolTableRecord
100
AcDbLayerTableRecord
  2
중심선
 70
     0
 62
     1
  6
CENTERX2
370
    -3
390
F
  0
LAYER
  5
73
330
2
100
AcDbSymbolTableRecord
100
AcDbLayerTableRecord
  2
파단선
 70
     0
 62
     4
  6
Continuous
370
    -3
390
F
  0
LAYER
  5
74
330
2
100
AcDbSymbolTableRecord
100
AcDbLayerTableRecord
  2
해칭선
 70
     0
 62
   100
  6
Continuous
370
    -3
390
F
  0
LAYER
  5
75
330
2
100
AcDbSymbolTableRecord
100
AcDbLayerTableRecord
  2
가는실선
 70
     0
 62
     4
  6
Continuous
370
    -3
390
F
  0
LAYER
  5
76
330
2
100
AcDbSymbolTableRecord
100
AcDbLayerTableRecord
  2
치수_보조선
 70
     0
 62
     4
  6
Continuous
370
    -3
390
F
  0
LAYER
  5
77
330
2
100
AcDbSymbolTableRecord
100
AcDbLayerTableRecord
  2
치수문자_일반주서
 70
     0
 62
     7
  6
Continuous
370
    15
390
F
  0
LAYER
  5
78
330
2
100
AcDbSymbolTableRecord
100
AcDbLayerTableRecord
  2
개별주서
 70
     0
 62
   100
  6
Continuous
370
    30
390
F
  0
LAYER
  5
79
330
2
100
AcDbSymbolTableRecord
100
AcDbLayerTableRecord
  2
중간선
 70
     0
 62
     2
  6
Continuous
370
    15
390
F
  0
LAYER
  5
7A
330
2
100
AcDbSymbolTableRecord
100
AcDbLayerTableRecord
  2
윤곽선
 70
     0
 62
     3
  6
Continuous
370
    40
390
F
  0
LAYER
  5
7B
330
2
100
AcDbSymbolTableRecord
100
AcDbLayerTableRecord
  2
중심마크
 70
     0
 62
   100
  6
Continuous
370
    30
390
F
  0
LAYER
  5
7C
330
2
100
AcDbSymbolTableRecord
100
AcDbLayerTableRecord
  2
가상선
 70
     0
 62
     4
  6
PHANTOM
370
    -3
390
F
  0
LAYER
  5
7D
330
2
100
AcDbSymbolTableRecord
100
AcDbLayerTableRecord
  2
특수지정선
 70
     0
 62
     5
  6
CENTERX2
370
    60
390
F
  0
LAYER
  5
7E
330
2
100
AcDbSymbolTableRecord
100
AcDbLayerTableRecord
  2
참조1
 70
     0
 62
    -4
  6
Continuous
370
    -3
390
F
  0
LAYER
  5
160
330
2
100
AcDbSymbolTableRecord
100
AcDbLayerTableRecord
  2
Defpoints
 70
     0
 62
     7
  6
Continuous
290
     0
370
    -3
390
F
  0
ENDTAB
  0
TABLE
  2
STYLE
  5
3
330
0
100
AcDbSymbolTable
 70
     2
  0
STYLE
  5
11
330
3
100
AcDbSymbolTableRecord
100
AcDbTextStyleTableRecord
  2
Standard
 70
     0
 40
0.0
 41
1.0
 50
0.0
 71
     0
 42
3.5
  3
txt
  4

  0
STYLE
  5
94
330
3
100
AcDbSymbolTableRecord
100
AcDbTextStyleTableRecord
  2
SLDTEXTSTYLE0
 70
     0
 40
0.0
 41
0.75
 50
0.0
 71
     0
 42
3.5
  3
TXT
  4

  0
ENDTAB
  0
TABLE
  2
VIEW
  5
6
330
0
100
AcDbSymbolTable
 70
     0
  0
ENDTAB
  0
TABLE
  2
UCS
  5
7
330
0
100
AcDbSymbolTable
 70
     0
  0
ENDTAB
  0
TABLE
  2
APPID
  5
9
330
0
100
AcDbSymbolTable
 70
     2
  0
APPID
  5
12
330
9
100
AcDbSymbolTableRecord
100
AcDbRegAppTableRecord
  2
ACAD
 70
     0
  0
APPID
  5
167
330
9
100
AcDbSymbolTableRecord
100
AcDbRegAppTableRecord
  2
PE_URL
 70
     0
  0
ENDTAB
  0
TABLE
  2
DIMSTYLE
  5
A
330
0
100
AcDbSymbolTable
 70
     3
100
AcDbDimStyleTable
  0
DIMSTYLE
105
27
330
A
100
AcDbSymbolTableRecord
100
AcDbDimStyleTableRecord
  2
ISO-25
 70
     0
 41
2.5
 42
0.625
 43
3.75
 44
1.25
 73
     0
 74
     0
 77
     1
 78
     8
140
2.5
141
2.5
143
0.03937007874016
147
0.625
171
     3
172
     1
178
     0
271
     2
272
     2
274
     3
278
    44
283
     0
284
     8
340
11
  0
DIMSTYLE
105
DF
102
{ACAD_REACTORS
330
DE
330
F3
330
107
330
11C
102
}
330
A
100
AcDbSymbolTableRecord
100
AcDbDimStyleTableRecord
  2
SLDDIMSTYLE0
 70
     0
 41
3.302
 44
0.0
 45
0.000000001
 73
     0
 74
     0
 77
     1
 78
    12
 79
     3
140
3.5
143
0.0393700787401575
147
0.875
148
0.000000001
170
     1
172
     1
173
     1
178
     0
271
     2
272
     2
276
     2
284
    12
289
     0
340
94
  0
DIMSTYLE
105
108
330
A
100
AcDbSymbolTableRecord
100
AcDbDimStyleTableRecord
  2
SLDDIMSTYLE1
 70
     0
 41
3.302
 44
0.0
 45
0.000000001
 73
     0
 74
     0
 77
     1
 78
    12
 79
     3
140
3.5
143
0.0393700787401575
147
0.875
148
0.000000001
170
     1
173
     1
178
     0
271
     2
272
     2
276
     2
284
    12
340
94
  0
ENDTAB
  0
TABLE
  2
BLOCK_RECORD
  5
1
330
0
100
AcDbSymbolTable
 70
     9
  0
BLOCK_RECORD
  5
1F
330
1
100
AcDbSymbolTableRecord
100
AcDbBlockTableRecord
  2
*Model_Space
340
22
  0
BLOCK_RECORD
  5
1B
330
1
100
AcDbSymbolTableRecord
100
AcDbBlockTableRecord
  2
*Paper_Space
340
1E
  0
BLOCK_RECORD
  5
23
330
1
100
AcDbSymbolTableRecord
100
AcDbBlockTableRecord
  2
*Paper_Space0
340
26
  0
BLOCK_RECORD
  5
7F
330
1
100
AcDbSymbolTableRecord
100
AcDbBlockTableRecord
  2
블럭10
340
0
102
{BLKREFS
331
D7
102
}
  0
BLOCK_RECORD
  5
E0
330
1
100
AcDbSymbolTableRecord
100
AcDbBlockTableRecord
  2
_D
340
0
  0
BLOCK_RECORD
  5
F4
330
1
100
AcDbSymbolTableRecord
100
AcDbBlockTableRecord
  2
_D_1
340
0
  0
BLOCK_RECORD
  5
109
330
1
100
AcDbSymbolTableRecord
100
AcDbBlockTableRecord
  2
_D_2
340
0
  0
BLOCK_RECORD
  5
11D
330
1
100
AcDbSymbolTableRecord
100
AcDbBlockTableRecord
  2
_D_3
340
0
  0
BLOCK_RECORD
  5
136
330
1
100
AcDbSymbolTableRecord
100
AcDbBlockTableRecord
  2
SW_DOWELSYMBOL_0
340
0
102
{BLKREFS
331
13C
102
}
  0
BLOCK_RECORD
  5
19B
330
1
100
AcDbSymbolTableRecord
100
AcDbBlockTableRecord
  2
*D7
340
0
  0
BLOCK_RECORD
  5
1AD
330
1
100
AcDbSymbolTableRecord
100
AcDbBlockTableRecord
  2
*D8
340
0
  0
ENDTAB
  0
ENDSEC
  0
SECTION
  2
BLOCKS
  0
BLOCK
  5
20
330
1F
100
AcDbEntity
  8
0
100
AcDbBlockBegin
  2
*Model_Space
 70
     0
 10
0.0
 20
0.0
 30
0.0
  3
*Model_Space
  1
*Model_Space
  0
ENDBLK
  5
21
330
1F
100
AcDbEntity
  8
0
100
AcDbBlockEnd
  0
BLOCK
  5
1C
330
1B
100
AcDbEntity
 67
     1
  8
0
100
AcDbBlockBegin
  2
*Paper_Space
 70
     0
 10
0.0
 20
0.0
 30
0.0
  3
*Paper_Space
  1
*Paper_Space
  0
ENDBLK
  5
1D
330
1B
100
AcDbEntity
 67
     1
  8
0
100
AcDbBlockEnd
  0
BLOCK
  5
24
330
23
100
AcDbEntity
  8
0
100
AcDbBlockBegin
  2
*Paper_Space0
 70
     0
 10
0.0
 20
0.0
 30
0.0
  3
*Paper_Space0
  1
*Paper_Space0
  0
ENDBLK
  5
25
330
23
100
AcDbEntity
  8
0
100
AcDbBlockEnd
  0
BLOCK
  5
80
330
7F
100
AcDbEntity
  8
0
100
AcDbBlockBegin
  2
블럭10
 70
     2
 10
0.0
 20
0.0
 30
0.0
  3
블럭10
  1
블럭10
  0
ELLIPSE
  5
82
330
7F
100
AcDbEntity
  8
중심선
100
AcDbEllipse
 10
20.54032771741204
 20
12.0471743016438
 30
0.0
 11
6.600054785286829
 21
-1.261213355974178E-13
 31
0.0
210
0.0
220
0.0
230
1.0
 40
0.636358354079598
 41
0.9219305317359503
 42
6.513795318482858
  0
ELLIPSE
  5
83
330
7F
100
AcDbEntity
  8
중심선
100
AcDbEllipse
 10
20.54032771746488
 20
12.04717430159265
 30
0.0
 11
3.960054785062283
 21
1.540847449632565E-10
 31
0.0
210
0.0
220
0.0
230
1.0
 40
0.3939339440162632
 41
1.131841032648279
 42
5.62031148352944
  0
LINE
  5
84
330
7F
100
AcDbEntity
  8
중심선
100
AcDbLine
 10
2.268634060543552
 20
16.24717430164393
 30
0.0
 11
5.714909304380834
 21
16.24717430164393
 31
0.0
  0
LINE
  5
85
330
7F
100
AcDbEntity
  8
중심선
100
AcDbLine
 10
5.245725140726316
 20
7.84717430164391
 30
0.0
 11
8.692000384563599
 21
7.84717430164391
 31
0.0
  0
LINE
  5
86
330
7F
100
AcDbEntity
  8
중심선
100
AcDbLine
 10
15.74043728645272
 20
16.24717430164393
 30
0.0
 11
8.692000384563599
 21
7.84717430164391
 31
0.0
  0
LINE
  5
87
330
7F
100
AcDbEntity
  8
중심선
100
AcDbLine
 10
0.1404042013395286
 20
13.71084872107135
 30
0.0
 11
3.58671253028996
 21
13.71088815037384
 31
0.0
  0
LINE
  5
88
330
7F
100
AcDbEntity
  8
중심선
100
AcDbLine
 10
2.750260043222114
 20
10.84717430164391
 30
0.0
 11
6.196535287059397
 21
10.84717430164391
 31
0.0
  0
LINE
  5
89
330
7F
100
AcDbEntity
  8
중심선
100
AcDbLine
 10
12.29416204261559
 20
16.24717430164393
 30
0.0
 11
5.245725140726316
 21
7.84717430164391
 31
0.0
  0
LINE
  5
8A
330
7F
100
AcDbEntity
  8
중심선
100
AcDbLine
 10
10.72767329541681
 20
16.24717430164393
 30
0.0
 11
6.196535287059397
 21
10.84717430164391
 31
0.0
  0
LINE
  5
8B
330
7F
100
AcDbEntity
  8
중심선
100
AcDbLine
 10
7.28139805157953
 20
16.24717430164393
 30
0.0
 11
2.750260043222114
 21
10.84717430164391
 31
0.0
  0
LINE
  5
8C
330
7F
100
AcDbEntity
  8
중심선
100
AcDbLine
 10
5.714909304380834
 20
16.24717430164393
 30
0.0
 11
3.58671253028996
 21
13.71088815037384
 31
0.0
  0
LINE
  5
8D
330
7F
100
AcDbEntity
  8
중심선
100
AcDbLine
 10
2.268634060543552
 20
16.24717430164393
 30
0.0
 11
0.1404042013395286
 21
13.71084872107135
 31
0.0
  0
LINE
  5
8E
330
7F
100
AcDbEntity
  8
중심선
100
AcDbLine
 10
7.28139805157953
 20
16.24717430164393
 30
0.0
 11
10.72767329541681
 21
16.24717430164393
 31
0.0
  0
LINE
  5
8F
330
7F
100
AcDbEntity
  8
중심선
100
AcDbLine
 10
12.29416204261559
 20
16.24717430164393
 30
0.0
 11
15.74043728645272
 21
16.24717430164393
 31
0.0
  0
LINE
  5
90
330
7F
100
AcDbEntity
  8
중심선
100
AcDbLine
 10
19.22036997980202
 20
11.08717430171403
 30
0.0
 11
23.66174974927406
 21
11.08717430171406
 31
0.0
  0
LINE
  5
91
330
7F
100
AcDbEntity
  8
중심선
100
AcDbLine
 10
19.22039502424796
 20
13.00717430171391
 30
0.0
 11
19.22036997980202
 21
11.08717430171403
 31
0.0
  0
LINE
  5
92
330
7F
100
AcDbEntity
  8
중심선
100
AcDbLine
 10
19.22039502424796
 20
13.00717430171391
 30
0.0
 11
26.96566020931264
 21
13.00717430171391
 31
0.0
  0
LINE
  5
93
330
7F
100
AcDbEntity
  8
중심선
100
AcDbLine
 10
22.22332737316547
 20
13.45928029700563
 30
0.0
 11
24.52862924686651
 21
15.39360700705356
 31
0.0
  0
ATTDEF
  5
95
330
7F
100
AcDbEntity
  8
FORMAT
 62
     2
100
AcDbText
 10
4.408487351596664
 20
2.075366912832191
 30
0.0
 40
4.233333333333333
  1
E1003010
 41
0.75
  7
SLDTEXTSTYLE0
 11
4.408487351596664
 21
-0.0412997538344756
 31
0.0
100
AcDbAttributeDefinition
  3

  2
AUTOATTR0
 70
     0
 74
     1
  0
ENDBLK
  5
81
330
7F
100
AcDbEntity
  8
0
100
AcDbBlockEnd
  0
BLOCK
  5
E1
330
E0
100
AcDbEntity
  8
0
100
AcDbBlockBegin
  2
_D
 70
     0
 10
0.0
 20
0.0
 30
0.0
  3
_D
  1
_D
  0
LINE
  5
E3
330
E0
100
AcDbEntity
  8
치수문자_일반주서
 62
     0
370
    -2
100
AcDbLine
 10
-15.0438423357461
 20
2.381250000000024
 30
0.0
 11
-38.575
 21
2.381249999999934
 31
0.0
  0
LINE
  5
E4
330
E0
100
AcDbEntity
  8
치수문자_일반주서
 62
     0
370
    -2
100
AcDbLine
 10
-15.04384233574611
 20
-2.381250000000001
 30
0.0
 11
-38.57499999999998
 21
-2.38125000000009
 31
0.0
  0
LINE
  5
E5
330
E0
100
AcDbEntity
  8
치수문자_일반주서
 62
     0
370
    -2
100
AcDbLine
 10
-38.575
 20
2.381249999999934
 30
0.0
 11
-38.5750000000001
 21
36.98524999999997
 31
0.0
  0
LINE
  5
E6
330
E0
100
AcDbEntity
  8
치수문자_일반주서
 62
     0
370
    -2
100
AcDbLine
 10
-38.575
 20
2.381249999999934
 30
0.0
 11
-38.57499999999998
 21
-2.38125000000009
 31
0.0
  0
LINE
  5
E7
330
E0
100
AcDbEntity
  8
치수문자_일반주서
 62
     0
370
    -2
100
AcDbLine
 10
-38.575
 20
5.683249999999934
 30
0.0
 11
-38.57500000000001
 21
8.985249999999933
 31
0.0
  0
LINE
  5
E8
330
E0
100
AcDbEntity
  8
치수문자_일반주서
 62
     0
370
    -2
100
AcDbLine
 10
-38.57499999999997
 20
-5.68325000000009
 30
0.0
 11
-38.57499999999997
 21
-8.98525000000009
 31
0.0
  0
SOLID
  5
E9
330
E0
100
AcDbEntity
  8
치수문자_일반주서
 62
     0
100
AcDbTrace
 10
-39.12533333333334
 20
5.683249999999932
 30
0.0
 11
-38.02466666666667
 21
5.683249999999935
 31
0.0
 12
-38.575
 22
2.381249999999934
 32
0.0
 13
-38.575
 23
2.381249999999934
 33
0.0
  0
SOLID
  5
EA
330
E0
100
AcDbEntity
  8
치수문자_일반주서
 62
     0
100
AcDbTrace
 10
-38.02466666666664
 20
-5.683250000000088
 30
0.0
 11
-39.12533333333331
 21
-5.683250000000092
 31
0.0
 12
-38.57499999999998
 22
-2.38125000000009
 32
0.0
 13
-38.57499999999998
 23
-2.38125000000009
 33
0.0
  0
MTEXT
  5
EB
330
E0
100
AcDbEntity
  8
치수문자_일반주서
 62
     0
100
AcDbMText
 10
-42.95000000000006
 20
22.98524999999995
 30
0.0
 40
3.5
 41
0.0
 71
     2
 72
     1
  1
\A1;%%c4.76 [3/16]
  7
SLDTEXTSTYLE0
 11
-2.983906501879670E-15
 21
1.0
 31
0.0
 73
     1
 44
1.0
  0
POINT
  5
1C6
330
E0
100
AcDbEntity
  8
Defpoints
 62
     0
100
AcDbPoint
 10
-14.9813423357461
 20
2.381250000000024
 30
0.0
  0
POINT
  5
1C7
330
E0
100
AcDbEntity
  8
Defpoints
 62
     0
100
AcDbPoint
 10
-14.98134233574611
 20
-2.38125
 30
0.0
  0
POINT
  5
1C8
330
E0
100
AcDbEntity
  8
Defpoints
 62
     0
100
AcDbPoint
 10
-38.57499999999998
 20
-2.381250000000088
 30
0.0
  0
ENDBLK
  5
E2
330
E0
100
AcDbEntity
  8
0
100
AcDbBlockEnd
  0
BLOCK
  5
F5
330
F4
100
AcDbEntity
  8
0
100
AcDbBlockBegin
  2
_D_1
 70
     0
 10
0.0
 20
0.0
 30
0.0
  3
_D_1
  1
_D_1
  0
LINE
  5
F7
330
F4
100
AcDbEntity
  8
치수문자_일반주서
 62
     0
370
    -2
100
AcDbLine
 10
28.6375
 20
-1.982697836471324
 30
0.0
 11
66.43123335457503
 21
-1.982697836471182
 31
0.0
  0
LINE
  5
F8
330
F4
100
AcDbEntity
  8
치수문자_일반주서
 62
     0
370
    -2
100
AcDbLine
 10
28.6375
 20
1.982697836471325
 30
0.0
 11
66.43123335457501
 21
1.982697836471466
 31
0.0
  0
LINE
  5
F9
330
F4
100
AcDbEntity
  8
치수문자_일반주서
 62
     0
370
    -2
100
AcDbLine
 10
66.43123335457501
 20
1.982697836471466
 30
0.0
 11
66.43123335457489
 21
37.46169783647147
 31
0.0
  0
LINE
  5
FA
330
F4
100
AcDbEntity
  8
치수문자_일반주서
 62
     0
370
    -2
100
AcDbLine
 10
66.43123335457503
 20
-1.982697836471182
 30
0.0
 11
66.43123335457501
 21
1.982697836471466
 31
0.0
  0
LINE
  5
FB
330
F4
100
AcDbEntity
  8
치수문자_일반주서
 62
     0
370
    -2
100
AcDbLine
 10
66.43123335457504
 20
-5.284697836471182
 30
0.0
 11
66.43123335457506
 21
-8.586697836471181
 31
0.0
  0
LINE
  5
FC
330
F4
100
AcDbEntity
  8
치수문자_일반주서
 62
     0
370
    -2
100
AcDbLine
 10
66.431233354575
 20
5.284697836471466
 30
0.0
 11
66.43123335457499
 21
8.586697836471465
 31
0.0
  0
SOLID
  5
FD
330
F4
100
AcDbEntity
  8
치수문자_일반주서
 62
     0
100
AcDbTrace
 10
66.98156668790837
 20
-5.28469783647118
 30
0.0
 11
65.88090002124171
 21
-5.284697836471183
 31
0.0
 12
66.43123335457503
 22
-1.982697836471182
 32
0.0
 13
66.43123335457503
 23
-1.982697836471182
 33
0.0
  0
SOLID
  5
FE
330
F4
100
AcDbEntity
  8
치수문자_일반주서
 62
     0
100
AcDbTrace
 10
65.88090002124167
 20
5.284697836471464
 30
0.0
 11
66.98156668790833
 21
5.284697836471468
 31
0.0
 12
66.43123335457501
 22
1.982697836471466
 32
0.0
 13
66.43123335457501
 23
1.982697836471466
 33
0.0
  0
MTEXT
  5
FF
330
F4
100
AcDbEntity
  8
치수문자_일반주서
 62
     0
100
AcDbMText
 10
62.05623335457494
 20
23.02419783647145
 30
0.0
 40
3.5
 41
0.0
 71
     2
 72
     1
  1
\A1;%%c3.97 [5/32]
  7
SLDTEXTSTYLE0
 11
-3.583716705035991E-15
 21
1.0
 31
0.0
 73
     1
 44
1.0
  0
POINT
  5
100
330
F4
100
AcDbEntity
  8
Defpoints
 62
     0
100
AcDbPoint
 10
28.575
 20
-1.982697836471324
 30
0.0
  0
POINT
  5
101
330
F4
100
AcDbEntity
  8
Defpoints
 62
     0
100
AcDbPoint
 10
28.575
 20
1.982697836471325
 30
0.0
  0
POINT
  5
102
330
F4
100
AcDbEntity
  8
Defpoints
 62
     0
100
AcDbPoint
 10
66.43123335457501
 20
1.982697836471466
 30
0.0
  0
ENDBLK
  5
F6
330
F4
100
AcDbEntity
  8
0
100
AcDbBlockEnd
  0
BLOCK
  5
10A
330
109
100
AcDbEntity
  8
0
100
AcDbBlockBegin
  2
_D_2
 70
     0
 10
0.0
 20
0.0
 30
0.0
  3
_D_2
  1
_D_2
  0
LINE
  5
10C
330
109
100
AcDbEntity
  8
치수문자_일반주서
 62
     0
370
    -2
100
AcDbLine
 10
28.575
 20
2.045197836471325
 30
0.0
 11
28.575
 21
12.38125
 31
0.0
  0
LINE
  5
10D
330
109
100
AcDbEntity
  8
치수문자_일반주서
 62
     0
370
    -2
100
AcDbLine
 10
17.46249999999996
 20
1.563999545581162
 30
0.0
 11
17.46249999999996
 21
12.38125
 31
0.0
  0
LINE
  5
10E
330
109
100
AcDbEntity
  8
치수문자_일반주서
 62
     0
370
    -2
100
AcDbLine
 10
28.575
 20
12.38125
 30
0.0
 11
59.679
 21
12.38125
 31
0.0
  0
LINE
  5
10F
330
109
100
AcDbEntity
  8
치수문자_일반주서
 62
     0
370
    -2
100
AcDbLine
 10
28.575
 20
12.38125
 30
0.0
 11
17.46249999999996
 21
12.38125
 31
0.0
  0
LINE
  5
110
330
109
100
AcDbEntity
  8
치수문자_일반주서
 62
     0
370
    -2
100
AcDbLine
 10
31.877
 20
12.38125
 30
0.0
 11
35.179
 21
12.38125
 31
0.0
  0
LINE
  5
111
330
109
100
AcDbEntity
  8
치수문자_일반주서
 62
     0
370
    -2
100
AcDbLine
 10
14.16049999999996
 20
12.38125
 30
0.0
 11
10.85849999999996
 21
12.38125
 31
0.0
  0
SOLID
  5
112
330
109
100
AcDbEntity
  8
치수문자_일반주서
 62
     0
100
AcDbTrace
 10
31.877
 20
12.93158333333333
 30
0.0
 11
31.877
 21
11.83091666666666
 31
0.0
 12
28.575
 22
12.38125
 32
0.0
 13
28.575
 23
12.38125
 33
0.0
  0
SOLID
  5
113
330
109
100
AcDbEntity
  8
치수문자_일반주서
 62
     0
100
AcDbTrace
 10
14.16049999999996
 20
11.83091666666666
 30
0.0
 11
14.16049999999996
 21
12.93158333333333
 31
0.0
 12
17.46249999999996
 22
12.38125
 32
0.0
 13
17.46249999999996
 23
12.38125
 33
0.0
  0
MTEXT
  5
114
330
109
100
AcDbEntity
  8
치수문자_일반주서
 62
     0
100
AcDbMText
 10
47.429
 20
16.75624999999999
 30
0.0
 40
3.5
 41
0.0
 71
     2
 72
     1
  1
\A1;11.11 [7/16]
  7
SLDTEXTSTYLE0
 73
     1
 44
1.0
  0
POINT
  5
115
330
109
100
AcDbEntity
  8
Defpoints
 62
     0
100
AcDbPoint
 10
28.575
 20
1.982697836471325
 30
0.0
  0
POINT
  5
116
330
109
100
AcDbEntity
  8
Defpoints
 62
     0
100
AcDbPoint
 10
17.46249999999996
 20
1.501499545581162
 30
0.0
  0
POINT
  5
117
330
109
100
AcDbEntity
  8
Defpoints
 62
     0
100
AcDbPoint
 10
17.46249999999996
 20
12.38125
 30
0.0
  0
ENDBLK
  5
10B
330
109
100
AcDbEntity
  8
0
100
AcDbBlockEnd
  0
BLOCK
  5
11E
330
11D
100
AcDbEntity
  8
0
100
AcDbBlockBegin
  2
_D_3
 70
     0
 10
0.0
 20
0.0
 30
0.0
  3
_D_3
  1
_D_3
  0
LINE
  5
120
330
11D
100
AcDbEntity
  8
치수문자_일반주서
 62
     0
370
    -2
100
AcDbLine
 10
-28.575
 20
2.045197836471369
 30
0.0
 11
-28.575
 21
22.38125
 31
0.0
  0
LINE
  5
121
330
11D
100
AcDbEntity
  8
치수문자_일반주서
 62
     0
370
    -2
100
AcDbLine
 10
28.575
 20
2.045197836471325
 30
0.0
 11
28.575
 21
22.38125
 31
0.0
  0
LINE
  5
122
330
11D
100
AcDbEntity
  8
치수문자_일반주서
 62
     0
370
    -2
100
AcDbLine
 10
-25.273
 20
22.38125
 30
0.0
 11
25.273
 21
22.38125
 31
0.0
  0
SOLID
  5
123
330
11D
100
AcDbEntity
  8
치수문자_일반주서
 62
     0
100
AcDbTrace
 10
-25.273
 20
22.93158333333333
 30
0.0
 11
-25.273
 21
21.83091666666666
 31
0.0
 12
-28.575
 22
22.38125
 32
0.0
 13
-28.575
 23
22.38125
 33
0.0
  0
SOLID
  5
124
330
11D
100
AcDbEntity
  8
치수문자_일반주서
 62
     0
100
AcDbTrace
 10
25.273
 20
21.83091666666666
 30
0.0
 11
25.273
 21
22.93158333333333
 31
0.0
 12
28.575
 22
22.38125
 32
0.0
 13
28.575
 23
22.38125
 33
0.0
  0
MTEXT
  5
125
330
11D
100
AcDbEntity
  8
치수문자_일반주서
 62
     0
100
AcDbMText
 10
0.0000000000000124
 20
26.75625
 30
0.0
 40
3.5
 41
0.0
 71
     2
 72
     1
  1
\A1;57.15 [2 1/4]
  7
SLDTEXTSTYLE0
 73
     1
 44
1.0
  0
POINT
  5
126
330
11D
100
AcDbEntity
  8
Defpoints
 62
     0
100
AcDbPoint
 10
-28.575
 20
1.982697836471368
 30
0.0
  0
POINT
  5
127
330
11D
100
AcDbEntity
  8
Defpoints
 62
     0
100
AcDbPoint
 10
28.575
 20
1.982697836471325
 30
0.0
  0
POINT
  5
128
330
11D
100
AcDbEntity
  8
Defpoints
 62
     0
100
AcDbPoint
 10
28.575
 20
22.38125
 30
0.0
  0
ENDBLK
  5
11F
330
11D
100
AcDbEntity
  8
0
100
AcDbBlockEnd
  0
BLOCK
  5
137
330
136
100
AcDbEntity
  8
0
100
AcDbBlockBegin
  2
SW_DOWELSYMBOL_0
 70
     0
 10
0.0
 20
0.0
 30
0.0
  3
SW_DOWELSYMBOL_0
  1
SW_DOWELSYMBOL_0
  0
CIRCLE
  5
139
330
136
100
AcDbEntity
  8
해칭선
 62
     0
100
AcDbCircle
 10
0.0
 20
0.0
 30
0.0
 40
3.000000000000001
  0
HATCH
  5
13A
330
136
100
AcDbEntity
  8
0
  6
Continuous
 62
     0
370
     0
100
AcDbHatch
 10
0.0
 20
0.0
 30
0.0
210
0.0
220
0.0
230
1.0
  2
SOLID
 70
     1
 71
     0
 91
        1
 92
        0
 93
        3
 72
     2
 10
0.0
 20
0.0
 40
3.000000000000001
 50
0.0
 51
90.0
 73
     1
 72
     1
 10
0.0
 20
3.000000000000001
 11
0.0
 21
0.0
 72
     1
 10
0.0
 20
0.0
 11
3.000000000000001
 21
0.0
 97
        0
 75
     0
 76
     1
 98
        1
 10
0.0
 20
0.0
  0
HATCH
  5
13B
330
136
100
AcDbEntity
  8
0
  6
Continuous
 62
     0
370
     0
100
AcDbHatch
 10
0.0
 20
0.0
 30
0.0
210
0.0
220
0.0
230
1.0
  2
SOLID
 70
     1
 71
     0
 91
        1
 92
        0
 93
        3
 72
     2
 10
0.0
 20
0.0
 40
3.000000000000001
 50
180.0
 51
270.0000000000007
 73
     1
 72
     1
 10
0.0
 20
-3.000000000000001
 11
0.0
 21
0.0
 72
     1
 10
0.0
 20
0.0
 11
-3.000000000000001
 21
0.0
 97
        0
 75
     0
 76
     1
 98
        1
 10
0.0
 20
0.0
  0
ENDBLK
  5
138
330
136
100
AcDbEntity
  8
0
100
AcDbBlockEnd
  0
BLOCK
  5
19C
330
19B
100
AcDbEntity
  8
0
100
AcDbBlockBegin
  2
*D7
 70
     1
 10
0.0
 20
0.0
 30
0.0
  3
*D7
  1
*D7
  0
LINE
  5
19E
330
19B
100
AcDbEntity
  8
치수문자_일반주서
 62
     0
370
    -2
100
AcDbLine
 10
16.129
 20
3.155101899082702
 30
0.0
 11
16.129
 21
13.88769362990564
 31
0.0
  0
LINE
  5
19F
330
19B
100
AcDbEntity
  8
치수문자_일반주서
 62
     0
370
    -2
100
AcDbLine
 10
6.603999999999999
 20
2.633059590344414
 30
0.0
 11
6.603999999999999
 21
13.88769362990564
 31
0.0
  0
LINE
  5
1A0
330
19B
100
AcDbEntity
  8
치수문자_일반주서
 62
     0
370
    -2
100
AcDbLine
 10
16.129
 20
13.88769362990564
 30
0.0
 11
46.358
 21
13.88769362990564
 31
0.0
  0
LINE
  5
1A1
330
19B
100
AcDbEntity
  8
치수문자_일반주서
 62
     0
370
    -2
100
AcDbLine
 10
16.129
 20
13.88769362990564
 30
0.0
 11
6.603999999999999
 21
13.88769362990564
 31
0.0
  0
LINE
  5
1A2
330
19B
100
AcDbEntity
  8
치수문자_일반주서
 62
     0
370
    -2
100
AcDbLine
 10
19.431
 20
13.88769362990564
 30
0.0
 11
22.733
 21
13.88769362990564
 31
0.0
  0
LINE
  5
1A3
330
19B
100
AcDbEntity
  8
치수문자_일반주서
 62
     0
370
    -2
100
AcDbLine
 10
3.302
 20
13.88769362990564
 30
0.0
 11
0.0
 21
13.88769362990564
 31
0.0
  0
SOLID
  5
1A4
330
19B
100
AcDbEntity
  8
치수문자_일반주서
 62
     0
100
AcDbTrace
 10
19.431
 20
14.43802696323897
 30
0.0
 11
19.431
 21
13.3373602965723
 31
0.0
 12
16.129
 22
13.88769362990564
 32
0.0
 13
16.129
 23
13.88769362990564
 33
0.0
  0
SOLID
  5
1A5
330
19B
100
AcDbEntity
  8
치수문자_일반주서
 62
     0
100
AcDbTrace
 10
3.302
 20
13.3373602965723
 30
0.0
 11
3.302
 21
14.43802696323897
 31
0.0
 12
6.603999999999999
 22
13.88769362990564
 32
0.0
 13
6.603999999999999
 23
13.88769362990564
 33
0.0
  0
MTEXT
  5
1A6
330
19B
100
AcDbEntity
  8
치수문자_일반주서
 62
     0
100
AcDbMText
 10
34.5455
 20
18.26269362990564
 30
0.0
 40
3.5
 41
0.0
 71
     2
 72
     1
  1
\A1;9.53 [3/8]
  7
SLDTEXTSTYLE0
 73
     1
 44
1.0
  0
POINT
  5
1A7
330
19B
100
AcDbEntity
  8
Defpoints
 62
     0
100
AcDbPoint
 10
16.129
 20
3.092601899082702
 30
0.0
  0
POINT
  5
1A8
330
19B
100
AcDbEntity
  8
Defpoints
 62
     0
100
AcDbPoint
 10
6.603999999999999
 20
2.570559590344414
 30
0.0
  0
POINT
  5
1A9
330
19B
100
AcDbEntity
  8
Defpoints
 62
     0
100
AcDbPoint
 10
6.603999999999999
 20
13.88769362990564
 30
0.0
  0
ENDBLK
  5
19D
330
19B
100
AcDbEntity
  8
0
100
AcDbBlockEnd
  0
BLOCK
  5
1AE
330
1AD
100
AcDbEntity
  8
0
100
AcDbBlockBegin
  2
*D8
 70
     1
 10
0.0
 20
0.0
 30
0.0
  3
*D8
  1
*D8
  0
LINE
  5
1B0
330
1AD
100
AcDbEntity
  8
치수문자_일반주서
 62
     0
370
    -2
100
AcDbLine
 10
71.30763708730669
 20
-13.42834478659745
 30
0.0
 11
71.30763708730669
 21
-2.695753055774514
 31
0.0
  0
LINE
  5
1B1
330
1AD
100
AcDbEntity
  8
치수문자_일반주서
 62
     0
370
    -2
100
AcDbLine
 10
61.78263708730668
 20
-13.95038709533574
 30
0.0
 11
61.78263708730668
 21
-2.695753055774514
 31
0.0
  0
LINE
  5
1B2
330
1AD
100
AcDbEntity
  8
치수문자_일반주서
 62
     0
370
    -2
100
AcDbLine
 10
71.30763708730669
 20
-2.695753055774514
 30
0.0
 11
101.5366370873067
 21
-2.695753055774514
 31
0.0
  0
LINE
  5
1B3
330
1AD
100
AcDbEntity
  8
치수문자_일반주서
 62
     0
370
    -2
100
AcDbLine
 10
71.30763708730669
 20
-2.695753055774514
 30
0.0
 11
61.78263708730668
 21
-2.695753055774514
 31
0.0
  0
LINE
  5
1B4
330
1AD
100
AcDbEntity
  8
치수문자_일반주서
 62
     0
370
    -2
100
AcDbLine
 10
74.60963708730668
 20
-2.695753055774514
 30
0.0
 11
77.91163708730667
 21
-2.695753055774514
 31
0.0
  0
LINE
  5
1B5
330
1AD
100
AcDbEntity
  8
치수문자_일반주서
 62
     0
370
    -2
100
AcDbLine
 10
58.48063708730668
 20
-2.695753055774514
 30
0.0
 11
55.17863708730668
 21
-2.695753055774514
 31
0.0
  0
SOLID
  5
1B6
330
1AD
100
AcDbEntity
  8
치수문자_일반주서
 62
     0
100
AcDbTrace
 10
74.60963708730668
 20
-2.145419722441181
 30
0.0
 11
74.60963708730668
 21
-3.246086389107847
 31
0.0
 12
71.30763708730669
 22
-2.695753055774514
 32
0.0
 13
71.30763708730669
 23
-2.695753055774514
 33
0.0
  0
SOLID
  5
1B7
330
1AD
100
AcDbEntity
  8
치수문자_일반주서
 62
     0
100
AcDbTrace
 10
58.48063708730668
 20
-3.246086389107847
 30
0.0
 11
58.48063708730668
 21
-2.145419722441181
 31
0.0
 12
61.78263708730668
 22
-2.695753055774514
 32
0.0
 13
61.78263708730668
 23
-2.695753055774514
 33
0.0
  0
MTEXT
  5
1B8
330
1AD
100
AcDbEntity
  8
치수문자_일반주서
 62
     0
100
AcDbMText
 10
89.72413708730669
 20
1.679246944225486
 30
0.0
 40
3.5
 41
0.0
 71
     2
 72
     1
  1
\A1;9.53 [3/8]
  7
SLDTEXTSTYLE0
 73
     1
 44
1.0
  0
POINT
  5
1B9
330
1AD
100
AcDbEntity
  8
Defpoints
 62
     0
100
AcDbPoint
 10
71.30763708730669
 20
-13.49084478659745
 30
0.0
  0
POINT
  5
1BA
330
1AD
100
AcDbEntity
  8
Defpoints
 62
     0
100
AcDbPoint
 10
61.78263708730668
 20
-14.01288709533574
 30
0.0
  0
POINT
  5
1BB
330
1AD
100
AcDbEntity
  8
Defpoints
 62
     0
100
AcDbPoint
 10
61.78263708730668
 20
-2.695753055774514
 30
0.0
  0
ENDBLK
  5
1AF
330
1AD
100
AcDbEntity
  8
0
100
AcDbBlockEnd
  0
ENDSEC
  0
SECTION
  2
ENTITIES
  0
LINE
  5
96
330
1F
100
AcDbEntity
  8
외형선
  6
Continuous
370
    15
100
AcDbLine
 10
14.9813423357461
 20
2.38125
 30
0.0
 11
-14.9813423357461
 21
2.381249999999998
 31
0.0
  0
LINE
  5
97
330
1F
100
AcDbEntity
  8
외형선
  6
Continuous
370
    15
100
AcDbLine
 10
-14.98134233574611
 20
-2.38125
 30
0.0
 11
14.98134233574611
 21
-2.381249999999998
 31
0.0
  0
LINE
  5
98
330
1F
100
AcDbEntity
  8
외형선
  6
Continuous
370
    15
100
AcDbLine
 10
14.9813423357461
 20
-2.38125
 30
0.0
 11
16.4625
 21
-1.984374999999999
 31
0.0
  0
LINE
  5
99
330
1F
100
AcDbEntity
  8
외형선
  6
Continuous
370
    15
100
AcDbLine
 10
16.4625
 20
1.984375000000001
 30
0.0
 11
14.9813423357461
 21
2.381250000000001
 31
0.0
  0
LINE
  5
9C
330
1F
100
AcDbEntity
  8
외형선
  6
Continuous
370
    15
100
AcDbLine
 10
16.57259880881087
 20
1.984375000000001
 30
0.0
 11
16.4625
 21
1.984375000000001
 31
0.0
  0
LINE
  5
9D
330
1F
100
AcDbEntity
  8
외형선
  6
Continuous
370
    15
100
AcDbLine
 10
16.4625
 20
-1.984374999999999
 30
0.0
 11
16.57259880881087
 21
-1.984374999999999
 31
0.0
  0
SPLINE
  5
9E
330
1F
100
AcDbEntity
  8
외형선
  6
Continuous
370
    15
100
AcDbSpline
210
0.0
220
0.0
230
1.0
 70
     8
 71
     3
 72
     9
 73
     5
 74
     0
 42
0.000000001
 43
0.00000001
 40
0.0
 40
0.0
 40
0.0
 40
0.0
 40
0.5014225985410063
 40
1.0
 40
1.0
 40
1.0
 40
1.0
 10
17.03915781176985
 20
1.357219146407035
 30
0.0
 10
16.96103268704323
 20
1.350818222588602
 30
0.0
 10
16.80522573906375
 20
1.338052695392464
 30
0.0
 10
16.65001051406892
 20
1.32914494018402
 30
0.0
 10
16.57262371052413
 20
1.324703734739362
 30
0.0
  0
LINE
  5
9F
330
1F
100
AcDbEntity
  8
0
  6
Continuous
 62
     1
370
    15
100
AcDbLine
 10
22.38248320427219
 20
0.5332867181937684
 30
0.0
 11
22.31427556661003
 21
0.5705124957252935
 31
0.0
1001
PE_URL
1000

  0
LINE
  5
A0
330
1F
100
AcDbEntity
  8
0
  6
Continuous
 62
     1
370
    15
100
AcDbLine
 10
22.90867968790052
 20
0.7712447374148198
 30
0.0
 11
22.88446556192918
 21
0.7837477525989662
 31
0.0
1001
PE_URL
1000

  0
SPLINE
  5
A1
330
1F
100
AcDbEntity
  8
0
  6
Continuous
 62
     1
370
    15
100
AcDbSpline
210
0.0
220
0.0
230
1.0
 70
     8
 71
     3
 72
     9
 73
     5
 74
     0
 42
0.000000001
 43
0.00000001
 40
0.0
 40
0.0
 40
0.0
 40
0.0
 40
0.4915176794035349
 40
1.0
 40
1.0
 40
1.0
 40
1.0
 10
23.43306872201888
 20
0.5084994257426914
 30
0.0
 10
23.34715300102579
 20
0.549530168986827
 30
0.0
 10
23.17235619392546
 20
0.6330078239389889
 30
0.0
 10
22.99756030641338
 20
0.7246475545399884
 30
0.0
 10
22.90867968790052
 20
0.7712447374148198
 30
0.0
1001
PE_URL
1000

  0
LINE
  5
A2
330
1F
100
AcDbEntity
  8
0
  6
Continuous
 62
     1
370
    15
100
AcDbLine
 10
18.87996682900133
 20
1.984375000000001
 30
0.0
 11
17.91902352988329
 21
1.984375000000001
 31
0.0
1001
PE_URL
1000

  0
SPLINE
  5
A3
330
1F
100
AcDbEntity
  8
0
  6
Continuous
 62
     1
370
    15
100
AcDbSpline
210
0.0
220
0.0
230
1.0
 70
     8
 71
     3
 72
    10
 73
     6
 74
     0
 42
0.000000001
 43
0.00000001
 40
0.0
 40
0.0
 40
0.0
 40
0.0
 40
0.4009469621770929
 40
0.9272753281466601
 40
1.0
 40
1.0
 40
1.0
 40
1.0
 10
22.77864923924531
 20
1.576868027759769
 30
0.0
 10
22.55888615413641
 20
1.567598149401637
 30
0.0
 10
22.0506371684043
 20
1.546159579447788
 30
0.0
 10
21.5027996329997
 20
1.54584958039813
 30
0.0
 10
21.17470757760141
 20
1.559915656623178
 30
0.0
 10
21.1348774030425
 20
1.561623269660996
 30
0.0
1001
PE_URL
1000

  0
SPLINE
  5
A4
330
1F
100
AcDbEntity
  8
0
  6
Continuous
 62
     1
370
    15
100
AcDbSpline
210
0.0
220
0.0
230
1.0
 70
     8
 71
     3
 72
    12
 73
     8
 74
     0
 42
0.000000001
 43
0.00000001
 40
0.0
 40
0.0
 40
0.0
 40
0.0
 40
0.2203595991203302
 40
0.5079020951235977
 40
0.6819406273833513
 40
0.7850952914177108
 40
1.0
 40
1.0
 40
1.0
 40
1.0
 10
19.7943012102364
 20
-1.651262356035406
 30
0.0
 10
20.01358551746152
 20
-1.631209711391904
 30
0.0
 10
20.51900919544955
 20
-1.584990802536283
 30
0.0
 10
21.19691708755986
 20
-1.554199787144196
 30
0.0
 10
21.75906102441039
 20
-1.548240826418914
 30
0.0
 10
22.24799248666377
 20
-1.55340719580698
 30
0.0
 10
22.56467490440042
 20
-1.567408022044993
 30
0.0
 10
22.77864923924531
 20
-1.576868027759768
 30
0.0
1001
PE_URL
1000

  0
SPLINE
  5
A5
330
1F
100
AcDbEntity
  8
0
  6
Continuous
 62
     1
370
    15
100
AcDbSpline
210
0.0
220
0.0
230
1.0
 70
     8
 71
     3
 72
    13
 73
     9
 74
     0
 42
0.000000001
 43
0.00000001
 40
0.0
 40
0.0
 40
0.0
 40
0.0
 40
0.268510517408322
 40
0.452655418463457
 40
0.5676501289659848
 40
0.6797389283830773
 40
0.906344592597017
 40
1.0
 40
1.0
 40
1.0
 40
1.0
 10
24.37041403605068
 20
-1.49251638084089
 30
0.0
 10
24.50469749279913
 20
-1.472273573326528
 30
0.0
 10
24.73107273833468
 20
-1.438148219151464
 30
0.0
 10
25.01396667877027
 20
-1.403547775341472
 30
0.0
 10
25.21601141309123
 20
-1.381384551642414
 30
0.0
 10
25.44041498242798
 20
-1.359353954560464
 30
0.0
 10
25.65571214677292
 20
-1.341111426349407
 30
0.0
 10
25.81497570844849
 20
-1.332524364898388
 30
0.0
 10
25.86154987894592
 20
-1.330013211311943
 30
0.0
1001
PE_URL
1000

  0
SPLINE
  5
A6
330
1F
100
AcDbEntity
  8
0
  6
Continuous
 62
     1
370
    15
100
AcDbSpline
210
0.0
220
0.0
230
1.0
 70
     8
 71
     3
 72
    20
 73
    16
 74
     0
 42
0.000000001
 43
0.00000001
 40
0.0
 40
0.0
 40
0.0
 40
0.0
 40
0.1118461662651069
 40
0.1866389995612298
 40
0.2397303278133926
 40
0.2951231275155433
 40
0.3794890651165382
 40
0.4629603494830236
 40
0.5222416528354555
 40
0.5849659439006677
 40
0.650431238230465
 40
0.7133027465332422
 40
0.776959613426236
 40
0.8713216046688135
 40
0.9999999999999999
 40
0.9999999999999999
 40
0.9999999999999999
 40
0.9999999999999999
 10
27.84577268781166
 20
1.357973386152137
 30
0.0
 10
27.7152464113178
 20
1.347643923428829
 30
0.0
 10
27.49743569437716
 20
1.330407028745165
 30
0.0
 10
27.21972482273148
 20
1.317035920857275
 30
0.0
 10
27.00905386939296
 20
1.310045591055335
 30
0.0
 10
26.78565735725442
 20
1.305758395916115
 30
0.0
 10
26.52706641132224
 20
1.305389915875274
 30
0.0
 10
26.26440149424842
 20
1.310790435590394
 30
0.0
 10
26.0264303907951
 20
1.319984861413885
 30
0.0
 10
25.80930506475697
 20
1.331682906251573
 30
0.0
 10
25.58799522449446
 20
1.347138698246779
 30
0.0
 10
25.36579487788112
 20
1.366252709744187
 30
0.0
 10
25.11030676474642
 20
1.392347795248503
 30
0.0
 10
24.77849775907066
 20
1.431374360870325
 30
0.0
 10
24.51971387825581
 20
1.470147211430865
 30
0.0
 10
24.37041403605068
 20
1.492516380840891
 30
0.0
1001
PE_URL
1000

  0
LINE
  5
A7
330
1F
100
AcDbEntity
  8
0
  6
Continuous
 62
     1
370
    15
100
AcDbLine
 10
17.91902352988328
 20
-1.984375
 30
0.0
 11
18.87996682900132
 21
-1.984375
 31
0.0
1001
PE_URL
1000

  0
LINE
  5
A8
330
1F
100
AcDbEntity
  8
외형선
  6
Continuous
370
    15
100
AcDbLine
 10
14.9813423357461
 20
2.381250000000001
 30
0.0
 11
14.9813423357461
 21
-2.381250000000001
 31
0.0
  0
LINE
  5
AA
330
1F
100
AcDbEntity
  8
외형선
  6
Continuous
370
    15
100
AcDbLine
 10
16.4625
 20
1.984375000000001
 30
0.0
 11
16.4625
 21
-1.984375
 31
0.0
  0
SPLINE
  5
AC
330
1F
100
AcDbEntity
  8
외형선
  6
Continuous
370
    15
100
AcDbSpline
210
0.0
220
0.0
230
1.0
 70
     8
 71
     3
 72
    10
 73
     6
 74
     0
 42
0.000000001
 43
0.00000001
 40
0.0
 40
0.0
 40
0.0
 40
0.0
 40
0.5
 40
0.5
 40
1.0
 40
1.0
 40
1.0
 40
1.0
 10
17.4625
 20
1.966874107228461
 30
0.0
 10
17.31375689007336
 20
1.955516453848123
 30
0.0
 10
17.16406768776333
 20
1.938608098581971
 30
0.0
 10
16.86655508317265
 20
1.894113511821064
 30
0.0
 10
16.72019795112981
 20
1.866645309771339
 30
0.0
 10
16.57259880881087
 20
1.834001535736
 30
0.0
  0
SPLINE
  5
AD
330
1F
100
AcDbEntity
  8
외형선
  6
Continuous
370
    15
100
AcDbSpline
210
0.0
220
0.0
230
1.0
 70
     8
 71
     3
 72
    10
 73
     6
 74
     0
 42
0.000000001
 43
0.00000001
 40
0.0
 40
0.0
 40
0.0
 40
0.0
 40
0.5
 40
0.5
 40
1.0
 40
1.0
 40
1.0
 40
1.0
 10
17.4625
 20
-1.817748158612987
 30
0.0
 10
17.31377423546986
 20
-1.783374462994283
 30
0.0
 10
17.1641025989011
 20
-1.743821808156426
 30
0.0
 10
16.86662425372033
 20
-1.655350444551673
 30
0.0
 10
16.72028320339192
 20
-1.606617536798595
 30
0.0
 10
16.57270208049769
 20
-1.55343104396107
 30
0.0
  0
LINE
  5
AE
330
1F
100
AcDbEntity
  8
외형선
  6
Continuous
370
    15
100
AcDbLine
 10
17.4625
 20
-1.817748158612986
 30
0.0
 11
17.4625
 21
-1.966874107228462
 31
0.0
  0
SPLINE
  5
AF
330
1F
100
AcDbEntity
  8
외형선
  6
Continuous
370
    15
100
AcDbSpline
210
0.0
220
0.0
230
1.0
 70
     8
 71
     3
 72
    10
 73
     6
 74
     0
 42
0.000000001
 43
0.00000001
 40
0.0
 40
0.0
 40
0.0
 40
0.0
 40
0.5
 40
0.5
 40
1.0
 40
1.0
 40
1.0
 40
1.0
 10
17.4625
 20
-1.96687410722846
 30
0.0
 10
17.31375689007336
 20
-1.955516453848122
 30
0.0
 10
17.16406768776333
 20
-1.93860809858197
 30
0.0
 10
16.86655508317265
 20
-1.894113511821063
 30
0.0
 10
16.72019795112981
 20
-1.866645309771338
 30
0.0
 10
16.57259880881087
 20
-1.834001535735999
 30
0.0
  0
LINE
  5
B0
330
1F
100
AcDbEntity
  8
외형선
  6
Continuous
370
    15
100
AcDbLine
 10
16.57259880881087
 20
-1.984374999999999
 30
0.0
 11
16.57259880881087
 21
-1.833742551817031
 31
0.0
  0
LINE
  5
B1
330
1F
100
AcDbEntity
  8
외형선
  6
Continuous
370
    15
100
AcDbLine
 10
16.57259880881087
 20
-1.553378124821379
 30
0.0
 11
16.57259880881087
 21
1.984375000000001
 31
0.0
  0
SPLINE
  5
B2
330
1F
100
AcDbEntity
  8
외형선
  6
Continuous
370
    15
100
AcDbSpline
210
0.0
220
0.0
230
1.0
 70
     8
 71
     3
 72
    10
 73
     6
 74
     0
 42
0.000000001
 43
0.00000001
 40
0.0
 40
0.0
 40
0.0
 40
0.0
 40
0.5000000000000001
 40
0.5000000000000001
 40
1.0
 40
1.0
 40
1.0
 40
1.0
 10
17.46249999999996
 20
-1.501499545581162
 30
0.0
 10
17.31377423546983
 20
-1.468313333227693
 30
0.0
 10
17.16410259890107
 20
-1.430839090597081
 30
0.0
 10
16.86662425372032
 20
-1.348254399838032
 30
0.0
 10
16.72028320339191
 20
-1.303312839204973
 30
0.0
 10
16.57270208049769
 20
-1.254758436881375
 30
0.0
  0
SPLINE
  5
B3
330
1F
100
AcDbEntity
  8
외형선
  6
Continuous
370
    15
100
AcDbSpline
210
0.0
220
0.0
230
1.0
 70
     8
 71
     3
 72
    10
 73
     6
 74
     0
 42
0.000000001
 43
0.00000001
 40
0.0
 40
0.0
 40
0.0
 40
0.0
 40
0.5
 40
0.5
 40
1.0
 40
1.0
 40
1.0
 40
1.0
 10
17.46249999977875
 20
0.1455145440976686
 30
0.0
 10
17.31376322825053
 20
0.2137883856554149
 30
0.0
 10
17.16408044486174
 20
0.2817972236209197
 30
0.0
 10
16.866580359411
 20
0.4155775348796217
 30
0.0
 10
16.72022910407922
 20
0.481135453498175
 30
0.0
 10
16.57263654646199
 20
0.5453599635487365
 30
0.0
  0
SPLINE
  5
B4
330
1F
100
AcDbEntity
  8
외형선
  6
Continuous
370
    15
100
AcDbSpline
210
0.0
220
0.0
230
1.0
 70
    24
 71
     3
 72
    10
 73
     6
 74
     0
 42
0.000000001
 43
0.00000001
 40
0.0
 40
0.0
 40
0.0
 40
0.0
 40
0.5
 40
0.5
 40
1.0
 40
1.0
 40
1.0
 40
1.0
 10
17.4625
 20
0.1455145439961074
 30
0.0
 10
17.4625
 20
-0.1604739218284213
 30
0.0
 10
17.4625
 20
-0.4797253064117191
 30
0.0
 10
17.4625
 20
-1.055438344447752
 30
0.0
 10
17.4625
 20
-1.309421903922755
 30
0.0
 10
17.4625
 20
-1.501499545581171
 30
0.0
  0
LINE
  5
B5
330
1F
100
AcDbEntity
  8
외형선
  6
Continuous
370
    15
100
AcDbLine
 10
17.4625
 20
1.383214703410562
 30
0.0
 11
17.03662507704845
 21
1.34555450871161
 31
0.0
  0
SPLINE
  5
B6
330
1F
100
AcDbEntity
  8
외형선
  6
Continuous
370
    15
100
AcDbSpline
210
0.0
220
0.0
230
1.0
 70
    24
 71
     3
 72
    14
 73
    10
 74
     0
 42
0.000000001
 43
0.00000001
 40
0.0
 40
0.0
 40
0.0
 40
0.0
 40
0.2500000000000001
 40
0.2500000000000001
 40
0.5000000000000001
 40
0.5000000000000001
 40
0.75
 40
0.75
 40
1.0
 40
1.0
 40
1.0
 40
1.0
 10
17.46249999999996
 20
1.38321470341056
 30
0.0
 10
17.46249999999996
 20
1.361692014593411
 30
0.0
 10
17.46249999999996
 20
1.3180933373375
 30
0.0
 10
17.46249999999996
 20
1.184453031085301
 30
0.0
 10
17.46249999999996
 20
1.094386058948343
 30
0.0
 10
17.46249999999996
 20
0.8744110563508486
 30
0.0
 10
17.46249999999996
 20
0.7446202377684602
 30
0.0
 10
17.46249999999996
 20
0.4596192415276917
 30
0.0
 10
17.46249999999996
 20
0.3045963149847759
 30
0.0
 10
17.46249999999996
 20
0.1455145439961276
 30
0.0
  0
SPLINE
  5
B7
330
1F
100
AcDbEntity
  8
외형선
  6
Continuous
370
    15
100
AcDbSpline
210
0.0
220
0.0
230
1.0
 70
    24
 71
     3
 72
     8
 73
     4
 74
     0
 42
0.000000001
 43
0.00000001
 40
0.0
 40
0.0
 40
0.0
 40
0.0
 40
1.0
 40
1.0
 40
1.0
 40
1.0
 10
17.4625
 20
-1.501499545581171
 30
0.0
 10
17.4625
 20
-1.605614140083083
 30
0.0
 10
17.4625
 20
-1.711702081952153
 30
0.0
 10
17.4625
 20
-1.817748158612446
 30
0.0
  0
SPLINE
  5
B8
330
1F
100
AcDbEntity
  8
외형선
  6
Continuous
370
    15
100
AcDbSpline
210
0.0
220
0.0
230
1.0
 70
    24
 71
     3
 72
    10
 73
     6
 74
     0
 42
0.000000001
 43
0.00000001
 40
0.0
 40
0.0
 40
0.0
 40
0.0
 40
0.5
 40
0.5
 40
1.0
 40
1.0
 40
1.0
 40
1.0
 10
17.46249999999988
 20
1.966874107216262
 30
0.0
 10
17.46249999999988
 20
1.865581383321867
 30
0.0
 10
17.46249999999988
 20
1.758563902473885
 30
0.0
 10
17.46249999999988
 20
1.556825589743878
 30
0.0
 10
17.46249999999988
 20
1.462605665020205
 30
0.0
 10
17.46249999999988
 20
1.383214703410557
 30
0.0
  0
SPLINE
  5
B9
330
1F
100
AcDbEntity
  8
0
  6
Continuous
 62
     1
370
    15
100
AcDbSpline
210
0.0
220
0.0
230
1.0
 70
     8
 71
     3
 72
    42
 73
    38
 74
     0
 42
0.000000001
 43
0.00000001
 40
0.0
 40
0.0
 40
0.0
 40
0.0
 40
0.0625000000000003
 40
0.0625000000000003
 40
0.1250000000000006
 40
0.1250000000000006
 40
0.1875000000000009
 40
0.1875000000000009
 40
0.2500000000000012
 40
0.2500000000000012
 40
0.3125000000000014
 40
0.3125000000000014
 40
0.3750000000000018
 40
0.3750000000000018
 40
0.4062500000000017
 40
0.4062500000000017
 40
0.4375000000000017
 40
0.4375000000000017
 40
0.4687500000000017
 40
0.4687500000000017
 40
0.5000000000000017
 40
0.5000000000000017
 40
0.5625000000000014
 40
0.5625000000000014
 40
0.6250000000000011
 40
0.6250000000000011
 40
0.6875000000000009
 40
0.6875000000000009
 40
0.7500000000000006
 40
0.7500000000000006
 40
0.8125000000000004
 40
0.8125000000000004
 40
0.8750000000000003
 40
0.8750000000000003
 40
0.9375000000000001
 40
0.9375000000000001
 40
1.0
 40
1.0
 40
1.0
 40
1.0
 10
28.575
 20
-1.982697836471323
 30
0.0
 10
28.34631625021317
 20
-1.977225581054921
 30
0.0
 10
28.11213112206296
 20
-1.958186773170954
 30
0.0
 10
27.64690464733354
 20
-1.893680875870488
 30
0.0
 10
27.41914122284155
 20
-1.848573611002012
 30
0.0
 10
26.95477900051819
 20
-1.733336155375997
 30
0.0
 10
26.7202376239942
 20
-1.66318991684825
 30
0.0
 10
26.26065122871175
 20
-1.502334642377433
 30
0.0
 10
26.02898538427744
 20
-1.410925112787003
 30
0.0
 10
25.56323370324747
 20
-1.209762682351842
 30
0.0
 10
25.3348496588962
 20
-1.10091257849298
 30
0.0
 10
24.87168863488087
 20
-0.868794651709534
 30
0.0
 10
24.63696519018233
 20
-0.7454471820124096
 30
0.0
 10
24.29085529168457
 20
-0.5551409800647685
 30
0.0
 10
24.17695186892461
 20
-0.4909288375215026
 30
0.0
 10
23.94573439464316
 20
-0.3604234974689628
 30
0.0
 10
23.82924343121734
 20
-0.2942795386656465
 30
0.0
 10
23.59627514991762
 20
-0.1612127619877068
 30
0.0
 10
23.47980087746759
 20
-0.0942916839773926
 30
0.0
 10
23.24864932114788
 20
0.0392986050899073
 30
0.0
 10
23.13476078019799
 20
0.1058155533786178
 30
0.0
 10
22.78854143703257
 20
0.3053657088967043
 30
0.0
 10
22.55381055968323
 20
0.4379593382439352
 30
0.0
 10
22.090767201684
 20
0.6941989476633464
 30
0.0
 10
21.86230174314664
 20
0.8179201352180828
 30
0.0
 10
21.39652107422619
 20
1.054121081872717
 30
0.0
 10
21.16504143656996
 20
1.165555109661436
 30
0.0
 10
20.70528120644604
 20
1.370702642768648
 30
0.0
 10
20.47071755056695
 20
1.465286808424719
 30
0.0
 10
20.0064444493867
 20
1.632549833458509
 30
0.0
 10
19.77865236585752
 20
1.705156340797425
 30
0.0
 10
19.31336798597008
 20
1.827227091765144
 30
0.0
 10
19.07942085045401
 20
1.876194576879068
 30
0.0
 10
18.6218520241642
 20
1.947524911510041
 30
0.0
 10
18.3876298256481
 20
1.970426663352034
 30
0.0
 10
17.92246371088866
 20
1.988883372867818
 30
0.0
 10
17.69472445193051
 20
1.984606187946523
 30
0.0
 10
17.46249999999846
 20
1.966874107228346
 30
0.0
1001
PE_URL
1000

  0
SPLINE
  5
BA
330
1F
100
AcDbEntity
  8
0
  6
Continuous
 62
     1
370
    15
100
AcDbSpline
210
0.0
220
0.0
230
1.0
 70
     8
 71
     3
 72
    14
 73
    10
 74
     0
 42
0.000000001
 43
0.00000001
 40
0.0
 40
0.0
 40
0.0
 40
0.0
 40
0.0112060481164728
 40
0.1730120186170964
 40
0.3348105089507365
 40
0.4966109671086657
 40
0.6584228359310516
 40
0.8292103166417724
 40
1.0
 40
1.0
 40
1.0
 40
1.0
 10
23.64199729261327
 20
-0.1871113723280314
 30
0.0
 10
23.61891514161912
 20
-0.1781427365801673
 30
0.0
 10
23.26254601880125
 20
-0.0396744952473048
 30
0.0
 10
22.57291613826033
 20
0.2476275728675499
 30
0.0
 10
21.57309969599768
 20
0.6329537033763193
 30
0.0
 10
20.57326226426547
 20
0.9684149169260694
 30
0.0
 10
19.55493578818109
 20
1.224070904675226
 30
0.0
 10
18.51794694769625
 20
1.384378927183256
 30
0.0
 10
17.81431716167549
 20
1.383602779669779
 30
0.0
 10
17.4625
 20
1.383214703410562
 30
0.0
1001
PE_URL
1000

  0
SPLINE
  5
BB
330
1F
100
AcDbEntity
  8
외형선
  6
Continuous
370
    15
100
AcDbSpline
210
0.0
220
0.0
230
1.0
 70
    24
 71
     3
 72
    10
 73
     6
 74
     0
 42
0.000000001
 43
0.00000001
 40
0.0
 40
0.0
 40
0.0
 40
0.0
 40
0.5
 40
0.5
 40
1.0
 40
1.0
 40
1.0
 40
1.0
 10
17.46249999999988
 20
1.966874107216264
 30
0.0
 10
17.46249999999988
 20
1.865581383321868
 30
0.0
 10
17.46249999999988
 20
1.758563902473886
 30
0.0
 10
17.46249999999988
 20
1.556825589743878
 30
0.0
 10
17.46249999999988
 20
1.462605665020206
 30
0.0
 10
17.46249999999988
 20
1.383214703410557
 30
0.0
  0
SPLINE
  5
BC
330
1F
100
AcDbEntity
  8
0
  6
Continuous
 62
     1
370
    15
100
AcDbSpline
210
0.0
220
0.0
230
1.0
 70
     8
 71
     3
 72
    19
 73
    15
 74
     0
 42
0.000000001
 43
0.00000001
 40
0.0
 40
0.0
 40
0.0
 40
0.0
 40
0.091811742528346
 40
0.1834848087096724
 40
0.2750945175900744
 40
0.3667171043018325
 40
0.4584286174521858
 40
0.5502796643655088
 40
0.6420363006273021
 40
0.7260089158833192
 40
0.8099660410671305
 40
0.8941110913485122
 40
0.978322242291739
 40
1.0
 40
1.0
 40
1.0
 40
1.0
 10
28.575
 20
-1.883054537382051
 30
0.0
 10
28.27819675052211
 20
-1.816875471978289
 30
0.0
 10
27.68503855577326
 20
-1.684617300835909
 30
0.0
 10
26.79610833265864
 20
-1.340366608736782
 30
0.0
 10
25.90788574765354
 20
-0.9160112127254576
 30
0.0
 10
25.01951371029366
 20
-0.4282962207336208
 30
0.0
 10
24.1302160286491
 20
0.0874985769288793
 30
0.0
 10
23.24005767777748
 20
0.5970935748454721
 30
0.0
 10
22.37515221798664
 20
1.054371342075212
 30
0.0
 10
21.5362754481913
 20
1.433723036923579
 30
0.0
 10
20.72202847323473
 20
1.724112778944643
 30
0.0
 10
19.90654795810512
 20
1.9089879276989
 30
0.0
 10
19.29207134614723
 20
1.992407712004566
 30
0.0
 10
18.9499968935009
 20
1.976897364621245
 30
0.0
 10
18.87996682900133
 20
1.973722059890764
 30
0.0
1001
PE_URL
1000

  0
SPLINE
  5
BD
330
1F
100
AcDbEntity
  8
0
  6
Continuous
 62
     1
370
    15
100
AcDbSpline
210
0.0
220
0.0
230
1.0
 70
     8
 71
     3
 72
    13
 73
     9
 74
     0
 42
0.000000001
 43
0.00000001
 40
0.0
 40
0.0
 40
0.0
 40
0.0
 40
0.1942251849411185
 40
0.3883882304306753
 40
0.5824996317226906
 40
0.7765700163598931
 40
0.9706101173887953
 40
1.0
 40
1.0
 40
1.0
 40
1.0
 10
28.575
 20
-1.565616837105678
 30
0.0
 10
28.24131198615736
 20
-1.491851831176729
 30
0.0
 10
27.57404271697602
 20
-1.344345419332467
 30
0.0
 10
26.57334317912929
 20
-0.9749965765980566
 30
0.0
 10
25.5729447805424
 20
-0.5318314607019765
 30
0.0
 10
24.57279115831682
 20
-0.046304957808516
 30
0.0
 10
23.85561320554932
 20
0.3172100627247625
 30
0.0
 10
23.47181421084323
 20
0.4882729896806612
 30
0.0
 10
23.42132945845261
 20
0.510774532492664
 30
0.0
1001
PE_URL
1000

  0
LINE
  5
BE
330
1F
100
AcDbEntity
  8
0
  6
Continuous
 62
     1
370
    15
100
AcDbLine
 10
28.57499999999993
 20
-1.883054537382052
 30
0.0
 11
28.575
 21
-1.565616837105678
 31
0.0
1001
PE_URL
1000

  0
LINE
  5
BF
330
1F
100
AcDbEntity
  8
0
  6
Continuous
 62
     1
370
    15
100
AcDbLine
 10
28.575
 20
-1.982697836471324
 30
0.0
 11
28.57499999999984
 21
-1.883054537382047
 31
0.0
1001
PE_URL
1000

  0
SPLINE
  5
C0
330
1F
100
AcDbEntity
  8
0
  6
Continuous
 62
     1
370
    15
100
AcDbSpline
210
0.0
220
0.0
230
1.0
 70
     8
 71
     3
 72
     8
 73
     4
 74
     0
 42
0.000000001
 43
0.00000001
 40
0.0
 40
0.0
 40
0.0
 40
0.0
 40
1.0
 40
1.0
 40
1.0
 40
1.0
 10
27.34650677959565
 20
0.5557441175765002
 30
0.0
 10
27.27623544869918
 20
0.638992703379528
 30
0.0
 10
27.21350664401417
 20
0.719140483765734
 30
0.0
 10
27.16010005238468
 20
0.7954558122745647
 30
0.0
1001
PE_URL
1000

  0
LINE
  5
C1
330
1F
100
AcDbEntity
  8
0
  6
Continuous
 62
     1
370
    15
100
AcDbLine
 10
27.18523597617292
 20
0.8165473566545646
 30
0.0
 11
28.575
 21
0.000000000000002
 31
0.0
1001
PE_URL
1000

  0
LINE
  5
C2
330
1F
100
AcDbEntity
  8
0
  6
Continuous
 62
     1
370
    15
100
AcDbLine
 10
28.575
 20
0.000000000000002
 30
0.0
 11
28.575
 21
-0.5303102210275747
 31
0.0
1001
PE_URL
1000

  0
SPLINE
  5
C3
330
1F
100
AcDbEntity
  8
0
  6
Continuous
 62
     1
370
    15
100
AcDbSpline
210
0.0
220
0.0
230
1.0
 70
     8
 71
     3
 72
    10
 73
     6
 74
     0
 42
0.000000001
 43
0.00000001
 40
0.0
 40
0.0
 40
0.0
 40
0.0
 40
0.5
 40
0.5
 40
1.0
 40
1.0
 40
1.0
 40
1.0
 10
28.575
 20
-0.5303102210275745
 30
0.0
 10
28.36233365854357
 20
-0.3631162242341985
 30
0.0
 10
28.15322341339828
 20
-0.1890610906366639
 30
0.0
 10
27.74228519211056
 20
0.1730995957543212
 30
0.0
 10
27.53854542687045
 20
0.3631188210779365
 30
0.0
 10
27.34650677959565
 20
0.5557441175765025
 30
0.0
1001
PE_URL
1000

  0
SPLINE
  5
C4
330
1F
100
AcDbEntity
  8
0
  6
Continuous
 62
     1
370
    15
100
AcDbSpline
210
0.0
220
0.0
230
1.0
 70
     8
 71
     3
 72
    12
 73
     8
 74
     0
 42
0.000000001
 43
0.00000001
 40
0.0
 40
0.0
 40
0.0
 40
0.0
 40
0.1941265493063395
 40
0.3880926766031018
 40
0.6069445323775676
 40
0.8257617612058772
 40
1.0
 40
1.0
 40
1.0
 40
1.0
 10
27.34650677959565
 20
0.5557441175764999
 30
0.0
 10
27.0507522836478
 20
0.6799046348767182
 30
0.0
 10
26.45948769691334
 20
0.9281230658932216
 30
0.0
 10
25.5349668773383
 20
1.243254950548006
 30
0.0
 10
24.57276482734456
 20
1.476431773436886
 30
0.0
 10
23.64066089224482
 20
1.59973107374449
 30
0.0
 10
23.04193361628831
 20
1.576319096629657
 30
0.0
 10
22.77652276546948
 20
1.565940760758
 30
0.0
1001
PE_URL
1000

  0
SPLINE
  5
C5
330
1F
100
AcDbEntity
  8
0
  6
Continuous
 62
     1
370
    15
100
AcDbSpline
210
0.0
220
0.0
230
1.0
 70
    24
 71
     3
 72
    10
 73
     6
 74
     0
 42
0.000000001
 43
0.00000001
 40
0.0
 40
0.0
 40
0.0
 40
0.0
 40
0.5
 40
0.5
 40
1.0
 40
1.0
 40
1.0
 40
1.0
 10
28.575
 20
-1.565616837105678
 30
0.0
 10
28.575
 20
-1.445600100054425
 30
0.0
 10
28.575
 20
-1.293954350876898
 30
0.0
 10
28.575
 20
-0.9413925783146296
 30
0.0
 10
28.575
 20
-0.7407819573049416
 30
0.0
 10
28.575
 20
-0.5303102210276381
 30
0.0
1001
PE_URL
1000

  0
SPLINE
  5
C6
330
1F
100
AcDbEntity
  8
0
  6
Continuous
 62
     1
370
    15
100
AcDbSpline
210
0.0
220
0.0
230
1.0
 70
     8
 71
     3
 72
    11
 73
     7
 74
     0
 42
0.000000001
 43
0.00000001
 40
0.0
 40
0.0
 40
0.0
 40
0.0
 40
0.0958299320262693
 40
0.3976565274814035
 40
0.699339211486966
 40
1.0
 40
1.0
 40
1.0
 40
1.0
 10
19.79726098299081
 20
-1.638982596703565
 30
0.0
 10
19.72265939895675
 20
-1.650292751134936
 30
0.0
 10
19.41309216641961
 20
-1.697225443680565
 30
0.0
 10
18.86876633292226
 20
-1.689649638488683
 30
0.0
 10
18.16489929773909
 20
-1.64183513639498
 30
0.0
 10
17.69636813974493
 20
-1.548225138373294
 30
0.0
 10
17.46249999999996
 20
-1.501499545581161
 30
0.0
1001
PE_URL
1000

  0
SPLINE
  5
C7
330
1F
100
AcDbEntity
  8
0
  6
Continuous
 62
     1
370
    15
100
AcDbSpline
210
0.0
220
0.0
230
1.0
 70
     8
 71
     3
 72
    14
 73
    10
 74
     0
 42
0.000000001
 43
0.00000001
 40
0.0
 40
0.0
 40
0.0
 40
0.0
 40
0.1161349739736544
 40
0.260771215032973
 40
0.4054009445666449
 40
0.5500323880529389
 40
0.6946737665147336
 40
0.8473359248271815
 40
1.0
 40
1.0
 40
1.0
 40
1.0
 10
24.37559081846886
 20
-1.481519168044697
 30
0.0
 10
24.10797856321824
 20
-1.520035685408332
 30
0.0
 10
23.50707798545386
 20
-1.606521252056258
 30
0.0
 10
22.57292141537298
 20
-1.582977511260793
 30
0.0
 10
21.57310793513922
 20
-1.438733391841439
 30
0.0
 10
20.57327038303362
 20
-1.169695846559105
 30
0.0
 10
19.55495699421103
 20
-0.7967915361301015
 30
0.0
 10
18.51795038760225
 20
-0.3439112255183857
 30
0.0
 10
17.81431826820451
 20
-0.0176280619175185
 30
0.0
 10
17.46249999977875
 20
0.1455145440976685
 30
0.0
1001
PE_URL
1000

  0
SPLINE
  5
C8
330
1F
100
AcDbEntity
  8
외형선
  6
Continuous
370
    15
100
AcDbSpline
210
0.0
220
0.0
230
1.0
 70
    24
 71
     3
 72
    10
 73
     6
 74
     0
 42
0.000000001
 43
0.00000001
 40
0.0
 40
0.0
 40
0.0
 40
0.0
 40
0.5
 40
0.5
 40
1.0
 40
1.0
 40
1.0
 40
1.0
 10
17.4625
 20
0.1455145439961074
 30
0.0
 10
17.4625
 20
-0.1604739218284213
 30
0.0
 10
17.4625
 20
-0.4797253064117191
 30
0.0
 10
17.4625
 20
-1.055438344447752
 30
0.0
 10
17.4625
 20
-1.309421903922755
 30
0.0
 10
17.4625
 20
-1.501499545581171
 30
0.0
  0
SPLINE
  5
C9
330
1F
100
AcDbEntity
  8
외형선
  6
Continuous
370
    15
100
AcDbSpline
210
0.0
220
0.0
230
1.0
 70
    24
 71
     3
 72
    14
 73
    10
 74
     0
 42
0.000000001
 43
0.00000001
 40
0.0
 40
0.0
 40
0.0
 40
0.0
 40
0.2500000000000001
 40
0.2500000000000001
 40
0.5000000000000001
 40
0.5000000000000001
 40
0.75
 40
0.75
 40
1.0
 40
1.0
 40
1.0
 40
1.0
 10
17.46249999999996
 20
1.38321470341056
 30
0.0
 10
17.46249999999996
 20
1.361692014593411
 30
0.0
 10
17.46249999999996
 20
1.3180933373375
 30
0.0
 10
17.46249999999996
 20
1.184453031085301
 30
0.0
 10
17.46249999999996
 20
1.094386058948343
 30
0.0
 10
17.46249999999996
 20
0.8744110563508486
 30
0.0
 10
17.46249999999996
 20
0.7446202377684602
 30
0.0
 10
17.46249999999996
 20
0.4596192415276917
 30
0.0
 10
17.46249999999996
 20
0.3045963149847759
 30
0.0
 10
17.46249999999996
 20
0.1455145439961276
 30
0.0
  0
SPLINE
  5
CA
330
1F
100
AcDbEntity
  8
0
  6
Continuous
 62
     1
370
    15
100
AcDbSpline
210
0.0
220
0.0
230
1.0
 70
    24
 71
     3
 72
     8
 73
     4
 74
     0
 42
0.000000001
 43
0.00000001
 40
0.0
 40
0.0
 40
0.0
 40
0.0
 40
1.0
 40
1.0
 40
1.0
 40
1.0
 10
27.36737627747495
 20
0.9693812162996231
 30
0.0
 10
27.30186478590398
 20
0.9144105478845517
 30
0.0
 10
27.23255896272592
 20
0.8562560572173932
 30
0.0
 10
27.16010005238474
 20
0.7954558122746032
 30
0.0
1001
PE_URL
1000

  0
LINE
  5
CB
330
1F
100
AcDbEntity
  8
0
  6
Continuous
 62
     1
370
    15
100
AcDbLine
 10
28.575
 20
1.3890625
 30
0.0
 11
27.84264284094735
 21
1.346307295555835
 31
0.0
1001
PE_URL
1000

  0
SPLINE
  5
CC
330
1F
100
AcDbEntity
  8
0
  6
Continuous
 62
     1
370
    15
100
AcDbSpline
210
0.0
220
0.0
230
1.0
 70
     8
 71
     3
 72
     8
 73
     4
 74
     0
 42
0.000000001
 43
0.00000001
 40
0.0
 40
0.0
 40
0.0
 40
0.0
 40
1.0
 40
1.0
 40
1.0
 40
1.0
 10
28.575
 20
1.389062500000002
 30
0.0
 10
28.16686139917667
 20
1.278202870590656
 30
0.0
 10
27.76262715704111
 20
1.142095475675958
 30
0.0
 10
27.3673762774875
 20
0.9693812163051019
 30
0.0
1001
PE_URL
1000

  0
LINE
  5
CD
330
1F
100
AcDbEntity
  8
0
  6
Continuous
 62
     1
370
    15
100
AcDbLine
 10
28.575
 20
0.000000000000002
 30
0.0
 11
28.575
 21
1.389062500000001
 31
0.0
1001
PE_URL
1000

  0
SPLINE
  5
CE
330
1F
100
AcDbEntity
  8
0
  6
Continuous
 62
     1
370
    15
100
AcDbSpline
210
0.0
220
0.0
230
1.0
 70
     8
 71
     3
 72
    12
 73
     8
 74
     0
 42
0.000000001
 43
0.00000001
 40
0.0
 40
0.0
 40
0.0
 40
0.0
 40
0.1108235044520748
 40
0.3333097241646992
 40
0.5559707192957853
 40
0.7780269053204412
 40
1.0
 40
1.0
 40
1.0
 40
1.0
 10
21.12876809039205
 20
-1.563767165733412
 30
0.0
 10
20.9933740046056
 20
-1.613508701226492
 30
0.0
 10
20.58616647575028
 20
-1.763109975402917
 30
0.0
 10
19.90652040817933
 20
-1.911913554275879
 30
0.0
 10
19.09068616224567
 20
-1.998800464459694
 30
0.0
 10
18.27621936186744
 20
-1.97660391914791
 30
0.0
 10
17.73370594705137
 20
-1.87069347243908
 30
0.0
 10
17.46250000000005
 20
-1.817748158612999
 30
0.0
1001
PE_URL
1000

  0
SPLINE
  5
CF
330
1F
100
AcDbEntity
  8
외형선
  6
Continuous
370
    15
100
AcDbSpline
210
0.0
220
0.0
230
1.0
 70
    24
 71
     3
 72
     8
 73
     4
 74
     0
 42
0.000000001
 43
0.00000001
 40
0.0
 40
0.0
 40
0.0
 40
0.0
 40
1.0
 40
1.0
 40
1.0
 40
1.0
 10
17.4625
 20
-1.501499545581171
 30
0.0
 10
17.4625
 20
-1.605614140083082
 30
0.0
 10
17.4625
 20
-1.711702081952152
 30
0.0
 10
17.4625
 20
-1.817748158612445
 30
0.0
  0
LINE
  5
D0
330
1F
100
AcDbEntity
  8
0
  6
Continuous
 62
     1
370
    15
100
AcDbLine
 10
17.46249999999846
 20
-1.966874107228345
 30
0.0
 11
17.91902352988328
 21
-1.967824774906226
 31
0.0
1001
PE_URL
1000

  0
SPLINE
  5
D1
330
1F
100
AcDbEntity
  8
0
  6
Continuous
 62
     1
370
    15
100
AcDbSpline
210
0.0
220
0.0
230
1.0
 70
     8
 71
     3
 72
    11
 73
     7
 74
     0
 42
0.000000001
 43
0.00000001
 40
0.0
 40
0.0
 40
0.0
 40
0.0
 40
0.0997454743856412
 40
0.3995601042916145
 40
0.6994031912044689
 40
0.9999999999999999
 40
0.9999999999999999
 40
0.9999999999999999
 40
0.9999999999999999
 10
25.86038159713556
 20
1.329498864115901
 30
0.0
 10
25.95066713861479
 20
1.370197520530742
 30
0.0
 10
26.31233267373464
 20
1.533228069052385
 30
0.0
 10
26.94494370191758
 20
1.738383049641176
 30
0.0
 10
27.75932361897206
 20
1.931895434699262
 30
0.0
 10
28.30288043381442
 20
1.965749537056332
 30
0.0
 10
28.575
 20
1.982697836471325
 30
0.0
1001
PE_URL
1000

  0
SPLINE
  5
D2
330
1F
100
AcDbEntity
  8
0
  6
Continuous
 62
     1
370
    15
100
AcDbSpline
210
0.0
220
0.0
230
1.0
 70
    24
 71
     3
 72
    10
 73
     6
 74
     0
 42
0.000000001
 43
0.00000001
 40
0.0
 40
0.0
 40
0.0
 40
0.0
 40
0.5
 40
0.5
 40
1.0
 40
1.0
 40
1.0
 40
1.0
 10
28.575
 20
1.3890625
 30
0.0
 10
28.575
 20
1.473264009602014
 30
0.0
 10
28.575
 20
1.571113961658186
 30
0.0
 10
28.575
 20
1.776402897531698
 30
0.0
 10
28.575
 20
1.883317599168547
 30
0.0
 10
28.575
 20
1.982697836471325
 30
0.0
1001
PE_URL
1000

  0
LINE
  5
D3
330
1F
100
AcDbEntity
  8
중심선
 62
     1
100
AcDbLine
 10
-31.575
 20
-0.0000000000000039
 30
0.0
 11
31.57499999999999
 21
0.0000000000000039
 31
0.0
  0
LINE
  5
D4
330
1F
100
AcDbEntity
  8
참조1
100
AcDbLine
 10
-0.0000000000000089
 20
-0.0000000000000039
 30
0.0
 11
-0.0000000000000089
 21
-40.00000000000001
 31
0.0
  0
LINE
  5
D5
330
1F
100
AcDbEntity
  8
참조1
100
AcDbLine
 10
-0.0000000000000089
 20
-40.00000000000001
 30
0.0
 11
-22.40321559669923
 21
-39.99999999999999
 31
0.0
  0
CIRCLE
  5
D6
330
1F
100
AcDbEntity
  8
해칭선
100
AcDbCircle
 10
0.0
 20
0.0
 30
0.0
 40
3.0
  0
INSERT
  5
D7
330
1F
100
AcDbEntity
  8
0
  6
Continuous
 62
     7
100
AcDbBlockReference
 66
     1
  2
블럭10
 10
-13.94027293212521
 20
-52.04717430164393
 30
0.0
  0
ATTRIB
  5
D8
330
D7
100
AcDbEntity
  8
FORMAT
 62
     2
100
AcDbText
 10
-23.12156822086649
 20
-49.97180738881174
 30
0.0
 40
4.233333333333333
  1
E2003010 [ 2 FLUTE ]
 41
0.75
  7
SLDTEXTSTYLE0
 11
-23.12156822086649
 21
-52.08847405547841
 31
0.0
100
AcDbAttribute
  2
AUTOATTR0
 70
     0
 74
     1
  0
SEQEND
  5
D9
330
D7
100
AcDbEntity
  8
0
  6
Continuous
 62
     7
  0
HATCH
  5
DA
330
1F
100
AcDbEntity
  8
중심선
100
AcDbHatch
 10
0.0
 20
0.0
 30
0.0
210
0.0
220
0.0
230
1.0
  2
SOLID
 70
     1
 71
     0
 91
        1
 92
        0
 93
        4
 72
     1
 10
-8.225363627744379
 20
-35.8
 11
-11.67163887158166
 21
-35.8
 72
     1
 10
-11.67163887158166
 20
-35.8
 11
-13.79986873078568
 21
-38.3363255805726
 72
     1
 10
-13.79986873078568
 20
-38.3363255805726
 11
-10.35356040183525
 21
-38.3362861512701
 72
     1
 10
-10.35356040183525
 20
-38.3362861512701
 11
-8.225363627744379
 21
-35.8
 97
        0
 75
     0
 76
     1
 98
        1
 10
7.056711678730504
 20
-0.0010749287238931
  0
HATCH
  5
DB
330
1F
100
AcDbEntity
  8
중심선
100
AcDbHatch
 10
0.0
 20
0.0
 30
0.0
210
0.0
220
0.0
230
1.0
  2
SOLID
 70
     1
 71
     0
 91
        1
 92
        0
 93
        4
 72
     1
 10
-3.212599636708397
 20
-35.8
 11
-6.658874880545678
 21
-35.8
 72
     1
 10
-6.658874880545678
 20
-35.8
 11
-11.1900128889031
 21
-41.20000000000002
 72
     1
 10
-11.1900128889031
 20
-41.20000000000002
 11
-7.743737645065817
 21
-41.20000000000002
 72
     1
 10
-7.743737645065817
 20
-41.20000000000002
 11
-3.212599636708397
 21
-35.8
 97
        0
 75
     0
 76
     1
 98
        1
 10
7.056711678730504
 20
-0.0010749287238931
  0
HATCH
  5
DC
330
1F
100
AcDbEntity
  8
중심선
100
AcDbHatch
 10
0.0
 20
0.0
 30
0.0
210
0.0
220
0.0
230
1.0
  2
SOLID
 70
     1
 71
     0
 91
        1
 92
        0
 93
        4
 72
     1
 10
1.800164354327501
 20
-35.8
 11
-1.646110889509618
 21
-35.8
 72
     1
 10
-1.646110889509618
 20
-35.8
 11
-8.694547791398897
 21
-44.20000000000002
 72
     1
 10
-8.694547791398897
 20
-44.20000000000002
 11
-5.248272547561609
 21
-44.20000000000002
 72
     1
 10
-5.248272547561609
 20
-44.20000000000002
 11
1.800164354327501
 21
-35.8
 97
        0
 75
     0
 76
     1
 98
        1
 10
7.056711678730504
 20
-0.0010749287238931
  0
HATCH
  5
DD
330
1F
100
AcDbEntity
  8
중심선
100
AcDbHatch
 10
0.0
 20
0.0
 30
0.0
210
0.0
220
0.0
230
1.0
  2
SOLID
 70
     1
 71
     0
 91
        1
 92
        0
 93
        6
 72
     3
 10
6.600054785339671
 20
-40.00000000005127
 11
3.960054785062283
 21
1.540882976769353E-10
 40
0.3939339440162628
 50
17.09539180608439
 51
320.0019657685078
 73
     0
 72
     1
 10
8.283054441040266
 20
-38.58789400463831
 11
10.58835631474133
 21
-36.65356729459035
 72
     3
 10
6.600054785286824
 20
-40.00000000000014
 11
6.600054785286829
 21
-1.278976924368180E-13
 40
0.636358354079598
 50
39.99873849337411
 51
368.4976242363724
 73
     1
 72
     1
 10
13.02538727718743
 20
-39.03999999993002
 11
5.280122092122747
 21
-39.03999999993002
 72
     1
 10
5.280122092122746
 20
-39.03999999993002
 11
5.280097047676812
 21
-40.95999999992991
 72
     1
 10
5.280097047676812
 20
-40.95999999992991
 11
9.721476817148849
 21
-40.95999999992988
 97
        0
 75
     0
 76
     1
 98
        1
 10
7.056711678730504
 20
-0.0010749287238931
  0
DIMENSION
  5
DE
330
1F
100
AcDbEntity
  8
치수문자_일반주서
100
AcDbDimension
  2
_D
 10
-38.57499999999998
 20
-2.38125000000009
 30
0.0
 11
-38.57500000000006
 21
22.98524999999997
 31
0.0
 70
   160
  1
%%c<>
 71
     2
 42
4.762500000000024
 52
-270.0
  3
SLDDIMSTYLE0
100
AcDbAlignedDimension
 13
-14.9813423357461
 23
2.381250000000024
 33
0.0
 14
-14.98134233574611
 24
-2.38125
 34
0.0
 50
90.0000000000002
100
AcDbRotatedDimension
1001
PE_URL
1000

1001
ACAD
1000
DSTYLE
1002
{
1070
   171
1070
     8
1070
   273
1070
     7
1002
}
  0
DIMENSION
  5
F3
330
1F
100
AcDbEntity
  8
치수문자_일반주서
100
AcDbDimension
  2
_D_1
 10
66.43123335457501
 20
1.982697836471466
 30
0.0
 11
66.43123335457494
 21
23.02419783647147
 31
0.0
 70
   160
  1
%%c<>
 71
     2
 42
3.965395672942649
 52
-270.0
  3
SLDDIMSTYLE0
100
AcDbAlignedDimension
 13
28.575
 23
-1.982697836471324
 33
0.0
 14
28.575
 24
1.982697836471325
 34
0.0
 50
90.0000000000002
100
AcDbRotatedDimension
1001
PE_URL
1000

1001
ACAD
1000
DSTYLE
1002
{
1070
   171
1070
     8
1070
   273
1070
     7
1002
}
  0
DIMENSION
  5
107
330
1F
100
AcDbEntity
  8
치수문자_일반주서
100
AcDbDimension
  2
_D_2
 10
17.46249999999996
 20
12.38125
 30
0.0
 11
47.429
 21
12.38125
 31
0.0
 70
   160
  1
<>
 71
     2
 42
11.11250000000005
  3
SLDDIMSTYLE0
100
AcDbAlignedDimension
 13
28.575
 23
1.982697836471325
 33
0.0
 14
17.46249999999996
 24
1.501499545581162
 34
0.0
100
AcDbRotatedDimension
1001
PE_URL
1000

1001
ACAD
1000
DSTYLE
1002
{
1070
   171
1070
     8
1070
   273
1070
     7
1002
}
  0
DIMENSION
  5
11C
330
1F
100
AcDbEntity
  8
치수문자_일반주서
100
AcDbDimension
  2
_D_3
 10
28.575
 20
22.38125
 30
0.0
 11
0.0000000000000124
 21
22.38125
 31
0.0
 70
   160
  1
<>
 71
     2
 42
57.15000000000001
  3
SLDDIMSTYLE0
100
AcDbAlignedDimension
 13
-28.575
 23
1.982697836471368
 33
0.0
 14
28.575
 24
1.982697836471325
 34
0.0
100
AcDbRotatedDimension
1001
PE_URL
1000

1001
ACAD
1000
DSTYLE
1002
{
1070
   171
1070
     8
1070
   273
1070
     7
1002
}
  0
LINE
  5
12F
330
1F
100
AcDbEntity
  8
참조1
100
AcDbLine
 10
75.56912503295503
 20
7.440000000000003
 30
0.0
 11
75.56912503295503
 21
-7.440000000000002
 31
0.0
  0
LINE
  5
130
330
1F
100
AcDbEntity
  8
참조1
100
AcDbLine
 10
88.26912503295505
 20
5.440000000000003
 30
0.0
 11
75.56912503295503
 21
5.440000000000003
 31
0.0
  0
SOLID
  5
131
330
1F
100
AcDbEntity
  8
참조1
100
AcDbTrace
 10
75.56912503295503
 20
5.440000000000003
 30
0.0
 11
81.91912503295504
 21
4.424000000000003
 31
0.0
 12
81.91912503295504
 22
6.456000000000003
 32
0.0
 13
81.91912503295504
 23
6.456000000000003
 33
0.0
  0
LINE
  5
132
330
1F
100
AcDbEntity
  8
참조1
100
AcDbLine
 10
88.26912503295505
 20
-5.440000000000002
 30
0.0
 11
75.56912503295503
 21
-5.440000000000002
 31
0.0
  0
SOLID
  5
133
330
1F
100
AcDbEntity
  8
참조1
100
AcDbTrace
 10
75.56912503295503
 20
-5.440000000000002
 30
0.0
 11
81.91912503295504
 21
-6.456000000000002
 31
0.0
 12
81.91912503295504
 22
-4.424000000000002
 32
0.0
 13
81.91912503295504
 23
-4.424000000000002
 33
0.0
  0
MTEXT
  5
134
330
1F
100
AcDbEntity
  8
참조1
100
AcDbMText
 10
84.95347516558104
 20
11.01029177718833
 30
0.0
 40
3.5
 41
0.0
 71
     1
 72
     1
  1
A
  7
SLDTEXTSTYLE0
 73
     1
 44
1.0
  0
MTEXT
  5
135
330
1F
100
AcDbEntity
  8
참조1
100
AcDbMText
 10
84.95347516558104
 20
0.1302917771883261
 30
0.0
 40
3.5
 41
0.0
 71
     1
 72
     1
  1
A
  7
SLDTEXTSTYLE0
 73
     1
 44
1.0
  0
INSERT
  5
13C
330
1F
100
AcDbEntity
  8
해칭선
100
AcDbBlockReference
  2
SW_DOWELSYMBOL_0
 10
0.0
 20
0.0
 30
0.0
  0
LINE
  5
222
330
1F
100
AcDbEntity
  8
외형선
  6
Continuous
370
    15
100
AcDbLine
 10
-14.9813423357461
 20
2.381249999999998
 30
0.0
 11
-16.46249999999999
 21
1.984374999999996
 31
0.0
  0
LINE
  5
223
330
1F
100
AcDbEntity
  8
외형선
  6
Continuous
370
    15
100
AcDbLine
 10
-16.46249999999998
 20
-1.984375000000004
 30
0.0
 11
-14.98134233574609
 21
-2.381250000000001
 31
0.0
  0
LINE
  5
224
330
1F
100
AcDbEntity
  8
외형선
  6
Continuous
370
    15
100
AcDbLine
 10
-16.57259880881086
 20
-1.984375000000006
 30
0.0
 11
-16.46249999999998
 21
-1.984375000000004
 31
0.0
  0
LINE
  5
225
330
1F
100
AcDbEntity
  8
외형선
  6
Continuous
370
    15
100
AcDbLine
 10
-16.46249999999999
 20
1.984374999999996
 30
0.0
 11
-16.57259880881087
 21
1.984374999999994
 31
0.0
  0
SPLINE
  5
226
330
1F
100
AcDbEntity
  8
외형선
  6
Continuous
370
    15
100
AcDbSpline
210
0.0
220
0.0
230
1.0
 70
     8
 71
     3
 72
     9
 73
     5
 74
     0
 42
0.000000001
 43
0.00000001
 40
0.0
 40
0.0
 40
0.0
 40
0.0
 40
0.5014225985410063
 40
1.0
 40
1.0
 40
1.0
 40
1.0
 10
-17.03915781176983
 20
-1.35721914640704
 30
0.0
 10
-16.96103268704322
 20
-1.350818222588606
 30
0.0
 10
-16.80522573906373
 20
-1.338052695392469
 30
0.0
 10
-16.65001051406891
 20
-1.329144940184025
 30
0.0
 10
-16.57262371052412
 20
-1.324703734739366
 30
0.0
  0
LINE
  5
227
330
1F
100
AcDbEntity
  8
0
  6
Continuous
 62
     1
370
    15
100
AcDbLine
 10
-22.38248320427218
 20
-0.5332867181937806
 30
0.0
 11
-22.31427556661002
 21
-0.5705124957253072
 31
0.0
1001
PE_URL
1000

  0
LINE
  5
228
330
1F
100
AcDbEntity
  8
0
  6
Continuous
 62
     1
370
    15
100
AcDbLine
 10
-22.90867968790052
 20
-0.7712447374148328
 30
0.0
 11
-22.88446556192918
 21
-0.7837477525989807
 31
0.0
1001
PE_URL
1000

  0
SPLINE
  5
229
330
1F
100
AcDbEntity
  8
0
  6
Continuous
 62
     1
370
    15
100
AcDbSpline
210
0.0
220
0.0
230
1.0
 70
     8
 71
     3
 72
     9
 73
     5
 74
     0
 42
0.000000001
 43
0.00000001
 40
0.0
 40
0.0
 40
0.0
 40
0.0
 40
0.4915176794035349
 40
1.0
 40
1.0
 40
1.0
 40
1.0
 10
-23.43306872201887
 20
-0.5084994257427058
 30
0.0
 10
-23.34715300102577
 20
-0.5495301689868415
 30
0.0
 10
-23.17235619392545
 20
-0.6330078239390036
 30
0.0
 10
-22.99756030641336
 20
-0.7246475545400026
 30
0.0
 10
-22.90867968790052
 20
-0.7712447374148328
 30
0.0
1001
PE_URL
1000

  0
LINE
  5
22A
330
1F
100
AcDbEntity
  8
0
  6
Continuous
 62
     1
370
    15
100
AcDbLine
 10
-18.87996682900131
 20
-1.984375000000009
 30
0.0
 11
-17.91902352988328
 21
-1.984375000000007
 31
0.0
1001
PE_URL
1000

  0
SPLINE
  5
22B
330
1F
100
AcDbEntity
  8
0
  6
Continuous
 62
     1
370
    15
100
AcDbSpline
210
0.0
220
0.0
230
1.0
 70
     8
 71
     3
 72
    10
 73
     6
 74
     0
 42
0.000000001
 43
0.00000001
 40
0.0
 40
0.0
 40
0.0
 40
0.0
 40
0.4009469621770929
 40
0.9272753281466601
 40
1.0
 40
1.0
 40
1.0
 40
1.0
 10
-22.7786492392453
 20
-1.576868027759782
 30
0.0
 10
-22.5588861541364
 20
-1.567598149401651
 30
0.0
 10
-22.05063716840429
 20
-1.5461595794478
 30
0.0
 10
-21.50279963299968
 20
-1.545849580398141
 30
0.0
 10
-21.1747075776014
 20
-1.559915656623188
 30
0.0
 10
-21.13487740304249
 20
-1.561623269661008
 30
0.0
1001
PE_URL
1000

  0
SPLINE
  5
22C
330
1F
100
AcDbEntity
  8
0
  6
Continuous
 62
     1
370
    15
100
AcDbSpline
210
0.0
220
0.0
230
1.0
 70
     8
 71
     3
 72
    12
 73
     8
 74
     0
 42
0.000000001
 43
0.00000001
 40
0.0
 40
0.0
 40
0.0
 40
0.0
 40
0.2203595991203302
 40
0.5079020951235977
 40
0.6819406273833513
 40
0.7850952914177108
 40
1.0
 40
1.0
 40
1.0
 40
1.0
 10
-19.79430121023638
 20
1.651262356035397
 30
0.0
 10
-20.01358551746151
 20
1.631209711391895
 30
0.0
 10
-20.51900919544954
 20
1.584990802536273
 30
0.0
 10
-21.19691708755985
 20
1.554199787144185
 30
0.0
 10
-21.75906102441039
 20
1.548240826418903
 30
0.0
 10
-22.24799248666376
 20
1.553407195806967
 30
0.0
 10
-22.56467490440042
 20
1.567408022044979
 30
0.0
 10
-22.77864923924531
 20
1.576868027759754
 30
0.0
1001
PE_URL
1000

  0
SPLINE
  5
22D
330
1F
100
AcDbEntity
  8
0
  6
Continuous
 62
     1
370
    15
100
AcDbSpline
210
0.0
220
0.0
230
1.0
 70
     8
 71
     3
 72
    13
 73
     9
 74
     0
 42
0.000000001
 43
0.00000001
 40
0.0
 40
0.0
 40
0.0
 40
0.0
 40
0.268510517408322
 40
0.452655418463457
 40
0.5676501289659848
 40
0.6797389283830773
 40
0.906344592597017
 40
1.0
 40
1.0
 40
1.0
 40
1.0
 10
-24.37041403605068
 20
1.492516380840875
 30
0.0
 10
-24.50469749279912
 20
1.472273573326513
 30
0.0
 10
-24.73107273833467
 20
1.438148219151447
 30
0.0
 10
-25.01396667877026
 20
1.403547775341454
 30
0.0
 10
-25.21601141309122
 20
1.381384551642398
 30
0.0
 10
-25.44041498242797
 20
1.359353954560447
 30
0.0
 10
-25.65571214677291
 20
1.341111426349389
 30
0.0
 10
-25.81497570844849
 20
1.33252436489837
 30
0.0
 10
-25.86154987894591
 20
1.330013211311925
 30
0.0
1001
PE_URL
1000

  0
SPLINE
  5
22E
330
1F
100
AcDbEntity
  8
0
  6
Continuous
 62
     1
370
    15
100
AcDbSpline
210
0.0
220
0.0
230
1.0
 70
     8
 71
     3
 72
    20
 73
    16
 74
     0
 42
0.000000001
 43
0.00000001
 40
0.0
 40
0.0
 40
0.0
 40
0.0
 40
0.1118461662651069
 40
0.1866389995612298
 40
0.2397303278133926
 40
0.2951231275155433
 40
0.3794890651165382
 40
0.4629603494830236
 40
0.5222416528354555
 40
0.5849659439006677
 40
0.650431238230465
 40
0.7133027465332422
 40
0.776959613426236
 40
0.8713216046688135
 40
0.9999999999999999
 40
0.9999999999999999
 40
0.9999999999999999
 40
0.9999999999999999
 10
-27.84577268781165
 20
-1.357973386152157
 30
0.0
 10
-27.71524641131779
 20
-1.34764392342885
 30
0.0
 10
-27.49743569437715
 20
-1.330407028745185
 30
0.0
 10
-27.21972482273146
 20
-1.317035920857295
 30
0.0
 10
-27.00905386939294
 20
-1.310045591055355
 30
0.0
 10
-26.78565735725441
 20
-1.305758395916135
 30
0.0
 10
-26.52706641132222
 20
-1.305389915875292
 30
0.0
 10
-26.2644014942484
 20
-1.310790435590413
 30
0.0
 10
-26.02643039079508
 20
-1.319984861413904
 30
0.0
 10
-25.80930506475696
 20
-1.33168290625159
 30
0.0
 10
-25.58799522449445
 20
-1.347138698246797
 30
0.0
 10
-25.36579487788111
 20
-1.366252709744204
 30
0.0
 10
-25.11030676474641
 20
-1.392347795248519
 30
0.0
 10
-24.77849775907065
 20
-1.431374360870342
 30
0.0
 10
-24.5197138782558
 20
-1.470147211430881
 30
0.0
 10
-24.37041403605068
 20
-1.492516380840906
 30
0.0
1001
PE_URL
1000

  0
LINE
  5
22F
330
1F
100
AcDbEntity
  8
0
  6
Continuous
 62
     1
370
    15
100
AcDbLine
 10
-17.91902352988327
 20
1.984374999999994
 30
0.0
 11
-18.87996682900131
 21
1.984374999999993
 31
0.0
1001
PE_URL
1000

  0
LINE
  5
230
330
1F
100
AcDbEntity
  8
외형선
  6
Continuous
370
    15
100
AcDbLine
 10
-14.98134233574609
 20
-2.381250000000001
 30
0.0
 11
-14.9813423357461
 21
2.38125
 31
0.0
  0
LINE
  5
231
330
1F
100
AcDbEntity
  8
외형선
  6
Continuous
370
    15
100
AcDbLine
 10
-16.46249999999998
 20
-1.984375000000004
 30
0.0
 11
-16.46249999999999
 21
1.984374999999996
 31
0.0
  0
SPLINE
  5
232
330
1F
100
AcDbEntity
  8
외형선
  6
Continuous
370
    15
100
AcDbSpline
210
0.0
220
0.0
230
1.0
 70
     8
 71
     3
 72
    10
 73
     6
 74
     0
 42
0.000000001
 43
0.00000001
 40
0.0
 40
0.0
 40
0.0
 40
0.0
 40
0.5
 40
0.5
 40
1.0
 40
1.0
 40
1.0
 40
1.0
 10
-17.46249999999998
 20
-1.966874107228467
 30
0.0
 10
-17.31375689007334
 20
-1.955516453848128
 30
0.0
 10
-17.16406768776332
 20
-1.938608098581975
 30
0.0
 10
-16.86655508317263
 20
-1.894113511821068
 30
0.0
 10
-16.7201979511298
 20
-1.866645309771343
 30
0.0
 10
-16.57259880881086
 20
-1.834001535736004
 30
0.0
  0
SPLINE
  5
233
330
1F
100
AcDbEntity
  8
외형선
  6
Continuous
370
    15
100
AcDbSpline
210
0.0
220
0.0
230
1.0
 70
     8
 71
     3
 72
    10
 73
     6
 74
     0
 42
0.000000001
 43
0.00000001
 40
0.0
 40
0.0
 40
0.0
 40
0.0
 40
0.5
 40
0.5
 40
1.0
 40
1.0
 40
1.0
 40
1.0
 10
-17.46249999999999
 20
1.817748158612982
 30
0.0
 10
-17.31377423546985
 20
1.783374462994278
 30
0.0
 10
-17.16410259890109
 20
1.743821808156422
 30
0.0
 10
-16.86662425372032
 20
1.655350444551668
 30
0.0
 10
-16.72028320339191
 20
1.606617536798591
 30
0.0
 10
-16.57270208049768
 20
1.553431043961065
 30
0.0
  0
LINE
  5
234
330
1F
100
AcDbEntity
  8
외형선
  6
Continuous
370
    15
100
AcDbLine
 10
-17.46249999999999
 20
1.81774815861298
 30
0.0
 11
-17.46249999999999
 21
1.966874107228456
 31
0.0
  0
SPLINE
  5
235
330
1F
100
AcDbEntity
  8
외형선
  6
Continuous
370
    15
100
AcDbSpline
210
0.0
220
0.0
230
1.0
 70
     8
 71
     3
 72
    10
 73
     6
 74
     0
 42
0.000000001
 43
0.00000001
 40
0.0
 40
0.0
 40
0.0
 40
0.0
 40
0.5
 40
0.5
 40
1.0
 40
1.0
 40
1.0
 40
1.0
 10
-17.46249999999999
 20
1.966874107228454
 30
0.0
 10
-17.31375689007335
 20
1.955516453848117
 30
0.0
 10
-17.16406768776332
 20
1.938608098581966
 30
0.0
 10
-16.86655508317264
 20
1.894113511821059
 30
0.0
 10
-16.7201979511298
 20
1.866645309771334
 30
0.0
 10
-16.57259880881087
 20
1.834001535735995
 30
0.0
  0
LINE
  5
236
330
1F
100
AcDbEntity
  8
외형선
  6
Continuous
370
    15
100
AcDbLine
 10
-16.57259880881087
 20
1.984374999999994
 30
0.0
 11
-16.57259880881087
 21
1.833742551817027
 31
0.0
  0
LINE
  5
237
330
1F
100
AcDbEntity
  8
외형선
  6
Continuous
370
    15
100
AcDbLine
 10
-16.57259880881087
 20
1.553378124821375
 30
0.0
 11
-16.57259880881086
 21
-1.984375000000006
 31
0.0
  0
SPLINE
  5
238
330
1F
100
AcDbEntity
  8
외형선
  6
Continuous
370
    15
100
AcDbSpline
210
0.0
220
0.0
230
1.0
 70
     8
 71
     3
 72
    10
 73
     6
 74
     0
 42
0.000000001
 43
0.00000001
 40
0.0
 40
0.0
 40
0.0
 40
0.0
 40
0.5000000000000001
 40
0.5000000000000001
 40
1.0
 40
1.0
 40
1.0
 40
1.0
 10
-17.46249999999995
 20
1.501499545581158
 30
0.0
 10
-17.31377423546982
 20
1.468313333227687
 30
0.0
 10
-17.16410259890106
 20
1.430839090597077
 30
0.0
 10
-16.86662425372031
 20
1.348254399838028
 30
0.0
 10
-16.7202832033919
 20
1.303312839204968
 30
0.0
 10
-16.57270208049768
 20
1.254758436881371
 30
0.0
  0
SPLINE
  5
239
330
1F
100
AcDbEntity
  8
외형선
  6
Continuous
370
    15
100
AcDbSpline
210
0.0
220
0.0
230
1.0
 70
     8
 71
     3
 72
    10
 73
     6
 74
     0
 42
0.000000001
 43
0.00000001
 40
0.0
 40
0.0
 40
0.0
 40
0.0
 40
0.5
 40
0.5
 40
1.0
 40
1.0
 40
1.0
 40
1.0
 10
-17.46249999977874
 20
-0.1455145440976741
 30
0.0
 10
-17.31376322825052
 20
-0.2137883856554199
 30
0.0
 10
-17.16408044486173
 20
-0.2817972236209238
 30
0.0
 10
-16.86658035941099
 20
-0.415577534879626
 30
0.0
 10
-16.72022910407921
 20
-0.4811354534981797
 30
0.0
 10
-16.57263654646198
 20
-0.545359963548741
 30
0.0
  0
SPLINE
  5
23A
330
1F
100
AcDbEntity
  8
외형선
  6
Continuous
370
    15
100
AcDbSpline
210
0.0
220
0.0
230
1.0
 70
    24
 71
     3
 72
    10
 73
     6
 74
     0
 42
0.000000001
 43
0.00000001
 40
0.0
 40
0.0
 40
0.0
 40
0.0
 40
0.5
 40
0.5
 40
1.0
 40
1.0
 40
1.0
 40
1.0
 10
-17.46249999999999
 20
-0.1455145439961127
 30
0.0
 10
-17.46249999999999
 20
0.1604739218284157
 30
0.0
 10
-17.46249999999999
 20
0.4797253064117138
 30
0.0
 10
-17.46249999999999
 20
1.055438344447747
 30
0.0
 10
-17.46249999999999
 20
1.30942190392275
 30
0.0
 10
-17.46249999999999
 20
1.501499545581165
 30
0.0
  0
LINE
  5
23B
330
1F
100
AcDbEntity
  8
외형선
  6
Continuous
370
    15
100
AcDbLine
 10
-17.46249999999998
 20
-1.383214703410568
 30
0.0
 11
-17.03662507704844
 21
-1.345554508711615
 31
0.0
  0
SPLINE
  5
23C
330
1F
100
AcDbEntity
  8
외형선
  6
Continuous
370
    15
100
AcDbSpline
210
0.0
220
0.0
230
1.0
 70
    24
 71
     3
 72
    14
 73
    10
 74
     0
 42
0.000000001
 43
0.00000001
 40
0.0
 40
0.0
 40
0.0
 40
0.0
 40
0.2500000000000001
 40
0.2500000000000001
 40
0.5000000000000001
 40
0.5000000000000001
 40
0.75
 40
0.75
 40
1.0
 40
1.0
 40
1.0
 40
1.0
 10
-17.46249999999994
 20
-1.383214703410566
 30
0.0
 10
-17.46249999999994
 20
-1.361692014593416
 30
0.0
 10
-17.46249999999994
 20
-1.318093337337505
 30
0.0
 10
-17.46249999999994
 20
-1.184453031085307
 30
0.0
 10
-17.46249999999994
 20
-1.094386058948349
 30
0.0
 10
-17.46249999999994
 20
-0.8744110563508534
 30
0.0
 10
-17.46249999999995
 20
-0.7446202377684659
 30
0.0
 10
-17.46249999999995
 20
-0.4596192415276976
 30
0.0
 10
-17.46249999999995
 20
-0.3045963149847816
 30
0.0
 10
-17.46249999999995
 20
-0.1455145439961322
 30
0.0
  0
SPLINE
  5
23D
330
1F
100
AcDbEntity
  8
외형선
  6
Continuous
370
    15
100
AcDbSpline
210
0.0
220
0.0
230
1.0
 70
    24
 71
     3
 72
     8
 73
     4
 74
     0
 42
0.000000001
 43
0.00000001
 40
0.0
 40
0.0
 40
0.0
 40
0.0
 40
1.0
 40
1.0
 40
1.0
 40
1.0
 10
-17.46249999999999
 20
1.501499545581165
 30
0.0
 10
-17.46249999999999
 20
1.605614140083078
 30
0.0
 10
-17.46249999999999
 20
1.711702081952147
 30
0.0
 10
-17.46249999999999
 20
1.81774815861244
 30
0.0
  0
SPLINE
  5
23E
330
1F
100
AcDbEntity
  8
외형선
  6
Continuous
370
    15
100
AcDbSpline
210
0.0
220
0.0
230
1.0
 70
    24
 71
     3
 72
    10
 73
     6
 74
     0
 42
0.000000001
 43
0.00000001
 40
0.0
 40
0.0
 40
0.0
 40
0.0
 40
0.5
 40
0.5
 40
1.0
 40
1.0
 40
1.0
 40
1.0
 10
-17.46249999999987
 20
-1.966874107216267
 30
0.0
 10
-17.46249999999987
 20
-1.865581383321873
 30
0.0
 10
-17.46249999999987
 20
-1.75856390247389
 30
0.0
 10
-17.46249999999987
 20
-1.556825589743884
 30
0.0
 10
-17.46249999999987
 20
-1.46260566502021
 30
0.0
 10
-17.46249999999987
 20
-1.383214703410563
 30
0.0
  0
SPLINE
  5
23F
330
1F
100
AcDbEntity
  8
0
  6
Continuous
 62
     1
370
    15
100
AcDbSpline
210
0.0
220
0.0
230
1.0
 70
     8
 71
     3
 72
    42
 73
    38
 74
     0
 42
0.000000001
 43
0.00000001
 40
0.0
 40
0.0
 40
0.0
 40
0.0
 40
0.0625000000000003
 40
0.0625000000000003
 40
0.1250000000000006
 40
0.1250000000000006
 40
0.1875000000000009
 40
0.1875000000000009
 40
0.2500000000000012
 40
0.2500000000000012
 40
0.3125000000000014
 40
0.3125000000000014
 40
0.3750000000000018
 40
0.3750000000000018
 40
0.4062500000000017
 40
0.4062500000000017
 40
0.4375000000000017
 40
0.4375000000000017
 40
0.4687500000000017
 40
0.4687500000000017
 40
0.5000000000000017
 40
0.5000000000000017
 40
0.5625000000000014
 40
0.5625000000000014
 40
0.6250000000000011
 40
0.6250000000000011
 40
0.6875000000000009
 40
0.6875000000000009
 40
0.7500000000000006
 40
0.7500000000000006
 40
0.8125000000000004
 40
0.8125000000000004
 40
0.8750000000000003
 40
0.8750000000000003
 40
0.9375000000000001
 40
0.9375000000000001
 40
1.0
 40
1.0
 40
1.0
 40
1.0
 10
-28.57499999999999
 20
1.982697836471301
 30
0.0
 10
-28.34631625021316
 20
1.977225581054899
 30
0.0
 10
-28.11213112206295
 20
1.958186773170933
 30
0.0
 10
-27.64690464733353
 20
1.893680875870467
 30
0.0
 10
-27.41914122284155
 20
1.848573611001992
 30
0.0
 10
-26.95477900051819
 20
1.733336155375978
 30
0.0
 10
-26.72023762399419
 20
1.66318991684823
 30
0.0
 10
-26.26065122871174
 20
1.502334642377414
 30
0.0
 10
-26.02898538427743
 20
1.410925112786984
 30
0.0
 10
-25.56323370324746
 20
1.209762682351824
 30
0.0
 10
-25.33484965889619
 20
1.100912578492963
 30
0.0
 10
-24.87168863488087
 20
0.8687946517095175
 30
0.0
 10
-24.63696519018232
 20
0.7454471820123929
 30
0.0
 10
-24.29085529168457
 20
0.5551409800647524
 30
0.0
 10
-24.1769518689246
 20
0.4909288375214869
 30
0.0
 10
-23.94573439464315
 20
0.3604234974689485
 30
0.0
 10
-23.82924343121734
 20
0.2942795386656323
 30
0.0
 10
-23.59627514991762
 20
0.1612127619876914
 30
0.0
 10
-23.47980087746758
 20
0.0942916839773778
 30
0.0
 10
-23.24864932114787
 20
-0.039298605089922
 30
0.0
 10
-23.13476078019798
 20
-0.1058155533786318
 30
0.0
 10
-22.78854143703256
 20
-0.3053657088967176
 30
0.0
 10
-22.55381055968321
 20
-0.4379593382439479
 30
0.0
 10
-22.09076720168399
 20
-0.6941989476633597
 30
0.0
 10
-21.86230174314663
 20
-0.8179201352180956
 30
0.0
 10
-21.39652107422617
 20
-1.054121081872728
 30
0.0
 10
-21.16504143656995
 20
-1.165555109661448
 30
0.0
 10
-20.70528120644602
 20
-1.370702642768658
 30
0.0
 10
-20.47071755056695
 20
-1.465286808424729
 30
0.0
 10
-20.00644444938668
 20
-1.632549833458518
 30
0.0
 10
-19.77865236585751
 20
-1.705156340797434
 30
0.0
 10
-19.31336798597007
 20
-1.827227091765153
 30
0.0
 10
-19.079420850454
 20
-1.876194576879076
 30
0.0
 10
-18.62185202416418
 20
-1.947524911510048
 30
0.0
 10
-18.38762982564809
 20
-1.97042666335204
 30
0.0
 10
-17.92246371088865
 20
-1.988883372867823
 30
0.0
 10
-17.6947244519305
 20
-1.984606187946529
 30
0.0
 10
-17.46249999999845
 20
-1.966874107228352
 30
0.0
1001
PE_URL
1000

  0
SPLINE
  5
240
330
1F
100
AcDbEntity
  8
0
  6
Continuous
 62
     1
370
    15
100
AcDbSpline
210
0.0
220
0.0
230
1.0
 70
     8
 71
     3
 72
    14
 73
    10
 74
     0
 42
0.000000001
 43
0.00000001
 40
0.0
 40
0.0
 40
0.0
 40
0.0
 40
0.0112060481164728
 40
0.1730120186170964
 40
0.3348105089507365
 40
0.4966109671086657
 40
0.6584228359310516
 40
0.8292103166417724
 40
1.0
 40
1.0
 40
1.0
 40
1.0
 10
-23.64199729261325
 20
0.1871113723280169
 30
0.0
 10
-23.61891514161911
 20
0.1781427365801525
 30
0.0
 10
-23.26254601880125
 20
0.0396744952472899
 30
0.0
 10
-22.57291613826033
 20
-0.2476275728675629
 30
0.0
 10
-21.57309969599767
 20
-0.6329537033763304
 30
0.0
 10
-20.57326226426547
 20
-0.9684149169260794
 30
0.0
 10
-19.55493578818108
 20
-1.224070904675234
 30
0.0
 10
-18.51794694769623
 20
-1.384378927183264
 30
0.0
 10
-17.81431716167548
 20
-1.383602779669785
 30
0.0
 10
-17.46249999999998
 20
-1.383214703410568
 30
0.0
1001
PE_URL
1000

  0
SPLINE
  5
241
330
1F
100
AcDbEntity
  8
외형선
  6
Continuous
370
    15
100
AcDbSpline
210
0.0
220
0.0
230
1.0
 70
    24
 71
     3
 72
    10
 73
     6
 74
     0
 42
0.000000001
 43
0.00000001
 40
0.0
 40
0.0
 40
0.0
 40
0.0
 40
0.5
 40
0.5
 40
1.0
 40
1.0
 40
1.0
 40
1.0
 10
-17.46249999999987
 20
-1.966874107216269
 30
0.0
 10
-17.46249999999987
 20
-1.865581383321873
 30
0.0
 10
-17.46249999999987
 20
-1.758563902473892
 30
0.0
 10
-17.46249999999987
 20
-1.556825589743884
 30
0.0
 10
-17.46249999999987
 20
-1.462605665020211
 30
0.0
 10
-17.46249999999987
 20
-1.383214703410563
 30
0.0
  0
SPLINE
  5
242
330
1F
100
AcDbEntity
  8
0
  6
Continuous
 62
     1
370
    15
100
AcDbSpline
210
0.0
220
0.0
230
1.0
 70
     8
 71
     3
 72
    19
 73
    15
 74
     0
 42
0.000000001
 43
0.00000001
 40
0.0
 40
0.0
 40
0.0
 40
0.0
 40
0.091811742528346
 40
0.1834848087096724
 40
0.2750945175900744
 40
0.3667171043018325
 40
0.4584286174521858
 40
0.5502796643655088
 40
0.6420363006273021
 40
0.7260089158833192
 40
0.8099660410671305
 40
0.8941110913485122
 40
0.978322242291739
 40
1.0
 40
1.0
 40
1.0
 40
1.0
 10
-28.57499999999999
 20
1.88305453738203
 30
0.0
 10
-28.2781967505221
 20
1.816875471978267
 30
0.0
 10
-27.68503855577325
 20
1.684617300835889
 30
0.0
 10
-26.79610833265863
 20
1.340366608736762
 30
0.0
 10
-25.90788574765354
 20
0.9160112127254398
 30
0.0
 10
-25.01951371029365
 20
0.4282962207336032
 30
0.0
 10
-24.13021602864909
 20
-0.0874985769288942
 30
0.0
 10
-23.24005767777747
 20
-0.5970935748454862
 30
0.0
 10
-22.37515221798662
 20
-1.054371342075225
 30
0.0
 10
-21.53627544819129
 20
-1.43372303692359
 30
0.0
 10
-20.72202847323472
 20
-1.724112778944653
 30
0.0
 10
-19.90654795810511
 20
-1.90898792769891
 30
0.0
 10
-19.29207134614721
 20
-1.992407712004575
 30
0.0
 10
-18.94999689350088
 20
-1.976897364621252
 30
0.0
 10
-18.87996682900131
 20
-1.973722059890772
 30
0.0
1001
PE_URL
1000

  0
SPLINE
  5
243
330
1F
100
AcDbEntity
  8
0
  6
Continuous
 62
     1
370
    15
100
AcDbSpline
210
0.0
220
0.0
230
1.0
 70
     8
 71
     3
 72
    13
 73
     9
 74
     0
 42
0.000000001
 43
0.00000001
 40
0.0
 40
0.0
 40
0.0
 40
0.0
 40
0.1942251849411185
 40
0.3883882304306753
 40
0.5824996317226906
 40
0.7765700163598931
 40
0.9706101173887953
 40
1.0
 40
1.0
 40
1.0
 40
1.0
 10
-28.57499999999999
 20
1.565616837105656
 30
0.0
 10
-28.24131198615736
 20
1.491851831176706
 30
0.0
 10
-27.57404271697601
 20
1.344345419332446
 30
0.0
 10
-26.57334317912928
 20
0.9749965765980375
 30
0.0
 10
-25.57294478054239
 20
0.5318314607019585
 30
0.0
 10
-24.5727911583168
 20
0.0463049578085
 30
0.0
 10
-23.8556132055493
 20
-0.3172100627247778
 30
0.0
 10
-23.47181421084322
 20
-0.4882729896806756
 30
0.0
 10
-23.4213294584526
 20
-0.5107745324926791
 30
0.0
1001
PE_URL
1000

  0
LINE
  5
244
330
1F
100
AcDbEntity
  8
0
  6
Continuous
 62
     1
370
    15
100
AcDbLine
 10
-28.57499999999992
 20
1.88305453738203
 30
0.0
 11
-28.57499999999999
 21
1.565616837105656
 31
0.0
1001
PE_URL
1000

  0
LINE
  5
245
330
1F
100
AcDbEntity
  8
0
  6
Continuous
 62
     1
370
    15
100
AcDbLine
 10
-28.57499999999999
 20
1.982697836471303
 30
0.0
 11
-28.57499999999983
 21
1.883054537382024
 31
0.0
1001
PE_URL
1000

  0
SPLINE
  5
246
330
1F
100
AcDbEntity
  8
0
  6
Continuous
 62
     1
370
    15
100
AcDbSpline
210
0.0
220
0.0
230
1.0
 70
     8
 71
     3
 72
     8
 73
     4
 74
     0
 42
0.000000001
 43
0.00000001
 40
0.0
 40
0.0
 40
0.0
 40
0.0
 40
1.0
 40
1.0
 40
1.0
 40
1.0
 10
-27.34650677959564
 20
-0.5557441175765201
 30
0.0
 10
-27.27623544869917
 20
-0.6389927033795486
 30
0.0
 10
-27.21350664401416
 20
-0.7191404837657542
 30
0.0
 10
-27.16010005238466
 20
-0.7954558122745843
 30
0.0
1001
PE_URL
1000

  0
LINE
  5
247
330
1F
100
AcDbEntity
  8
0
  6
Continuous
 62
     1
370
    15
100
AcDbLine
 10
-27.1852359761729
 20
-0.8165473566545851
 30
0.0
 11
-28.57499999999999
 21
-0.000000000000025
 31
0.0
1001
PE_URL
1000

  0
LINE
  5
248
330
1F
100
AcDbEntity
  8
0
  6
Continuous
 62
     1
370
    15
100
AcDbLine
 10
-28.57499999999999
 20
-0.000000000000025
 30
0.0
 11
-28.57499999999999
 21
0.5303102210275517
 31
0.0
1001
PE_URL
1000

  0
SPLINE
  5
249
330
1F
100
AcDbEntity
  8
0
  6
Continuous
 62
     1
370
    15
100
AcDbSpline
210
0.0
220
0.0
230
1.0
 70
     8
 71
     3
 72
    10
 73
     6
 74
     0
 42
0.000000001
 43
0.00000001
 40
0.0
 40
0.0
 40
0.0
 40
0.0
 40
0.5
 40
0.5
 40
1.0
 40
1.0
 40
1.0
 40
1.0
 10
-28.57499999999999
 20
0.5303102210275517
 30
0.0
 10
-28.36233365854356
 20
0.3631162242341757
 30
0.0
 10
-28.15322341339827
 20
0.1890610906366417
 30
0.0
 10
-27.74228519211054
 20
-0.1730995957543426
 30
0.0
 10
-27.53854542687044
 20
-0.3631188210779578
 30
0.0
 10
-27.34650677959564
 20
-0.5557441175765236
 30
0.0
1001
PE_URL
1000

  0
SPLINE
  5
24A
330
1F
100
AcDbEntity
  8
0
  6
Continuous
 62
     1
370
    15
100
AcDbSpline
210
0.0
220
0.0
230
1.0
 70
     8
 71
     3
 72
    12
 73
     8
 74
     0
 42
0.000000001
 43
0.00000001
 40
0.0
 40
0.0
 40
0.0
 40
0.0
 40
0.1941265493063395
 40
0.3880926766031018
 40
0.6069445323775676
 40
0.8257617612058772
 40
1.0
 40
1.0
 40
1.0
 40
1.0
 10
-27.34650677959564
 20
-0.5557441175765201
 30
0.0
 10
-27.05075228364778
 20
-0.6799046348767386
 30
0.0
 10
-26.45948769691333
 20
-0.9281230658932407
 30
0.0
 10
-25.53496687733829
 20
-1.243254950548023
 30
0.0
 10
-24.57276482734454
 20
-1.476431773436902
 30
0.0
 10
-23.64066089224481
 20
-1.599731073744504
 30
0.0
 10
-23.0419336162883
 20
-1.576319096629671
 30
0.0
 10
-22.77652276546947
 20
-1.565940760758013
 30
0.0
1001
PE_URL
1000

  0
SPLINE
  5
24B
330
1F
100
AcDbEntity
  8
0
  6
Continuous
 62
     1
370
    15
100
AcDbSpline
210
0.0
220
0.0
230
1.0
 70
    24
 71
     3
 72
    10
 73
     6
 74
     0
 42
0.000000001
 43
0.00000001
 40
0.0
 40
0.0
 40
0.0
 40
0.0
 40
0.5
 40
0.5
 40
1.0
 40
1.0
 40
1.0
 40
1.0
 10
-28.57499999999999
 20
1.565616837105656
 30
0.0
 10
-28.57499999999999
 20
1.445600100054403
 30
0.0
 10
-28.57499999999999
 20
1.293954350876877
 30
0.0
 10
-28.57499999999999
 20
0.9413925783146071
 30
0.0
 10
-28.57499999999999
 20
0.7407819573049197
 30
0.0
 10
-28.57499999999999
 20
0.5303102210276156
 30
0.0
1001
PE_URL
1000

  0
SPLINE
  5
24C
330
1F
100
AcDbEntity
  8
0
  6
Continuous
 62
     1
370
    15
100
AcDbSpline
210
0.0
220
0.0
230
1.0
 70
     8
 71
     3
 72
    11
 73
     7
 74
     0
 42
0.000000001
 43
0.00000001
 40
0.0
 40
0.0
 40
0.0
 40
0.0
 40
0.0958299320262693
 40
0.3976565274814035
 40
0.699339211486966
 40
1.0
 40
1.0
 40
1.0
 40
1.0
 10
-19.79726098299081
 20
1.638982596703556
 30
0.0
 10
-19.72265939895675
 20
1.650292751134927
 30
0.0
 10
-19.4130921664196
 20
1.697225443680557
 30
0.0
 10
-18.86876633292225
 20
1.689649638488676
 30
0.0
 10
-18.16489929773908
 20
1.641835136394974
 30
0.0
 10
-17.69636813974492
 20
1.548225138373288
 30
0.0
 10
-17.46249999999995
 20
1.501499545581156
 30
0.0
1001
PE_URL
1000

  0
SPLINE
  5
24D
330
1F
100
AcDbEntity
  8
0
  6
Continuous
 62
     1
370
    15
100
AcDbSpline
210
0.0
220
0.0
230
1.0
 70
     8
 71
     3
 72
    14
 73
    10
 74
     0
 42
0.000000001
 43
0.00000001
 40
0.0
 40
0.0
 40
0.0
 40
0.0
 40
0.1161349739736544
 40
0.260771215032973
 40
0.4054009445666449
 40
0.5500323880529389
 40
0.6946737665147336
 40
0.8473359248271815
 40
1.0
 40
1.0
 40
1.0
 40
1.0
 10
-24.37559081846885
 20
1.481519168044681
 30
0.0
 10
-24.10797856321824
 20
1.520035685408317
 30
0.0
 10
-23.50707798545385
 20
1.606521252056243
 30
0.0
 10
-22.57292141537297
 20
1.582977511260781
 30
0.0
 10
-21.57310793513921
 20
1.438733391841428
 30
0.0
 10
-20.57327038303362
 20
1.169695846559095
 30
0.0
 10
-19.55495699421101
 20
0.7967915361300937
 30
0.0
 10
-18.51795038760224
 20
0.3439112255183792
 30
0.0
 10
-17.8143182682045
 20
0.0176280619175129
 30
0.0
 10
-17.46249999977874
 20
-0.1455145440976741
 30
0.0
1001
PE_URL
1000

  0
SPLINE
  5
24E
330
1F
100
AcDbEntity
  8
외형선
  6
Continuous
370
    15
100
AcDbSpline
210
0.0
220
0.0
230
1.0
 70
    24
 71
     3
 72
    10
 73
     6
 74
     0
 42
0.000000001
 43
0.00000001
 40
0.0
 40
0.0
 40
0.0
 40
0.0
 40
0.5
 40
0.5
 40
1.0
 40
1.0
 40
1.0
 40
1.0
 10
-17.46249999999999
 20
-0.1455145439961127
 30
0.0
 10
-17.46249999999999
 20
0.1604739218284157
 30
0.0
 10
-17.46249999999999
 20
0.4797253064117138
 30
0.0
 10
-17.46249999999999
 20
1.055438344447747
 30
0.0
 10
-17.46249999999999
 20
1.30942190392275
 30
0.0
 10
-17.46249999999999
 20
1.501499545581165
 30
0.0
  0
SPLINE
  5
24F
330
1F
100
AcDbEntity
  8
외형선
  6
Continuous
370
    15
100
AcDbSpline
210
0.0
220
0.0
230
1.0
 70
    24
 71
     3
 72
    14
 73
    10
 74
     0
 42
0.000000001
 43
0.00000001
 40
0.0
 40
0.0
 40
0.0
 40
0.0
 40
0.2500000000000001
 40
0.2500000000000001
 40
0.5000000000000001
 40
0.5000000000000001
 40
0.75
 40
0.75
 40
1.0
 40
1.0
 40
1.0
 40
1.0
 10
-17.46249999999994
 20
-1.383214703410566
 30
0.0
 10
-17.46249999999994
 20
-1.361692014593416
 30
0.0
 10
-17.46249999999994
 20
-1.318093337337505
 30
0.0
 10
-17.46249999999994
 20
-1.184453031085307
 30
0.0
 10
-17.46249999999994
 20
-1.094386058948349
 30
0.0
 10
-17.46249999999994
 20
-0.8744110563508534
 30
0.0
 10
-17.46249999999995
 20
-0.7446202377684659
 30
0.0
 10
-17.46249999999995
 20
-0.4596192415276976
 30
0.0
 10
-17.46249999999995
 20
-0.3045963149847816
 30
0.0
 10
-17.46249999999995
 20
-0.1455145439961322
 30
0.0
  0
SPLINE
  5
250
330
1F
100
AcDbEntity
  8
0
  6
Continuous
 62
     1
370
    15
100
AcDbSpline
210
0.0
220
0.0
230
1.0
 70
    24
 71
     3
 72
     8
 73
     4
 74
     0
 42
0.000000001
 43
0.00000001
 40
0.0
 40
0.0
 40
0.0
 40
0.0
 40
1.0
 40
1.0
 40
1.0
 40
1.0
 10
-27.36737627747493
 20
-0.9693812162996436
 30
0.0
 10
-27.30186478590397
 20
-0.9144105478845719
 30
0.0
 10
-27.2325589627259
 20
-0.8562560572174134
 30
0.0
 10
-27.16010005238473
 20
-0.7954558122746234
 30
0.0
1001
PE_URL
1000

  0
LINE
  5
251
330
1F
100
AcDbEntity
  8
0
  6
Continuous
 62
     1
370
    15
100
AcDbLine
 10
-28.57499999999999
 20
-1.389062500000023
 30
0.0
 11
-27.84264284094733
 21
-1.346307295555857
 31
0.0
1001
PE_URL
1000

  0
SPLINE
  5
252
330
1F
100
AcDbEntity
  8
0
  6
Continuous
 62
     1
370
    15
100
AcDbSpline
210
0.0
220
0.0
230
1.0
 70
     8
 71
     3
 72
     8
 73
     4
 74
     0
 42
0.000000001
 43
0.00000001
 40
0.0
 40
0.0
 40
0.0
 40
0.0
 40
1.0
 40
1.0
 40
1.0
 40
1.0
 10
-28.57499999999999
 20
-1.389062500000025
 30
0.0
 10
-28.16686139917665
 20
-1.278202870590677
 30
0.0
 10
-27.76262715704109
 20
-1.142095475675978
 30
0.0
 10
-27.36737627748749
 20
-0.9693812163051219
 30
0.0
1001
PE_URL
1000

  0
LINE
  5
253
330
1F
100
AcDbEntity
  8
0
  6
Continuous
 62
     1
370
    15
100
AcDbLine
 10
-28.57499999999999
 20
-0.000000000000025
 30
0.0
 11
-28.57499999999999
 21
-1.389062500000023
 31
0.0
1001
PE_URL
1000

  0
SPLINE
  5
254
330
1F
100
AcDbEntity
  8
0
  6
Continuous
 62
     1
370
    15
100
AcDbSpline
210
0.0
220
0.0
230
1.0
 70
     8
 71
     3
 72
    12
 73
     8
 74
     0
 42
0.000000001
 43
0.00000001
 40
0.0
 40
0.0
 40
0.0
 40
0.0
 40
0.1108235044520748
 40
0.3333097241646992
 40
0.5559707192957853
 40
0.7780269053204412
 40
1.0
 40
1.0
 40
1.0
 40
1.0
 10
-21.12876809039204
 20
1.563767165733402
 30
0.0
 10
-20.99337400460558
 20
1.613508701226482
 30
0.0
 10
-20.58616647575026
 20
1.763109975402907
 30
0.0
 10
-19.90652040817932
 20
1.91191355427587
 30
0.0
 10
-19.09068616224566
 20
1.998800464459686
 30
0.0
 10
-18.27621936186743
 20
1.976603919147903
 30
0.0
 10
-17.73370594705136
 20
1.870693472439075
 30
0.0
 10
-17.46250000000004
 20
1.817748158612994
 30
0.0
1001
PE_URL
1000

  0
SPLINE
  5
255
330
1F
100
AcDbEntity
  8
외형선
  6
Continuous
370
    15
100
AcDbSpline
210
0.0
220
0.0
230
1.0
 70
    24
 71
     3
 72
     8
 73
     4
 74
     0
 42
0.000000001
 43
0.00000001
 40
0.0
 40
0.0
 40
0.0
 40
0.0
 40
1.0
 40
1.0
 40
1.0
 40
1.0
 10
-17.46249999999999
 20
1.501499545581165
 30
0.0
 10
-17.46249999999999
 20
1.605614140083077
 30
0.0
 10
-17.46249999999999
 20
1.711702081952147
 30
0.0
 10
-17.46249999999999
 20
1.81774815861244
 30
0.0
  0
LINE
  5
256
330
1F
100
AcDbEntity
  8
0
  6
Continuous
 62
     1
370
    15
100
AcDbLine
 10
-17.46249999999845
 20
1.96687410722834
 30
0.0
 11
-17.91902352988327
 21
1.967824774906219
 31
0.0
1001
PE_URL
1000

  0
SPLINE
  5
257
330
1F
100
AcDbEntity
  8
0
  6
Continuous
 62
     1
370
    15
100
AcDbSpline
210
0.0
220
0.0
230
1.0
 70
     8
 71
     3
 72
    11
 73
     7
 74
     0
 42
0.000000001
 43
0.00000001
 40
0.0
 40
0.0
 40
0.0
 40
0.0
 40
0.0997454743856412
 40
0.3995601042916145
 40
0.6994031912044689
 40
0.9999999999999999
 40
0.9999999999999999
 40
0.9999999999999999
 40
0.9999999999999999
 10
-25.86038159713554
 20
-1.32949886411592
 30
0.0
 10
-25.95066713861478
 20
-1.370197520530759
 30
0.0
 10
-26.31233267373463
 20
-1.533228069052404
 30
0.0
 10
-26.94494370191757
 20
-1.738383049641195
 30
0.0
 10
-27.75932361897205
 20
-1.931895434699282
 30
0.0
 10
-28.30288043381441
 20
-1.965749537056354
 30
0.0
 10
-28.57499999999999
 20
-1.982697836471347
 30
0.0
1001
PE_URL
1000

  0
SPLINE
  5
258
330
1F
100
AcDbEntity
  8
0
  6
Continuous
 62
     1
370
    15
100
AcDbSpline
210
0.0
220
0.0
230
1.0
 70
    24
 71
     3
 72
    10
 73
     6
 74
     0
 42
0.000000001
 43
0.00000001
 40
0.0
 40
0.0
 40
0.0
 40
0.0
 40
0.5
 40
0.5
 40
1.0
 40
1.0
 40
1.0
 40
1.0
 10
-28.57499999999999
 20
-1.389062500000023
 30
0.0
 10
-28.57499999999999
 20
-1.473264009602035
 30
0.0
 10
-28.57499999999999
 20
-1.571113961658208
 30
0.0
 10
-28.57499999999999
 20
-1.776402897531719
 30
0.0
 10
-28.57499999999999
 20
-1.883317599168569
 30
0.0
 10
-28.57499999999999
 20
-1.982697836471347
 30
0.0
1001
PE_URL
1000

  0
ENDSEC
  0
SECTION
  2
OBJECTS
  0
DICTIONARY
  5
C
330
0
100
AcDbDictionary
281
     1
  3
ACAD_DETAILVIEWSTYLE
350
1C1
  3
ACAD_GROUP
350
D
  3
ACAD_IMAGE_VARS
350
27C
  3
ACAD_LAYOUT
350
1A
  3
ACAD_MLINESTYLE
350
17
  3
ACAD_PLOTSETTINGS
350
19
  3
ACAD_PLOTSTYLENAME
350
E
  3
ACAD_SCALELIST
350
47
  3
ACAD_SECTIONVIEWSTYLE
350
1C2
  3
AcDbVariableDictionary
350
1BC
  3
APPDATA
350
15E
  3
DWGPROPS
350
27D
  0
DICTIONARY
  5
197
330
2
100
AcDbDictionary
280
     1
281
     1
  3
ACAD_LAYERSTATES
360
198
  0
DICTIONARY
  5
1C1
102
{ACAD_REACTORS
330
C
102
}
330
C
100
AcDbDictionary
281
     1
  0
DICTIONARY
  5
D
102
{ACAD_REACTORS
330
C
102
}
330
C
100
AcDbDictionary
281
     1
  0
RASTERVARIABLES
  5
27C
102
{ACAD_REACTORS
330
C
102
}
330
C
100
AcDbRasterVariables
 90
        0
 70
     1
 71
     1
 72
     1
  0
DICTIONARY
  5
1A
102
{ACAD_REACTORS
330
C
102
}
330
C
100
AcDbDictionary
281
     1
  3
Layout1
350
1E
  3
Layout2
350
26
  3
Model
350
22
  0
DICTIONARY
  5
17
102
{ACAD_REACTORS
330
C
102
}
330
C
100
AcDbDictionary
281
     1
  3
Standard
350
18
  0
DICTIONARY
  5
19
102
{ACAD_REACTORS
330
C
102
}
330
C
100
AcDbDictionary
281
     1
  0
ACDBDICTIONARYWDFLT
  5
E
102
{ACAD_REACTORS
330
C
102
}
330
C
100
AcDbDictionary
281
     1
  3
Normal
350
F
100
AcDbDictionaryWithDefault
340
F
  0
DICTIONARY
  5
47
102
{ACAD_REACTORS
330
C
102
}
330
C
100
AcDbDictionary
281
     1
  3
A0
350
48
  3
A1
350
49
  3
A2
350
4A
  3
A3
350
4B
  3
A4
350
4C
  3
A5
350
4D
  3
A6
350
4E
  3
A7
350
4F
  3
A8
350
50
  3
A9
350
51
  3
B0
350
52
  3
B1
350
53
  3
B2
350
54
  3
B3
350
55
  3
B4
350
56
  3
B5
350
57
  3
B6
350
58
  3
B7
350
59
  3
B8
350
5A
  3
B9
350
5B
  3
C0
350
5C
  3
C1
350
5D
  3
C2
350
5E
  3
C3
350
5F
  3
C4
350
60
  3
C5
350
61
  3
C6
350
62
  3
C7
350
63
  3
C8
350
64
  3
C9
350
65
  3
D0
350
66
  3
D1
350
67
  3
D2
350
68
  0
DICTIONARY
  5
1C2
102
{ACAD_REACTORS
330
C
102
}
330
C
100
AcDbDictionary
281
     1
  0
DICTIONARY
  5
1BC
102
{ACAD_REACTORS
330
C
102
}
330
C
100
AcDbDictionary
281
     1
  0
DICTIONARY
  5
15E
102
{ACAD_REACTORS
330
C
102
}
330
C
100
AcDbDictionary
281
     1
  0
XRECORD
  5
27D
102
{ACAD_REACTORS
330
C
102
}
330
C
100
AcDbXrecord
280
     1
  1
DWGPROPS COOKIE
  2

  3

  4

  6

  7

  8
12016016
  9

300
=
301
=
302
=
303
=
304
=
305
=
306
=
307
=
308
=
309
=
 40
0.0
 41
2458313.016228785
 42
2458318.278903854
  1

 90
        0
  0
DICTIONARY
  5
198
102
{ACAD_REACTORS
330
197
102
}
330
197
100
AcDbDictionary
281
     1
  0
LAYOUT
  5
1E
102
{ACAD_REACTORS
330
1A
102
}
330
1A
100
AcDbPlotSettings
  1

  2
none_device
  4

  6

 40
0.0
 41
0.0
 42
0.0
 43
0.0
 44
0.0
 45
0.0
 46
0.0
 47
0.0
 48
0.0
 49
0.0
140
0.0
141
0.0
142
1.0
143
1.0
 70
   688
 72
     1
 73
     0
 74
     5
  7

 75
    16
147
1.0
148
0.0
149
0.0
100
AcDbLayout
  1
Layout1
 70
     1
 71
     1
 10
0.0
 20
0.0
 11
420.0
 21
297.0
 12
0.0
 22
0.0
 32
0.0
 14
1.000000000000000E+20
 24
1.000000000000000E+20
 34
1.000000000000000E+20
 15
-1.000000000000000E+20
 25
-1.000000000000000E+20
 35
-1.000000000000000E+20
146
0.0
 13
0.0
 23
0.0
 33
0.0
 16
1.0
 26
0.0
 36
0.0
 17
0.0
 27
1.0
 37
0.0
 76
     0
330
1B
  0
LAYOUT
  5
26
102
{ACAD_REACTORS
330
1A
102
}
330
1A
100
AcDbPlotSettings
  1

  2
none_device
  4

  6

 40
0.0
 41
0.0
 42
0.0
 43
0.0
 44
0.0
 45
0.0
 46
0.0
 47
0.0
 48
0.0
 49
0.0
140
0.0
141
0.0
142
1.0
143
1.0
 70
   688
 72
     1
 73
     0
 74
     5
  7

 75
    16
147
1.0
148
0.0
149
0.0
100
AcDbLayout
  1
Layout2
 70
     1
 71
     2
 10
0.0
 20
0.0
 11
0.0
 21
0.0
 12
0.0
 22
0.0
 32
0.0
 14
0.0
 24
0.0
 34
0.0
 15
0.0
 25
0.0
 35
0.0
146
0.0
 13
0.0
 23
0.0
 33
0.0
 16
1.0
 26
0.0
 36
0.0
 17
0.0
 27
1.0
 37
0.0
 76
     0
330
23
  0
LAYOUT
  5
22
102
{ACAD_REACTORS
330
1A
102
}
330
1A
100
AcDbPlotSettings
  1

  2
none_device
  4
ANSI_A_(11.00_x_8.50_Inches)
  6

 40
6.35
 41
19.05
 42
6.35000508
 43
19.05000254
 44
279.4
 45
215.9
 46
79.17634063916545
 47
84.000756273009
 48
0.0
 49
0.0
140
0.0
141
0.0
142
0.0557375099450457
143
1.0
 70
  1696
 72
     0
 73
     0
 74
     0
  7

 75
     0
147
0.0235690232323232
148
0.0
149
0.0
100
AcDbLayout
  1
Model
 70
     1
 71
     0
 10
0.0
 20
0.0
 11
420.0
 21
297.0
 12
0.0
 22
0.0
 32
0.0
 14
-42.9500000000001
 24
-49.97180738881175
 34
0.0
 15
88.26912503295505
 25
37.46169783647147
 35
0.0
146
0.0
 13
0.0
 23
0.0
 33
0.0
 16
1.0
 26
0.0
 36
0.0
 17
0.0
 27
1.0
 37
0.0
 76
     0
330
1F
331
29
  0
MLINESTYLE
  5
18
102
{ACAD_REACTORS
330
17
102
}
330
17
100
AcDbMlineStyle
  2
Standard
 70
     0
  3

 62
   256
 51
90.0
 52
90.0
 71
     2
 49
0.5
 62
   256
  6
BYLAYER
 49
-0.5
 62
   256
  6
BYLAYER
  0
ACDBPLACEHOLDER
  5
F
102
{ACAD_REACTORS
330
E
102
}
330
E
  0
SCALE
  5
48
102
{ACAD_REACTORS
330
47
102
}
330
47
100
AcDbScale
 70
     0
300
1:1
140
1.0
141
1.0
290
     1
  0
SCALE
  5
49
102
{ACAD_REACTORS
330
47
102
}
330
47
100
AcDbScale
 70
     0
300
1:2
140
1.0
141
2.0
290
     0
  0
SCALE
  5
4A
102
{ACAD_REACTORS
330
47
102
}
330
47
100
AcDbScale
 70
     0
300
1:4
140
1.0
141
4.0
290
     0
  0
SCALE
  5
4B
102
{ACAD_REACTORS
330
47
102
}
330
47
100
AcDbScale
 70
     0
300
1:5
140
1.0
141
5.0
290
     0
  0
SCALE
  5
4C
102
{ACAD_REACTORS
330
47
102
}
330
47
100
AcDbScale
 70
     0
300
1:8
140
1.0
141
8.0
290
     0
  0
SCALE
  5
4D
102
{ACAD_REACTORS
330
47
102
}
330
47
100
AcDbScale
 70
     0
300
1:10
140
1.0
141
10.0
290
     0
  0
SCALE
  5
4E
102
{ACAD_REACTORS
330
47
102
}
330
47
100
AcDbScale
 70
     0
300
1:16
140
1.0
141
16.0
290
     0
  0
SCALE
  5
4F
102
{ACAD_REACTORS
330
47
102
}
330
47
100
AcDbScale
 70
     0
300
1:20
140
1.0
141
20.0
290
     0
  0
SCALE
  5
50
102
{ACAD_REACTORS
330
47
102
}
330
47
100
AcDbScale
 70
     0
300
1:30
140
1.0
141
30.0
290
     0
  0
SCALE
  5
51
102
{ACAD_REACTORS
330
47
102
}
330
47
100
AcDbScale
 70
     0
300
1:40
140
1.0
141
40.0
290
     0
  0
SCALE
  5
52
102
{ACAD_REACTORS
330
47
102
}
330
47
100
AcDbScale
 70
     0
300
1:50
140
1.0
141
50.0
290
     0
  0
SCALE
  5
53
102
{ACAD_REACTORS
330
47
102
}
330
47
100
AcDbScale
 70
     0
300
1:100
140
1.0
141
100.0
290
     0
  0
SCALE
  5
54
102
{ACAD_REACTORS
330
47
102
}
330
47
100
AcDbScale
 70
     0
300
2:1
140
2.0
141
1.0
290
     0
  0
SCALE
  5
55
102
{ACAD_REACTORS
330
47
102
}
330
47
100
AcDbScale
 70
     0
300
4:1
140
4.0
141
1.0
290
     0
  0
SCALE
  5
56
102
{ACAD_REACTORS
330
47
102
}
330
47
100
AcDbScale
 70
     0
300
8:1
140
8.0
141
1.0
290
     0
  0
SCALE
  5
57
102
{ACAD_REACTORS
330
47
102
}
330
47
100
AcDbScale
 70
     0
300
10:1
140
10.0
141
1.0
290
     0
  0
SCALE
  5
58
102
{ACAD_REACTORS
330
47
102
}
330
47
100
AcDbScale
 70
     0
300
100:1
140
100.0
141
1.0
290
     0
  0
SCALE
  5
59
102
{ACAD_REACTORS
330
47
102
}
330
47
100
AcDbScale
 70
     0
300
1/128" = 1'-0"
140
0.0078125
141
12.0
290
     0
  0
SCALE
  5
5A
102
{ACAD_REACTORS
330
47
102
}
330
47
100
AcDbScale
 70
     0
300
1/64" = 1'-0"
140
0.015625
141
12.0
290
     0
  0
SCALE
  5
5B
102
{ACAD_REACTORS
330
47
102
}
330
47
100
AcDbScale
 70
     0
300
1/32" = 1'-0"
140
0.03125
141
12.0
290
     0
  0
SCALE
  5
5C
102
{ACAD_REACTORS
330
47
102
}
330
47
100
AcDbScale
 70
     0
300
1/16" = 1'-0"
140
0.0625
141
12.0
290
     0
  0
SCALE
  5
5D
102
{ACAD_REACTORS
330
47
102
}
330
47
100
AcDbScale
 70
     0
300
3/32" = 1'-0"
140
0.09375
141
12.0
290
     0
  0
SCALE
  5
5E
102
{ACAD_REACTORS
330
47
102
}
330
47
100
AcDbScale
 70
     0
300
1/8" = 1'-0"
140
0.125
141
12.0
290
     0
  0
SCALE
  5
5F
102
{ACAD_REACTORS
330
47
102
}
330
47
100
AcDbScale
 70
     0
300
3/16" = 1'-0"
140
0.1875
141
12.0
290
     0
  0
SCALE
  5
60
102
{ACAD_REACTORS
330
47
102
}
330
47
100
AcDbScale
 70
     0
300
1/4" = 1'-0"
140
0.25
141
12.0
290
     0
  0
SCALE
  5
61
102
{ACAD_REACTORS
330
47
102
}
330
47
100
AcDbScale
 70
     0
300
3/8" = 1'-0"
140
0.375
141
12.0
290
     0
  0
SCALE
  5
62
102
{ACAD_REACTORS
330
47
102
}
330
47
100
AcDbScale
 70
     0
300
1/2" = 1'-0"
140
0.5
141
12.0
290
     0
  0
SCALE
  5
63
102
{ACAD_REACTORS
330
47
102
}
330
47
100
AcDbScale
 70
     0
300
3/4" = 1'-0"
140
0.75
141
12.0
290
     0
  0
SCALE
  5
64
102
{ACAD_REACTORS
330
47
102
}
330
47
100
AcDbScale
 70
     0
300
1" = 1'-0"
140
1.0
141
12.0
290
     0
  0
SCALE
  5
65
102
{ACAD_REACTORS
330
47
102
}
330
47
100
AcDbScale
 70
     0
300
1-1/2" = 1'-0"
140
1.5
141
12.0
290
     0
  0
SCALE
  5
66
102
{ACAD_REACTORS
330
47
102
}
330
47
100
AcDbScale
 70
     0
300
3" = 1'-0"
140
3.0
141
12.0
290
     0
  0
SCALE
  5
67
102
{ACAD_REACTORS
330
47
102
}
330
47
100
AcDbScale
 70
     0
300
6" = 1'-0"
140
6.0
141
12.0
290
     0
  0
SCALE
  5
68
102
{ACAD_REACTORS
330
47
102
}
330
47
100
AcDbScale
 70
     0
300
1'-0" = 1'-0"
140
12.0
141
12.0
290
     0
  0
ENDSEC
  0
EOF
