  0
SECTION
  2
HEADER
  9
$ACADVER
  1
AC1015
  9
$ACADMAINTVER
 70
     6
  9
$DWGCODEPAGE
  3
ANSI_949
  9
$INSBASE
 10
0.0
 20
0.0
 30
0.0
  9
$EXTMIN
 10
-42.9500000000001
 20
-49.97180738881174
 30
0.0
  9
$EXTMAX
 10
86.68162503295505
 20
36.98524999999997
 30
0.0
  9
$LIMMIN
 10
0.0
 20
0.0
  9
$LIMMAX
 10
420.0
 20
297.0
  9
$ORTHOMODE
 70
     1
  9
$REGENMODE
 70
     1
  9
$FILLMODE
 70
     1
  9
$QTEXTMODE
 70
     0
  9
$MIRRTEXT
 70
     1
  9
$LTSCALE
 40
1.0
  9
$ATTMODE
 70
     1
  9
$TEXTSIZE
 40
3.5
  9
$TRACEWID
 40
1.0
  9
$TEXTSTYLE
  7
Standard
  9
$CLAYER
  8
0
  9
$CELTYPE
  6
ByLayer
  9
$CECOLOR
 62
   256
  9
$CELTSCALE
 40
1.0
  9
$DISPSILH
 70
     0
  9
$DIMSCALE
 40
1.0
  9
$DIMASZ
 40
3.302
  9
$DIMEXO
 40
1.0
  9
$DIMDLI
 40
3.75
  9
$DIMRND
 40
0.0
  9
$DIMDLE
 40
0.0
  9
$DIMEXE
 40
1.0
  9
$DIMTP
 40
0.0
  9
$DIMTM
 40
0.0
  9
$DIMTXT
 40
3.5
  9
$DIMCEN
 40
2.5
  9
$DIMTSZ
 40
0.0
  9
$DIMTOL
 70
     0
  9
$DIMLIM
 70
     0
  9
$DIMTIH
 70
     1
  9
$DIMTOH
 70
     1
  9
$DIMSE1
 70
     0
  9
$DIMSE2
 70
     0
  9
$DIMTAD
 70
     1
  9
$DIMZIN
 70
     0
  9
$DIMBLK
  1

  9
$DIMASO
 70
     1
  9
$DIMSHO
 70
     1
  9
$DIMPOST
  1

  9
$DIMAPOST
  1

  9
$DIMALT
 70
     0
  9
$DIMALTD
 70
     3
  9
$DIMALTF
 40
0.0393700787401575
  9
$DIMLFAC
 40
1.0
  9
$DIMTOFL
 70
     1
  9
$DIMTVP
 40
0.0
  9
$DIMTIX
 70
     0
  9
$DIMSOXD
 70
     0
  9
$DIMSAH
 70
     0
  9
$DIMBLK1
  1

  9
$DIMBLK2
  1

  9
$DIMSTYLE
  2
ISO-25
  9
$DIMCLRD
 70
     0
  9
$DIMCLRE
 70
     0
  9
$DIMCLRT
 70
     0
  9
$DIMTFAC
 40
1.0
  9
$DIMGAP
 40
1.524
  9
$DIMJUST
 70
     0
  9
$DIMSD1
 70
     0
  9
$DIMSD2
 70
     0
  9
$DIMTOLJ
 70
     0
  9
$DIMTZIN
 70
     0
  9
$DIMALTZ
 70
     0
  9
$DIMALTTZ
 70
     0
  9
$DIMUPT
 70
     0
  9
$DIMDEC
 70
     2
  9
$DIMTDEC
 70
     2
  9
$DIMALTU
 70
     2
  9
$DIMALTTD
 70
     3
  9
$DIMTXSTY
  7
Standard
  9
$DIMAUNIT
 70
     0
  9
$DIMADEC
 70
     2
  9
$DIMALTRND
 40
0.0
  9
$DIMAZIN
 70
     0
  9
$DIMDSEP
 70
    44
  9
$DIMATFIT
 70
     3
  9
$DIMFRAC
 70
     0
  9
$DIMLDRBLK
  1

  9
$DIMLUNIT
 70
     2
  9
$DIMLWD
 70
    -2
  9
$DIMLWE
 70
    -2
  9
$DIMTMOVE
 70
     0
  9
$LUNITS
 70
     2
  9
$LUPREC
 70
     2
  9
$SKETCHINC
 40
1.0
  9
$FILLETRAD
 40
10.0
  9
$AUNITS
 70
     0
  9
$AUPREC
 70
     2
  9
$MENU
  1
.
  9
$ELEVATION
 40
0.0
  9
$PELEVATION
 40
0.0
  9
$THICKNESS
 40
0.0
  9
$LIMCHECK
 70
     0
  9
$CHAMFERA
 40
0.0
  9
$CHAMFERB
 40
0.0
  9
$CHAMFERC
 40
0.0
  9
$CHAMFERD
 40
0.0
  9
$SKPOLY
 70
     0
  9
$TDCREATE
 40
2458313.391652176
  9
$TDUCREATE
 40
2458313.016652176
  9
$TDUPDATE
 40
2458318.653810509
  9
$TDUUPDATE
 40
2458318.278810509
  9
$TDINDWG
 40
0.0035324074
  9
$TDUSRTIMER
 40
2458318.278769317
  9
$USRTIMER
 70
     1
  9
$ANGBASE
 50
0.0
  9
$ANGDIR
 70
     0
  9
$PDMODE
 70
     0
  9
$PDSIZE
 40
-1.0
  9
$PLINEWID
 40
0.0
  9
$SPLFRAME
 70
     0
  9
$SPLINETYPE
 70
     6
  9
$SPLINESEGS
 70
     8
  9
$HANDSEED
  5
274
  9
$SURFTAB1
 70
     6
  9
$SURFTAB2
 70
     6
  9
$SURFTYPE
 70
     6
  9
$SURFU
 70
     6
  9
$SURFV
 70
     6
  9
$UCSBASE
  2

  9
$UCSNAME
  2

  9
$UCSORG
 10
0.0
 20
0.0
 30
0.0
  9
$UCSXDIR
 10
1.0
 20
0.0
 30
0.0
  9
$UCSYDIR
 10
0.0
 20
1.0
 30
0.0
  9
$UCSORTHOREF
  2

  9
$UCSORTHOVIEW
 70
     0
  9
$UCSORGTOP
 10
0.0
 20
0.0
 30
0.0
  9
$UCSORGBOTTOM
 10
0.0
 20
0.0
 30
0.0
  9
$UCSORGLEFT
 10
0.0
 20
0.0
 30
0.0
  9
$UCSORGRIGHT
 10
0.0
 20
0.0
 30
0.0
  9
$UCSORGFRONT
 10
0.0
 20
0.0
 30
0.0
  9
$UCSORGBACK
 10
0.0
 20
0.0
 30
0.0
  9
$PUCSBASE
  2

  9
$PUCSNAME
  2

  9
$PUCSORG
 10
0.0
 20
0.0
 30
0.0
  9
$PUCSXDIR
 10
1.0
 20
0.0
 30
0.0
  9
$PUCSYDIR
 10
0.0
 20
1.0
 30
0.0
  9
$PUCSORTHOREF
  2

  9
$PUCSORTHOVIEW
 70
     0
  9
$PUCSORGTOP
 10
0.0
 20
0.0
 30
0.0
  9
$PUCSORGBOTTOM
 10
0.0
 20
0.0
 30
0.0
  9
$PUCSORGLEFT
 10
0.0
 20
0.0
 30
0.0
  9
$PUCSORGRIGHT
 10
0.0
 20
0.0
 30
0.0
  9
$PUCSORGFRONT
 10
0.0
 20
0.0
 30
0.0
  9
$PUCSORGBACK
 10
0.0
 20
0.0
 30
0.0
  9
$USERI1
 70
     0
  9
$USERI2
 70
     0
  9
$USERI3
 70
     0
  9
$USERI4
 70
     0
  9
$USERI5
 70
     0
  9
$USERR1
 40
0.0
  9
$USERR2
 40
0.0
  9
$USERR3
 40
0.0
  9
$USERR4
 40
0.0
  9
$USERR5
 40
0.0
  9
$WORLDVIEW
 70
     1
  9
$SHADEDGE
 70
     3
  9
$SHADEDIF
 70
    70
  9
$TILEMODE
 70
     1
  9
$MAXACTVP
 70
    64
  9
$PINSBASE
 10
0.0
 20
0.0
 30
0.0
  9
$PLIMCHECK
 70
     0
  9
$PEXTMIN
 10
1.000000000000000E+20
 20
1.000000000000000E+20
 30
1.000000000000000E+20
  9
$PEXTMAX
 10
-1.000000000000000E+20
 20
-1.000000000000000E+20
 30
-1.000000000000000E+20
  9
$PLIMMIN
 10
0.0
 20
0.0
  9
$PLIMMAX
 10
0.0
 20
0.0
  9
$UNITMODE
 70
     0
  9
$VISRETAIN
 70
     1
  9
$PLINEGEN
 70
     0
  9
$PSLTSCALE
 70
     1
  9
$TREEDEPTH
 70
  3020
  9
$CMLSTYLE
  2
Standard
  9
$CMLJUST
 70
     0
  9
$CMLSCALE
 40
20.0
  9
$PROXYGRAPHICS
 70
     1
  9
$MEASUREMENT
 70
     1
  9
$CELWEIGHT
370
    -1
  9
$ENDCAPS
280
     0
  9
$JOINSTYLE
280
     0
  9
$LWDISPLAY
290
     1
  9
$INSUNITS
 70
     4
  9
$HYPERLINKBASE
  1

  9
$STYLESHEET
  1

  9
$XEDIT
290
     1
  9
$CEPSNTYPE
380
     0
  9
$PSTYLEMODE
290
     1
  9
$FINGERPRINTGUID
  2
{A3794BC8-C868-4AB3-ACF7-26502CFA8788}
  9
$VERSIONGUID
  2
{FAEB1C32-E019-11D5-929B-00C0DF256EC4}
  9
$EXTNAMES
290
     1
  9
$PSVPSCALE
 40
0.0
  9
$OLESTARTUP
290
     0
  0
ENDSEC
  0
SECTION
  2
CLASSES
  0
CLASS
  1
ACDBDICTIONARYWDFLT
  2
AcDbDictionaryWithDefault
  3
ObjectDBX Classes
 90
        0
280
     0
281
     0
  0
CLASS
  1
VISUALSTYLE
  2
AcDbVisualStyle
  3
ObjectDBX Classes
 90
     4095
280
     0
281
     0
  0
CLASS
  1
MATERIAL
  2
AcDbMaterial
  3
ObjectDBX Classes
 90
     1153
280
     0
281
     0
  0
CLASS
  1
SCALE
  2
AcDbScale
  3
ObjectDBX Classes
 90
     1153
280
     0
281
     0
  0
CLASS
  1
SUN
  2
AcDbSun
  3
SCENEOE
 90
     1153
280
     0
281
     0
  0
CLASS
  1
ACDBPLACEHOLDER
  2
AcDbPlaceHolder
  3
ObjectDBX Classes
 90
        0
280
     0
281
     0
  0
CLASS
  1
LAYOUT
  2
AcDbLayout
  3
ObjectDBX Classes
 90
        0
280
     0
281
     0
  0
CLASS
  1
TABLESTYLE
  2
AcDbTableStyle
  3
ObjectDBX Classes
 90
     4095
280
     0
281
     0
  0
CLASS
  1
MLEADERSTYLE
  2
AcDbMLeaderStyle
  3
ACDB_MLEADERSTYLE_CLASS
 90
     4095
280
     0
281
     0
  0
CLASS
  1
DICTIONARYVAR
  2
AcDbDictionaryVar
  3
ObjectDBX Classes
 90
        0
280
     0
281
     0
  0
CLASS
  1
RASTERVARIABLES
  2
AcDbRasterVariables
  3
ISM
 90
        0
280
     0
281
     0
  0
ENDSEC
  0
SECTION
  2
TABLES
  0
TABLE
  2
VPORT
  5
8
330
0
100
AcDbSymbolTable
 70
     1
  0
VPORT
  5
29
330
8
100
AcDbSymbolTableRecord
100
AcDbViewportTableRecord
  2
*Active
 70
     0
 10
0.0
 20
0.0
 11
1.0
 21
1.0
 12
21.86581251647748
 22
-6.493278694405888
 13
0.0
 23
0.0
 14
10.0
 24
10.0
 15
10.0
 25
10.0
 16
0.0
 26
0.0
 36
1.0
 17
0.0
 27
0.0
 37
0.0
 40
88.69619853658794
 41
1.782762691853601
 42
50.0
 43
0.0
 44
0.0
 50
0.0
 51
0.0
 71
    16
 72
  2000
 73
     1
 74
     3
 75
     0
 76
     0
 77
     0
 78
     0
281
     0
 65
     1
110
0.0
120
0.0
130
0.0
111
1.0
121
0.0
131
0.0
112
0.0
122
1.0
132
0.0
 79
     0
146
0.0
  0
ENDTAB
  0
TABLE
  2
LTYPE
  5
5
330
0
100
AcDbSymbolTable
 70
     6
  0
LTYPE
  5
14
330
5
100
AcDbSymbolTableRecord
100
AcDbLinetypeTableRecord
  2
ByBlock
 70
     0
  3

 72
    65
 73
     0
 40
0.0
  0
LTYPE
  5
15
330
5
100
AcDbSymbolTableRecord
100
AcDbLinetypeTableRecord
  2
ByLayer
 70
     0
  3

 72
    65
 73
     0
 40
0.0
  0
LTYPE
  5
16
330
5
100
AcDbSymbolTableRecord
100
AcDbLinetypeTableRecord
  2
Continuous
 70
     0
  3
Solid line
 72
    65
 73
     0
 40
0.0
  0
LTYPE
  5
6A
330
5
100
AcDbSymbolTableRecord
100
AcDbLinetypeTableRecord
  2
HIDDEN
 70
     0
  3
Hidden __ __ __ __ __ __ __ __ __ __ __ __ __ __
 72
    65
 73
     2
 40
1.905
 49
1.27
 74
     0
 49
-0.635
 74
     0
  0
LTYPE
  5
6B
330
5
100
AcDbSymbolTableRecord
100
AcDbLinetypeTableRecord
  2
PHANTOM
 70
     0
  3
Phantom ______  __  __  ______  __  __  ______
 72
    65
 73
     6
 40
12.7
 49
6.35
 74
     0
 49
-1.27
 74
     0
 49
1.27
 74
     0
 49
-1.27
 74
     0
 49
1.27
 74
     0
 49
-1.27
 74
     0
  0
LTYPE
  5
6C
330
5
100
AcDbSymbolTableRecord
100
AcDbLinetypeTableRecord
  2
CENTER
 70
     0
  3
Center ____ _ ____ _ ____ _ ____ _ ____ _ ____
 72
    65
 73
     4
 40
10.16
 49
6.35
 74
     0
 49
-1.27
 74
     0
 49
1.27
 74
     0
 49
-1.27
 74
     0
  0
LTYPE
  5
6D
330
5
100
AcDbSymbolTableRecord
100
AcDbLinetypeTableRecord
  2
CENTERX2
 70
     0
  3
Center (2x) ________  __  ________  __  _____
 72
    65
 73
     4
 40
20.32
 49
12.7
 74
     0
 49
-2.54
 74
     0
 49
2.54
 74
     0
 49
-2.54
 74
     0
  0
LTYPE
  5
6E
330
5
100
AcDbSymbolTableRecord
100
AcDbLinetypeTableRecord
  2
DOT2
 70
     0
  3
Dot (.5x) ........................................
 72
    65
 73
     2
 40
0.635
 49
0.0
 74
     0
 49
-0.635
 74
     0
  0
ENDTAB
  0
TABLE
  2
LAYER
  5
2
102
{ACAD_XDICTIONARY
360
192
102
}
330
0
100
AcDbSymbolTable
 70
    18
  0
LAYER
  5
10
330
2
100
AcDbSymbolTableRecord
100
AcDbLayerTableRecord
  2
0
 70
     0
 62
     7
  6
Continuous
370
    -3
390
F
  0
LAYER
  5
6F
330
2
100
AcDbSymbolTableRecord
100
AcDbLayerTableRecord
  2
FORMAT
 70
     0
 62
     2
  6
Continuous
370
    -3
390
F
  0
LAYER
  5
70
330
2
100
AcDbSymbolTableRecord
100
AcDbLayerTableRecord
  2
외형선
 70
     0
 62
     4
  6
Continuous
370
    30
390
F
  0
LAYER
  5
71
330
2
100
AcDbSymbolTableRecord
100
AcDbLayerTableRecord
  2
숨은선
 70
     0
 62
     2
  6
HIDDEN
370
    15
390
F
  0
LAYER
  5
72
330
2
100
AcDbSymbolTableRecord
100
AcDbLayerTableRecord
  2
중심선
 70
     0
 62
     1
  6
CENTERX2
370
    -3
390
F
  0
LAYER
  5
73
330
2
100
AcDbSymbolTableRecord
100
AcDbLayerTableRecord
  2
파단선
 70
     0
 62
     4
  6
Continuous
370
    -3
390
F
  0
LAYER
  5
74
330
2
100
AcDbSymbolTableRecord
100
AcDbLayerTableRecord
  2
해칭선
 70
     0
 62
   100
  6
Continuous
370
    -3
390
F
  0
LAYER
  5
75
330
2
100
AcDbSymbolTableRecord
100
AcDbLayerTableRecord
  2
가는실선
 70
     0
 62
     4
  6
Continuous
370
    -3
390
F
  0
LAYER
  5
76
330
2
100
AcDbSymbolTableRecord
100
AcDbLayerTableRecord
  2
치수_보조선
 70
     0
 62
     4
  6
Continuous
370
    -3
390
F
  0
LAYER
  5
77
330
2
100
AcDbSymbolTableRecord
100
AcDbLayerTableRecord
  2
치수문자_일반주서
 70
     0
 62
     7
  6
Continuous
370
    15
390
F
  0
LAYER
  5
78
330
2
100
AcDbSymbolTableRecord
100
AcDbLayerTableRecord
  2
개별주서
 70
     0
 62
   100
  6
Continuous
370
    30
390
F
  0
LAYER
  5
79
330
2
100
AcDbSymbolTableRecord
100
AcDbLayerTableRecord
  2
중간선
 70
     0
 62
     2
  6
Continuous
370
    15
390
F
  0
LAYER
  5
7A
330
2
100
AcDbSymbolTableRecord
100
AcDbLayerTableRecord
  2
윤곽선
 70
     0
 62
     3
  6
Continuous
370
    40
390
F
  0
LAYER
  5
7B
330
2
100
AcDbSymbolTableRecord
100
AcDbLayerTableRecord
  2
중심마크
 70
     0
 62
   100
  6
Continuous
370
    30
390
F
  0
LAYER
  5
7C
330
2
100
AcDbSymbolTableRecord
100
AcDbLayerTableRecord
  2
가상선
 70
     0
 62
     4
  6
PHANTOM
370
    -3
390
F
  0
LAYER
  5
7D
330
2
100
AcDbSymbolTableRecord
100
AcDbLayerTableRecord
  2
특수지정선
 70
     0
 62
     5
  6
CENTERX2
370
    60
390
F
  0
LAYER
  5
7E
330
2
100
AcDbSymbolTableRecord
100
AcDbLayerTableRecord
  2
참조1
 70
     0
 62
    -4
  6
Continuous
370
    -3
390
F
  0
LAYER
  5
15B
330
2
100
AcDbSymbolTableRecord
100
AcDbLayerTableRecord
  2
Defpoints
 70
     0
 62
     7
  6
Continuous
290
     0
370
    -3
390
F
  0
ENDTAB
  0
TABLE
  2
STYLE
  5
3
330
0
100
AcDbSymbolTable
 70
     2
  0
STYLE
  5
11
330
3
100
AcDbSymbolTableRecord
100
AcDbTextStyleTableRecord
  2
Standard
 70
     0
 40
0.0
 41
1.0
 50
0.0
 71
     0
 42
3.5
  3
txt
  4

  0
STYLE
  5
94
330
3
100
AcDbSymbolTableRecord
100
AcDbTextStyleTableRecord
  2
SLDTEXTSTYLE0
 70
     0
 40
0.0
 41
0.75
 50
0.0
 71
     0
 42
3.5
  3
TXT
  4

  0
ENDTAB
  0
TABLE
  2
VIEW
  5
6
330
0
100
AcDbSymbolTable
 70
     0
  0
ENDTAB
  0
TABLE
  2
UCS
  5
7
330
0
100
AcDbSymbolTable
 70
     0
  0
ENDTAB
  0
TABLE
  2
APPID
  5
9
330
0
100
AcDbSymbolTable
 70
     2
  0
APPID
  5
12
330
9
100
AcDbSymbolTableRecord
100
AcDbRegAppTableRecord
  2
ACAD
 70
     0
  0
APPID
  5
162
330
9
100
AcDbSymbolTableRecord
100
AcDbRegAppTableRecord
  2
PE_URL
 70
     0
  0
ENDTAB
  0
TABLE
  2
DIMSTYLE
  5
A
330
0
100
AcDbSymbolTable
 70
     4
100
AcDbDimStyleTable
  0
DIMSTYLE
105
27
330
A
100
AcDbSymbolTableRecord
100
AcDbDimStyleTableRecord
  2
ISO-25
 70
     0
 41
2.5
 42
0.625
 43
3.75
 44
1.25
 73
     0
 74
     0
 77
     1
 78
     8
140
2.5
141
2.5
143
0.03937007874016
147
0.625
171
     3
172
     1
178
     0
271
     2
272
     2
274
     3
278
    44
283
     0
284
     8
340
11
  0
DIMSTYLE
105
D9
102
{ACAD_REACTORS
330
D8
330
ED
330
101
330
116
102
}
330
A
100
AcDbSymbolTableRecord
100
AcDbDimStyleTableRecord
  2
SLDDIMSTYLE0
 70
     0
 41
3.302
 44
0.0
 45
0.000000001
 73
     0
 74
     0
 77
     1
 78
    12
 79
     3
140
3.5
143
0.0393700787401575
147
0.875
148
0.000000001
170
     1
172
     1
173
     1
178
     0
271
     2
272
     2
276
     2
284
    12
289
     0
340
94
  0
DIMSTYLE
105
102
330
A
100
AcDbSymbolTableRecord
100
AcDbDimStyleTableRecord
  2
SLDDIMSTYLE1
 70
     0
 41
3.302
 44
0.0
 45
0.000000001
 73
     0
 74
     0
 77
     1
 78
     4
 79
     1
140
3.5
143
0.0393700787401575
147
0.875
148
0.000000001
170
     1
173
     1
178
     0
271
     2
272
     2
276
     2
284
    12
340
94
  0
DIMSTYLE
105
117
330
A
100
AcDbSymbolTableRecord
100
AcDbDimStyleTableRecord
  2
SLDDIMSTYLE2
 70
     0
 41
3.302
 44
0.0
 45
0.000000001
 73
     0
 74
     0
 77
     1
 78
    12
 79
     3
140
3.5
143
0.0393700787401575
147
0.875
148
0.000000001
170
     1
173
     1
178
     0
271
     2
272
     2
276
     2
284
    12
340
94
  0
ENDTAB
  0
TABLE
  2
BLOCK_RECORD
  5
1
330
0
100
AcDbSymbolTable
 70
     9
  0
BLOCK_RECORD
  5
1F
330
1
100
AcDbSymbolTableRecord
100
AcDbBlockTableRecord
  2
*Model_Space
340
22
  0
BLOCK_RECORD
  5
1B
330
1
100
AcDbSymbolTableRecord
100
AcDbBlockTableRecord
  2
*Paper_Space
340
1E
  0
BLOCK_RECORD
  5
23
330
1
100
AcDbSymbolTableRecord
100
AcDbBlockTableRecord
  2
*Paper_Space0
340
26
  0
BLOCK_RECORD
  5
7F
330
1
100
AcDbSymbolTableRecord
100
AcDbBlockTableRecord
  2
블럭10
340
0
102
{BLKREFS
331
D1
102
}
  0
BLOCK_RECORD
  5
DA
330
1
100
AcDbSymbolTableRecord
100
AcDbBlockTableRecord
  2
_D
340
0
  0
BLOCK_RECORD
  5
EE
330
1
100
AcDbSymbolTableRecord
100
AcDbBlockTableRecord
  2
_D_1
340
0
  0
BLOCK_RECORD
  5
103
330
1
100
AcDbSymbolTableRecord
100
AcDbBlockTableRecord
  2
_D_2
340
0
  0
BLOCK_RECORD
  5
118
330
1
100
AcDbSymbolTableRecord
100
AcDbBlockTableRecord
  2
_D_3
340
0
  0
BLOCK_RECORD
  5
131
330
1
100
AcDbSymbolTableRecord
100
AcDbBlockTableRecord
  2
SW_DOWELSYMBOL_0
340
0
102
{BLKREFS
331
137
102
}
  0
BLOCK_RECORD
  5
196
330
1
100
AcDbSymbolTableRecord
100
AcDbBlockTableRecord
  2
*D7
340
0
  0
BLOCK_RECORD
  5
1A8
330
1
100
AcDbSymbolTableRecord
100
AcDbBlockTableRecord
  2
*D8
340
0
  0
ENDTAB
  0
ENDSEC
  0
SECTION
  2
BLOCKS
  0
BLOCK
  5
20
330
1F
100
AcDbEntity
  8
0
100
AcDbBlockBegin
  2
*Model_Space
 70
     0
 10
0.0
 20
0.0
 30
0.0
  3
*Model_Space
  1
*Model_Space
  0
ENDBLK
  5
21
330
1F
100
AcDbEntity
  8
0
100
AcDbBlockEnd
  0
BLOCK
  5
1C
330
1B
100
AcDbEntity
 67
     1
  8
0
100
AcDbBlockBegin
  2
*Paper_Space
 70
     0
 10
0.0
 20
0.0
 30
0.0
  3
*Paper_Space
  1
*Paper_Space
  0
ENDBLK
  5
1D
330
1B
100
AcDbEntity
 67
     1
  8
0
100
AcDbBlockEnd
  0
BLOCK
  5
24
330
23
100
AcDbEntity
  8
0
100
AcDbBlockBegin
  2
*Paper_Space0
 70
     0
 10
0.0
 20
0.0
 30
0.0
  3
*Paper_Space0
  1
*Paper_Space0
  0
ENDBLK
  5
25
330
23
100
AcDbEntity
  8
0
100
AcDbBlockEnd
  0
BLOCK
  5
80
330
7F
100
AcDbEntity
  8
0
100
AcDbBlockBegin
  2
블럭10
 70
     2
 10
0.0
 20
0.0
 30
0.0
  3
블럭10
  1
블럭10
  0
ELLIPSE
  5
82
330
7F
100
AcDbEntity
  8
중심선
100
AcDbEllipse
 10
20.54032771741204
 20
12.0471743016438
 30
0.0
 11
6.600054785286829
 21
-1.261213355974178E-13
 31
0.0
210
0.0
220
0.0
230
1.0
 40
0.636358354079598
 41
0.9219305317359503
 42
6.513795318482858
  0
ELLIPSE
  5
83
330
7F
100
AcDbEntity
  8
중심선
100
AcDbEllipse
 10
20.54032771746488
 20
12.04717430159265
 30
0.0
 11
3.960054785062283
 21
1.540847449632565E-10
 31
0.0
210
0.0
220
0.0
230
1.0
 40
0.3939339440162632
 41
1.131841032648279
 42
5.62031148352944
  0
LINE
  5
84
330
7F
100
AcDbEntity
  8
중심선
100
AcDbLine
 10
2.268634060543552
 20
16.24717430164393
 30
0.0
 11
5.714909304380834
 21
16.24717430164393
 31
0.0
  0
LINE
  5
85
330
7F
100
AcDbEntity
  8
중심선
100
AcDbLine
 10
5.245725140726316
 20
7.84717430164391
 30
0.0
 11
8.692000384563599
 21
7.84717430164391
 31
0.0
  0
LINE
  5
86
330
7F
100
AcDbEntity
  8
중심선
100
AcDbLine
 10
15.74043728645272
 20
16.24717430164393
 30
0.0
 11
8.692000384563599
 21
7.84717430164391
 31
0.0
  0
LINE
  5
87
330
7F
100
AcDbEntity
  8
중심선
100
AcDbLine
 10
0.1404042013395286
 20
13.71084872107135
 30
0.0
 11
3.58671253028996
 21
13.71088815037384
 31
0.0
  0
LINE
  5
88
330
7F
100
AcDbEntity
  8
중심선
100
AcDbLine
 10
2.750260043222114
 20
10.84717430164391
 30
0.0
 11
6.196535287059397
 21
10.84717430164391
 31
0.0
  0
LINE
  5
89
330
7F
100
AcDbEntity
  8
중심선
100
AcDbLine
 10
12.29416204261559
 20
16.24717430164393
 30
0.0
 11
5.245725140726316
 21
7.84717430164391
 31
0.0
  0
LINE
  5
8A
330
7F
100
AcDbEntity
  8
중심선
100
AcDbLine
 10
10.72767329541681
 20
16.24717430164393
 30
0.0
 11
6.196535287059397
 21
10.84717430164391
 31
0.0
  0
LINE
  5
8B
330
7F
100
AcDbEntity
  8
중심선
100
AcDbLine
 10
7.28139805157953
 20
16.24717430164393
 30
0.0
 11
2.750260043222114
 21
10.84717430164391
 31
0.0
  0
LINE
  5
8C
330
7F
100
AcDbEntity
  8
중심선
100
AcDbLine
 10
5.714909304380834
 20
16.24717430164393
 30
0.0
 11
3.58671253028996
 21
13.71088815037384
 31
0.0
  0
LINE
  5
8D
330
7F
100
AcDbEntity
  8
중심선
100
AcDbLine
 10
2.268634060543552
 20
16.24717430164393
 30
0.0
 11
0.1404042013395286
 21
13.71084872107135
 31
0.0
  0
LINE
  5
8E
330
7F
100
AcDbEntity
  8
중심선
100
AcDbLine
 10
7.28139805157953
 20
16.24717430164393
 30
0.0
 11
10.72767329541681
 21
16.24717430164393
 31
0.0
  0
LINE
  5
8F
330
7F
100
AcDbEntity
  8
중심선
100
AcDbLine
 10
12.29416204261559
 20
16.24717430164393
 30
0.0
 11
15.74043728645272
 21
16.24717430164393
 31
0.0
  0
LINE
  5
90
330
7F
100
AcDbEntity
  8
중심선
100
AcDbLine
 10
19.22036997980202
 20
11.08717430171403
 30
0.0
 11
23.66174974927406
 21
11.08717430171406
 31
0.0
  0
LINE
  5
91
330
7F
100
AcDbEntity
  8
중심선
100
AcDbLine
 10
19.22039502424796
 20
13.00717430171391
 30
0.0
 11
19.22036997980202
 21
11.08717430171403
 31
0.0
  0
LINE
  5
92
330
7F
100
AcDbEntity
  8
중심선
100
AcDbLine
 10
19.22039502424796
 20
13.00717430171391
 30
0.0
 11
26.96566020931264
 21
13.00717430171391
 31
0.0
  0
LINE
  5
93
330
7F
100
AcDbEntity
  8
중심선
100
AcDbLine
 10
22.22332737316547
 20
13.45928029700563
 30
0.0
 11
24.52862924686651
 21
15.39360700705356
 31
0.0
  0
ATTDEF
  5
95
330
7F
100
AcDbEntity
  8
FORMAT
 62
     2
100
AcDbText
 10
4.408487351596664
 20
2.075366912832191
 30
0.0
 40
4.233333333333333
  1
E1003012
 41
0.75
  7
SLDTEXTSTYLE0
 11
4.408487351596664
 21
-0.0412997538344756
 31
0.0
100
AcDbAttributeDefinition
  3

  2
AUTOATTR0
 70
     0
 74
     1
  0
ENDBLK
  5
81
330
7F
100
AcDbEntity
  8
0
100
AcDbBlockEnd
  0
BLOCK
  5
DB
330
DA
100
AcDbEntity
  8
0
100
AcDbBlockBegin
  2
_D
 70
     0
 10
0.0
 20
0.0
 30
0.0
  3
_D
  1
_D
  0
LINE
  5
DD
330
DA
100
AcDbEntity
  8
치수문자_일반주서
 62
     0
370
    -2
100
AcDbLine
 10
-28.63750000000001
 20
2.379237403765522
 30
0.0
 11
-38.57499999999999
 21
2.379237403765487
 31
0.0
  0
LINE
  5
DE
330
DA
100
AcDbEntity
  8
치수문자_일반주서
 62
     0
370
    -2
100
AcDbLine
 10
-28.6375
 20
-2.379237403765658
 30
0.0
 11
-38.57499999999997
 21
-2.379237403765693
 31
0.0
  0
LINE
  5
DF
330
DA
100
AcDbEntity
  8
치수문자_일반주서
 62
     0
370
    -2
100
AcDbLine
 10
-38.57499999999999
 20
2.379237403765487
 30
0.0
 11
-38.5750000000001
 21
36.98524999999997
 31
0.0
  0
LINE
  5
E0
330
DA
100
AcDbEntity
  8
치수문자_일반주서
 62
     0
370
    -2
100
AcDbLine
 10
-38.57499999999999
 20
2.379237403765487
 30
0.0
 11
-38.57499999999997
 21
-2.379237403765693
 31
0.0
  0
LINE
  5
E1
330
DA
100
AcDbEntity
  8
치수문자_일반주서
 62
     0
370
    -2
100
AcDbLine
 10
-38.575
 20
5.681237403765486
 30
0.0
 11
-38.575
 21
8.983237403765486
 31
0.0
  0
LINE
  5
E2
330
DA
100
AcDbEntity
  8
치수문자_일반주서
 62
     0
370
    -2
100
AcDbLine
 10
-38.57499999999997
 20
-5.681237403765692
 30
0.0
 11
-38.57499999999996
 21
-8.983237403765692
 31
0.0
  0
SOLID
  5
E3
330
DA
100
AcDbEntity
  8
치수문자_일반주서
 62
     0
100
AcDbTrace
 10
-39.12533333333333
 20
5.681237403765484
 30
0.0
 11
-38.02466666666666
 21
5.681237403765488
 31
0.0
 12
-38.57499999999999
 22
2.379237403765487
 32
0.0
 13
-38.57499999999999
 23
2.379237403765487
 33
0.0
  0
SOLID
  5
E4
330
DA
100
AcDbEntity
  8
치수문자_일반주서
 62
     0
100
AcDbTrace
 10
-38.02466666666663
 20
-5.681237403765691
 30
0.0
 11
-39.1253333333333
 21
-5.681237403765694
 31
0.0
 12
-38.57499999999997
 22
-2.379237403765693
 32
0.0
 13
-38.57499999999997
 23
-2.379237403765693
 33
0.0
  0
MTEXT
  5
E5
330
DA
100
AcDbEntity
  8
치수문자_일반주서
 62
     0
100
AcDbMText
 10
-42.95000000000005
 20
22.98524999999996
 30
0.0
 40
3.5
 41
0.0
 71
     2
 72
     1
  1
\A1;%%c4.76 [3/16]
  7
SLDTEXTSTYLE0
 11
-2.986430587529990E-15
 21
1.0
 31
0.0
 73
     1
 44
1.0
  0
POINT
  5
1C1
330
DA
100
AcDbEntity
  8
Defpoints
 62
     0
100
AcDbPoint
 10
-28.57500000000001
 20
2.379237403765523
 30
0.0
  0
POINT
  5
1C2
330
DA
100
AcDbEntity
  8
Defpoints
 62
     0
100
AcDbPoint
 10
-28.575
 20
-2.379237403765658
 30
0.0
  0
POINT
  5
1C3
330
DA
100
AcDbEntity
  8
Defpoints
 62
     0
100
AcDbPoint
 10
-38.57499999999997
 20
-2.379237403765695
 30
0.0
  0
ENDBLK
  5
DC
330
DA
100
AcDbEntity
  8
0
100
AcDbBlockEnd
  0
BLOCK
  5
EF
330
EE
100
AcDbEntity
  8
0
100
AcDbBlockBegin
  2
_D_1
 70
     0
 10
0.0
 20
0.0
 30
0.0
  3
_D_1
  1
_D_1
  0
LINE
  5
F1
330
EE
100
AcDbEntity
  8
치수문자_일반주서
 62
     0
370
    -2
100
AcDbLine
 10
28.63750000000001
 20
-2.379237403765589
 30
0.0
 11
63.53649126121837
 21
-2.379237403765458
 31
0.0
  0
LINE
  5
F2
330
EE
100
AcDbEntity
  8
치수문자_일반주서
 62
     0
370
    -2
100
AcDbLine
 10
28.63750000000001
 20
2.379237403765591
 30
0.0
 11
63.53649126121836
 21
2.379237403765721
 31
0.0
  0
LINE
  5
F3
330
EE
100
AcDbEntity
  8
치수문자_일반주서
 62
     0
370
    -2
100
AcDbLine
 10
63.53649126121836
 20
2.379237403765721
 30
0.0
 11
63.53649126121825
 21
36.98323740376572
 31
0.0
  0
LINE
  5
F4
330
EE
100
AcDbEntity
  8
치수문자_일반주서
 62
     0
370
    -2
100
AcDbLine
 10
63.53649126121837
 20
-2.379237403765458
 30
0.0
 11
63.53649126121836
 21
2.379237403765721
 31
0.0
  0
LINE
  5
F5
330
EE
100
AcDbEntity
  8
치수문자_일반주서
 62
     0
370
    -2
100
AcDbLine
 10
63.53649126121838
 20
-5.681237403765458
 30
0.0
 11
63.53649126121839
 21
-8.983237403765457
 31
0.0
  0
LINE
  5
F6
330
EE
100
AcDbEntity
  8
치수문자_일반주서
 62
     0
370
    -2
100
AcDbLine
 10
63.53649126121835
 20
5.681237403765721
 30
0.0
 11
63.53649126121834
 21
8.98323740376572
 31
0.0
  0
SOLID
  5
F7
330
EE
100
AcDbEntity
  8
치수문자_일반주서
 62
     0
100
AcDbTrace
 10
64.08682459455171
 20
-5.681237403765456
 30
0.0
 11
62.98615792788505
 21
-5.68123740376546
 31
0.0
 12
63.53649126121837
 22
-2.379237403765458
 32
0.0
 13
63.53649126121837
 23
-2.379237403765458
 33
0.0
  0
SOLID
  5
F8
330
EE
100
AcDbEntity
  8
치수문자_일반주서
 62
     0
100
AcDbTrace
 10
62.98615792788502
 20
5.681237403765719
 30
0.0
 11
64.08682459455169
 21
5.681237403765723
 31
0.0
 12
63.53649126121836
 22
2.379237403765721
 32
0.0
 13
63.53649126121836
 23
2.379237403765721
 33
0.0
  0
MTEXT
  5
F9
330
EE
100
AcDbEntity
  8
치수문자_일반주서
 62
     0
100
AcDbMText
 10
59.16149126121829
 20
22.98323740376571
 30
0.0
 40
3.5
 41
0.0
 71
     2
 72
     1
  1
\A1;%%c4.76 [3/16]
  7
SLDTEXTSTYLE0
 11
-2.986430587529991E-15
 21
1.0
 31
0.0
 73
     1
 44
1.0
  0
POINT
  5
1C4
330
EE
100
AcDbEntity
  8
Defpoints
 62
     0
100
AcDbPoint
 10
28.57500000000001
 20
-2.37923740376559
 30
0.0
  0
POINT
  5
1C5
330
EE
100
AcDbEntity
  8
Defpoints
 62
     0
100
AcDbPoint
 10
28.57500000000001
 20
2.379237403765591
 30
0.0
  0
POINT
  5
1C6
330
EE
100
AcDbEntity
  8
Defpoints
 62
     0
100
AcDbPoint
 10
63.53649126121837
 20
2.379237403765722
 30
0.0
  0
ENDBLK
  5
F0
330
EE
100
AcDbEntity
  8
0
100
AcDbBlockEnd
  0
BLOCK
  5
104
330
103
100
AcDbEntity
  8
0
100
AcDbBlockBegin
  2
_D_2
 70
     0
 10
0.0
 20
0.0
 30
0.0
  3
_D_2
  1
_D_2
  0
LINE
  5
106
330
103
100
AcDbEntity
  8
치수문자_일반주서
 62
     0
370
    -2
100
AcDbLine
 10
28.57500000000001
 20
2.441737403765591
 30
0.0
 11
28.57500000000001
 21
12.38125000000001
 31
0.0
  0
LINE
  5
107
330
103
100
AcDbEntity
  8
치수문자_일반주서
 62
     0
370
    -2
100
AcDbLine
 10
15.87500000000001
 20
2.443201639238508
 30
0.0
 11
15.87500000000001
 21
12.38125000000001
 31
0.0
  0
LINE
  5
108
330
103
100
AcDbEntity
  8
치수문자_일반주서
 62
     0
370
    -2
100
AcDbLine
 10
28.57500000000001
 20
12.38125000000001
 30
0.0
 11
57.05400000000001
 21
12.38125000000001
 31
0.0
  0
LINE
  5
109
330
103
100
AcDbEntity
  8
치수문자_일반주서
 62
     0
370
    -2
100
AcDbLine
 10
28.57500000000001
 20
12.38125000000001
 30
0.0
 11
15.87500000000001
 21
12.38125000000001
 31
0.0
  0
LINE
  5
10A
330
103
100
AcDbEntity
  8
치수문자_일반주서
 62
     0
370
    -2
100
AcDbLine
 10
31.87700000000001
 20
12.38125000000001
 30
0.0
 11
35.17900000000001
 21
12.38125000000001
 31
0.0
  0
LINE
  5
10B
330
103
100
AcDbEntity
  8
치수문자_일반주서
 62
     0
370
    -2
100
AcDbLine
 10
12.57300000000001
 20
12.38125000000001
 30
0.0
 11
9.271000000000008
 21
12.38125000000001
 31
0.0
  0
SOLID
  5
10C
330
103
100
AcDbEntity
  8
치수문자_일반주서
 62
     0
100
AcDbTrace
 10
31.87700000000001
 20
12.93158333333334
 30
0.0
 11
31.87700000000001
 21
11.83091666666668
 31
0.0
 12
28.57500000000001
 22
12.38125000000001
 32
0.0
 13
28.57500000000001
 23
12.38125000000001
 33
0.0
  0
SOLID
  5
10D
330
103
100
AcDbEntity
  8
치수문자_일반주서
 62
     0
100
AcDbTrace
 10
12.57300000000001
 20
11.83091666666668
 30
0.0
 11
12.57300000000001
 21
12.93158333333334
 31
0.0
 12
15.87500000000001
 22
12.38125000000001
 32
0.0
 13
15.87500000000001
 23
12.38125000000001
 33
0.0
  0
MTEXT
  5
10E
330
103
100
AcDbEntity
  8
치수문자_일반주서
 62
     0
100
AcDbMText
 10
46.11650000000001
 20
16.75625000000001
 30
0.0
 40
3.5
 41
0.0
 71
     2
 72
     1
  1
\A1;12.7 [1/2]
  7
SLDTEXTSTYLE0
 73
     1
 44
1.0
  0
POINT
  5
10F
330
103
100
AcDbEntity
  8
Defpoints
 62
     0
100
AcDbPoint
 10
28.57500000000001
 20
2.379237403765591
 30
0.0
  0
POINT
  5
110
330
103
100
AcDbEntity
  8
Defpoints
 62
     0
100
AcDbPoint
 10
15.87500000000001
 20
2.380701639238508
 30
0.0
  0
POINT
  5
111
330
103
100
AcDbEntity
  8
Defpoints
 62
     0
100
AcDbPoint
 10
15.87500000000001
 20
12.38125000000001
 30
0.0
  0
ENDBLK
  5
105
330
103
100
AcDbEntity
  8
0
100
AcDbBlockEnd
  0
BLOCK
  5
119
330
118
100
AcDbEntity
  8
0
100
AcDbBlockBegin
  2
_D_3
 70
     0
 10
0.0
 20
0.0
 30
0.0
  3
_D_3
  1
_D_3
  0
LINE
  5
11B
330
118
100
AcDbEntity
  8
치수문자_일반주서
 62
     0
370
    -2
100
AcDbLine
 10
-28.57500000000001
 20
2.441737403765523
 30
0.0
 11
-28.57500000000002
 21
22.38125
 31
0.0
  0
LINE
  5
11C
330
118
100
AcDbEntity
  8
치수문자_일반주서
 62
     0
370
    -2
100
AcDbLine
 10
28.57500000000001
 20
2.441737403765591
 30
0.0
 11
28.575
 21
22.38125
 31
0.0
  0
LINE
  5
11D
330
118
100
AcDbEntity
  8
치수문자_일반주서
 62
     0
370
    -2
100
AcDbLine
 10
-25.27300000000002
 20
22.38125
 30
0.0
 11
25.273
 21
22.38125
 31
0.0
  0
SOLID
  5
11E
330
118
100
AcDbEntity
  8
치수문자_일반주서
 62
     0
100
AcDbTrace
 10
-25.27300000000002
 20
22.93158333333334
 30
0.0
 11
-25.27300000000002
 21
21.83091666666667
 31
0.0
 12
-28.57500000000002
 22
22.38125
 32
0.0
 13
-28.57500000000002
 23
22.38125
 33
0.0
  0
SOLID
  5
11F
330
118
100
AcDbEntity
  8
치수문자_일반주서
 62
     0
100
AcDbTrace
 10
25.273
 20
21.83091666666667
 30
0.0
 11
25.273
 21
22.93158333333334
 31
0.0
 12
28.575
 22
22.38125
 32
0.0
 13
28.575
 23
22.38125
 33
0.0
  0
MTEXT
  5
120
330
118
100
AcDbEntity
  8
치수문자_일반주서
 62
     0
100
AcDbMText
 10
0.0000000000000124
 20
26.75625
 30
0.0
 40
3.5
 41
0.0
 71
     2
 72
     1
  1
\A1;57.15 [2 1/4]
  7
SLDTEXTSTYLE0
 73
     1
 44
1.0
  0
POINT
  5
121
330
118
100
AcDbEntity
  8
Defpoints
 62
     0
100
AcDbPoint
 10
-28.57500000000001
 20
2.379237403765523
 30
0.0
  0
POINT
  5
122
330
118
100
AcDbEntity
  8
Defpoints
 62
     0
100
AcDbPoint
 10
28.57500000000001
 20
2.379237403765591
 30
0.0
  0
POINT
  5
123
330
118
100
AcDbEntity
  8
Defpoints
 62
     0
100
AcDbPoint
 10
28.57500000000001
 20
22.38125
 30
0.0
  0
ENDBLK
  5
11A
330
118
100
AcDbEntity
  8
0
100
AcDbBlockEnd
  0
BLOCK
  5
132
330
131
100
AcDbEntity
  8
0
100
AcDbBlockBegin
  2
SW_DOWELSYMBOL_0
 70
     0
 10
0.0
 20
0.0
 30
0.0
  3
SW_DOWELSYMBOL_0
  1
SW_DOWELSYMBOL_0
  0
CIRCLE
  5
134
330
131
100
AcDbEntity
  8
해칭선
 62
     0
100
AcDbCircle
 10
0.0
 20
0.0
 30
0.0
 40
3.000000000000001
  0
HATCH
  5
135
330
131
100
AcDbEntity
  8
0
  6
Continuous
 62
     0
370
     0
100
AcDbHatch
 10
0.0
 20
0.0
 30
0.0
210
0.0
220
0.0
230
1.0
  2
SOLID
 70
     1
 71
     0
 91
        1
 92
        0
 93
        3
 72
     2
 10
0.0
 20
0.0
 40
3.000000000000001
 50
0.0
 51
90.0
 73
     1
 72
     1
 10
0.0
 20
3.000000000000001
 11
0.0
 21
0.0
 72
     1
 10
0.0
 20
0.0
 11
3.000000000000001
 21
0.0
 97
        0
 75
     0
 76
     1
 98
        1
 10
0.0
 20
0.0
  0
HATCH
  5
136
330
131
100
AcDbEntity
  8
0
  6
Continuous
 62
     0
370
     0
100
AcDbHatch
 10
0.0
 20
0.0
 30
0.0
210
0.0
220
0.0
230
1.0
  2
SOLID
 70
     1
 71
     0
 91
        1
 92
        0
 93
        3
 72
     2
 10
0.0
 20
0.0
 40
3.000000000000001
 50
180.0
 51
270.0000000000007
 73
     1
 72
     1
 10
0.0
 20
-3.000000000000001
 11
0.0
 21
0.0
 72
     1
 10
0.0
 20
0.0
 11
-3.000000000000001
 21
0.0
 97
        0
 75
     0
 76
     1
 98
        1
 10
0.0
 20
0.0
  0
ENDBLK
  5
133
330
131
100
AcDbEntity
  8
0
100
AcDbBlockEnd
  0
BLOCK
  5
197
330
196
100
AcDbEntity
  8
0
100
AcDbBlockBegin
  2
*D7
 70
     1
 10
0.0
 20
0.0
 30
0.0
  3
*D7
  1
*D7
  0
LINE
  5
199
330
196
100
AcDbEntity
  8
치수문자_일반주서
 62
     0
370
    -2
100
AcDbLine
 10
16.129
 20
3.155101899082702
 30
0.0
 11
16.129
 21
13.88769362990564
 31
0.0
  0
LINE
  5
19A
330
196
100
AcDbEntity
  8
치수문자_일반주서
 62
     0
370
    -2
100
AcDbLine
 10
6.603999999999999
 20
2.633059590344414
 30
0.0
 11
6.603999999999999
 21
13.88769362990564
 31
0.0
  0
LINE
  5
19B
330
196
100
AcDbEntity
  8
치수문자_일반주서
 62
     0
370
    -2
100
AcDbLine
 10
16.129
 20
13.88769362990564
 30
0.0
 11
46.358
 21
13.88769362990564
 31
0.0
  0
LINE
  5
19C
330
196
100
AcDbEntity
  8
치수문자_일반주서
 62
     0
370
    -2
100
AcDbLine
 10
16.129
 20
13.88769362990564
 30
0.0
 11
6.603999999999999
 21
13.88769362990564
 31
0.0
  0
LINE
  5
19D
330
196
100
AcDbEntity
  8
치수문자_일반주서
 62
     0
370
    -2
100
AcDbLine
 10
19.431
 20
13.88769362990564
 30
0.0
 11
22.733
 21
13.88769362990564
 31
0.0
  0
LINE
  5
19E
330
196
100
AcDbEntity
  8
치수문자_일반주서
 62
     0
370
    -2
100
AcDbLine
 10
3.302
 20
13.88769362990564
 30
0.0
 11
0.0
 21
13.88769362990564
 31
0.0
  0
SOLID
  5
19F
330
196
100
AcDbEntity
  8
치수문자_일반주서
 62
     0
100
AcDbTrace
 10
19.431
 20
14.43802696323897
 30
0.0
 11
19.431
 21
13.3373602965723
 31
0.0
 12
16.129
 22
13.88769362990564
 32
0.0
 13
16.129
 23
13.88769362990564
 33
0.0
  0
SOLID
  5
1A0
330
196
100
AcDbEntity
  8
치수문자_일반주서
 62
     0
100
AcDbTrace
 10
3.302
 20
13.3373602965723
 30
0.0
 11
3.302
 21
14.43802696323897
 31
0.0
 12
6.603999999999999
 22
13.88769362990564
 32
0.0
 13
6.603999999999999
 23
13.88769362990564
 33
0.0
  0
MTEXT
  5
1A1
330
196
100
AcDbEntity
  8
치수문자_일반주서
 62
     0
100
AcDbMText
 10
34.5455
 20
18.26269362990564
 30
0.0
 40
3.5
 41
0.0
 71
     2
 72
     1
  1
\A1;9.53 [3/8]
  7
SLDTEXTSTYLE0
 73
     1
 44
1.0
  0
POINT
  5
1A2
330
196
100
AcDbEntity
  8
Defpoints
 62
     0
100
AcDbPoint
 10
16.129
 20
3.092601899082702
 30
0.0
  0
POINT
  5
1A3
330
196
100
AcDbEntity
  8
Defpoints
 62
     0
100
AcDbPoint
 10
6.603999999999999
 20
2.570559590344414
 30
0.0
  0
POINT
  5
1A4
330
196
100
AcDbEntity
  8
Defpoints
 62
     0
100
AcDbPoint
 10
6.603999999999999
 20
13.88769362990564
 30
0.0
  0
ENDBLK
  5
198
330
196
100
AcDbEntity
  8
0
100
AcDbBlockEnd
  0
BLOCK
  5
1A9
330
1A8
100
AcDbEntity
  8
0
100
AcDbBlockBegin
  2
*D8
 70
     1
 10
0.0
 20
0.0
 30
0.0
  3
*D8
  1
*D8
  0
LINE
  5
1AB
330
1A8
100
AcDbEntity
  8
치수문자_일반주서
 62
     0
370
    -2
100
AcDbLine
 10
86.9630371732641
 20
-10.16216491960037
 30
0.0
 11
86.9630371732641
 21
0.5704268112225641
 31
0.0
  0
LINE
  5
1AC
330
1A8
100
AcDbEntity
  8
치수문자_일반주서
 62
     0
370
    -2
100
AcDbLine
 10
77.43803717326409
 20
-10.68420722833866
 30
0.0
 11
77.43803717326409
 21
0.5704268112225641
 31
0.0
  0
LINE
  5
1AD
330
1A8
100
AcDbEntity
  8
치수문자_일반주서
 62
     0
370
    -2
100
AcDbLine
 10
86.9630371732641
 20
0.5704268112225641
 30
0.0
 11
117.1920371732641
 21
0.5704268112225641
 31
0.0
  0
LINE
  5
1AE
330
1A8
100
AcDbEntity
  8
치수문자_일반주서
 62
     0
370
    -2
100
AcDbLine
 10
86.9630371732641
 20
0.5704268112225641
 30
0.0
 11
77.43803717326409
 21
0.5704268112225641
 31
0.0
  0
LINE
  5
1AF
330
1A8
100
AcDbEntity
  8
치수문자_일반주서
 62
     0
370
    -2
100
AcDbLine
 10
90.26503717326409
 20
0.5704268112225641
 30
0.0
 11
93.56703717326408
 21
0.5704268112225641
 31
0.0
  0
LINE
  5
1B0
330
1A8
100
AcDbEntity
  8
치수문자_일반주서
 62
     0
370
    -2
100
AcDbLine
 10
74.1360371732641
 20
0.5704268112225641
 30
0.0
 11
70.83403717326411
 21
0.5704268112225641
 31
0.0
  0
SOLID
  5
1B1
330
1A8
100
AcDbEntity
  8
치수문자_일반주서
 62
     0
100
AcDbTrace
 10
90.26503717326409
 20
1.120760144555897
 30
0.0
 11
90.26503717326409
 21
0.0200934778892309
 31
0.0
 12
86.9630371732641
 22
0.5704268112225641
 32
0.0
 13
86.9630371732641
 23
0.5704268112225641
 33
0.0
  0
SOLID
  5
1B2
330
1A8
100
AcDbEntity
  8
치수문자_일반주서
 62
     0
100
AcDbTrace
 10
74.1360371732641
 20
0.0200934778892309
 30
0.0
 11
74.1360371732641
 21
1.120760144555897
 31
0.0
 12
77.43803717326409
 22
0.5704268112225641
 32
0.0
 13
77.43803717326409
 23
0.5704268112225641
 33
0.0
  0
MTEXT
  5
1B3
330
1A8
100
AcDbEntity
  8
치수문자_일반주서
 62
     0
100
AcDbMText
 10
105.3795371732641
 20
4.945426811222564
 30
0.0
 40
3.5
 41
0.0
 71
     2
 72
     1
  1
\A1;9.53 [3/8]
  7
SLDTEXTSTYLE0
 73
     1
 44
1.0
  0
POINT
  5
1B4
330
1A8
100
AcDbEntity
  8
Defpoints
 62
     0
100
AcDbPoint
 10
86.9630371732641
 20
-10.22466491960037
 30
0.0
  0
POINT
  5
1B5
330
1A8
100
AcDbEntity
  8
Defpoints
 62
     0
100
AcDbPoint
 10
77.43803717326409
 20
-10.74670722833866
 30
0.0
  0
POINT
  5
1B6
330
1A8
100
AcDbEntity
  8
Defpoints
 62
     0
100
AcDbPoint
 10
77.43803717326409
 20
0.5704268112225641
 30
0.0
  0
ENDBLK
  5
1AA
330
1A8
100
AcDbEntity
  8
0
100
AcDbBlockEnd
  0
ENDSEC
  0
SECTION
  2
ENTITIES
  0
LINE
  5
96
330
1F
100
AcDbEntity
  8
외형선
  6
Continuous
370
    15
100
AcDbLine
 10
14.98497933164162
 20
2.381250000000001
 30
0.0
 11
-14.98497933164163
 21
2.381249999999999
 31
0.0
  0
LINE
  5
97
330
1F
100
AcDbEntity
  8
외형선
  6
Continuous
370
    15
100
AcDbLine
 10
15.87500000000001
 20
2.381250000000001
 30
0.0
 11
15.78670717846542
 21
2.381250000000001
 31
0.0
  0
LINE
  5
98
330
1F
100
AcDbEntity
  8
외형선
  6
Continuous
370
    15
100
AcDbLine
 10
15.78670717846542
 20
-2.38125
 30
0.0
 11
15.87500000000001
 21
-2.38125
 31
0.0
  0
LINE
  5
99
330
1F
100
AcDbEntity
  8
외형선
  6
Continuous
370
    15
100
AcDbLine
 10
-14.98497933164161
 20
-2.381250000000001
 30
0.0
 11
14.98497933164162
 21
-2.38125
 31
0.0
  0
LINE
  5
9C
330
1F
100
AcDbEntity
  8
0
  6
Continuous
 62
     1
370
    15
100
AcDbLine
 10
21.76893390606725
 20
0.9279586100239007
 30
0.0
 11
21.74427339875311
 21
0.9406815904727276
 31
0.0
1001
PE_URL
1000

  0
SPLINE
  5
9D
330
1F
100
AcDbEntity
  8
0
  6
Continuous
 62
     1
370
    15
100
AcDbSpline
210
0.0
220
0.0
230
1.0
 70
     8
 71
     3
 72
     9
 73
     5
 74
     0
 42
0.000000001
 43
0.00000001
 40
0.0
 40
0.0
 40
0.0
 40
0.0
 40
0.5575146093790113
 40
0.9999999999999999
 40
0.9999999999999999
 40
0.9999999999999999
 40
0.9999999999999999
 10
22.40683499720338
 20
0.6100239389490835
 30
0.0
 10
22.28825318418319
 20
0.6664400735166952
 30
0.0
 10
22.07555595432535
 20
0.7676322819692256
 30
0.0
 10
21.86299085643822
 20
0.8787781757835502
 30
0.0
 10
21.76893390606725
 20
0.9279586100239007
 30
0.0
1001
PE_URL
1000

  0
LINE
  5
9E
330
1F
100
AcDbEntity
  8
0
  6
Continuous
 62
     1
370
    15
100
AcDbLine
 10
16.94104607568251
 20
2.381250000000002
 30
0.0
 11
15.87500000000001
 21
2.381250000000002
 31
0.0
1001
PE_URL
1000

  0
SPLINE
  5
9F
330
1F
100
AcDbEntity
  8
0
  6
Continuous
 62
     1
370
    15
100
AcDbSpline
210
0.0
220
0.0
230
1.0
 70
     8
 71
     3
 72
     9
 73
     5
 74
     0
 42
0.000000001
 43
0.00000001
 40
0.0
 40
0.0
 40
0.0
 40
0.0
 40
0.4376859975537804
 40
1.0
 40
1.0
 40
1.0
 40
1.0
 10
21.61780457935759
 20
1.892222128356407
 30
0.0
 10
21.33488070146568
 20
1.879648110323208
 30
0.0
 10
20.68847236427152
 20
1.850919711188956
 30
0.0
 10
20.04240493228625
 20
1.864381441328991
 30
0.0
 10
19.67911216875646
 20
1.871951160683884
 30
0.0
1001
PE_URL
1000

  0
SPLINE
  5
A0
330
1F
100
AcDbEntity
  8
0
  6
Continuous
 62
     1
370
    15
100
AcDbSpline
210
0.0
220
0.0
230
1.0
 70
     8
 71
     3
 72
    21
 73
    17
 74
     0
 42
0.000000001
 43
0.00000001
 40
0.0
 40
0.0
 40
0.0
 40
0.0
 40
0.0928827724231688
 40
0.1593890740235994
 40
0.2054464433977616
 40
0.2501786683405913
 40
0.2958447524189435
 40
0.3955207404687842
 40
0.5074179401648695
 40
0.6062969281267674
 40
0.6974144855886256
 40
0.7709727317411096
 40
0.8118624837984885
 40
0.8538211236912072
 40
0.9148422604844885
 40
1.0
 40
1.0
 40
1.0
 40
1.0
 10
27.70463798715559
 20
1.629960712340601
 30
0.0
 10
27.57487719784937
 20
1.619484401432205
 30
0.0
 10
27.35220455886029
 20
1.601506799651921
 30
0.0
 10
27.06604951859755
 20
1.585924069116574
 30
0.0
 10
26.84723610887019
 20
1.576881197500378
 30
0.0
 10
26.65757978666706
 20
1.571283378338094
 30
0.0
 10
26.39358215952646
 20
1.566499238220029
 30
0.0
 10
26.03583756860849
 20
1.566738012936082
 30
0.0
 10
25.6039338714504
 20
1.578826310699014
 30
0.0
 10
25.18424467313225
 20
1.601714320307357
 30
0.0
 10
24.81811943646798
 20
1.630660779257708
 30
0.0
 10
24.53217013330725
 20
1.658707188640507
 30
0.0
 10
24.31429246585692
 20
1.682972212675656
 30
0.0
 10
24.11354122168603
 20
1.707290568552192
 30
0.0
 10
23.8525106087344
 20
1.741894596704375
 30
0.0
 10
23.64945058839147
 20
1.772921093446968
 30
0.0
 10
23.53115625780812
 20
1.790995841279228
 30
0.0
1001
PE_URL
1000

  0
SPLINE
  5
A1
330
1F
100
AcDbEntity
  8
0
  6
Continuous
 62
     1
370
    15
100
AcDbSpline
210
0.0
220
0.0
230
1.0
 70
     8
 71
     3
 72
    11
 73
     7
 74
     0
 42
0.000000001
 43
0.00000001
 40
0.0
 40
0.0
 40
0.0
 40
0.0
 40
0.4521041008416326
 40
0.6475521842149822
 40
0.7630462512332372
 40
0.9999999999999999
 40
0.9999999999999999
 40
0.9999999999999999
 40
0.9999999999999999
 10
18.03655666058512
 20
-1.981548618334105
 30
0.0
 10
18.57637639580003
 20
-1.93652450493281
 30
0.0
 10
19.34956435841754
 20
-1.872036120684412
 30
0.0
 10
20.26026309892409
 20
-1.858112197008428
 30
0.0
 10
20.91397867027041
 20
-1.861646842131037
 30
0.0
 10
21.33484946408876
 20
-1.879930120451359
 30
0.0
 10
21.61780457935759
 20
-1.892222128356406
 30
0.0
1001
PE_URL
1000

  0
SPLINE
  5
A2
330
1F
100
AcDbEntity
  8
0
  6
Continuous
 62
     1
370
    15
100
AcDbSpline
210
0.0
220
0.0
230
1.0
 70
     8
 71
     3
 72
    14
 73
    10
 74
     0
 42
0.000000001
 43
0.00000001
 40
0.0
 40
0.0
 40
0.0
 40
0.0
 40
0.2026632014270741
 40
0.3467250566244188
 40
0.4461023058771361
 40
0.5437582160228495
 40
0.6436542964038005
 40
0.881636497743747
 40
1.0
 40
1.0
 40
1.0
 40
1.0
 10
23.53115625780812
 20
-1.790995841279227
 30
0.0
 10
23.6512783670834
 20
-1.772648902273895
 30
0.0
 10
23.85678851814704
 20
-1.741260157693159
 30
0.0
 10
24.12091974492305
 20
-1.706342113389807
 30
0.0
 10
24.32402786025691
 20
-1.681842602598662
 30
0.0
 10
24.50050915470901
 20
-1.662258165691081
 30
0.0
 10
24.75907401330923
 20
-1.636353173818165
 30
0.0
 10
25.02955984898981
 20
-1.612002021369342
 30
0.0
 10
25.24094034247362
 20
-1.600852204343089
 30
0.0
 10
25.31115231715132
 20
-1.597148690088742
 30
0.0
1001
PE_URL
1000

  0
LINE
  5
A3
330
1F
100
AcDbEntity
  8
0
  6
Continuous
 62
     1
370
    15
100
AcDbLine
 10
15.87500000000001
 20
-2.381250000000001
 30
0.0
 11
16.94104607568253
 21
-2.381250000000001
 31
0.0
1001
PE_URL
1000

  0
LINE
  5
A4
330
1F
100
AcDbEntity
  8
외형선
  6
Continuous
370
    15
100
AcDbLine
 10
15.87500000000001
 20
2.381250000000001
 30
0.0
 11
15.87500000000001
 21
2.380701639237251
 31
0.0
  0
SPLINE
  5
A5
330
1F
100
AcDbEntity
  8
외형선
  6
Continuous
370
    15
100
AcDbSpline
210
0.0
220
0.0
230
1.0
 70
     8
 71
     3
 72
    10
 73
     6
 74
     0
 42
0.000000001
 43
0.00000001
 40
0.0
 40
0.0
 40
0.0
 40
0.0
 40
0.5
 40
0.5
 40
1.0
 40
1.0
 40
1.0
 40
1.0
 10
14.98497933164162
 20
2.336358662472578
 30
0.0
 10
15.13421905021207
 20
2.352954847164359
 30
0.0
 10
15.28358478619605
 20
2.364984403175804
 30
0.0
 10
15.57996381920609
 20
2.379764675224425
 30
0.0
 10
15.72646701198978
 20
2.382541584546685
 30
0.0
 10
15.87500000000008
 20
2.380701639237249
 30
0.0
  0
LINE
  5
A6
330
1F
100
AcDbEntity
  8
외형선
  6
Continuous
370
    15
100
AcDbLine
 10
14.98497933164162
 20
-2.118338224008922
 30
0.0
 11
14.98497933164162
 21
2.381250000000001
 31
0.0
  0
SPLINE
  5
A7
330
1F
100
AcDbEntity
  8
외형선
  6
Continuous
370
    15
100
AcDbSpline
210
0.0
220
0.0
230
1.0
 70
     8
 71
     3
 72
    10
 73
     6
 74
     0
 42
0.000000001
 43
0.00000001
 40
0.0
 40
0.0
 40
0.0
 40
0.0
 40
0.4999999999999999
 40
0.4999999999999999
 40
1.0
 40
1.0
 40
1.0
 40
1.0
 10
15.87500000000001
 20
-2.302218924271577
 30
0.0
 10
15.72646341535084
 20
-2.280312448163756
 30
0.0
 10
15.57995669936937
 20
-2.254048978896348
 30
0.0
 10
15.28357037609704
 20
-2.192694970761959
 30
0.0
 10
15.13420096905778
 20
-2.157607012225275
 30
0.0
 10
14.98495764913083
 20
-2.11838483592329
 30
0.0
  0
LINE
  5
A8
330
1F
100
AcDbEntity
  8
외형선
  6
Continuous
370
    15
100
AcDbLine
 10
15.87500000000001
 20
-2.302218924271575
 30
0.0
 11
15.87500000000001
 21
-2.38125
 31
0.0
  0
SPLINE
  5
A9
330
1F
100
AcDbEntity
  8
외형선
  6
Continuous
370
    15
100
AcDbSpline
210
0.0
220
0.0
230
1.0
 70
     8
 71
     3
 72
    11
 73
     7
 74
     0
 42
0.000000001
 43
0.00000001
 40
0.0
 40
0.0
 40
0.0
 40
0.0
 40
0.2770414239734362
 40
0.5542827751819627
 40
0.832130678729455
 40
1.0
 40
1.0
 40
1.0
 40
1.0
 10
14.98497933164162
 20
-2.336358662472577
 30
0.0
 10
15.05908804088174
 20
-2.343966083778174
 30
0.0
 10
15.20735893998998
 20
-2.359186416292959
 30
0.0
 10
15.42988340249469
 20
-2.373149914330825
 30
0.0
 10
15.62278700650042
 20
-2.380728812347417
 30
0.0
 10
15.74186074533267
 20
-2.380500579336867
 30
0.0
 10
15.78670717846542
 20
-2.380414620530612
 30
0.0
  0
LINE
  5
AA
330
1F
100
AcDbEntity
  8
외형선
  6
Continuous
370
    15
100
AcDbLine
 10
14.98497933164162
 20
-2.38125
 30
0.0
 11
14.98497933164162
 21
-2.336235512719874
 31
0.0
  0
SPLINE
  5
AD
330
1F
100
AcDbEntity
  8
외형선
  6
Continuous
370
    15
100
AcDbSpline
210
0.0
220
0.0
230
1.0
 70
     8
 71
     3
 72
    10
 73
     6
 74
     0
 42
0.000000001
 43
0.00000001
 40
0.0
 40
0.0
 40
0.0
 40
0.0
 40
0.5000000000000001
 40
0.5000000000000001
 40
1.0
 40
1.0
 40
1.0
 40
1.0
 10
15.87500000000007
 20
-1.922159885162077
 30
0.0
 10
15.72646341535088
 20
-1.899326347869429
 30
0.0
 10
15.57995669936941
 20
-1.872875779576398
 30
0.0
 10
15.28357037609706
 20
-1.812623128668374
 30
0.0
 10
15.13420096905779
 20
-1.77882855437841
 30
0.0
 10
14.98495764913083
 20
-1.741636362713162
 30
0.0
  0
SPLINE
  5
AE
330
1F
100
AcDbEntity
  8
외형선
  6
Continuous
370
    15
100
AcDbSpline
210
0.0
220
0.0
230
1.0
 70
     8
 71
     3
 72
    10
 73
     6
 74
     0
 42
0.000000001
 43
0.00000001
 40
0.0
 40
0.0
 40
0.0
 40
0.0
 40
0.5
 40
0.5
 40
1.0
 40
1.0
 40
1.0
 40
1.0
 10
15.87500000000001
 20
-0.1191336825510906
 30
0.0
 10
15.72646569930756
 20
-0.0506752194123533
 30
0.0
 10
15.5799612206462
 20
0.017702071019756
 30
0.0
 10
15.28357952687524
 20
0.1546415272263124
 30
0.0
 10
15.13421245104896
 20
0.2231242329355407
 30
0.0
 10
14.98497141807377
 20
0.2910191270397613
 30
0.0
  0
SPLINE
  5
AF
330
1F
100
AcDbEntity
  8
외형선
  6
Continuous
370
    15
100
AcDbSpline
210
0.0
220
0.0
230
1.0
 70
    24
 71
     3
 72
    10
 73
     6
 74
     0
 42
0.000000001
 43
0.00000001
 40
0.0
 40
0.0
 40
0.0
 40
0.0
 40
0.5
 40
0.5
 40
1.0
 40
1.0
 40
1.0
 40
1.0
 10
15.87499999999998
 20
-0.119133682551079
 30
0.0
 10
15.87499999999998
 20
-0.4805957990354358
 30
0.0
 10
15.87499999999998
 20
-0.8452655779804208
 30
0.0
 10
15.87499999999998
 20
-1.475512580317942
 30
0.0
 10
15.87499999999998
 20
-1.73837697423157
 30
0.0
 10
15.87499999999998
 20
-1.922159885162065
 30
0.0
  0
SPLINE
  5
B0
330
1F
100
AcDbEntity
  8
외형선
  6
Continuous
370
    15
100
AcDbSpline
210
0.0
220
0.0
230
1.0
 70
     8
 71
     3
 72
    10
 73
     6
 74
     0
 42
0.000000001
 43
0.00000001
 40
0.0
 40
0.0
 40
0.0
 40
0.0
 40
0.5
 40
0.5
 40
1.0
 40
1.0
 40
1.0
 40
1.0
 10
15.87500000000001
 20
1.663612297637326
 30
0.0
 10
15.72646614601153
 20
1.667365693661031
 30
0.0
 10
15.57996210493267
 20
1.667881598025305
 30
0.0
 10
15.28358131661513
 20
1.662456005427423
 30
0.0
 10
15.13421469673537
 20
1.656493297180089
 30
0.0
 10
14.98497411105025
 20
1.647310049072312
 30
0.0
  0
SPLINE
  5
B1
330
1F
100
AcDbEntity
  8
외형선
  6
Continuous
370
    15
100
AcDbSpline
210
0.0
220
0.0
230
1.0
 70
    24
 71
     3
 72
    14
 73
    10
 74
     0
 42
0.000000001
 43
0.00000001
 40
0.0
 40
0.0
 40
0.0
 40
0.0
 40
0.25
 40
0.25
 40
0.5
 40
0.5
 40
0.75
 40
0.75
 40
1.0
 40
1.0
 40
1.0
 40
1.0
 10
15.875
 20
1.663612297637325
 30
0.0
 10
15.875
 20
1.605902335790704
 30
0.0
 10
15.875
 20
1.521469288296031
 30
0.0
 10
15.87500000000001
 20
1.299588685478991
 30
0.0
 10
15.875
 20
1.162145905288895
 30
0.0
 10
15.875
 20
0.8453005460638033
 30
0.0
 10
15.875
 20
0.6660667954829437
 30
0.0
 10
15.87500000000001
 20
0.2849490925445107
 30
0.0
 10
15.875
 20
0.0832935724183644
 30
0.0
 10
15.875
 20
-0.1191336825510909
 30
0.0
  0
SPLINE
  5
B2
330
1F
100
AcDbEntity
  8
외형선
  6
Continuous
370
    15
100
AcDbSpline
210
0.0
220
0.0
230
1.0
 70
    24
 71
     3
 72
     8
 73
     4
 74
     0
 42
0.000000001
 43
0.00000001
 40
0.0
 40
0.0
 40
0.0
 40
0.0
 40
1.0
 40
1.0
 40
1.0
 40
1.0
 10
15.875
 20
-1.922159885162068
 30
0.0
 10
15.87500000000001
 20
-2.04884601942123
 30
0.0
 10
15.875
 20
-2.176346581891373
 30
0.0
 10
15.87500000000001
 20
-2.302218924271075
 30
0.0
  0
SPLINE
  5
B3
330
1F
100
AcDbEntity
  8
외형선
  6
Continuous
370
    15
100
AcDbSpline
210
0.0
220
0.0
230
1.0
 70
    24
 71
     3
 72
    10
 73
     6
 74
     0
 42
0.000000001
 43
0.00000001
 40
0.0
 40
0.0
 40
0.0
 40
0.0
 40
0.5
 40
0.5
 40
1.0
 40
1.0
 40
1.0
 40
1.0
 10
15.875
 20
2.380701639230245
 30
0.0
 10
15.875
 20
2.26358707892123
 30
0.0
 10
15.875
 20
2.135993208561914
 30
0.0
 10
15.87500000000001
 20
1.887929322593789
 30
0.0
 10
15.875
 20
1.768104544396248
 30
0.0
 10
15.875
 20
1.663612297637325
 30
0.0
  0
SPLINE
  5
B4
330
1F
100
AcDbEntity
  8
0
  6
Continuous
 62
     1
370
    15
100
AcDbSpline
210
0.0
220
0.0
230
1.0
 70
     8
 71
     3
 72
    19
 73
    15
 74
     0
 42
0.000000001
 43
0.00000001
 40
0.0
 40
0.0
 40
0.0
 40
0.0
 40
0.0873931811695154
 40
0.1747156200192015
 40
0.2619939357896617
 40
0.3492550691212533
 40
0.4365260861977378
 40
0.5238339809610706
 40
0.6112054784366422
 40
0.6913650505715708
 40
0.7713833017175921
 40
0.8513476842926729
 40
0.9313536060823082
 40
1.0
 40
1.0
 40
1.0
 40
1.0
 10
28.57500000000001
 20
-2.259665444858461
 30
0.0
 10
28.23600716107999
 20
-2.184717565534412
 30
0.0
 10
27.55829588839959
 20
-2.034882475084665
 30
0.0
 10
26.54226183951426
 20
-1.65063065177219
 30
0.0
 10
25.52682663825304
 20
-1.176612148900527
 30
0.0
 10
24.5116353601775
 20
-0.6290055457425457
 30
0.0
 10
23.49630475427373
 20
-0.0441060708997653
 30
0.0
 10
22.48046194916409
 20
0.5437079503376347
 30
0.0
 10
21.49204782860233
 20
1.083474336800889
 30
0.0
 10
20.53173747555434
 20
1.547008619796539
 30
0.0
 10
19.60067524200339
 20
1.919795277191776
 30
0.0
 10
18.67027822188687
 20
2.191708710537852
 30
0.0
 10
17.78393186673114
 20
2.356158776357683
 30
0.0
 10
17.20732041361945
 20
2.368230868395664
 30
0.0
 10
16.94104607568251
 20
2.373805659353387
 30
0.0
1001
PE_URL
1000

  0
SPLINE
  5
B5
330
1F
100
AcDbEntity
  8
0
  6
Continuous
 62
     1
370
    15
100
AcDbSpline
210
0.0
220
0.0
230
1.0
 70
     8
 71
     3
 72
    13
 73
     9
 74
     0
 42
0.000000001
 43
0.00000001
 40
0.0
 40
0.0
 40
0.0
 40
0.0
 40
0.1835034858629894
 40
0.3669930849346936
 40
0.550469929971623
 40
0.7339351611508543
 40
0.9173899254223683
 40
0.9999999999999999
 40
0.9999999999999999
 40
0.9999999999999999
 40
0.9999999999999999
 10
28.57500000000001
 20
-1.878740204526813
 30
0.0
 10
28.19736713451222
 20
-1.796077848533253
 30
0.0
 10
27.44212998124327
 20
-1.630759392094246
 30
0.0
 10
26.30933118117759
 20
-1.223028871004586
 30
0.0
 10
25.17662166112882
 20
-0.7330653379378794
 30
0.0
 10
24.04399517667607
 20
-0.1881307351211501
 30
0.0
 10
23.11894234020514
 20
0.2759603296549257
 30
0.0
 10
22.57143352372378
 20
0.5277819819757934
 30
0.0
 10
22.40143832872892
 20
0.6059697108334358
 30
0.0
1001
PE_URL
1000

  0
LINE
  5
B6
330
1F
100
AcDbEntity
  8
0
  6
Continuous
 62
     1
370
    15
100
AcDbLine
 10
28.57499999999993
 20
-2.259665444858462
 30
0.0
 11
28.57500000000001
 21
-1.878740204526813
 31
0.0
1001
PE_URL
1000

  0
SPLINE
  5
B7
330
1F
100
AcDbEntity
  8
0
  6
Continuous
 62
     1
370
    15
100
AcDbSpline
210
0.0
220
0.0
230
1.0
 70
     8
 71
     3
 72
    38
 73
    34
 74
     0
 42
0.000000001
 43
0.00000001
 40
0.0
 40
0.0
 40
0.0
 40
0.0
 40
0.0625000000000002
 40
0.0625000000000002
 40
0.1250000000000003
 40
0.1250000000000003
 40
0.1875000000000006
 40
0.1875000000000006
 40
0.2500000000000007
 40
0.2500000000000007
 40
0.3125000000000007
 40
0.3125000000000007
 40
0.3750000000000006
 40
0.3750000000000006
 40
0.4375000000000004
 40
0.4375000000000004
 40
0.5000000000000004
 40
0.5000000000000004
 40
0.5625000000000004
 40
0.5625000000000004
 40
0.6250000000000003
 40
0.6250000000000003
 40
0.6875000000000002
 40
0.6875000000000002
 40
0.7500000000000002
 40
0.7500000000000002
 40
0.8125000000000002
 40
0.8125000000000002
 40
0.8750000000000001
 40
0.8750000000000001
 40
0.9375
 40
0.9375
 40
1.0
 40
1.0
 40
1.0
 40
1.0
 10
15.8749999999997
 20
2.38070163923608
 30
0.0
 10
16.13963115149929
 20
2.377423533460054
 30
0.0
 10
16.40733328719923
 20
2.359301427850724
 30
0.0
 10
16.93413707745724
 20
2.294501722498627
 30
0.0
 10
17.19806905274049
 20
2.247732940518703
 30
0.0
 10
17.72974758059327
 20
2.126763431365685
 30
0.0
 10
17.99123066364078
 20
2.053113138073108
 30
0.0
 10
18.52086739873389
 20
1.880878693858915
 30
0.0
 10
18.78852176189154
 20
1.782200549498196
 30
0.0
 10
19.31476861900335
 20
1.565300278378026
 30
0.0
 10
19.57927561894078
 20
1.446334681326295
 30
0.0
 10
20.11084587379211
 20
1.191598529485051
 30
0.0
 10
20.37212426592364
 20
1.056817619040967
 30
0.0
 10
20.90210606536759
 20
0.7746698197094029
 30
0.0
 10
21.16969744586973
 20
0.6274351893535499
 30
0.0
 10
21.69535862906181
 20
0.3288214173116484
 30
0.0
 10
21.96049119471123
 20
0.1761287222976743
 30
0.0
 10
22.49192344899959
 20
-0.1297883149043886
 30
0.0
 10
22.7530482896627
 20
-0.2820074839476481
 30
0.0
 10
23.28334572161723
 20
-0.5826405452821919
 30
0.0
 10
23.55085892138267
 20
-0.730695216033803
 30
0.0
 10
24.07590579770449
 20
-1.014210388039337
 30
0.0
 10
24.34171435447864
 20
-1.151166976085984
 30
0.0
 10
24.87297890637685
 20
-1.409103336420857
 30
0.0
 10
25.13400136354236
 20
-1.529437580597378
 30
0.0
 10
25.66458493749235
 20
-1.751097364103459
 30
0.0
 10
25.93200477337035
 20
-1.851979257511699
 30
0.0
 10
26.45640882280764
 20
-2.028552407932519
 30
0.0
 10
26.72294367126078
 20
-2.105327814155057
 30
0.0
 10
27.25401085020387
 20
-2.231695742090321
 30
0.0
 10
27.51498211086423
 20
-2.281161503072336
 30
0.0
 10
28.04582228306493
 20
-2.35195970164749
 30
0.0
 10
28.31313358972773
 20
-2.372980141663844
 30
0.0
 10
28.57500000000001
 20
-2.379237403764392
 30
0.0
1001
PE_URL
1000

  0
SPLINE
  5
B8
330
1F
100
AcDbEntity
  8
0
  6
Continuous
 62
     1
370
    15
100
AcDbSpline
210
0.0
220
0.0
230
1.0
 70
     8
 71
     3
 72
    13
 73
     9
 74
     0
 42
0.000000001
 43
0.00000001
 40
0.0
 40
0.0
 40
0.0
 40
0.0
 40
0.1295614678201219
 40
0.2965264734939174
 40
0.4634848532394957
 40
0.6304377133562802
 40
0.8152274280314542
 40
1.0
 40
1.0
 40
1.0
 40
1.0
 10
22.65769144502631
 20
-0.2255421767469467
 30
0.0
 10
22.36477657039301
 20
-0.1076285140938044
 30
0.0
 10
21.69438423638892
 20
0.1622397048417138
 30
0.0
 10
20.64654010375406
 20
0.5810780927872916
 30
0.0
 10
19.51414795833727
 20
0.9892012765833815
 30
0.0
 10
18.34152960103884
 20
1.332988184803456
 30
0.0
 10
17.12836561318588
 20
1.587264356630976
 30
0.0
 10
16.29277561769262
 20
1.638163770984028
 30
0.0
 10
15.87500000000001
 20
1.663612297637326
 30
0.0
1001
PE_URL
1000

  0
SPLINE
  5
B9
330
1F
100
AcDbEntity
  8
외형선
  6
Continuous
370
    15
100
AcDbSpline
210
0.0
220
0.0
230
1.0
 70
    24
 71
     3
 72
    10
 73
     6
 74
     0
 42
0.000000001
 43
0.00000001
 40
0.0
 40
0.0
 40
0.0
 40
0.0
 40
0.5
 40
0.5
 40
1.0
 40
1.0
 40
1.0
 40
1.0
 10
15.87500000000001
 20
2.380701639230247
 30
0.0
 10
15.87500000000001
 20
2.263587078921232
 30
0.0
 10
15.87500000000001
 20
2.135993208561915
 30
0.0
 10
15.87500000000001
 20
1.887929322593788
 30
0.0
 10
15.87500000000001
 20
1.768104544396248
 30
0.0
 10
15.87500000000001
 20
1.663612297637326
 30
0.0
  0
LINE
  5
BA
330
1F
100
AcDbEntity
  8
0
  6
Continuous
 62
     1
370
    15
100
AcDbLine
 10
28.57500000000001
 20
-2.37923740376559
 30
0.0
 11
28.57499999999992
 21
-2.259665444858457
 31
0.0
1001
PE_URL
1000

  0
SPLINE
  5
BB
330
1F
100
AcDbEntity
  8
0
  6
Continuous
 62
     1
370
    15
100
AcDbSpline
210
0.0
220
0.0
230
1.0
 70
     8
 71
     3
 72
     8
 73
     4
 74
     0
 42
0.000000001
 43
0.00000001
 40
0.0
 40
0.0
 40
0.0
 40
0.0
 40
1.0
 40
1.0
 40
1.0
 40
1.0
 10
27.10093131851543
 20
0.6667656290396473
 30
0.0
 10
27.01657539430414
 20
0.7667237491414761
 30
0.0
 10
26.94126846147548
 20
0.8629558787206332
 30
0.0
 10
26.87715717569898
 20
0.9545781160977128
 30
0.0
1001
PE_URL
1000

  0
LINE
  5
BC
330
1F
100
AcDbEntity
  8
0
  6
Continuous
 62
     1
370
    15
100
AcDbLine
 10
26.90728317140752
 20
0.9798568279854778
 30
0.0
 11
28.57500000000001
 21
0.0000000000000021
 31
0.0
1001
PE_URL
1000

  0
LINE
  5
BD
330
1F
100
AcDbEntity
  8
0
  6
Continuous
 62
     1
370
    15
100
AcDbLine
 10
28.57500000000001
 20
0.0000000000000021
 30
0.0
 11
28.57500000000001
 21
-0.6363722652330899
 31
0.0
1001
PE_URL
1000

  0
SPLINE
  5
BE
330
1F
100
AcDbEntity
  8
0
  6
Continuous
 62
     1
370
    15
100
AcDbSpline
210
0.0
220
0.0
230
1.0
 70
     8
 71
     3
 72
    10
 73
     6
 74
     0
 42
0.000000001
 43
0.00000001
 40
0.0
 40
0.0
 40
0.0
 40
0.0
 40
0.5
 40
0.5
 40
1.0
 40
1.0
 40
1.0
 40
1.0
 10
28.57500000000001
 20
-0.6363722652330898
 30
0.0
 10
28.31982507708537
 20
-0.4357598858607697
 30
0.0
 10
28.06891634127838
 20
-0.2269170311293172
 30
0.0
 10
27.57584008684127
 20
0.2076325360986671
 30
0.0
 10
27.33138005573236
 20
0.4356364190385533
 30
0.0
 10
27.10093131851543
 20
0.6667656290396488
 30
0.0
1001
PE_URL
1000

  0
SPLINE
  5
BF
330
1F
100
AcDbEntity
  8
0
  6
Continuous
 62
     1
370
    15
100
AcDbSpline
210
0.0
220
0.0
230
1.0
 70
     8
 71
     3
 72
    13
 73
     9
 74
     0
 42
0.000000001
 43
0.00000001
 40
0.0
 40
0.0
 40
0.0
 40
0.0
 40
0.1910228110500101
 40
0.3821474597470481
 40
0.5733314335229318
 40
0.7644073784825878
 40
0.9553951653534366
 40
0.9999999999999999
 40
0.9999999999999999
 40
0.9999999999999999
 40
0.9999999999999999
 10
27.10093131851544
 20
0.6667656290396453
 30
0.0
 10
26.75173046098147
 20
0.8137284313590263
 30
0.0
 10
26.05314258074573
 20
1.107732384473065
 30
0.0
 10
25.00496637612565
 20
1.46540875709933
 30
0.0
 10
23.95662058738282
 20
1.734713151235461
 30
0.0
 10
22.90864957161616
 20
1.882026348700128
 30
0.0
 10
22.12867719618155
 20
1.929465073821344
 30
0.0
 10
21.69802257680846
 20
1.888980082928567
 30
0.0
 10
21.61648658487802
 20
1.881315045234224
 30
0.0
1001
PE_URL
1000

  0
SPLINE
  5
C0
330
1F
100
AcDbEntity
  8
0
  6
Continuous
 62
     1
370
    15
100
AcDbSpline
210
0.0
220
0.0
230
1.0
 70
    24
 71
     3
 72
    10
 73
     6
 74
     0
 42
0.000000001
 43
0.00000001
 40
0.0
 40
0.0
 40
0.0
 40
0.0
 40
0.5
 40
0.5
 40
1.0
 40
1.0
 40
1.0
 40
1.0
 10
28.57500000000001
 20
-1.878740204526813
 30
0.0
 10
28.57500000000001
 20
-1.734720120065309
 30
0.0
 10
28.57500000000001
 20
-1.552745221052278
 30
0.0
 10
28.57500000000001
 20
-1.129671093977556
 30
0.0
 10
28.57500000000001
 20
-0.8889383487659299
 30
0.0
 10
28.57500000000001
 20
-0.6363722652331659
 30
0.0
1001
PE_URL
1000

  0
SPLINE
  5
C1
330
1F
100
AcDbEntity
  8
0
  6
Continuous
 62
     1
370
    15
100
AcDbSpline
210
0.0
220
0.0
230
1.0
 70
    24
 71
     3
 72
     8
 73
     4
 74
     0
 42
0.000000001
 43
0.00000001
 40
0.0
 40
0.0
 40
0.0
 40
0.0
 40
1.0
 40
1.0
 40
1.0
 40
1.0
 10
27.12582768727899
 20
1.163237450645818
 30
0.0
 10
27.04721706249054
 20
1.097275304379216
 30
0.0
 10
26.96406690501247
 20
1.027504037910261
 30
0.0
 10
26.87715717569909
 20
0.9545781160976867
 30
0.0
1001
PE_URL
1000

  0
LINE
  5
C2
330
1F
100
AcDbEntity
  8
0
  6
Continuous
 62
     1
370
    15
100
AcDbLine
 10
28.57500000000001
 20
1.666875
 30
0.0
 11
27.70177956069976
 21
1.618734094709421
 31
0.0
1001
PE_URL
1000

  0
SPLINE
  5
C3
330
1F
100
AcDbEntity
  8
0
  6
Continuous
 62
     1
370
    15
100
AcDbSpline
210
0.0
220
0.0
230
1.0
 70
     8
 71
     3
 72
     8
 73
     4
 74
     0
 42
0.000000001
 43
0.00000001
 40
0.0
 40
0.0
 40
0.0
 40
0.0
 40
1.0
 40
1.0
 40
1.0
 40
1.0
 10
28.57500000000001
 20
1.666875000000002
 30
0.0
 10
28.08521348789108
 20
1.533900650658274
 30
0.0
 10
27.60009348855363
 20
1.370671989946294
 30
0.0
 10
27.12582768729177
 20
1.163237450653714
 30
0.0
1001
PE_URL
1000

  0
SPLINE
  5
C4
330
1F
100
AcDbEntity
  8
0
  6
Continuous
 62
     1
370
    15
100
AcDbSpline
210
0.0
220
0.0
230
1.0
 70
     8
 71
     3
 72
    10
 73
     6
 74
     0
 42
0.000000001
 43
0.00000001
 40
0.0
 40
0.0
 40
0.0
 40
0.0
 40
0.2269926808080306
 40
0.613143915955177
 40
1.0
 40
1.0
 40
1.0
 40
1.0
 10
18.03896238097432
 20
-1.971487618583531
 30
0.0
 10
17.8752845059614
 20
-1.988923325813012
 30
0.0
 10
17.43316411298927
 20
-2.03601998888636
 30
0.0
 10
16.71186460197289
 20
-2.025691441431
 30
0.0
 10
16.15412438817497
 20
-1.956691375957882
 30
0.0
 10
15.87500000000007
 20
-1.922159885162077
 30
0.0
1001
PE_URL
1000

  0
SPLINE
  5
C5
330
1F
100
AcDbEntity
  8
0
  6
Continuous
 62
     1
370
    15
100
AcDbSpline
210
0.0
220
0.0
230
1.0
 70
     8
 71
     3
 72
    15
 73
    11
 74
     0
 42
0.000000001
 43
0.00000001
 40
0.0
 40
0.0
 40
0.0
 40
0.0
 40
0.0820341661970932
 40
0.2187311564826627
 40
0.3553874634754748
 40
0.4841860466043522
 40
0.6130166425787974
 40
0.7419493926260305
 40
0.8710257665464305
 40
1.0
 40
1.0
 40
1.0
 40
1.0
 10
23.53709691624496
 20
-1.775927015035342
 30
0.0
 10
23.3275606798468
 20
-1.810499297148245
 30
0.0
 10
22.76886537718132
 20
-1.902680830762323
 30
0.0
 10
21.86120260564735
 20
-1.919303538285827
 30
0.0
 10
20.83408316340308
 20
-1.835835458677986
 30
0.0
 10
19.82724464557874
 20
-1.639196221508482
 30
0.0
 10
18.84005309074996
 20
-1.354186985553731
 30
0.0
 10
17.85207883405225
 20
-0.9912891535608639
 30
0.0
 10
16.86348291540424
 20
-0.5727225761654094
 30
0.0
 10
16.20440734766176
 20
-0.2702900779180438
 30
0.0
 10
15.87500000000001
 20
-0.1191336825510911
 30
0.0
1001
PE_URL
1000

  0
SPLINE
  5
C6
330
1F
100
AcDbEntity
  8
외형선
  6
Continuous
370
    15
100
AcDbSpline
210
0.0
220
0.0
230
1.0
 70
    24
 71
     3
 72
    10
 73
     6
 74
     0
 42
0.000000001
 43
0.00000001
 40
0.0
 40
0.0
 40
0.0
 40
0.0
 40
0.5
 40
0.5
 40
1.0
 40
1.0
 40
1.0
 40
1.0
 10
15.87499999999998
 20
-0.119133682551079
 30
0.0
 10
15.87499999999998
 20
-0.4805957990354358
 30
0.0
 10
15.87499999999998
 20
-0.8452655779804208
 30
0.0
 10
15.87499999999998
 20
-1.475512580317942
 30
0.0
 10
15.87499999999998
 20
-1.73837697423157
 30
0.0
 10
15.87499999999998
 20
-1.922159885162065
 30
0.0
  0
SPLINE
  5
C7
330
1F
100
AcDbEntity
  8
외형선
  6
Continuous
370
    15
100
AcDbSpline
210
0.0
220
0.0
230
1.0
 70
    24
 71
     3
 72
    14
 73
    10
 74
     0
 42
0.000000001
 43
0.00000001
 40
0.0
 40
0.0
 40
0.0
 40
0.0
 40
0.25
 40
0.25
 40
0.5
 40
0.5
 40
0.75
 40
0.75
 40
1.0
 40
1.0
 40
1.0
 40
1.0
 10
15.87500000000001
 20
1.663612297637325
 30
0.0
 10
15.87500000000001
 20
1.605902335790704
 30
0.0
 10
15.87500000000001
 20
1.521469288296031
 30
0.0
 10
15.87500000000001
 20
1.299588685478991
 30
0.0
 10
15.87500000000001
 20
1.162145905288895
 30
0.0
 10
15.87500000000001
 20
0.8453005460638028
 30
0.0
 10
15.87500000000001
 20
0.6660667954829433
 30
0.0
 10
15.87500000000001
 20
0.2849490925445101
 30
0.0
 10
15.87500000000001
 20
0.0832935724183638
 30
0.0
 10
15.87500000000001
 20
-0.1191336825510916
 30
0.0
  0
LINE
  5
C8
330
1F
100
AcDbEntity
  8
0
  6
Continuous
 62
     1
370
    15
100
AcDbLine
 10
28.57500000000001
 20
0.0000000000000021
 30
0.0
 11
28.57500000000001
 21
1.666875000000002
 31
0.0
1001
PE_URL
1000

  0
SPLINE
  5
C9
330
1F
100
AcDbEntity
  8
0
  6
Continuous
 62
     1
370
    15
100
AcDbSpline
210
0.0
220
0.0
230
1.0
 70
     8
 71
     3
 72
    12
 73
     8
 74
     0
 42
0.000000001
 43
0.00000001
 40
0.0
 40
0.0
 40
0.0
 40
0.0
 40
0.0208187685886991
 40
0.2653239529058867
 40
0.5099561506881192
 40
0.7550033939873472
 40
1.0
 40
1.0
 40
1.0
 40
1.0
 10
19.67967876924878
 20
-1.871726744569963
 30
0.0
 10
19.65327834180814
 20
-1.882276124442636
 30
0.0
 10
19.31681916377786
 20
-2.016722268872267
 30
0.0
 10
18.67029271936645
 20
-2.188123060615861
 30
0.0
 10
17.73936261013808
 20
-2.357067528835055
 30
0.0
 10
16.80732275522518
 20
-2.405178958836047
 30
0.0
 10
16.18575284235574
 20
-2.336536571471152
 30
0.0
 10
15.87500000000003
 20
-2.30221892427158
 30
0.0
1001
PE_URL
1000

  0
SPLINE
  5
CA
330
1F
100
AcDbEntity
  8
외형선
  6
Continuous
370
    15
100
AcDbSpline
210
0.0
220
0.0
230
1.0
 70
    24
 71
     3
 72
     8
 73
     4
 74
     0
 42
0.000000001
 43
0.00000001
 40
0.0
 40
0.0
 40
0.0
 40
0.0
 40
1.0
 40
1.0
 40
1.0
 40
1.0
 10
15.87500000000001
 20
-1.922159885162069
 30
0.0
 10
15.87500000000001
 20
-2.048846019421231
 30
0.0
 10
15.87500000000001
 20
-2.176346581891376
 30
0.0
 10
15.87500000000001
 20
-2.302218924271078
 30
0.0
  0
SPLINE
  5
CB
330
1F
100
AcDbEntity
  8
0
  6
Continuous
 62
     1
370
    15
100
AcDbSpline
210
0.0
220
0.0
230
1.0
 70
     8
 71
     3
 72
    16
 73
    12
 74
     0
 42
0.000000001
 43
0.00000001
 40
0.0
 40
0.0
 40
0.0
 40
0.0
 40
0.0977091411981396
 40
0.208183931872625
 40
0.3190843865459236
 40
0.4302008029866201
 40
0.5417468931971591
 40
0.6557209752172954
 40
0.7699294416678032
 40
0.8848449706340057
 40
0.9999999999999999
 40
0.9999999999999999
 40
0.9999999999999999
 40
0.9999999999999999
 10
25.29843714806446
 20
1.597227879204697
 30
0.0
 10
25.40519011479677
 20
1.642074555182347
 30
0.0
 10
25.63264326893239
 20
1.737627102487127
 30
0.0
 10
25.98154325104985
 20
1.868299840238969
 30
0.0
 10
26.34400487239776
 20
1.992172521452457
 30
0.0
 10
26.70844822927556
 20
2.099771370315862
 30
0.0
 10
27.07657152040074
 20
2.191762831201083
 30
0.0
 10
27.44712103306447
 20
2.267685703811794
 30
0.0
 10
27.82173878331619
 20
2.324957715352935
 30
0.0
 10
28.19826059584809
 20
2.364472545918454
 30
0.0
 10
28.4493330775748
 20
2.374312370107719
 30
0.0
 10
28.57499999999989
 20
2.379237403765588
 30
0.0
1001
PE_URL
1000

  0
SPLINE
  5
CC
330
1F
100
AcDbEntity
  8
0
  6
Continuous
 62
     1
370
    15
100
AcDbSpline
210
0.0
220
0.0
230
1.0
 70
    24
 71
     3
 72
    10
 73
     6
 74
     0
 42
0.000000001
 43
0.00000001
 40
0.0
 40
0.0
 40
0.0
 40
0.0
 40
0.5
 40
0.5
 40
1.0
 40
1.0
 40
1.0
 40
1.0
 10
28.57500000000001
 20
1.666875
 30
0.0
 10
28.57500000000001
 20
1.767916811522416
 30
0.0
 10
28.57500000000001
 20
1.885336753989824
 30
0.0
 10
28.57500000000001
 20
2.131683477038037
 30
0.0
 10
28.57500000000001
 20
2.259981119002257
 30
0.0
 10
28.57500000000001
 20
2.379237403765591
 30
0.0
1001
PE_URL
1000

  0
LINE
  5
CD
330
1F
100
AcDbEntity
  8
중심선
 62
     1
100
AcDbLine
 10
-31.575
 20
-0.0000000000000038
 30
0.0
 11
31.57500000000001
 21
0.0000000000000038
 31
0.0
  0
LINE
  5
CE
330
1F
100
AcDbEntity
  8
참조1
100
AcDbLine
 10
-0.0000000000000027
 20
-0.0000000000000038
 30
0.0
 11
0.0000000000000027
 21
-40.00000000000001
 31
0.0
  0
LINE
  5
CF
330
1F
100
AcDbEntity
  8
참조1
100
AcDbLine
 10
0.0000000000000027
 20
-40.00000000000001
 30
0.0
 11
-23.99071559669921
 21
-40.0
 31
0.0
  0
CIRCLE
  5
D0
330
1F
100
AcDbEntity
  8
해칭선
100
AcDbCircle
 10
0.0
 20
0.0
 30
0.0
 40
3.000000000000001
  0
INSERT
  5
D1
330
1F
100
AcDbEntity
  8
0
  6
Continuous
 62
     7
100
AcDbBlockReference
 66
     1
  2
블럭10
 10
-13.9402729321252
 20
-52.04717430164393
 30
0.0
  0
ATTRIB
  5
D2
330
D1
100
AcDbEntity
  8
FORMAT
 62
     2
100
AcDbText
 10
-23.12156822086648
 20
-49.97180738881174
 30
0.0
 40
4.233333333333333
  1
E2003012 [ 2 FLUTE ]
 41
0.75
  7
SLDTEXTSTYLE0
 11
-23.12156822086648
 21
-52.08847405547841
 31
0.0
100
AcDbAttribute
  2
AUTOATTR0
 70
     0
 74
     1
  0
SEQEND
  5
D3
330
D1
100
AcDbEntity
  8
0
  6
Continuous
 62
     7
  0
HATCH
  5
D4
330
1F
100
AcDbEntity
  8
중심선
100
AcDbHatch
 10
0.0
 20
0.0
 30
0.0
210
0.0
220
0.0
230
1.0
  2
SOLID
 70
     1
 71
     0
 91
        1
 92
        0
 93
        4
 72
     1
 10
-8.225363627744374
 20
-35.8
 11
-11.67163887158165
 21
-35.8
 72
     1
 10
-11.67163887158165
 20
-35.8
 11
-13.79986873078568
 21
-38.3363255805726
 72
     1
 10
-13.79986873078568
 20
-38.3363255805726
 11
-10.35356040183525
 21
-38.33628615127011
 72
     1
 10
-10.35356040183525
 20
-38.33628615127011
 11
-8.225363627744374
 21
-35.8
 97
        0
 75
     0
 76
     1
 98
        1
 10
5.469211678730511
 20
-0.0010749287238931
  0
HATCH
  5
D5
330
1F
100
AcDbEntity
  8
중심선
100
AcDbHatch
 10
0.0
 20
0.0
 30
0.0
210
0.0
220
0.0
230
1.0
  2
SOLID
 70
     1
 71
     0
 91
        1
 92
        0
 93
        4
 72
     1
 10
-3.212599636708426
 20
-35.8
 11
-6.658874880545653
 21
-35.8
 72
     1
 10
-6.658874880545653
 20
-35.8
 11
-11.1900128889031
 21
-41.20000000000002
 72
     1
 10
-11.1900128889031
 20
-41.20000000000002
 11
-7.743737645065814
 21
-41.20000000000002
 72
     1
 10
-7.743737645065814
 20
-41.20000000000002
 11
-3.212599636708426
 21
-35.8
 97
        0
 75
     0
 76
     1
 98
        1
 10
5.469211678730511
 20
-0.0010749287238931
  0
HATCH
  5
D6
330
1F
100
AcDbEntity
  8
중심선
100
AcDbHatch
 10
0.0
 20
0.0
 30
0.0
210
0.0
220
0.0
230
1.0
  2
SOLID
 70
     1
 71
     0
 91
        1
 92
        0
 93
        4
 72
     1
 10
1.800164354327498
 20
-35.79999999999998
 11
-1.646110889509645
 21
-35.79999999999998
 72
     1
 10
-1.646110889509645
 20
-35.79999999999998
 11
-8.694547791398893
 21
-44.20000000000002
 72
     1
 10
-8.694547791398893
 20
-44.20000000000002
 11
-5.248272547561612
 21
-44.20000000000002
 72
     1
 10
-5.248272547561612
 20
-44.20000000000002
 11
1.800164354327498
 21
-35.79999999999998
 97
        0
 75
     0
 76
     1
 98
        1
 10
5.469211678730511
 20
-0.0010749287238931
  0
HATCH
  5
D7
330
1F
100
AcDbEntity
  8
중심선
100
AcDbHatch
 10
0.0
 20
0.0
 30
0.0
210
0.0
220
0.0
230
1.0
  2
SOLID
 70
     1
 71
     0
 91
        1
 92
        0
 93
        6
 72
     3
 10
6.60005478533967
 20
-40.00000000005127
 11
3.960054785062284
 21
1.540882976769353E-10
 40
0.3939339440162627
 50
17.09539180608439
 51
320.0019657685077
 73
     0
 72
     1
 10
8.283054441040237
 20
-38.5878940046383
 11
10.5883563147413
 21
-36.65356729459038
 72
     3
 10
6.600054785286823
 20
-40.00000000000015
 11
6.600054785286829
 21
-1.278976924368180E-13
 40
0.6363583540795982
 50
39.99873849337412
 51
368.4976242363724
 73
     1
 72
     1
 10
13.02538727718743
 20
-39.03999999993002
 11
5.280122092122745
 21
-39.03999999993002
 72
     1
 10
5.280122092122745
 20
-39.03999999993002
 11
5.280097047676811
 21
-40.95999999992991
 72
     1
 10
5.280097047676811
 20
-40.95999999992991
 11
9.721476817148849
 21
-40.95999999992988
 97
        0
 75
     0
 76
     1
 98
        1
 10
5.469211678730511
 20
-0.0010749287238931
  0
DIMENSION
  5
D8
330
1F
100
AcDbEntity
  8
치수문자_일반주서
100
AcDbDimension
  2
_D
 10
-38.57499999999997
 20
-2.379237403765693
 30
0.0
 11
-38.57500000000005
 21
22.98524999999997
 31
0.0
 70
   160
  1
%%c<>
 71
     2
 42
4.758474807531181
 52
-270.0
  3
SLDDIMSTYLE0
100
AcDbAlignedDimension
 13
-28.57500000000001
 23
2.379237403765523
 33
0.0
 14
-28.575
 24
-2.379237403765658
 34
0.0
 50
90.0000000000002
100
AcDbRotatedDimension
1001
PE_URL
1000

1001
ACAD
1000
DSTYLE
1002
{
1070
   171
1070
     8
1070
   273
1070
     7
1002
}
  0
DIMENSION
  5
ED
330
1F
100
AcDbEntity
  8
치수문자_일반주서
100
AcDbDimension
  2
_D_1
 10
63.53649126121836
 20
2.379237403765721
 30
0.0
 11
63.53649126121829
 21
22.98323740376572
 31
0.0
 70
   160
  1
%%c<>
 71
     2
 42
4.758474807531181
 52
-270.0
  3
SLDDIMSTYLE0
100
AcDbAlignedDimension
 13
28.57500000000001
 23
-2.37923740376559
 33
0.0
 14
28.57500000000001
 24
2.379237403765591
 34
0.0
 50
90.0000000000002
100
AcDbRotatedDimension
1001
PE_URL
1000

1001
ACAD
1000
DSTYLE
1002
{
1070
   171
1070
     8
1070
   273
1070
     7
1002
}
  0
DIMENSION
  5
101
330
1F
100
AcDbEntity
  8
치수문자_일반주서
100
AcDbDimension
  2
_D_2
 10
15.87500000000001
 20
12.38125000000001
 30
0.0
 11
46.11650000000001
 21
12.38125000000001
 31
0.0
 70
   160
  1
<>
 71
     2
 42
12.7
  3
SLDDIMSTYLE0
100
AcDbAlignedDimension
 13
28.57500000000001
 23
2.379237403765591
 33
0.0
 14
15.87500000000001
 24
2.380701639238508
 34
0.0
100
AcDbRotatedDimension
1001
PE_URL
1000

1001
ACAD
1000
DSTYLE
1002
{
1070
   171
1070
     8
1070
   273
1070
     7
1002
}
  0
DIMENSION
  5
116
330
1F
100
AcDbEntity
  8
치수문자_일반주서
100
AcDbDimension
  2
_D_3
 10
28.575
 20
22.38125
 30
0.0
 11
0.0000000000000124
 21
22.38125
 31
0.0
 70
   160
  1
<>
 71
     2
 42
57.15000000000002
  3
SLDDIMSTYLE0
100
AcDbAlignedDimension
 13
-28.57500000000001
 23
2.379237403765523
 33
0.0
 14
28.57500000000001
 24
2.379237403765591
 34
0.0
100
AcDbRotatedDimension
1001
PE_URL
1000

1001
ACAD
1000
DSTYLE
1002
{
1070
   171
1070
     8
1070
   273
1070
     7
1002
}
  0
LINE
  5
12A
330
1F
100
AcDbEntity
  8
참조1
100
AcDbLine
 10
73.98162503295504
 20
7.440000000000002
 30
0.0
 11
73.98162503295504
 21
-7.440000000000002
 31
0.0
  0
LINE
  5
12B
330
1F
100
AcDbEntity
  8
참조1
100
AcDbLine
 10
86.68162503295505
 20
5.440000000000002
 30
0.0
 11
73.98162503295504
 21
5.440000000000002
 31
0.0
  0
SOLID
  5
12C
330
1F
100
AcDbEntity
  8
참조1
100
AcDbTrace
 10
73.98162503295504
 20
5.440000000000002
 30
0.0
 11
80.33162503295503
 21
4.424000000000002
 31
0.0
 12
80.33162503295503
 22
6.456000000000002
 32
0.0
 13
80.33162503295503
 23
6.456000000000002
 33
0.0
  0
LINE
  5
12D
330
1F
100
AcDbEntity
  8
참조1
100
AcDbLine
 10
86.68162503295505
 20
-5.440000000000002
 30
0.0
 11
73.98162503295504
 21
-5.440000000000002
 31
0.0
  0
SOLID
  5
12E
330
1F
100
AcDbEntity
  8
참조1
100
AcDbTrace
 10
73.98162503295504
 20
-5.440000000000002
 30
0.0
 11
80.33162503295503
 21
-6.456000000000002
 31
0.0
 12
80.33162503295503
 22
-4.424000000000002
 32
0.0
 13
80.33162503295503
 23
-4.424000000000002
 33
0.0
  0
MTEXT
  5
12F
330
1F
100
AcDbEntity
  8
참조1
100
AcDbMText
 10
83.36597516558103
 20
11.01029177718833
 30
0.0
 40
3.5
 41
0.0
 71
     1
 72
     1
  1
A
  7
SLDTEXTSTYLE0
 73
     1
 44
1.0
  0
MTEXT
  5
130
330
1F
100
AcDbEntity
  8
참조1
100
AcDbMText
 10
83.36597516558103
 20
0.1302917771883262
 30
0.0
 40
3.5
 41
0.0
 71
     1
 72
     1
  1
A
  7
SLDTEXTSTYLE0
 73
     1
 44
1.0
  0
INSERT
  5
137
330
1F
100
AcDbEntity
  8
해칭선
100
AcDbBlockReference
  2
SW_DOWELSYMBOL_0
 10
0.0
 20
0.0
 30
0.0
  0
LINE
  5
21E
330
1F
100
AcDbEntity
  8
외형선
  6
Continuous
370
    15
100
AcDbLine
 10
-15.87500000000003
 20
-2.381249999999997
 30
0.0
 11
-15.78670717846544
 21
-2.381249999999999
 31
0.0
  0
LINE
  5
21F
330
1F
100
AcDbEntity
  8
외형선
  6
Continuous
370
    15
100
AcDbLine
 10
-15.78670717846543
 20
2.381250000000004
 30
0.0
 11
-15.87500000000001
 21
2.381250000000004
 31
0.0
  0
LINE
  5
220
330
1F
100
AcDbEntity
  8
0
  6
Continuous
 62
     1
370
    15
100
AcDbLine
 10
-21.76893390606726
 20
-0.9279586100238839
 30
0.0
 11
-21.74427339875312
 21
-0.9406815904727102
 31
0.0
1001
PE_URL
1000

  0
SPLINE
  5
221
330
1F
100
AcDbEntity
  8
0
  6
Continuous
 62
     1
370
    15
100
AcDbSpline
210
0.0
220
0.0
230
1.0
 70
     8
 71
     3
 72
     9
 73
     5
 74
     0
 42
0.000000001
 43
0.00000001
 40
0.0
 40
0.0
 40
0.0
 40
0.0
 40
0.5575146093790113
 40
0.9999999999999999
 40
0.9999999999999999
 40
0.9999999999999999
 40
0.9999999999999999
 10
-22.40683499720339
 20
-0.610023938949064
 30
0.0
 10
-22.2882531841832
 20
-0.6664400735166767
 30
0.0
 10
-22.07555595432536
 20
-0.7676322819692076
 30
0.0
 10
-21.86299085643823
 20
-0.878778175783532
 30
0.0
 10
-21.76893390606726
 20
-0.9279586100238839
 30
0.0
1001
PE_URL
1000

  0
LINE
  5
222
330
1F
100
AcDbEntity
  8
0
  6
Continuous
 62
     1
370
    15
100
AcDbLine
 10
-16.94104607568254
 20
-2.381249999999996
 30
0.0
 11
-15.87500000000003
 21
-2.381249999999999
 31
0.0
1001
PE_URL
1000

  0
SPLINE
  5
223
330
1F
100
AcDbEntity
  8
0
  6
Continuous
 62
     1
370
    15
100
AcDbSpline
210
0.0
220
0.0
230
1.0
 70
     8
 71
     3
 72
     9
 73
     5
 74
     0
 42
0.000000001
 43
0.00000001
 40
0.0
 40
0.0
 40
0.0
 40
0.0
 40
0.4376859975537804
 40
1.0
 40
1.0
 40
1.0
 40
1.0
 10
-21.61780457935761
 20
-1.89222212835639
 30
0.0
 10
-21.3348807014657
 20
-1.879648110323192
 30
0.0
 10
-20.68847236427153
 20
-1.850919711188941
 30
0.0
 10
-20.04240493228627
 20
-1.864381441328978
 30
0.0
 10
-19.67911216875648
 20
-1.871951160683872
 30
0.0
1001
PE_URL
1000

  0
SPLINE
  5
224
330
1F
100
AcDbEntity
  8
0
  6
Continuous
 62
     1
370
    15
100
AcDbSpline
210
0.0
220
0.0
230
1.0
 70
     8
 71
     3
 72
    21
 73
    17
 74
     0
 42
0.000000001
 43
0.00000001
 40
0.0
 40
0.0
 40
0.0
 40
0.0
 40
0.0928827724231688
 40
0.1593890740235994
 40
0.2054464433977616
 40
0.2501786683405913
 40
0.2958447524189435
 40
0.3955207404687842
 40
0.5074179401648695
 40
0.6062969281267674
 40
0.6974144855886256
 40
0.7709727317411096
 40
0.8118624837984885
 40
0.8538211236912072
 40
0.9148422604844885
 40
1.0
 40
1.0
 40
1.0
 40
1.0
 10
-27.7046379871556
 20
-1.629960712340571
 30
0.0
 10
-27.57487719784938
 20
-1.619484401432174
 30
0.0
 10
-27.3522045588603
 20
-1.601506799651892
 30
0.0
 10
-27.06604951859757
 20
-1.585924069116544
 30
0.0
 10
-26.84723610887021
 20
-1.576881197500348
 30
0.0
 10
-26.65757978666708
 20
-1.571283378338066
 30
0.0
 10
-26.39358215952647
 20
-1.56649923822
 30
0.0
 10
-26.0358375686085
 20
-1.566738012936055
 30
0.0
 10
-25.60393387145042
 20
-1.578826310698987
 30
0.0
 10
-25.18424467313227
 20
-1.601714320307332
 30
0.0
 10
-24.818119436468
 20
-1.630660779257683
 30
0.0
 10
-24.53217013330726
 20
-1.658707188640484
 30
0.0
 10
-24.31429246585693
 20
-1.682972212675633
 30
0.0
 10
-24.11354122168605
 20
-1.707290568552169
 30
0.0
 10
-23.85251060873442
 20
-1.741894596704354
 30
0.0
 10
-23.64945058839148
 20
-1.772921093446946
 30
0.0
 10
-23.53115625780814
 20
-1.790995841279207
 30
0.0
1001
PE_URL
1000

  0
SPLINE
  5
225
330
1F
100
AcDbEntity
  8
0
  6
Continuous
 62
     1
370
    15
100
AcDbSpline
210
0.0
220
0.0
230
1.0
 70
     8
 71
     3
 72
    11
 73
     7
 74
     0
 42
0.000000001
 43
0.00000001
 40
0.0
 40
0.0
 40
0.0
 40
0.0
 40
0.4521041008416326
 40
0.6475521842149822
 40
0.7630462512332372
 40
0.9999999999999999
 40
0.9999999999999999
 40
0.9999999999999999
 40
0.9999999999999999
 10
-18.03655666058513
 20
1.981548618334113
 30
0.0
 10
-18.57637639580004
 20
1.93652450493282
 30
0.0
 10
-19.34956435841755
 20
1.872036120684422
 30
0.0
 10
-20.2602630989241
 20
1.858112197008442
 30
0.0
 10
-20.91397867027042
 20
1.861646842131052
 30
0.0
 10
-21.33484946408877
 20
1.879930120451375
 30
0.0
 10
-21.6178045793576
 20
1.892222128356423
 30
0.0
1001
PE_URL
1000

  0
SPLINE
  5
226
330
1F
100
AcDbEntity
  8
0
  6
Continuous
 62
     1
370
    15
100
AcDbSpline
210
0.0
220
0.0
230
1.0
 70
     8
 71
     3
 72
    14
 73
    10
 74
     0
 42
0.000000001
 43
0.00000001
 40
0.0
 40
0.0
 40
0.0
 40
0.0
 40
0.2026632014270741
 40
0.3467250566244188
 40
0.4461023058771361
 40
0.5437582160228495
 40
0.6436542964038005
 40
0.881636497743747
 40
1.0
 40
1.0
 40
1.0
 40
1.0
 10
-23.53115625780813
 20
1.790995841279248
 30
0.0
 10
-23.65127836708341
 20
1.772648902273916
 30
0.0
 10
-23.85678851814705
 20
1.741260157693182
 30
0.0
 10
-24.12091974492306
 20
1.706342113389829
 30
0.0
 10
-24.32402786025692
 20
1.681842602598685
 30
0.0
 10
-24.50050915470902
 20
1.662258165691105
 30
0.0
 10
-24.75907401330924
 20
1.636353173818188
 30
0.0
 10
-25.02955984898982
 20
1.612002021369367
 30
0.0
 10
-25.24094034247363
 20
1.600852204343115
 30
0.0
 10
-25.31115231715133
 20
1.597148690088767
 30
0.0
1001
PE_URL
1000

  0
LINE
  5
227
330
1F
100
AcDbEntity
  8
0
  6
Continuous
 62
     1
370
    15
100
AcDbLine
 10
-15.87500000000001
 20
2.381250000000004
 30
0.0
 11
-16.94104607568254
 21
2.381250000000007
 31
0.0
1001
PE_URL
1000

  0
LINE
  5
228
330
1F
100
AcDbEntity
  8
외형선
  6
Continuous
370
    15
100
AcDbLine
 10
-15.87500000000003
 20
-2.381249999999997
 30
0.0
 11
-15.87500000000003
 21
-2.380701639237248
 31
0.0
  0
SPLINE
  5
229
330
1F
100
AcDbEntity
  8
외형선
  6
Continuous
370
    15
100
AcDbSpline
210
0.0
220
0.0
230
1.0
 70
     8
 71
     3
 72
    10
 73
     6
 74
     0
 42
0.000000001
 43
0.00000001
 40
0.0
 40
0.0
 40
0.0
 40
0.0
 40
0.5
 40
0.5
 40
1.0
 40
1.0
 40
1.0
 40
1.0
 10
-14.98497933164164
 20
-2.336358662472577
 30
0.0
 10
-15.13421905021209
 20
-2.352954847164356
 30
0.0
 10
-15.28358478619607
 20
-2.364984403175801
 30
0.0
 10
-15.57996381920611
 20
-2.379764675224423
 30
0.0
 10
-15.7264670119898
 20
-2.382541584546682
 30
0.0
 10
-15.8750000000001
 20
-2.380701639237246
 30
0.0
  0
LINE
  5
22A
330
1F
100
AcDbEntity
  8
외형선
  6
Continuous
370
    15
100
AcDbLine
 10
-14.98497933164163
 20
2.118338224008923
 30
0.0
 11
-14.98497933164164
 21
-2.381249999999999
 31
0.0
  0
SPLINE
  5
22B
330
1F
100
AcDbEntity
  8
외형선
  6
Continuous
370
    15
100
AcDbSpline
210
0.0
220
0.0
230
1.0
 70
     8
 71
     3
 72
    10
 73
     6
 74
     0
 42
0.000000001
 43
0.00000001
 40
0.0
 40
0.0
 40
0.0
 40
0.0
 40
0.4999999999999999
 40
0.4999999999999999
 40
1.0
 40
1.0
 40
1.0
 40
1.0
 10
-15.87500000000001
 20
2.30221892427158
 30
0.0
 10
-15.72646341535085
 20
2.280312448163759
 30
0.0
 10
-15.57995669936938
 20
2.25404897889635
 30
0.0
 10
-15.28357037609705
 20
2.192694970761961
 30
0.0
 10
-15.13420096905779
 20
2.157607012225276
 30
0.0
 10
-14.98495764913084
 20
2.118384835923291
 30
0.0
  0
LINE
  5
22C
330
1F
100
AcDbEntity
  8
외형선
  6
Continuous
370
    15
100
AcDbLine
 10
-15.87500000000001
 20
2.302218924271579
 30
0.0
 11
-15.87500000000001
 21
2.381250000000004
 31
0.0
  0
SPLINE
  5
22D
330
1F
100
AcDbEntity
  8
외형선
  6
Continuous
370
    15
100
AcDbSpline
210
0.0
220
0.0
230
1.0
 70
     8
 71
     3
 72
    11
 73
     7
 74
     0
 42
0.000000001
 43
0.00000001
 40
0.0
 40
0.0
 40
0.0
 40
0.0
 40
0.2770414239734362
 40
0.5542827751819627
 40
0.832130678729455
 40
1.0
 40
1.0
 40
1.0
 40
1.0
 10
-14.98497933164163
 20
2.336358662472579
 30
0.0
 10
-15.05908804088175
 20
2.343966083778176
 30
0.0
 10
-15.20735893998999
 20
2.359186416292961
 30
0.0
 10
-15.4298834024947
 20
2.373149914330826
 30
0.0
 10
-15.62278700650042
 20
2.38072881234742
 30
0.0
 10
-15.74186074533268
 20
2.38050057933687
 30
0.0
 10
-15.78670717846543
 20
2.380414620530614
 30
0.0
  0
LINE
  5
22E
330
1F
100
AcDbEntity
  8
외형선
  6
Continuous
370
    15
100
AcDbLine
 10
-14.98497933164163
 20
2.38125
 30
0.0
 11
-14.98497933164163
 21
2.336235512719876
 31
0.0
  0
SPLINE
  5
22F
330
1F
100
AcDbEntity
  8
외형선
  6
Continuous
370
    15
100
AcDbSpline
210
0.0
220
0.0
230
1.0
 70
     8
 71
     3
 72
    10
 73
     6
 74
     0
 42
0.000000001
 43
0.00000001
 40
0.0
 40
0.0
 40
0.0
 40
0.0
 40
0.5000000000000001
 40
0.5000000000000001
 40
1.0
 40
1.0
 40
1.0
 40
1.0
 10
-15.87500000000008
 20
1.92215988516208
 30
0.0
 10
-15.72646341535089
 20
1.899326347869432
 30
0.0
 10
-15.57995669936942
 20
1.872875779576401
 30
0.0
 10
-15.28357037609707
 20
1.812623128668376
 30
0.0
 10
-15.1342009690578
 20
1.778828554378411
 30
0.0
 10
-14.98495764913084
 20
1.741636362713163
 30
0.0
  0
SPLINE
  5
230
330
1F
100
AcDbEntity
  8
외형선
  6
Continuous
370
    15
100
AcDbSpline
210
0.0
220
0.0
230
1.0
 70
     8
 71
     3
 72
    10
 73
     6
 74
     0
 42
0.000000001
 43
0.00000001
 40
0.0
 40
0.0
 40
0.0
 40
0.0
 40
0.5
 40
0.5
 40
1.0
 40
1.0
 40
1.0
 40
1.0
 10
-15.87500000000002
 20
0.119133682551093
 30
0.0
 10
-15.72646569930757
 20
0.0506752194123552
 30
0.0
 10
-15.57996122064621
 20
-0.0177020710197532
 30
0.0
 10
-15.28357952687526
 20
-0.1546415272263101
 30
0.0
 10
-15.13421245104897
 20
-0.2231242329355393
 30
0.0
 10
-14.98497141807378
 20
-0.2910191270397601
 30
0.0
  0
SPLINE
  5
231
330
1F
100
AcDbEntity
  8
외형선
  6
Continuous
370
    15
100
AcDbSpline
210
0.0
220
0.0
230
1.0
 70
    24
 71
     3
 72
    10
 73
     6
 74
     0
 42
0.000000001
 43
0.00000001
 40
0.0
 40
0.0
 40
0.0
 40
0.0
 40
0.5
 40
0.5
 40
1.0
 40
1.0
 40
1.0
 40
1.0
 10
-15.87499999999999
 20
0.1191336825510823
 30
0.0
 10
-15.87499999999999
 20
0.4805957990354382
 30
0.0
 10
-15.87499999999999
 20
0.8452655779804241
 30
0.0
 10
-15.87499999999999
 20
1.475512580317945
 30
0.0
 10
-15.87499999999999
 20
1.738376974231573
 30
0.0
 10
-15.87499999999999
 20
1.922159885162067
 30
0.0
  0
SPLINE
  5
232
330
1F
100
AcDbEntity
  8
외형선
  6
Continuous
370
    15
100
AcDbSpline
210
0.0
220
0.0
230
1.0
 70
     8
 71
     3
 72
    10
 73
     6
 74
     0
 42
0.000000001
 43
0.00000001
 40
0.0
 40
0.0
 40
0.0
 40
0.0
 40
0.5
 40
0.5
 40
1.0
 40
1.0
 40
1.0
 40
1.0
 10
-15.87500000000002
 20
-1.663612297637323
 30
0.0
 10
-15.72646614601155
 20
-1.667365693661029
 30
0.0
 10
-15.57996210493268
 20
-1.667881598025303
 30
0.0
 10
-15.28358131661514
 20
-1.662456005427421
 30
0.0
 10
-15.13421469673539
 20
-1.656493297180088
 30
0.0
 10
-14.98497411105027
 20
-1.647310049072311
 30
0.0
  0
SPLINE
  5
233
330
1F
100
AcDbEntity
  8
외형선
  6
Continuous
370
    15
100
AcDbSpline
210
0.0
220
0.0
230
1.0
 70
    24
 71
     3
 72
    14
 73
    10
 74
     0
 42
0.000000001
 43
0.00000001
 40
0.0
 40
0.0
 40
0.0
 40
0.0
 40
0.25
 40
0.25
 40
0.5
 40
0.5
 40
0.75
 40
0.75
 40
1.0
 40
1.0
 40
1.0
 40
1.0
 10
-15.87500000000002
 20
-1.663612297637323
 30
0.0
 10
-15.87500000000002
 20
-1.6059023357907
 30
0.0
 10
-15.87500000000002
 20
-1.521469288296028
 30
0.0
 10
-15.87500000000002
 20
-1.299588685478989
 30
0.0
 10
-15.87500000000002
 20
-1.162145905288891
 30
0.0
 10
-15.87500000000002
 20
-0.8453005460638001
 30
0.0
 10
-15.87500000000002
 20
-0.6660667954829405
 30
0.0
 10
-15.87500000000002
 20
-0.2849490925445079
 30
0.0
 10
-15.87500000000002
 20
-0.0832935724183607
 30
0.0
 10
-15.87500000000002
 20
0.1191336825510947
 30
0.0
  0
SPLINE
  5
234
330
1F
100
AcDbEntity
  8
외형선
  6
Continuous
370
    15
100
AcDbSpline
210
0.0
220
0.0
230
1.0
 70
    24
 71
     3
 72
     8
 73
     4
 74
     0
 42
0.000000001
 43
0.00000001
 40
0.0
 40
0.0
 40
0.0
 40
0.0
 40
1.0
 40
1.0
 40
1.0
 40
1.0
 10
-15.87500000000001
 20
1.922159885162071
 30
0.0
 10
-15.87500000000001
 20
2.048846019421232
 30
0.0
 10
-15.87500000000001
 20
2.176346581891377
 30
0.0
 10
-15.87500000000001
 20
2.302218924271078
 30
0.0
  0
SPLINE
  5
235
330
1F
100
AcDbEntity
  8
외형선
  6
Continuous
370
    15
100
AcDbSpline
210
0.0
220
0.0
230
1.0
 70
    24
 71
     3
 72
    10
 73
     6
 74
     0
 42
0.000000001
 43
0.00000001
 40
0.0
 40
0.0
 40
0.0
 40
0.0
 40
0.5
 40
0.5
 40
1.0
 40
1.0
 40
1.0
 40
1.0
 10
-15.87500000000002
 20
-2.380701639230242
 30
0.0
 10
-15.87500000000002
 20
-2.263587078921228
 30
0.0
 10
-15.87500000000002
 20
-2.135993208561911
 30
0.0
 10
-15.87500000000003
 20
-1.887929322593786
 30
0.0
 10
-15.87500000000002
 20
-1.768104544396244
 30
0.0
 10
-15.87500000000002
 20
-1.663612297637323
 30
0.0
  0
SPLINE
  5
236
330
1F
100
AcDbEntity
  8
0
  6
Continuous
 62
     1
370
    15
100
AcDbSpline
210
0.0
220
0.0
230
1.0
 70
     8
 71
     3
 72
    19
 73
    15
 74
     0
 42
0.000000001
 43
0.00000001
 40
0.0
 40
0.0
 40
0.0
 40
0.0
 40
0.0873931811695154
 40
0.1747156200192015
 40
0.2619939357896617
 40
0.3492550691212533
 40
0.4365260861977378
 40
0.5238339809610706
 40
0.6112054784366422
 40
0.6913650505715708
 40
0.7713833017175921
 40
0.8513476842926729
 40
0.9313536060823082
 40
1.0
 40
1.0
 40
1.0
 40
1.0
 10
-28.57500000000001
 20
2.259665444858494
 30
0.0
 10
-28.23600716108
 20
2.184717565534446
 30
0.0
 10
-27.5582958883996
 20
2.034882475084695
 30
0.0
 10
-26.54226183951427
 20
1.650630651772218
 30
0.0
 10
-25.52682663825305
 20
1.176612148900553
 30
0.0
 10
-24.51163536017751
 20
0.629005545742569
 30
0.0
 10
-23.49630475427374
 20
0.044106070899787
 30
0.0
 10
-22.4804619491641
 20
-0.5437079503376159
 30
0.0
 10
-21.49204782860235
 20
-1.083474336800872
 30
0.0
 10
-20.53173747555435
 20
-1.547008619796525
 30
0.0
 10
-19.6006752420034
 20
-1.919795277191765
 30
0.0
 10
-18.67027822188689
 20
-2.191708710537842
 30
0.0
 10
-17.78393186673117
 20
-2.356158776357675
 30
0.0
 10
-17.20732041361947
 20
-2.368230868395658
 30
0.0
 10
-16.94104607568254
 20
-2.373805659353381
 30
0.0
1001
PE_URL
1000

  0
SPLINE
  5
237
330
1F
100
AcDbEntity
  8
0
  6
Continuous
 62
     1
370
    15
100
AcDbSpline
210
0.0
220
0.0
230
1.0
 70
     8
 71
     3
 72
    13
 73
     9
 74
     0
 42
0.000000001
 43
0.00000001
 40
0.0
 40
0.0
 40
0.0
 40
0.0
 40
0.1835034858629894
 40
0.3669930849346936
 40
0.550469929971623
 40
0.7339351611508543
 40
0.9173899254223683
 40
0.9999999999999999
 40
0.9999999999999999
 40
0.9999999999999999
 40
0.9999999999999999
 10
-28.57500000000002
 20
1.878740204526846
 30
0.0
 10
-28.19736713451223
 20
1.796077848533285
 30
0.0
 10
-27.44212998124328
 20
1.630759392094277
 30
0.0
 10
-26.3093311811776
 20
1.223028871004614
 30
0.0
 10
-25.17662166112883
 20
0.7330653379379053
 30
0.0
 10
-24.04399517667608
 20
0.1881307351211723
 30
0.0
 10
-23.11894234020515
 20
-0.2759603296549053
 30
0.0
 10
-22.57143352372379
 20
-0.5277819819757743
 30
0.0
 10
-22.40143832872893
 20
-0.6059697108334168
 30
0.0
1001
PE_URL
1000

  0
LINE
  5
238
330
1F
100
AcDbEntity
  8
0
  6
Continuous
 62
     1
370
    15
100
AcDbLine
 10
-28.57499999999994
 20
2.259665444858495
 30
0.0
 11
-28.57500000000002
 21
1.878740204526846
 31
0.0
1001
PE_URL
1000

  0
SPLINE
  5
239
330
1F
100
AcDbEntity
  8
0
  6
Continuous
 62
     1
370
    15
100
AcDbSpline
210
0.0
220
0.0
230
1.0
 70
     8
 71
     3
 72
    38
 73
    34
 74
     0
 42
0.000000001
 43
0.00000001
 40
0.0
 40
0.0
 40
0.0
 40
0.0
 40
0.0625000000000002
 40
0.0625000000000002
 40
0.1250000000000003
 40
0.1250000000000003
 40
0.1875000000000006
 40
0.1875000000000006
 40
0.2500000000000007
 40
0.2500000000000007
 40
0.3125000000000007
 40
0.3125000000000007
 40
0.3750000000000006
 40
0.3750000000000006
 40
0.4375000000000004
 40
0.4375000000000004
 40
0.5000000000000004
 40
0.5000000000000004
 40
0.5625000000000004
 40
0.5625000000000004
 40
0.6250000000000003
 40
0.6250000000000003
 40
0.6875000000000002
 40
0.6875000000000002
 40
0.7500000000000002
 40
0.7500000000000002
 40
0.8125000000000002
 40
0.8125000000000002
 40
0.8750000000000001
 40
0.8750000000000001
 40
0.9375
 40
0.9375
 40
1.0
 40
1.0
 40
1.0
 40
1.0
 10
-15.87499999999972
 20
-2.380701639236077
 30
0.0
 10
-16.13963115149932
 20
-2.377423533460051
 30
0.0
 10
-16.40733328719925
 20
-2.359301427850718
 30
0.0
 10
-16.93413707745726
 20
-2.294501722498621
 30
0.0
 10
-17.19806905274051
 20
-2.247732940518696
 30
0.0
 10
-17.72974758059329
 20
-2.126763431365677
 30
0.0
 10
-17.99123066364081
 20
-2.053113138073099
 30
0.0
 10
-18.52086739873391
 20
-1.880878693858905
 30
0.0
 10
-18.78852176189156
 20
-1.782200549498187
 30
0.0
 10
-19.31476861900337
 20
-1.565300278378014
 30
0.0
 10
-19.57927561894079
 20
-1.446334681326283
 30
0.0
 10
-20.11084587379212
 20
-1.191598529485038
 30
0.0
 10
-20.37212426592365
 20
-1.056817619040954
 30
0.0
 10
-20.9021060653676
 20
-0.7746698197093875
 30
0.0
 10
-21.16969744586974
 20
-0.6274351893535337
 30
0.0
 10
-21.69535862906183
 20
-0.3288214173116317
 30
0.0
 10
-21.96049119471124
 20
-0.1761287222976564
 30
0.0
 10
-22.4919234489996
 20
0.1297883149044082
 30
0.0
 10
-22.75304828966271
 20
0.2820074839476681
 30
0.0
 10
-23.28334572161724
 20
0.5826405452822121
 30
0.0
 10
-23.55085892138268
 20
0.7306952160338247
 30
0.0
 10
-24.0759057977045
 20
1.014210388039359
 30
0.0
 10
-24.34171435447865
 20
1.151166976086007
 30
0.0
 10
-24.87297890637686
 20
1.409103336420881
 30
0.0
 10
-25.13400136354237
 20
1.529437580597403
 30
0.0
 10
-25.66458493749236
 20
1.751097364103485
 30
0.0
 10
-25.93200477337036
 20
1.851979257511726
 30
0.0
 10
-26.45640882280765
 20
2.028552407932548
 30
0.0
 10
-26.72294367126079
 20
2.105327814155086
 30
0.0
 10
-27.25401085020388
 20
2.231695742090351
 30
0.0
 10
-27.51498211086423
 20
2.281161503072367
 30
0.0
 10
-28.04582228306493
 20
2.351959701647522
 30
0.0
 10
-28.31313358972773
 20
2.372980141663878
 30
0.0
 10
-28.57500000000001
 20
2.379237403764427
 30
0.0
1001
PE_URL
1000

  0
SPLINE
  5
23A
330
1F
100
AcDbEntity
  8
0
  6
Continuous
 62
     1
370
    15
100
AcDbSpline
210
0.0
220
0.0
230
1.0
 70
     8
 71
     3
 72
    13
 73
     9
 74
     0
 42
0.000000001
 43
0.00000001
 40
0.0
 40
0.0
 40
0.0
 40
0.0
 40
0.1295614678201219
 40
0.2965264734939174
 40
0.4634848532394957
 40
0.6304377133562802
 40
0.8152274280314542
 40
1.0
 40
1.0
 40
1.0
 40
1.0
 10
-22.65769144502632
 20
0.2255421767469666
 30
0.0
 10
-22.36477657039302
 20
0.1076285140938238
 30
0.0
 10
-21.69438423638893
 20
-0.1622397048416972
 30
0.0
 10
-20.64654010375407
 20
-0.5810780927872778
 30
0.0
 10
-19.51414795833728
 20
-0.9892012765833706
 30
0.0
 10
-18.34152960103886
 20
-1.332988184803447
 30
0.0
 10
-17.1283656131859
 20
-1.587264356630971
 30
0.0
 10
-16.29277561769263
 20
-1.638163770984024
 30
0.0
 10
-15.87500000000002
 20
-1.663612297637323
 30
0.0
1001
PE_URL
1000

  0
SPLINE
  5
23B
330
1F
100
AcDbEntity
  8
외형선
  6
Continuous
370
    15
100
AcDbSpline
210
0.0
220
0.0
230
1.0
 70
    24
 71
     3
 72
    10
 73
     6
 74
     0
 42
0.000000001
 43
0.00000001
 40
0.0
 40
0.0
 40
0.0
 40
0.0
 40
0.5
 40
0.5
 40
1.0
 40
1.0
 40
1.0
 40
1.0
 10
-15.87500000000003
 20
-2.380701639230244
 30
0.0
 10
-15.87500000000003
 20
-2.263587078921228
 30
0.0
 10
-15.87500000000003
 20
-2.135993208561911
 30
0.0
 10
-15.87500000000003
 20
-1.887929322593786
 30
0.0
 10
-15.87500000000002
 20
-1.768104544396244
 30
0.0
 10
-15.87500000000002
 20
-1.663612297637323
 30
0.0
  0
LINE
  5
23C
330
1F
100
AcDbEntity
  8
0
  6
Continuous
 62
     1
370
    15
100
AcDbLine
 10
-28.57500000000001
 20
2.379237403765624
 30
0.0
 11
-28.57499999999992
 21
2.25966544485849
 31
0.0
1001
PE_URL
1000

  0
SPLINE
  5
23D
330
1F
100
AcDbEntity
  8
0
  6
Continuous
 62
     1
370
    15
100
AcDbSpline
210
0.0
220
0.0
230
1.0
 70
     8
 71
     3
 72
     8
 73
     4
 74
     0
 42
0.000000001
 43
0.00000001
 40
0.0
 40
0.0
 40
0.0
 40
0.0
 40
1.0
 40
1.0
 40
1.0
 40
1.0
 10
-27.10093131851544
 20
-0.6667656290396182
 30
0.0
 10
-27.01657539430416
 20
-0.7667237491414463
 30
0.0
 10
-26.9412684614755
 20
-0.8629558787206031
 30
0.0
 10
-26.87715717569899
 20
-0.9545781160976838
 30
0.0
1001
PE_URL
1000

  0
LINE
  5
23E
330
1F
100
AcDbEntity
  8
0
  6
Continuous
 62
     1
370
    15
100
AcDbLine
 10
-26.90728317140753
 20
-0.9798568279854487
 30
0.0
 11
-28.57500000000002
 21
0.0000000000000305
 31
0.0
1001
PE_URL
1000

  0
LINE
  5
23F
330
1F
100
AcDbEntity
  8
0
  6
Continuous
 62
     1
370
    15
100
AcDbLine
 10
-28.57500000000002
 20
0.0000000000000305
 30
0.0
 11
-28.57500000000002
 21
0.6363722652331225
 31
0.0
1001
PE_URL
1000

  0
SPLINE
  5
240
330
1F
100
AcDbEntity
  8
0
  6
Continuous
 62
     1
370
    15
100
AcDbSpline
210
0.0
220
0.0
230
1.0
 70
     8
 71
     3
 72
    10
 73
     6
 74
     0
 42
0.000000001
 43
0.00000001
 40
0.0
 40
0.0
 40
0.0
 40
0.0
 40
0.5
 40
0.5
 40
1.0
 40
1.0
 40
1.0
 40
1.0
 10
-28.57500000000002
 20
0.6363722652331225
 30
0.0
 10
-28.31982507708538
 20
0.4357598858608028
 30
0.0
 10
-28.06891634127839
 20
0.2269170311293485
 30
0.0
 10
-27.57584008684128
 20
-0.2076325360986357
 30
0.0
 10
-27.33138005573237
 20
-0.4356364190385233
 30
0.0
 10
-27.10093131851544
 20
-0.6667656290396182
 30
0.0
1001
PE_URL
1000

  0
SPLINE
  5
241
330
1F
100
AcDbEntity
  8
0
  6
Continuous
 62
     1
370
    15
100
AcDbSpline
210
0.0
220
0.0
230
1.0
 70
     8
 71
     3
 72
    13
 73
     9
 74
     0
 42
0.000000001
 43
0.00000001
 40
0.0
 40
0.0
 40
0.0
 40
0.0
 40
0.1910228110500101
 40
0.3821474597470481
 40
0.5733314335229318
 40
0.7644073784825878
 40
0.9553951653534366
 40
0.9999999999999999
 40
0.9999999999999999
 40
0.9999999999999999
 40
0.9999999999999999
 10
-27.10093131851545
 20
-0.6667656290396147
 30
0.0
 10
-26.75173046098148
 20
-0.8137284313589974
 30
0.0
 10
-26.05314258074575
 20
-1.107732384473038
 30
0.0
 10
-25.00496637612567
 20
-1.465408757099306
 30
0.0
 10
-23.95662058738284
 20
-1.734713151235439
 30
0.0
 10
-22.90864957161617
 20
-1.882026348700108
 30
0.0
 10
-22.12867719618156
 20
-1.929465073821326
 30
0.0
 10
-21.69802257680848
 20
-1.888980082928549
 30
0.0
 10
-21.61648658487804
 20
-1.881315045234208
 30
0.0
1001
PE_URL
1000

  0
SPLINE
  5
242
330
1F
100
AcDbEntity
  8
0
  6
Continuous
 62
     1
370
    15
100
AcDbSpline
210
0.0
220
0.0
230
1.0
 70
    24
 71
     3
 72
    10
 73
     6
 74
     0
 42
0.000000001
 43
0.00000001
 40
0.0
 40
0.0
 40
0.0
 40
0.0
 40
0.5
 40
0.5
 40
1.0
 40
1.0
 40
1.0
 40
1.0
 10
-28.57500000000002
 20
1.878740204526846
 30
0.0
 10
-28.57500000000002
 20
1.734720120065342
 30
0.0
 10
-28.57500000000002
 20
1.552745221052311
 30
0.0
 10
-28.57500000000002
 20
1.129671093977589
 30
0.0
 10
-28.57500000000002
 20
0.8889383487659634
 30
0.0
 10
-28.57500000000002
 20
0.6363722652331989
 30
0.0
1001
PE_URL
1000

  0
SPLINE
  5
243
330
1F
100
AcDbEntity
  8
0
  6
Continuous
 62
     1
370
    15
100
AcDbSpline
210
0.0
220
0.0
230
1.0
 70
    24
 71
     3
 72
     8
 73
     4
 74
     0
 42
0.000000001
 43
0.00000001
 40
0.0
 40
0.0
 40
0.0
 40
0.0
 40
1.0
 40
1.0
 40
1.0
 40
1.0
 10
-27.12582768727901
 20
-1.163237450645788
 30
0.0
 10
-27.04721706249055
 20
-1.097275304379186
 30
0.0
 10
-26.96406690501248
 20
-1.027504037910232
 30
0.0
 10
-26.8771571756991
 20
-0.9545781160976572
 30
0.0
1001
PE_URL
1000

  0
LINE
  5
244
330
1F
100
AcDbEntity
  8
0
  6
Continuous
 62
     1
370
    15
100
AcDbLine
 10
-28.57500000000002
 20
-1.666874999999967
 30
0.0
 11
-27.70177956069978
 21
-1.61873409470939
 31
0.0
1001
PE_URL
1000

  0
SPLINE
  5
245
330
1F
100
AcDbEntity
  8
0
  6
Continuous
 62
     1
370
    15
100
AcDbSpline
210
0.0
220
0.0
230
1.0
 70
     8
 71
     3
 72
     8
 73
     4
 74
     0
 42
0.000000001
 43
0.00000001
 40
0.0
 40
0.0
 40
0.0
 40
0.0
 40
1.0
 40
1.0
 40
1.0
 40
1.0
 10
-28.57500000000002
 20
-1.666874999999969
 30
0.0
 10
-28.0852134878911
 20
-1.533900650658243
 30
0.0
 10
-27.60009348855365
 20
-1.370671989946263
 30
0.0
 10
-27.12582768729178
 20
-1.163237450653684
 30
0.0
1001
PE_URL
1000

  0
SPLINE
  5
246
330
1F
100
AcDbEntity
  8
0
  6
Continuous
 62
     1
370
    15
100
AcDbSpline
210
0.0
220
0.0
230
1.0
 70
     8
 71
     3
 72
    10
 73
     6
 74
     0
 42
0.000000001
 43
0.00000001
 40
0.0
 40
0.0
 40
0.0
 40
0.0
 40
0.2269926808080306
 40
0.613143915955177
 40
1.0
 40
1.0
 40
1.0
 40
1.0
 10
-18.03896238097433
 20
1.97148761858354
 30
0.0
 10
-17.87528450596141
 20
1.988923325813019
 30
0.0
 10
-17.43316411298929
 20
2.036019988886367
 30
0.0
 10
-16.7118646019729
 20
2.025691441431006
 30
0.0
 10
-16.15412438817498
 20
1.956691375957885
 30
0.0
 10
-15.87500000000008
 20
1.92215988516208
 30
0.0
1001
PE_URL
1000

  0
SPLINE
  5
247
330
1F
100
AcDbEntity
  8
0
  6
Continuous
 62
     1
370
    15
100
AcDbSpline
210
0.0
220
0.0
230
1.0
 70
     8
 71
     3
 72
    15
 73
    11
 74
     0
 42
0.000000001
 43
0.00000001
 40
0.0
 40
0.0
 40
0.0
 40
0.0
 40
0.0820341661970932
 40
0.2187311564826627
 40
0.3553874634754748
 40
0.4841860466043522
 40
0.6130166425787974
 40
0.7419493926260305
 40
0.8710257665464305
 40
1.0
 40
1.0
 40
1.0
 40
1.0
 10
-23.53709691624497
 20
1.775927015035363
 30
0.0
 10
-23.32756067984681
 20
1.810499297148265
 30
0.0
 10
-22.76886537718133
 20
1.902680830762343
 30
0.0
 10
-21.86120260564736
 20
1.919303538285844
 30
0.0
 10
-20.83408316340309
 20
1.835835458678
 30
0.0
 10
-19.82724464557876
 20
1.639196221508494
 30
0.0
 10
-18.84005309074997
 20
1.354186985553741
 30
0.0
 10
-17.85207883405226
 20
0.991289153560871
 30
0.0
 10
-16.86348291540425
 20
0.5727225761654149
 30
0.0
 10
-16.20440734766177
 20
0.2702900779180467
 30
0.0
 10
-15.87500000000002
 20
0.1191336825510947
 30
0.0
1001
PE_URL
1000

  0
SPLINE
  5
248
330
1F
100
AcDbEntity
  8
외형선
  6
Continuous
370
    15
100
AcDbSpline
210
0.0
220
0.0
230
1.0
 70
    24
 71
     3
 72
    10
 73
     6
 74
     0
 42
0.000000001
 43
0.00000001
 40
0.0
 40
0.0
 40
0.0
 40
0.0
 40
0.5
 40
0.5
 40
1.0
 40
1.0
 40
1.0
 40
1.0
 10
-15.87499999999999
 20
0.1191336825510823
 30
0.0
 10
-15.87499999999999
 20
0.4805957990354382
 30
0.0
 10
-15.87499999999999
 20
0.8452655779804241
 30
0.0
 10
-15.87499999999999
 20
1.475512580317945
 30
0.0
 10
-15.87499999999999
 20
1.738376974231573
 30
0.0
 10
-15.87499999999999
 20
1.922159885162067
 30
0.0
  0
SPLINE
  5
249
330
1F
100
AcDbEntity
  8
외형선
  6
Continuous
370
    15
100
AcDbSpline
210
0.0
220
0.0
230
1.0
 70
    24
 71
     3
 72
    14
 73
    10
 74
     0
 42
0.000000001
 43
0.00000001
 40
0.0
 40
0.0
 40
0.0
 40
0.0
 40
0.25
 40
0.25
 40
0.5
 40
0.5
 40
0.75
 40
0.75
 40
1.0
 40
1.0
 40
1.0
 40
1.0
 10
-15.87500000000002
 20
-1.663612297637323
 30
0.0
 10
-15.87500000000002
 20
-1.6059023357907
 30
0.0
 10
-15.87500000000002
 20
-1.521469288296028
 30
0.0
 10
-15.87500000000002
 20
-1.299588685478989
 30
0.0
 10
-15.87500000000002
 20
-1.162145905288891
 30
0.0
 10
-15.87500000000002
 20
-0.8453005460638001
 30
0.0
 10
-15.87500000000002
 20
-0.6660667954829405
 30
0.0
 10
-15.87500000000002
 20
-0.2849490925445079
 30
0.0
 10
-15.87500000000002
 20
-0.0832935724183607
 30
0.0
 10
-15.87500000000002
 20
0.1191336825510947
 30
0.0
  0
LINE
  5
24A
330
1F
100
AcDbEntity
  8
0
  6
Continuous
 62
     1
370
    15
100
AcDbLine
 10
-28.57500000000002
 20
0.0000000000000305
 30
0.0
 11
-28.57500000000002
 21
-1.666874999999969
 31
0.0
1001
PE_URL
1000

  0
SPLINE
  5
24B
330
1F
100
AcDbEntity
  8
0
  6
Continuous
 62
     1
370
    15
100
AcDbSpline
210
0.0
220
0.0
230
1.0
 70
     8
 71
     3
 72
    12
 73
     8
 74
     0
 42
0.000000001
 43
0.00000001
 40
0.0
 40
0.0
 40
0.0
 40
0.0
 40
0.0208187685886991
 40
0.2653239529058867
 40
0.5099561506881192
 40
0.7550033939873472
 40
1.0
 40
1.0
 40
1.0
 40
1.0
 10
-19.67967876924879
 20
1.871726744569975
 30
0.0
 10
-19.65327834180815
 20
1.882276124442648
 30
0.0
 10
-19.31681916377788
 20
2.016722268872277
 30
0.0
 10
-18.67029271936646
 20
2.188123060615871
 30
0.0
 10
-17.73936261013809
 20
2.357067528835062
 30
0.0
 10
-16.80732275522519
 20
2.405178958836052
 30
0.0
 10
-16.18575284235575
 20
2.336536571471156
 30
0.0
 10
-15.87500000000004
 20
2.302218924271584
 30
0.0
1001
PE_URL
1000

  0
SPLINE
  5
24C
330
1F
100
AcDbEntity
  8
외형선
  6
Continuous
370
    15
100
AcDbSpline
210
0.0
220
0.0
230
1.0
 70
    24
 71
     3
 72
     8
 73
     4
 74
     0
 42
0.000000001
 43
0.00000001
 40
0.0
 40
0.0
 40
0.0
 40
0.0
 40
1.0
 40
1.0
 40
1.0
 40
1.0
 10
-15.87500000000001
 20
1.922159885162072
 30
0.0
 10
-15.87500000000001
 20
2.048846019421234
 30
0.0
 10
-15.87500000000001
 20
2.176346581891379
 30
0.0
 10
-15.87500000000001
 20
2.302218924271081
 30
0.0
  0
SPLINE
  5
24D
330
1F
100
AcDbEntity
  8
0
  6
Continuous
 62
     1
370
    15
100
AcDbSpline
210
0.0
220
0.0
230
1.0
 70
     8
 71
     3
 72
    16
 73
    12
 74
     0
 42
0.000000001
 43
0.00000001
 40
0.0
 40
0.0
 40
0.0
 40
0.0
 40
0.0977091411981396
 40
0.208183931872625
 40
0.3190843865459236
 40
0.4302008029866201
 40
0.5417468931971591
 40
0.6557209752172954
 40
0.7699294416678032
 40
0.8848449706340057
 40
0.9999999999999999
 40
0.9999999999999999
 40
0.9999999999999999
 40
0.9999999999999999
 10
-25.29843714806448
 20
-1.597227879204672
 30
0.0
 10
-25.40519011479678
 20
-1.64207455518232
 30
0.0
 10
-25.63264326893241
 20
-1.737627102487101
 30
0.0
 10
-25.98154325104986
 20
-1.868299840238942
 30
0.0
 10
-26.34400487239778
 20
-1.99217252145243
 30
0.0
 10
-26.70844822927558
 20
-2.099771370315833
 30
0.0
 10
-27.07657152040075
 20
-2.191762831201053
 30
0.0
 10
-27.44712103306448
 20
-2.267685703811762
 30
0.0
 10
-27.82173878331621
 20
-2.324957715352903
 30
0.0
 10
-28.1982605958481
 20
-2.364472545918422
 30
0.0
 10
-28.44933307757481
 20
-2.374312370107686
 30
0.0
 10
-28.57499999999991
 20
-2.379237403765555
 30
0.0
1001
PE_URL
1000

  0
SPLINE
  5
24E
330
1F
100
AcDbEntity
  8
0
  6
Continuous
 62
     1
370
    15
100
AcDbSpline
210
0.0
220
0.0
230
1.0
 70
    24
 71
     3
 72
    10
 73
     6
 74
     0
 42
0.000000001
 43
0.00000001
 40
0.0
 40
0.0
 40
0.0
 40
0.0
 40
0.5
 40
0.5
 40
1.0
 40
1.0
 40
1.0
 40
1.0
 10
-28.57500000000002
 20
-1.666874999999967
 30
0.0
 10
-28.57500000000002
 20
-1.767916811522383
 30
0.0
 10
-28.57500000000002
 20
-1.88533675398979
 30
0.0
 10
-28.57500000000002
 20
-2.131683477038004
 30
0.0
 10
-28.57500000000002
 20
-2.259981119002224
 30
0.0
 10
-28.57500000000002
 20
-2.379237403765557
 30
0.0
1001
PE_URL
1000

  0
ENDSEC
  0
SECTION
  2
OBJECTS
  0
DICTIONARY
  5
C
330
0
100
AcDbDictionary
281
     1
  3
ACAD_DETAILVIEWSTYLE
350
1BC
  3
ACAD_GROUP
350
D
  3
ACAD_IMAGE_VARS
350
272
  3
ACAD_LAYOUT
350
1A
  3
ACAD_MLINESTYLE
350
17
  3
ACAD_PLOTSETTINGS
350
19
  3
ACAD_PLOTSTYLENAME
350
E
  3
ACAD_SCALELIST
350
47
  3
ACAD_SECTIONVIEWSTYLE
350
1BD
  3
AcDbVariableDictionary
350
1B7
  3
APPDATA
350
159
  3
DWGPROPS
350
273
  0
DICTIONARY
  5
192
330
2
100
AcDbDictionary
280
     1
281
     1
  3
ACAD_LAYERSTATES
360
193
  0
DICTIONARY
  5
1BC
102
{ACAD_REACTORS
330
C
102
}
330
C
100
AcDbDictionary
281
     1
  0
DICTIONARY
  5
D
102
{ACAD_REACTORS
330
C
102
}
330
C
100
AcDbDictionary
281
     1
  0
RASTERVARIABLES
  5
272
102
{ACAD_REACTORS
330
C
102
}
330
C
100
AcDbRasterVariables
 90
        0
 70
     1
 71
     1
 72
     1
  0
DICTIONARY
  5
1A
102
{ACAD_REACTORS
330
C
102
}
330
C
100
AcDbDictionary
281
     1
  3
Layout1
350
1E
  3
Layout2
350
26
  3
Model
350
22
  0
DICTIONARY
  5
17
102
{ACAD_REACTORS
330
C
102
}
330
C
100
AcDbDictionary
281
     1
  3
Standard
350
18
  0
DICTIONARY
  5
19
102
{ACAD_REACTORS
330
C
102
}
330
C
100
AcDbDictionary
281
     1
  0
ACDBDICTIONARYWDFLT
  5
E
102
{ACAD_REACTORS
330
C
102
}
330
C
100
AcDbDictionary
281
     1
  3
Normal
350
F
100
AcDbDictionaryWithDefault
340
F
  0
DICTIONARY
  5
47
102
{ACAD_REACTORS
330
C
102
}
330
C
100
AcDbDictionary
281
     1
  3
A0
350
48
  3
A1
350
49
  3
A2
350
4A
  3
A3
350
4B
  3
A4
350
4C
  3
A5
350
4D
  3
A6
350
4E
  3
A7
350
4F
  3
A8
350
50
  3
A9
350
51
  3
B0
350
52
  3
B1
350
53
  3
B2
350
54
  3
B3
350
55
  3
B4
350
56
  3
B5
350
57
  3
B6
350
58
  3
B7
350
59
  3
B8
350
5A
  3
B9
350
5B
  3
C0
350
5C
  3
C1
350
5D
  3
C2
350
5E
  3
C3
350
5F
  3
C4
350
60
  3
C5
350
61
  3
C6
350
62
  3
C7
350
63
  3
C8
350
64
  3
C9
350
65
  3
D0
350
66
  3
D1
350
67
  3
D2
350
68
  0
DICTIONARY
  5
1BD
102
{ACAD_REACTORS
330
C
102
}
330
C
100
AcDbDictionary
281
     1
  0
DICTIONARY
  5
1B7
102
{ACAD_REACTORS
330
C
102
}
330
C
100
AcDbDictionary
281
     1
  0
DICTIONARY
  5
159
102
{ACAD_REACTORS
330
C
102
}
330
C
100
AcDbDictionary
281
     1
  0
XRECORD
  5
273
102
{ACAD_REACTORS
330
C
102
}
330
C
100
AcDbXrecord
280
     1
  1
DWGPROPS COOKIE
  2

  3

  4

  6

  7

  8
12016016
  9

300
=
301
=
302
=
303
=
304
=
305
=
306
=
307
=
308
=
309
=
 40
0.0
 41
2458313.016652176
 42
2458318.278810509
  1

 90
        0
  0
DICTIONARY
  5
193
102
{ACAD_REACTORS
330
192
102
}
330
192
100
AcDbDictionary
281
     1
  0
LAYOUT
  5
1E
102
{ACAD_REACTORS
330
1A
102
}
330
1A
100
AcDbPlotSettings
  1

  2
none_device
  4

  6

 40
0.0
 41
0.0
 42
0.0
 43
0.0
 44
0.0
 45
0.0
 46
0.0
 47
0.0
 48
0.0
 49
0.0
140
0.0
141
0.0
142
1.0
143
1.0
 70
   688
 72
     1
 73
     0
 74
     5
  7

 75
    16
147
1.0
148
0.0
149
0.0
100
AcDbLayout
  1
Layout1
 70
     1
 71
     1
 10
0.0
 20
0.0
 11
420.0
 21
297.0
 12
0.0
 22
0.0
 32
0.0
 14
1.000000000000000E+20
 24
1.000000000000000E+20
 34
1.000000000000000E+20
 15
-1.000000000000000E+20
 25
-1.000000000000000E+20
 35
-1.000000000000000E+20
146
0.0
 13
0.0
 23
0.0
 33
0.0
 16
1.0
 26
0.0
 36
0.0
 17
0.0
 27
1.0
 37
0.0
 76
     0
330
1B
  0
LAYOUT
  5
26
102
{ACAD_REACTORS
330
1A
102
}
330
1A
100
AcDbPlotSettings
  1

  2
none_device
  4

  6

 40
0.0
 41
0.0
 42
0.0
 43
0.0
 44
0.0
 45
0.0
 46
0.0
 47
0.0
 48
0.0
 49
0.0
140
0.0
141
0.0
142
1.0
143
1.0
 70
   688
 72
     1
 73
     0
 74
     5
  7

 75
    16
147
1.0
148
0.0
149
0.0
100
AcDbLayout
  1
Layout2
 70
     1
 71
     2
 10
0.0
 20
0.0
 11
0.0
 21
0.0
 12
0.0
 22
0.0
 32
0.0
 14
0.0
 24
0.0
 34
0.0
 15
0.0
 25
0.0
 35
0.0
146
0.0
 13
0.0
 23
0.0
 33
0.0
 16
1.0
 26
0.0
 36
0.0
 17
0.0
 27
1.0
 37
0.0
 76
     0
330
23
  0
LAYOUT
  5
22
102
{ACAD_REACTORS
330
1A
102
}
330
1A
100
AcDbPlotSettings
  1

  2
none_device
  4
ANSI_A_(11.00_x_8.50_Inches)
  6

 40
6.35
 41
19.05
 42
6.35000508
 43
19.05000254
 44
279.4
 45
215.9
 46
71.01408976598276
 47
77.72560898361783
 48
0.0
 49
0.0
140
0.0
141
0.0
142
0.0517112847516924
143
1.0
 70
  1696
 72
     0
 73
     0
 74
     0
  7

 75
     0
147
0.0235690232323232
148
0.0
149
0.0
100
AcDbLayout
  1
Model
 70
     1
 71
     0
 10
0.0
 20
0.0
 11
420.0
 21
297.0
 12
0.0
 22
0.0
 32
0.0
 14
-42.9500000000001
 24
-49.97180738881174
 34
0.0
 15
86.68162503295505
 25
36.98524999999997
 35
0.0
146
0.0
 13
0.0
 23
0.0
 33
0.0
 16
1.0
 26
0.0
 36
0.0
 17
0.0
 27
1.0
 37
0.0
 76
     0
330
1F
331
29
  0
MLINESTYLE
  5
18
102
{ACAD_REACTORS
330
17
102
}
330
17
100
AcDbMlineStyle
  2
Standard
 70
     0
  3

 62
   256
 51
90.0
 52
90.0
 71
     2
 49
0.5
 62
   256
  6
BYLAYER
 49
-0.5
 62
   256
  6
BYLAYER
  0
ACDBPLACEHOLDER
  5
F
102
{ACAD_REACTORS
330
E
102
}
330
E
  0
SCALE
  5
48
102
{ACAD_REACTORS
330
47
102
}
330
47
100
AcDbScale
 70
     0
300
1:1
140
1.0
141
1.0
290
     1
  0
SCALE
  5
49
102
{ACAD_REACTORS
330
47
102
}
330
47
100
AcDbScale
 70
     0
300
1:2
140
1.0
141
2.0
290
     0
  0
SCALE
  5
4A
102
{ACAD_REACTORS
330
47
102
}
330
47
100
AcDbScale
 70
     0
300
1:4
140
1.0
141
4.0
290
     0
  0
SCALE
  5
4B
102
{ACAD_REACTORS
330
47
102
}
330
47
100
AcDbScale
 70
     0
300
1:5
140
1.0
141
5.0
290
     0
  0
SCALE
  5
4C
102
{ACAD_REACTORS
330
47
102
}
330
47
100
AcDbScale
 70
     0
300
1:8
140
1.0
141
8.0
290
     0
  0
SCALE
  5
4D
102
{ACAD_REACTORS
330
47
102
}
330
47
100
AcDbScale
 70
     0
300
1:10
140
1.0
141
10.0
290
     0
  0
SCALE
  5
4E
102
{ACAD_REACTORS
330
47
102
}
330
47
100
AcDbScale
 70
     0
300
1:16
140
1.0
141
16.0
290
     0
  0
SCALE
  5
4F
102
{ACAD_REACTORS
330
47
102
}
330
47
100
AcDbScale
 70
     0
300
1:20
140
1.0
141
20.0
290
     0
  0
SCALE
  5
50
102
{ACAD_REACTORS
330
47
102
}
330
47
100
AcDbScale
 70
     0
300
1:30
140
1.0
141
30.0
290
     0
  0
SCALE
  5
51
102
{ACAD_REACTORS
330
47
102
}
330
47
100
AcDbScale
 70
     0
300
1:40
140
1.0
141
40.0
290
     0
  0
SCALE
  5
52
102
{ACAD_REACTORS
330
47
102
}
330
47
100
AcDbScale
 70
     0
300
1:50
140
1.0
141
50.0
290
     0
  0
SCALE
  5
53
102
{ACAD_REACTORS
330
47
102
}
330
47
100
AcDbScale
 70
     0
300
1:100
140
1.0
141
100.0
290
     0
  0
SCALE
  5
54
102
{ACAD_REACTORS
330
47
102
}
330
47
100
AcDbScale
 70
     0
300
2:1
140
2.0
141
1.0
290
     0
  0
SCALE
  5
55
102
{ACAD_REACTORS
330
47
102
}
330
47
100
AcDbScale
 70
     0
300
4:1
140
4.0
141
1.0
290
     0
  0
SCALE
  5
56
102
{ACAD_REACTORS
330
47
102
}
330
47
100
AcDbScale
 70
     0
300
8:1
140
8.0
141
1.0
290
     0
  0
SCALE
  5
57
102
{ACAD_REACTORS
330
47
102
}
330
47
100
AcDbScale
 70
     0
300
10:1
140
10.0
141
1.0
290
     0
  0
SCALE
  5
58
102
{ACAD_REACTORS
330
47
102
}
330
47
100
AcDbScale
 70
     0
300
100:1
140
100.0
141
1.0
290
     0
  0
SCALE
  5
59
102
{ACAD_REACTORS
330
47
102
}
330
47
100
AcDbScale
 70
     0
300
1/128" = 1'-0"
140
0.0078125
141
12.0
290
     0
  0
SCALE
  5
5A
102
{ACAD_REACTORS
330
47
102
}
330
47
100
AcDbScale
 70
     0
300
1/64" = 1'-0"
140
0.015625
141
12.0
290
     0
  0
SCALE
  5
5B
102
{ACAD_REACTORS
330
47
102
}
330
47
100
AcDbScale
 70
     0
300
1/32" = 1'-0"
140
0.03125
141
12.0
290
     0
  0
SCALE
  5
5C
102
{ACAD_REACTORS
330
47
102
}
330
47
100
AcDbScale
 70
     0
300
1/16" = 1'-0"
140
0.0625
141
12.0
290
     0
  0
SCALE
  5
5D
102
{ACAD_REACTORS
330
47
102
}
330
47
100
AcDbScale
 70
     0
300
3/32" = 1'-0"
140
0.09375
141
12.0
290
     0
  0
SCALE
  5
5E
102
{ACAD_REACTORS
330
47
102
}
330
47
100
AcDbScale
 70
     0
300
1/8" = 1'-0"
140
0.125
141
12.0
290
     0
  0
SCALE
  5
5F
102
{ACAD_REACTORS
330
47
102
}
330
47
100
AcDbScale
 70
     0
300
3/16" = 1'-0"
140
0.1875
141
12.0
290
     0
  0
SCALE
  5
60
102
{ACAD_REACTORS
330
47
102
}
330
47
100
AcDbScale
 70
     0
300
1/4" = 1'-0"
140
0.25
141
12.0
290
     0
  0
SCALE
  5
61
102
{ACAD_REACTORS
330
47
102
}
330
47
100
AcDbScale
 70
     0
300
3/8" = 1'-0"
140
0.375
141
12.0
290
     0
  0
SCALE
  5
62
102
{ACAD_REACTORS
330
47
102
}
330
47
100
AcDbScale
 70
     0
300
1/2" = 1'-0"
140
0.5
141
12.0
290
     0
  0
SCALE
  5
63
102
{ACAD_REACTORS
330
47
102
}
330
47
100
AcDbScale
 70
     0
300
3/4" = 1'-0"
140
0.75
141
12.0
290
     0
  0
SCALE
  5
64
102
{ACAD_REACTORS
330
47
102
}
330
47
100
AcDbScale
 70
     0
300
1" = 1'-0"
140
1.0
141
12.0
290
     0
  0
SCALE
  5
65
102
{ACAD_REACTORS
330
47
102
}
330
47
100
AcDbScale
 70
     0
300
1-1/2" = 1'-0"
140
1.5
141
12.0
290
     0
  0
SCALE
  5
66
102
{ACAD_REACTORS
330
47
102
}
330
47
100
AcDbScale
 70
     0
300
3" = 1'-0"
140
3.0
141
12.0
290
     0
  0
SCALE
  5
67
102
{ACAD_REACTORS
330
47
102
}
330
47
100
AcDbScale
 70
     0
300
6" = 1'-0"
140
6.0
141
12.0
290
     0
  0
SCALE
  5
68
102
{ACAD_REACTORS
330
47
102
}
330
47
100
AcDbScale
 70
     0
300
1'-0" = 1'-0"
140
12.0
141
12.0
290
     0
  0
ENDSEC
  0
EOF
