  0
SECTION
  2
HEADER
  9
$ACADVER
  1
AC1015
  9
$ACADMAINTVER
 70
     6
  9
$DWGCODEPAGE
  3
ANSI_949
  9
$INSBASE
 10
0.0
 20
0.0
 30
0.0
  9
$EXTMIN
 10
-42.95000000000011
 20
-49.97180738881175
 30
0.0
  9
$EXTMAX
 10
92.3384838153456
 20
38.73530345637154
 30
0.0
  9
$LIMMIN
 10
0.0
 20
0.0
  9
$LIMMAX
 10
420.0
 20
297.0
  9
$ORTHOMODE
 70
     1
  9
$REGENMODE
 70
     1
  9
$FILLMODE
 70
     1
  9
$QTEXTMODE
 70
     0
  9
$MIRRTEXT
 70
     1
  9
$LTSCALE
 40
1.0
  9
$ATTMODE
 70
     1
  9
$TEXTSIZE
 40
3.5
  9
$TRACEWID
 40
1.0
  9
$TEXTSTYLE
  7
Standard
  9
$CLAYER
  8
0
  9
$CELTYPE
  6
ByLayer
  9
$CECOLOR
 62
   256
  9
$CELTSCALE
 40
1.0
  9
$DISPSILH
 70
     0
  9
$DIMSCALE
 40
1.0
  9
$DIMASZ
 40
3.302
  9
$DIMEXO
 40
1.0
  9
$DIMDLI
 40
3.75
  9
$DIMRND
 40
0.0
  9
$DIMDLE
 40
0.0
  9
$DIMEXE
 40
1.0
  9
$DIMTP
 40
0.0
  9
$DIMTM
 40
0.0
  9
$DIMTXT
 40
3.5
  9
$DIMCEN
 40
2.5
  9
$DIMTSZ
 40
0.0
  9
$DIMTOL
 70
     0
  9
$DIMLIM
 70
     0
  9
$DIMTIH
 70
     1
  9
$DIMTOH
 70
     1
  9
$DIMSE1
 70
     0
  9
$DIMSE2
 70
     0
  9
$DIMTAD
 70
     1
  9
$DIMZIN
 70
     0
  9
$DIMBLK
  1

  9
$DIMASO
 70
     1
  9
$DIMSHO
 70
     1
  9
$DIMPOST
  1

  9
$DIMAPOST
  1

  9
$DIMALT
 70
     0
  9
$DIMALTD
 70
     3
  9
$DIMALTF
 40
0.0393700787401575
  9
$DIMLFAC
 40
1.0
  9
$DIMTOFL
 70
     1
  9
$DIMTVP
 40
0.0
  9
$DIMTIX
 70
     0
  9
$DIMSOXD
 70
     0
  9
$DIMSAH
 70
     0
  9
$DIMBLK1
  1

  9
$DIMBLK2
  1

  9
$DIMSTYLE
  2
ISO-25
  9
$DIMCLRD
 70
     0
  9
$DIMCLRE
 70
     0
  9
$DIMCLRT
 70
     0
  9
$DIMTFAC
 40
1.0
  9
$DIMGAP
 40
1.524
  9
$DIMJUST
 70
     0
  9
$DIMSD1
 70
     0
  9
$DIMSD2
 70
     0
  9
$DIMTOLJ
 70
     0
  9
$DIMTZIN
 70
     0
  9
$DIMALTZ
 70
     0
  9
$DIMALTTZ
 70
     0
  9
$DIMUPT
 70
     0
  9
$DIMDEC
 70
     2
  9
$DIMTDEC
 70
     2
  9
$DIMALTU
 70
     2
  9
$DIMALTTD
 70
     3
  9
$DIMTXSTY
  7
Standard
  9
$DIMAUNIT
 70
     0
  9
$DIMADEC
 70
     2
  9
$DIMALTRND
 40
0.0
  9
$DIMAZIN
 70
     0
  9
$DIMDSEP
 70
    44
  9
$DIMATFIT
 70
     3
  9
$DIMFRAC
 70
     0
  9
$DIMLDRBLK
  1

  9
$DIMLUNIT
 70
     2
  9
$DIMLWD
 70
    -2
  9
$DIMLWE
 70
    -2
  9
$DIMTMOVE
 70
     0
  9
$LUNITS
 70
     2
  9
$LUPREC
 70
     2
  9
$SKETCHINC
 40
1.0
  9
$FILLETRAD
 40
10.0
  9
$AUNITS
 70
     0
  9
$AUPREC
 70
     2
  9
$MENU
  1
.
  9
$ELEVATION
 40
0.0
  9
$PELEVATION
 40
0.0
  9
$THICKNESS
 40
0.0
  9
$LIMCHECK
 70
     0
  9
$CHAMFERA
 40
0.0
  9
$CHAMFERB
 40
0.0
  9
$CHAMFERC
 40
0.0
  9
$CHAMFERD
 40
0.0
  9
$SKPOLY
 70
     0
  9
$TDCREATE
 40
2458313.458952315
  9
$TDUCREATE
 40
2458313.083952315
  9
$TDUPDATE
 40
2458318.657530324
  9
$TDUUPDATE
 40
2458318.282530324
  9
$TDINDWG
 40
0.0021780208
  9
$TDUSRTIMER
 40
2458318.282447002
  9
$USRTIMER
 70
     1
  9
$ANGBASE
 50
0.0
  9
$ANGDIR
 70
     0
  9
$PDMODE
 70
     0
  9
$PDSIZE
 40
-1.0
  9
$PLINEWID
 40
0.0
  9
$SPLFRAME
 70
     0
  9
$SPLINETYPE
 70
     6
  9
$SPLINESEGS
 70
     8
  9
$HANDSEED
  5
217
  9
$SURFTAB1
 70
     6
  9
$SURFTAB2
 70
     6
  9
$SURFTYPE
 70
     6
  9
$SURFU
 70
     6
  9
$SURFV
 70
     6
  9
$UCSBASE
  2

  9
$UCSNAME
  2

  9
$UCSORG
 10
0.0
 20
0.0
 30
0.0
  9
$UCSXDIR
 10
1.0
 20
0.0
 30
0.0
  9
$UCSYDIR
 10
0.0
 20
1.0
 30
0.0
  9
$UCSORTHOREF
  2

  9
$UCSORTHOVIEW
 70
     0
  9
$UCSORGTOP
 10
0.0
 20
0.0
 30
0.0
  9
$UCSORGBOTTOM
 10
0.0
 20
0.0
 30
0.0
  9
$UCSORGLEFT
 10
0.0
 20
0.0
 30
0.0
  9
$UCSORGRIGHT
 10
0.0
 20
0.0
 30
0.0
  9
$UCSORGFRONT
 10
0.0
 20
0.0
 30
0.0
  9
$UCSORGBACK
 10
0.0
 20
0.0
 30
0.0
  9
$PUCSBASE
  2

  9
$PUCSNAME
  2

  9
$PUCSORG
 10
0.0
 20
0.0
 30
0.0
  9
$PUCSXDIR
 10
1.0
 20
0.0
 30
0.0
  9
$PUCSYDIR
 10
0.0
 20
1.0
 30
0.0
  9
$PUCSORTHOREF
  2

  9
$PUCSORTHOVIEW
 70
     0
  9
$PUCSORGTOP
 10
0.0
 20
0.0
 30
0.0
  9
$PUCSORGBOTTOM
 10
0.0
 20
0.0
 30
0.0
  9
$PUCSORGLEFT
 10
0.0
 20
0.0
 30
0.0
  9
$PUCSORGRIGHT
 10
0.0
 20
0.0
 30
0.0
  9
$PUCSORGFRONT
 10
0.0
 20
0.0
 30
0.0
  9
$PUCSORGBACK
 10
0.0
 20
0.0
 30
0.0
  9
$USERI1
 70
     0
  9
$USERI2
 70
     0
  9
$USERI3
 70
     0
  9
$USERI4
 70
     0
  9
$USERI5
 70
     0
  9
$USERR1
 40
0.0
  9
$USERR2
 40
0.0
  9
$USERR3
 40
0.0
  9
$USERR4
 40
0.0
  9
$USERR5
 40
0.0
  9
$WORLDVIEW
 70
     1
  9
$SHADEDGE
 70
     3
  9
$SHADEDIF
 70
    70
  9
$TILEMODE
 70
     1
  9
$MAXACTVP
 70
    64
  9
$PINSBASE
 10
0.0
 20
0.0
 30
0.0
  9
$PLIMCHECK
 70
     0
  9
$PEXTMIN
 10
1.000000000000000E+20
 20
1.000000000000000E+20
 30
1.000000000000000E+20
  9
$PEXTMAX
 10
-1.000000000000000E+20
 20
-1.000000000000000E+20
 30
-1.000000000000000E+20
  9
$PLIMMIN
 10
0.0
 20
0.0
  9
$PLIMMAX
 10
0.0
 20
0.0
  9
$UNITMODE
 70
     0
  9
$VISRETAIN
 70
     1
  9
$PLINEGEN
 70
     0
  9
$PSLTSCALE
 70
     1
  9
$TREEDEPTH
 70
  3020
  9
$CMLSTYLE
  2
Standard
  9
$CMLJUST
 70
     0
  9
$CMLSCALE
 40
20.0
  9
$PROXYGRAPHICS
 70
     1
  9
$MEASUREMENT
 70
     1
  9
$CELWEIGHT
370
    -1
  9
$ENDCAPS
280
     0
  9
$JOINSTYLE
280
     0
  9
$LWDISPLAY
290
     1
  9
$INSUNITS
 70
     4
  9
$HYPERLINKBASE
  1

  9
$STYLESHEET
  1

  9
$XEDIT
290
     1
  9
$CEPSNTYPE
380
     0
  9
$PSTYLEMODE
290
     1
  9
$FINGERPRINTGUID
  2
{BBD5798E-236B-4613-877D-249F26ECBE11}
  9
$VERSIONGUID
  2
{FAEB1C32-E019-11D5-929B-00C0DF256EC4}
  9
$EXTNAMES
290
     1
  9
$PSVPSCALE
 40
0.0
  9
$OLESTARTUP
290
     0
  0
ENDSEC
  0
SECTION
  2
CLASSES
  0
CLASS
  1
ACDBDICTIONARYWDFLT
  2
AcDbDictionaryWithDefault
  3
ObjectDBX Classes
 90
        0
280
     0
281
     0
  0
CLASS
  1
VISUALSTYLE
  2
AcDbVisualStyle
  3
ObjectDBX Classes
 90
     4095
280
     0
281
     0
  0
CLASS
  1
MATERIAL
  2
AcDbMaterial
  3
ObjectDBX Classes
 90
     1153
280
     0
281
     0
  0
CLASS
  1
SCALE
  2
AcDbScale
  3
ObjectDBX Classes
 90
     1153
280
     0
281
     0
  0
CLASS
  1
SUN
  2
AcDbSun
  3
SCENEOE
 90
     1153
280
     0
281
     0
  0
CLASS
  1
ACDBPLACEHOLDER
  2
AcDbPlaceHolder
  3
ObjectDBX Classes
 90
        0
280
     0
281
     0
  0
CLASS
  1
LAYOUT
  2
AcDbLayout
  3
ObjectDBX Classes
 90
        0
280
     0
281
     0
  0
CLASS
  1
TABLESTYLE
  2
AcDbTableStyle
  3
ObjectDBX Classes
 90
     4095
280
     0
281
     0
  0
CLASS
  1
MLEADERSTYLE
  2
AcDbMLeaderStyle
  3
ACDB_MLEADERSTYLE_CLASS
 90
     4095
280
     0
281
     0
  0
CLASS
  1
DICTIONARYVAR
  2
AcDbDictionaryVar
  3
ObjectDBX Classes
 90
        0
280
     0
281
     0
  0
CLASS
  1
RASTERVARIABLES
  2
AcDbRasterVariables
  3
ISM
 90
        0
280
     0
281
     0
  0
ENDSEC
  0
SECTION
  2
TABLES
  0
TABLE
  2
VPORT
  5
8
330
0
100
AcDbSymbolTable
 70
     1
  0
VPORT
  5
29
330
8
100
AcDbSymbolTableRecord
100
AcDbViewportTableRecord
  2
*Active
 70
     0
 10
0.0
 20
0.0
 11
1.0
 21
1.0
 12
24.69424190767274
 22
-5.6182519662201
 13
0.0
 23
0.0
 14
10.0
 24
10.0
 15
10.0
 25
10.0
 16
0.0
 26
0.0
 36
1.0
 17
0.0
 27
0.0
 37
0.0
 40
90.48125306208695
 41
1.782762691853601
 42
50.0
 43
0.0
 44
0.0
 50
0.0
 51
0.0
 71
    16
 72
  2000
 73
     1
 74
     3
 75
     0
 76
     0
 77
     0
 78
     0
281
     0
 65
     1
110
0.0
120
0.0
130
0.0
111
1.0
121
0.0
131
0.0
112
0.0
122
1.0
132
0.0
 79
     0
146
0.0
  0
ENDTAB
  0
TABLE
  2
LTYPE
  5
5
330
0
100
AcDbSymbolTable
 70
     6
  0
LTYPE
  5
14
330
5
100
AcDbSymbolTableRecord
100
AcDbLinetypeTableRecord
  2
ByBlock
 70
     0
  3

 72
    65
 73
     0
 40
0.0
  0
LTYPE
  5
15
330
5
100
AcDbSymbolTableRecord
100
AcDbLinetypeTableRecord
  2
ByLayer
 70
     0
  3

 72
    65
 73
     0
 40
0.0
  0
LTYPE
  5
16
330
5
100
AcDbSymbolTableRecord
100
AcDbLinetypeTableRecord
  2
Continuous
 70
     0
  3
Solid line
 72
    65
 73
     0
 40
0.0
  0
LTYPE
  5
6A
330
5
100
AcDbSymbolTableRecord
100
AcDbLinetypeTableRecord
  2
HIDDEN
 70
     0
  3
Hidden __ __ __ __ __ __ __ __ __ __ __ __ __ __
 72
    65
 73
     2
 40
1.905
 49
1.27
 74
     0
 49
-0.635
 74
     0
  0
LTYPE
  5
6B
330
5
100
AcDbSymbolTableRecord
100
AcDbLinetypeTableRecord
  2
PHANTOM
 70
     0
  3
Phantom ______  __  __  ______  __  __  ______
 72
    65
 73
     6
 40
12.7
 49
6.35
 74
     0
 49
-1.27
 74
     0
 49
1.27
 74
     0
 49
-1.27
 74
     0
 49
1.27
 74
     0
 49
-1.27
 74
     0
  0
LTYPE
  5
6C
330
5
100
AcDbSymbolTableRecord
100
AcDbLinetypeTableRecord
  2
CENTER
 70
     0
  3
Center ____ _ ____ _ ____ _ ____ _ ____ _ ____
 72
    65
 73
     4
 40
10.16
 49
6.35
 74
     0
 49
-1.27
 74
     0
 49
1.27
 74
     0
 49
-1.27
 74
     0
  0
LTYPE
  5
6D
330
5
100
AcDbSymbolTableRecord
100
AcDbLinetypeTableRecord
  2
CENTERX2
 70
     0
  3
Center (2x) ________  __  ________  __  _____
 72
    65
 73
     4
 40
20.32
 49
12.7
 74
     0
 49
-2.54
 74
     0
 49
2.54
 74
     0
 49
-2.54
 74
     0
  0
LTYPE
  5
6E
330
5
100
AcDbSymbolTableRecord
100
AcDbLinetypeTableRecord
  2
DOT2
 70
     0
  3
Dot (.5x) ........................................
 72
    65
 73
     2
 40
0.635
 49
0.0
 74
     0
 49
-0.635
 74
     0
  0
ENDTAB
  0
TABLE
  2
LAYER
  5
2
102
{ACAD_XDICTIONARY
360
182
102
}
330
0
100
AcDbSymbolTable
 70
    18
  0
LAYER
  5
10
330
2
100
AcDbSymbolTableRecord
100
AcDbLayerTableRecord
  2
0
 70
     0
 62
     7
  6
Continuous
370
    -3
390
F
  0
LAYER
  5
6F
330
2
100
AcDbSymbolTableRecord
100
AcDbLayerTableRecord
  2
FORMAT
 70
     0
 62
     2
  6
Continuous
370
    -3
390
F
  0
LAYER
  5
70
330
2
100
AcDbSymbolTableRecord
100
AcDbLayerTableRecord
  2
외형선
 70
     0
 62
     4
  6
Continuous
370
    30
390
F
  0
LAYER
  5
71
330
2
100
AcDbSymbolTableRecord
100
AcDbLayerTableRecord
  2
숨은선
 70
     0
 62
     2
  6
HIDDEN
370
    15
390
F
  0
LAYER
  5
72
330
2
100
AcDbSymbolTableRecord
100
AcDbLayerTableRecord
  2
중심선
 70
     0
 62
     1
  6
CENTERX2
370
    -3
390
F
  0
LAYER
  5
73
330
2
100
AcDbSymbolTableRecord
100
AcDbLayerTableRecord
  2
파단선
 70
     0
 62
     4
  6
Continuous
370
    -3
390
F
  0
LAYER
  5
74
330
2
100
AcDbSymbolTableRecord
100
AcDbLayerTableRecord
  2
해칭선
 70
     0
 62
   100
  6
Continuous
370
    -3
390
F
  0
LAYER
  5
75
330
2
100
AcDbSymbolTableRecord
100
AcDbLayerTableRecord
  2
가는실선
 70
     0
 62
     4
  6
Continuous
370
    -3
390
F
  0
LAYER
  5
76
330
2
100
AcDbSymbolTableRecord
100
AcDbLayerTableRecord
  2
치수_보조선
 70
     0
 62
     4
  6
Continuous
370
    -3
390
F
  0
LAYER
  5
77
330
2
100
AcDbSymbolTableRecord
100
AcDbLayerTableRecord
  2
치수문자_일반주서
 70
     0
 62
     7
  6
Continuous
370
    15
390
F
  0
LAYER
  5
78
330
2
100
AcDbSymbolTableRecord
100
AcDbLayerTableRecord
  2
개별주서
 70
     0
 62
   100
  6
Continuous
370
    30
390
F
  0
LAYER
  5
79
330
2
100
AcDbSymbolTableRecord
100
AcDbLayerTableRecord
  2
중간선
 70
     0
 62
     2
  6
Continuous
370
    15
390
F
  0
LAYER
  5
7A
330
2
100
AcDbSymbolTableRecord
100
AcDbLayerTableRecord
  2
윤곽선
 70
     0
 62
     3
  6
Continuous
370
    40
390
F
  0
LAYER
  5
7B
330
2
100
AcDbSymbolTableRecord
100
AcDbLayerTableRecord
  2
중심마크
 70
     0
 62
   100
  6
Continuous
370
    30
390
F
  0
LAYER
  5
7C
330
2
100
AcDbSymbolTableRecord
100
AcDbLayerTableRecord
  2
가상선
 70
     0
 62
     4
  6
PHANTOM
370
    -3
390
F
  0
LAYER
  5
7D
330
2
100
AcDbSymbolTableRecord
100
AcDbLayerTableRecord
  2
특수지정선
 70
     0
 62
     5
  6
CENTERX2
370
    60
390
F
  0
LAYER
  5
7E
330
2
100
AcDbSymbolTableRecord
100
AcDbLayerTableRecord
  2
참조1
 70
     0
 62
    -4
  6
Continuous
370
    -3
390
F
  0
LAYER
  5
14B
330
2
100
AcDbSymbolTableRecord
100
AcDbLayerTableRecord
  2
Defpoints
 70
     0
 62
     7
  6
Continuous
290
     0
370
    -3
390
F
  0
ENDTAB
  0
TABLE
  2
STYLE
  5
3
330
0
100
AcDbSymbolTable
 70
     2
  0
STYLE
  5
11
330
3
100
AcDbSymbolTableRecord
100
AcDbTextStyleTableRecord
  2
Standard
 70
     0
 40
0.0
 41
1.0
 50
0.0
 71
     0
 42
3.5
  3
txt
  4

  0
STYLE
  5
94
330
3
100
AcDbSymbolTableRecord
100
AcDbTextStyleTableRecord
  2
SLDTEXTSTYLE0
 70
     0
 40
0.0
 41
0.75
 50
0.0
 71
     0
 42
3.5
  3
TXT
  4

  0
ENDTAB
  0
TABLE
  2
VIEW
  5
6
330
0
100
AcDbSymbolTable
 70
     0
  0
ENDTAB
  0
TABLE
  2
UCS
  5
7
330
0
100
AcDbSymbolTable
 70
     0
  0
ENDTAB
  0
TABLE
  2
APPID
  5
9
330
0
100
AcDbSymbolTable
 70
     2
  0
APPID
  5
12
330
9
100
AcDbSymbolTableRecord
100
AcDbRegAppTableRecord
  2
ACAD
 70
     0
  0
APPID
  5
152
330
9
100
AcDbSymbolTableRecord
100
AcDbRegAppTableRecord
  2
PE_URL
 70
     0
  0
ENDTAB
  0
TABLE
  2
DIMSTYLE
  5
A
330
0
100
AcDbSymbolTable
 70
     4
100
AcDbDimStyleTable
  0
DIMSTYLE
105
27
330
A
100
AcDbSymbolTableRecord
100
AcDbDimStyleTableRecord
  2
ISO-25
 70
     0
 41
2.5
 42
0.625
 43
3.75
 44
1.25
 73
     0
 74
     0
 77
     1
 78
     8
140
2.5
141
2.5
143
0.03937007874016
147
0.625
171
     3
172
     1
178
     0
271
     2
272
     2
274
     3
278
    44
283
     0
284
     8
340
11
  0
DIMSTYLE
105
C9
102
{ACAD_REACTORS
330
C8
330
106
330
DD
330
F2
102
}
330
A
100
AcDbSymbolTableRecord
100
AcDbDimStyleTableRecord
  2
SLDDIMSTYLE0
 70
     0
 41
3.302
 44
0.0
 45
0.000000001
 73
     0
 74
     0
 77
     1
 78
    12
 79
     3
140
3.5
143
0.0393700787401575
147
0.875
148
0.000000001
170
     1
172
     1
173
     1
178
     0
271
     2
272
     2
276
     2
284
    12
289
     0
340
94
  0
DIMSTYLE
105
DE
330
A
100
AcDbSymbolTableRecord
100
AcDbDimStyleTableRecord
  2
SLDDIMSTYLE1
 70
     0
 41
3.302
 44
0.0
 45
0.000000001
 73
     0
 74
     0
 77
     1
 78
     4
 79
     1
140
3.5
143
0.0393700787401575
147
0.875
148
0.000000001
170
     1
173
     1
178
     0
271
     2
272
     2
276
     2
284
    12
340
94
  0
DIMSTYLE
105
F3
330
A
100
AcDbSymbolTableRecord
100
AcDbDimStyleTableRecord
  2
SLDDIMSTYLE2
 70
     0
 41
3.302
 44
0.0
 45
0.000000001
 73
     0
 74
     0
 77
     1
 78
    12
 79
     3
140
3.5
143
0.0393700787401575
147
0.875
148
0.000000001
170
     1
173
     1
178
     0
271
     2
272
     2
276
     2
284
    12
340
94
  0
ENDTAB
  0
TABLE
  2
BLOCK_RECORD
  5
1
330
0
100
AcDbSymbolTable
 70
     9
  0
BLOCK_RECORD
  5
1F
330
1
100
AcDbSymbolTableRecord
100
AcDbBlockTableRecord
  2
*Model_Space
340
22
  0
BLOCK_RECORD
  5
1B
330
1
100
AcDbSymbolTableRecord
100
AcDbBlockTableRecord
  2
*Paper_Space
340
1E
  0
BLOCK_RECORD
  5
23
330
1
100
AcDbSymbolTableRecord
100
AcDbBlockTableRecord
  2
*Paper_Space0
340
26
  0
BLOCK_RECORD
  5
7F
330
1
100
AcDbSymbolTableRecord
100
AcDbBlockTableRecord
  2
블럭10
340
0
102
{BLKREFS
331
C1
102
}
  0
BLOCK_RECORD
  5
CA
330
1
100
AcDbSymbolTableRecord
100
AcDbBlockTableRecord
  2
_D
340
0
  0
BLOCK_RECORD
  5
DF
330
1
100
AcDbSymbolTableRecord
100
AcDbBlockTableRecord
  2
_D_1
340
0
  0
BLOCK_RECORD
  5
F4
330
1
100
AcDbSymbolTableRecord
100
AcDbBlockTableRecord
  2
_D_2
340
0
  0
BLOCK_RECORD
  5
107
330
1
100
AcDbSymbolTableRecord
100
AcDbBlockTableRecord
  2
_D_3
340
0
  0
BLOCK_RECORD
  5
121
330
1
100
AcDbSymbolTableRecord
100
AcDbBlockTableRecord
  2
SW_DOWELSYMBOL_0
340
0
102
{BLKREFS
331
127
102
}
  0
BLOCK_RECORD
  5
186
330
1
100
AcDbSymbolTableRecord
100
AcDbBlockTableRecord
  2
*D7
340
0
  0
BLOCK_RECORD
  5
198
330
1
100
AcDbSymbolTableRecord
100
AcDbBlockTableRecord
  2
*D8
340
0
  0
ENDTAB
  0
ENDSEC
  0
SECTION
  2
BLOCKS
  0
BLOCK
  5
20
330
1F
100
AcDbEntity
  8
0
100
AcDbBlockBegin
  2
*Model_Space
 70
     0
 10
0.0
 20
0.0
 30
0.0
  3
*Model_Space
  1
*Model_Space
  0
ENDBLK
  5
21
330
1F
100
AcDbEntity
  8
0
100
AcDbBlockEnd
  0
BLOCK
  5
1C
330
1B
100
AcDbEntity
 67
     1
  8
0
100
AcDbBlockBegin
  2
*Paper_Space
 70
     0
 10
0.0
 20
0.0
 30
0.0
  3
*Paper_Space
  1
*Paper_Space
  0
ENDBLK
  5
1D
330
1B
100
AcDbEntity
 67
     1
  8
0
100
AcDbBlockEnd
  0
BLOCK
  5
24
330
23
100
AcDbEntity
  8
0
100
AcDbBlockBegin
  2
*Paper_Space0
 70
     0
 10
0.0
 20
0.0
 30
0.0
  3
*Paper_Space0
  1
*Paper_Space0
  0
ENDBLK
  5
25
330
23
100
AcDbEntity
  8
0
100
AcDbBlockEnd
  0
BLOCK
  5
80
330
7F
100
AcDbEntity
  8
0
100
AcDbBlockBegin
  2
블럭10
 70
     2
 10
0.0
 20
0.0
 30
0.0
  3
블럭10
  1
블럭10
  0
ELLIPSE
  5
82
330
7F
100
AcDbEntity
  8
중심선
100
AcDbEllipse
 10
20.54032771741204
 20
12.0471743016438
 30
0.0
 11
6.600054785286829
 21
-1.261213355974178E-13
 31
0.0
210
0.0
220
0.0
230
1.0
 40
0.636358354079598
 41
0.9219305317359503
 42
6.513795318482858
  0
ELLIPSE
  5
83
330
7F
100
AcDbEntity
  8
중심선
100
AcDbEllipse
 10
20.54032771746488
 20
12.04717430159265
 30
0.0
 11
3.960054785062283
 21
1.540847449632565E-10
 31
0.0
210
0.0
220
0.0
230
1.0
 40
0.3939339440162632
 41
1.131841032648279
 42
5.62031148352944
  0
LINE
  5
84
330
7F
100
AcDbEntity
  8
중심선
100
AcDbLine
 10
2.268634060543552
 20
16.24717430164393
 30
0.0
 11
5.714909304380834
 21
16.24717430164393
 31
0.0
  0
LINE
  5
85
330
7F
100
AcDbEntity
  8
중심선
100
AcDbLine
 10
5.245725140726316
 20
7.84717430164391
 30
0.0
 11
8.692000384563599
 21
7.84717430164391
 31
0.0
  0
LINE
  5
86
330
7F
100
AcDbEntity
  8
중심선
100
AcDbLine
 10
15.74043728645272
 20
16.24717430164393
 30
0.0
 11
8.692000384563599
 21
7.84717430164391
 31
0.0
  0
LINE
  5
87
330
7F
100
AcDbEntity
  8
중심선
100
AcDbLine
 10
0.1404042013395286
 20
13.71084872107135
 30
0.0
 11
3.58671253028996
 21
13.71088815037384
 31
0.0
  0
LINE
  5
88
330
7F
100
AcDbEntity
  8
중심선
100
AcDbLine
 10
2.750260043222114
 20
10.84717430164391
 30
0.0
 11
6.196535287059397
 21
10.84717430164391
 31
0.0
  0
LINE
  5
89
330
7F
100
AcDbEntity
  8
중심선
100
AcDbLine
 10
12.29416204261559
 20
16.24717430164393
 30
0.0
 11
5.245725140726316
 21
7.84717430164391
 31
0.0
  0
LINE
  5
8A
330
7F
100
AcDbEntity
  8
중심선
100
AcDbLine
 10
10.72767329541681
 20
16.24717430164393
 30
0.0
 11
6.196535287059397
 21
10.84717430164391
 31
0.0
  0
LINE
  5
8B
330
7F
100
AcDbEntity
  8
중심선
100
AcDbLine
 10
7.28139805157953
 20
16.24717430164393
 30
0.0
 11
2.750260043222114
 21
10.84717430164391
 31
0.0
  0
LINE
  5
8C
330
7F
100
AcDbEntity
  8
중심선
100
AcDbLine
 10
5.714909304380834
 20
16.24717430164393
 30
0.0
 11
3.58671253028996
 21
13.71088815037384
 31
0.0
  0
LINE
  5
8D
330
7F
100
AcDbEntity
  8
중심선
100
AcDbLine
 10
2.268634060543552
 20
16.24717430164393
 30
0.0
 11
0.1404042013395286
 21
13.71084872107135
 31
0.0
  0
LINE
  5
8E
330
7F
100
AcDbEntity
  8
중심선
100
AcDbLine
 10
7.28139805157953
 20
16.24717430164393
 30
0.0
 11
10.72767329541681
 21
16.24717430164393
 31
0.0
  0
LINE
  5
8F
330
7F
100
AcDbEntity
  8
중심선
100
AcDbLine
 10
12.29416204261559
 20
16.24717430164393
 30
0.0
 11
15.74043728645272
 21
16.24717430164393
 31
0.0
  0
LINE
  5
90
330
7F
100
AcDbEntity
  8
중심선
100
AcDbLine
 10
19.22036997980202
 20
11.08717430171403
 30
0.0
 11
23.66174974927406
 21
11.08717430171406
 31
0.0
  0
LINE
  5
91
330
7F
100
AcDbEntity
  8
중심선
100
AcDbLine
 10
19.22039502424796
 20
13.00717430171391
 30
0.0
 11
19.22036997980202
 21
11.08717430171403
 31
0.0
  0
LINE
  5
92
330
7F
100
AcDbEntity
  8
중심선
100
AcDbLine
 10
19.22039502424796
 20
13.00717430171391
 30
0.0
 11
26.96566020931264
 21
13.00717430171391
 31
0.0
  0
LINE
  5
93
330
7F
100
AcDbEntity
  8
중심선
100
AcDbLine
 10
22.22332737316547
 20
13.45928029700563
 30
0.0
 11
24.52862924686651
 21
15.39360700705356
 31
0.0
  0
ATTDEF
  5
95
330
7F
100
AcDbEntity
  8
FORMAT
 62
     2
100
AcDbText
 10
4.408487351596664
 20
2.075366912832191
 30
0.0
 40
4.233333333333333
  1
E1004012
 41
0.75
  7
SLDTEXTSTYLE0
 11
4.408487351596664
 21
-0.0412997538344756
 31
0.0
100
AcDbAttributeDefinition
  3

  2
AUTOATTR0
 70
     0
 74
     1
  0
ENDBLK
  5
81
330
7F
100
AcDbEntity
  8
0
100
AcDbBlockEnd
  0
BLOCK
  5
CB
330
CA
100
AcDbEntity
  8
0
100
AcDbBlockBegin
  2
_D
 70
     0
 10
0.0
 20
0.0
 30
0.0
  3
_D
  1
_D
  0
LINE
  5
CD
330
CA
100
AcDbEntity
  8
치수문자_일반주서
 62
     0
370
    -2
100
AcDbLine
 10
28.63750000000002
 20
2.372493171076822
 30
0.0
 11
63.49599621579578
 21
2.372493171076954
 31
0.0
  0
LINE
  5
CE
330
CA
100
AcDbEntity
  8
치수문자_일반주서
 62
     0
370
    -2
100
AcDbLine
 10
28.63750000000002
 20
-2.372493171076821
 30
0.0
 11
63.4959962157958
 21
-2.372493171076691
 31
0.0
  0
LINE
  5
CF
330
CA
100
AcDbEntity
  8
치수문자_일반주서
 62
     0
370
    -2
100
AcDbLine
 10
63.49599621579578
 20
2.372493171076954
 30
0.0
 11
63.49599621579568
 21
38.73530345637154
 31
0.0
  0
LINE
  5
D0
330
CA
100
AcDbEntity
  8
치수문자_일반주서
 62
     0
370
    -2
100
AcDbLine
 10
63.49599621579578
 20
2.372493171076954
 30
0.0
 11
63.4959962157958
 21
-2.372493171076691
 31
0.0
  0
LINE
  5
D1
330
CA
100
AcDbEntity
  8
치수문자_일반주서
 62
     0
370
    -2
100
AcDbLine
 10
63.49599621579578
 20
5.674493171076954
 30
0.0
 11
63.49599621579577
 21
8.976493171076953
 31
0.0
  0
LINE
  5
D2
330
CA
100
AcDbEntity
  8
치수문자_일반주서
 62
     0
370
    -2
100
AcDbLine
 10
63.49599621579581
 20
-5.674493171076691
 30
0.0
 11
63.49599621579581
 21
-8.97649317107669
 31
0.0
  0
SOLID
  5
D3
330
CA
100
AcDbEntity
  8
치수문자_일반주서
 62
     0
100
AcDbTrace
 10
62.94566288246244
 20
5.674493171076952
 30
0.0
 11
64.04632954912911
 21
5.674493171076955
 31
0.0
 12
63.49599621579578
 22
2.372493171076954
 32
0.0
 13
63.49599621579578
 23
2.372493171076954
 33
0.0
  0
SOLID
  5
D4
330
CA
100
AcDbEntity
  8
치수문자_일반주서
 62
     0
100
AcDbTrace
 10
64.04632954912914
 20
-5.674493171076689
 30
0.0
 11
62.94566288246247
 21
-5.674493171076692
 31
0.0
 12
63.4959962157958
 22
-2.372493171076691
 32
0.0
 13
63.4959962157958
 23
-2.372493171076691
 33
0.0
  0
MTEXT
  5
D5
330
CA
100
AcDbEntity
  8
치수문자_일반주서
 62
     0
100
AcDbMText
 10
59.12099621579572
 20
24.73530345637153
 30
0.0
 40
3.5
 41
0.0
 71
     2
 72
     1
  1
\A1;%%c4.74 [3/16]
  7
SLDTEXTSTYLE0
 11
-2.994920046229684E-15
 21
1.0
 31
0.0
 73
     1
 44
1.0
  0
POINT
  5
D6
330
CA
100
AcDbEntity
  8
Defpoints
 62
     0
100
AcDbPoint
 10
28.57500000000002
 20
2.372493171076822
 30
0.0
  0
POINT
  5
D7
330
CA
100
AcDbEntity
  8
Defpoints
 62
     0
100
AcDbPoint
 10
28.57500000000002
 20
-2.372493171076821
 30
0.0
  0
POINT
  5
D8
330
CA
100
AcDbEntity
  8
Defpoints
 62
     0
100
AcDbPoint
 10
63.4959962157958
 20
-2.372493171076691
 30
0.0
  0
ENDBLK
  5
CC
330
CA
100
AcDbEntity
  8
0
100
AcDbBlockEnd
  0
BLOCK
  5
E0
330
DF
100
AcDbEntity
  8
0
100
AcDbBlockBegin
  2
_D_1
 70
     0
 10
0.0
 20
0.0
 30
0.0
  3
_D_1
  1
_D_1
  0
LINE
  5
E2
330
DF
100
AcDbEntity
  8
치수문자_일반주서
 62
     0
370
    -2
100
AcDbLine
 10
28.57500000000001
 20
2.434993171076822
 30
0.0
 11
28.57500000000001
 21
12.38125
 31
0.0
  0
LINE
  5
E3
330
DF
100
AcDbEntity
  8
치수문자_일반주서
 62
     0
370
    -2
100
AcDbLine
 10
15.87499999999998
 20
2.44310872644351
 30
0.0
 11
15.87499999999998
 21
12.38125
 31
0.0
  0
LINE
  5
E4
330
DF
100
AcDbEntity
  8
치수문자_일반주서
 62
     0
370
    -2
100
AcDbLine
 10
28.57500000000001
 20
12.38125
 30
0.0
 11
57.05400000000001
 21
12.38125
 31
0.0
  0
LINE
  5
E5
330
DF
100
AcDbEntity
  8
치수문자_일반주서
 62
     0
370
    -2
100
AcDbLine
 10
28.57500000000001
 20
12.38125
 30
0.0
 11
15.87499999999998
 21
12.38125
 31
0.0
  0
LINE
  5
E6
330
DF
100
AcDbEntity
  8
치수문자_일반주서
 62
     0
370
    -2
100
AcDbLine
 10
31.87700000000001
 20
12.38125
 30
0.0
 11
35.17900000000001
 21
12.38125
 31
0.0
  0
LINE
  5
E7
330
DF
100
AcDbEntity
  8
치수문자_일반주서
 62
     0
370
    -2
100
AcDbLine
 10
12.57299999999998
 20
12.38125
 30
0.0
 11
9.27099999999998
 21
12.38125
 31
0.0
  0
SOLID
  5
E8
330
DF
100
AcDbEntity
  8
치수문자_일반주서
 62
     0
100
AcDbTrace
 10
31.87700000000001
 20
12.93158333333333
 30
0.0
 11
31.87700000000001
 21
11.83091666666667
 31
0.0
 12
28.57500000000001
 22
12.38125
 32
0.0
 13
28.57500000000001
 23
12.38125
 33
0.0
  0
SOLID
  5
E9
330
DF
100
AcDbEntity
  8
치수문자_일반주서
 62
     0
100
AcDbTrace
 10
12.57299999999998
 20
11.83091666666667
 30
0.0
 11
12.57299999999998
 21
12.93158333333333
 31
0.0
 12
15.87499999999998
 22
12.38125
 32
0.0
 13
15.87499999999998
 23
12.38125
 33
0.0
  0
MTEXT
  5
EA
330
DF
100
AcDbEntity
  8
치수문자_일반주서
 62
     0
100
AcDbMText
 10
46.11650000000001
 20
16.75625
 30
0.0
 40
3.5
 41
0.0
 71
     2
 72
     1
  1
\A1;12.7 [1/2]
  7
SLDTEXTSTYLE0
 73
     1
 44
1.0
  0
POINT
  5
EB
330
DF
100
AcDbEntity
  8
Defpoints
 62
     0
100
AcDbPoint
 10
28.57500000000001
 20
2.372493171076822
 30
0.0
  0
POINT
  5
EC
330
DF
100
AcDbEntity
  8
Defpoints
 62
     0
100
AcDbPoint
 10
15.87499999999998
 20
2.38060872644351
 30
0.0
  0
POINT
  5
ED
330
DF
100
AcDbEntity
  8
Defpoints
 62
     0
100
AcDbPoint
 10
15.87499999999998
 20
12.38125
 30
0.0
  0
ENDBLK
  5
E1
330
DF
100
AcDbEntity
  8
0
100
AcDbBlockEnd
  0
BLOCK
  5
F5
330
F4
100
AcDbEntity
  8
0
100
AcDbBlockBegin
  2
_D_2
 70
     0
 10
0.0
 20
0.0
 30
0.0
  3
_D_2
  1
_D_2
  0
LINE
  5
F7
330
F4
100
AcDbEntity
  8
치수문자_일반주서
 62
     0
370
    -2
100
AcDbLine
 10
28.57500000000001
 20
2.434993171076822
 30
0.0
 11
28.57500000000001
 21
22.38125
 31
0.0
  0
LINE
  5
F8
330
F4
100
AcDbEntity
  8
치수문자_일반주서
 62
     0
370
    -2
100
AcDbLine
 10
-28.57500000000003
 20
2.434993171076807
 30
0.0
 11
-28.57500000000003
 21
22.38125
 31
0.0
  0
LINE
  5
F9
330
F4
100
AcDbEntity
  8
치수문자_일반주서
 62
     0
370
    -2
100
AcDbLine
 10
25.27300000000001
 20
22.38125
 30
0.0
 11
-25.27300000000003
 21
22.38125
 31
0.0
  0
SOLID
  5
FA
330
F4
100
AcDbEntity
  8
치수문자_일반주서
 62
     0
100
AcDbTrace
 10
25.27300000000001
 20
21.83091666666667
 30
0.0
 11
25.27300000000001
 21
22.93158333333334
 31
0.0
 12
28.57500000000001
 22
22.38125
 32
0.0
 13
28.57500000000001
 23
22.38125
 33
0.0
  0
SOLID
  5
FB
330
F4
100
AcDbEntity
  8
치수문자_일반주서
 62
     0
100
AcDbTrace
 10
-25.27300000000003
 20
22.93158333333334
 30
0.0
 11
-25.27300000000003
 21
21.83091666666667
 31
0.0
 12
-28.57500000000003
 22
22.38125
 32
0.0
 13
-28.57500000000003
 23
22.38125
 33
0.0
  0
MTEXT
  5
FC
330
F4
100
AcDbEntity
  8
치수문자_일반주서
 62
     0
100
AcDbMText
 10
-1.4581794861211
 20
26.75625
 30
0.0
 40
3.5
 41
0.0
 71
     2
 72
     1
  1
\A1;57.15 [2 1/4]
  7
SLDTEXTSTYLE0
 73
     1
 44
1.0
  0
POINT
  5
FD
330
F4
100
AcDbEntity
  8
Defpoints
 62
     0
100
AcDbPoint
 10
28.57500000000001
 20
2.372493171076822
 30
0.0
  0
POINT
  5
FE
330
F4
100
AcDbEntity
  8
Defpoints
 62
     0
100
AcDbPoint
 10
-28.57500000000003
 20
2.372493171076807
 30
0.0
  0
POINT
  5
FF
330
F4
100
AcDbEntity
  8
Defpoints
 62
     0
100
AcDbPoint
 10
-28.57500000000003
 20
22.38125
 30
0.0
  0
ENDBLK
  5
F6
330
F4
100
AcDbEntity
  8
0
100
AcDbBlockEnd
  0
BLOCK
  5
108
330
107
100
AcDbEntity
  8
0
100
AcDbBlockBegin
  2
_D_3
 70
     0
 10
0.0
 20
0.0
 30
0.0
  3
_D_3
  1
_D_3
  0
LINE
  5
10A
330
107
100
AcDbEntity
  8
치수문자_일반주서
 62
     0
370
    -2
100
AcDbLine
 10
-28.63750000000002
 20
2.372493171076806
 30
0.0
 11
-38.575
 21
2.372493171076769
 31
0.0
  0
LINE
  5
10B
330
107
100
AcDbEntity
  8
치수문자_일반주서
 62
     0
370
    -2
100
AcDbLine
 10
-28.6375
 20
-2.372493171076837
 30
0.0
 11
-38.57499999999999
 21
-2.372493171076876
 31
0.0
  0
LINE
  5
10C
330
107
100
AcDbEntity
  8
치수문자_일반주서
 62
     0
370
    -2
100
AcDbLine
 10
-38.575
 20
2.372493171076769
 30
0.0
 11
-38.57500000000011
 21
36.98524999999997
 31
0.0
  0
LINE
  5
10D
330
107
100
AcDbEntity
  8
치수문자_일반주서
 62
     0
370
    -2
100
AcDbLine
 10
-38.575
 20
2.372493171076769
 30
0.0
 11
-38.57499999999999
 21
-2.372493171076876
 31
0.0
  0
LINE
  5
10E
330
107
100
AcDbEntity
  8
치수문자_일반주서
 62
     0
370
    -2
100
AcDbLine
 10
-38.57500000000001
 20
5.674493171076769
 30
0.0
 11
-38.57500000000002
 21
8.976493171076768
 31
0.0
  0
LINE
  5
10F
330
107
100
AcDbEntity
  8
치수문자_일반주서
 62
     0
370
    -2
100
AcDbLine
 10
-38.57499999999998
 20
-5.674493171076875
 30
0.0
 11
-38.57499999999997
 21
-8.976493171076875
 31
0.0
  0
SOLID
  5
110
330
107
100
AcDbEntity
  8
치수문자_일반주서
 62
     0
100
AcDbTrace
 10
-39.12533333333334
 20
5.674493171076767
 30
0.0
 11
-38.02466666666668
 21
5.674493171076771
 31
0.0
 12
-38.575
 22
2.372493171076769
 32
0.0
 13
-38.575
 23
2.372493171076769
 33
0.0
  0
SOLID
  5
111
330
107
100
AcDbEntity
  8
치수문자_일반주서
 62
     0
100
AcDbTrace
 10
-38.02466666666665
 20
-5.674493171076874
 30
0.0
 11
-39.12533333333332
 21
-5.674493171076877
 31
0.0
 12
-38.57499999999999
 22
-2.372493171076876
 32
0.0
 13
-38.57499999999999
 23
-2.372493171076876
 33
0.0
  0
MTEXT
  5
112
330
107
100
AcDbEntity
  8
치수문자_일반주서
 62
     0
100
AcDbMText
 10
-42.95000000000007
 20
22.98524999999995
 30
0.0
 40
3.5
 41
0.0
 71
     2
 72
     1
  1
\A1;%%c4.74 [3/16]
  7
SLDTEXTSTYLE0
 11
-2.994920046229683E-15
 21
1.0
 31
0.0
 73
     1
 44
1.0
  0
POINT
  5
1B1
330
107
100
AcDbEntity
  8
Defpoints
 62
     0
100
AcDbPoint
 10
-28.57500000000002
 20
2.372493171076807
 30
0.0
  0
POINT
  5
1B2
330
107
100
AcDbEntity
  8
Defpoints
 62
     0
100
AcDbPoint
 10
-28.575
 20
-2.372493171076836
 30
0.0
  0
POINT
  5
1B3
330
107
100
AcDbEntity
  8
Defpoints
 62
     0
100
AcDbPoint
 10
-38.57499999999999
 20
-2.372493171076874
 30
0.0
  0
ENDBLK
  5
109
330
107
100
AcDbEntity
  8
0
100
AcDbBlockEnd
  0
BLOCK
  5
122
330
121
100
AcDbEntity
  8
0
100
AcDbBlockBegin
  2
SW_DOWELSYMBOL_0
 70
     0
 10
0.0
 20
0.0
 30
0.0
  3
SW_DOWELSYMBOL_0
  1
SW_DOWELSYMBOL_0
  0
CIRCLE
  5
124
330
121
100
AcDbEntity
  8
해칭선
 62
     0
100
AcDbCircle
 10
0.0
 20
0.0
 30
0.0
 40
3.0
  0
HATCH
  5
125
330
121
100
AcDbEntity
  8
0
  6
Continuous
 62
     0
370
     0
100
AcDbHatch
 10
0.0
 20
0.0
 30
0.0
210
0.0
220
0.0
230
1.0
  2
SOLID
 70
     1
 71
     0
 91
        1
 92
        0
 93
        3
 72
     2
 10
0.0
 20
0.0
 40
3.0
 50
0.0
 51
90.0
 73
     1
 72
     1
 10
0.0
 20
3.0
 11
0.0
 21
0.0
 72
     1
 10
0.0
 20
0.0
 11
2.999999999999999
 21
0.0
 97
        0
 75
     0
 76
     1
 98
        1
 10
0.0
 20
0.0
  0
HATCH
  5
126
330
121
100
AcDbEntity
  8
0
  6
Continuous
 62
     0
370
     0
100
AcDbHatch
 10
0.0
 20
0.0
 30
0.0
210
0.0
220
0.0
230
1.0
  2
SOLID
 70
     1
 71
     0
 91
        1
 92
        0
 93
        3
 72
     2
 10
0.0
 20
0.0
 40
3.0
 50
180.0
 51
270.0000000000007
 73
     1
 72
     1
 10
0.0
 20
-3.0
 11
0.0
 21
0.0
 72
     1
 10
0.0
 20
0.0
 11
-3.0
 21
0.0
 97
        0
 75
     0
 76
     1
 98
        1
 10
0.0
 20
0.0
  0
ENDBLK
  5
123
330
121
100
AcDbEntity
  8
0
100
AcDbBlockEnd
  0
BLOCK
  5
187
330
186
100
AcDbEntity
  8
0
100
AcDbBlockBegin
  2
*D7
 70
     1
 10
0.0
 20
0.0
 30
0.0
  3
*D7
  1
*D7
  0
LINE
  5
189
330
186
100
AcDbEntity
  8
치수문자_일반주서
 62
     0
370
    -2
100
AcDbLine
 10
16.12900000000002
 20
3.225824228102428
 30
0.0
 11
16.12900000000002
 21
13.96291211405121
 31
0.0
  0
LINE
  5
18A
330
186
100
AcDbEntity
  8
치수문자_일반주서
 62
     0
370
    -2
100
AcDbLine
 10
6.603999999999999
 20
3.101127653826765
 30
0.0
 11
6.603999999999999
 21
13.96291211405121
 31
0.0
  0
LINE
  5
18B
330
186
100
AcDbEntity
  8
치수문자_일반주서
 62
     0
370
    -2
100
AcDbLine
 10
16.12900000000002
 20
13.96291211405121
 30
0.0
 11
46.57675
 21
13.96291211405121
 31
0.0
  0
LINE
  5
18C
330
186
100
AcDbEntity
  8
치수문자_일반주서
 62
     0
370
    -2
100
AcDbLine
 10
16.12900000000002
 20
13.96291211405121
 30
0.0
 11
6.603999999999999
 21
13.96291211405121
 31
0.0
  0
LINE
  5
18D
330
186
100
AcDbEntity
  8
치수문자_일반주서
 62
     0
370
    -2
100
AcDbLine
 10
19.43100000000002
 20
13.96291211405121
 30
0.0
 11
22.73300000000002
 21
13.96291211405121
 31
0.0
  0
LINE
  5
18E
330
186
100
AcDbEntity
  8
치수문자_일반주서
 62
     0
370
    -2
100
AcDbLine
 10
3.302
 20
13.96291211405121
 30
0.0
 11
0.0
 21
13.96291211405121
 31
0.0
  0
SOLID
  5
18F
330
186
100
AcDbEntity
  8
치수문자_일반주서
 62
     0
100
AcDbTrace
 10
19.43100000000002
 20
14.51324544738455
 30
0.0
 11
19.43100000000002
 21
13.41257878071788
 31
0.0
 12
16.12900000000002
 22
13.96291211405121
 32
0.0
 13
16.12900000000002
 23
13.96291211405121
 33
0.0
  0
SOLID
  5
190
330
186
100
AcDbEntity
  8
치수문자_일반주서
 62
     0
100
AcDbTrace
 10
3.302
 20
13.41257878071788
 30
0.0
 11
3.302
 21
14.51324544738455
 31
0.0
 12
6.603999999999999
 22
13.96291211405121
 32
0.0
 13
6.603999999999999
 23
13.96291211405121
 33
0.0
  0
MTEXT
  5
191
330
186
100
AcDbEntity
  8
치수문자_일반주서
 62
     0
100
AcDbMText
 10
34.76425
 20
18.33791211405121
 30
0.0
 40
3.5
 41
0.0
 71
     2
 72
     1
  1
\A1;9.53 [3/8]
  7
SLDTEXTSTYLE0
 73
     1
 44
1.0
  0
POINT
  5
192
330
186
100
AcDbEntity
  8
Defpoints
 62
     0
100
AcDbPoint
 10
16.12900000000002
 20
3.163324228102428
 30
0.0
  0
POINT
  5
193
330
186
100
AcDbEntity
  8
Defpoints
 62
     0
100
AcDbPoint
 10
6.603999999999999
 20
3.038627653826765
 30
0.0
  0
POINT
  5
194
330
186
100
AcDbEntity
  8
Defpoints
 62
     0
100
AcDbPoint
 10
6.603999999999999
 20
13.96291211405121
 30
0.0
  0
ENDBLK
  5
188
330
186
100
AcDbEntity
  8
0
100
AcDbBlockEnd
  0
BLOCK
  5
199
330
198
100
AcDbEntity
  8
0
100
AcDbBlockBegin
  2
*D8
 70
     1
 10
0.0
 20
0.0
 30
0.0
  3
*D8
  1
*D8
  0
LINE
  5
19B
330
198
100
AcDbEntity
  8
치수문자_일반주서
 62
     0
370
    -2
100
AcDbLine
 10
68.233959705513
 20
-5.417197903603348
 30
0.0
 11
68.233959705513
 21
5.319889982345437
 31
0.0
  0
LINE
  5
19C
330
198
100
AcDbEntity
  8
치수문자_일반주서
 62
     0
370
    -2
100
AcDbLine
 10
58.70895970551298
 20
-5.541894477879012
 30
0.0
 11
58.70895970551298
 21
5.319889982345437
 31
0.0
  0
LINE
  5
19D
330
198
100
AcDbEntity
  8
치수문자_일반주서
 62
     0
370
    -2
100
AcDbLine
 10
68.233959705513
 20
5.319889982345437
 30
0.0
 11
98.68170970551299
 21
5.319889982345437
 31
0.0
  0
LINE
  5
19E
330
198
100
AcDbEntity
  8
치수문자_일반주서
 62
     0
370
    -2
100
AcDbLine
 10
68.233959705513
 20
5.319889982345437
 30
0.0
 11
58.70895970551298
 21
5.319889982345437
 31
0.0
  0
LINE
  5
19F
330
198
100
AcDbEntity
  8
치수문자_일반주서
 62
     0
370
    -2
100
AcDbLine
 10
71.535959705513
 20
5.319889982345437
 30
0.0
 11
74.83795970551299
 21
5.319889982345437
 31
0.0
  0
LINE
  5
1A0
330
198
100
AcDbEntity
  8
치수문자_일반주서
 62
     0
370
    -2
100
AcDbLine
 10
55.40695970551298
 20
5.319889982345437
 30
0.0
 11
52.10495970551298
 21
5.319889982345437
 31
0.0
  0
SOLID
  5
1A1
330
198
100
AcDbEntity
  8
치수문자_일반주서
 62
     0
100
AcDbTrace
 10
71.535959705513
 20
5.87022331567877
 30
0.0
 11
71.535959705513
 21
4.769556649012103
 31
0.0
 12
68.233959705513
 22
5.319889982345437
 32
0.0
 13
68.233959705513
 23
5.319889982345437
 33
0.0
  0
SOLID
  5
1A2
330
198
100
AcDbEntity
  8
치수문자_일반주서
 62
     0
100
AcDbTrace
 10
55.40695970551298
 20
4.769556649012103
 30
0.0
 11
55.40695970551298
 21
5.87022331567877
 31
0.0
 12
58.70895970551298
 22
5.319889982345437
 32
0.0
 13
58.70895970551298
 23
5.319889982345437
 33
0.0
  0
MTEXT
  5
1A3
330
198
100
AcDbEntity
  8
치수문자_일반주서
 62
     0
100
AcDbMText
 10
86.86920970551299
 20
9.694889982345437
 30
0.0
 40
3.5
 41
0.0
 71
     2
 72
     1
  1
\A1;9.53 [3/8]
  7
SLDTEXTSTYLE0
 73
     1
 44
1.0
  0
POINT
  5
1A4
330
198
100
AcDbEntity
  8
Defpoints
 62
     0
100
AcDbPoint
 10
68.233959705513
 20
-5.479697903603348
 30
0.0
  0
POINT
  5
1A5
330
198
100
AcDbEntity
  8
Defpoints
 62
     0
100
AcDbPoint
 10
58.70895970551298
 20
-5.604394477879012
 30
0.0
  0
POINT
  5
1A6
330
198
100
AcDbEntity
  8
Defpoints
 62
     0
100
AcDbPoint
 10
58.70895970551298
 20
5.319889982345437
 30
0.0
  0
ENDBLK
  5
19A
330
198
100
AcDbEntity
  8
0
100
AcDbBlockEnd
  0
ENDSEC
  0
SECTION
  2
ENTITIES
  0
LINE
  5
96
330
1F
100
AcDbEntity
  8
0
  6
Continuous
 62
     1
370
    15
100
AcDbLine
 10
22.45103301545569
 20
-2.381250000000001
 30
0.0
 11
23.90180216696643
 21
-2.381250000000001
 31
0.0
1001
PE_URL
1000

  0
LINE
  5
97
330
1F
100
AcDbEntity
  8
0
  6
Continuous
 62
     1
370
    15
100
AcDbLine
 10
17.42341849216208
 20
2.381250000000002
 30
0.0
 11
15.97050213337512
 21
2.381250000000002
 31
0.0
1001
PE_URL
1000

  0
LINE
  5
98
330
1F
100
AcDbEntity
  8
0
  6
Continuous
 62
     1
370
    15
100
AcDbLine
 10
23.90180216696643
 20
2.381250000000002
 30
0.0
 11
22.4510330154557
 21
2.381250000000002
 31
0.0
1001
PE_URL
1000

  0
LINE
  5
99
330
1F
100
AcDbEntity
  8
0
  6
Continuous
 62
     1
370
    15
100
AcDbLine
 10
15.97050213337512
 20
-2.381250000000001
 30
0.0
 11
17.42341849216205
 21
-2.381250000000001
 31
0.0
1001
PE_URL
1000

  0
LINE
  5
9A
330
1F
100
AcDbEntity
  8
외형선
  6
Continuous
370
    15
100
AcDbLine
 10
-15.37515599511283
 20
-2.381250000000001
 30
0.0
 11
15.37515599511283
 21
-2.381250000000001
 31
0.0
  0
LINE
  5
9B
330
1F
100
AcDbEntity
  8
외형선
  6
Continuous
370
    15
100
AcDbLine
 10
15.37515599511283
 20
2.381250000000001
 30
0.0
 11
-15.37515599511283
 21
2.381250000000001
 31
0.0
  0
SPLINE
  5
9E
330
1F
100
AcDbEntity
  8
0
  6
Continuous
 62
     1
370
    15
100
AcDbSpline
210
0.0
220
0.0
230
1.0
 70
     8
 71
     3
 72
    18
 73
    14
 74
     0
 42
0.000000001
 43
0.00000001
 40
0.0
 40
0.0
 40
0.0
 40
0.0
 40
0.0964800333398076
 40
0.193032424776222
 40
0.2895273524412128
 40
0.3859559849986747
 40
0.4823478941687891
 40
0.5787329195896083
 40
0.6751409512190096
 40
0.7636105913531486
 40
0.8521564162935897
 40
0.9405459807080648
 40
0.9999999999999999
 40
0.9999999999999999
 40
0.9999999999999999
 40
0.9999999999999999
 10
15.87500000000019
 20
0.8727050194495164
 30
0.0
 10
16.21375398490495
 20
0.6856269756766022
 30
0.0
 10
16.89151601343229
 20
0.3113305833371739
 30
0.0
 10
17.90836657798482
 20
-0.282527236990826
 30
0.0
 10
18.92481909350737
 20
-0.8558036417700325
 30
0.0
 10
19.94057259228396
 20
-1.378339389454135
 30
0.0
 10
20.95586307814125
 20
-1.817314167824655
 30
0.0
 10
21.97106089178538
 20
-2.146761322124508
 30
0.0
 10
22.95851665164862
 20
-2.340829574135241
 30
0.0
 10
23.9184739817751
 20
-2.40218665550246
 30
0.0
 10
24.85065591602294
 20
-2.33606006618442
 30
0.0
 10
25.68042030768
 20
-2.184146201648397
 30
0.0
 10
26.19933995785394
 20
-2.012817659982948
 30
0.0
 10
26.40801900985577
 20
-1.943919367841543
 30
0.0
1001
PE_URL
1000

  0
SPLINE
  5
9F
330
1F
100
AcDbEntity
  8
외형선
  6
Continuous
370
    15
100
AcDbSpline
210
0.0
220
0.0
230
1.0
 70
    24
 71
     3
 72
    14
 73
    10
 74
     0
 42
0.000000001
 43
0.00000001
 40
0.0
 40
0.0
 40
0.0
 40
0.0
 40
0.1513762511319887
 40
0.3074404499710253
 40
0.4541725220162875
 40
0.6051598340911979
 40
0.7518919061364618
 40
0.9028792182113751
 40
1.0
 40
1.0
 40
1.0
 40
1.0
 10
15.87499999999998
 20
2.38060872644351
 30
0.0
 10
15.87500000000002
 20
2.301002197087994
 30
0.0
 10
15.87500000000008
 20
2.139323816082564
 30
0.0
 10
15.87499999999993
 20
1.892566315868284
 30
0.0
 10
15.87500000000002
 20
1.649855637174796
 30
0.0
 10
15.87499999999996
 20
1.42092087894219
 30
0.0
 10
15.87499999999998
 20
1.207185518350124
 30
0.0
 10
15.87500000000005
 20
1.034597586468456
 30
0.0
 10
15.87500000000005
 20
0.9464814971374756
 30
0.0
 10
15.87500000000003
 20
0.9119888558426372
 30
0.0
  0
SPLINE
  5
A0
330
1F
100
AcDbEntity
  8
0
  6
Continuous
 62
     1
370
    15
100
AcDbSpline
210
0.0
220
0.0
230
1.0
 70
     8
 71
     3
 72
    38
 73
    34
 74
     0
 42
0.000000001
 43
0.00000001
 40
0.0
 40
0.0
 40
0.0
 40
0.0
 40
0.0625
 40
0.0625
 40
0.125
 40
0.125
 40
0.1875
 40
0.1875
 40
0.25
 40
0.25
 40
0.3125
 40
0.3125
 40
0.375
 40
0.375
 40
0.4375
 40
0.4375
 40
0.5
 40
0.5
 40
0.5625
 40
0.5625
 40
0.625
 40
0.625
 40
0.6875
 40
0.6875
 40
0.75
 40
0.75
 40
0.8125
 40
0.8125
 40
0.875
 40
0.875
 40
0.9375
 40
0.9375
 40
1.0
 40
1.0
 40
1.0
 40
1.0
 10
28.57500000000002
 20
-2.372493171076821
 30
0.0
 10
28.31313358972776
 20
-2.359450348136648
 30
0.0
 10
28.04582228306496
 20
-2.331639405464542
 30
0.0
 10
27.51498211086427
 20
-2.247626615987001
 30
0.0
 10
27.25401085020393
 20
-2.191756245341286
 30
0.0
 10
26.72294367126085
 20
-2.053076429750573
 30
0.0
 10
26.4564088228077
 20
-1.97042514701987
 30
0.0
 10
25.93200477337046
 20
-1.782945999548967
 30
0.0
 10
25.66458493749248
 20
-1.676968930940873
 30
0.0
 10
25.1340013635425
 20
-1.446125023550426
 30
0.0
 10
24.87297890637698
 20
-1.321707927491062
 30
0.0
 10
24.3417143544788
 20
-1.056685477513564
 30
0.0
 10
24.07590579770466
 20
-0.916751414051526
 30
0.0
 10
23.55085892138285
 20
-0.6285338735226168
 30
0.0
 10
23.28334572161746
 20
-0.4787317950362544
 30
0.0
 10
22.75304828966293
 20
-0.1759201359211476
 30
0.0
 10
22.49192344899983
 20
-0.0232634658921593
 30
0.0
 10
21.96049119471149
 20
0.2822154857890267
 30
0.0
 10
21.69535862906207
 20
0.4340283661601732
 30
0.0
 10
21.16969744587001
 20
0.7296111868284881
 30
0.0
 10
20.90210606536788
 20
0.874678182523271
 30
0.0
 10
20.37212426592393
 20
1.15129567818301
 30
0.0
 10
20.11084587379242
 20
1.282725777599437
 30
0.0
 10
19.57927561894113
 20
1.529640235902115
 30
0.0
 10
19.31476861900369
 20
1.644159854914163
 30
0.0
 10
18.78852176189189
 20
1.851272722419305
 30
0.0
 10
18.52086739873426
 20
1.944570283900741
 30
0.0
 10
17.99123066364117
 20
2.105360947083806
 30
0.0
 10
17.72974758059369
 20
2.172956464834069
 30
0.0
 10
17.19806905274091
 20
2.281255085164671
 30
0.0
 10
16.93413707745767
 20
2.321456652332239
 30
0.0
 10
16.40733328719968
 20
2.372881067381105
 30
0.0
 10
16.13963115149977
 20
2.384153652707574
 30
0.0
 10
15.87500000000018
 20
2.380608726443353
 30
0.0
1001
PE_URL
1000

  0
SPLINE
  5
A1
330
1F
100
AcDbEntity
  8
0
  6
Continuous
 62
     1
370
    15
100
AcDbSpline
210
0.0
220
0.0
230
1.0
 70
     8
 71
     3
 72
    12
 73
     8
 74
     0
 42
0.000000001
 43
0.00000001
 40
0.0
 40
0.0
 40
0.0
 40
0.0
 40
0.2491780345820368
 40
0.498542947709554
 40
0.7477594497189636
 40
0.9968047320052401
 40
1.0
 40
1.0
 40
1.0
 40
1.0
 10
15.87500000000018
 20
-2.215567085765539
 30
0.0
 10
16.21375388735453
 20
-2.274037138275295
 30
0.0
 10
16.89151572070791
 20
-2.391021094665515
 30
0.0
 10
17.90836774961623
 20
-2.389492426252742
 30
0.0
 10
18.92481470419266
 20
-2.240079257966023
 30
0.0
 10
19.60650479381549
 20
-2.080631970439115
 30
0.0
 10
19.94937531703056
 20
-1.948184627127784
 30
0.0
 10
19.95371864409655
 20
-1.946506844722845
 30
0.0
1001
PE_URL
1000

  0
SPLINE
  5
A2
330
1F
100
AcDbEntity
  8
외형선
  6
Continuous
370
    15
100
AcDbSpline
210
0.0
220
0.0
230
1.0
 70
    24
 71
     3
 72
    21
 73
    17
 74
     0
 42
0.000000001
 43
0.00000001
 40
0.0
 40
0.0
 40
0.0
 40
0.0
 40
0.0040641856848848
 40
0.0798937670860385
 40
0.1579224114848866
 40
0.2337519928860416
 40
0.3117806372848908
 40
0.3876102186861105
 40
0.4656388630848974
 40
0.5414684444860092
 40
0.6194970888848115
 40
0.6953266702860093
 40
0.7733553146849051
 40
0.8491848960858756
 40
0.9272135404849081
 40
1.0
 40
1.0
 40
1.0
 40
1.0
 10
15.87499999999999
 20
0.1080172759632438
 30
0.0
 10
15.87499999999999
 20
0.1081252819452538
 30
0.0
 10
15.87499999999986
 20
0.1102484636696283
 30
0.0
 10
15.87500000000013
 20
0.0758477965615116
 30
0.0
 10
15.87499999999993
 20
0.0042454672510378
 30
0.0
 10
15.875
 20
-0.1105701877395178
 30
0.0
 10
15.87500000000009
 20
-0.2571698394926117
 30
0.0
 10
15.875
 20
-0.4356833983824289
 30
0.0
 10
15.87500000000002
 20
-0.63740714690386
 30
0.0
 10
15.87499999999997
 20
-0.8603766489133309
 30
0.0
 10
15.87500000000004
 20
-1.094247893482981
 30
0.0
 10
15.875
 20
-1.336575241146577
 30
0.0
 10
15.87500000000004
 20
-1.576298530605631
 30
0.0
 10
15.87499999999999
 20
-1.810339477915612
 30
0.0
 10
15.87500000000001
 20
-2.027214444721273
 30
0.0
 10
15.87500000000001
 20
-2.154254804797191
 30
0.0
 10
15.87500000000001
 20
-2.215567085765506
 30
0.0
  0
SPLINE
  5
A3
330
1F
100
AcDbEntity
  8
0
  6
Continuous
 62
     1
370
    15
100
AcDbSpline
210
0.0
220
0.0
230
1.0
 70
     8
 71
     3
 72
    14
 73
    10
 74
     0
 42
0.000000001
 43
0.00000001
 40
0.0
 40
0.0
 40
0.0
 40
0.0
 40
0.1500665174608686
 40
0.2918820730729292
 40
0.4334476084562432
 40
0.5749178414182181
 40
0.7164615641286394
 40
0.8582454313830002
 40
1.0
 40
1.0
 40
1.0
 40
1.0
 10
22.45103301545569
 20
-2.379213173105369
 30
0.0
 10
22.12204911692948
 20
-2.366947578926018
 30
0.0
 10
21.48216952263902
 20
-2.343090777841301
 30
0.0
 10
20.5317356892587
 20
-2.145081667782784
 30
0.0
 10
19.60067584449158
 20
-1.851485597317942
 30
0.0
 10
18.6702775957021
 20
-1.461376521743161
 30
0.0
 10
17.73936665167039
 20
-0.9976385440605567
 30
0.0
 10
16.80732174437246
 20
-0.4833386090353797
 30
0.0
 10
16.18575250542813
 20
-0.1242605831197747
 30
0.0
 10
15.87500000000018
 20
0.055259877685066
 30
0.0
1001
PE_URL
1000

  0
LINE
  5
A4
330
1F
100
AcDbEntity
  8
0
  6
Continuous
 62
     1
370
    15
100
AcDbLine
 10
28.57500000000001
 20
-2.156653712915245
 30
0.0
 11
28.57500000000001
 21
0.2040287129152737
 31
0.0
1001
PE_URL
1000

  0
SPLINE
  5
A5
330
1F
100
AcDbEntity
  8
0
  6
Continuous
 62
     1
370
    15
100
AcDbSpline
210
0.0
220
0.0
230
1.0
 70
     8
 71
     3
 72
    19
 73
    15
 74
     0
 42
0.000000001
 43
0.00000001
 40
0.0
 40
0.0
 40
0.0
 40
0.0
 40
0.0434902631681504
 40
0.1346296815691716
 40
0.225706484269148
 40
0.3167486017452954
 40
0.4077842175231411
 40
0.4988415626552719
 40
0.5824011003748739
 40
0.6660325946118334
 40
0.7495165008480524
 40
0.8329394601952366
 40
0.9164009993913426
 40
1.0
 40
1.0
 40
1.0
 40
1.0
 10
17.42341849216208
 20
2.36323699870063
 30
0.0
 10
17.58512552475121
 20
2.366978624144334
 30
0.0
 10
18.08571036188584
 20
2.378561305078904
 30
0.0
 10
18.92482000176365
 20
2.24310613467369
 30
0.0
 10
19.94057234883858
 20
1.97272977119912
 30
0.0
 10
20.955863144297
 20
1.57553369085554
 30
0.0
 10
21.97106087054294
 20
1.085374962634925
 30
0.0
 10
22.9585166693523
 20
0.5444051887644302
 30
0.0
 10
23.91847393507644
 20
-0.0098897888666012
 30
0.0
 10
24.85065608701137
 20
-0.5467652915337419
 30
0.0
 10
25.78176152939959
 20
-1.057079543666111
 30
0.0
 10
26.71216452883257
 20
-1.511404109119053
 30
0.0
 10
27.64302980090607
 20
-1.89695625117813
 30
0.0
 10
28.2641729031626
 20
-2.070040419736696
 30
0.0
 10
28.57500000000002
 20
-2.156653712915245
 30
0.0
1001
PE_URL
1000

  0
SPLINE
  5
A6
330
1F
100
AcDbEntity
  8
0
  6
Continuous
 62
     1
370
    15
100
AcDbSpline
210
0.0
220
0.0
230
1.0
 70
     8
 71
     3
 72
    16
 73
    12
 74
     0
 42
0.000000001
 43
0.00000001
 40
0.0
 40
0.0
 40
0.0
 40
0.0
 40
0.1179369526642264
 40
0.2357784386854778
 40
0.353560380684686
 40
0.4713191350112149
 40
0.5890912274350366
 40
0.7069130862359403
 40
0.8248207767912468
 40
0.9329959860918929
 40
1.0
 40
1.0
 40
1.0
 40
1.0
 10
28.57500000000002
 20
0.2040287129152735
 30
0.0
 10
28.23600716197992
 20
0.3976650670371875
 30
0.0
 10
27.5582958910986
 20
0.7847810321036788
 30
0.0
 10
26.54226182873079
 20
1.314978412265635
 30
0.0
 10
25.52682667866613
 20
1.766523512205271
 30
0.0
 10
24.5116352093252
 20
2.111290885948958
 30
0.0
 10
23.4963053174523
 20
2.328367896706409
 30
0.0
 10
22.48045984572021
 20
2.406218853143849
 30
0.0
 10
21.49205541091117
 20
2.33589041871304
 30
0.0
 10
20.64951838908105
 20
2.178610075895828
 30
0.0
 10
20.14622319703432
 20
2.010722057611946
 30
0.0
 10
19.95371864409657
 20
1.946506844722843
 30
0.0
1001
PE_URL
1000

  0
LINE
  5
A7
330
1F
100
AcDbEntity
  8
외형선
  6
Continuous
370
    15
100
AcDbLine
 10
15.87499999999998
 20
0.0552598776851217
 30
0.0
 11
15.87500000000002
 21
0.8727050194496077
 31
0.0
  0
LINE
  5
A8
330
1F
100
AcDbEntity
  8
0
  6
Continuous
 62
     1
370
    15
100
AcDbLine
 10
28.57500000000001
 20
-2.372493171076821
 30
0.0
 11
28.57500000000001
 21
-2.156653712915245
 31
0.0
1001
PE_URL
1000

  0
SPLINE
  5
A9
330
1F
100
AcDbEntity
  8
0
  6
Continuous
 62
     1
370
    15
100
AcDbSpline
210
0.0
220
0.0
230
1.0
 70
     8
 71
     3
 72
    13
 73
     9
 74
     0
 42
0.000000001
 43
0.00000001
 40
0.0
 40
0.0
 40
0.0
 40
0.0
 40
0.0035233900809605
 40
0.2030852853218714
 40
0.4022950053277093
 40
0.6013592935581595
 40
0.800515641219562
 40
1.0
 40
1.0
 40
1.0
 40
1.0
 10
23.90180216696644
 20
2.380200132289342
 30
0.0
 10
23.90729117324703
 20
2.380549346999472
 30
0.0
 10
24.22367294790432
 20
2.400677793585211
 30
0.0
 10
24.85067531127065
 20
2.329380687297156
 30
0.0
 10
25.78175638817112
 20
2.159176262088779
 30
0.0
 10
26.71216590003669
 20
1.863999136763201
 30
0.0
 10
27.64302945738012
 20
1.481570547052369
 30
0.0
 10
28.26417278859115
 20
1.16697815843587
 30
0.0
 10
28.57500000000002
 20
1.009552537052358
 30
0.0
1001
PE_URL
1000

  0
LINE
  5
AA
330
1F
100
AcDbEntity
  8
0
  6
Continuous
 62
     1
370
    15
100
AcDbLine
 10
28.57500000000001
 20
0.2040287129152736
 30
0.0
 11
28.57500000000001
 21
1.009552537052357
 31
0.0
1001
PE_URL
1000

  0
SPLINE
  5
AB
330
1F
100
AcDbEntity
  8
0
  6
Continuous
 62
     1
370
    15
100
AcDbSpline
210
0.0
220
0.0
230
1.0
 70
     8
 71
     3
 72
    10
 73
     6
 74
     0
 42
0.000000001
 43
0.00000001
 40
0.0
 40
0.0
 40
0.0
 40
0.0
 40
0.4692461639019649
 40
0.9381124862446503
 40
1.0
 40
1.0
 40
1.0
 40
1.0
 10
28.57500000000002
 20
2.372493171076822
 30
0.0
 10
28.23600850859943
 20
2.339781852577298
 30
0.0
 10
27.55829992986713
 20
2.274385694469676
 30
0.0
 10
26.83602511827212
 20
2.10546577602388
 30
0.0
 10
26.45271422717151
 20
1.960789107965118
 30
0.0
 10
26.40801900985576
 20
1.943919367841543
 30
0.0
1001
PE_URL
1000

  0
LINE
  5
AC
330
1F
100
AcDbEntity
  8
0
  6
Continuous
 62
     1
370
    15
100
AcDbLine
 10
15.97050213337512
 20
-2.375682119118602
 30
0.0
 11
15.87500000000018
 21
-2.380608726443352
 31
0.0
1001
PE_URL
1000

  0
LINE
  5
AD
330
1F
100
AcDbEntity
  8
0
  6
Continuous
 62
     1
370
    15
100
AcDbLine
 10
28.57500000000001
 20
1.009552537052357
 30
0.0
 11
28.57500000000001
 21
2.372493171076822
 31
0.0
1001
PE_URL
1000

  0
LINE
  5
AE
330
1F
100
AcDbEntity
  8
외형선
  6
Continuous
370
    15
100
AcDbLine
 10
15.87499999999998
 20
-2.38060872644351
 30
0.0
 11
15.87500000000001
 21
-2.215567085765506
 31
0.0
  0
SPLINE
  5
AF
330
1F
100
AcDbEntity
  8
외형선
  6
Continuous
370
    15
100
AcDbSpline
210
0.0
220
0.0
230
1.0
 70
     8
 71
     3
 72
     8
 73
     4
 74
     0
 42
0.000000001
 43
0.00000001
 40
0.0
 40
0.0
 40
0.0
 40
0.0
 40
1.0
 40
1.0
 40
1.0
 40
1.0
 10
15.87500000000017
 20
2.380608726443351
 30
0.0
 10
15.70756865138497
 20
2.378365862057217
 30
0.0
 10
15.54251325129895
 20
2.37028029051126
 30
0.0
 10
15.37515599511282
 20
2.356338982828754
 30
0.0
  0
LINE
  5
B0
330
1F
100
AcDbEntity
  8
외형선
  6
Continuous
370
    15
100
AcDbLine
 10
15.37515599511284
 20
1.134928697263979
 30
0.0
 11
15.37515599511283
 21
2.381250000000001
 31
0.0
  0
SPLINE
  5
B1
330
1F
100
AcDbEntity
  8
외형선
  6
Continuous
370
    15
100
AcDbSpline
210
0.0
220
0.0
230
1.0
 70
     8
 71
     3
 72
     8
 73
     4
 74
     0
 42
0.000000001
 43
0.00000001
 40
0.0
 40
0.0
 40
0.0
 40
0.0
 40
1.0
 40
1.0
 40
1.0
 40
1.0
 10
15.87500000000019
 20
0.8727050194495164
 30
0.0
 10
15.707568651385
 20
0.9626295129504804
 30
0.0
 10
15.54251325129897
 20
1.049983349825346
 30
0.0
 10
15.37515599511282
 20
1.134936347748853
 30
0.0
  0
SPLINE
  5
B2
330
1F
100
AcDbEntity
  8
외형선
  6
Continuous
370
    15
100
AcDbSpline
210
0.0
220
0.0
230
1.0
 70
     8
 71
     3
 72
     8
 73
     4
 74
     0
 42
0.000000001
 43
0.00000001
 40
0.0
 40
0.0
 40
0.0
 40
0.0
 40
1.0
 40
1.0
 40
1.0
 40
1.0
 10
15.87500000000017
 20
0.0552598776850671
 30
0.0
 10
15.70756865138497
 20
0.1518830110240507
 30
0.0
 10
15.54251325129895
 20
0.2479137236617542
 30
0.0
 10
15.37515599511282
 20
0.3435377133613744
 30
0.0
  0
SPLINE
  5
B3
330
1F
100
AcDbEntity
  8
외형선
  6
Continuous
370
    15
100
AcDbSpline
210
0.0
220
0.0
230
1.0
 70
     8
 71
     3
 72
     8
 73
     4
 74
     0
 42
0.000000001
 43
0.00000001
 40
0.0
 40
0.0
 40
0.0
 40
0.0
 40
1.0
 40
1.0
 40
1.0
 40
1.0
 10
15.87500000000019
 20
-2.215567085765541
 30
0.0
 10
15.707568651385
 20
-2.180146106029046
 30
0.0
 10
15.54251325129897
 20
-2.13944498294663
 30
0.0
 10
15.37515599511282
 20
-2.093387457939521
 30
0.0
  0
SPLINE
  5
B4
330
1F
100
AcDbEntity
  8
외형선
  6
Continuous
370
    15
100
AcDbSpline
210
0.0
220
0.0
230
1.0
 70
     8
 71
     3
 72
     8
 73
     4
 74
     0
 42
0.000000001
 43
0.00000001
 40
0.0
 40
0.0
 40
0.0
 40
0.0
 40
1.0
 40
1.0
 40
1.0
 40
1.0
 10
15.87500000000017
 20
-2.380608726443351
 30
0.0
 10
15.70756865138497
 20
-2.378365862057217
 30
0.0
 10
15.54251325129895
 20
-2.37028029051126
 30
0.0
 10
15.37515599511282
 20
-2.356338982828754
 30
0.0
  0
LINE
  5
B5
330
1F
100
AcDbEntity
  8
외형선
  6
Continuous
370
    15
100
AcDbLine
 10
15.37515599511283
 20
-2.381250000000001
 30
0.0
 11
15.37515599511283
 21
-2.356336511344623
 31
0.0
  0
LINE
  5
B8
330
1F
100
AcDbEntity
  8
외형선
  6
Continuous
370
    15
100
AcDbLine
 10
15.37515599511284
 20
-2.093391605654965
 30
0.0
 11
15.37515599511283
 21
0.3435546649432384
 31
0.0
  0
SPLINE
  5
BB
330
1F
100
AcDbEntity
  8
외형선
  6
Continuous
370
    15
100
AcDbSpline
210
0.0
220
0.0
230
1.0
 70
    24
 71
     3
 72
    20
 73
    16
 74
     0
 42
0.000000001
 43
0.00000001
 40
0.0
 40
0.0
 40
0.0
 40
0.0
 40
0.0816246748575529
 40
0.1574074344046197
 40
0.2353878991124393
 40
0.3111706586593235
 40
0.3891511233669456
 40
0.4649338829141713
 40
0.5429143476222091
 40
0.6186971071692741
 40
0.696677571877093
 40
0.772460331424158
 40
0.8504407961319765
 40
0.9262235556790046
 40
1.0
 40
1.0
 40
1.0
 40
1.0
 10
15.87500000000003
 20
-2.215567085765506
 30
0.0
 10
15.87500000000004
 20
-2.146461598361796
 30
0.0
 10
15.87500000000006
 20
-2.013196534893158
 30
0.0
 10
15.87499999999998
 20
-1.786120276535834
 30
0.0
 10
15.87499999999999
 20
-1.553182689858544
 30
0.0
 10
15.87500000000004
 20
-1.31088894967997
 30
0.0
 10
15.87499999999999
 20
-1.071094830850255
 30
0.0
 10
15.87500000000002
 20
-0.8360994098863473
 30
0.0
 10
15.87500000000004
 20
-0.6168352184266644
 30
0.0
 10
15.87499999999999
 20
-0.4155280913684968
 30
0.0
 10
15.87500000000004
 20
-0.2415836315601807
 30
0.0
 10
15.875
 20
-0.0964901738652809
 30
0.0
 10
15.87500000000002
 20
0.0119029376572883
 30
0.0
 10
15.87500000000003
 20
0.0853506268886409
 30
0.0
 10
15.87500000000002
 20
0.1006122146488491
 30
0.0
 10
15.87500000000002
 20
0.1081406425257089
 30
0.0
  0
SPLINE
  5
BC
330
1F
100
AcDbEntity
  8
외형선
  6
Continuous
370
    15
100
AcDbSpline
210
0.0
220
0.0
230
1.0
 70
    24
 71
     3
 72
    14
 73
    10
 74
     0
 42
0.000000001
 43
0.00000001
 40
0.0
 40
0.0
 40
0.0
 40
0.0
 40
0.1139810537042746
 40
0.2607693637909259
 40
0.4118145448142377
 40
0.558602854900818
 40
0.7096480359240508
 40
0.8528526548767154
 40
1.0
 40
1.0
 40
1.0
 40
1.0
 10
15.875
 20
0.9119988558426372
 30
0.0
 10
15.87500000000002
 20
0.9531146916270234
 30
0.0
 10
15.87500000000005
 20
1.047180766564743
 30
0.0
 10
15.87499999999996
 20
1.228806997334115
 30
0.0
 10
15.87500000000005
 20
1.442620950694943
 30
0.0
 10
15.875
 20
1.674877872820911
 30
0.0
 10
15.87500000000003
 20
1.91137014002139
 30
0.0
 10
15.87500000000002
 20
2.150727639286881
 30
0.0
 10
15.87500000000003
 20
2.303291137688701
 30
0.0
 10
15.87500000000003
 20
2.380608726443416
 30
0.0
  0
LINE
  5
BD
330
1F
100
AcDbEntity
  8
중심선
 62
     1
100
AcDbLine
 10
-31.575
 20
-0.0000000000000039
 30
0.0
 11
31.575
 21
0.0000000000000039
 31
0.0
  0
LINE
  5
BE
330
1F
100
AcDbEntity
  8
참조1
100
AcDbLine
 10
-0.0000000000000018
 20
-0.0000000000000039
 30
0.0
 11
0.0000000000000053
 21
-40.00000000000001
 31
0.0
  0
LINE
  5
BF
330
1F
100
AcDbEntity
  8
참조1
100
AcDbLine
 10
0.0000000000000053
 20
-40.00000000000001
 30
0.0
 11
-18.33385681430867
 21
-40.0
 31
0.0
  0
CIRCLE
  5
C0
330
1F
100
AcDbEntity
  8
해칭선
100
AcDbCircle
 10
0.0
 20
0.0
 30
0.0
 40
2.999999999999999
  0
INSERT
  5
C1
330
1F
100
AcDbEntity
  8
0
  6
Continuous
 62
     7
100
AcDbBlockReference
 66
     1
  2
블럭10
 10
-13.9402729321252
 20
-52.04717430164393
 30
0.0
  0
ATTRIB
  5
C2
330
C1
100
AcDbEntity
  8
FORMAT
 62
     2
100
AcDbText
 10
-23.12156822086648
 20
-49.97180738881174
 30
0.0
 40
4.233333333333333
  1
E2004012 [ 4 FLUTE ]
 41
0.75
  7
SLDTEXTSTYLE0
 11
-23.12156822086648
 21
-52.08847405547841
 31
0.0
100
AcDbAttribute
  2
AUTOATTR0
 70
     0
 74
     1
  0
SEQEND
  5
C3
330
C1
100
AcDbEntity
  8
0
  6
Continuous
 62
     7
  0
HATCH
  5
C4
330
1F
100
AcDbEntity
  8
중심선
100
AcDbHatch
 10
0.0
 20
0.0
 30
0.0
210
0.0
220
0.0
230
1.0
  2
SOLID
 70
     1
 71
     0
 91
        1
 92
        0
 93
        4
 72
     1
 10
-8.22536362774435
 20
-35.8
 11
-11.67163887158163
 21
-35.8
 72
     1
 10
-11.67163887158163
 20
-35.8
 11
-13.79986873078565
 21
-38.3363255805726
 72
     1
 10
-13.79986873078565
 20
-38.3363255805726
 11
-10.35356040183522
 21
-38.33628615127011
 72
     1
 10
-10.35356040183522
 20
-38.33628615127011
 11
-8.22536362774435
 21
-35.8
 97
        0
 75
     0
 76
     1
 98
        1
 10
10.91911934298439
 20
-0.0010749287238931
  0
HATCH
  5
C5
330
1F
100
AcDbEntity
  8
중심선
100
AcDbHatch
 10
0.0
 20
0.0
 30
0.0
210
0.0
220
0.0
230
1.0
  2
SOLID
 70
     1
 71
     0
 91
        1
 92
        0
 93
        4
 72
     1
 10
-3.21259963670837
 20
-35.80000000000003
 11
-6.658874880545653
 21
-35.79999999999998
 72
     1
 10
-6.658874880545653
 20
-35.79999999999998
 11
-11.19001288890307
 21
-41.20000000000002
 72
     1
 10
-11.19001288890307
 20
-41.20000000000002
 11
-7.743737645065789
 21
-41.20000000000002
 72
     1
 10
-7.743737645065789
 20
-41.20000000000002
 11
-3.21259963670837
 21
-35.80000000000003
 97
        0
 75
     0
 76
     1
 98
        1
 10
10.91911934298439
 20
-0.0010749287238931
  0
HATCH
  5
C6
330
1F
100
AcDbEntity
  8
중심선
100
AcDbHatch
 10
0.0
 20
0.0
 30
0.0
210
0.0
220
0.0
230
1.0
  2
SOLID
 70
     1
 71
     0
 91
        1
 92
        0
 93
        4
 72
     1
 10
1.800164354327524
 20
-35.8
 11
-1.646110889509592
 21
-35.8
 72
     1
 10
-1.646110889509592
 20
-35.8
 11
-8.694547791398868
 21
-44.20000000000002
 72
     1
 10
-8.694547791398868
 20
-44.20000000000002
 11
-5.248272547561587
 21
-44.20000000000002
 72
     1
 10
-5.248272547561587
 20
-44.20000000000002
 11
1.800164354327524
 21
-35.8
 97
        0
 75
     0
 76
     1
 98
        1
 10
10.91911934298439
 20
-0.0010749287238931
  0
HATCH
  5
C7
330
1F
100
AcDbEntity
  8
중심선
100
AcDbHatch
 10
0.0
 20
0.0
 30
0.0
210
0.0
220
0.0
230
1.0
  2
SOLID
 70
     1
 71
     0
 91
        1
 92
        0
 93
        6
 72
     3
 10
6.600054785339696
 20
-40.00000000005127
 11
3.960054785062283
 21
1.540882976769353E-10
 40
0.3939339440162628
 50
17.09539180608436
 51
320.0019657685075
 73
     0
 72
     1
 10
8.283054441040292
 20
-38.58789400463827
 11
10.58835631474136
 21
-36.65356729459038
 72
     3
 10
6.600054785286849
 20
-40.00000000000015
 11
6.600054785286829
 21
-1.278976924368180E-13
 40
0.636358354079598
 50
39.99873849337385
 51
368.4976242363724
 73
     1
 72
     1
 10
13.02538727718746
 20
-39.03999999993002
 11
5.280122092122772
 21
-39.03999999993002
 72
     1
 10
5.280122092122772
 20
-39.03999999993002
 11
5.280097047676838
 21
-40.95999999992991
 72
     1
 10
5.280097047676838
 20
-40.95999999992991
 11
9.721476817148876
 21
-40.95999999992988
 97
        0
 75
     0
 76
     1
 98
        1
 10
10.91911934298439
 20
-0.0010749287238931
  0
DIMENSION
  5
C8
330
1F
100
AcDbEntity
  8
치수문자_일반주서
100
AcDbDimension
  2
_D
 10
63.4959962157958
 20
-2.372493171076691
 30
0.0
 11
63.49599621579572
 21
24.73530345637155
 31
0.0
 70
   160
  1
%%c<>
 71
     2
 42
4.744986342153643
 52
-270.0
  3
SLDDIMSTYLE0
100
AcDbAlignedDimension
 13
28.57500000000002
 23
2.372493171076822
 33
0.0
 14
28.57500000000002
 24
-2.372493171076821
 34
0.0
 50
90.0000000000002
100
AcDbRotatedDimension
1001
PE_URL
1000

1001
ACAD
1000
DSTYLE
1002
{
1070
   171
1070
     8
1070
   273
1070
     7
1002
}
  0
DIMENSION
  5
DD
330
1F
100
AcDbEntity
  8
치수문자_일반주서
100
AcDbDimension
  2
_D_1
 10
15.87499999999998
 20
12.38125
 30
0.0
 11
46.11650000000001
 21
12.38125
 31
0.0
 70
   160
  1
<>
 71
     2
 42
12.70000000000003
  3
SLDDIMSTYLE0
100
AcDbAlignedDimension
 13
28.57500000000001
 23
2.372493171076822
 33
0.0
 14
15.87499999999998
 24
2.38060872644351
 34
0.0
 50
0.0000000000006091
100
AcDbRotatedDimension
1001
PE_URL
1000

1001
ACAD
1000
DSTYLE
1002
{
1070
   171
1070
     8
1070
   273
1070
     7
1002
}
  0
DIMENSION
  5
F2
330
1F
100
AcDbEntity
  8
치수문자_일반주서
100
AcDbDimension
  2
_D_2
 10
-28.57500000000003
 20
22.38125
 30
0.0
 11
-1.4581794861211
 21
22.38125
 31
0.0
 70
   160
  1
<>
 71
     2
 42
57.15000000000004
  3
SLDDIMSTYLE0
100
AcDbAlignedDimension
 13
28.57500000000001
 23
2.372493171076822
 33
0.0
 14
-28.57500000000003
 24
2.372493171076807
 34
0.0
100
AcDbRotatedDimension
1001
PE_URL
1000

1001
ACAD
1000
DSTYLE
1002
{
1070
   171
1070
     8
1070
   273
1070
     7
1002
}
  0
DIMENSION
  5
106
330
1F
100
AcDbEntity
  8
치수문자_일반주서
100
AcDbDimension
  2
_D_3
 10
-38.57499999999999
 20
-2.372493171076876
 30
0.0
 11
-38.57500000000007
 21
22.98524999999997
 31
0.0
 70
   160
  1
%%c<>
 71
     2
 42
4.744986342153643
 52
-270.0
  3
SLDDIMSTYLE0
100
AcDbAlignedDimension
 13
-28.57500000000002
 23
2.372493171076807
 33
0.0
 14
-28.575
 24
-2.372493171076836
 34
0.0
 50
90.0000000000002
100
AcDbRotatedDimension
1001
PE_URL
1000

1001
ACAD
1000
DSTYLE
1002
{
1070
   171
1070
     8
1070
   273
1070
     7
1002
}
  0
LINE
  5
11A
330
1F
100
AcDbEntity
  8
참조1
100
AcDbLine
 10
79.6384838153456
 20
7.440000000000002
 30
0.0
 11
79.6384838153456
 21
-7.440000000000002
 31
0.0
  0
LINE
  5
11B
330
1F
100
AcDbEntity
  8
참조1
100
AcDbLine
 10
92.3384838153456
 20
5.440000000000002
 30
0.0
 11
79.6384838153456
 21
5.440000000000002
 31
0.0
  0
SOLID
  5
11C
330
1F
100
AcDbEntity
  8
참조1
100
AcDbTrace
 10
79.6384838153456
 20
5.440000000000002
 30
0.0
 11
85.98848381534559
 21
4.424000000000002
 31
0.0
 12
85.98848381534559
 22
6.456000000000002
 32
0.0
 13
85.98848381534559
 23
6.456000000000002
 33
0.0
  0
LINE
  5
11D
330
1F
100
AcDbEntity
  8
참조1
100
AcDbLine
 10
92.3384838153456
 20
-5.440000000000002
 30
0.0
 11
79.6384838153456
 21
-5.440000000000002
 31
0.0
  0
SOLID
  5
11E
330
1F
100
AcDbEntity
  8
참조1
100
AcDbTrace
 10
79.6384838153456
 20
-5.440000000000002
 30
0.0
 11
85.98848381534559
 21
-6.456000000000002
 31
0.0
 12
85.98848381534559
 22
-4.424000000000002
 32
0.0
 13
85.98848381534559
 23
-4.424000000000002
 33
0.0
  0
MTEXT
  5
11F
330
1F
100
AcDbEntity
  8
참조1
100
AcDbMText
 10
89.02283394797159
 20
11.01029177718833
 30
0.0
 40
3.5
 41
0.0
 71
     1
 72
     1
  1
A
  7
SLDTEXTSTYLE0
 73
     1
 44
1.0
  0
MTEXT
  5
120
330
1F
100
AcDbEntity
  8
참조1
100
AcDbMText
 10
89.02283394797159
 20
0.1302917771883287
 30
0.0
 40
3.5
 41
0.0
 71
     1
 72
     1
  1
A
  7
SLDTEXTSTYLE0
 73
     1
 44
1.0
  0
INSERT
  5
127
330
1F
100
AcDbEntity
  8
해칭선
100
AcDbBlockReference
  2
SW_DOWELSYMBOL_0
 10
0.0
 20
0.0
 30
0.0
  0
LINE
  5
1D3
330
1F
100
AcDbEntity
  8
0
  6
Continuous
 62
     1
370
    15
100
AcDbLine
 10
-22.45103301545569
 20
2.381249999999994
 30
0.0
 11
-23.90180216696645
 21
2.381249999999992
 31
0.0
1001
PE_URL
1000

  0
LINE
  5
1D4
330
1F
100
AcDbEntity
  8
0
  6
Continuous
 62
     1
370
    15
100
AcDbLine
 10
-17.42341849216208
 20
-2.381250000000003
 30
0.0
 11
-15.97050213337512
 21
-2.381250000000001
 31
0.0
1001
PE_URL
1000

  0
LINE
  5
1D5
330
1F
100
AcDbEntity
  8
0
  6
Continuous
 62
     1
370
    15
100
AcDbLine
 10
-23.90180216696643
 20
-2.38125000000001
 30
0.0
 11
-22.45103301545569
 21
-2.38125000000001
 31
0.0
1001
PE_URL
1000

  0
LINE
  5
1D6
330
1F
100
AcDbEntity
  8
0
  6
Continuous
 62
     1
370
    15
100
AcDbLine
 10
-15.97050213337512
 20
2.381250000000002
 30
0.0
 11
-17.42341849216206
 21
2.38125
 31
0.0
1001
PE_URL
1000

  0
SPLINE
  5
1D7
330
1F
100
AcDbEntity
  8
0
  6
Continuous
 62
     1
370
    15
100
AcDbSpline
210
0.0
220
0.0
230
1.0
 70
     8
 71
     3
 72
    18
 73
    14
 74
     0
 42
0.000000001
 43
0.00000001
 40
0.0
 40
0.0
 40
0.0
 40
0.0
 40
0.0964800333398076
 40
0.193032424776222
 40
0.2895273524412128
 40
0.3859559849986747
 40
0.4823478941687891
 40
0.5787329195896083
 40
0.6751409512190096
 40
0.7636105913531486
 40
0.8521564162935897
 40
0.9405459807080648
 40
0.9999999999999999
 40
0.9999999999999999
 40
0.9999999999999999
 40
0.9999999999999999
 10
-15.87500000000019
 20
-0.8727050194495172
 30
0.0
 10
-16.21375398490495
 20
-0.6856269756766034
 30
0.0
 10
-16.8915160134323
 20
-0.3113305833371755
 30
0.0
 10
-17.90836657798482
 20
0.2825272369908237
 30
0.0
 10
-18.92481909350738
 20
0.8558036417700292
 30
0.0
 10
-19.94057259228396
 20
1.37833938945413
 30
0.0
 10
-20.95586307814126
 20
1.817314167824649
 30
0.0
 10
-21.97106089178538
 20
2.146761322124501
 30
0.0
 10
-22.95851665164862
 20
2.340829574135233
 30
0.0
 10
-23.91847398177511
 20
2.402186655502451
 30
0.0
 10
-24.85065591602296
 20
2.33606006618441
 30
0.0
 10
-25.68042030768
 20
2.184146201648387
 30
0.0
 10
-26.19933995785395
 20
2.012817659982937
 30
0.0
 10
-26.40801900985578
 20
1.943919367841531
 30
0.0
1001
PE_URL
1000

  0
SPLINE
  5
1D8
330
1F
100
AcDbEntity
  8
외형선
  6
Continuous
370
    15
100
AcDbSpline
210
0.0
220
0.0
230
1.0
 70
    24
 71
     3
 72
    14
 73
    10
 74
     0
 42
0.000000001
 43
0.00000001
 40
0.0
 40
0.0
 40
0.0
 40
0.0
 40
0.1513762511319887
 40
0.3074404499710253
 40
0.4541725220162875
 40
0.6051598340911979
 40
0.7518919061364618
 40
0.9028792182113751
 40
1.0
 40
1.0
 40
1.0
 40
1.0
 10
-15.87499999999998
 20
-2.38060872644351
 30
0.0
 10
-15.87500000000002
 20
-2.301002197087994
 30
0.0
 10
-15.87500000000008
 20
-2.139323816082564
 30
0.0
 10
-15.87499999999994
 20
-1.892566315868285
 30
0.0
 10
-15.87500000000002
 20
-1.649855637174797
 30
0.0
 10
-15.87499999999996
 20
-1.420920878942189
 30
0.0
 10
-15.87499999999998
 20
-1.207185518350124
 30
0.0
 10
-15.87500000000005
 20
-1.034597586468456
 30
0.0
 10
-15.87500000000005
 20
-0.9464814971374762
 30
0.0
 10
-15.87500000000003
 20
-0.9119888558426366
 30
0.0
  0
SPLINE
  5
1D9
330
1F
100
AcDbEntity
  8
0
  6
Continuous
 62
     1
370
    15
100
AcDbSpline
210
0.0
220
0.0
230
1.0
 70
     8
 71
     3
 72
    38
 73
    34
 74
     0
 42
0.000000001
 43
0.00000001
 40
0.0
 40
0.0
 40
0.0
 40
0.0
 40
0.0625
 40
0.0625
 40
0.125
 40
0.125
 40
0.1875
 40
0.1875
 40
0.25
 40
0.25
 40
0.3125
 40
0.3125
 40
0.375
 40
0.375
 40
0.4375
 40
0.4375
 40
0.5
 40
0.5
 40
0.5625
 40
0.5625
 40
0.625
 40
0.625
 40
0.6875
 40
0.6875
 40
0.75
 40
0.75
 40
0.8125
 40
0.8125
 40
0.875
 40
0.875
 40
0.9375
 40
0.9375
 40
1.0
 40
1.0
 40
1.0
 40
1.0
 10
-28.57500000000003
 20
2.372493171076807
 30
0.0
 10
-28.31313358972777
 20
2.359450348136634
 30
0.0
 10
-28.04582228306496
 20
2.331639405464528
 30
0.0
 10
-27.51498211086428
 20
2.247626615986988
 30
0.0
 10
-27.25401085020394
 20
2.191756245341274
 30
0.0
 10
-26.72294367126085
 20
2.053076429750561
 30
0.0
 10
-26.4564088228077
 20
1.970425147019858
 30
0.0
 10
-25.93200477337047
 20
1.782945999548956
 30
0.0
 10
-25.66458493749248
 20
1.676968930940861
 30
0.0
 10
-25.1340013635425
 20
1.446125023550416
 30
0.0
 10
-24.87297890637699
 20
1.321707927491051
 30
0.0
 10
-24.3417143544788
 20
1.056685477513555
 30
0.0
 10
-24.07590579770466
 20
0.9167514140515165
 30
0.0
 10
-23.55085892138285
 20
0.6285338735226083
 30
0.0
 10
-23.28334572161747
 20
0.4787317950362467
 30
0.0
 10
-22.75304828966293
 20
0.1759201359211391
 30
0.0
 10
-22.49192344899983
 20
0.0232634658921518
 30
0.0
 10
-21.96049119471149
 20
-0.2822154857890344
 30
0.0
 10
-21.69535862906207
 20
-0.4340283661601806
 30
0.0
 10
-21.16969744587001
 20
-0.729611186828494
 30
0.0
 10
-20.90210606536789
 20
-0.8746781825232774
 30
0.0
 10
-20.37212426592393
 20
-1.151295678183015
 30
0.0
 10
-20.11084587379242
 20
-1.282725777599442
 30
0.0
 10
-19.57927561894113
 20
-1.52964023590212
 30
0.0
 10
-19.3147686190037
 20
-1.644159854914168
 30
0.0
 10
-18.78852176189189
 20
-1.851272722419308
 30
0.0
 10
-18.52086739873426
 20
-1.944570283900743
 30
0.0
 10
-17.99123066364117
 20
-2.105360947083807
 30
0.0
 10
-17.72974758059369
 20
-2.17295646483407
 30
0.0
 10
-17.19806905274091
 20
-2.281255085164671
 30
0.0
 10
-16.93413707745767
 20
-2.321456652332241
 30
0.0
 10
-16.40733328719968
 20
-2.372881067381104
 30
0.0
 10
-16.13963115149977
 20
-2.384153652707572
 30
0.0
 10
-15.87500000000018
 20
-2.380608726443352
 30
0.0
1001
PE_URL
1000

  0
SPLINE
  5
1DA
330
1F
100
AcDbEntity
  8
0
  6
Continuous
 62
     1
370
    15
100
AcDbSpline
210
0.0
220
0.0
230
1.0
 70
     8
 71
     3
 72
    12
 73
     8
 74
     0
 42
0.000000001
 43
0.00000001
 40
0.0
 40
0.0
 40
0.0
 40
0.0
 40
0.2491780345820368
 40
0.498542947709554
 40
0.7477594497189636
 40
0.9968047320052401
 40
1.0
 40
1.0
 40
1.0
 40
1.0
 10
-15.87500000000018
 20
2.215567085765539
 30
0.0
 10
-16.21375388735454
 20
2.274037138275295
 30
0.0
 10
-16.89151572070791
 20
2.391021094665515
 30
0.0
 10
-17.90836774961624
 20
2.38949242625274
 30
0.0
 10
-18.92481470419267
 20
2.24007925796602
 30
0.0
 10
-19.6065047938155
 20
2.080631970439111
 30
0.0
 10
-19.94937531703057
 20
1.94818462712778
 30
0.0
 10
-19.95371864409656
 20
1.946506844722841
 30
0.0
1001
PE_URL
1000

  0
SPLINE
  5
1DB
330
1F
100
AcDbEntity
  8
외형선
  6
Continuous
370
    15
100
AcDbSpline
210
0.0
220
0.0
230
1.0
 70
    24
 71
     3
 72
    21
 73
    17
 74
     0
 42
0.000000001
 43
0.00000001
 40
0.0
 40
0.0
 40
0.0
 40
0.0
 40
0.0040641856848848
 40
0.0798937670860385
 40
0.1579224114848866
 40
0.2337519928860416
 40
0.3117806372848908
 40
0.3876102186861105
 40
0.4656388630848974
 40
0.5414684444860092
 40
0.6194970888848115
 40
0.6953266702860093
 40
0.7733553146849051
 40
0.8491848960858756
 40
0.9272135404849081
 40
1.0
 40
1.0
 40
1.0
 40
1.0
 10
-15.87499999999999
 20
-0.1080172759632434
 30
0.0
 10
-15.87499999999999
 20
-0.1081252819452538
 30
0.0
 10
-15.87499999999986
 20
-0.110248463669629
 30
0.0
 10
-15.87500000000013
 20
-0.0758477965615112
 30
0.0
 10
-15.87499999999994
 20
-0.0042454672510385
 30
0.0
 10
-15.875
 20
0.1105701877395176
 30
0.0
 10
-15.87500000000009
 20
0.2571698394926119
 30
0.0
 10
-15.87500000000001
 20
0.4356833983824287
 30
0.0
 10
-15.87500000000002
 20
0.6374071469038596
 30
0.0
 10
-15.87499999999997
 20
0.8603766489133309
 30
0.0
 10
-15.87500000000005
 20
1.094247893482981
 30
0.0
 10
-15.87500000000001
 20
1.336575241146577
 30
0.0
 10
-15.87500000000005
 20
1.576298530605631
 30
0.0
 10
-15.87499999999999
 20
1.810339477915612
 30
0.0
 10
-15.87500000000002
 20
2.027214444721273
 30
0.0
 10
-15.87500000000002
 20
2.154254804797191
 30
0.0
 10
-15.87500000000002
 20
2.215567085765507
 30
0.0
  0
SPLINE
  5
1DC
330
1F
100
AcDbEntity
  8
0
  6
Continuous
 62
     1
370
    15
100
AcDbSpline
210
0.0
220
0.0
230
1.0
 70
     8
 71
     3
 72
    14
 73
    10
 74
     0
 42
0.000000001
 43
0.00000001
 40
0.0
 40
0.0
 40
0.0
 40
0.0
 40
0.1500665174608686
 40
0.2918820730729292
 40
0.4334476084562432
 40
0.5749178414182181
 40
0.7164615641286394
 40
0.8582454313830002
 40
1.0
 40
1.0
 40
1.0
 40
1.0
 10
-22.45103301545569
 20
2.379213173105362
 30
0.0
 10
-22.12204911692949
 20
2.366947578926011
 30
0.0
 10
-21.48216952263903
 20
2.343090777841295
 30
0.0
 10
-20.53173568925871
 20
2.145081667782778
 30
0.0
 10
-19.60067584449159
 20
1.851485597317938
 30
0.0
 10
-18.67027759570211
 20
1.461376521743159
 30
0.0
 10
-17.7393666516704
 20
0.9976385440605544
 30
0.0
 10
-16.80732174437246
 20
0.4833386090353787
 30
0.0
 10
-16.18575250542813
 20
0.1242605831197745
 30
0.0
 10
-15.87500000000018
 20
-0.0552598776850652
 30
0.0
1001
PE_URL
1000

  0
LINE
  5
1DD
330
1F
100
AcDbEntity
  8
0
  6
Continuous
 62
     1
370
    15
100
AcDbLine
 10
-28.57500000000002
 20
2.156653712915232
 30
0.0
 11
-28.57500000000002
 21
-0.2040287129152884
 31
0.0
1001
PE_URL
1000

  0
SPLINE
  5
1DE
330
1F
100
AcDbEntity
  8
0
  6
Continuous
 62
     1
370
    15
100
AcDbSpline
210
0.0
220
0.0
230
1.0
 70
     8
 71
     3
 72
    19
 73
    15
 74
     0
 42
0.000000001
 43
0.00000001
 40
0.0
 40
0.0
 40
0.0
 40
0.0
 40
0.0434902631681504
 40
0.1346296815691716
 40
0.225706484269148
 40
0.3167486017452954
 40
0.4077842175231411
 40
0.4988415626552719
 40
0.5824011003748739
 40
0.6660325946118334
 40
0.7495165008480524
 40
0.8329394601952366
 40
0.9164009993913426
 40
1.0
 40
1.0
 40
1.0
 40
1.0
 10
-17.42341849216208
 20
-2.363236998700632
 30
0.0
 10
-17.58512552475121
 20
-2.366978624144335
 30
0.0
 10
-18.08571036188584
 20
-2.378561305078905
 30
0.0
 10
-18.92482000176365
 20
-2.243106134673693
 30
0.0
 10
-19.94057234883858
 20
-1.972729771199125
 30
0.0
 10
-20.955863144297
 20
-1.575533690855545
 30
0.0
 10
-21.97106087054294
 20
-1.085374962634931
 30
0.0
 10
-22.95851666935229
 20
-0.5444051887644379
 30
0.0
 10
-23.91847393507643
 20
0.0098897888665912
 30
0.0
 10
-24.85065608701137
 20
0.5467652915337313
 30
0.0
 10
-25.78176152939959
 20
1.057079543666099
 30
0.0
 10
-26.71216452883257
 20
1.511404109119041
 30
0.0
 10
-27.64302980090608
 20
1.896956251178117
 30
0.0
 10
-28.2641729031626
 20
2.070040419736682
 30
0.0
 10
-28.57500000000003
 20
2.156653712915231
 30
0.0
1001
PE_URL
1000

  0
SPLINE
  5
1DF
330
1F
100
AcDbEntity
  8
0
  6
Continuous
 62
     1
370
    15
100
AcDbSpline
210
0.0
220
0.0
230
1.0
 70
     8
 71
     3
 72
    16
 73
    12
 74
     0
 42
0.000000001
 43
0.00000001
 40
0.0
 40
0.0
 40
0.0
 40
0.0
 40
0.1179369526642264
 40
0.2357784386854778
 40
0.353560380684686
 40
0.4713191350112149
 40
0.5890912274350366
 40
0.7069130862359403
 40
0.8248207767912468
 40
0.9329959860918929
 40
1.0
 40
1.0
 40
1.0
 40
1.0
 10
-28.57500000000003
 20
-0.2040287129152884
 30
0.0
 10
-28.23600716197991
 20
-0.3976650670372021
 30
0.0
 10
-27.5582958910986
 20
-0.7847810321036925
 30
0.0
 10
-26.54226182873079
 20
-1.314978412265647
 30
0.0
 10
-25.52682667866614
 20
-1.766523512205282
 30
0.0
 10
-24.51163520932521
 20
-2.111290885948967
 30
0.0
 10
-23.49630531745231
 20
-2.328367896706417
 30
0.0
 10
-22.48045984572022
 20
-2.406218853143856
 30
0.0
 10
-21.49205541091118
 20
-2.335890418713045
 30
0.0
 10
-20.64951838908105
 20
-2.178610075895832
 30
0.0
 10
-20.14622319703432
 20
-2.01072205761195
 30
0.0
 10
-19.95371864409657
 20
-1.946506844722847
 30
0.0
1001
PE_URL
1000

  0
LINE
  5
1E0
330
1F
100
AcDbEntity
  8
외형선
  6
Continuous
370
    15
100
AcDbLine
 10
-15.87499999999999
 20
-0.055259877685122
 30
0.0
 11
-15.87500000000002
 21
-0.8727050194496078
 31
0.0
  0
LINE
  5
1E1
330
1F
100
AcDbEntity
  8
0
  6
Continuous
 62
     1
370
    15
100
AcDbLine
 10
-28.57500000000002
 20
2.372493171076807
 30
0.0
 11
-28.57500000000002
 21
2.156653712915232
 31
0.0
1001
PE_URL
1000

  0
SPLINE
  5
1E2
330
1F
100
AcDbEntity
  8
0
  6
Continuous
 62
     1
370
    15
100
AcDbSpline
210
0.0
220
0.0
230
1.0
 70
     8
 71
     3
 72
    13
 73
     9
 74
     0
 42
0.000000001
 43
0.00000001
 40
0.0
 40
0.0
 40
0.0
 40
0.0
 40
0.0035233900809605
 40
0.2030852853218714
 40
0.4022950053277093
 40
0.6013592935581595
 40
0.800515641219562
 40
1.0
 40
1.0
 40
1.0
 40
1.0
 10
-23.90180216696645
 20
-2.380200132289351
 30
0.0
 10
-23.90729117324703
 20
-2.380549346999481
 30
0.0
 10
-24.22367294790432
 20
-2.40067779358522
 30
0.0
 10
-24.85067531127065
 20
-2.329380687297165
 30
0.0
 10
-25.78175638817112
 20
-2.15917626208879
 30
0.0
 10
-26.71216590003669
 20
-1.863999136763214
 30
0.0
 10
-27.64302945738012
 20
-1.481570547052383
 30
0.0
 10
-28.26417278859115
 20
-1.166978158435883
 30
0.0
 10
-28.57500000000003
 20
-1.009552537052371
 30
0.0
1001
PE_URL
1000

  0
LINE
  5
1E3
330
1F
100
AcDbEntity
  8
0
  6
Continuous
 62
     1
370
    15
100
AcDbLine
 10
-28.57500000000002
 20
-0.2040287129152884
 30
0.0
 11
-28.57500000000002
 21
-1.009552537052371
 31
0.0
1001
PE_URL
1000

  0
SPLINE
  5
1E4
330
1F
100
AcDbEntity
  8
0
  6
Continuous
 62
     1
370
    15
100
AcDbSpline
210
0.0
220
0.0
230
1.0
 70
     8
 71
     3
 72
    10
 73
     6
 74
     0
 42
0.000000001
 43
0.00000001
 40
0.0
 40
0.0
 40
0.0
 40
0.0
 40
0.4692461639019649
 40
0.9381124862446503
 40
1.0
 40
1.0
 40
1.0
 40
1.0
 10
-28.57500000000002
 20
-2.372493171076836
 30
0.0
 10
-28.23600850859943
 20
-2.339781852577312
 30
0.0
 10
-27.55829992986713
 20
-2.274385694469689
 30
0.0
 10
-26.83602511827212
 20
-2.105465776023892
 30
0.0
 10
-26.45271422717151
 20
-1.96078910796513
 30
0.0
 10
-26.40801900985576
 20
-1.943919367841554
 30
0.0
1001
PE_URL
1000

  0
LINE
  5
1E5
330
1F
100
AcDbEntity
  8
0
  6
Continuous
 62
     1
370
    15
100
AcDbLine
 10
-15.97050213337513
 20
2.375682119118603
 30
0.0
 11
-15.87500000000018
 21
2.380608726443353
 31
0.0
1001
PE_URL
1000

  0
LINE
  5
1E6
330
1F
100
AcDbEntity
  8
0
  6
Continuous
 62
     1
370
    15
100
AcDbLine
 10
-28.57500000000002
 20
-1.009552537052371
 30
0.0
 11
-28.575
 21
-2.372493171076836
 31
0.0
1001
PE_URL
1000

  0
LINE
  5
1E7
330
1F
100
AcDbEntity
  8
외형선
  6
Continuous
370
    15
100
AcDbLine
 10
-15.87499999999999
 20
2.380608726443511
 30
0.0
 11
-15.87500000000002
 21
2.215567085765507
 31
0.0
  0
SPLINE
  5
1E8
330
1F
100
AcDbEntity
  8
외형선
  6
Continuous
370
    15
100
AcDbSpline
210
0.0
220
0.0
230
1.0
 70
     8
 71
     3
 72
     8
 73
     4
 74
     0
 42
0.000000001
 43
0.00000001
 40
0.0
 40
0.0
 40
0.0
 40
0.0
 40
1.0
 40
1.0
 40
1.0
 40
1.0
 10
-15.87500000000017
 20
-2.38060872644335
 30
0.0
 10
-15.70756865138497
 20
-2.378365862057217
 30
0.0
 10
-15.54251325129895
 20
-2.370280290511258
 30
0.0
 10
-15.37515599511282
 20
-2.356338982828754
 30
0.0
  0
LINE
  5
1E9
330
1F
100
AcDbEntity
  8
외형선
  6
Continuous
370
    15
100
AcDbLine
 10
-15.37515599511284
 20
-1.134928697263978
 30
0.0
 11
-15.37515599511283
 21
-2.381249999999999
 31
0.0
  0
SPLINE
  5
1EA
330
1F
100
AcDbEntity
  8
외형선
  6
Continuous
370
    15
100
AcDbSpline
210
0.0
220
0.0
230
1.0
 70
     8
 71
     3
 72
     8
 73
     4
 74
     0
 42
0.000000001
 43
0.00000001
 40
0.0
 40
0.0
 40
0.0
 40
0.0
 40
1.0
 40
1.0
 40
1.0
 40
1.0
 10
-15.87500000000019
 20
-0.8727050194495172
 30
0.0
 10
-15.707568651385
 20
-0.9626295129504798
 30
0.0
 10
-15.54251325129897
 20
-1.049983349825346
 30
0.0
 10
-15.37515599511282
 20
-1.134936347748851
 30
0.0
  0
SPLINE
  5
1EB
330
1F
100
AcDbEntity
  8
외형선
  6
Continuous
370
    15
100
AcDbSpline
210
0.0
220
0.0
230
1.0
 70
     8
 71
     3
 72
     8
 73
     4
 74
     0
 42
0.000000001
 43
0.00000001
 40
0.0
 40
0.0
 40
0.0
 40
0.0
 40
1.0
 40
1.0
 40
1.0
 40
1.0
 10
-15.87500000000017
 20
-0.055259877685067
 30
0.0
 10
-15.70756865138498
 20
-0.1518830110240505
 30
0.0
 10
-15.54251325129895
 20
-0.247913723661753
 30
0.0
 10
-15.37515599511283
 20
-0.3435377133613746
 30
0.0
  0
SPLINE
  5
1EC
330
1F
100
AcDbEntity
  8
외형선
  6
Continuous
370
    15
100
AcDbSpline
210
0.0
220
0.0
230
1.0
 70
     8
 71
     3
 72
     8
 73
     4
 74
     0
 42
0.000000001
 43
0.00000001
 40
0.0
 40
0.0
 40
0.0
 40
0.0
 40
1.0
 40
1.0
 40
1.0
 40
1.0
 10
-15.8750000000002
 20
2.215567085765542
 30
0.0
 10
-15.707568651385
 20
2.180146106029047
 30
0.0
 10
-15.54251325129898
 20
2.139444982946631
 30
0.0
 10
-15.37515599511283
 20
2.093387457939522
 30
0.0
  0
SPLINE
  5
1ED
330
1F
100
AcDbEntity
  8
외형선
  6
Continuous
370
    15
100
AcDbSpline
210
0.0
220
0.0
230
1.0
 70
     8
 71
     3
 72
     8
 73
     4
 74
     0
 42
0.000000001
 43
0.00000001
 40
0.0
 40
0.0
 40
0.0
 40
0.0
 40
1.0
 40
1.0
 40
1.0
 40
1.0
 10
-15.87500000000017
 20
2.380608726443351
 30
0.0
 10
-15.70756865138498
 20
2.378365862057218
 30
0.0
 10
-15.54251325129896
 20
2.370280290511261
 30
0.0
 10
-15.37515599511283
 20
2.356338982828755
 30
0.0
  0
LINE
  5
1EE
330
1F
100
AcDbEntity
  8
외형선
  6
Continuous
370
    15
100
AcDbLine
 10
-15.37515599511283
 20
2.381250000000002
 30
0.0
 11
-15.37515599511283
 21
2.356336511344624
 31
0.0
  0
LINE
  5
1EF
330
1F
100
AcDbEntity
  8
외형선
  6
Continuous
370
    15
100
AcDbLine
 10
-15.37515599511284
 20
2.093391605654965
 30
0.0
 11
-15.37515599511283
 21
-0.3435546649432372
 31
0.0
  0
SPLINE
  5
1F0
330
1F
100
AcDbEntity
  8
외형선
  6
Continuous
370
    15
100
AcDbSpline
210
0.0
220
0.0
230
1.0
 70
    24
 71
     3
 72
    20
 73
    16
 74
     0
 42
0.000000001
 43
0.00000001
 40
0.0
 40
0.0
 40
0.0
 40
0.0
 40
0.0816246748575529
 40
0.1574074344046197
 40
0.2353878991124393
 40
0.3111706586593235
 40
0.3891511233669456
 40
0.4649338829141713
 40
0.5429143476222091
 40
0.6186971071692741
 40
0.696677571877093
 40
0.772460331424158
 40
0.8504407961319765
 40
0.9262235556790046
 40
1.0
 40
1.0
 40
1.0
 40
1.0
 10
-15.87500000000004
 20
2.215567085765507
 30
0.0
 10
-15.87500000000004
 20
2.146461598361797
 30
0.0
 10
-15.87500000000006
 20
2.013196534893158
 30
0.0
 10
-15.87499999999998
 20
1.786120276535834
 30
0.0
 10
-15.87499999999999
 20
1.553182689858543
 30
0.0
 10
-15.87500000000004
 20
1.31088894967997
 30
0.0
 10
-15.87499999999999
 20
1.071094830850255
 30
0.0
 10
-15.87500000000003
 20
0.8360994098863472
 30
0.0
 10
-15.87500000000004
 20
0.6168352184266637
 30
0.0
 10
-15.87499999999999
 20
0.4155280913684972
 30
0.0
 10
-15.87500000000004
 20
0.2415836315601807
 30
0.0
 10
-15.87500000000001
 20
0.0964901738652808
 30
0.0
 10
-15.87500000000002
 20
-0.0119029376572876
 30
0.0
 10
-15.87500000000003
 20
-0.0853506268886403
 30
0.0
 10
-15.87500000000002
 20
-0.1006122146488495
 30
0.0
 10
-15.87500000000002
 20
-0.1081406425257094
 30
0.0
  0
SPLINE
  5
1F1
330
1F
100
AcDbEntity
  8
외형선
  6
Continuous
370
    15
100
AcDbSpline
210
0.0
220
0.0
230
1.0
 70
    24
 71
     3
 72
    14
 73
    10
 74
     0
 42
0.000000001
 43
0.00000001
 40
0.0
 40
0.0
 40
0.0
 40
0.0
 40
0.1139810537042746
 40
0.2607693637909259
 40
0.4118145448142377
 40
0.558602854900818
 40
0.7096480359240508
 40
0.8528526548767154
 40
1.0
 40
1.0
 40
1.0
 40
1.0
 10
-15.875
 20
-0.911998855842638
 30
0.0
 10
-15.87500000000002
 20
-0.9531146916270232
 30
0.0
 10
-15.87500000000005
 20
-1.047180766564743
 30
0.0
 10
-15.87499999999996
 20
-1.228806997334116
 30
0.0
 10
-15.87500000000005
 20
-1.442620950694943
 30
0.0
 10
-15.875
 20
-1.674877872820911
 30
0.0
 10
-15.87500000000003
 20
-1.91137014002139
 30
0.0
 10
-15.87500000000002
 20
-2.150727639286881
 30
0.0
 10
-15.87500000000003
 20
-2.303291137688701
 30
0.0
 10
-15.87500000000003
 20
-2.380608726443416
 30
0.0
  0
ENDSEC
  0
SECTION
  2
OBJECTS
  0
DICTIONARY
  5
C
330
0
100
AcDbDictionary
281
     1
  3
ACAD_DETAILVIEWSTYLE
350
1AC
  3
ACAD_GROUP
350
D
  3
ACAD_IMAGE_VARS
350
215
  3
ACAD_LAYOUT
350
1A
  3
ACAD_MLINESTYLE
350
17
  3
ACAD_PLOTSETTINGS
350
19
  3
ACAD_PLOTSTYLENAME
350
E
  3
ACAD_SCALELIST
350
47
  3
ACAD_SECTIONVIEWSTYLE
350
1AD
  3
AcDbVariableDictionary
350
1A7
  3
APPDATA
350
149
  3
DWGPROPS
350
216
  0
DICTIONARY
  5
182
330
2
100
AcDbDictionary
280
     1
281
     1
  3
ACAD_LAYERSTATES
360
183
  0
DICTIONARY
  5
1AC
102
{ACAD_REACTORS
330
C
102
}
330
C
100
AcDbDictionary
281
     1
  0
DICTIONARY
  5
D
102
{ACAD_REACTORS
330
C
102
}
330
C
100
AcDbDictionary
281
     1
  0
RASTERVARIABLES
  5
215
102
{ACAD_REACTORS
330
C
102
}
330
C
100
AcDbRasterVariables
 90
        0
 70
     1
 71
     1
 72
     1
  0
DICTIONARY
  5
1A
102
{ACAD_REACTORS
330
C
102
}
330
C
100
AcDbDictionary
281
     1
  3
Layout1
350
1E
  3
Layout2
350
26
  3
Model
350
22
  0
DICTIONARY
  5
17
102
{ACAD_REACTORS
330
C
102
}
330
C
100
AcDbDictionary
281
     1
  3
Standard
350
18
  0
DICTIONARY
  5
19
102
{ACAD_REACTORS
330
C
102
}
330
C
100
AcDbDictionary
281
     1
  0
ACDBDICTIONARYWDFLT
  5
E
102
{ACAD_REACTORS
330
C
102
}
330
C
100
AcDbDictionary
281
     1
  3
Normal
350
F
100
AcDbDictionaryWithDefault
340
F
  0
DICTIONARY
  5
47
102
{ACAD_REACTORS
330
C
102
}
330
C
100
AcDbDictionary
281
     1
  3
A0
350
48
  3
A1
350
49
  3
A2
350
4A
  3
A3
350
4B
  3
A4
350
4C
  3
A5
350
4D
  3
A6
350
4E
  3
A7
350
4F
  3
A8
350
50
  3
A9
350
51
  3
B0
350
52
  3
B1
350
53
  3
B2
350
54
  3
B3
350
55
  3
B4
350
56
  3
B5
350
57
  3
B6
350
58
  3
B7
350
59
  3
B8
350
5A
  3
B9
350
5B
  3
C0
350
5C
  3
C1
350
5D
  3
C2
350
5E
  3
C3
350
5F
  3
C4
350
60
  3
C5
350
61
  3
C6
350
62
  3
C7
350
63
  3
C8
350
64
  3
C9
350
65
  3
D0
350
66
  3
D1
350
67
  3
D2
350
68
  0
DICTIONARY
  5
1AD
102
{ACAD_REACTORS
330
C
102
}
330
C
100
AcDbDictionary
281
     1
  0
DICTIONARY
  5
1A7
102
{ACAD_REACTORS
330
C
102
}
330
C
100
AcDbDictionary
281
     1
  0
DICTIONARY
  5
149
102
{ACAD_REACTORS
330
C
102
}
330
C
100
AcDbDictionary
281
     1
  0
XRECORD
  5
216
102
{ACAD_REACTORS
330
C
102
}
330
C
100
AcDbXrecord
280
     1
  1
DWGPROPS COOKIE
  2

  3

  4

  6

  7

  8
12016016
  9

300
=
301
=
302
=
303
=
304
=
305
=
306
=
307
=
308
=
309
=
 40
0.0
 41
2458313.083952315
 42
2458318.282530324
  1

 90
        0
  0
DICTIONARY
  5
183
102
{ACAD_REACTORS
330
182
102
}
330
182
100
AcDbDictionary
281
     1
  0
LAYOUT
  5
1E
102
{ACAD_REACTORS
330
1A
102
}
330
1A
100
AcDbPlotSettings
  1

  2
none_device
  4

  6

 40
0.0
 41
0.0
 42
0.0
 43
0.0
 44
0.0
 45
0.0
 46
0.0
 47
0.0
 48
0.0
 49
0.0
140
0.0
141
0.0
142
1.0
143
1.0
 70
   688
 72
     1
 73
     0
 74
     5
  7

 75
    16
147
1.0
148
0.0
149
0.0
100
AcDbLayout
  1
Layout1
 70
     1
 71
     1
 10
0.0
 20
0.0
 11
420.0
 21
297.0
 12
0.0
 22
0.0
 32
0.0
 14
1.000000000000000E+20
 24
1.000000000000000E+20
 34
1.000000000000000E+20
 15
-1.000000000000000E+20
 25
-1.000000000000000E+20
 35
-1.000000000000000E+20
146
0.0
 13
0.0
 23
0.0
 33
0.0
 16
1.0
 26
0.0
 36
0.0
 17
0.0
 27
1.0
 37
0.0
 76
     0
330
1B
  0
LAYOUT
  5
26
102
{ACAD_REACTORS
330
1A
102
}
330
1A
100
AcDbPlotSettings
  1

  2
none_device
  4

  6

 40
0.0
 41
0.0
 42
0.0
 43
0.0
 44
0.0
 45
0.0
 46
0.0
 47
0.0
 48
0.0
 49
0.0
140
0.0
141
0.0
142
1.0
143
1.0
 70
   688
 72
     1
 73
     0
 74
     5
  7

 75
    16
147
1.0
148
0.0
149
0.0
100
AcDbLayout
  1
Layout2
 70
     1
 71
     2
 10
0.0
 20
0.0
 11
0.0
 21
0.0
 12
0.0
 22
0.0
 32
0.0
 14
0.0
 24
0.0
 34
0.0
 15
0.0
 25
0.0
 35
0.0
146
0.0
 13
0.0
 23
0.0
 33
0.0
 16
1.0
 26
0.0
 36
0.0
 17
0.0
 27
1.0
 37
0.0
 76
     0
330
23
  0
LAYOUT
  5
22
102
{ACAD_REACTORS
330
1A
102
}
330
1A
100
AcDbPlotSettings
  1

  2
none_device
  4
ANSI_A_(11.00_x_8.50_Inches)
  6

 40
6.35
 41
19.05
 42
6.35000508
 43
19.05000254
 44
279.4
 45
215.9
 46
110.8622442514257
 47
79.71140990160562
 48
0.0
 49
0.0
140
0.0
141
0.0
142
0.072047265776371
143
1.0
 70
  1696
 72
     0
 73
     0
 74
     0
  7

 75
     0
147
0.0235690232323232
148
0.0
149
0.0
100
AcDbLayout
  1
Model
 70
     1
 71
     0
 10
0.0
 20
0.0
 11
420.0
 21
297.0
 12
0.0
 22
0.0
 32
0.0
 14
-42.95000000000011
 24
-49.97180738881175
 34
0.0
 15
92.3384838153456
 25
38.73530345637154
 35
0.0
146
0.0
 13
0.0
 23
0.0
 33
0.0
 16
1.0
 26
0.0
 36
0.0
 17
0.0
 27
1.0
 37
0.0
 76
     0
330
1F
331
29
  0
MLINESTYLE
  5
18
102
{ACAD_REACTORS
330
17
102
}
330
17
100
AcDbMlineStyle
  2
Standard
 70
     0
  3

 62
   256
 51
90.0
 52
90.0
 71
     2
 49
0.5
 62
   256
  6
BYLAYER
 49
-0.5
 62
   256
  6
BYLAYER
  0
ACDBPLACEHOLDER
  5
F
102
{ACAD_REACTORS
330
E
102
}
330
E
  0
SCALE
  5
48
102
{ACAD_REACTORS
330
47
102
}
330
47
100
AcDbScale
 70
     0
300
1:1
140
1.0
141
1.0
290
     1
  0
SCALE
  5
49
102
{ACAD_REACTORS
330
47
102
}
330
47
100
AcDbScale
 70
     0
300
1:2
140
1.0
141
2.0
290
     0
  0
SCALE
  5
4A
102
{ACAD_REACTORS
330
47
102
}
330
47
100
AcDbScale
 70
     0
300
1:4
140
1.0
141
4.0
290
     0
  0
SCALE
  5
4B
102
{ACAD_REACTORS
330
47
102
}
330
47
100
AcDbScale
 70
     0
300
1:5
140
1.0
141
5.0
290
     0
  0
SCALE
  5
4C
102
{ACAD_REACTORS
330
47
102
}
330
47
100
AcDbScale
 70
     0
300
1:8
140
1.0
141
8.0
290
     0
  0
SCALE
  5
4D
102
{ACAD_REACTORS
330
47
102
}
330
47
100
AcDbScale
 70
     0
300
1:10
140
1.0
141
10.0
290
     0
  0
SCALE
  5
4E
102
{ACAD_REACTORS
330
47
102
}
330
47
100
AcDbScale
 70
     0
300
1:16
140
1.0
141
16.0
290
     0
  0
SCALE
  5
4F
102
{ACAD_REACTORS
330
47
102
}
330
47
100
AcDbScale
 70
     0
300
1:20
140
1.0
141
20.0
290
     0
  0
SCALE
  5
50
102
{ACAD_REACTORS
330
47
102
}
330
47
100
AcDbScale
 70
     0
300
1:30
140
1.0
141
30.0
290
     0
  0
SCALE
  5
51
102
{ACAD_REACTORS
330
47
102
}
330
47
100
AcDbScale
 70
     0
300
1:40
140
1.0
141
40.0
290
     0
  0
SCALE
  5
52
102
{ACAD_REACTORS
330
47
102
}
330
47
100
AcDbScale
 70
     0
300
1:50
140
1.0
141
50.0
290
     0
  0
SCALE
  5
53
102
{ACAD_REACTORS
330
47
102
}
330
47
100
AcDbScale
 70
     0
300
1:100
140
1.0
141
100.0
290
     0
  0
SCALE
  5
54
102
{ACAD_REACTORS
330
47
102
}
330
47
100
AcDbScale
 70
     0
300
2:1
140
2.0
141
1.0
290
     0
  0
SCALE
  5
55
102
{ACAD_REACTORS
330
47
102
}
330
47
100
AcDbScale
 70
     0
300
4:1
140
4.0
141
1.0
290
     0
  0
SCALE
  5
56
102
{ACAD_REACTORS
330
47
102
}
330
47
100
AcDbScale
 70
     0
300
8:1
140
8.0
141
1.0
290
     0
  0
SCALE
  5
57
102
{ACAD_REACTORS
330
47
102
}
330
47
100
AcDbScale
 70
     0
300
10:1
140
10.0
141
1.0
290
     0
  0
SCALE
  5
58
102
{ACAD_REACTORS
330
47
102
}
330
47
100
AcDbScale
 70
     0
300
100:1
140
100.0
141
1.0
290
     0
  0
SCALE
  5
59
102
{ACAD_REACTORS
330
47
102
}
330
47
100
AcDbScale
 70
     0
300
1/128" = 1'-0"
140
0.0078125
141
12.0
290
     0
  0
SCALE
  5
5A
102
{ACAD_REACTORS
330
47
102
}
330
47
100
AcDbScale
 70
     0
300
1/64" = 1'-0"
140
0.015625
141
12.0
290
     0
  0
SCALE
  5
5B
102
{ACAD_REACTORS
330
47
102
}
330
47
100
AcDbScale
 70
     0
300
1/32" = 1'-0"
140
0.03125
141
12.0
290
     0
  0
SCALE
  5
5C
102
{ACAD_REACTORS
330
47
102
}
330
47
100
AcDbScale
 70
     0
300
1/16" = 1'-0"
140
0.0625
141
12.0
290
     0
  0
SCALE
  5
5D
102
{ACAD_REACTORS
330
47
102
}
330
47
100
AcDbScale
 70
     0
300
3/32" = 1'-0"
140
0.09375
141
12.0
290
     0
  0
SCALE
  5
5E
102
{ACAD_REACTORS
330
47
102
}
330
47
100
AcDbScale
 70
     0
300
1/8" = 1'-0"
140
0.125
141
12.0
290
     0
  0
SCALE
  5
5F
102
{ACAD_REACTORS
330
47
102
}
330
47
100
AcDbScale
 70
     0
300
3/16" = 1'-0"
140
0.1875
141
12.0
290
     0
  0
SCALE
  5
60
102
{ACAD_REACTORS
330
47
102
}
330
47
100
AcDbScale
 70
     0
300
1/4" = 1'-0"
140
0.25
141
12.0
290
     0
  0
SCALE
  5
61
102
{ACAD_REACTORS
330
47
102
}
330
47
100
AcDbScale
 70
     0
300
3/8" = 1'-0"
140
0.375
141
12.0
290
     0
  0
SCALE
  5
62
102
{ACAD_REACTORS
330
47
102
}
330
47
100
AcDbScale
 70
     0
300
1/2" = 1'-0"
140
0.5
141
12.0
290
     0
  0
SCALE
  5
63
102
{ACAD_REACTORS
330
47
102
}
330
47
100
AcDbScale
 70
     0
300
3/4" = 1'-0"
140
0.75
141
12.0
290
     0
  0
SCALE
  5
64
102
{ACAD_REACTORS
330
47
102
}
330
47
100
AcDbScale
 70
     0
300
1" = 1'-0"
140
1.0
141
12.0
290
     0
  0
SCALE
  5
65
102
{ACAD_REACTORS
330
47
102
}
330
47
100
AcDbScale
 70
     0
300
1-1/2" = 1'-0"
140
1.5
141
12.0
290
     0
  0
SCALE
  5
66
102
{ACAD_REACTORS
330
47
102
}
330
47
100
AcDbScale
 70
     0
300
3" = 1'-0"
140
3.0
141
12.0
290
     0
  0
SCALE
  5
67
102
{ACAD_REACTORS
330
47
102
}
330
47
100
AcDbScale
 70
     0
300
6" = 1'-0"
140
6.0
141
12.0
290
     0
  0
SCALE
  5
68
102
{ACAD_REACTORS
330
47
102
}
330
47
100
AcDbScale
 70
     0
300
1'-0" = 1'-0"
140
12.0
141
12.0
290
     0
  0
ENDSEC
  0
EOF
