  0
SECTION
  2
HEADER
  9
$ACADVER
  1
AC1015
  9
$ACADMAINTVER
 70
     6
  9
$DWGCODEPAGE
  3
ANSI_949
  9
$INSBASE
 10
0.0
 20
0.0
 30
0.0
  9
$EXTMIN
 10
1.000000000000000E+20
 20
1.000000000000000E+20
 30
1.000000000000000E+20
  9
$EXTMAX
 10
-1.000000000000000E+20
 20
-1.000000000000000E+20
 30
-1.000000000000000E+20
  9
$LIMMIN
 10
0.0
 20
0.0
  9
$LIMMAX
 10
420.0
 20
297.0
  9
$ORTHOMODE
 70
     1
  9
$REGENMODE
 70
     1
  9
$FILLMODE
 70
     1
  9
$QTEXTMODE
 70
     0
  9
$MIRRTEXT
 70
     1
  9
$LTSCALE
 40
1.0
  9
$ATTMODE
 70
     1
  9
$TEXTSIZE
 40
3.5
  9
$TRACEWID
 40
1.0
  9
$TEXTSTYLE
  7
Standard
  9
$CLAYER
  8
0
  9
$CELTYPE
  6
ByLayer
  9
$CECOLOR
 62
   256
  9
$CELTSCALE
 40
1.0
  9
$DISPSILH
 70
     0
  9
$DIMSCALE
 40
1.0
  9
$DIMASZ
 40
3.302
  9
$DIMEXO
 40
1.0
  9
$DIMDLI
 40
3.75
  9
$DIMRND
 40
0.0
  9
$DIMDLE
 40
0.0
  9
$DIMEXE
 40
1.0
  9
$DIMTP
 40
0.0
  9
$DIMTM
 40
0.0
  9
$DIMTXT
 40
3.5
  9
$DIMCEN
 40
2.5
  9
$DIMTSZ
 40
0.0
  9
$DIMTOL
 70
     0
  9
$DIMLIM
 70
     0
  9
$DIMTIH
 70
     1
  9
$DIMTOH
 70
     1
  9
$DIMSE1
 70
     0
  9
$DIMSE2
 70
     0
  9
$DIMTAD
 70
     1
  9
$DIMZIN
 70
     0
  9
$DIMBLK
  1

  9
$DIMASO
 70
     1
  9
$DIMSHO
 70
     1
  9
$DIMPOST
  1

  9
$DIMAPOST
  1

  9
$DIMALT
 70
     0
  9
$DIMALTD
 70
     3
  9
$DIMALTF
 40
0.0393700787401575
  9
$DIMLFAC
 40
1.0
  9
$DIMTOFL
 70
     1
  9
$DIMTVP
 40
0.0
  9
$DIMTIX
 70
     0
  9
$DIMSOXD
 70
     0
  9
$DIMSAH
 70
     0
  9
$DIMBLK1
  1

  9
$DIMBLK2
  1

  9
$DIMSTYLE
  2
ISO-25
  9
$DIMCLRD
 70
     0
  9
$DIMCLRE
 70
     0
  9
$DIMCLRT
 70
     0
  9
$DIMTFAC
 40
1.0
  9
$DIMGAP
 40
1.524
  9
$DIMJUST
 70
     0
  9
$DIMSD1
 70
     0
  9
$DIMSD2
 70
     0
  9
$DIMTOLJ
 70
     0
  9
$DIMTZIN
 70
     0
  9
$DIMALTZ
 70
     0
  9
$DIMALTTZ
 70
     0
  9
$DIMUPT
 70
     0
  9
$DIMDEC
 70
     2
  9
$DIMTDEC
 70
     2
  9
$DIMALTU
 70
     2
  9
$DIMALTTD
 70
     3
  9
$DIMTXSTY
  7
Standard
  9
$DIMAUNIT
 70
     0
  9
$DIMADEC
 70
     2
  9
$DIMALTRND
 40
0.0
  9
$DIMAZIN
 70
     0
  9
$DIMDSEP
 70
    44
  9
$DIMATFIT
 70
     3
  9
$DIMFRAC
 70
     0
  9
$DIMLDRBLK
  1

  9
$DIMLUNIT
 70
     2
  9
$DIMLWD
 70
    -2
  9
$DIMLWE
 70
    -2
  9
$DIMTMOVE
 70
     0
  9
$LUNITS
 70
     2
  9
$LUPREC
 70
     2
  9
$SKETCHINC
 40
1.0
  9
$FILLETRAD
 40
10.0
  9
$AUNITS
 70
     0
  9
$AUPREC
 70
     2
  9
$MENU
  1
.
  9
$ELEVATION
 40
0.0
  9
$PELEVATION
 40
0.0
  9
$THICKNESS
 40
0.0
  9
$LIMCHECK
 70
     0
  9
$CHAMFERA
 40
0.0
  9
$CHAMFERB
 40
0.0
  9
$CHAMFERC
 40
0.0
  9
$CHAMFERD
 40
0.0
  9
$SKPOLY
 70
     0
  9
$TDCREATE
 40
2458313.480343495
  9
$TDUCREATE
 40
2458313.105343495
  9
$TDUPDATE
 40
2458320.382620232
  9
$TDUUPDATE
 40
2458320.007620232
  9
$TDINDWG
 40
0.0028683565
  9
$TDUSRTIMER
 40
2458320.004630671
  9
$USRTIMER
 70
     1
  9
$ANGBASE
 50
0.0
  9
$ANGDIR
 70
     0
  9
$PDMODE
 70
     0
  9
$PDSIZE
 40
-1.0
  9
$PLINEWID
 40
0.0
  9
$SPLFRAME
 70
     0
  9
$SPLINETYPE
 70
     6
  9
$SPLINESEGS
 70
     8
  9
$HANDSEED
  5
3FF
  9
$SURFTAB1
 70
     6
  9
$SURFTAB2
 70
     6
  9
$SURFTYPE
 70
     6
  9
$SURFU
 70
     6
  9
$SURFV
 70
     6
  9
$UCSBASE
  2

  9
$UCSNAME
  2

  9
$UCSORG
 10
0.0
 20
0.0
 30
0.0
  9
$UCSXDIR
 10
1.0
 20
0.0
 30
0.0
  9
$UCSYDIR
 10
0.0
 20
1.0
 30
0.0
  9
$UCSORTHOREF
  2

  9
$UCSORTHOVIEW
 70
     0
  9
$UCSORGTOP
 10
0.0
 20
0.0
 30
0.0
  9
$UCSORGBOTTOM
 10
0.0
 20
0.0
 30
0.0
  9
$UCSORGLEFT
 10
0.0
 20
0.0
 30
0.0
  9
$UCSORGRIGHT
 10
0.0
 20
0.0
 30
0.0
  9
$UCSORGFRONT
 10
0.0
 20
0.0
 30
0.0
  9
$UCSORGBACK
 10
0.0
 20
0.0
 30
0.0
  9
$PUCSBASE
  2

  9
$PUCSNAME
  2

  9
$PUCSORG
 10
0.0
 20
0.0
 30
0.0
  9
$PUCSXDIR
 10
1.0
 20
0.0
 30
0.0
  9
$PUCSYDIR
 10
0.0
 20
1.0
 30
0.0
  9
$PUCSORTHOREF
  2

  9
$PUCSORTHOVIEW
 70
     0
  9
$PUCSORGTOP
 10
0.0
 20
0.0
 30
0.0
  9
$PUCSORGBOTTOM
 10
0.0
 20
0.0
 30
0.0
  9
$PUCSORGLEFT
 10
0.0
 20
0.0
 30
0.0
  9
$PUCSORGRIGHT
 10
0.0
 20
0.0
 30
0.0
  9
$PUCSORGFRONT
 10
0.0
 20
0.0
 30
0.0
  9
$PUCSORGBACK
 10
0.0
 20
0.0
 30
0.0
  9
$USERI1
 70
     0
  9
$USERI2
 70
     0
  9
$USERI3
 70
     0
  9
$USERI4
 70
     0
  9
$USERI5
 70
     0
  9
$USERR1
 40
0.0
  9
$USERR2
 40
0.0
  9
$USERR3
 40
0.0
  9
$USERR4
 40
0.0
  9
$USERR5
 40
0.0
  9
$WORLDVIEW
 70
     1
  9
$SHADEDGE
 70
     3
  9
$SHADEDIF
 70
    70
  9
$TILEMODE
 70
     1
  9
$MAXACTVP
 70
    64
  9
$PINSBASE
 10
0.0
 20
0.0
 30
0.0
  9
$PLIMCHECK
 70
     0
  9
$PEXTMIN
 10
1.000000000000000E+20
 20
1.000000000000000E+20
 30
1.000000000000000E+20
  9
$PEXTMAX
 10
-1.000000000000000E+20
 20
-1.000000000000000E+20
 30
-1.000000000000000E+20
  9
$PLIMMIN
 10
0.0
 20
0.0
  9
$PLIMMAX
 10
0.0
 20
0.0
  9
$UNITMODE
 70
     0
  9
$VISRETAIN
 70
     1
  9
$PLINEGEN
 70
     0
  9
$PSLTSCALE
 70
     1
  9
$TREEDEPTH
 70
  3020
  9
$CMLSTYLE
  2
Standard
  9
$CMLJUST
 70
     0
  9
$CMLSCALE
 40
20.0
  9
$PROXYGRAPHICS
 70
     1
  9
$MEASUREMENT
 70
     1
  9
$CELWEIGHT
370
    -1
  9
$ENDCAPS
280
     0
  9
$JOINSTYLE
280
     0
  9
$LWDISPLAY
290
     1
  9
$INSUNITS
 70
     4
  9
$HYPERLINKBASE
  1

  9
$STYLESHEET
  1

  9
$XEDIT
290
     1
  9
$CEPSNTYPE
380
     0
  9
$PSTYLEMODE
290
     1
  9
$FINGERPRINTGUID
  2
{535864F5-3A20-4372-A8E1-B3CAB32C71AE}
  9
$VERSIONGUID
  2
{FAEB1C32-E019-11D5-929B-00C0DF256EC4}
  9
$EXTNAMES
290
     1
  9
$PSVPSCALE
 40
0.0
  9
$OLESTARTUP
290
     0
  0
ENDSEC
  0
SECTION
  2
CLASSES
  0
CLASS
  1
ACDBDICTIONARYWDFLT
  2
AcDbDictionaryWithDefault
  3
ObjectDBX Classes
 90
        0
280
     0
281
     0
  0
CLASS
  1
VISUALSTYLE
  2
AcDbVisualStyle
  3
ObjectDBX Classes
 90
     4095
280
     0
281
     0
  0
CLASS
  1
MATERIAL
  2
AcDbMaterial
  3
ObjectDBX Classes
 90
     1153
280
     0
281
     0
  0
CLASS
  1
SCALE
  2
AcDbScale
  3
ObjectDBX Classes
 90
     1153
280
     0
281
     0
  0
CLASS
  1
SUN
  2
AcDbSun
  3
SCENEOE
 90
     1153
280
     0
281
     0
  0
CLASS
  1
ACDBPLACEHOLDER
  2
AcDbPlaceHolder
  3
ObjectDBX Classes
 90
        0
280
     0
281
     0
  0
CLASS
  1
LAYOUT
  2
AcDbLayout
  3
ObjectDBX Classes
 90
        0
280
     0
281
     0
  0
CLASS
  1
TABLESTYLE
  2
AcDbTableStyle
  3
ObjectDBX Classes
 90
     4095
280
     0
281
     0
  0
CLASS
  1
MLEADERSTYLE
  2
AcDbMLeaderStyle
  3
ACDB_MLEADERSTYLE_CLASS
 90
     4095
280
     0
281
     0
  0
CLASS
  1
RASTERVARIABLES
  2
AcDbRasterVariables
  3
ISM
 90
        0
280
     0
281
     0
  0
ENDSEC
  0
SECTION
  2
TABLES
  0
TABLE
  2
VPORT
  5
8
330
0
100
AcDbSymbolTable
 70
     1
  0
VPORT
  5
29
330
8
100
AcDbSymbolTableRecord
100
AcDbViewportTableRecord
  2
*Active
 70
     0
 10
0.0
 20
0.0
 11
1.0
 21
1.0
 12
-17.49310535201476
 22
-2.9962189210449
 13
0.0
 23
0.0
 14
10.0
 24
10.0
 15
10.0
 25
10.0
 16
0.0
 26
0.0
 36
1.0
 17
0.0
 27
0.0
 37
0.0
 40
113.8911817260346
 41
1.632093933463796
 42
50.0
 43
0.0
 44
0.0
 50
0.0
 51
0.0
 71
    16
 72
  2000
 73
     1
 74
     3
 75
     0
 76
     0
 77
     0
 78
     0
281
     0
 65
     1
110
0.0
120
0.0
130
0.0
111
1.0
121
0.0
131
0.0
112
0.0
122
1.0
132
0.0
 79
     0
146
0.0
  0
ENDTAB
  0
TABLE
  2
LTYPE
  5
5
330
0
100
AcDbSymbolTable
 70
     6
  0
LTYPE
  5
14
330
5
100
AcDbSymbolTableRecord
100
AcDbLinetypeTableRecord
  2
ByBlock
 70
     0
  3

 72
    65
 73
     0
 40
0.0
  0
LTYPE
  5
15
330
5
100
AcDbSymbolTableRecord
100
AcDbLinetypeTableRecord
  2
ByLayer
 70
     0
  3

 72
    65
 73
     0
 40
0.0
  0
LTYPE
  5
16
330
5
100
AcDbSymbolTableRecord
100
AcDbLinetypeTableRecord
  2
Continuous
 70
     0
  3
Solid line
 72
    65
 73
     0
 40
0.0
  0
LTYPE
  5
6A
330
5
100
AcDbSymbolTableRecord
100
AcDbLinetypeTableRecord
  2
HIDDEN
 70
     0
  3
Hidden __ __ __ __ __ __ __ __ __ __ __ __ __ __
 72
    65
 73
     2
 40
1.905
 49
1.27
 74
     0
 49
-0.635
 74
     0
  0
LTYPE
  5
6B
330
5
100
AcDbSymbolTableRecord
100
AcDbLinetypeTableRecord
  2
PHANTOM
 70
     0
  3
Phantom ______  __  __  ______  __  __  ______
 72
    65
 73
     6
 40
12.7
 49
6.35
 74
     0
 49
-1.27
 74
     0
 49
1.27
 74
     0
 49
-1.27
 74
     0
 49
1.27
 74
     0
 49
-1.27
 74
     0
  0
LTYPE
  5
6C
330
5
100
AcDbSymbolTableRecord
100
AcDbLinetypeTableRecord
  2
CENTER
 70
     0
  3
Center ____ _ ____ _ ____ _ ____ _ ____ _ ____
 72
    65
 73
     4
 40
10.16
 49
6.35
 74
     0
 49
-1.27
 74
     0
 49
1.27
 74
     0
 49
-1.27
 74
     0
  0
LTYPE
  5
6D
330
5
100
AcDbSymbolTableRecord
100
AcDbLinetypeTableRecord
  2
CENTERX2
 70
     0
  3
Center (2x) ________  __  ________  __  _____
 72
    65
 73
     4
 40
20.32
 49
12.7
 74
     0
 49
-2.54
 74
     0
 49
2.54
 74
     0
 49
-2.54
 74
     0
  0
LTYPE
  5
6E
330
5
100
AcDbSymbolTableRecord
100
AcDbLinetypeTableRecord
  2
DOT2
 70
     0
  3
Dot (.5x) ........................................
 72
    65
 73
     2
 40
0.635
 49
0.0
 74
     0
 49
-0.635
 74
     0
  0
ENDTAB
  0
TABLE
  2
LAYER
  5
2
102
{ACAD_XDICTIONARY
360
219
102
}
330
0
100
AcDbSymbolTable
 70
    18
  0
LAYER
  5
10
330
2
100
AcDbSymbolTableRecord
100
AcDbLayerTableRecord
  2
0
 70
     0
 62
     7
  6
Continuous
370
    -3
390
F
  0
LAYER
  5
6F
330
2
100
AcDbSymbolTableRecord
100
AcDbLayerTableRecord
  2
FORMAT
 70
     0
 62
     2
  6
Continuous
370
    -3
390
F
  0
LAYER
  5
70
330
2
100
AcDbSymbolTableRecord
100
AcDbLayerTableRecord
  2
외형선
 70
     0
 62
     4
  6
Continuous
370
    30
390
F
  0
LAYER
  5
71
330
2
100
AcDbSymbolTableRecord
100
AcDbLayerTableRecord
  2
숨은선
 70
     0
 62
     2
  6
HIDDEN
370
    15
390
F
  0
LAYER
  5
72
330
2
100
AcDbSymbolTableRecord
100
AcDbLayerTableRecord
  2
중심선
 70
     0
 62
     1
  6
CENTERX2
370
    -3
390
F
  0
LAYER
  5
73
330
2
100
AcDbSymbolTableRecord
100
AcDbLayerTableRecord
  2
파단선
 70
     0
 62
     4
  6
Continuous
370
    -3
390
F
  0
LAYER
  5
74
330
2
100
AcDbSymbolTableRecord
100
AcDbLayerTableRecord
  2
해칭선
 70
     0
 62
   100
  6
Continuous
370
    -3
390
F
  0
LAYER
  5
75
330
2
100
AcDbSymbolTableRecord
100
AcDbLayerTableRecord
  2
가는실선
 70
     0
 62
     4
  6
Continuous
370
    -3
390
F
  0
LAYER
  5
76
330
2
100
AcDbSymbolTableRecord
100
AcDbLayerTableRecord
  2
치수_보조선
 70
     0
 62
     4
  6
Continuous
370
    -3
390
F
  0
LAYER
  5
77
330
2
100
AcDbSymbolTableRecord
100
AcDbLayerTableRecord
  2
치수문자_일반주서
 70
     0
 62
     7
  6
Continuous
370
    15
390
F
  0
LAYER
  5
78
330
2
100
AcDbSymbolTableRecord
100
AcDbLayerTableRecord
  2
개별주서
 70
     0
 62
   100
  6
Continuous
370
    30
390
F
  0
LAYER
  5
79
330
2
100
AcDbSymbolTableRecord
100
AcDbLayerTableRecord
  2
중간선
 70
     0
 62
     2
  6
Continuous
370
    15
390
F
  0
LAYER
  5
7A
330
2
100
AcDbSymbolTableRecord
100
AcDbLayerTableRecord
  2
윤곽선
 70
     0
 62
     3
  6
Continuous
370
    40
390
F
  0
LAYER
  5
7B
330
2
100
AcDbSymbolTableRecord
100
AcDbLayerTableRecord
  2
중심마크
 70
     0
 62
   100
  6
Continuous
370
    30
390
F
  0
LAYER
  5
7C
330
2
100
AcDbSymbolTableRecord
100
AcDbLayerTableRecord
  2
가상선
 70
     0
 62
     4
  6
PHANTOM
370
    -3
390
F
  0
LAYER
  5
7D
330
2
100
AcDbSymbolTableRecord
100
AcDbLayerTableRecord
  2
특수지정선
 70
     0
 62
     5
  6
CENTERX2
370
    60
390
F
  0
LAYER
  5
7E
330
2
100
AcDbSymbolTableRecord
100
AcDbLayerTableRecord
  2
참조1
 70
     0
 62
    -4
  6
Continuous
370
    -3
390
F
  0
LAYER
  5
159
330
2
100
AcDbSymbolTableRecord
100
AcDbLayerTableRecord
  2
Defpoints
 70
     0
 62
     7
  6
Continuous
290
     0
370
    -3
390
F
  0
ENDTAB
  0
TABLE
  2
STYLE
  5
3
330
0
100
AcDbSymbolTable
 70
     2
  0
STYLE
  5
11
330
3
100
AcDbSymbolTableRecord
100
AcDbTextStyleTableRecord
  2
Standard
 70
     0
 40
0.0
 41
1.0
 50
0.0
 71
     0
 42
3.5
  3
txt
  4

  0
STYLE
  5
94
330
3
100
AcDbSymbolTableRecord
100
AcDbTextStyleTableRecord
  2
SLDTEXTSTYLE0
 70
     0
 40
0.0
 41
0.75
 50
0.0
 71
     0
 42
3.5
  3
TXT
  4

  0
ENDTAB
  0
TABLE
  2
VIEW
  5
6
330
0
100
AcDbSymbolTable
 70
     0
  0
ENDTAB
  0
TABLE
  2
UCS
  5
7
330
0
100
AcDbSymbolTable
 70
     0
  0
ENDTAB
  0
TABLE
  2
APPID
  5
9
330
0
100
AcDbSymbolTable
 70
     1
  0
APPID
  5
12
330
9
100
AcDbSymbolTableRecord
100
AcDbRegAppTableRecord
  2
ACAD
 70
     0
  0
ENDTAB
  0
TABLE
  2
DIMSTYLE
  5
A
330
0
100
AcDbSymbolTable
 70
     3
100
AcDbDimStyleTable
  0
DIMSTYLE
105
27
330
A
100
AcDbSymbolTableRecord
100
AcDbDimStyleTableRecord
  2
ISO-25
 70
     0
 41
2.5
 42
0.625
 43
3.75
 44
1.25
 73
     0
 74
     0
 77
     1
 78
     8
140
2.5
141
2.5
143
0.03937007874016
147
0.625
171
     3
172
     1
178
     0
271
     2
272
     2
274
     3
278
    44
283
     0
284
     8
340
11
  0
DIMSTYLE
105
D5
102
{ACAD_REACTORS
330
D4
330
E9
330
112
330
1AD
330
1BD
330
1CD
330
1DA
330
FE
330
340
330
350
330
360
102
}
330
A
100
AcDbSymbolTableRecord
100
AcDbDimStyleTableRecord
  2
SLDDIMSTYLE0
 70
     0
 41
3.302
 44
0.0
 45
0.000000001
 73
     0
 74
     0
 77
     1
 78
    12
 79
     3
140
3.5
143
0.0393700787401575
147
0.875
148
0.000000001
170
     1
172
     1
173
     1
178
     0
271
     2
272
     2
276
     2
284
    12
289
     0
340
94
  0
DIMSTYLE
105
FF
330
A
100
AcDbSymbolTableRecord
100
AcDbDimStyleTableRecord
  2
SLDDIMSTYLE1
 70
     0
 41
3.302
 44
0.0
 45
0.000000001
 73
     0
 74
     0
 77
     1
 78
    12
 79
     3
140
3.5
143
0.0393700787401575
147
0.875
148
0.000000001
170
     1
173
     1
178
     0
271
     2
272
     2
276
     2
284
    12
340
94
  0
ENDTAB
  0
TABLE
  2
BLOCK_RECORD
  5
1
330
0
100
AcDbSymbolTable
 70
    23
  0
BLOCK_RECORD
  5
1F
330
1
100
AcDbSymbolTableRecord
100
AcDbBlockTableRecord
  2
*Model_Space
340
22
  0
BLOCK_RECORD
  5
1B
330
1
100
AcDbSymbolTableRecord
100
AcDbBlockTableRecord
  2
*Paper_Space
340
1E
  0
BLOCK_RECORD
  5
23
330
1
100
AcDbSymbolTableRecord
100
AcDbBlockTableRecord
  2
*Paper_Space0
340
26
  0
BLOCK_RECORD
  5
7F
330
1
100
AcDbSymbolTableRecord
100
AcDbBlockTableRecord
  2
블럭10
340
0
102
{BLKREFS
331
CD
102
}
  0
BLOCK_RECORD
  5
D6
330
1
100
AcDbSymbolTableRecord
100
AcDbBlockTableRecord
  2
_D
340
0
  0
BLOCK_RECORD
  5
EA
330
1
100
AcDbSymbolTableRecord
100
AcDbBlockTableRecord
  2
_D_1
340
0
  0
BLOCK_RECORD
  5
100
330
1
100
AcDbSymbolTableRecord
100
AcDbBlockTableRecord
  2
_D_2
340
0
  0
BLOCK_RECORD
  5
113
330
1
100
AcDbSymbolTableRecord
100
AcDbBlockTableRecord
  2
_D_3
340
0
  0
BLOCK_RECORD
  5
12D
330
1
100
AcDbSymbolTableRecord
100
AcDbBlockTableRecord
  2
SW_DOWELSYMBOL_0
340
0
102
{BLKREFS
331
133
331
1E7
331
0
331
36D
331
0
102
}
  0
BLOCK_RECORD
  5
21D
330
1
100
AcDbSymbolTableRecord
100
AcDbBlockTableRecord
  2
*D8
340
0
  0
BLOCK_RECORD
  5
22C
330
1
100
AcDbSymbolTableRecord
100
AcDbBlockTableRecord
  2
*D9
340
0
  0
BLOCK_RECORD
  5
23B
330
1
100
AcDbSymbolTableRecord
100
AcDbBlockTableRecord
  2
*D10
340
0
  0
BLOCK_RECORD
  5
247
330
1
100
AcDbSymbolTableRecord
100
AcDbBlockTableRecord
  2
*D11
340
0
  0
BLOCK_RECORD
  5
2AF
330
1
100
AcDbSymbolTableRecord
100
AcDbBlockTableRecord
  2
*D12
340
0
  0
BLOCK_RECORD
  5
2BE
330
1
100
AcDbSymbolTableRecord
100
AcDbBlockTableRecord
  2
*D13
340
0
  0
BLOCK_RECORD
  5
2CD
330
1
100
AcDbSymbolTableRecord
100
AcDbBlockTableRecord
  2
*D14
340
0
  0
BLOCK_RECORD
  5
2D9
330
1
100
AcDbSymbolTableRecord
100
AcDbBlockTableRecord
  2
*D15
340
0
  0
BLOCK_RECORD
  5
376
330
1
100
AcDbSymbolTableRecord
100
AcDbBlockTableRecord
  2
*D17
340
0
  0
BLOCK_RECORD
  5
385
330
1
100
AcDbSymbolTableRecord
100
AcDbBlockTableRecord
  2
*D18
340
0
  0
BLOCK_RECORD
  5
394
330
1
100
AcDbSymbolTableRecord
100
AcDbBlockTableRecord
  2
*D19
340
0
  0
BLOCK_RECORD
  5
3D4
330
1
100
AcDbSymbolTableRecord
100
AcDbBlockTableRecord
  2
*D20
340
0
  0
BLOCK_RECORD
  5
3E3
330
1
100
AcDbSymbolTableRecord
100
AcDbBlockTableRecord
  2
*D21
340
0
  0
BLOCK_RECORD
  5
3F2
330
1
100
AcDbSymbolTableRecord
100
AcDbBlockTableRecord
  2
*D22
340
0
  0
ENDTAB
  0
ENDSEC
  0
SECTION
  2
BLOCKS
  0
BLOCK
  5
20
330
1F
100
AcDbEntity
  8
0
100
AcDbBlockBegin
  2
*Model_Space
 70
     0
 10
0.0
 20
0.0
 30
0.0
  3
*Model_Space
  1
*Model_Space
  0
ENDBLK
  5
21
330
1F
100
AcDbEntity
  8
0
100
AcDbBlockEnd
  0
BLOCK
  5
1C
330
1B
100
AcDbEntity
 67
     1
  8
0
100
AcDbBlockBegin
  2
*Paper_Space
 70
     0
 10
0.0
 20
0.0
 30
0.0
  3
*Paper_Space
  1
*Paper_Space
  0
ENDBLK
  5
1D
330
1B
100
AcDbEntity
 67
     1
  8
0
100
AcDbBlockEnd
  0
BLOCK
  5
24
330
23
100
AcDbEntity
  8
0
100
AcDbBlockBegin
  2
*Paper_Space0
 70
     0
 10
0.0
 20
0.0
 30
0.0
  3
*Paper_Space0
  1
*Paper_Space0
  0
ENDBLK
  5
25
330
23
100
AcDbEntity
  8
0
100
AcDbBlockEnd
  0
BLOCK
  5
80
330
7F
100
AcDbEntity
  8
0
100
AcDbBlockBegin
  2
블럭10
 70
     2
 10
0.0
 20
0.0
 30
0.0
  3
블럭10
  1
블럭10
  0
ELLIPSE
  5
82
330
7F
100
AcDbEntity
  8
중심선
100
AcDbEllipse
 10
20.54032771741204
 20
12.0471743016438
 30
0.0
 11
6.600054785286829
 21
-1.261213355974178E-13
 31
0.0
210
0.0
220
0.0
230
1.0
 40
0.636358354079598
 41
0.9219305317359503
 42
6.513795318482858
  0
ELLIPSE
  5
83
330
7F
100
AcDbEntity
  8
중심선
100
AcDbEllipse
 10
20.54032771746488
 20
12.04717430159265
 30
0.0
 11
3.960054785062283
 21
1.540847449632565E-10
 31
0.0
210
0.0
220
0.0
230
1.0
 40
0.3939339440162632
 41
1.131841032648279
 42
5.62031148352944
  0
LINE
  5
84
330
7F
100
AcDbEntity
  8
중심선
100
AcDbLine
 10
2.268634060543552
 20
16.24717430164393
 30
0.0
 11
5.714909304380834
 21
16.24717430164393
 31
0.0
  0
LINE
  5
85
330
7F
100
AcDbEntity
  8
중심선
100
AcDbLine
 10
5.245725140726316
 20
7.84717430164391
 30
0.0
 11
8.692000384563599
 21
7.84717430164391
 31
0.0
  0
LINE
  5
86
330
7F
100
AcDbEntity
  8
중심선
100
AcDbLine
 10
15.74043728645272
 20
16.24717430164393
 30
0.0
 11
8.692000384563599
 21
7.84717430164391
 31
0.0
  0
LINE
  5
87
330
7F
100
AcDbEntity
  8
중심선
100
AcDbLine
 10
0.1404042013395286
 20
13.71084872107135
 30
0.0
 11
3.58671253028996
 21
13.71088815037384
 31
0.0
  0
LINE
  5
88
330
7F
100
AcDbEntity
  8
중심선
100
AcDbLine
 10
2.750260043222114
 20
10.84717430164391
 30
0.0
 11
6.196535287059397
 21
10.84717430164391
 31
0.0
  0
LINE
  5
89
330
7F
100
AcDbEntity
  8
중심선
100
AcDbLine
 10
12.29416204261559
 20
16.24717430164393
 30
0.0
 11
5.245725140726316
 21
7.84717430164391
 31
0.0
  0
LINE
  5
8A
330
7F
100
AcDbEntity
  8
중심선
100
AcDbLine
 10
10.72767329541681
 20
16.24717430164393
 30
0.0
 11
6.196535287059397
 21
10.84717430164391
 31
0.0
  0
LINE
  5
8B
330
7F
100
AcDbEntity
  8
중심선
100
AcDbLine
 10
7.28139805157953
 20
16.24717430164393
 30
0.0
 11
2.750260043222114
 21
10.84717430164391
 31
0.0
  0
LINE
  5
8C
330
7F
100
AcDbEntity
  8
중심선
100
AcDbLine
 10
5.714909304380834
 20
16.24717430164393
 30
0.0
 11
3.58671253028996
 21
13.71088815037384
 31
0.0
  0
LINE
  5
8D
330
7F
100
AcDbEntity
  8
중심선
100
AcDbLine
 10
2.268634060543552
 20
16.24717430164393
 30
0.0
 11
0.1404042013395286
 21
13.71084872107135
 31
0.0
  0
LINE
  5
8E
330
7F
100
AcDbEntity
  8
중심선
100
AcDbLine
 10
7.28139805157953
 20
16.24717430164393
 30
0.0
 11
10.72767329541681
 21
16.24717430164393
 31
0.0
  0
LINE
  5
8F
330
7F
100
AcDbEntity
  8
중심선
100
AcDbLine
 10
12.29416204261559
 20
16.24717430164393
 30
0.0
 11
15.74043728645272
 21
16.24717430164393
 31
0.0
  0
LINE
  5
90
330
7F
100
AcDbEntity
  8
중심선
100
AcDbLine
 10
19.22036997980202
 20
11.08717430171403
 30
0.0
 11
23.66174974927406
 21
11.08717430171406
 31
0.0
  0
LINE
  5
91
330
7F
100
AcDbEntity
  8
중심선
100
AcDbLine
 10
19.22039502424796
 20
13.00717430171391
 30
0.0
 11
19.22036997980202
 21
11.08717430171403
 31
0.0
  0
LINE
  5
92
330
7F
100
AcDbEntity
  8
중심선
100
AcDbLine
 10
19.22039502424796
 20
13.00717430171391
 30
0.0
 11
26.96566020931264
 21
13.00717430171391
 31
0.0
  0
LINE
  5
93
330
7F
100
AcDbEntity
  8
중심선
100
AcDbLine
 10
22.22332737316547
 20
13.45928029700563
 30
0.0
 11
24.52862924686651
 21
15.39360700705356
 31
0.0
  0
ATTDEF
  5
95
330
7F
100
AcDbEntity
  8
FORMAT
 62
     2
100
AcDbText
 10
4.408487351596664
 20
2.075366912832191
 30
0.0
 40
4.233333333333333
  1
E2006006
 41
0.75
  7
SLDTEXTSTYLE0
 11
4.408487351596664
 21
-0.0412997538344756
 31
0.0
100
AcDbAttributeDefinition
  3

  2
AUTOATTR0
 70
     0
 74
     1
  0
ENDBLK
  5
81
330
7F
100
AcDbEntity
  8
0
100
AcDbBlockEnd
  0
BLOCK
  5
D7
330
D6
100
AcDbEntity
  8
0
100
AcDbBlockBegin
  2
_D
 70
     0
 10
0.0
 20
0.0
 30
0.0
  3
_D
  1
_D
  0
LINE
  5
D9
330
D6
100
AcDbEntity
  8
치수문자_일반주서
 62
     0
370
    -2
100
AcDbLine
 10
33.4
 20
1.190625000000004
 30
0.0
 11
50.85425097892921
 21
1.190625000000068
 31
0.0
  0
LINE
  5
DA
330
D6
100
AcDbEntity
  8
치수문자_일반주서
 62
     0
370
    -2
100
AcDbLine
 10
33.4
 20
-1.190624999999996
 30
0.0
 11
50.85425097892922
 21
-1.190624999999933
 31
0.0
  0
LINE
  5
DB
330
D6
100
AcDbEntity
  8
치수문자_일반주서
 62
     0
370
    -2
100
AcDbLine
 10
50.85425097892921
 20
1.190625000000068
 30
0.0
 11
50.8542509789291
 21
36.66962500000007
 31
0.0
  0
LINE
  5
DC
330
D6
100
AcDbEntity
  8
치수문자_일반주서
 62
     0
370
    -2
100
AcDbLine
 10
50.85425097892921
 20
1.190625000000068
 30
0.0
 11
50.85425097892922
 21
-1.190624999999933
 31
0.0
  0
LINE
  5
DD
330
D6
100
AcDbEntity
  8
치수문자_일반주서
 62
     0
370
    -2
100
AcDbLine
 10
50.8542509789292
 20
4.492625000000068
 30
0.0
 11
50.85425097892919
 21
7.794625000000067
 31
0.0
  0
LINE
  5
DE
330
D6
100
AcDbEntity
  8
치수문자_일반주서
 62
     0
370
    -2
100
AcDbLine
 10
50.85425097892922
 20
-4.492624999999933
 30
0.0
 11
50.85425097892923
 21
-7.794624999999932
 31
0.0
  0
SOLID
  5
DF
330
D6
100
AcDbEntity
  8
치수문자_일반주서
 62
     0
100
AcDbTrace
 10
50.30391764559587
 20
4.492625000000066
 30
0.0
 11
51.40458431226254
 21
4.49262500000007
 31
0.0
 12
50.85425097892921
 22
1.190625000000068
 32
0.0
 13
50.85425097892921
 23
1.190625000000068
 33
0.0
  0
SOLID
  5
E0
330
D6
100
AcDbEntity
  8
치수문자_일반주서
 62
     0
100
AcDbTrace
 10
51.40458431226256
 20
-4.492624999999931
 30
0.0
 11
50.30391764559589
 21
-4.492624999999935
 31
0.0
 12
50.85425097892922
 22
-1.190624999999933
 32
0.0
 13
50.85425097892922
 23
-1.190624999999933
 33
0.0
  0
MTEXT
  5
E1
330
D6
100
AcDbEntity
  8
치수문자_일반주서
 62
     0
100
AcDbMText
 10
46.47925097892914
 20
22.23212500000005
 30
0.0
 40
3.5
 41
0.0
 71
     2
 72
     1
  1
\A1;%%c2.38 [3/32]
  7
SLDTEXTSTYLE0
 11
-2.983906501879686E-15
 21
1.0
 31
0.0
 73
     1
 44
1.0
  0
POINT
  5
E2
330
D6
100
AcDbEntity
  8
Defpoints
 62
     0
100
AcDbPoint
 10
33.3375
 20
1.190625000000004
 30
0.0
  0
POINT
  5
E3
330
D6
100
AcDbEntity
  8
Defpoints
 62
     0
100
AcDbPoint
 10
33.3375
 20
-1.190624999999996
 30
0.0
  0
POINT
  5
E4
330
D6
100
AcDbEntity
  8
Defpoints
 62
     0
100
AcDbPoint
 10
50.85425097892922
 20
-1.190624999999931
 30
0.0
  0
ENDBLK
  5
D8
330
D6
100
AcDbEntity
  8
0
100
AcDbBlockEnd
  0
BLOCK
  5
EB
330
EA
100
AcDbEntity
  8
0
100
AcDbBlockBegin
  2
_D_1
 70
     0
 10
0.0
 20
0.0
 30
0.0
  3
_D_1
  1
_D_1
  0
LINE
  5
ED
330
EA
100
AcDbEntity
  8
치수문자_일반주서
 62
     0
370
    -2
100
AcDbLine
 10
33.3375
 20
1.253125000000004
 30
0.0
 11
33.3375
 21
16.93140229384483
 31
0.0
  0
LINE
  5
EE
330
EA
100
AcDbEntity
  8
치수문자_일반주서
 62
     0
370
    -2
100
AcDbLine
 10
26.19375000000004
 20
1.155355010705974
 30
0.0
 11
26.19375000000004
 21
16.93140229384483
 31
0.0
  0
LINE
  5
EF
330
EA
100
AcDbEntity
  8
치수문자_일반주서
 62
     0
370
    -2
100
AcDbLine
 10
26.19375000000004
 20
16.93140229384483
 30
0.0
 11
-20.92047744145427
 21
16.93140229384483
 31
0.0
  0
LINE
  5
F0
330
EA
100
AcDbEntity
  8
치수문자_일반주서
 62
     0
370
    -2
100
AcDbLine
 10
33.3375
 20
16.93140229384483
 30
0.0
 11
26.19375000000004
 21
16.93140229384483
 31
0.0
  0
LINE
  5
F1
330
EA
100
AcDbEntity
  8
치수문자_일반주서
 62
     0
370
    -2
100
AcDbLine
 10
36.6395
 20
16.93140229384483
 30
0.0
 11
39.9415
 21
16.93140229384483
 31
0.0
  0
LINE
  5
F2
330
EA
100
AcDbEntity
  8
치수문자_일반주서
 62
     0
370
    -2
100
AcDbLine
 10
22.89175000000004
 20
16.93140229384483
 30
0.0
 11
19.58975000000004
 21
16.93140229384483
 31
0.0
  0
SOLID
  5
F3
330
EA
100
AcDbEntity
  8
치수문자_일반주서
 62
     0
100
AcDbTrace
 10
36.6395
 20
17.48173562717816
 30
0.0
 11
36.6395
 21
16.3810689605115
 31
0.0
 12
33.3375
 22
16.93140229384483
 32
0.0
 13
33.3375
 23
16.93140229384483
 33
0.0
  0
SOLID
  5
F4
330
EA
100
AcDbEntity
  8
치수문자_일반주서
 62
     0
100
AcDbTrace
 10
22.89175000000004
 20
16.3810689605115
 30
0.0
 11
22.89175000000004
 21
17.48173562717816
 31
0.0
 12
26.19375000000004
 22
16.93140229384483
 32
0.0
 13
26.19375000000004
 23
16.93140229384483
 33
0.0
  0
MTEXT
  5
F5
330
EA
100
AcDbEntity
  8
치수문자_일반주서
 62
     0
100
AcDbMText
 10
-8.232977441454274
 20
21.30640229384483
 30
0.0
 40
3.5
 41
0.0
 71
     2
 72
     1
  1
\A1;7.14 [9/32]
  7
SLDTEXTSTYLE0
 73
     1
 44
1.0
  0
POINT
  5
F6
330
EA
100
AcDbEntity
  8
Defpoints
 62
     0
100
AcDbPoint
 10
33.3375
 20
1.190625000000004
 30
0.0
  0
POINT
  5
F7
330
EA
100
AcDbEntity
  8
Defpoints
 62
     0
100
AcDbPoint
 10
26.19375000000004
 20
1.092855010705974
 30
0.0
  0
POINT
  5
F8
330
EA
100
AcDbEntity
  8
Defpoints
 62
     0
100
AcDbPoint
 10
26.19375000000004
 20
16.93140229384483
 30
0.0
  0
ENDBLK
  5
EC
330
EA
100
AcDbEntity
  8
0
100
AcDbBlockEnd
  0
BLOCK
  5
101
330
100
100
AcDbEntity
  8
0
100
AcDbBlockBegin
  2
_D_2
 70
     0
 10
0.0
 20
0.0
 30
0.0
  3
_D_2
  1
_D_2
  0
LINE
  5
103
330
100
100
AcDbEntity
  8
치수문자_일반주서
 62
     0
370
    -2
100
AcDbLine
 10
33.3375
 20
1.253125000000004
 30
0.0
 11
33.3375
 21
30.86134135035592
 31
0.0
  0
LINE
  5
104
330
100
100
AcDbEntity
  8
치수문자_일반주서
 62
     0
370
    -2
100
AcDbLine
 10
-33.3375
 20
1.253125000000006
 30
0.0
 11
-33.3375
 21
30.86134135035592
 31
0.0
  0
LINE
  5
105
330
100
100
AcDbEntity
  8
치수문자_일반주서
 62
     0
370
    -2
100
AcDbLine
 10
30.0355
 20
30.86134135035592
 30
0.0
 11
-30.0355
 21
30.86134135035592
 31
0.0
  0
SOLID
  5
106
330
100
100
AcDbEntity
  8
치수문자_일반주서
 62
     0
100
AcDbTrace
 10
30.0355
 20
30.31100801702258
 30
0.0
 11
30.0355
 21
31.41167468368925
 31
0.0
 12
33.3375
 22
30.86134135035592
 32
0.0
 13
33.3375
 23
30.86134135035592
 33
0.0
  0
SOLID
  5
107
330
100
100
AcDbEntity
  8
치수문자_일반주서
 62
     0
100
AcDbTrace
 10
-30.0355
 20
31.41167468368925
 30
0.0
 11
-30.0355
 21
30.31100801702258
 31
0.0
 12
-33.3375
 22
30.86134135035592
 32
0.0
 13
-33.3375
 23
30.86134135035592
 33
0.0
  0
MTEXT
  5
108
330
100
100
AcDbEntity
  8
치수문자_일반주서
 62
     0
100
AcDbMText
 10
-0.9894091320685092
 20
35.23634135035591
 30
0.0
 40
3.5
 41
0.0
 71
     2
 72
     1
  1
\A1;66.68 [2 5/8]
  7
SLDTEXTSTYLE0
 73
     1
 44
1.0
  0
POINT
  5
109
330
100
100
AcDbEntity
  8
Defpoints
 62
     0
100
AcDbPoint
 10
33.3375
 20
1.190625000000004
 30
0.0
  0
POINT
  5
10A
330
100
100
AcDbEntity
  8
Defpoints
 62
     0
100
AcDbPoint
 10
-33.3375
 20
1.190625000000006
 30
0.0
  0
POINT
  5
10B
330
100
100
AcDbEntity
  8
Defpoints
 62
     0
100
AcDbPoint
 10
-33.3375
 20
30.86134135035592
 30
0.0
  0
ENDBLK
  5
102
330
100
100
AcDbEntity
  8
0
100
AcDbBlockEnd
  0
BLOCK
  5
114
330
113
100
AcDbEntity
  8
0
100
AcDbBlockBegin
  2
_D_3
 70
     0
 10
0.0
 20
0.0
 30
0.0
  3
_D_3
  1
_D_3
  0
LINE
  5
116
330
113
100
AcDbEntity
  8
치수문자_일반주서
 62
     0
370
    -2
100
AcDbLine
 10
-20.81277700723827
 20
2.381250000000002
 30
0.0
 11
-46.3375
 21
2.381249999999907
 31
0.0
  0
LINE
  5
117
330
113
100
AcDbEntity
  8
치수문자_일반주서
 62
     0
370
    -2
100
AcDbLine
 10
-20.81277700723827
 20
-2.381250000000005
 30
0.0
 11
-46.33749999999998
 21
-2.3812500000001
 31
0.0
  0
LINE
  5
118
330
113
100
AcDbEntity
  8
치수문자_일반주서
 62
     0
370
    -2
100
AcDbLine
 10
-46.33749999999999
 20
-0.9207500000000928
 30
0.0
 11
-46.33749999999999
 21
0.9207499999998996
 31
0.0
  0
SOLID
  5
119
330
113
100
AcDbEntity
  8
치수문자_일반주서
 62
     0
100
AcDbTrace
 10
-45.78716666666666
 20
-0.9207500000000911
 30
0.0
 11
-46.88783333333333
 21
-0.9207500000000944
 31
0.0
 12
-46.3375
 22
2.381249999999907
 32
0.0
 13
-46.3375
 23
2.381249999999907
 33
0.0
  0
SOLID
  5
11A
330
113
100
AcDbEntity
  8
치수문자_일반주서
 62
     0
100
AcDbTrace
 10
-46.88783333333333
 20
0.9207499999998979
 30
0.0
 11
-45.78716666666666
 21
0.9207499999999013
 31
0.0
 12
-46.33749999999998
 22
-2.3812500000001
 32
0.0
 13
-46.33749999999998
 23
-2.3812500000001
 33
0.0
  0
MTEXT
  5
11B
330
113
100
AcDbEntity
  8
치수문자_일반주서
 62
     0
100
AcDbMText
 10
-50.71249999999999
 20
-0.0000000000000124
 30
0.0
 40
3.5
 41
0.0
 71
     2
 72
     1
  1
\A1;%%c4.76 [3/16]
  7
SLDTEXTSTYLE0
 11
-2.983906501879682E-15
 21
1.0
 31
0.0
 73
     1
 44
1.0
  0
POINT
  5
11C
330
113
100
AcDbEntity
  8
Defpoints
 62
     0
100
AcDbPoint
 10
-20.75027700723827
 20
2.381250000000003
 30
0.0
  0
POINT
  5
11D
330
113
100
AcDbEntity
  8
Defpoints
 62
     0
100
AcDbPoint
 10
-20.75027700723827
 20
-2.381250000000004
 30
0.0
  0
POINT
  5
11E
330
113
100
AcDbEntity
  8
Defpoints
 62
     0
100
AcDbPoint
 10
-46.33749999999998
 20
-2.3812500000001
 30
0.0
  0
ENDBLK
  5
115
330
113
100
AcDbEntity
  8
0
100
AcDbBlockEnd
  0
BLOCK
  5
12E
330
12D
100
AcDbEntity
  8
0
100
AcDbBlockBegin
  2
SW_DOWELSYMBOL_0
 70
     0
 10
0.0
 20
0.0
 30
0.0
  3
SW_DOWELSYMBOL_0
  1
SW_DOWELSYMBOL_0
  0
CIRCLE
  5
130
330
12D
100
AcDbEntity
  8
해칭선
 62
     0
100
AcDbCircle
 10
0.0
 20
0.0
 30
0.0
 40
3.000000000000005
  0
HATCH
  5
131
330
12D
100
AcDbEntity
  8
0
  6
Continuous
 62
     0
370
     0
100
AcDbHatch
 10
0.0
 20
0.0
 30
0.0
210
0.0
220
0.0
230
1.0
  2
SOLID
 70
     1
 71
     0
 91
        1
 92
        0
 93
        3
 72
     2
 10
0.0
 20
0.0
 40
3.000000000000005
 50
0.0
 51
90.0
 73
     1
 72
     1
 10
0.0
 20
3.000000000000005
 11
0.0
 21
0.0
 72
     1
 10
0.0
 20
0.0
 11
3.000000000000004
 21
0.0
 97
        0
 75
     0
 76
     1
 98
        1
 10
0.0
 20
0.0
  0
HATCH
  5
132
330
12D
100
AcDbEntity
  8
0
  6
Continuous
 62
     0
370
     0
100
AcDbHatch
 10
0.0
 20
0.0
 30
0.0
210
0.0
220
0.0
230
1.0
  2
SOLID
 70
     1
 71
     0
 91
        1
 92
        0
 93
        3
 72
     2
 10
0.0
 20
0.0
 40
3.000000000000005
 50
180.0
 51
270.0000000000008
 73
     1
 72
     1
 10
0.0
 20
-3.000000000000005
 11
0.0
 21
0.0
 72
     1
 10
0.0
 20
0.0
 11
-3.000000000000004
 21
0.0
 97
        0
 75
     0
 76
     1
 98
        1
 10
0.0
 20
0.0
  0
ENDBLK
  5
12F
330
12D
100
AcDbEntity
  8
0
100
AcDbBlockEnd
  0
BLOCK
  5
21E
330
21D
100
AcDbEntity
  8
0
100
AcDbBlockBegin
  2
*D8
 70
     1
 10
0.0
 20
0.0
 30
0.0
  3
*D8
  1
*D8
  0
LINE
  5
220
330
21D
100
AcDbEntity
  8
치수문자_일반주서
 62
     0
370
    -2
100
AcDbLine
 10
80.93750000000003
 20
14.11718750000002
 30
0.0
 11
98.77978931357592
 21
14.11718750000009
 31
0.0
  0
LINE
  5
221
330
21D
100
AcDbEntity
  8
치수문자_일반주서
 62
     0
370
    -2
100
AcDbLine
 10
80.93750000000003
 20
12.13281250000002
 30
0.0
 11
98.77978931357592
 21
12.13281250000009
 31
0.0
  0
LINE
  5
222
330
21D
100
AcDbEntity
  8
치수문자_일반주서
 62
     0
370
    -2
100
AcDbLine
 10
98.77978931357592
 20
14.11718750000009
 30
0.0
 11
98.77978931357592
 21
48.72118750000008
 31
0.0
  0
LINE
  5
223
330
21D
100
AcDbEntity
  8
치수문자_일반주서
 62
     0
370
    -2
100
AcDbLine
 10
98.77978931357592
 20
14.11718750000009
 30
0.0
 11
98.77978931357592
 21
12.13281250000009
 31
0.0
  0
LINE
  5
224
330
21D
100
AcDbEntity
  8
치수문자_일반주서
 62
     0
370
    -2
100
AcDbLine
 10
98.77978931357592
 20
17.41918750000009
 30
0.0
 11
98.77978931357592
 21
20.72118750000009
 31
0.0
  0
LINE
  5
225
330
21D
100
AcDbEntity
  8
치수문자_일반주서
 62
     0
370
    -2
100
AcDbLine
 10
98.77978931357592
 20
8.83081250000009
 30
0.0
 11
98.77978931357592
 21
5.52881250000009
 31
0.0
  0
SOLID
  5
226
330
21D
100
AcDbEntity
  8
치수문자_일반주서
 62
     0
100
AcDbTrace
 10
98.22945598024259
 20
17.41918750000009
 30
0.0
 11
99.33012264690925
 21
17.41918750000009
 31
0.0
 12
98.77978931357592
 22
14.11718750000009
 32
0.0
 13
98.77978931357592
 23
14.11718750000009
 33
0.0
  0
SOLID
  5
227
330
21D
100
AcDbEntity
  8
치수문자_일반주서
 62
     0
100
AcDbTrace
 10
99.33012264690925
 20
8.83081250000009
 30
0.0
 11
98.22945598024259
 21
8.83081250000009
 31
0.0
 12
98.77978931357592
 22
12.13281250000009
 32
0.0
 13
98.77978931357592
 23
12.13281250000009
 33
0.0
  0
MTEXT
  5
228
330
21D
100
AcDbEntity
  8
치수문자_일반주서
 62
     0
100
AcDbMText
 10
94.40478931357592
 20
34.72118750000008
 30
0.0
 40
3.5
 41
0.0
 71
     2
 72
     1
  1
\A1;%%c1.98 [5/64]
  7
SLDTEXTSTYLE0
 11
0.0
 21
1.0
 31
0.0
 73
     1
 44
1.0
  0
POINT
  5
229
330
21D
100
AcDbEntity
  8
Defpoints
 62
     0
100
AcDbPoint
 10
80.87500000000003
 20
14.11718750000002
 30
0.0
  0
POINT
  5
22A
330
21D
100
AcDbEntity
  8
Defpoints
 62
     0
100
AcDbPoint
 10
80.87500000000003
 20
12.13281250000002
 30
0.0
  0
POINT
  5
22B
330
21D
100
AcDbEntity
  8
Defpoints
 62
     0
100
AcDbPoint
 10
98.77978931357599
 20
12.13281250000009
 30
0.0
  0
ENDBLK
  5
21F
330
21D
100
AcDbEntity
  8
0
100
AcDbBlockEnd
  0
BLOCK
  5
22D
330
22C
100
AcDbEntity
  8
0
100
AcDbBlockBegin
  2
*D9
 70
     1
 10
0.0
 20
0.0
 30
0.0
  3
*D9
  1
*D9
  0
LINE
  5
22F
330
22C
100
AcDbEntity
  8
치수문자_일반주서
 62
     0
370
    -2
100
AcDbLine
 10
80.87500000000003
 20
14.17968750000002
 30
0.0
 11
80.87500000000003
 21
29.26682866367814
 31
0.0
  0
LINE
  5
230
330
22C
100
AcDbEntity
  8
치수문자_일반주서
 62
     0
370
    -2
100
AcDbLine
 10
74.52500000000003
 20
14.01780054918216
 30
0.0
 11
74.52500000000003
 21
29.26682866367814
 31
0.0
  0
LINE
  5
231
330
22C
100
AcDbEntity
  8
치수문자_일반주서
 62
     0
370
    -2
100
AcDbLine
 10
74.52500000000003
 20
29.26682866367814
 30
0.0
 11
39.72152398584679
 21
29.26682866367814
 31
0.0
  0
LINE
  5
232
330
22C
100
AcDbEntity
  8
치수문자_일반주서
 62
     0
370
    -2
100
AcDbLine
 10
80.87500000000003
 20
29.26682866367814
 30
0.0
 11
74.52500000000003
 21
29.26682866367814
 31
0.0
  0
LINE
  5
233
330
22C
100
AcDbEntity
  8
치수문자_일반주서
 62
     0
370
    -2
100
AcDbLine
 10
84.17700000000002
 20
29.26682866367814
 30
0.0
 11
87.47900000000001
 21
29.26682866367814
 31
0.0
  0
LINE
  5
234
330
22C
100
AcDbEntity
  8
치수문자_일반주서
 62
     0
370
    -2
100
AcDbLine
 10
71.22300000000004
 20
29.26682866367814
 30
0.0
 11
67.92100000000005
 21
29.26682866367814
 31
0.0
  0
SOLID
  5
235
330
22C
100
AcDbEntity
  8
치수문자_일반주서
 62
     0
100
AcDbTrace
 10
84.17700000000002
 20
29.81716199701147
 30
0.0
 11
84.17700000000002
 21
28.7164953303448
 31
0.0
 12
80.87500000000003
 22
29.26682866367814
 32
0.0
 13
80.87500000000003
 23
29.26682866367814
 33
0.0
  0
SOLID
  5
236
330
22C
100
AcDbEntity
  8
치수문자_일반주서
 62
     0
100
AcDbTrace
 10
71.22300000000004
 20
28.7164953303448
 30
0.0
 11
71.22300000000004
 21
29.81716199701147
 31
0.0
 12
74.52500000000003
 22
29.26682866367814
 32
0.0
 13
74.52500000000003
 23
29.26682866367814
 33
0.0
  0
MTEXT
  5
237
330
22C
100
AcDbEntity
  8
치수문자_일반주서
 62
     0
100
AcDbMText
 10
51.09652398584679
 20
33.64182866367814
 30
0.0
 40
3.5
 41
0.0
 71
     2
 72
     1
  1
\A1;6.35 [1/4]
  7
SLDTEXTSTYLE0
 73
     1
 44
1.0
  0
POINT
  5
238
330
22C
100
AcDbEntity
  8
Defpoints
 62
     0
100
AcDbPoint
 10
80.87500000000003
 20
14.11718750000002
 30
0.0
  0
POINT
  5
239
330
22C
100
AcDbEntity
  8
Defpoints
 62
     0
100
AcDbPoint
 10
74.52500000000003
 20
13.95530054918216
 30
0.0
  0
POINT
  5
23A
330
22C
100
AcDbEntity
  8
Defpoints
 62
     0
100
AcDbPoint
 10
74.52500000000003
 20
29.26682866367814
 30
0.0
  0
ENDBLK
  5
22E
330
22C
100
AcDbEntity
  8
0
100
AcDbBlockEnd
  0
BLOCK
  5
23C
330
23B
100
AcDbEntity
  8
0
100
AcDbBlockBegin
  2
*D10
 70
     1
 10
0.0
 20
0.0
 30
0.0
  3
*D10
  1
*D10
  0
LINE
  5
23E
330
23B
100
AcDbEntity
  8
치수문자_일반주서
 62
     0
370
    -2
100
AcDbLine
 10
80.87500000000003
 20
14.17968750000002
 30
0.0
 11
80.87500000000003
 21
41.22536425976229
 31
0.0
  0
LINE
  5
23F
330
23B
100
AcDbEntity
  8
치수문자_일반주서
 62
     0
370
    -2
100
AcDbLine
 10
17.37500000000003
 20
14.17968750000001
 30
0.0
 11
17.37500000000003
 21
41.22536425976229
 31
0.0
  0
LINE
  5
240
330
23B
100
AcDbEntity
  8
치수문자_일반주서
 62
     0
370
    -2
100
AcDbLine
 10
77.57300000000004
 20
41.22536425976229
 30
0.0
 11
20.67700000000003
 21
41.22536425976229
 31
0.0
  0
SOLID
  5
241
330
23B
100
AcDbEntity
  8
치수문자_일반주서
 62
     0
100
AcDbTrace
 10
77.57300000000004
 20
40.67503092642895
 30
0.0
 11
77.57300000000004
 21
41.77569759309562
 31
0.0
 12
80.87500000000003
 22
41.22536425976229
 32
0.0
 13
80.87500000000003
 23
41.22536425976229
 33
0.0
  0
SOLID
  5
242
330
23B
100
AcDbEntity
  8
치수문자_일반주서
 62
     0
100
AcDbTrace
 10
20.67700000000003
 20
41.77569759309562
 30
0.0
 11
20.67700000000003
 21
40.67503092642895
 31
0.0
 12
17.37500000000003
 22
41.22536425976229
 32
0.0
 13
17.37500000000003
 23
41.22536425976229
 33
0.0
  0
MTEXT
  5
243
330
23B
100
AcDbEntity
  8
치수문자_일반주서
 62
     0
100
AcDbMText
 10
47.50480057097658
 20
45.60036425976229
 30
0.0
 40
3.5
 41
0.0
 71
     2
 72
     1
  1
\A1;63.5 [2 1/2]
  7
SLDTEXTSTYLE0
 73
     1
 44
1.0
  0
POINT
  5
244
330
23B
100
AcDbEntity
  8
Defpoints
 62
     0
100
AcDbPoint
 10
80.87500000000003
 20
14.11718750000002
 30
0.0
  0
POINT
  5
245
330
23B
100
AcDbEntity
  8
Defpoints
 62
     0
100
AcDbPoint
 10
17.37500000000003
 20
14.11718750000001
 30
0.0
  0
POINT
  5
246
330
23B
100
AcDbEntity
  8
Defpoints
 62
     0
100
AcDbPoint
 10
17.37500000000003
 20
41.22536425976229
 30
0.0
  0
ENDBLK
  5
23D
330
23B
100
AcDbEntity
  8
0
100
AcDbBlockEnd
  0
BLOCK
  5
248
330
247
100
AcDbEntity
  8
0
100
AcDbBlockBegin
  2
*D11
 70
     1
 10
0.0
 20
0.0
 30
0.0
  3
*D11
  1
*D11
  0
LINE
  5
24A
330
247
100
AcDbEntity
  8
치수문자_일반주서
 62
     0
370
    -2
100
AcDbLine
 10
17.78875000000004
 20
15.50625000000002
 30
0.0
 11
4.375000000000028
 21
15.50624999999997
 31
0.0
  0
LINE
  5
24B
330
247
100
AcDbEntity
  8
치수문자_일반주서
 62
     0
370
    -2
100
AcDbLine
 10
17.78875000000004
 20
10.74375000000002
 30
0.0
 11
4.375000000000044
 21
10.74374999999997
 31
0.0
  0
LINE
  5
24C
330
247
100
AcDbEntity
  8
치수문자_일반주서
 62
     0
370
    -2
100
AcDbLine
 10
4.375000000000039
 20
12.20424999999997
 30
0.0
 11
4.375000000000033
 21
14.04574999999997
 31
0.0
  0
SOLID
  5
24D
330
247
100
AcDbEntity
  8
치수문자_일반주서
 62
     0
100
AcDbTrace
 10
4.925333333333373
 20
12.20424999999997
 30
0.0
 11
3.824666666666706
 21
12.20424999999997
 31
0.0
 12
4.375000000000028
 22
15.50624999999997
 32
0.0
 13
4.375000000000028
 23
15.50624999999997
 33
0.0
  0
SOLID
  5
24E
330
247
100
AcDbEntity
  8
치수문자_일반주서
 62
     0
100
AcDbTrace
 10
3.8246666666667
 20
14.04574999999996
 30
0.0
 11
4.925333333333366
 21
14.04574999999997
 31
0.0
 12
4.375000000000044
 22
10.74374999999997
 32
0.0
 13
4.375000000000044
 23
10.74374999999997
 33
0.0
  0
MTEXT
  5
24F
330
247
100
AcDbEntity
  8
치수문자_일반주서
 62
     0
100
AcDbMText
 10
0.0000000000000355
 20
13.12500000000001
 30
0.0
 40
3.5
 41
0.0
 71
     2
 72
     1
  1
\A1;%%c4.76 [3/16]
  7
SLDTEXTSTYLE0
 11
-3.543388970982125E-15
 21
1.0
 31
0.0
 73
     1
 44
1.0
  0
POINT
  5
250
330
247
100
AcDbEntity
  8
Defpoints
 62
     0
100
AcDbPoint
 10
17.85125000000004
 20
15.50625000000002
 30
0.0
  0
POINT
  5
251
330
247
100
AcDbEntity
  8
Defpoints
 62
     0
100
AcDbPoint
 10
17.85125000000004
 20
10.74375000000002
 30
0.0
  0
POINT
  5
252
330
247
100
AcDbEntity
  8
Defpoints
 62
     0
100
AcDbPoint
 10
4.375000000000043
 20
10.74374999999997
 30
0.0
  0
ENDBLK
  5
249
330
247
100
AcDbEntity
  8
0
100
AcDbBlockEnd
  0
BLOCK
  5
2B0
330
2AF
100
AcDbEntity
  8
0
100
AcDbBlockBegin
  2
*D12
 70
     1
 10
0.0
 20
0.0
 30
0.0
  3
*D12
  1
*D12
  0
LINE
  5
2B2
330
2AF
100
AcDbEntity
  8
치수문자_일반주서
 62
     0
370
    -2
100
AcDbLine
 10
141.2101376784018
 20
-25.8254898579563
 30
0.0
 11
159.0524269919777
 21
-25.82548985795623
 31
0.0
  0
LINE
  5
2B3
330
2AF
100
AcDbEntity
  8
치수문자_일반주서
 62
     0
370
    -2
100
AcDbLine
 10
141.2101376784018
 20
-27.8098648579563
 30
0.0
 11
159.0524269919777
 21
-27.80986485795623
 31
0.0
  0
LINE
  5
2B4
330
2AF
100
AcDbEntity
  8
치수문자_일반주서
 62
     0
370
    -2
100
AcDbLine
 10
159.0524269919777
 20
-25.82548985795623
 30
0.0
 11
159.0524269919777
 21
8.778510142043768
 31
0.0
  0
LINE
  5
2B5
330
2AF
100
AcDbEntity
  8
치수문자_일반주서
 62
     0
370
    -2
100
AcDbLine
 10
159.0524269919777
 20
-25.82548985795623
 30
0.0
 11
159.0524269919777
 21
-27.80986485795623
 31
0.0
  0
LINE
  5
2B6
330
2AF
100
AcDbEntity
  8
치수문자_일반주서
 62
     0
370
    -2
100
AcDbLine
 10
159.0524269919777
 20
-22.52348985795623
 30
0.0
 11
159.0524269919777
 21
-19.22148985795623
 31
0.0
  0
LINE
  5
2B7
330
2AF
100
AcDbEntity
  8
치수문자_일반주서
 62
     0
370
    -2
100
AcDbLine
 10
159.0524269919777
 20
-31.11186485795623
 30
0.0
 11
159.0524269919777
 21
-34.41386485795623
 31
0.0
  0
SOLID
  5
2B8
330
2AF
100
AcDbEntity
  8
치수문자_일반주서
 62
     0
100
AcDbTrace
 10
158.5020936586444
 20
-22.52348985795623
 30
0.0
 11
159.602760325311
 21
-22.52348985795623
 31
0.0
 12
159.0524269919777
 22
-25.82548985795623
 32
0.0
 13
159.0524269919777
 23
-25.82548985795623
 33
0.0
  0
SOLID
  5
2B9
330
2AF
100
AcDbEntity
  8
치수문자_일반주서
 62
     0
100
AcDbTrace
 10
159.602760325311
 20
-31.11186485795623
 30
0.0
 11
158.5020936586444
 21
-31.11186485795623
 31
0.0
 12
159.0524269919777
 22
-27.80986485795623
 32
0.0
 13
159.0524269919777
 23
-27.80986485795623
 33
0.0
  0
MTEXT
  5
2BA
330
2AF
100
AcDbEntity
  8
치수문자_일반주서
 62
     0
100
AcDbMText
 10
154.6774269919777
 20
-5.221489857956232
 30
0.0
 40
3.5
 41
0.0
 71
     2
 72
     1
  1
\A1;%%c1.98 [5/64]
  7
SLDTEXTSTYLE0
 11
0.0
 21
1.0
 31
0.0
 73
     1
 44
1.0
  0
POINT
  5
2BB
330
2AF
100
AcDbEntity
  8
Defpoints
 62
     0
100
AcDbPoint
 10
141.1476376784018
 20
-25.8254898579563
 30
0.0
  0
POINT
  5
2BC
330
2AF
100
AcDbEntity
  8
Defpoints
 62
     0
100
AcDbPoint
 10
141.1476376784018
 20
-27.8098648579563
 30
0.0
  0
POINT
  5
2BD
330
2AF
100
AcDbEntity
  8
Defpoints
 62
     0
100
AcDbPoint
 10
159.0524269919777
 20
-27.80986485795623
 30
0.0
  0
ENDBLK
  5
2B1
330
2AF
100
AcDbEntity
  8
0
100
AcDbBlockEnd
  0
BLOCK
  5
2BF
330
2BE
100
AcDbEntity
  8
0
100
AcDbBlockBegin
  2
*D13
 70
     1
 10
0.0
 20
0.0
 30
0.0
  3
*D13
  1
*D13
  0
LINE
  5
2C1
330
2BE
100
AcDbEntity
  8
치수문자_일반주서
 62
     0
370
    -2
100
AcDbLine
 10
141.1476376784018
 20
-25.7629898579563
 30
0.0
 11
141.1476376784018
 21
-10.67584869427818
 31
0.0
  0
LINE
  5
2C2
330
2BE
100
AcDbEntity
  8
치수문자_일반주서
 62
     0
370
    -2
100
AcDbLine
 10
134.7976376784018
 20
-25.92487680877416
 30
0.0
 11
134.7976376784018
 21
-10.67584869427818
 31
0.0
  0
LINE
  5
2C3
330
2BE
100
AcDbEntity
  8
치수문자_일반주서
 62
     0
370
    -2
100
AcDbLine
 10
134.7976376784018
 20
-10.67584869427818
 30
0.0
 11
99.99416166424855
 21
-10.67584869427818
 31
0.0
  0
LINE
  5
2C4
330
2BE
100
AcDbEntity
  8
치수문자_일반주서
 62
     0
370
    -2
100
AcDbLine
 10
141.1476376784018
 20
-10.67584869427818
 30
0.0
 11
134.7976376784018
 21
-10.67584869427818
 31
0.0
  0
LINE
  5
2C5
330
2BE
100
AcDbEntity
  8
치수문자_일반주서
 62
     0
370
    -2
100
AcDbLine
 10
144.4496376784018
 20
-10.67584869427818
 30
0.0
 11
147.7516376784018
 21
-10.67584869427818
 31
0.0
  0
LINE
  5
2C6
330
2BE
100
AcDbEntity
  8
치수문자_일반주서
 62
     0
370
    -2
100
AcDbLine
 10
131.4956376784018
 20
-10.67584869427818
 30
0.0
 11
128.1936376784018
 21
-10.67584869427818
 31
0.0
  0
SOLID
  5
2C7
330
2BE
100
AcDbEntity
  8
치수문자_일반주서
 62
     0
100
AcDbTrace
 10
144.4496376784018
 20
-10.12551536094485
 30
0.0
 11
144.4496376784018
 21
-11.22618202761152
 31
0.0
 12
141.1476376784018
 22
-10.67584869427818
 32
0.0
 13
141.1476376784018
 23
-10.67584869427818
 33
0.0
  0
SOLID
  5
2C8
330
2BE
100
AcDbEntity
  8
치수문자_일반주서
 62
     0
100
AcDbTrace
 10
131.4956376784018
 20
-11.22618202761152
 30
0.0
 11
131.4956376784018
 21
-10.12551536094485
 31
0.0
 12
134.7976376784018
 22
-10.67584869427818
 32
0.0
 13
134.7976376784018
 23
-10.67584869427818
 33
0.0
  0
MTEXT
  5
2C9
330
2BE
100
AcDbEntity
  8
치수문자_일반주서
 62
     0
100
AcDbMText
 10
111.3691616642486
 20
-6.300848694278184
 30
0.0
 40
3.5
 41
0.0
 71
     2
 72
     1
  1
\A1;6.35 [1/4]
  7
SLDTEXTSTYLE0
 73
     1
 44
1.0
  0
POINT
  5
2CA
330
2BE
100
AcDbEntity
  8
Defpoints
 62
     0
100
AcDbPoint
 10
141.1476376784018
 20
-25.8254898579563
 30
0.0
  0
POINT
  5
2CB
330
2BE
100
AcDbEntity
  8
Defpoints
 62
     0
100
AcDbPoint
 10
134.7976376784018
 20
-25.98737680877416
 30
0.0
  0
POINT
  5
2CC
330
2BE
100
AcDbEntity
  8
Defpoints
 62
     0
100
AcDbPoint
 10
134.7976376784018
 20
-10.67584869427818
 30
0.0
  0
ENDBLK
  5
2C0
330
2BE
100
AcDbEntity
  8
0
100
AcDbBlockEnd
  0
BLOCK
  5
2CE
330
2CD
100
AcDbEntity
  8
0
100
AcDbBlockBegin
  2
*D14
 70
     1
 10
0.0
 20
0.0
 30
0.0
  3
*D14
  1
*D14
  0
LINE
  5
2D0
330
2CD
100
AcDbEntity
  8
치수문자_일반주서
 62
     0
370
    -2
100
AcDbLine
 10
141.1476376784018
 20
-25.7629898579563
 30
0.0
 11
141.1476376784018
 21
1.282686901805967
 31
0.0
  0
LINE
  5
2D1
330
2CD
100
AcDbEntity
  8
치수문자_일반주서
 62
     0
370
    -2
100
AcDbLine
 10
77.6476376784018
 20
-25.76298985795631
 30
0.0
 11
77.6476376784018
 21
1.282686901805967
 31
0.0
  0
LINE
  5
2D2
330
2CD
100
AcDbEntity
  8
치수문자_일반주서
 62
     0
370
    -2
100
AcDbLine
 10
137.8456376784018
 20
1.282686901805967
 30
0.0
 11
80.94963767840179
 21
1.282686901805967
 31
0.0
  0
SOLID
  5
2D3
330
2CD
100
AcDbEntity
  8
치수문자_일반주서
 62
     0
100
AcDbTrace
 10
137.8456376784018
 20
0.7323535684726336
 30
0.0
 11
137.8456376784018
 21
1.8330202351393
 31
0.0
 12
141.1476376784018
 22
1.282686901805967
 32
0.0
 13
141.1476376784018
 23
1.282686901805967
 33
0.0
  0
SOLID
  5
2D4
330
2CD
100
AcDbEntity
  8
치수문자_일반주서
 62
     0
100
AcDbTrace
 10
80.94963767840179
 20
1.8330202351393
 30
0.0
 11
80.94963767840179
 21
0.7323535684726336
 31
0.0
 12
77.6476376784018
 22
1.282686901805967
 32
0.0
 13
77.6476376784018
 23
1.282686901805967
 33
0.0
  0
MTEXT
  5
2D5
330
2CD
100
AcDbEntity
  8
치수문자_일반주서
 62
     0
100
AcDbMText
 10
107.7774382493783
 20
5.657686901805967
 30
0.0
 40
3.5
 41
0.0
 71
     2
 72
     1
  1
\A1;63.5 [2 1/2]
  7
SLDTEXTSTYLE0
 73
     1
 44
1.0
  0
POINT
  5
2D6
330
2CD
100
AcDbEntity
  8
Defpoints
 62
     0
100
AcDbPoint
 10
141.1476376784018
 20
-25.8254898579563
 30
0.0
  0
POINT
  5
2D7
330
2CD
100
AcDbEntity
  8
Defpoints
 62
     0
100
AcDbPoint
 10
77.6476376784018
 20
-25.82548985795631
 30
0.0
  0
POINT
  5
2D8
330
2CD
100
AcDbEntity
  8
Defpoints
 62
     0
100
AcDbPoint
 10
77.6476376784018
 20
1.282686901805967
 30
0.0
  0
ENDBLK
  5
2CF
330
2CD
100
AcDbEntity
  8
0
100
AcDbBlockEnd
  0
BLOCK
  5
2DA
330
2D9
100
AcDbEntity
  8
0
100
AcDbBlockBegin
  2
*D15
 70
     1
 10
0.0
 20
0.0
 30
0.0
  3
*D15
  1
*D15
  0
LINE
  5
2DC
330
2D9
100
AcDbEntity
  8
치수문자_일반주서
 62
     0
370
    -2
100
AcDbLine
 10
78.06138767840181
 20
-24.4364273579563
 30
0.0
 11
64.6476376784018
 21
-24.43642735795635
 31
0.0
  0
LINE
  5
2DD
330
2D9
100
AcDbEntity
  8
치수문자_일반주서
 62
     0
370
    -2
100
AcDbLine
 10
78.06138767840181
 20
-29.1989273579563
 30
0.0
 11
64.64763767840181
 21
-29.19892735795635
 31
0.0
  0
LINE
  5
2DE
330
2D9
100
AcDbEntity
  8
치수문자_일반주서
 62
     0
370
    -2
100
AcDbLine
 10
64.64763767840181
 20
-27.73842735795635
 30
0.0
 11
64.6476376784018
 21
-25.89692735795635
 31
0.0
  0
SOLID
  5
2DF
330
2D9
100
AcDbEntity
  8
치수문자_일반주서
 62
     0
100
AcDbTrace
 10
65.19797101173513
 20
-27.73842735795635
 30
0.0
 11
64.09730434506848
 21
-27.73842735795635
 31
0.0
 12
64.6476376784018
 22
-24.43642735795635
 32
0.0
 13
64.6476376784018
 23
-24.43642735795635
 33
0.0
  0
SOLID
  5
2E0
330
2D9
100
AcDbEntity
  8
치수문자_일반주서
 62
     0
100
AcDbTrace
 10
64.09730434506847
 20
-25.89692735795635
 30
0.0
 11
65.19797101173512
 21
-25.89692735795635
 31
0.0
 12
64.64763767840181
 22
-29.19892735795635
 32
0.0
 13
64.64763767840181
 23
-29.19892735795635
 33
0.0
  0
MTEXT
  5
2E1
330
2D9
100
AcDbEntity
  8
치수문자_일반주서
 62
     0
100
AcDbMText
 10
60.27263767840179
 20
-26.81767735795631
 30
0.0
 40
3.5
 41
0.0
 71
     2
 72
     1
  1
\A1;%%c4.76 [3/16]
  7
SLDTEXTSTYLE0
 11
-2.983906501879684E-15
 21
1.0
 31
0.0
 73
     1
 44
1.0
  0
POINT
  5
2E2
330
2D9
100
AcDbEntity
  8
Defpoints
 62
     0
100
AcDbPoint
 10
78.12388767840181
 20
-24.4364273579563
 30
0.0
  0
POINT
  5
2E3
330
2D9
100
AcDbEntity
  8
Defpoints
 62
     0
100
AcDbPoint
 10
78.12388767840181
 20
-29.1989273579563
 30
0.0
  0
POINT
  5
2E4
330
2D9
100
AcDbEntity
  8
Defpoints
 62
     0
100
AcDbPoint
 10
64.64763767840181
 20
-29.19892735795635
 30
0.0
  0
ENDBLK
  5
2DB
330
2D9
100
AcDbEntity
  8
0
100
AcDbBlockEnd
  0
BLOCK
  5
377
330
376
100
AcDbEntity
  8
0
100
AcDbBlockBegin
  2
*D17
 70
     1
 10
0.0
 20
0.0
 30
0.0
  3
*D17
  1
*D17
  0
LINE
  5
379
330
376
100
AcDbEntity
  8
치수문자_일반주서
 62
     0
370
    -2
100
AcDbLine
 10
69.7375
 20
8.985249999999935
 30
0.0
 11
87.19175097892928
 21
8.985249999999997
 31
0.0
  0
LINE
  5
37A
330
376
100
AcDbEntity
  8
치수문자_일반주서
 62
     0
370
    -2
100
AcDbLine
 10
69.7375
 20
6.603999999999935
 30
0.0
 11
87.19175097892929
 21
6.603999999999999
 31
0.0
  0
LINE
  5
37B
330
376
100
AcDbEntity
  8
치수문자_일반주서
 62
     0
370
    -2
100
AcDbLine
 10
87.19175097892928
 20
8.985249999999997
 30
0.0
 11
87.19175097892906
 21
44.46424999999999
 31
0.0
  0
LINE
  5
37C
330
376
100
AcDbEntity
  8
치수문자_일반주서
 62
     0
370
    -2
100
AcDbLine
 10
87.19175097892928
 20
8.985249999999997
 30
0.0
 11
87.19175097892929
 21
6.603999999999999
 31
0.0
  0
LINE
  5
37D
330
376
100
AcDbEntity
  8
치수문자_일반주서
 62
     0
370
    -2
100
AcDbLine
 10
87.19175097892926
 20
12.28725
 30
0.0
 11
87.19175097892925
 21
15.58925
 31
0.0
  0
LINE
  5
37E
330
376
100
AcDbEntity
  8
치수문자_일반주서
 62
     0
370
    -2
100
AcDbLine
 10
87.1917509789293
 20
3.302
 30
0.0
 11
87.19175097892932
 21
0.0
 31
0.0
  0
SOLID
  5
37F
330
376
100
AcDbEntity
  8
치수문자_일반주서
 62
     0
100
AcDbTrace
 10
86.64141764559594
 20
12.28724999999999
 30
0.0
 11
87.74208431226259
 21
12.28725
 31
0.0
 12
87.19175097892928
 22
8.985249999999997
 32
0.0
 13
87.19175097892928
 23
8.985249999999997
 33
0.0
  0
SOLID
  5
380
330
376
100
AcDbEntity
  8
치수문자_일반주서
 62
     0
100
AcDbTrace
 10
87.74208431226263
 20
3.302000000000003
 30
0.0
 11
86.64141764559598
 21
3.301999999999996
 31
0.0
 12
87.19175097892929
 22
6.603999999999999
 32
0.0
 13
87.19175097892929
 23
6.603999999999999
 33
0.0
  0
MTEXT
  5
381
330
376
100
AcDbEntity
  8
치수문자_일반주서
 62
     0
100
AcDbMText
 10
82.81675097892915
 20
30.02674999999997
 30
0.0
 40
3.5
 41
0.0
 71
     2
 72
     1
  1
\A1;%%c2.38 [3/32]
  7
SLDTEXTSTYLE0
 11
-5.967813003759372E-15
 21
1.0
 31
0.0
 73
     1
 44
1.0
  0
POINT
  5
382
330
376
100
AcDbEntity
  8
Defpoints
 62
     0
100
AcDbPoint
 10
69.675
 20
8.985249999999935
 30
0.0
  0
POINT
  5
383
330
376
100
AcDbEntity
  8
Defpoints
 62
     0
100
AcDbPoint
 10
69.675
 20
6.603999999999935
 30
0.0
  0
POINT
  5
384
330
376
100
AcDbEntity
  8
Defpoints
 62
     0
100
AcDbPoint
 10
87.1917509789292
 20
6.604000000000001
 30
0.0
  0
ENDBLK
  5
378
330
376
100
AcDbEntity
  8
0
100
AcDbBlockEnd
  0
BLOCK
  5
386
330
385
100
AcDbEntity
  8
0
100
AcDbBlockBegin
  2
*D18
 70
     1
 10
0.0
 20
0.0
 30
0.0
  3
*D18
  1
*D18
  0
LINE
  5
388
330
385
100
AcDbEntity
  8
치수문자_일반주서
 62
     0
370
    -2
100
AcDbLine
 10
69.675
 20
9.047749999999935
 30
0.0
 11
69.675
 21
24.72602729384476
 31
0.0
  0
LINE
  5
389
330
385
100
AcDbEntity
  8
치수문자_일반주서
 62
     0
370
    -2
100
AcDbLine
 10
62.53125000000004
 20
8.949980010705906
 30
0.0
 11
62.53125000000004
 21
24.72602729384476
 31
0.0
  0
LINE
  5
38A
330
385
100
AcDbEntity
  8
치수문자_일반주서
 62
     0
370
    -2
100
AcDbLine
 10
62.53125000000004
 20
24.72602729384476
 30
0.0
 11
15.41702255854572
 21
24.72602729384476
 31
0.0
  0
LINE
  5
38B
330
385
100
AcDbEntity
  8
치수문자_일반주서
 62
     0
370
    -2
100
AcDbLine
 10
69.675
 20
24.72602729384476
 30
0.0
 11
62.53125000000004
 21
24.72602729384476
 31
0.0
  0
LINE
  5
38C
330
385
100
AcDbEntity
  8
치수문자_일반주서
 62
     0
370
    -2
100
AcDbLine
 10
72.977
 20
24.72602729384476
 30
0.0
 11
76.279
 21
24.72602729384476
 31
0.0
  0
LINE
  5
38D
330
385
100
AcDbEntity
  8
치수문자_일반주서
 62
     0
370
    -2
100
AcDbLine
 10
59.22925000000004
 20
24.72602729384476
 30
0.0
 11
55.92725000000004
 21
24.72602729384476
 31
0.0
  0
SOLID
  5
38E
330
385
100
AcDbEntity
  8
치수문자_일반주서
 62
     0
100
AcDbTrace
 10
72.977
 20
25.2763606271781
 30
0.0
 11
72.977
 21
24.17569396051143
 31
0.0
 12
69.675
 22
24.72602729384476
 32
0.0
 13
69.675
 23
24.72602729384476
 33
0.0
  0
SOLID
  5
38F
330
385
100
AcDbEntity
  8
치수문자_일반주서
 62
     0
100
AcDbTrace
 10
59.22925000000004
 20
24.17569396051143
 30
0.0
 11
59.22925000000004
 21
25.2763606271781
 31
0.0
 12
62.53125000000004
 22
24.72602729384476
 32
0.0
 13
62.53125000000004
 23
24.72602729384476
 33
0.0
  0
MTEXT
  5
390
330
385
100
AcDbEntity
  8
치수문자_일반주서
 62
     0
100
AcDbMText
 10
28.10452255854572
 20
29.10102729384476
 30
0.0
 40
3.5
 41
0.0
 71
     2
 72
     1
  1
\A1;7.14 [9/32]
  7
SLDTEXTSTYLE0
 73
     1
 44
1.0
  0
POINT
  5
391
330
385
100
AcDbEntity
  8
Defpoints
 62
     0
100
AcDbPoint
 10
69.675
 20
8.985249999999935
 30
0.0
  0
POINT
  5
392
330
385
100
AcDbEntity
  8
Defpoints
 62
     0
100
AcDbPoint
 10
62.53125000000004
 20
8.887480010705906
 30
0.0
  0
POINT
  5
393
330
385
100
AcDbEntity
  8
Defpoints
 62
     0
100
AcDbPoint
 10
62.53125000000004
 20
24.72602729384476
 30
0.0
  0
ENDBLK
  5
387
330
385
100
AcDbEntity
  8
0
100
AcDbBlockEnd
  0
BLOCK
  5
395
330
394
100
AcDbEntity
  8
0
100
AcDbBlockBegin
  2
*D19
 70
     1
 10
0.0
 20
0.0
 30
0.0
  3
*D19
  1
*D19
  0
LINE
  5
397
330
394
100
AcDbEntity
  8
치수문자_일반주서
 62
     0
370
    -2
100
AcDbLine
 10
69.675
 20
9.047749999999935
 30
0.0
 11
69.67499999999998
 21
38.65596635035585
 31
0.0
  0
LINE
  5
398
330
394
100
AcDbEntity
  8
치수문자_일반주서
 62
     0
370
    -2
100
AcDbLine
 10
3.000000000000007
 20
9.762124999999932
 30
0.0
 11
2.999999999999993
 21
38.65596635035585
 31
0.0
  0
LINE
  5
399
330
394
100
AcDbEntity
  8
치수문자_일반주서
 62
     0
370
    -2
100
AcDbLine
 10
66.37299999999999
 20
38.65596635035585
 30
0.0
 11
6.301999999999992
 21
38.65596635035585
 31
0.0
  0
SOLID
  5
39A
330
394
100
AcDbEntity
  8
치수문자_일반주서
 62
     0
100
AcDbTrace
 10
66.37299999999999
 20
38.10563301702252
 30
0.0
 11
66.37299999999999
 21
39.20629968368919
 31
0.0
 12
69.67499999999998
 22
38.65596635035585
 32
0.0
 13
69.67499999999998
 23
38.65596635035585
 33
0.0
  0
SOLID
  5
39B
330
394
100
AcDbEntity
  8
치수문자_일반주서
 62
     0
100
AcDbTrace
 10
6.301999999999992
 20
39.20629968368919
 30
0.0
 11
6.301999999999992
 21
38.10563301702252
 31
0.0
 12
2.999999999999993
 22
38.65596635035585
 32
0.0
 13
2.999999999999993
 23
38.65596635035585
 33
0.0
  0
MTEXT
  5
39C
330
394
100
AcDbEntity
  8
치수문자_일반주서
 62
     0
100
AcDbMText
 10
35.34809086793149
 20
43.03096635035585
 30
0.0
 40
3.5
 41
0.0
 71
     2
 72
     1
  1
\A1;66.68 [2 5/8]
  7
SLDTEXTSTYLE0
 73
     1
 44
1.0
  0
POINT
  5
39D
330
394
100
AcDbEntity
  8
Defpoints
 62
     0
100
AcDbPoint
 10
69.675
 20
8.985249999999935
 30
0.0
  0
POINT
  5
39E
330
394
100
AcDbEntity
  8
Defpoints
 62
     0
100
AcDbPoint
 10
3.000000000000007
 20
9.699624999999932
 30
0.0
  0
POINT
  5
39F
330
394
100
AcDbEntity
  8
Defpoints
 62
     0
100
AcDbPoint
 10
3.000000000000007
 20
38.65596635035585
 30
0.0
  0
ENDBLK
  5
396
330
394
100
AcDbEntity
  8
0
100
AcDbBlockEnd
  0
BLOCK
  5
3D5
330
3D4
100
AcDbEntity
  8
0
100
AcDbBlockBegin
  2
*D20
 70
     1
 10
0.0
 20
0.0
 30
0.0
  3
*D20
  1
*D20
  0
LINE
  5
3D7
330
3D4
100
AcDbEntity
  8
치수문자_일반주서
 62
     0
370
    -2
100
AcDbLine
 10
166.047064372042
 20
-33.03545310873366
 30
0.0
 11
183.5013153509712
 21
-33.0354531087336
 31
0.0
  0
LINE
  5
3D8
330
3D4
100
AcDbEntity
  8
치수문자_일반주서
 62
     0
370
    -2
100
AcDbLine
 10
166.047064372042
 20
-35.41670310873366
 30
0.0
 11
183.5013153509712
 21
-35.4167031087336
 31
0.0
  0
LINE
  5
3D9
330
3D4
100
AcDbEntity
  8
치수문자_일반주서
 62
     0
370
    -2
100
AcDbLine
 10
183.5013153509712
 20
-33.0354531087336
 30
0.0
 11
183.5013153509712
 21
2.443546891266401
 31
0.0
  0
LINE
  5
3DA
330
3D4
100
AcDbEntity
  8
치수문자_일반주서
 62
     0
370
    -2
100
AcDbLine
 10
183.5013153509712
 20
-33.0354531087336
 30
0.0
 11
183.5013153509712
 21
-35.4167031087336
 31
0.0
  0
LINE
  5
3DB
330
3D4
100
AcDbEntity
  8
치수문자_일반주서
 62
     0
370
    -2
100
AcDbLine
 10
183.5013153509712
 20
-29.7334531087336
 30
0.0
 11
183.5013153509712
 21
-26.4314531087336
 31
0.0
  0
LINE
  5
3DC
330
3D4
100
AcDbEntity
  8
치수문자_일반주서
 62
     0
370
    -2
100
AcDbLine
 10
183.5013153509712
 20
-38.7187031087336
 30
0.0
 11
183.5013153509712
 21
-42.0207031087336
 31
0.0
  0
SOLID
  5
3DD
330
3D4
100
AcDbEntity
  8
치수문자_일반주서
 62
     0
100
AcDbTrace
 10
182.9509820176378
 20
-29.7334531087336
 30
0.0
 11
184.0516486843045
 21
-29.7334531087336
 31
0.0
 12
183.5013153509712
 22
-33.0354531087336
 32
0.0
 13
183.5013153509712
 23
-33.0354531087336
 33
0.0
  0
SOLID
  5
3DE
330
3D4
100
AcDbEntity
  8
치수문자_일반주서
 62
     0
100
AcDbTrace
 10
184.0516486843045
 20
-38.7187031087336
 30
0.0
 11
182.9509820176378
 21
-38.7187031087336
 31
0.0
 12
183.5013153509712
 22
-35.4167031087336
 32
0.0
 13
183.5013153509712
 23
-35.4167031087336
 33
0.0
  0
MTEXT
  5
3DF
330
3D4
100
AcDbEntity
  8
치수문자_일반주서
 62
     0
100
AcDbMText
 10
179.1263153509712
 20
-11.9939531087336
 30
0.0
 40
3.5
 41
0.0
 71
     2
 72
     1
  1
\A1;%%c2.38 [3/32]
  7
SLDTEXTSTYLE0
 11
0.0
 21
1.0
 31
0.0
 73
     1
 44
1.0
  0
POINT
  5
3E0
330
3D4
100
AcDbEntity
  8
Defpoints
 62
     0
100
AcDbPoint
 10
165.984564372042
 20
-33.03545310873366
 30
0.0
  0
POINT
  5
3E1
330
3D4
100
AcDbEntity
  8
Defpoints
 62
     0
100
AcDbPoint
 10
165.984564372042
 20
-35.41670310873366
 30
0.0
  0
POINT
  5
3E2
330
3D4
100
AcDbEntity
  8
Defpoints
 62
     0
100
AcDbPoint
 10
183.5013153509713
 20
-35.4167031087336
 30
0.0
  0
ENDBLK
  5
3D6
330
3D4
100
AcDbEntity
  8
0
100
AcDbBlockEnd
  0
BLOCK
  5
3E4
330
3E3
100
AcDbEntity
  8
0
100
AcDbBlockBegin
  2
*D21
 70
     1
 10
0.0
 20
0.0
 30
0.0
  3
*D21
  1
*D21
  0
LINE
  5
3E6
330
3E3
100
AcDbEntity
  8
치수문자_일반주서
 62
     0
370
    -2
100
AcDbLine
 10
165.984564372042
 20
-32.97295310873366
 30
0.0
 11
165.984564372042
 21
-17.29467581488884
 31
0.0
  0
LINE
  5
3E7
330
3E3
100
AcDbEntity
  8
치수문자_일반주서
 62
     0
370
    -2
100
AcDbLine
 10
158.8408143720421
 20
-33.07072309802769
 30
0.0
 11
158.8408143720421
 21
-17.29467581488884
 31
0.0
  0
LINE
  5
3E8
330
3E3
100
AcDbEntity
  8
치수문자_일반주서
 62
     0
370
    -2
100
AcDbLine
 10
158.8408143720421
 20
-17.29467581488884
 30
0.0
 11
111.7265869305877
 21
-17.29467581488884
 31
0.0
  0
LINE
  5
3E9
330
3E3
100
AcDbEntity
  8
치수문자_일반주서
 62
     0
370
    -2
100
AcDbLine
 10
165.984564372042
 20
-17.29467581488884
 30
0.0
 11
158.8408143720421
 21
-17.29467581488884
 31
0.0
  0
LINE
  5
3EA
330
3E3
100
AcDbEntity
  8
치수문자_일반주서
 62
     0
370
    -2
100
AcDbLine
 10
169.286564372042
 20
-17.29467581488884
 30
0.0
 11
172.588564372042
 21
-17.29467581488884
 31
0.0
  0
LINE
  5
3EB
330
3E3
100
AcDbEntity
  8
치수문자_일반주서
 62
     0
370
    -2
100
AcDbLine
 10
155.5388143720421
 20
-17.29467581488884
 30
0.0
 11
152.2368143720421
 21
-17.29467581488884
 31
0.0
  0
SOLID
  5
3EC
330
3E3
100
AcDbEntity
  8
치수문자_일반주서
 62
     0
100
AcDbTrace
 10
169.286564372042
 20
-16.7443424815555
 30
0.0
 11
169.286564372042
 21
-17.84500914822217
 31
0.0
 12
165.984564372042
 22
-17.29467581488884
 32
0.0
 13
165.984564372042
 23
-17.29467581488884
 33
0.0
  0
SOLID
  5
3ED
330
3E3
100
AcDbEntity
  8
치수문자_일반주서
 62
     0
100
AcDbTrace
 10
155.5388143720421
 20
-17.84500914822217
 30
0.0
 11
155.5388143720421
 21
-16.7443424815555
 31
0.0
 12
158.8408143720421
 22
-17.29467581488884
 32
0.0
 13
158.8408143720421
 23
-17.29467581488884
 33
0.0
  0
MTEXT
  5
3EE
330
3E3
100
AcDbEntity
  8
치수문자_일반주서
 62
     0
100
AcDbMText
 10
124.4140869305877
 20
-12.91967581488884
 30
0.0
 40
3.5
 41
0.0
 71
     2
 72
     1
  1
\A1;7.14 [9/32]
  7
SLDTEXTSTYLE0
 73
     1
 44
1.0
  0
POINT
  5
3EF
330
3E3
100
AcDbEntity
  8
Defpoints
 62
     0
100
AcDbPoint
 10
165.984564372042
 20
-33.03545310873366
 30
0.0
  0
POINT
  5
3F0
330
3E3
100
AcDbEntity
  8
Defpoints
 62
     0
100
AcDbPoint
 10
158.8408143720421
 20
-33.13322309802769
 30
0.0
  0
POINT
  5
3F1
330
3E3
100
AcDbEntity
  8
Defpoints
 62
     0
100
AcDbPoint
 10
158.8408143720421
 20
-17.29467581488884
 30
0.0
  0
ENDBLK
  5
3E5
330
3E3
100
AcDbEntity
  8
0
100
AcDbBlockEnd
  0
BLOCK
  5
3F3
330
3F2
100
AcDbEntity
  8
0
100
AcDbBlockBegin
  2
*D22
 70
     1
 10
0.0
 20
0.0
 30
0.0
  3
*D22
  1
*D22
  0
LINE
  5
3F5
330
3F2
100
AcDbEntity
  8
치수문자_일반주서
 62
     0
370
    -2
100
AcDbLine
 10
165.984564372042
 20
-32.97295310873366
 30
0.0
 11
165.984564372042
 21
-3.364736758377745
 31
0.0
  0
LINE
  5
3F6
330
3F2
100
AcDbEntity
  8
치수문자_일반주서
 62
     0
370
    -2
100
AcDbLine
 10
99.30956437204202
 20
-32.25857810873367
 30
0.0
 11
99.30956437204202
 21
-3.364736758377745
 31
0.0
  0
LINE
  5
3F7
330
3F2
100
AcDbEntity
  8
치수문자_일반주서
 62
     0
370
    -2
100
AcDbLine
 10
162.682564372042
 20
-3.364736758377745
 30
0.0
 11
102.611564372042
 21
-3.364736758377745
 31
0.0
  0
SOLID
  5
3F8
330
3F2
100
AcDbEntity
  8
치수문자_일반주서
 62
     0
100
AcDbTrace
 10
162.682564372042
 20
-3.915070091711078
 30
0.0
 11
162.682564372042
 21
-2.814403425044412
 31
0.0
 12
165.984564372042
 22
-3.364736758377745
 32
0.0
 13
165.984564372042
 23
-3.364736758377745
 33
0.0
  0
SOLID
  5
3F9
330
3F2
100
AcDbEntity
  8
치수문자_일반주서
 62
     0
100
AcDbTrace
 10
102.611564372042
 20
-2.814403425044412
 30
0.0
 11
102.611564372042
 21
-3.915070091711078
 31
0.0
 12
99.30956437204202
 22
-3.364736758377745
 32
0.0
 13
99.30956437204202
 23
-3.364736758377745
 33
0.0
  0
MTEXT
  5
3FA
330
3F2
100
AcDbEntity
  8
치수문자_일반주서
 62
     0
100
AcDbMText
 10
131.6576552399735
 20
1.010263241622255
 30
0.0
 40
3.5
 41
0.0
 71
     2
 72
     1
  1
\A1;66.68 [2 5/8]
  7
SLDTEXTSTYLE0
 73
     1
 44
1.0
  0
POINT
  5
3FB
330
3F2
100
AcDbEntity
  8
Defpoints
 62
     0
100
AcDbPoint
 10
165.984564372042
 20
-33.03545310873366
 30
0.0
  0
POINT
  5
3FC
330
3F2
100
AcDbEntity
  8
Defpoints
 62
     0
100
AcDbPoint
 10
99.30956437204202
 20
-32.32107810873367
 30
0.0
  0
POINT
  5
3FD
330
3F2
100
AcDbEntity
  8
Defpoints
 62
     0
100
AcDbPoint
 10
99.30956437204202
 20
-3.364736758377745
 30
0.0
  0
ENDBLK
  5
3F4
330
3F2
100
AcDbEntity
  8
0
100
AcDbBlockEnd
  0
ENDSEC
  0
SECTION
  2
ENTITIES
  0
LINE
  5
96
330
1F
100
AcDbEntity
  8
0
  6
Continuous
 62
     1
370
    25
100
AcDbLine
 10
26.68635452494185
 20
0.2098347608970006
 30
0.0
 11
26.5103336796699
 21
0.3001082602588617
 31
0.0
  0
LINE
  5
97
330
1F
100
AcDbEntity
  8
0
  6
Continuous
 62
     1
370
    25
100
AcDbLine
 10
32.91348815491568
 20
0.3420861682852049
 30
0.0
 11
32.8871799857335
 21
0.3563376267121071
 31
0.0
  0
LINE
  5
98
330
1F
100
AcDbEntity
  8
0
  6
Continuous
 62
     1
370
    25
100
AcDbLine
 10
31.5267522300139
 20
-0.3029899746320082
 30
0.0
 11
31.6304286530772
 21
-0.3575243935075427
 31
0.0
  0
LINE
  5
99
330
1F
100
AcDbEntity
  8
0
  6
Continuous
 62
     1
370
    25
100
AcDbLine
 10
30.27429722616801
 20
-1.190625000000001
 30
0.0
 11
31.0005067009014
 21
-1.190625000000001
 31
0.0
  0
LINE
  5
9A
330
1F
100
AcDbEntity
  8
0
  6
Continuous
 62
     1
370
    25
100
AcDbLine
 10
27.76179832519139
 20
1.190625
 30
0.0
 11
27.035830973149
 21
1.190625
 31
0.0
  0
LINE
  5
9B
330
1F
100
AcDbEntity
  8
0
  6
Continuous
 62
     1
370
    25
100
AcDbLine
 10
31.0005067009014
 20
1.190625
 30
0.0
 11
30.27429722616803
 21
1.190625
 31
0.0
  0
LINE
  5
9C
330
1F
100
AcDbEntity
  8
0
  6
Continuous
 62
     1
370
    25
100
AcDbLine
 10
27.035830973149
 20
-1.190625000000001
 30
0.0
 11
27.76179832519138
 21
-1.190625000000001
 31
0.0
  0
LINE
  5
9D
330
1F
100
AcDbEntity
  8
외형선
  6
Continuous
370
    15
100
AcDbLine
 10
20.7502770072383
 20
-2.381250000000007
 30
0.0
 11
25.19375000000002
 21
-1.190625
 31
0.0
  0
LINE
  5
9E
330
1F
100
AcDbEntity
  8
외형선
  6
Continuous
370
    15
100
AcDbLine
 10
25.19375000000002
 20
1.190624999999999
 30
0.0
 11
20.7502770072383
 21
2.381250000000006
 31
0.0
  0
LINE
  5
9F
330
1F
100
AcDbEntity
  8
외형선
  6
Continuous
370
    15
100
AcDbLine
 10
-20.75027700723827
 20
-2.381250000000004
 30
0.0
 11
20.7502770072383
 21
-2.381250000000004
 31
0.0
  0
LINE
  5
A0
330
1F
100
AcDbEntity
  8
외형선
  6
Continuous
370
    15
100
AcDbLine
 10
20.7502770072383
 20
2.381250000000003
 30
0.0
 11
-20.75027700723827
 21
2.381250000000003
 31
0.0
  0
LINE
  5
A3
330
1F
100
AcDbEntity
  8
외형선
  6
Continuous
370
    15
100
AcDbLine
 10
25.19375000000002
 20
-1.190625
 30
0.0
 11
25.69366764694038
 21
-1.190625
 31
0.0
  0
LINE
  5
A4
330
1F
100
AcDbEntity
  8
외형선
  6
Continuous
370
    15
100
AcDbLine
 10
25.69366764694038
 20
1.190624999999999
 30
0.0
 11
25.19375000000002
 21
1.190624999999999
 31
0.0
  0
SPLINE
  5
A5
330
1F
100
AcDbEntity
  8
0
  6
Continuous
 62
     1
370
    25
100
AcDbSpline
210
0.0
220
0.0
230
1.0
 70
     8
 71
     3
 72
    17
 73
    13
 74
     0
 42
0.000000001
 43
0.00000001
 40
0.0
 40
0.0
 40
0.0
 40
0.0
 40
0.1099440226281531
 40
0.219891807940488
 40
0.3297976138833649
 40
0.4396683932804423
 40
0.5495112970342183
 40
0.6593335639761552
 40
0.7628379557583002
 40
0.8663402607228305
 40
0.9698776798068394
 40
1.0
 40
1.0
 40
1.0
 40
1.0
 10
26.19375000000319
 20
0.820340469099452
 30
0.0
 10
26.41618638590955
 20
0.718997140963817
 30
0.0
 10
26.8610667703041
 20
0.5163070163554002
 30
0.0
 10
27.52833164273304
 20
0.1360471167290955
 30
0.0
 10
28.19537389990115
 20
-0.2522534902317753
 30
0.0
 10
28.86217220925775
 20
-0.6159510773910973
 30
0.0
 10
29.52874878554218
 20
-0.9155005786547933
 30
0.0
 10
30.1824868793206
 20
-1.115871896319685
 30
0.0
 10
30.82315794863738
 20
-1.205789504591719
 30
0.0
 10
31.45117363604771
 20
-1.176360692331908
 30
0.0
 10
31.9307881703076
 20
-1.089562789118812
 30
0.0
 10
32.20114557682488
 20
-0.988415620428395
 30
0.0
 10
32.2620748619615
 20
-0.9656205183400521
 30
0.0
  0
SPLINE
  5
A6
330
1F
100
AcDbEntity
  8
외형선
  6
Continuous
370
    15
100
AcDbSpline
210
0.0
220
0.0
230
1.0
 70
    24
 71
     3
 72
    10
 73
     6
 74
     0
 42
0.000000001
 43
0.00000001
 40
0.0
 40
0.0
 40
0.0
 40
0.0
 40
0.3172821197308117
 40
0.638149549211506
 40
0.9999999999999999
 40
0.9999999999999999
 40
0.9999999999999999
 40
0.9999999999999999
 10
26.19375000000005
 20
1.092855010705975
 30
0.0
 10
26.19375000000003
 20
1.068017664167745
 30
0.0
 10
26.19374999999999
 20
1.018062307369107
 30
0.0
 10
26.19375000000002
 20
0.9412392559025469
 30
0.0
 10
26.19374999999999
 20
0.8921145506697316
 30
0.0
 10
26.19374999999999
 20
0.8660777392032772
 30
0.0
  0
SPLINE
  5
A7
330
1F
100
AcDbEntity
  8
0
  6
Continuous
 62
     1
370
    25
100
AcDbSpline
210
0.0
220
0.0
230
1.0
 70
     8
 71
     3
 72
    38
 73
    34
 74
     0
 42
0.000000001
 43
0.00000001
 40
0.0
 40
0.0
 40
0.0
 40
0.0
 40
0.0624999999999992
 40
0.0624999999999992
 40
0.1249999999999983
 40
0.1249999999999983
 40
0.1874999999999975
 40
0.1874999999999975
 40
0.2499999999999967
 40
0.2499999999999967
 40
0.3124999999999958
 40
0.3124999999999958
 40
0.374999999999995
 40
0.374999999999995
 40
0.4374999999999942
 40
0.4374999999999942
 40
0.4999999999999933
 40
0.4999999999999933
 40
0.5624999999999925
 40
0.5624999999999925
 40
0.6249999999999917
 40
0.6249999999999917
 40
0.687499999999993
 40
0.687499999999993
 40
0.7499999999999944
 40
0.7499999999999944
 40
0.8124999999999958
 40
0.8124999999999958
 40
0.8749999999999972
 40
0.8749999999999972
 40
0.9374999999999986
 40
0.9374999999999986
 40
1.0
 40
1.0
 40
1.0
 40
1.0
 10
33.3375
 20
-1.190624999999996
 30
0.0
 10
33.1909464280272
 20
-1.178922330120523
 30
0.0
 10
33.04018777172696
 20
-1.162248237348775
 30
0.0
 10
32.74067847105911
 20
-1.110970095065074
 30
0.0
 10
32.59468453767467
 20
-1.076686135497546
 30
0.0
 10
32.29662803350612
 20
-0.9914734017927369
 30
0.0
 10
32.1453952980007
 20
-0.9404821257570399
 30
0.0
 10
31.84904599686988
 20
-0.8253648773603124
 30
0.0
 10
31.70178149566378
 20
-0.761054545078985
 30
0.0
 10
31.40188477790223
 20
-0.6207544711057548
 30
0.0
 10
31.25385609362931
 20
-0.5454789793245663
 30
0.0
 10
30.95830058394515
 20
-0.3877556424794636
 30
0.0
 10
30.80714388752302
 20
-0.3046294071119324
 30
0.0
 10
30.50858056730263
 20
-0.1355781825223944
 30
0.0
 10
30.36279041314095
 20
-0.0499985727298259
 30
0.0
 10
30.06357625667053
 20
0.1220634631039769
 30
0.0
 10
29.91263194507539
 20
0.2080532577093611
 30
0.0
 10
29.61852887527358
 20
0.3740186006521437
 30
0.0
 10
29.46893485594457
 20
0.4552053463833677
 30
0.0
 10
29.16921169687754
 20
0.6092761821224376
 30
0.0
 10
29.02285873854943
 20
0.6815506992051098
 30
0.0
 10
28.72538902401962
 20
0.8151766111505674
 30
0.0
 10
28.57412222340805
 20
0.8764495834002021
 30
0.0
 10
28.27705757239225
 20
0.9836667094632066
 30
0.0
 10
28.13040314975773
 20
1.029823391728232
 30
0.0
 10
27.83058806903964
 20
1.105990388932984
 30
0.0
 10
27.68164178211878
 20
1.135565883275728
 30
0.0
 10
27.38695779677411
 20
1.176538915511297
 30
0.0
 10
27.23591904236133
 20
1.188118585519664
 30
0.0
 10
26.93692933656174
 20
1.192395846697106
 30
0.0
 10
26.79118753258197
 20
1.185257745575086
 30
0.0
 10
26.49234953889211
 20
1.152534350007503
 30
0.0
 10
26.34126127671256
 20
1.126852150324562
 30
0.0
 10
26.19375000000322
 20
1.092855010706712
 30
0.0
  0
SPLINE
  5
A8
330
1F
100
AcDbEntity
  8
0
  6
Continuous
 62
     1
370
    25
100
AcDbSpline
210
0.0
220
0.0
230
1.0
 70
     8
 71
     3
 72
    12
 73
     8
 74
     0
 42
0.000000001
 43
0.00000001
 40
0.0
 40
0.0
 40
0.0
 40
0.0
 40
0.2358980093895419
 40
0.4718040920666318
 40
0.7076201030012746
 40
0.9433609603056138
 40
1.0
 40
1.0
 40
1.0
 40
1.0
 10
26.19375000000321
 20
-0.8629191186795525
 30
0.0
 10
26.41618636792427
 20
-0.9424730533952625
 30
0.0
 10
26.86106671634761
 20
-1.101583645451566
 30
0.0
 10
27.52833185853336
 20
-1.204009605912897
 30
0.0
 10
28.19537309110473
 20
-1.180270354428111
 30
0.0
 10
28.6933698080694
 20
-1.091764368770105
 30
0.0
 10
28.9690149424793
 20
-0.98666582720679
 30
0.0
 10
29.02241216940793
 20
-0.9663064231282923
 30
0.0
  0
SPLINE
  5
A9
330
1F
100
AcDbEntity
  8
외형선
  6
Continuous
370
    15
100
AcDbSpline
210
0.0
220
0.0
230
1.0
 70
    24
 71
     3
 72
    20
 73
    16
 74
     0
 42
0.000000001
 43
0.00000001
 40
0.0
 40
0.0
 40
0.0
 40
0.0
 40
0.1249999999999999
 40
0.1249999999999999
 40
0.2499999999999998
 40
0.2499999999999998
 40
0.4999999999999998
 40
0.4999999999999998
 40
0.6249999999999998
 40
0.6249999999999998
 40
0.7499999999999998
 40
0.7499999999999998
 40
0.8749999999999999
 40
0.8749999999999999
 40
1.0
 40
1.0
 40
1.0
 40
1.0
 10
26.19375000000002
 20
0.4724995409520016
 30
0.0
 10
26.19375000000003
 20
0.4665643608302908
 30
0.0
 10
26.19375000000002
 20
0.4544316702357092
 30
0.0
 10
26.19375000000002
 20
0.4244536666803215
 30
0.0
 10
26.19375000000003
 20
0.4035669282029292
 30
0.0
 10
26.19375000000002
 20
0.3144782963406809
 30
0.0
 10
26.19375000000002
 20
0.2167627845579284
 30
0.0
 10
26.19375000000003
 20
-0.0030288840009411
 30
0.0
 10
26.19375000000002
 20
-0.0878549379768515
 30
0.0
 10
26.19375000000002
 20
-0.2685187843354532
 30
0.0
 10
26.19375000000003
 20
-0.3640441985616609
 30
0.0
 10
26.19375000000002
 20
-0.5441750352144746
 30
0.0
 10
26.19375000000003
 20
-0.6282591021323977
 30
0.0
 10
26.19375
 20
-0.7677802215262571
 30
0.0
 10
26.19375000000002
 20
-0.8231469315864451
 30
0.0
 10
26.19375000000003
 20
-0.8629191186782729
 30
0.0
  0
SPLINE
  5
AA
330
1F
100
AcDbEntity
  8
0
  6
Continuous
 62
     1
370
    25
100
AcDbSpline
210
0.0
220
0.0
230
1.0
 70
     8
 71
     3
 72
    14
 73
    10
 74
     0
 42
0.000000001
 43
0.00000001
 40
0.0
 40
0.0
 40
0.0
 40
0.0
 40
0.0663886551695997
 40
0.2296810135627307
 40
0.3835902217057655
 40
0.5375299540003844
 40
0.6915552969964154
 40
0.8457205442449869
 40
1.0
 40
1.0
 40
1.0
 40
1.0
 10
30.27429722616801
 20
-1.175654130776729
 30
0.0
 10
30.1839942609526
 20
-1.179338823180121
 30
0.0
 10
29.87157828377386
 20
-1.192086541652745
 30
0.0
 10
29.34978103006268
 20
-1.086095115087786
 30
0.0
 10
28.70912654111178
 20
-0.8780969623842357
 30
0.0
 10
28.08099206230406
 20
-0.5861943229649568
 30
0.0
 10
27.45245764230461
 20
-0.2428521941750099
 30
0.0
 10
26.82332973774039
 20
0.1265529247269023
 30
0.0
 10
26.40366170972043
 20
0.3571555402946496
 30
0.0
 10
26.19375000000322
 20
0.472499540950291
 30
0.0
  0
LINE
  5
AB
330
1F
100
AcDbEntity
  8
0
  6
Continuous
 62
     1
370
    25
100
AcDbLine
 10
33.33749999999999
 20
-1.078326856457623
 30
0.0
 11
33.33749999999999
 21
0.1020143564576364
 31
0.0
  0
SPLINE
  5
AC
330
1F
100
AcDbEntity
  8
0
  6
Continuous
 62
     1
370
    25
100
AcDbSpline
210
0.0
220
0.0
230
1.0
 70
     8
 71
     3
 72
    16
 73
    12
 74
     0
 42
0.000000001
 43
0.00000001
 40
0.0
 40
0.0
 40
0.0
 40
0.0
 40
0.0777596547963428
 40
0.1973329600562619
 40
0.3168759280160901
 40
0.4363964367577795
 40
0.5490411481380466
 40
0.6616835884169251
 40
0.7743642436911861
 40
0.8871232451530628
 40
1.0
 40
1.0
 40
1.0
 40
1.0
 10
27.76179832519139
 20
1.176506308747105
 30
0.0
 10
27.90634686708808
 20
1.177008859475384
 30
0.0
 10
28.27317194776773
 20
1.178284197220252
 30
0.0
 10
28.8621707550167
 20
1.04021430959793
 30
0.0
 10
29.52874928410505
 20
0.7944488040801261
 30
0.0
 10
30.18248635886637
 20
0.467847221118087
 30
0.0
 10
30.8231594573625
 20
0.1043194133688408
 30
0.0
 10
31.4511680804583
 20
-0.262437878499358
 30
0.0
 10
32.07942237215725
 20
-0.6030620351554252
 30
0.0
 10
32.70819069353509
 20
-0.8953304036635323
 30
0.0
 10
33.12765726164385
 20
-1.017306820095086
 30
0.0
 10
33.33750000000001
 20
-1.078326856457623
 30
0.0
  0
SPLINE
  5
AD
330
1F
100
AcDbEntity
  8
0
  6
Continuous
 62
     1
370
    25
100
AcDbSpline
210
0.0
220
0.0
230
1.0
 70
     8
 71
     3
 72
    14
 73
    10
 74
     0
 42
0.000000001
 43
0.00000001
 40
0.0
 40
0.0
 40
0.0
 40
0.0
 40
0.154623593352839
 40
0.3091884423810076
 40
0.4637044564428901
 40
0.6181816981809429
 40
0.7726303525619777
 40
0.9270606950985447
 40
1.0
 40
1.0
 40
1.0
 40
1.0
 10
33.33749999999999
 20
0.1020143564576363
 30
0.0
 10
33.11505388991618
 20
0.2288334625454627
 30
0.0
 10
32.67024618108498
 20
0.4824234938285307
 30
0.0
 10
32.00321292311278
 20
0.8101100058615557
 30
0.0
 10
31.33642957926887
 20
1.054194831485858
 30
0.0
 10
30.66984209254483
 20
1.190188166421808
 30
0.0
 10
30.00342399851132
 20
1.197880873579424
 30
0.0
 10
29.45422324046014
 20
1.117500761084101
 30
0.0
 10
29.12729082562494
 20
1.003028638132612
 30
0.0
 10
29.02241216940794
 20
0.966306423128292
 30
0.0
  0
LINE
  5
AE
330
1F
100
AcDbEntity
  8
외형선
  6
Continuous
370
    15
100
AcDbLine
 10
26.19375000000004
 20
0.4724995409519985
 30
0.0
 11
26.19375
 21
0.8203404691007916
 31
0.0
  0
LINE
  5
AF
330
1F
100
AcDbEntity
  8
0
  6
Continuous
 62
     1
370
    25
100
AcDbLine
 10
33.3375
 20
-1.190624999999996
 30
0.0
 11
33.33749999999999
 21
-1.078326856457623
 31
0.0
  0
SPLINE
  5
B0
330
1F
100
AcDbEntity
  8
0
  6
Continuous
 62
     1
370
    25
100
AcDbSpline
210
0.0
220
0.0
230
1.0
 70
     8
 71
     3
 72
    11
 73
     7
 74
     0
 42
0.000000001
 43
0.00000001
 40
0.0
 40
0.0
 40
0.0
 40
0.0
 40
0.1928458936763482
 40
0.4616790052072865
 40
0.7306990347974256
 40
1.0
 40
1.0
 40
1.0
 40
1.0
 10
31.0005067009014
 20
1.179457547947523
 30
0.0
 10
31.15070381701545
 20
1.178443592490193
 30
0.0
 10
31.51028033602042
 20
1.176016151916063
 30
0.0
 10
32.07942325926456
 20
1.044406187361509
 30
0.0
 10
32.70819047142371
 20
0.8204139007597765
 30
0.0
 10
33.12765718758099
 20
0.6100254113494606
 30
0.0
 10
33.33750000000001
 20
0.5047762685261783
 30
0.0
  0
LINE
  5
B1
330
1F
100
AcDbEntity
  8
0
  6
Continuous
 62
     1
370
    25
100
AcDbLine
 10
33.33749999999999
 20
0.1020143564576364
 30
0.0
 11
33.33749999999999
 21
0.5047762685261782
 31
0.0
  0
SPLINE
  5
B2
330
1F
100
AcDbEntity
  8
0
  6
Continuous
 62
     1
370
    25
100
AcDbSpline
210
0.0
220
0.0
230
1.0
 70
     8
 71
     3
 72
     9
 73
     5
 74
     0
 42
0.000000001
 43
0.00000001
 40
0.0
 40
0.0
 40
0.0
 40
0.0
 40
0.6205064303692472
 40
1.0
 40
1.0
 40
1.0
 40
1.0
 10
33.3375
 20
1.190625000000004
 30
0.0
 10
33.11505232984987
 20
1.166659267120683
 30
0.0
 10
32.75655859108603
 20
1.135092602443139
 30
0.0
 10
32.39810550365563
 20
1.012241660739619
 30
0.0
 10
32.2620748619615
 20
0.965620518340051
 30
0.0
  0
SPLINE
  5
B3
330
1F
100
AcDbEntity
  8
0
  6
Continuous
 62
     1
370
    25
100
AcDbSpline
210
0.0
220
0.0
230
1.0
 70
     8
 71
     3
 72
     9
 73
     5
 74
     0
 42
0.000000001
 43
0.00000001
 40
0.0
 40
0.0
 40
0.0
 40
0.0
 40
0.2522167549239465
 40
1.0
 40
1.0
 40
1.0
 40
1.0
 10
27.035830973149
 20
-1.178281177395619
 30
0.0
 10
26.96504443898097
 20
-1.181838608613171
 30
0.0
 10
26.68438689825024
 20
-1.195943267197907
 30
0.0
 10
26.40366736416083
 20
-1.136960978186028
 30
0.0
 10
26.19375000000322
 20
-1.092855010706713
 30
0.0
  0
LINE
  5
B4
330
1F
100
AcDbEntity
  8
0
  6
Continuous
 62
     1
370
    25
100
AcDbLine
 10
33.33749999999999
 20
0.5047762685261782
 30
0.0
 11
33.3375
 21
1.190625000000004
 31
0.0
  0
LINE
  5
B5
330
1F
100
AcDbEntity
  8
외형선
  6
Continuous
370
    15
100
AcDbLine
 10
26.19375000000004
 20
-1.092855010705975
 30
0.0
 11
26.19375000000002
 21
-0.8629191186782728
 31
0.0
  0
LINE
  5
B6
330
1F
100
AcDbEntity
  8
외형선
  6
Continuous
370
    15
100
AcDbLine
 10
25.19375000000002
 20
-0.0000000000000005
 30
0.0
 11
25.19375000000002
 21
1.190624999999999
 31
0.0
  0
LINE
  5
B7
330
1F
100
AcDbEntity
  8
외형선
  6
Continuous
370
    15
100
AcDbLine
 10
25.19375000000002
 20
-1.190624999999999
 30
0.0
 11
25.19375000000002
 21
-0.0000000000000005
 31
0.0
  0
LINE
  5
B8
330
1F
100
AcDbEntity
  8
외형선
  6
Continuous
370
    15
100
AcDbLine
 10
20.7502770072383
 20
-0.0000000000000005
 30
0.0
 11
20.7502770072383
 21
2.381250000000006
 31
0.0
  0
LINE
  5
B9
330
1F
100
AcDbEntity
  8
외형선
  6
Continuous
370
    15
100
AcDbLine
 10
20.7502770072383
 20
-2.381250000000007
 30
0.0
 11
20.7502770072383
 21
-0.0000000000000005
 31
0.0
  0
SPLINE
  5
BE
330
1F
100
AcDbEntity
  8
외형선
  6
Continuous
370
    15
100
AcDbSpline
210
0.0
220
0.0
230
1.0
 70
     8
 71
     3
 72
     9
 73
     5
 74
     0
 42
0.000000001
 43
0.00000001
 40
0.0
 40
0.0
 40
0.0
 40
0.0
 40
0.6706550362360126
 40
1.0
 40
1.0
 40
1.0
 40
1.0
 10
26.19375000000319
 20
1.092855010706705
 30
0.0
 10
26.10097013108506
 20
1.070044890456195
 30
0.0
 10
25.96262796722261
 20
1.036033186945355
 30
0.0
 10
25.82387389609711
 20
0.9898993143515241
 30
0.0
 10
25.77817594157014
 20
0.9747053557538162
 30
0.0
  0
LINE
  5
BF
330
1F
100
AcDbEntity
  8
외형선
  6
Continuous
370
    15
100
AcDbLine
 10
25.69366764694038
 20
1.003558893868123
 30
0.0
 11
25.69366764694038
 21
1.190624999999999
 31
0.0
  0
SPLINE
  5
C0
330
1F
100
AcDbEntity
  8
외형선
  6
Continuous
370
    15
100
AcDbSpline
210
0.0
220
0.0
230
1.0
 70
     8
 71
     3
 72
     8
 73
     4
 74
     0
 42
0.000000001
 43
0.00000001
 40
0.0
 40
0.0
 40
0.0
 40
0.0
 40
1.0
 40
1.0
 40
1.0
 40
1.0
 10
26.19375000000318
 20
0.8203404690994549
 30
0.0
 10
26.02850027392342
 20
0.8898951889222346
 30
0.0
 10
25.86143937630468
 20
0.9516567297150726
 30
0.0
 10
25.69366764694039
 20
1.003558201446206
 30
0.0
  0
SPLINE
  5
C1
330
1F
100
AcDbEntity
  8
외형선
  6
Continuous
370
    15
100
AcDbSpline
210
0.0
220
0.0
230
1.0
 70
     8
 71
     3
 72
     8
 73
     4
 74
     0
 42
0.000000001
 43
0.00000001
 40
0.0
 40
0.0
 40
0.0
 40
0.0
 40
1.0
 40
1.0
 40
1.0
 40
1.0
 10
26.19375000000319
 20
0.4724995409503063
 30
0.0
 10
26.02850027392345
 20
0.5605880099981855
 30
0.0
 10
25.86143937630467
 20
0.6443622334362351
 30
0.0
 10
25.69366764694038
 20
0.721112947750898
 30
0.0
  0
LINE
  5
C2
330
1F
100
AcDbEntity
  8
외형선
  6
Continuous
370
    15
100
AcDbLine
 10
25.69366764694038
 20
-0.6406695225802336
 30
0.0
 11
25.69366764694038
 21
0.7211078682073139
 31
0.0
  0
SPLINE
  5
C3
330
1F
100
AcDbEntity
  8
외형선
  6
Continuous
370
    15
100
AcDbSpline
210
0.0
220
0.0
230
1.0
 70
     8
 71
     3
 72
     8
 73
     4
 74
     0
 42
0.000000001
 43
0.00000001
 40
0.0
 40
0.0
 40
0.0
 40
0.0
 40
1.0
 40
1.0
 40
1.0
 40
1.0
 10
26.19375000000318
 20
-0.8629191186795445
 30
0.0
 10
26.02850027392342
 20
-0.7967964076949824
 30
0.0
 10
25.86143937630468
 20
-0.7219700254029733
 30
0.0
 10
25.69366764694039
 20
-0.6406706072039304
 30
0.0
  0
SPLINE
  5
C4
330
1F
100
AcDbEntity
  8
외형선
  6
Continuous
370
    15
100
AcDbSpline
210
0.0
220
0.0
230
1.0
 70
     8
 71
     3
 72
     8
 73
     4
 74
     0
 42
0.000000001
 43
0.00000001
 40
0.0
 40
0.0
 40
0.0
 40
0.0
 40
1.0
 40
1.0
 40
1.0
 40
1.0
 10
26.19375000000319
 20
-1.092855010706706
 30
0.0
 10
26.02850027392345
 20
-1.054769664727259
 30
0.0
 10
25.86143937630467
 20
-1.005827301733967
 30
0.0
 10
25.69366764694038
 20
-0.9474091023475633
 30
0.0
  0
LINE
  5
C5
330
1F
100
AcDbEntity
  8
외형선
  6
Continuous
370
    15
100
AcDbLine
 10
25.69366764694038
 20
-1.190625
 30
0.0
 11
25.69366764694038
 21
-0.947412968580496
 31
0.0
  0
LINE
  5
C6
330
1F
100
AcDbEntity
  8
외형선
  6
Continuous
370
    15
100
AcDbLine
 10
25.69366764694039
 20
-1.003558201446207
 30
0.0
 11
25.77817594157014
 21
-0.9747053557538178
 31
0.0
  0
SPLINE
  5
C7
330
1F
100
AcDbEntity
  8
외형선
  6
Continuous
370
    15
100
AcDbSpline
210
0.0
220
0.0
230
1.0
 70
    24
 71
     3
 72
    20
 73
    16
 74
     0
 42
0.000000001
 43
0.00000001
 40
0.0
 40
0.0
 40
0.0
 40
0.0
 40
0.1250000000000001
 40
0.1250000000000001
 40
0.2500000000000002
 40
0.2500000000000002
 40
0.3750000000000003
 40
0.3750000000000003
 40
0.5000000000000003
 40
0.5000000000000003
 40
0.7500000000000004
 40
0.7500000000000004
 40
0.8750000000000003
 40
0.8750000000000003
 40
1.0
 40
1.0
 40
1.0
 40
1.0
 10
26.19375
 20
-0.8629191186782751
 30
0.0
 10
26.19375000000002
 20
-0.8231469315864308
 30
0.0
 10
26.19375000000002
 20
-0.7677802215262116
 30
0.0
 10
26.19375000000002
 20
-0.6282591021322673
 30
0.0
 10
26.19375
 20
-0.5441750352142907
 30
0.0
 10
26.19375000000002
 20
-0.3640441985613788
 30
0.0
 10
26.19375000000002
 20
-0.2685187843351269
 30
0.0
 10
26.19375000000003
 20
-0.0878549379764717
 30
0.0
 10
26.19375000000003
 20
-0.0030288840005528
 30
0.0
 10
26.19375000000003
 20
0.216762784558298
 30
0.0
 10
26.19375000000003
 20
0.3144782963409803
 30
0.0
 10
26.19375000000003
 20
0.403566928203129
 30
0.0
 10
26.19375000000003
 20
0.4244536666804885
 30
0.0
 10
26.19375
 20
0.4544316702358168
 30
0.0
 10
26.19375000000002
 20
0.4665643608303948
 30
0.0
 10
26.19375000000002
 20
0.4724995409520639
 30
0.0
  0
SPLINE
  5
C8
330
1F
100
AcDbEntity
  8
외형선
  6
Continuous
370
    15
100
AcDbSpline
210
0.0
220
0.0
230
1.0
 70
    24
 71
     3
 72
    10
 73
     6
 74
     0
 42
0.000000001
 43
0.00000001
 40
0.0
 40
0.0
 40
0.0
 40
0.0
 40
0.4115479735613951
 40
0.9274021446436711
 40
0.9999999999999999
 40
0.9999999999999999
 40
0.9999999999999999
 40
0.9999999999999999
 10
26.19374999999999
 20
0.8660777392032772
 30
0.0
 10
26.19375
 20
0.895859446941503
 30
0.0
 10
26.19375000000005
 20
0.962970990192636
 30
0.0
 10
26.1937499999999
 20
1.041046088092755
 30
0.0
 10
26.19375000000003
 20
1.087165248445559
 30
0.0
 10
26.19375000000003
 20
1.092855010706574
 30
0.0
  0
LINE
  5
C9
330
1F
100
AcDbEntity
  8
중심선
 48
0.5
100
AcDbLine
 10
-36.3375
 20
-0.0000000000000044
 30
0.0
 11
36.33749999999999
 21
0.0000000000000045
 31
0.0
  0
LINE
  5
CA
330
1F
100
AcDbEntity
  8
참조1
100
AcDbLine
 10
-6.156619342984393
 20
0.0010749287238892
 30
0.0
 11
-6.156619342984386
 21
-39.99892507127611
 31
0.0
  0
LINE
  5
CB
330
1F
100
AcDbEntity
  8
참조1
100
AcDbLine
 10
-6.156619342984386
 20
-39.99892507127611
 30
0.0
 11
-29.25297615729306
 21
-39.9989250712761
 31
0.0
  0
CIRCLE
  5
CC
330
1F
100
AcDbEntity
  8
해칭선
100
AcDbCircle
 10
0.0
 20
0.0
 30
0.0
 40
3.000000000000004
  0
INSERT
  5
CD
330
1F
100
AcDbEntity
  8
0
  6
Continuous
 62
     7
100
AcDbBlockReference
 66
     1
  2
블럭10
 10
-13.9402729321252
 20
-52.04717430164393
 30
0.0
  0
ATTRIB
  5
CE
330
CD
100
AcDbEntity
  8
FORMAT
 62
     2
100
AcDbText
 10
-23.12156822086649
 20
-49.97180738881175
 30
0.0
 40
4.233333333333333
  1
E2006006 [ 4 FLUTE ]
 41
0.75
  7
SLDTEXTSTYLE0
 11
-23.12156822086649
 21
-52.08847405547841
 31
0.0
100
AcDbAttribute
  2
AUTOATTR0
 70
     0
 74
     1
  0
SEQEND
  5
CF
330
CD
100
AcDbEntity
  8
0
  6
Continuous
 62
     7
  0
HATCH
  5
D0
330
1F
100
AcDbEntity
  8
중심선
100
AcDbHatch
 10
0.0
 20
0.0
 30
0.0
210
0.0
220
0.0
230
1.0
  2
SOLID
 70
     1
 71
     0
 91
        1
 92
        0
 93
        4
 72
     1
 10
-8.22536362774437
 20
-35.8
 11
-11.67163887158165
 21
-35.8
 72
     1
 10
-11.67163887158165
 20
-35.8
 11
-13.7998687307857
 21
-38.3363255805726
 72
     1
 10
-13.7998687307857
 20
-38.3363255805726
 11
-10.35356040183525
 21
-38.33628615127011
 72
     1
 10
-10.35356040183525
 20
-38.33628615127011
 11
-8.22536362774437
 21
-35.8
 97
        0
 75
     0
 76
     1
 98
        1
 10
6.156619342984392
 20
-0.0010749287238937
  0
HATCH
  5
D1
330
1F
100
AcDbEntity
  8
중심선
100
AcDbHatch
 10
0.0
 20
0.0
 30
0.0
210
0.0
220
0.0
230
1.0
  2
SOLID
 70
     1
 71
     0
 91
        1
 92
        0
 93
        4
 72
     1
 10
-3.212599636708392
 20
-35.8
 11
-6.658874880545675
 21
-35.8
 72
     1
 10
-6.658874880545675
 20
-35.8
 11
-11.19001288890309
 21
-41.20000000000002
 72
     1
 10
-11.19001288890309
 20
-41.20000000000002
 11
-7.743737645065808
 21
-41.20000000000002
 72
     1
 10
-7.743737645065808
 20
-41.20000000000002
 11
-3.212599636708392
 21
-35.8
 97
        0
 75
     0
 76
     1
 98
        1
 10
6.156619342984392
 20
-0.0010749287238937
  0
HATCH
  5
D2
330
1F
100
AcDbEntity
  8
중심선
100
AcDbHatch
 10
0.0
 20
0.0
 30
0.0
210
0.0
220
0.0
230
1.0
  2
SOLID
 70
     1
 71
     0
 91
        1
 92
        0
 93
        4
 72
     1
 10
1.800164354327476
 20
-35.79999999999998
 11
-1.646110889509639
 21
-35.80000000000003
 72
     1
 10
-1.646110889509639
 20
-35.80000000000003
 11
-8.69454779139889
 21
-44.20000000000002
 72
     1
 10
-8.69454779139889
 20
-44.20000000000002
 11
-5.248272547561607
 21
-44.20000000000002
 72
     1
 10
-5.248272547561607
 20
-44.20000000000002
 11
1.800164354327476
 21
-35.79999999999998
 97
        0
 75
     0
 76
     1
 98
        1
 10
6.156619342984392
 20
-0.0010749287238937
  0
HATCH
  5
D3
330
1F
100
AcDbEntity
  8
중심선
100
AcDbHatch
 10
0.0
 20
0.0
 30
0.0
210
0.0
220
0.0
230
1.0
  2
SOLID
 70
     1
 71
     0
 91
        1
 92
        0
 93
        6
 72
     3
 10
6.600054785339675
 20
-40.00000000005127
 11
3.960054785062284
 21
1.540882976769353E-10
 40
0.3939339440162627
 50
17.09539180608437
 51
320.0019657685075
 73
     0
 72
     1
 10
8.28305444104027
 20
-38.58789400463827
 11
10.58835631474131
 21
-36.65356729459035
 72
     3
 10
6.600054785286829
 20
-40.00000000000015
 11
6.60005478528683
 21
-1.278976924368180E-13
 40
0.636358354079598
 50
39.99873849337431
 51
368.4976242363725
 73
     1
 72
     1
 10
13.02538727718744
 20
-39.03999999993002
 11
5.280122092122751
 21
-39.03999999993002
 72
     1
 10
5.280122092122751
 20
-39.03999999993002
 11
5.280097047676817
 21
-40.95999999992991
 72
     1
 10
5.280097047676818
 20
-40.95999999992991
 11
9.721476817148854
 21
-40.95999999992988
 97
        0
 75
     0
 76
     1
 98
        1
 10
6.156619342984392
 20
-0.0010749287238937
  0
DIMENSION
  5
D4
330
1F
100
AcDbEntity
  8
치수문자_일반주서
100
AcDbDimension
  2
_D
 10
50.85425097892922
 20
-1.190624999999933
 30
0.0
 11
50.85425097892914
 21
22.23212500000007
 31
0.0
 70
   160
  1
%%c<>
 71
     2
 42
2.38125
 52
-270.0
  3
SLDDIMSTYLE0
100
AcDbAlignedDimension
 13
33.3375
 23
1.190625000000004
 33
0.0
 14
33.3375
 24
-1.190624999999996
 34
0.0
 50
90.0000000000002
100
AcDbRotatedDimension
1001
ACAD
1000
DSTYLE
1002
{
1070
   171
1070
     6
1070
   273
1070
     7
1002
}
  0
DIMENSION
  5
E9
330
1F
100
AcDbEntity
  8
치수문자_일반주서
100
AcDbDimension
  2
_D_1
 10
26.19375000000004
 20
16.93140229384483
 30
0.0
 11
-8.232977441454274
 21
16.93140229384483
 31
0.0
 70
   160
  1
<>
 71
     2
 42
7.143749999999955
  3
SLDDIMSTYLE0
100
AcDbAlignedDimension
 13
33.3375
 23
1.190625000000004
 33
0.0
 14
26.19375000000004
 24
1.092855010705974
 34
0.0
100
AcDbRotatedDimension
1001
ACAD
1000
DSTYLE
1002
{
1070
   171
1070
     6
1070
   273
1070
     7
1002
}
  0
DIMENSION
  5
FE
330
1F
100
AcDbEntity
  8
치수문자_일반주서
100
AcDbDimension
  2
_D_2
 10
-33.3375
 20
30.86134135035592
 30
0.0
 11
-0.9894091320685092
 21
30.86134135035592
 31
0.0
 70
   160
  1
<>
 71
     2
 42
66.675
  3
SLDDIMSTYLE0
100
AcDbAlignedDimension
 13
33.3375
 23
1.190625000000004
 33
0.0
 14
-33.3375
 24
1.190625000000006
 34
0.0
100
AcDbRotatedDimension
1001
ACAD
1000
DSTYLE
1002
{
1070
   171
1070
     6
1070
   273
1070
     7
1002
}
  0
DIMENSION
  5
112
330
1F
100
AcDbEntity
  8
치수문자_일반주서
100
AcDbDimension
  2
_D_3
 10
-46.33749999999998
 20
-2.3812500000001
 30
0.0
 11
-46.33749999999999
 21
0.0000000000000008
 31
0.0
 70
   160
  1
%%c<>
 71
     2
 42
4.762500000000006
 52
-270.0
  3
SLDDIMSTYLE0
100
AcDbAlignedDimension
 13
-20.75027700723827
 23
2.381250000000003
 33
0.0
 14
-20.75027700723827
 24
-2.381250000000004
 34
0.0
 50
90.0000000000002
100
AcDbRotatedDimension
1001
ACAD
1000
DSTYLE
1002
{
1070
   171
1070
     6
1070
   273
1070
     7
1002
}
  0
LINE
  5
126
330
1F
100
AcDbEntity
  8
참조1
100
AcDbLine
 10
68.7193644723612
 20
7.441074928723896
 30
0.0
 11
68.7193644723612
 21
-7.438925071276109
 31
0.0
  0
LINE
  5
127
330
1F
100
AcDbEntity
  8
참조1
100
AcDbLine
 10
81.41936447236121
 20
5.441074928723896
 30
0.0
 11
68.7193644723612
 21
5.441074928723896
 31
0.0
  0
SOLID
  5
128
330
1F
100
AcDbEntity
  8
참조1
100
AcDbTrace
 10
68.7193644723612
 20
5.441074928723896
 30
0.0
 11
75.0693644723612
 21
4.425074928723896
 31
0.0
 12
75.0693644723612
 22
6.457074928723896
 32
0.0
 13
75.0693644723612
 23
6.457074928723896
 33
0.0
  0
LINE
  5
129
330
1F
100
AcDbEntity
  8
참조1
100
AcDbLine
 10
81.41936447236121
 20
-5.438925071276109
 30
0.0
 11
68.7193644723612
 21
-5.438925071276109
 31
0.0
  0
SOLID
  5
12A
330
1F
100
AcDbEntity
  8
참조1
100
AcDbTrace
 10
68.7193644723612
 20
-5.438925071276109
 30
0.0
 11
75.0693644723612
 21
-6.454925071276109
 31
0.0
 12
75.0693644723612
 22
-4.422925071276109
 32
0.0
 13
75.0693644723612
 23
-4.422925071276109
 33
0.0
  0
MTEXT
  5
12B
330
1F
100
AcDbEntity
  8
참조1
100
AcDbMText
 10
78.1037146049872
 20
11.01136670591223
 30
0.0
 40
3.5
 41
0.0
 71
     1
 72
     1
  1
A
  7
SLDTEXTSTYLE0
 73
     1
 44
1.0
  0
MTEXT
  5
12C
330
1F
100
AcDbEntity
  8
참조1
100
AcDbMText
 10
78.1037146049872
 20
0.1313667059122219
 30
0.0
 40
3.5
 41
0.0
 71
     1
 72
     1
  1
A
  7
SLDTEXTSTYLE0
 73
     1
 44
1.0
  0
INSERT
  5
133
330
1F
100
AcDbEntity
  8
해칭선
100
AcDbBlockReference
  2
SW_DOWELSYMBOL_0
 10
0.0
 20
0.0
 30
0.0
  0
LINE
  5
3A1
330
1F
100
AcDbEntity
  8
0
  6
Continuous
 62
     1
370
    25
100
AcDbLine
 10
-26.68635452494183
 20
-0.2098347608969945
 30
0.0
 11
-26.51033367966988
 21
-0.3001082602588511
 31
0.0
  0
LINE
  5
3A2
330
1F
100
AcDbEntity
  8
0
  6
Continuous
 62
     1
370
    25
100
AcDbLine
 10
-32.91348815491568
 20
-0.3420861682851907
 30
0.0
 11
-32.88717998573349
 21
-0.3563376267120958
 31
0.0
  0
LINE
  5
3A3
330
1F
100
AcDbEntity
  8
0
  6
Continuous
 62
     1
370
    25
100
AcDbLine
 10
-31.52675223001389
 20
0.3029899746320212
 30
0.0
 11
-31.63042865307718
 21
0.3575243935075548
 31
0.0
  0
LINE
  5
3A4
330
1F
100
AcDbEntity
  8
0
  6
Continuous
 62
     1
370
    25
100
AcDbLine
 10
-30.27429722616798
 20
1.190625000000013
 30
0.0
 11
-31.0005067009014
 21
1.190625000000013
 31
0.0
  0
LINE
  5
3A5
330
1F
100
AcDbEntity
  8
0
  6
Continuous
 62
     1
370
    25
100
AcDbLine
 10
-27.76179832519139
 20
-1.190624999999988
 30
0.0
 11
-27.03583097314898
 21
-1.190624999999988
 31
0.0
  0
LINE
  5
3A6
330
1F
100
AcDbEntity
  8
0
  6
Continuous
 62
     1
370
    25
100
AcDbLine
 10
-31.0005067009014
 20
-1.190624999999988
 30
0.0
 11
-30.27429722616804
 21
-1.190624999999988
 31
0.0
  0
LINE
  5
3A7
330
1F
100
AcDbEntity
  8
0
  6
Continuous
 62
     1
370
    25
100
AcDbLine
 10
-27.03583097314898
 20
1.190625000000013
 30
0.0
 11
-27.76179832519136
 21
1.190625000000013
 31
0.0
  0
LINE
  5
3A8
330
1F
100
AcDbEntity
  8
외형선
  6
Continuous
370
    15
100
AcDbLine
 10
-20.75027700723827
 20
2.381250000000017
 30
0.0
 11
-25.19374999999999
 21
1.190625000000013
 31
0.0
  0
LINE
  5
3A9
330
1F
100
AcDbEntity
  8
외형선
  6
Continuous
370
    15
100
AcDbLine
 10
-25.19374999999999
 20
-1.190624999999988
 30
0.0
 11
-20.75027700723827
 21
-2.38125
 31
0.0
  0
LINE
  5
3AC
330
1F
100
AcDbEntity
  8
외형선
  6
Continuous
370
    15
100
AcDbLine
 10
-25.19374999999999
 20
1.190625000000013
 30
0.0
 11
-25.69366764694038
 21
1.190625000000013
 31
0.0
  0
LINE
  5
3AD
330
1F
100
AcDbEntity
  8
외형선
  6
Continuous
370
    15
100
AcDbLine
 10
-25.69366764694038
 20
-1.190624999999988
 30
0.0
 11
-25.19374999999999
 21
-1.190624999999988
 31
0.0
  0
SPLINE
  5
3AE
330
1F
100
AcDbEntity
  8
0
  6
Continuous
 62
     1
370
    25
100
AcDbSpline
210
0.0
220
0.0
230
1.0
 70
     8
 71
     3
 72
    17
 73
    13
 74
     0
 42
0.000000001
 43
0.00000001
 40
0.0
 40
0.0
 40
0.0
 40
0.0
 40
0.1099440226281531
 40
0.219891807940488
 40
0.3297976138833649
 40
0.4396683932804423
 40
0.5495112970342183
 40
0.6593335639761552
 40
0.7628379557583002
 40
0.8663402607228305
 40
0.9698776798068394
 40
1.0
 40
1.0
 40
1.0
 40
1.0
 10
-26.19375000000317
 20
-0.8203404690994404
 30
0.0
 10
-26.41618638590952
 20
-0.7189971409638062
 30
0.0
 10
-26.86106677030408
 20
-0.5163070163553897
 30
0.0
 10
-27.52833164273303
 20
-0.1360471167290868
 30
0.0
 10
-28.19537389990113
 20
0.2522534902317816
 30
0.0
 10
-28.86217220925774
 20
0.6159510773911038
 30
0.0
 10
-29.52874878554217
 20
0.9155005786548017
 30
0.0
 10
-30.18248687932057
 20
1.115871896319698
 30
0.0
 10
-30.82315794863737
 20
1.205789504591729
 30
0.0
 10
-31.45117363604771
 20
1.17636069233192
 30
0.0
 10
-31.93078817030757
 20
1.089562789118824
 30
0.0
 10
-32.20114557682486
 20
0.9884156204284068
 30
0.0
 10
-32.2620748619615
 20
0.9656205183400616
 30
0.0
  0
SPLINE
  5
3AF
330
1F
100
AcDbEntity
  8
외형선
  6
Continuous
370
    15
100
AcDbSpline
210
0.0
220
0.0
230
1.0
 70
    24
 71
     3
 72
    10
 73
     6
 74
     0
 42
0.000000001
 43
0.00000001
 40
0.0
 40
0.0
 40
0.0
 40
0.0
 40
0.3172821197308117
 40
0.638149549211506
 40
0.9999999999999999
 40
0.9999999999999999
 40
0.9999999999999999
 40
0.9999999999999999
 10
-26.19375000000004
 20
-1.092855010705966
 30
0.0
 10
-26.19375000000002
 20
-1.068017664167739
 30
0.0
 10
-26.19374999999999
 20
-1.018062307369098
 30
0.0
 10
-26.19374999999999
 20
-0.9412392559025363
 30
0.0
 10
-26.19374999999999
 20
-0.8921145506697229
 30
0.0
 10
-26.19374999999999
 20
-0.8660777392032685
 30
0.0
  0
SPLINE
  5
3B0
330
1F
100
AcDbEntity
  8
0
  6
Continuous
 62
     1
370
    25
100
AcDbSpline
210
0.0
220
0.0
230
1.0
 70
     8
 71
     3
 72
    38
 73
    34
 74
     0
 42
0.000000001
 43
0.00000001
 40
0.0
 40
0.0
 40
0.0
 40
0.0
 40
0.0624999999999992
 40
0.0624999999999992
 40
0.1249999999999983
 40
0.1249999999999983
 40
0.1874999999999975
 40
0.1874999999999975
 40
0.2499999999999967
 40
0.2499999999999967
 40
0.3124999999999958
 40
0.3124999999999958
 40
0.374999999999995
 40
0.374999999999995
 40
0.4374999999999942
 40
0.4374999999999942
 40
0.4999999999999933
 40
0.4999999999999933
 40
0.5624999999999925
 40
0.5624999999999925
 40
0.6249999999999917
 40
0.6249999999999917
 40
0.687499999999993
 40
0.687499999999993
 40
0.7499999999999944
 40
0.7499999999999944
 40
0.8124999999999958
 40
0.8124999999999958
 40
0.8749999999999972
 40
0.8749999999999972
 40
0.9374999999999986
 40
0.9374999999999986
 40
1.0
 40
1.0
 40
1.0
 40
1.0
 10
-33.3375
 20
1.190625000000006
 30
0.0
 10
-33.19094642802718
 20
1.17892233012053
 30
0.0
 10
-33.04018777172694
 20
1.162248237348786
 30
0.0
 10
-32.74067847105911
 20
1.110970095065086
 30
0.0
 10
-32.59468453767465
 20
1.076686135497555
 30
0.0
 10
-32.29662803350609
 20
0.9914734017927472
 30
0.0
 10
-32.14539529800069
 20
0.9404821257570518
 30
0.0
 10
-31.84904599686987
 20
0.8253648773603232
 30
0.0
 10
-31.70178149566376
 20
0.7610545450789928
 30
0.0
 10
-31.4018847779022
 20
0.6207544711057636
 30
0.0
 10
-31.2538560936293
 20
0.5454789793245723
 30
0.0
 10
-30.95830058394514
 20
0.3877556424794776
 30
0.0
 10
-30.807143887523
 20
0.3046294071119405
 30
0.0
 10
-30.50858056730262
 20
0.1355781825224028
 30
0.0
 10
-30.36279041314094
 20
0.0499985727298352
 30
0.0
 10
-30.06357625667052
 20
-0.1220634631039686
 30
0.0
 10
-29.91263194507538
 20
-0.2080532577093507
 30
0.0
 10
-29.61852887527356
 20
-0.3740186006521341
 30
0.0
 10
-29.46893485594455
 20
-0.4552053463833573
 30
0.0
 10
-29.16921169687753
 20
-0.6092761821224272
 30
0.0
 10
-29.02285873854941
 20
-0.6815506992051027
 30
0.0
 10
-28.72538902401961
 20
-0.8151766111505608
 30
0.0
 10
-28.57412222340803
 20
-0.8764495834001934
 30
0.0
 10
-28.27705757239223
 20
-0.9836667094631991
 30
0.0
 10
-28.1304031497577
 20
-1.02982339172822
 30
0.0
 10
-27.83058806903963
 20
-1.105990388932972
 30
0.0
 10
-27.68164178211875
 20
-1.135565883275716
 30
0.0
 10
-27.38695779677411
 20
-1.176538915511286
 30
0.0
 10
-27.23591904236132
 20
-1.188118585519652
 30
0.0
 10
-26.93692933656174
 20
-1.192395846697094
 30
0.0
 10
-26.79118753258197
 20
-1.185257745575077
 30
0.0
 10
-26.49234953889211
 20
-1.152534350007491
 30
0.0
 10
-26.34126127671254
 20
-1.126852150324551
 30
0.0
 10
-26.1937500000032
 20
-1.092855010706698
 30
0.0
  0
SPLINE
  5
3B1
330
1F
100
AcDbEntity
  8
0
  6
Continuous
 62
     1
370
    25
100
AcDbSpline
210
0.0
220
0.0
230
1.0
 70
     8
 71
     3
 72
    12
 73
     8
 74
     0
 42
0.000000001
 43
0.00000001
 40
0.0
 40
0.0
 40
0.0
 40
0.0
 40
0.2358980093895419
 40
0.4718040920666318
 40
0.7076201030012746
 40
0.9433609603056138
 40
1.0
 40
1.0
 40
1.0
 40
1.0
 10
-26.1937500000032
 20
0.8629191186795652
 30
0.0
 10
-26.41618636792426
 20
0.9424730533952698
 30
0.0
 10
-26.8610667163476
 20
1.101583645451578
 30
0.0
 10
-27.52833185853333
 20
1.20400960591291
 30
0.0
 10
-28.19537309110472
 20
1.180270354428119
 30
0.0
 10
-28.69336980806937
 20
1.091764368770116
 30
0.0
 10
-28.9690149424793
 20
0.9866658272068008
 30
0.0
 10
-29.02241216940791
 20
0.9663064231283031
 30
0.0
  0
SPLINE
  5
3B2
330
1F
100
AcDbEntity
  8
외형선
  6
Continuous
370
    15
100
AcDbSpline
210
0.0
220
0.0
230
1.0
 70
    24
 71
     3
 72
    20
 73
    16
 74
     0
 42
0.000000001
 43
0.00000001
 40
0.0
 40
0.0
 40
0.0
 40
0.0
 40
0.1249999999999999
 40
0.1249999999999999
 40
0.2499999999999998
 40
0.2499999999999998
 40
0.4999999999999998
 40
0.4999999999999998
 40
0.6249999999999998
 40
0.6249999999999998
 40
0.7499999999999998
 40
0.7499999999999998
 40
0.8749999999999999
 40
0.8749999999999999
 40
1.0
 40
1.0
 40
1.0
 40
1.0
 10
-26.19374999999999
 20
-0.472499540951992
 30
0.0
 10
-26.19375000000002
 20
-0.4665643608302815
 30
0.0
 10
-26.19374999999999
 20
-0.454431670235698
 30
0.0
 10
-26.19374999999999
 20
-0.4244536666803128
 30
0.0
 10
-26.19375000000002
 20
-0.403566928202919
 30
0.0
 10
-26.19374999999999
 20
-0.3144782963406726
 30
0.0
 10
-26.19374999999999
 20
-0.2167627845579204
 30
0.0
 10
-26.19375000000002
 20
0.003028884000949
 30
0.0
 10
-26.19374999999999
 20
0.0878549379768586
 30
0.0
 10
-26.19374999999999
 20
0.2685187843354641
 30
0.0
 10
-26.19375000000002
 20
0.3640441985616732
 30
0.0
 10
-26.19374999999999
 20
0.5441750352144809
 30
0.0
 10
-26.19375000000002
 20
0.6282591021324052
 30
0.0
 10
-26.19374999999999
 20
0.7677802215262673
 30
0.0
 10
-26.19374999999999
 20
0.8231469315864516
 30
0.0
 10
-26.19375000000002
 20
0.8629191186782791
 30
0.0
  0
SPLINE
  5
3B3
330
1F
100
AcDbEntity
  8
0
  6
Continuous
 62
     1
370
    25
100
AcDbSpline
210
0.0
220
0.0
230
1.0
 70
     8
 71
     3
 72
    14
 73
    10
 74
     0
 42
0.000000001
 43
0.00000001
 40
0.0
 40
0.0
 40
0.0
 40
0.0
 40
0.0663886551695997
 40
0.2296810135627307
 40
0.3835902217057655
 40
0.5375299540003844
 40
0.6915552969964154
 40
0.8457205442449869
 40
1.0
 40
1.0
 40
1.0
 40
1.0
 10
-30.27429722616798
 20
1.175654130776737
 30
0.0
 10
-30.18399426095257
 20
1.179338823180133
 30
0.0
 10
-29.87157828377385
 20
1.192086541652758
 30
0.0
 10
-29.34978103006267
 20
1.086095115087795
 30
0.0
 10
-28.70912654111176
 20
0.8780969623842495
 30
0.0
 10
-28.08099206230406
 20
0.5861943229649654
 30
0.0
 10
-27.4524576423046
 20
0.2428521941750162
 30
0.0
 10
-26.82332973774037
 20
-0.1265529247268929
 30
0.0
 10
-26.4036617097204
 20
-0.3571555402946401
 30
0.0
 10
-26.1937500000032
 20
-0.4724995409502796
 30
0.0
  0
LINE
  5
3B4
330
1F
100
AcDbEntity
  8
0
  6
Continuous
 62
     1
370
    25
100
AcDbLine
 10
-33.33749999999997
 20
1.07832685645763
 30
0.0
 11
-33.33749999999997
 21
-0.1020143564576287
 31
0.0
  0
SPLINE
  5
3B5
330
1F
100
AcDbEntity
  8
0
  6
Continuous
 62
     1
370
    25
100
AcDbSpline
210
0.0
220
0.0
230
1.0
 70
     8
 71
     3
 72
    16
 73
    12
 74
     0
 42
0.000000001
 43
0.00000001
 40
0.0
 40
0.0
 40
0.0
 40
0.0
 40
0.0777596547963428
 40
0.1973329600562619
 40
0.3168759280160901
 40
0.4363964367577795
 40
0.5490411481380466
 40
0.6616835884169251
 40
0.7743642436911861
 40
0.8871232451530628
 40
1.0
 40
1.0
 40
1.0
 40
1.0
 10
-27.76179832519139
 20
-1.176506308747092
 30
0.0
 10
-27.90634686708807
 20
-1.177008859475377
 30
0.0
 10
-28.27317194776773
 20
-1.178284197220242
 30
0.0
 10
-28.8621707550167
 20
-1.04021430959792
 30
0.0
 10
-29.52874928410503
 20
-0.7944488040801175
 30
0.0
 10
-30.18248635886638
 20
-0.4678472211180761
 30
0.0
 10
-30.82315945736249
 20
-0.1043194133688331
 30
0.0
 10
-31.4511680804583
 20
0.2624378784993709
 30
0.0
 10
-32.07942237215726
 20
0.6030620351554333
 30
0.0
 10
-32.70819069353507
 20
0.8953304036635444
 30
0.0
 10
-33.12765726164385
 20
1.017306820095095
 30
0.0
 10
-33.3375
 20
1.07832685645763
 30
0.0
  0
SPLINE
  5
3B6
330
1F
100
AcDbEntity
  8
0
  6
Continuous
 62
     1
370
    25
100
AcDbSpline
210
0.0
220
0.0
230
1.0
 70
     8
 71
     3
 72
    14
 73
    10
 74
     0
 42
0.000000001
 43
0.00000001
 40
0.0
 40
0.0
 40
0.0
 40
0.0
 40
0.154623593352839
 40
0.3091884423810076
 40
0.4637044564428901
 40
0.6181816981809429
 40
0.7726303525619777
 40
0.9270606950985447
 40
1.0
 40
1.0
 40
1.0
 40
1.0
 10
-33.33749999999997
 20
-0.1020143564576287
 30
0.0
 10
-33.11505388991619
 20
-0.228833462545451
 30
0.0
 10
-32.67024618108498
 20
-0.4824234938285187
 30
0.0
 10
-32.00321292311278
 20
-0.8101100058615444
 30
0.0
 10
-31.33642957926886
 20
-1.05419483148585
 30
0.0
 10
-30.66984209254482
 20
-1.190188166421797
 30
0.0
 10
-30.00342399851129
 20
-1.197880873579413
 30
0.0
 10
-29.45422324046012
 20
-1.117500761084093
 30
0.0
 10
-29.12729082562495
 20
-1.003028638132603
 30
0.0
 10
-29.02241216940794
 20
-0.966306423128286
 30
0.0
  0
LINE
  5
3B7
330
1F
100
AcDbEntity
  8
외형선
  6
Continuous
370
    15
100
AcDbLine
 10
-26.19375000000004
 20
-0.4724995409519849
 30
0.0
 11
-26.19374999999999
 21
-0.8203404691007833
 31
0.0
  0
LINE
  5
3B8
330
1F
100
AcDbEntity
  8
0
  6
Continuous
 62
     1
370
    25
100
AcDbLine
 10
-33.3375
 20
1.190625000000006
 30
0.0
 11
-33.33749999999997
 21
1.07832685645763
 31
0.0
  0
SPLINE
  5
3B9
330
1F
100
AcDbEntity
  8
0
  6
Continuous
 62
     1
370
    25
100
AcDbSpline
210
0.0
220
0.0
230
1.0
 70
     8
 71
     3
 72
    11
 73
     7
 74
     0
 42
0.000000001
 43
0.00000001
 40
0.0
 40
0.0
 40
0.0
 40
0.0
 40
0.1928458936763482
 40
0.4616790052072865
 40
0.7306990347974256
 40
1.0
 40
1.0
 40
1.0
 40
1.0
 10
-31.0005067009014
 20
-1.179457547947513
 30
0.0
 10
-31.15070381701545
 20
-1.178443592490181
 30
0.0
 10
-31.51028033602042
 20
-1.17601615191605
 30
0.0
 10
-32.07942325926455
 20
-1.044406187361501
 30
0.0
 10
-32.7081904714237
 20
-0.8204139007597661
 30
0.0
 10
-33.12765718758097
 20
-0.6100254113494529
 30
0.0
 10
-33.3375
 20
-0.5047762685261702
 30
0.0
  0
LINE
  5
3BA
330
1F
100
AcDbEntity
  8
0
  6
Continuous
 62
     1
370
    25
100
AcDbLine
 10
-33.33749999999997
 20
-0.1020143564576287
 30
0.0
 11
-33.33749999999997
 21
-0.5047762685261702
 31
0.0
  0
SPLINE
  5
3BB
330
1F
100
AcDbEntity
  8
0
  6
Continuous
 62
     1
370
    25
100
AcDbSpline
210
0.0
220
0.0
230
1.0
 70
     8
 71
     3
 72
     9
 73
     5
 74
     0
 42
0.000000001
 43
0.00000001
 40
0.0
 40
0.0
 40
0.0
 40
0.0
 40
0.6205064303692472
 40
1.0
 40
1.0
 40
1.0
 40
1.0
 10
-33.3375
 20
-1.190624999999996
 30
0.0
 10
-33.11505232984987
 20
-1.166659267120677
 30
0.0
 10
-32.75655859108601
 20
-1.135092602443129
 30
0.0
 10
-32.39810550365561
 20
-1.01224166073961
 30
0.0
 10
-32.2620748619615
 20
-0.9656205183400445
 30
0.0
  0
SPLINE
  5
3BC
330
1F
100
AcDbEntity
  8
0
  6
Continuous
 62
     1
370
    25
100
AcDbSpline
210
0.0
220
0.0
230
1.0
 70
     8
 71
     3
 72
     9
 73
     5
 74
     0
 42
0.000000001
 43
0.00000001
 40
0.0
 40
0.0
 40
0.0
 40
0.0
 40
0.2522167549239465
 40
1.0
 40
1.0
 40
1.0
 40
1.0
 10
-27.03583097314898
 20
1.178281177395627
 30
0.0
 10
-26.96504443898095
 20
1.181838608613178
 30
0.0
 10
-26.68438689825023
 20
1.19594326719792
 30
0.0
 10
-26.40366736416083
 20
1.136960978186041
 30
0.0
 10
-26.1937500000032
 20
1.092855010706723
 30
0.0
  0
LINE
  5
3BD
330
1F
100
AcDbEntity
  8
0
  6
Continuous
 62
     1
370
    25
100
AcDbLine
 10
-33.33749999999997
 20
-0.5047762685261702
 30
0.0
 11
-33.3375
 21
-1.190624999999996
 31
0.0
  0
LINE
  5
3BE
330
1F
100
AcDbEntity
  8
외형선
  6
Continuous
370
    15
100
AcDbLine
 10
-26.19375000000004
 20
1.092855010705984
 30
0.0
 11
-26.19374999999999
 21
0.8629191186782791
 31
0.0
  0
LINE
  5
3BF
330
1F
100
AcDbEntity
  8
외형선
  6
Continuous
370
    15
100
AcDbLine
 10
-25.19374999999999
 20
0.0000000000000086
 30
0.0
 11
-25.19374999999999
 21
-1.190624999999988
 31
0.0
  0
LINE
  5
3C0
330
1F
100
AcDbEntity
  8
외형선
  6
Continuous
370
    15
100
AcDbLine
 10
-25.19374999999999
 20
1.190625000000013
 30
0.0
 11
-25.19374999999999
 21
0.0000000000000086
 31
0.0
  0
LINE
  5
3C1
330
1F
100
AcDbEntity
  8
외형선
  6
Continuous
370
    15
100
AcDbLine
 10
-20.75027700723827
 20
0.0000000000000086
 30
0.0
 11
-20.75027700723827
 21
-2.38125
 31
0.0
  0
LINE
  5
3C2
330
1F
100
AcDbEntity
  8
외형선
  6
Continuous
370
    15
100
AcDbLine
 10
-20.75027700723827
 20
2.381250000000017
 30
0.0
 11
-20.75027700723827
 21
0.0000000000000086
 31
0.0
  0
SPLINE
  5
3C3
330
1F
100
AcDbEntity
  8
외형선
  6
Continuous
370
    15
100
AcDbSpline
210
0.0
220
0.0
230
1.0
 70
     8
 71
     3
 72
     9
 73
     5
 74
     0
 42
0.000000001
 43
0.00000001
 40
0.0
 40
0.0
 40
0.0
 40
0.0
 40
0.6706550362360126
 40
1.0
 40
1.0
 40
1.0
 40
1.0
 10
-26.19375000000317
 20
-1.092855010706698
 30
0.0
 10
-26.10097013108506
 20
-1.070044890456187
 30
0.0
 10
-25.96262796722259
 20
-1.036033186945345
 30
0.0
 10
-25.82387389609709
 20
-0.989899314351517
 30
0.0
 10
-25.77817594157013
 20
-0.9747053557538038
 30
0.0
  0
LINE
  5
3C4
330
1F
100
AcDbEntity
  8
외형선
  6
Continuous
370
    15
100
AcDbLine
 10
-25.69366764694038
 20
-1.003558893868116
 30
0.0
 11
-25.69366764694038
 21
-1.190624999999988
 31
0.0
  0
SPLINE
  5
3C5
330
1F
100
AcDbEntity
  8
외형선
  6
Continuous
370
    15
100
AcDbSpline
210
0.0
220
0.0
230
1.0
 70
     8
 71
     3
 72
     8
 73
     4
 74
     0
 42
0.000000001
 43
0.00000001
 40
0.0
 40
0.0
 40
0.0
 40
0.0
 40
1.0
 40
1.0
 40
1.0
 40
1.0
 10
-26.19375000000317
 20
-0.8203404690994475
 30
0.0
 10
-26.02850027392341
 20
-0.8898951889222232
 30
0.0
 10
-25.86143937630467
 20
-0.9516567297150601
 30
0.0
 10
-25.69366764694038
 20
-1.003558201446195
 30
0.0
  0
SPLINE
  5
3C6
330
1F
100
AcDbEntity
  8
외형선
  6
Continuous
370
    15
100
AcDbSpline
210
0.0
220
0.0
230
1.0
 70
     8
 71
     3
 72
     8
 73
     4
 74
     0
 42
0.000000001
 43
0.00000001
 40
0.0
 40
0.0
 40
0.0
 40
0.0
 40
1.0
 40
1.0
 40
1.0
 40
1.0
 10
-26.19375000000317
 20
-0.4724995409502938
 30
0.0
 10
-26.02850027392343
 20
-0.560588009998176
 30
0.0
 10
-25.86143937630467
 20
-0.6443622334362246
 30
0.0
 10
-25.69366764694038
 20
-0.7211129477508876
 30
0.0
  0
LINE
  5
3C7
330
1F
100
AcDbEntity
  8
외형선
  6
Continuous
370
    15
100
AcDbLine
 10
-25.69366764694038
 20
0.6406695225802409
 30
0.0
 11
-25.69366764694038
 21
-0.7211078682073037
 31
0.0
  0
SPLINE
  5
3C8
330
1F
100
AcDbEntity
  8
외형선
  6
Continuous
370
    15
100
AcDbSpline
210
0.0
220
0.0
230
1.0
 70
     8
 71
     3
 72
     8
 73
     4
 74
     0
 42
0.000000001
 43
0.00000001
 40
0.0
 40
0.0
 40
0.0
 40
0.0
 40
1.0
 40
1.0
 40
1.0
 40
1.0
 10
-26.19375000000317
 20
0.8629191186795581
 30
0.0
 10
-26.02850027392341
 20
0.7967964076949926
 30
0.0
 10
-25.86143937630467
 20
0.7219700254029832
 30
0.0
 10
-25.69366764694038
 20
0.6406706072039384
 30
0.0
  0
SPLINE
  5
3C9
330
1F
100
AcDbEntity
  8
외형선
  6
Continuous
370
    15
100
AcDbSpline
210
0.0
220
0.0
230
1.0
 70
     8
 71
     3
 72
     8
 73
     4
 74
     0
 42
0.000000001
 43
0.00000001
 40
0.0
 40
0.0
 40
0.0
 40
0.0
 40
1.0
 40
1.0
 40
1.0
 40
1.0
 10
-26.19375000000317
 20
1.092855010706715
 30
0.0
 10
-26.02850027392343
 20
1.054769664727269
 30
0.0
 10
-25.86143937630467
 20
1.005827301733974
 30
0.0
 10
-25.69366764694038
 20
0.9474091023475723
 30
0.0
  0
LINE
  5
3CA
330
1F
100
AcDbEntity
  8
외형선
  6
Continuous
370
    15
100
AcDbLine
 10
-25.69366764694038
 20
1.190625000000013
 30
0.0
 11
-25.69366764694038
 21
0.9474129685805096
 31
0.0
  0
LINE
  5
3CB
330
1F
100
AcDbEntity
  8
외형선
  6
Continuous
370
    15
100
AcDbLine
 10
-25.69366764694038
 20
1.003558201446219
 30
0.0
 11
-25.77817594157013
 21
0.974705355753828
 31
0.0
  0
SPLINE
  5
3CC
330
1F
100
AcDbEntity
  8
외형선
  6
Continuous
370
    15
100
AcDbSpline
210
0.0
220
0.0
230
1.0
 70
    24
 71
     3
 72
    20
 73
    16
 74
     0
 42
0.000000001
 43
0.00000001
 40
0.0
 40
0.0
 40
0.0
 40
0.0
 40
0.1250000000000001
 40
0.1250000000000001
 40
0.2500000000000002
 40
0.2500000000000002
 40
0.3750000000000003
 40
0.3750000000000003
 40
0.5000000000000003
 40
0.5000000000000003
 40
0.7500000000000004
 40
0.7500000000000004
 40
0.8750000000000003
 40
0.8750000000000003
 40
1.0
 40
1.0
 40
1.0
 40
1.0
 10
-26.19374999999999
 20
0.8629191186782862
 30
0.0
 10
-26.19374999999999
 20
0.8231469315864374
 30
0.0
 10
-26.19374999999999
 20
0.7677802215262247
 30
0.0
 10
-26.19374999999999
 20
0.6282591021322773
 30
0.0
 10
-26.19374999999999
 20
0.5441750352143032
 30
0.0
 10
-26.19374999999999
 20
0.364044198561389
 30
0.0
 10
-26.19374999999999
 20
0.2685187843351372
 30
0.0
 10
-26.19375000000002
 20
0.087854937976482
 30
0.0
 10
-26.19375000000002
 20
0.0030288840005653
 30
0.0
 10
-26.19375000000002
 20
-0.2167627845582899
 30
0.0
 10
-26.19375000000002
 20
-0.314478296340971
 30
0.0
 10
-26.19375000000002
 20
-0.4035669282031179
 30
0.0
 10
-26.19375000000002
 20
-0.4244536666804762
 30
0.0
 10
-26.19374999999999
 20
-0.4544316702358046
 30
0.0
 10
-26.19374999999999
 20
-0.4665643608303881
 30
0.0
 10
-26.19374999999999
 20
-0.4724995409520559
 30
0.0
  0
SPLINE
  5
3CD
330
1F
100
AcDbEntity
  8
외형선
  6
Continuous
370
    15
100
AcDbSpline
210
0.0
220
0.0
230
1.0
 70
    24
 71
     3
 72
    10
 73
     6
 74
     0
 42
0.000000001
 43
0.00000001
 40
0.0
 40
0.0
 40
0.0
 40
0.0
 40
0.4115479735613951
 40
0.9274021446436711
 40
0.9999999999999999
 40
0.9999999999999999
 40
0.9999999999999999
 40
0.9999999999999999
 10
-26.19374999999999
 20
-0.8660777392032685
 30
0.0
 10
-26.19374999999999
 20
-0.8958594469414919
 30
0.0
 10
-26.19375000000004
 20
-0.962970990192629
 30
0.0
 10
-26.19374999999987
 20
-1.04104608809274
 30
0.0
 10
-26.19375000000002
 20
-1.087165248445549
 30
0.0
 10
-26.19375000000002
 20
-1.092855010706563
 30
0.0
  0
ENDSEC
  0
SECTION
  2
OBJECTS
  0
DICTIONARY
  5
C
330
0
100
AcDbDictionary
281
     1
  3
ACAD_GROUP
350
D
  3
ACAD_IMAGE_VARS
350
157
  3
ACAD_LAYOUT
350
1A
  3
ACAD_MLINESTYLE
350
17
  3
ACAD_PLOTSETTINGS
350
19
  3
ACAD_PLOTSTYLENAME
350
E
  3
ACAD_SCALELIST
350
47
  3
APPDATA
350
155
  3
DWGPROPS
350
3FE
  0
DICTIONARY
  5
219
330
2
100
AcDbDictionary
280
     1
281
     1
  3
ACAD_LAYERSTATES
360
21A
  0
DICTIONARY
  5
D
102
{ACAD_REACTORS
330
C
102
}
330
C
100
AcDbDictionary
281
     1
  0
RASTERVARIABLES
  5
157
102
{ACAD_REACTORS
330
C
102
}
330
C
100
AcDbRasterVariables
 90
        0
 70
     1
 71
     1
 72
     1
  0
DICTIONARY
  5
1A
102
{ACAD_REACTORS
330
C
102
}
330
C
100
AcDbDictionary
281
     1
  3
Layout1
350
1E
  3
Layout2
350
26
  3
Model
350
22
  0
DICTIONARY
  5
17
102
{ACAD_REACTORS
330
C
102
}
330
C
100
AcDbDictionary
281
     1
  3
Standard
350
18
  0
DICTIONARY
  5
19
102
{ACAD_REACTORS
330
C
102
}
330
C
100
AcDbDictionary
281
     1
  0
ACDBDICTIONARYWDFLT
  5
E
102
{ACAD_REACTORS
330
C
102
}
330
C
100
AcDbDictionary
281
     1
  3
Normal
350
F
100
AcDbDictionaryWithDefault
340
F
  0
DICTIONARY
  5
47
102
{ACAD_REACTORS
330
C
102
}
330
C
100
AcDbDictionary
281
     1
  3
A0
350
48
  3
A1
350
49
  3
A2
350
4A
  3
A3
350
4B
  3
A4
350
4C
  3
A5
350
4D
  3
A6
350
4E
  3
A7
350
4F
  3
A8
350
50
  3
A9
350
51
  3
B0
350
52
  3
B1
350
53
  3
B2
350
54
  3
B3
350
55
  3
B4
350
56
  3
B5
350
57
  3
B6
350
58
  3
B7
350
59
  3
B8
350
5A
  3
B9
350
5B
  3
C0
350
5C
  3
C1
350
5D
  3
C2
350
5E
  3
C3
350
5F
  3
C4
350
60
  3
C5
350
61
  3
C6
350
62
  3
C7
350
63
  3
C8
350
64
  3
C9
350
65
  3
D0
350
66
  3
D1
350
67
  3
D2
350
68
  0
DICTIONARY
  5
155
102
{ACAD_REACTORS
330
C
102
}
330
C
100
AcDbDictionary
281
     1
  0
XRECORD
  5
3FE
102
{ACAD_REACTORS
330
C
102
}
330
C
100
AcDbXrecord
280
     1
  1
DWGPROPS COOKIE
  2

  3

  4

  6

  7

  8
12017012
  9

300
=
301
=
302
=
303
=
304
=
305
=
306
=
307
=
308
=
309
=
 40
0.0
 41
2458313.105343495
 42
2458320.007620232
  1

 90
        0
  0
DICTIONARY
  5
21A
102
{ACAD_REACTORS
330
219
102
}
330
219
100
AcDbDictionary
281
     1
  0
LAYOUT
  5
1E
102
{ACAD_REACTORS
330
1A
102
}
330
1A
100
AcDbPlotSettings
  1

  2
none_device
  4

  6

 40
0.0
 41
0.0
 42
0.0
 43
0.0
 44
0.0
 45
0.0
 46
0.0
 47
0.0
 48
0.0
 49
0.0
140
0.0
141
0.0
142
1.0
143
1.0
 70
   688
 72
     1
 73
     0
 74
     5
  7

 75
    16
147
1.0
148
0.0
149
0.0
100
AcDbLayout
  1
Layout1
 70
     1
 71
     1
 10
0.0
 20
0.0
 11
420.0
 21
297.0
 12
0.0
 22
0.0
 32
0.0
 14
1.000000000000000E+20
 24
1.000000000000000E+20
 34
1.000000000000000E+20
 15
-1.000000000000000E+20
 25
-1.000000000000000E+20
 35
-1.000000000000000E+20
146
0.0
 13
0.0
 23
0.0
 33
0.0
 16
1.0
 26
0.0
 36
0.0
 17
0.0
 27
1.0
 37
0.0
 76
     0
330
1B
  0
LAYOUT
  5
26
102
{ACAD_REACTORS
330
1A
102
}
330
1A
100
AcDbPlotSettings
  1

  2
none_device
  4

  6

 40
0.0
 41
0.0
 42
0.0
 43
0.0
 44
0.0
 45
0.0
 46
0.0
 47
0.0
 48
0.0
 49
0.0
140
0.0
141
0.0
142
1.0
143
1.0
 70
   688
 72
     1
 73
     0
 74
     5
  7

 75
    16
147
1.0
148
0.0
149
0.0
100
AcDbLayout
  1
Layout2
 70
     1
 71
     2
 10
0.0
 20
0.0
 11
0.0
 21
0.0
 12
0.0
 22
0.0
 32
0.0
 14
0.0
 24
0.0
 34
0.0
 15
0.0
 25
0.0
 35
0.0
146
0.0
 13
0.0
 23
0.0
 33
0.0
 16
1.0
 26
0.0
 36
0.0
 17
0.0
 27
1.0
 37
0.0
 76
     0
330
23
  0
LAYOUT
  5
22
102
{ACAD_REACTORS
330
1A
102
}
330
1A
100
AcDbPlotSettings
  1

  2
none_device
  4
ANSI_A_(11.00_x_8.50_Inches)
  6

 40
6.35
 41
19.05
 42
6.35000508
 43
19.05000254
 44
279.4
 45
215.9
 46
116.0200047679344
 47
80.43595605253626
 48
0.0
 49
0.0
140
0.0
141
0.0
142
0.0752558462788414
143
1.0
 70
  1696
 72
     0
 73
     0
 74
     0
  7

 75
     0
147
0.0235690232323232
148
0.0
149
0.0
100
AcDbLayout
  1
Model
 70
     1
 71
     0
 10
0.0
 20
0.0
 11
420.0
 21
297.0
 12
0.0
 22
0.0
 32
0.0
 14
1.000000000000000E+20
 24
1.000000000000000E+20
 34
1.000000000000000E+20
 15
-1.000000000000000E+20
 25
-1.000000000000000E+20
 35
-1.000000000000000E+20
146
0.0
 13
0.0
 23
0.0
 33
0.0
 16
1.0
 26
0.0
 36
0.0
 17
0.0
 27
1.0
 37
0.0
 76
     0
330
1F
331
29
  0
MLINESTYLE
  5
18
102
{ACAD_REACTORS
330
17
102
}
330
17
100
AcDbMlineStyle
  2
Standard
 70
     0
  3

 62
   256
 51
90.0
 52
90.0
 71
     2
 49
0.5
 62
   256
  6
BYLAYER
 49
-0.5
 62
   256
  6
BYLAYER
  0
ACDBPLACEHOLDER
  5
F
102
{ACAD_REACTORS
330
E
102
}
330
E
  0
SCALE
  5
48
102
{ACAD_REACTORS
330
47
102
}
330
47
100
AcDbScale
 70
     0
300
1:1
140
1.0
141
1.0
290
     1
  0
SCALE
  5
49
102
{ACAD_REACTORS
330
47
102
}
330
47
100
AcDbScale
 70
     0
300
1:2
140
1.0
141
2.0
290
     0
  0
SCALE
  5
4A
102
{ACAD_REACTORS
330
47
102
}
330
47
100
AcDbScale
 70
     0
300
1:4
140
1.0
141
4.0
290
     0
  0
SCALE
  5
4B
102
{ACAD_REACTORS
330
47
102
}
330
47
100
AcDbScale
 70
     0
300
1:5
140
1.0
141
5.0
290
     0
  0
SCALE
  5
4C
102
{ACAD_REACTORS
330
47
102
}
330
47
100
AcDbScale
 70
     0
300
1:8
140
1.0
141
8.0
290
     0
  0
SCALE
  5
4D
102
{ACAD_REACTORS
330
47
102
}
330
47
100
AcDbScale
 70
     0
300
1:10
140
1.0
141
10.0
290
     0
  0
SCALE
  5
4E
102
{ACAD_REACTORS
330
47
102
}
330
47
100
AcDbScale
 70
     0
300
1:16
140
1.0
141
16.0
290
     0
  0
SCALE
  5
4F
102
{ACAD_REACTORS
330
47
102
}
330
47
100
AcDbScale
 70
     0
300
1:20
140
1.0
141
20.0
290
     0
  0
SCALE
  5
50
102
{ACAD_REACTORS
330
47
102
}
330
47
100
AcDbScale
 70
     0
300
1:30
140
1.0
141
30.0
290
     0
  0
SCALE
  5
51
102
{ACAD_REACTORS
330
47
102
}
330
47
100
AcDbScale
 70
     0
300
1:40
140
1.0
141
40.0
290
     0
  0
SCALE
  5
52
102
{ACAD_REACTORS
330
47
102
}
330
47
100
AcDbScale
 70
     0
300
1:50
140
1.0
141
50.0
290
     0
  0
SCALE
  5
53
102
{ACAD_REACTORS
330
47
102
}
330
47
100
AcDbScale
 70
     0
300
1:100
140
1.0
141
100.0
290
     0
  0
SCALE
  5
54
102
{ACAD_REACTORS
330
47
102
}
330
47
100
AcDbScale
 70
     0
300
2:1
140
2.0
141
1.0
290
     0
  0
SCALE
  5
55
102
{ACAD_REACTORS
330
47
102
}
330
47
100
AcDbScale
 70
     0
300
4:1
140
4.0
141
1.0
290
     0
  0
SCALE
  5
56
102
{ACAD_REACTORS
330
47
102
}
330
47
100
AcDbScale
 70
     0
300
8:1
140
8.0
141
1.0
290
     0
  0
SCALE
  5
57
102
{ACAD_REACTORS
330
47
102
}
330
47
100
AcDbScale
 70
     0
300
10:1
140
10.0
141
1.0
290
     0
  0
SCALE
  5
58
102
{ACAD_REACTORS
330
47
102
}
330
47
100
AcDbScale
 70
     0
300
100:1
140
100.0
141
1.0
290
     0
  0
SCALE
  5
59
102
{ACAD_REACTORS
330
47
102
}
330
47
100
AcDbScale
 70
     0
300
1/128" = 1'-0"
140
0.0078125
141
12.0
290
     0
  0
SCALE
  5
5A
102
{ACAD_REACTORS
330
47
102
}
330
47
100
AcDbScale
 70
     0
300
1/64" = 1'-0"
140
0.015625
141
12.0
290
     0
  0
SCALE
  5
5B
102
{ACAD_REACTORS
330
47
102
}
330
47
100
AcDbScale
 70
     0
300
1/32" = 1'-0"
140
0.03125
141
12.0
290
     0
  0
SCALE
  5
5C
102
{ACAD_REACTORS
330
47
102
}
330
47
100
AcDbScale
 70
     0
300
1/16" = 1'-0"
140
0.0625
141
12.0
290
     0
  0
SCALE
  5
5D
102
{ACAD_REACTORS
330
47
102
}
330
47
100
AcDbScale
 70
     0
300
3/32" = 1'-0"
140
0.09375
141
12.0
290
     0
  0
SCALE
  5
5E
102
{ACAD_REACTORS
330
47
102
}
330
47
100
AcDbScale
 70
     0
300
1/8" = 1'-0"
140
0.125
141
12.0
290
     0
  0
SCALE
  5
5F
102
{ACAD_REACTORS
330
47
102
}
330
47
100
AcDbScale
 70
     0
300
3/16" = 1'-0"
140
0.1875
141
12.0
290
     0
  0
SCALE
  5
60
102
{ACAD_REACTORS
330
47
102
}
330
47
100
AcDbScale
 70
     0
300
1/4" = 1'-0"
140
0.25
141
12.0
290
     0
  0
SCALE
  5
61
102
{ACAD_REACTORS
330
47
102
}
330
47
100
AcDbScale
 70
     0
300
3/8" = 1'-0"
140
0.375
141
12.0
290
     0
  0
SCALE
  5
62
102
{ACAD_REACTORS
330
47
102
}
330
47
100
AcDbScale
 70
     0
300
1/2" = 1'-0"
140
0.5
141
12.0
290
     0
  0
SCALE
  5
63
102
{ACAD_REACTORS
330
47
102
}
330
47
100
AcDbScale
 70
     0
300
3/4" = 1'-0"
140
0.75
141
12.0
290
     0
  0
SCALE
  5
64
102
{ACAD_REACTORS
330
47
102
}
330
47
100
AcDbScale
 70
     0
300
1" = 1'-0"
140
1.0
141
12.0
290
     0
  0
SCALE
  5
65
102
{ACAD_REACTORS
330
47
102
}
330
47
100
AcDbScale
 70
     0
300
1-1/2" = 1'-0"
140
1.5
141
12.0
290
     0
  0
SCALE
  5
66
102
{ACAD_REACTORS
330
47
102
}
330
47
100
AcDbScale
 70
     0
300
3" = 1'-0"
140
3.0
141
12.0
290
     0
  0
SCALE
  5
67
102
{ACAD_REACTORS
330
47
102
}
330
47
100
AcDbScale
 70
     0
300
6" = 1'-0"
140
6.0
141
12.0
290
     0
  0
SCALE
  5
68
102
{ACAD_REACTORS
330
47
102
}
330
47
100
AcDbScale
 70
     0
300
1'-0" = 1'-0"
140
12.0
141
12.0
290
     0
  0
ENDSEC
  0
EOF
