  0
SECTION
  2
HEADER
  9
$ACADVER
  1
AC1015
  9
$ACADMAINTVER
 70
     6
  9
$DWGCODEPAGE
  3
ANSI_949
  9
$INSBASE
 10
0.0
 20
0.0
 30
0.0
  9
$EXTMIN
 10
1.000000000000000E+20
 20
1.000000000000000E+20
 30
1.000000000000000E+20
  9
$EXTMAX
 10
-1.000000000000000E+20
 20
-1.000000000000000E+20
 30
-1.000000000000000E+20
  9
$LIMMIN
 10
0.0
 20
0.0
  9
$LIMMAX
 10
420.0
 20
297.0
  9
$ORTHOMODE
 70
     1
  9
$REGENMODE
 70
     1
  9
$FILLMODE
 70
     1
  9
$QTEXTMODE
 70
     0
  9
$MIRRTEXT
 70
     1
  9
$LTSCALE
 40
1.0
  9
$ATTMODE
 70
     1
  9
$TEXTSIZE
 40
3.5
  9
$TRACEWID
 40
1.0
  9
$TEXTSTYLE
  7
Standard
  9
$CLAYER
  8
0
  9
$CELTYPE
  6
ByLayer
  9
$CECOLOR
 62
   256
  9
$CELTSCALE
 40
1.0
  9
$DISPSILH
 70
     0
  9
$DIMSCALE
 40
1.0
  9
$DIMASZ
 40
3.302
  9
$DIMEXO
 40
1.0
  9
$DIMDLI
 40
3.75
  9
$DIMRND
 40
0.0
  9
$DIMDLE
 40
0.0
  9
$DIMEXE
 40
1.0
  9
$DIMTP
 40
0.0
  9
$DIMTM
 40
0.0
  9
$DIMTXT
 40
3.5
  9
$DIMCEN
 40
2.5
  9
$DIMTSZ
 40
0.0
  9
$DIMTOL
 70
     0
  9
$DIMLIM
 70
     0
  9
$DIMTIH
 70
     1
  9
$DIMTOH
 70
     1
  9
$DIMSE1
 70
     0
  9
$DIMSE2
 70
     0
  9
$DIMTAD
 70
     1
  9
$DIMZIN
 70
     0
  9
$DIMBLK
  1

  9
$DIMASO
 70
     1
  9
$DIMSHO
 70
     1
  9
$DIMPOST
  1

  9
$DIMAPOST
  1

  9
$DIMALT
 70
     0
  9
$DIMALTD
 70
     3
  9
$DIMALTF
 40
0.0393700787401575
  9
$DIMLFAC
 40
1.0
  9
$DIMTOFL
 70
     1
  9
$DIMTVP
 40
0.0
  9
$DIMTIX
 70
     0
  9
$DIMSOXD
 70
     0
  9
$DIMSAH
 70
     0
  9
$DIMBLK1
  1

  9
$DIMBLK2
  1

  9
$DIMSTYLE
  2
ISO-25
  9
$DIMCLRD
 70
     0
  9
$DIMCLRE
 70
     0
  9
$DIMCLRT
 70
     0
  9
$DIMTFAC
 40
1.0
  9
$DIMGAP
 40
1.524
  9
$DIMJUST
 70
     0
  9
$DIMSD1
 70
     0
  9
$DIMSD2
 70
     0
  9
$DIMTOLJ
 70
     0
  9
$DIMTZIN
 70
     0
  9
$DIMALTZ
 70
     0
  9
$DIMALTTZ
 70
     0
  9
$DIMUPT
 70
     0
  9
$DIMDEC
 70
     2
  9
$DIMTDEC
 70
     2
  9
$DIMALTU
 70
     2
  9
$DIMALTTD
 70
     3
  9
$DIMTXSTY
  7
Standard
  9
$DIMAUNIT
 70
     0
  9
$DIMADEC
 70
     2
  9
$DIMALTRND
 40
0.0
  9
$DIMAZIN
 70
     0
  9
$DIMDSEP
 70
    44
  9
$DIMATFIT
 70
     3
  9
$DIMFRAC
 70
     0
  9
$DIMLDRBLK
  1

  9
$DIMLUNIT
 70
     2
  9
$DIMLWD
 70
    -2
  9
$DIMLWE
 70
    -2
  9
$DIMTMOVE
 70
     0
  9
$LUNITS
 70
     2
  9
$LUPREC
 70
     2
  9
$SKETCHINC
 40
1.0
  9
$FILLETRAD
 40
10.0
  9
$AUNITS
 70
     0
  9
$AUPREC
 70
     2
  9
$MENU
  1
.
  9
$ELEVATION
 40
0.0
  9
$PELEVATION
 40
0.0
  9
$THICKNESS
 40
0.0
  9
$LIMCHECK
 70
     0
  9
$CHAMFERA
 40
0.0
  9
$CHAMFERB
 40
0.0
  9
$CHAMFERC
 40
0.0
  9
$CHAMFERD
 40
0.0
  9
$SKPOLY
 70
     0
  9
$TDCREATE
 40
2458313.480978877
  9
$TDUCREATE
 40
2458313.105978877
  9
$TDUPDATE
 40
2458320.391520845
  9
$TDUUPDATE
 40
2458320.016520845
  9
$TDINDWG
 40
0.0028459838
  9
$TDUSRTIMER
 40
2458320.013675116
  9
$USRTIMER
 70
     1
  9
$ANGBASE
 50
0.0
  9
$ANGDIR
 70
     0
  9
$PDMODE
 70
     0
  9
$PDSIZE
 40
-1.0
  9
$PLINEWID
 40
0.0
  9
$SPLFRAME
 70
     0
  9
$SPLINETYPE
 70
     6
  9
$SPLINESEGS
 70
     8
  9
$HANDSEED
  5
449
  9
$SURFTAB1
 70
     6
  9
$SURFTAB2
 70
     6
  9
$SURFTYPE
 70
     6
  9
$SURFU
 70
     6
  9
$SURFV
 70
     6
  9
$UCSBASE
  2

  9
$UCSNAME
  2

  9
$UCSORG
 10
0.0
 20
0.0
 30
0.0
  9
$UCSXDIR
 10
1.0
 20
0.0
 30
0.0
  9
$UCSYDIR
 10
0.0
 20
1.0
 30
0.0
  9
$UCSORTHOREF
  2

  9
$UCSORTHOVIEW
 70
     0
  9
$UCSORGTOP
 10
0.0
 20
0.0
 30
0.0
  9
$UCSORGBOTTOM
 10
0.0
 20
0.0
 30
0.0
  9
$UCSORGLEFT
 10
0.0
 20
0.0
 30
0.0
  9
$UCSORGRIGHT
 10
0.0
 20
0.0
 30
0.0
  9
$UCSORGFRONT
 10
0.0
 20
0.0
 30
0.0
  9
$UCSORGBACK
 10
0.0
 20
0.0
 30
0.0
  9
$PUCSBASE
  2

  9
$PUCSNAME
  2

  9
$PUCSORG
 10
0.0
 20
0.0
 30
0.0
  9
$PUCSXDIR
 10
1.0
 20
0.0
 30
0.0
  9
$PUCSYDIR
 10
0.0
 20
1.0
 30
0.0
  9
$PUCSORTHOREF
  2

  9
$PUCSORTHOVIEW
 70
     0
  9
$PUCSORGTOP
 10
0.0
 20
0.0
 30
0.0
  9
$PUCSORGBOTTOM
 10
0.0
 20
0.0
 30
0.0
  9
$PUCSORGLEFT
 10
0.0
 20
0.0
 30
0.0
  9
$PUCSORGRIGHT
 10
0.0
 20
0.0
 30
0.0
  9
$PUCSORGFRONT
 10
0.0
 20
0.0
 30
0.0
  9
$PUCSORGBACK
 10
0.0
 20
0.0
 30
0.0
  9
$USERI1
 70
     0
  9
$USERI2
 70
     0
  9
$USERI3
 70
     0
  9
$USERI4
 70
     0
  9
$USERI5
 70
     0
  9
$USERR1
 40
0.0
  9
$USERR2
 40
0.0
  9
$USERR3
 40
0.0
  9
$USERR4
 40
0.0
  9
$USERR5
 40
0.0
  9
$WORLDVIEW
 70
     1
  9
$SHADEDGE
 70
     3
  9
$SHADEDIF
 70
    70
  9
$TILEMODE
 70
     1
  9
$MAXACTVP
 70
    64
  9
$PINSBASE
 10
0.0
 20
0.0
 30
0.0
  9
$PLIMCHECK
 70
     0
  9
$PEXTMIN
 10
1.000000000000000E+20
 20
1.000000000000000E+20
 30
1.000000000000000E+20
  9
$PEXTMAX
 10
-1.000000000000000E+20
 20
-1.000000000000000E+20
 30
-1.000000000000000E+20
  9
$PLIMMIN
 10
0.0
 20
0.0
  9
$PLIMMAX
 10
0.0
 20
0.0
  9
$UNITMODE
 70
     0
  9
$VISRETAIN
 70
     1
  9
$PLINEGEN
 70
     0
  9
$PSLTSCALE
 70
     1
  9
$TREEDEPTH
 70
  3020
  9
$CMLSTYLE
  2
Standard
  9
$CMLJUST
 70
     0
  9
$CMLSCALE
 40
20.0
  9
$PROXYGRAPHICS
 70
     1
  9
$MEASUREMENT
 70
     1
  9
$CELWEIGHT
370
    -1
  9
$ENDCAPS
280
     0
  9
$JOINSTYLE
280
     0
  9
$LWDISPLAY
290
     1
  9
$INSUNITS
 70
     4
  9
$HYPERLINKBASE
  1

  9
$STYLESHEET
  1

  9
$XEDIT
290
     1
  9
$CEPSNTYPE
380
     0
  9
$PSTYLEMODE
290
     1
  9
$FINGERPRINTGUID
  2
{149AE77D-F2D9-4E03-B4B5-B46500BE9170}
  9
$VERSIONGUID
  2
{FAEB1C32-E019-11D5-929B-00C0DF256EC4}
  9
$EXTNAMES
290
     1
  9
$PSVPSCALE
 40
0.0
  9
$OLESTARTUP
290
     0
  0
ENDSEC
  0
SECTION
  2
CLASSES
  0
CLASS
  1
ACDBDICTIONARYWDFLT
  2
AcDbDictionaryWithDefault
  3
ObjectDBX Classes
 90
        0
280
     0
281
     0
  0
CLASS
  1
VISUALSTYLE
  2
AcDbVisualStyle
  3
ObjectDBX Classes
 90
     4095
280
     0
281
     0
  0
CLASS
  1
MATERIAL
  2
AcDbMaterial
  3
ObjectDBX Classes
 90
     1153
280
     0
281
     0
  0
CLASS
  1
SCALE
  2
AcDbScale
  3
ObjectDBX Classes
 90
     1153
280
     0
281
     0
  0
CLASS
  1
SUN
  2
AcDbSun
  3
SCENEOE
 90
     1153
280
     0
281
     0
  0
CLASS
  1
ACDBPLACEHOLDER
  2
AcDbPlaceHolder
  3
ObjectDBX Classes
 90
        0
280
     0
281
     0
  0
CLASS
  1
LAYOUT
  2
AcDbLayout
  3
ObjectDBX Classes
 90
        0
280
     0
281
     0
  0
CLASS
  1
TABLESTYLE
  2
AcDbTableStyle
  3
ObjectDBX Classes
 90
     4095
280
     0
281
     0
  0
CLASS
  1
MLEADERSTYLE
  2
AcDbMLeaderStyle
  3
ACDB_MLEADERSTYLE_CLASS
 90
     4095
280
     0
281
     0
  0
CLASS
  1
RASTERVARIABLES
  2
AcDbRasterVariables
  3
ISM
 90
        0
280
     0
281
     0
  0
ENDSEC
  0
SECTION
  2
TABLES
  0
TABLE
  2
VPORT
  5
8
330
0
100
AcDbSymbolTable
 70
     1
  0
VPORT
  5
29
330
8
100
AcDbSymbolTableRecord
100
AcDbViewportTableRecord
  2
*Active
 70
     0
 10
0.0
 20
0.0
 11
1.0
 21
1.0
 12
17.68391861422934
 22
-15.51044898428947
 13
0.0
 23
0.0
 14
10.0
 24
10.0
 15
10.0
 25
10.0
 16
0.0
 26
0.0
 36
1.0
 17
0.0
 27
0.0
 37
0.0
 40
127.8076057887007
 41
1.632093933463796
 42
50.0
 43
0.0
 44
0.0
 50
0.0
 51
0.0
 71
    16
 72
  2000
 73
     1
 74
     3
 75
     0
 76
     0
 77
     0
 78
     0
281
     0
 65
     1
110
0.0
120
0.0
130
0.0
111
1.0
121
0.0
131
0.0
112
0.0
122
1.0
132
0.0
 79
     0
146
0.0
  0
ENDTAB
  0
TABLE
  2
LTYPE
  5
5
330
0
100
AcDbSymbolTable
 70
     6
  0
LTYPE
  5
14
330
5
100
AcDbSymbolTableRecord
100
AcDbLinetypeTableRecord
  2
ByBlock
 70
     0
  3

 72
    65
 73
     0
 40
0.0
  0
LTYPE
  5
15
330
5
100
AcDbSymbolTableRecord
100
AcDbLinetypeTableRecord
  2
ByLayer
 70
     0
  3

 72
    65
 73
     0
 40
0.0
  0
LTYPE
  5
16
330
5
100
AcDbSymbolTableRecord
100
AcDbLinetypeTableRecord
  2
Continuous
 70
     0
  3
Solid line
 72
    65
 73
     0
 40
0.0
  0
LTYPE
  5
6A
330
5
100
AcDbSymbolTableRecord
100
AcDbLinetypeTableRecord
  2
HIDDEN
 70
     0
  3
Hidden __ __ __ __ __ __ __ __ __ __ __ __ __ __
 72
    65
 73
     2
 40
1.905
 49
1.27
 74
     0
 49
-0.635
 74
     0
  0
LTYPE
  5
6B
330
5
100
AcDbSymbolTableRecord
100
AcDbLinetypeTableRecord
  2
PHANTOM
 70
     0
  3
Phantom ______  __  __  ______  __  __  ______
 72
    65
 73
     6
 40
12.7
 49
6.35
 74
     0
 49
-1.27
 74
     0
 49
1.27
 74
     0
 49
-1.27
 74
     0
 49
1.27
 74
     0
 49
-1.27
 74
     0
  0
LTYPE
  5
6C
330
5
100
AcDbSymbolTableRecord
100
AcDbLinetypeTableRecord
  2
CENTER
 70
     0
  3
Center ____ _ ____ _ ____ _ ____ _ ____ _ ____
 72
    65
 73
     4
 40
10.16
 49
6.35
 74
     0
 49
-1.27
 74
     0
 49
1.27
 74
     0
 49
-1.27
 74
     0
  0
LTYPE
  5
6D
330
5
100
AcDbSymbolTableRecord
100
AcDbLinetypeTableRecord
  2
CENTERX2
 70
     0
  3
Center (2x) ________  __  ________  __  _____
 72
    65
 73
     4
 40
20.32
 49
12.7
 74
     0
 49
-2.54
 74
     0
 49
2.54
 74
     0
 49
-2.54
 74
     0
  0
LTYPE
  5
6E
330
5
100
AcDbSymbolTableRecord
100
AcDbLinetypeTableRecord
  2
DOT2
 70
     0
  3
Dot (.5x) ........................................
 72
    65
 73
     2
 40
0.635
 49
0.0
 74
     0
 49
-0.635
 74
     0
  0
ENDTAB
  0
TABLE
  2
LAYER
  5
2
102
{ACAD_XDICTIONARY
360
237
102
}
330
0
100
AcDbSymbolTable
 70
    18
  0
LAYER
  5
10
330
2
100
AcDbSymbolTableRecord
100
AcDbLayerTableRecord
  2
0
 70
     0
 62
     7
  6
Continuous
370
    -3
390
F
  0
LAYER
  5
6F
330
2
100
AcDbSymbolTableRecord
100
AcDbLayerTableRecord
  2
FORMAT
 70
     0
 62
     2
  6
Continuous
370
    -3
390
F
  0
LAYER
  5
70
330
2
100
AcDbSymbolTableRecord
100
AcDbLayerTableRecord
  2
외형선
 70
     0
 62
     4
  6
Continuous
370
    30
390
F
  0
LAYER
  5
71
330
2
100
AcDbSymbolTableRecord
100
AcDbLayerTableRecord
  2
숨은선
 70
     0
 62
     2
  6
HIDDEN
370
    15
390
F
  0
LAYER
  5
72
330
2
100
AcDbSymbolTableRecord
100
AcDbLayerTableRecord
  2
중심선
 70
     0
 62
     1
  6
CENTERX2
370
    -3
390
F
  0
LAYER
  5
73
330
2
100
AcDbSymbolTableRecord
100
AcDbLayerTableRecord
  2
파단선
 70
     0
 62
     4
  6
Continuous
370
    -3
390
F
  0
LAYER
  5
74
330
2
100
AcDbSymbolTableRecord
100
AcDbLayerTableRecord
  2
해칭선
 70
     0
 62
   100
  6
Continuous
370
    -3
390
F
  0
LAYER
  5
75
330
2
100
AcDbSymbolTableRecord
100
AcDbLayerTableRecord
  2
가는실선
 70
     0
 62
     4
  6
Continuous
370
    -3
390
F
  0
LAYER
  5
76
330
2
100
AcDbSymbolTableRecord
100
AcDbLayerTableRecord
  2
치수_보조선
 70
     0
 62
     4
  6
Continuous
370
    -3
390
F
  0
LAYER
  5
77
330
2
100
AcDbSymbolTableRecord
100
AcDbLayerTableRecord
  2
치수문자_일반주서
 70
     0
 62
     7
  6
Continuous
370
    15
390
F
  0
LAYER
  5
78
330
2
100
AcDbSymbolTableRecord
100
AcDbLayerTableRecord
  2
개별주서
 70
     0
 62
   100
  6
Continuous
370
    30
390
F
  0
LAYER
  5
79
330
2
100
AcDbSymbolTableRecord
100
AcDbLayerTableRecord
  2
중간선
 70
     0
 62
     2
  6
Continuous
370
    15
390
F
  0
LAYER
  5
7A
330
2
100
AcDbSymbolTableRecord
100
AcDbLayerTableRecord
  2
윤곽선
 70
     0
 62
     3
  6
Continuous
370
    40
390
F
  0
LAYER
  5
7B
330
2
100
AcDbSymbolTableRecord
100
AcDbLayerTableRecord
  2
중심마크
 70
     0
 62
   100
  6
Continuous
370
    30
390
F
  0
LAYER
  5
7C
330
2
100
AcDbSymbolTableRecord
100
AcDbLayerTableRecord
  2
가상선
 70
     0
 62
     4
  6
PHANTOM
370
    -3
390
F
  0
LAYER
  5
7D
330
2
100
AcDbSymbolTableRecord
100
AcDbLayerTableRecord
  2
특수지정선
 70
     0
 62
     5
  6
CENTERX2
370
    60
390
F
  0
LAYER
  5
7E
330
2
100
AcDbSymbolTableRecord
100
AcDbLayerTableRecord
  2
참조1
 70
     0
 62
    -4
  6
Continuous
370
    -3
390
F
  0
LAYER
  5
163
330
2
100
AcDbSymbolTableRecord
100
AcDbLayerTableRecord
  2
Defpoints
 70
     0
 62
     7
  6
Continuous
290
     0
370
    -3
390
F
  0
ENDTAB
  0
TABLE
  2
STYLE
  5
3
330
0
100
AcDbSymbolTable
 70
     2
  0
STYLE
  5
11
330
3
100
AcDbSymbolTableRecord
100
AcDbTextStyleTableRecord
  2
Standard
 70
     0
 40
0.0
 41
1.0
 50
0.0
 71
     0
 42
3.5
  3
txt
  4

  0
STYLE
  5
94
330
3
100
AcDbSymbolTableRecord
100
AcDbTextStyleTableRecord
  2
SLDTEXTSTYLE0
 70
     0
 40
0.0
 41
0.75
 50
0.0
 71
     0
 42
3.5
  3
TXT
  4

  0
ENDTAB
  0
TABLE
  2
VIEW
  5
6
330
0
100
AcDbSymbolTable
 70
     0
  0
ENDTAB
  0
TABLE
  2
UCS
  5
7
330
0
100
AcDbSymbolTable
 70
     0
  0
ENDTAB
  0
TABLE
  2
APPID
  5
9
330
0
100
AcDbSymbolTable
 70
     1
  0
APPID
  5
12
330
9
100
AcDbSymbolTableRecord
100
AcDbRegAppTableRecord
  2
ACAD
 70
     0
  0
ENDTAB
  0
TABLE
  2
DIMSTYLE
  5
A
330
0
100
AcDbSymbolTable
 70
     3
100
AcDbDimStyleTable
  0
DIMSTYLE
105
27
330
A
100
AcDbSymbolTableRecord
100
AcDbDimStyleTableRecord
  2
ISO-25
 70
     0
 41
2.5
 42
0.625
 43
3.75
 44
1.25
 73
     0
 74
     0
 77
     1
 78
     8
140
2.5
141
2.5
143
0.03937007874016
147
0.625
171
     3
172
     1
178
     0
271
     2
272
     2
274
     3
278
    44
283
     0
284
     8
340
11
  0
DIMSTYLE
105
E0
102
{ACAD_REACTORS
330
DF
330
11C
330
1C1
330
1D1
330
1E1
330
1EE
330
F4
330
109
330
37F
330
38F
330
39F
102
}
330
A
100
AcDbSymbolTableRecord
100
AcDbDimStyleTableRecord
  2
SLDDIMSTYLE0
 70
     0
 41
3.302
 44
0.0
 45
0.000000001
 73
     0
 74
     0
 77
     1
 78
    12
 79
     3
140
3.5
143
0.0393700787401575
147
0.875
148
0.000000001
170
     1
172
     1
173
     1
178
     0
271
     2
272
     2
276
     2
284
    12
289
     0
340
94
  0
DIMSTYLE
105
F5
330
A
100
AcDbSymbolTableRecord
100
AcDbDimStyleTableRecord
  2
SLDDIMSTYLE1
 70
     0
 41
3.302
 44
0.0
 45
0.000000001
 73
     0
 74
     0
 77
     1
 78
    12
 79
     3
140
3.5
143
0.0393700787401575
147
0.875
148
0.000000001
170
     1
173
     1
178
     0
271
     2
272
     2
276
     2
284
    12
340
94
  0
ENDTAB
  0
TABLE
  2
BLOCK_RECORD
  5
1
330
0
100
AcDbSymbolTable
 70
    23
  0
BLOCK_RECORD
  5
1F
330
1
100
AcDbSymbolTableRecord
100
AcDbBlockTableRecord
  2
*Model_Space
340
22
  0
BLOCK_RECORD
  5
1B
330
1
100
AcDbSymbolTableRecord
100
AcDbBlockTableRecord
  2
*Paper_Space
340
1E
  0
BLOCK_RECORD
  5
23
330
1
100
AcDbSymbolTableRecord
100
AcDbBlockTableRecord
  2
*Paper_Space0
340
26
  0
BLOCK_RECORD
  5
7F
330
1
100
AcDbSymbolTableRecord
100
AcDbBlockTableRecord
  2
블럭10
340
0
102
{BLKREFS
331
D8
102
}
  0
BLOCK_RECORD
  5
E1
330
1
100
AcDbSymbolTableRecord
100
AcDbBlockTableRecord
  2
_D
340
0
  0
BLOCK_RECORD
  5
F6
330
1
100
AcDbSymbolTableRecord
100
AcDbBlockTableRecord
  2
_D_1
340
0
  0
BLOCK_RECORD
  5
10A
330
1
100
AcDbSymbolTableRecord
100
AcDbBlockTableRecord
  2
_D_2
340
0
  0
BLOCK_RECORD
  5
11D
330
1
100
AcDbSymbolTableRecord
100
AcDbBlockTableRecord
  2
_D_3
340
0
  0
BLOCK_RECORD
  5
137
330
1
100
AcDbSymbolTableRecord
100
AcDbBlockTableRecord
  2
SW_DOWELSYMBOL_0
340
0
102
{BLKREFS
331
13D
331
1FB
331
0
331
3AC
331
0
102
}
  0
BLOCK_RECORD
  5
23B
330
1
100
AcDbSymbolTableRecord
100
AcDbBlockTableRecord
  2
*D8
340
0
  0
BLOCK_RECORD
  5
24A
330
1
100
AcDbSymbolTableRecord
100
AcDbBlockTableRecord
  2
*D9
340
0
  0
BLOCK_RECORD
  5
259
330
1
100
AcDbSymbolTableRecord
100
AcDbBlockTableRecord
  2
*D10
340
0
  0
BLOCK_RECORD
  5
265
330
1
100
AcDbSymbolTableRecord
100
AcDbBlockTableRecord
  2
*D11
340
0
  0
BLOCK_RECORD
  5
2E1
330
1
100
AcDbSymbolTableRecord
100
AcDbBlockTableRecord
  2
*D12
340
0
  0
BLOCK_RECORD
  5
2F0
330
1
100
AcDbSymbolTableRecord
100
AcDbBlockTableRecord
  2
*D13
340
0
  0
BLOCK_RECORD
  5
2FF
330
1
100
AcDbSymbolTableRecord
100
AcDbBlockTableRecord
  2
*D14
340
0
  0
BLOCK_RECORD
  5
30B
330
1
100
AcDbSymbolTableRecord
100
AcDbBlockTableRecord
  2
*D15
340
0
  0
BLOCK_RECORD
  5
3B5
330
1
100
AcDbSymbolTableRecord
100
AcDbBlockTableRecord
  2
*D17
340
0
  0
BLOCK_RECORD
  5
3C4
330
1
100
AcDbSymbolTableRecord
100
AcDbBlockTableRecord
  2
*D18
340
0
  0
BLOCK_RECORD
  5
3D3
330
1
100
AcDbSymbolTableRecord
100
AcDbBlockTableRecord
  2
*D19
340
0
  0
BLOCK_RECORD
  5
41E
330
1
100
AcDbSymbolTableRecord
100
AcDbBlockTableRecord
  2
*D20
340
0
  0
BLOCK_RECORD
  5
42D
330
1
100
AcDbSymbolTableRecord
100
AcDbBlockTableRecord
  2
*D21
340
0
  0
BLOCK_RECORD
  5
43C
330
1
100
AcDbSymbolTableRecord
100
AcDbBlockTableRecord
  2
*D22
340
0
  0
ENDTAB
  0
ENDSEC
  0
SECTION
  2
BLOCKS
  0
BLOCK
  5
20
330
1F
100
AcDbEntity
  8
0
100
AcDbBlockBegin
  2
*Model_Space
 70
     0
 10
0.0
 20
0.0
 30
0.0
  3
*Model_Space
  1
*Model_Space
  0
ENDBLK
  5
21
330
1F
100
AcDbEntity
  8
0
100
AcDbBlockEnd
  0
BLOCK
  5
1C
330
1B
100
AcDbEntity
 67
     1
  8
0
100
AcDbBlockBegin
  2
*Paper_Space
 70
     0
 10
0.0
 20
0.0
 30
0.0
  3
*Paper_Space
  1
*Paper_Space
  0
ENDBLK
  5
1D
330
1B
100
AcDbEntity
 67
     1
  8
0
100
AcDbBlockEnd
  0
BLOCK
  5
24
330
23
100
AcDbEntity
  8
0
100
AcDbBlockBegin
  2
*Paper_Space0
 70
     0
 10
0.0
 20
0.0
 30
0.0
  3
*Paper_Space0
  1
*Paper_Space0
  0
ENDBLK
  5
25
330
23
100
AcDbEntity
  8
0
100
AcDbBlockEnd
  0
BLOCK
  5
80
330
7F
100
AcDbEntity
  8
0
100
AcDbBlockBegin
  2
블럭10
 70
     2
 10
0.0
 20
0.0
 30
0.0
  3
블럭10
  1
블럭10
  0
ELLIPSE
  5
82
330
7F
100
AcDbEntity
  8
중심선
100
AcDbEllipse
 10
20.54032771741204
 20
12.0471743016438
 30
0.0
 11
6.600054785286829
 21
-1.261213355974178E-13
 31
0.0
210
0.0
220
0.0
230
1.0
 40
0.636358354079598
 41
0.9219305317359503
 42
6.513795318482858
  0
ELLIPSE
  5
83
330
7F
100
AcDbEntity
  8
중심선
100
AcDbEllipse
 10
20.54032771746488
 20
12.04717430159265
 30
0.0
 11
3.960054785062283
 21
1.540847449632565E-10
 31
0.0
210
0.0
220
0.0
230
1.0
 40
0.3939339440162632
 41
1.131841032648279
 42
5.62031148352944
  0
LINE
  5
84
330
7F
100
AcDbEntity
  8
중심선
100
AcDbLine
 10
2.268634060543552
 20
16.24717430164393
 30
0.0
 11
5.714909304380834
 21
16.24717430164393
 31
0.0
  0
LINE
  5
85
330
7F
100
AcDbEntity
  8
중심선
100
AcDbLine
 10
5.245725140726316
 20
7.84717430164391
 30
0.0
 11
8.692000384563599
 21
7.84717430164391
 31
0.0
  0
LINE
  5
86
330
7F
100
AcDbEntity
  8
중심선
100
AcDbLine
 10
15.74043728645272
 20
16.24717430164393
 30
0.0
 11
8.692000384563599
 21
7.84717430164391
 31
0.0
  0
LINE
  5
87
330
7F
100
AcDbEntity
  8
중심선
100
AcDbLine
 10
0.1404042013395286
 20
13.71084872107135
 30
0.0
 11
3.58671253028996
 21
13.71088815037384
 31
0.0
  0
LINE
  5
88
330
7F
100
AcDbEntity
  8
중심선
100
AcDbLine
 10
2.750260043222114
 20
10.84717430164391
 30
0.0
 11
6.196535287059397
 21
10.84717430164391
 31
0.0
  0
LINE
  5
89
330
7F
100
AcDbEntity
  8
중심선
100
AcDbLine
 10
12.29416204261559
 20
16.24717430164393
 30
0.0
 11
5.245725140726316
 21
7.84717430164391
 31
0.0
  0
LINE
  5
8A
330
7F
100
AcDbEntity
  8
중심선
100
AcDbLine
 10
10.72767329541681
 20
16.24717430164393
 30
0.0
 11
6.196535287059397
 21
10.84717430164391
 31
0.0
  0
LINE
  5
8B
330
7F
100
AcDbEntity
  8
중심선
100
AcDbLine
 10
7.28139805157953
 20
16.24717430164393
 30
0.0
 11
2.750260043222114
 21
10.84717430164391
 31
0.0
  0
LINE
  5
8C
330
7F
100
AcDbEntity
  8
중심선
100
AcDbLine
 10
5.714909304380834
 20
16.24717430164393
 30
0.0
 11
3.58671253028996
 21
13.71088815037384
 31
0.0
  0
LINE
  5
8D
330
7F
100
AcDbEntity
  8
중심선
100
AcDbLine
 10
2.268634060543552
 20
16.24717430164393
 30
0.0
 11
0.1404042013395286
 21
13.71084872107135
 31
0.0
  0
LINE
  5
8E
330
7F
100
AcDbEntity
  8
중심선
100
AcDbLine
 10
7.28139805157953
 20
16.24717430164393
 30
0.0
 11
10.72767329541681
 21
16.24717430164393
 31
0.0
  0
LINE
  5
8F
330
7F
100
AcDbEntity
  8
중심선
100
AcDbLine
 10
12.29416204261559
 20
16.24717430164393
 30
0.0
 11
15.74043728645272
 21
16.24717430164393
 31
0.0
  0
LINE
  5
90
330
7F
100
AcDbEntity
  8
중심선
100
AcDbLine
 10
19.22036997980202
 20
11.08717430171403
 30
0.0
 11
23.66174974927406
 21
11.08717430171406
 31
0.0
  0
LINE
  5
91
330
7F
100
AcDbEntity
  8
중심선
100
AcDbLine
 10
19.22039502424796
 20
13.00717430171391
 30
0.0
 11
19.22036997980202
 21
11.08717430171403
 31
0.0
  0
LINE
  5
92
330
7F
100
AcDbEntity
  8
중심선
100
AcDbLine
 10
19.22039502424796
 20
13.00717430171391
 30
0.0
 11
26.96566020931264
 21
13.00717430171391
 31
0.0
  0
LINE
  5
93
330
7F
100
AcDbEntity
  8
중심선
100
AcDbLine
 10
22.22332737316547
 20
13.45928029700563
 30
0.0
 11
24.52862924686651
 21
15.39360700705356
 31
0.0
  0
ATTDEF
  5
95
330
7F
100
AcDbEntity
  8
FORMAT
 62
     2
100
AcDbText
 10
4.408487351596664
 20
2.075366912832191
 30
0.0
 40
4.233333333333333
  1
E2006009
 41
0.75
  7
SLDTEXTSTYLE0
 11
4.408487351596664
 21
-0.0412997538344756
 31
0.0
100
AcDbAttributeDefinition
  3

  2
AUTOATTR0
 70
     0
 74
     1
  0
ENDBLK
  5
81
330
7F
100
AcDbEntity
  8
0
100
AcDbBlockEnd
  0
BLOCK
  5
E2
330
E1
100
AcDbEntity
  8
0
100
AcDbBlockBegin
  2
_D
 70
     0
 10
0.0
 20
0.0
 30
0.0
  3
_D
  1
_D
  0
LINE
  5
E4
330
E1
100
AcDbEntity
  8
치수문자_일반주서
 62
     0
370
    -2
100
AcDbLine
 10
39.75
 20
1.785937500000005
 30
0.0
 11
52.28262606483698
 21
1.785937500000053
 31
0.0
  0
LINE
  5
E5
330
E1
100
AcDbEntity
  8
치수문자_일반주서
 62
     0
370
    -2
100
AcDbLine
 10
39.75
 20
-1.785937499999995
 30
0.0
 11
52.282626064837
 21
-1.78593749999995
 31
0.0
  0
LINE
  5
E6
330
E1
100
AcDbEntity
  8
치수문자_일반주서
 62
     0
370
    -2
100
AcDbLine
 10
52.28262606483698
 20
1.785937500000053
 30
0.0
 11
52.28262606483684
 21
37.26493750000006
 31
0.0
  0
LINE
  5
E7
330
E1
100
AcDbEntity
  8
치수문자_일반주서
 62
     0
370
    -2
100
AcDbLine
 10
52.28262606483698
 20
1.785937500000053
 30
0.0
 11
52.282626064837
 21
-1.78593749999995
 31
0.0
  0
LINE
  5
E8
330
E1
100
AcDbEntity
  8
치수문자_일반주서
 62
     0
370
    -2
100
AcDbLine
 10
52.28262606483697
 20
5.087937500000052
 30
0.0
 11
52.28262606483695
 21
8.389937500000052
 31
0.0
  0
LINE
  5
E9
330
E1
100
AcDbEntity
  8
치수문자_일반주서
 62
     0
370
    -2
100
AcDbLine
 10
52.28262606483701
 20
-5.087937499999949
 30
0.0
 11
52.28262606483703
 21
-8.389937499999949
 31
0.0
  0
SOLID
  5
EA
330
E1
100
AcDbEntity
  8
치수문자_일반주서
 62
     0
100
AcDbTrace
 10
51.73229273150363
 20
5.08793750000005
 30
0.0
 11
52.8329593981703
 21
5.087937500000054
 31
0.0
 12
52.28262606483698
 22
1.785937500000053
 32
0.0
 13
52.28262606483698
 23
1.785937500000053
 33
0.0
  0
SOLID
  5
EB
330
E1
100
AcDbEntity
  8
치수문자_일반주서
 62
     0
100
AcDbTrace
 10
52.83295939817035
 20
-5.087937499999947
 30
0.0
 11
51.73229273150368
 21
-5.087937499999951
 31
0.0
 12
52.282626064837
 22
-1.78593749999995
 32
0.0
 13
52.282626064837
 23
-1.78593749999995
 33
0.0
  0
MTEXT
  5
EC
330
E1
100
AcDbEntity
  8
치수문자_일반주서
 62
     0
100
AcDbMText
 10
47.9076260648369
 20
22.82743750000004
 30
0.0
 40
3.5
 41
0.0
 71
     2
 72
     1
  1
\A1;%%c3.57 [9/64]
  7
SLDTEXTSTYLE0
 11
-3.978542002506248E-15
 21
1.0
 31
0.0
 73
     1
 44
1.0
  0
POINT
  5
ED
330
E1
100
AcDbEntity
  8
Defpoints
 62
     0
100
AcDbPoint
 10
39.6875
 20
1.785937500000005
 30
0.0
  0
POINT
  5
EE
330
E1
100
AcDbEntity
  8
Defpoints
 62
     0
100
AcDbPoint
 10
39.6875
 20
-1.785937499999995
 30
0.0
  0
POINT
  5
EF
330
E1
100
AcDbEntity
  8
Defpoints
 62
     0
100
AcDbPoint
 10
52.282626064837
 20
-1.785937499999948
 30
0.0
  0
ENDBLK
  5
E3
330
E1
100
AcDbEntity
  8
0
100
AcDbBlockEnd
  0
BLOCK
  5
F7
330
F6
100
AcDbEntity
  8
0
100
AcDbBlockBegin
  2
_D_1
 70
     0
 10
0.0
 20
0.0
 30
0.0
  3
_D_1
  1
_D_1
  0
LINE
  5
F9
330
F6
100
AcDbEntity
  8
치수문자_일반주서
 62
     0
370
    -2
100
AcDbLine
 10
39.6875
 20
1.848437500000005
 30
0.0
 11
39.6875
 21
17.12598619964235
 31
0.0
  0
LINE
  5
FA
330
F6
100
AcDbEntity
  8
치수문자_일반주서
 62
     0
370
    -2
100
AcDbLine
 10
20.63750000000001
 20
1.847070887635749
 30
0.0
 11
20.63750000000001
 21
17.12598619964235
 31
0.0
  0
LINE
  5
FB
330
F6
100
AcDbEntity
  8
치수문자_일반주서
 62
     0
370
    -2
100
AcDbLine
 10
20.63750000000001
 20
17.12598619964235
 30
0.0
 11
-10.90399999999999
 21
17.12598619964235
 31
0.0
  0
LINE
  5
FC
330
F6
100
AcDbEntity
  8
치수문자_일반주서
 62
     0
370
    -2
100
AcDbLine
 10
39.6875
 20
17.12598619964235
 30
0.0
 11
20.63750000000001
 21
17.12598619964235
 31
0.0
  0
LINE
  5
FD
330
F6
100
AcDbEntity
  8
치수문자_일반주서
 62
     0
370
    -2
100
AcDbLine
 10
42.9895
 20
17.12598619964235
 30
0.0
 11
46.2915
 21
17.12598619964235
 31
0.0
  0
LINE
  5
FE
330
F6
100
AcDbEntity
  8
치수문자_일반주서
 62
     0
370
    -2
100
AcDbLine
 10
17.33550000000001
 20
17.12598619964235
 30
0.0
 11
14.03350000000001
 21
17.12598619964235
 31
0.0
  0
SOLID
  5
FF
330
F6
100
AcDbEntity
  8
치수문자_일반주서
 62
     0
100
AcDbTrace
 10
42.9895
 20
17.67631953297568
 30
0.0
 11
42.9895
 21
16.57565286630901
 31
0.0
 12
39.6875
 22
17.12598619964235
 32
0.0
 13
39.6875
 23
17.12598619964235
 33
0.0
  0
SOLID
  5
100
330
F6
100
AcDbEntity
  8
치수문자_일반주서
 62
     0
100
AcDbTrace
 10
17.33550000000001
 20
16.57565286630901
 30
0.0
 11
17.33550000000001
 21
17.67631953297568
 31
0.0
 12
20.63750000000001
 22
17.12598619964235
 32
0.0
 13
20.63750000000001
 23
17.12598619964235
 33
0.0
  0
MTEXT
  5
101
330
F6
100
AcDbEntity
  8
치수문자_일반주서
 62
     0
100
AcDbMText
 10
1.564750000000011
 20
21.50098619964235
 30
0.0
 40
3.5
 41
0.0
 71
     2
 72
     1
  1
\A1;19.05 [3/4]
  7
SLDTEXTSTYLE0
 73
     1
 44
1.0
  0
POINT
  5
102
330
F6
100
AcDbEntity
  8
Defpoints
 62
     0
100
AcDbPoint
 10
39.6875
 20
1.785937500000005
 30
0.0
  0
POINT
  5
317
330
F6
100
AcDbEntity
  8
Defpoints
 62
     0
100
AcDbPoint
 10
20.63750000000001
 20
1.784570887635749
 30
0.0
  0
POINT
  5
318
330
F6
100
AcDbEntity
  8
Defpoints
 62
     0
100
AcDbPoint
 10
20.63750000000001
 20
17.12598619964235
 30
0.0
  0
ENDBLK
  5
F8
330
F6
100
AcDbEntity
  8
0
100
AcDbBlockEnd
  0
BLOCK
  5
10B
330
10A
100
AcDbEntity
  8
0
100
AcDbBlockBegin
  2
_D_2
 70
     0
 10
0.0
 20
0.0
 30
0.0
  3
_D_2
  1
_D_2
  0
LINE
  5
10D
330
10A
100
AcDbEntity
  8
치수문자_일반주서
 62
     0
370
    -2
100
AcDbLine
 10
39.6875
 20
1.848437500000005
 30
0.0
 11
39.6875
 21
25.73592743319785
 31
0.0
  0
LINE
  5
10E
330
10A
100
AcDbEntity
  8
치수문자_일반주서
 62
     0
370
    -2
100
AcDbLine
 10
-39.6875
 20
1.8484375
 30
0.0
 11
-39.6875
 21
25.73592743319785
 31
0.0
  0
LINE
  5
10F
330
10A
100
AcDbEntity
  8
치수문자_일반주서
 62
     0
370
    -2
100
AcDbLine
 10
36.3855
 20
25.73592743319785
 30
0.0
 11
-36.3855
 21
25.73592743319785
 31
0.0
  0
SOLID
  5
110
330
10A
100
AcDbEntity
  8
치수문자_일반주서
 62
     0
100
AcDbTrace
 10
36.3855
 20
25.18559409986451
 30
0.0
 11
36.3855
 21
26.28626076653118
 31
0.0
 12
39.6875
 22
25.73592743319785
 32
0.0
 13
39.6875
 23
25.73592743319785
 33
0.0
  0
SOLID
  5
111
330
10A
100
AcDbEntity
  8
치수문자_일반주서
 62
     0
100
AcDbTrace
 10
-36.3855
 20
26.28626076653118
 30
0.0
 11
-36.3855
 21
25.18559409986451
 31
0.0
 12
-39.6875
 22
25.73592743319785
 32
0.0
 13
-39.6875
 23
25.73592743319785
 33
0.0
  0
MTEXT
  5
112
330
10A
100
AcDbEntity
  8
치수문자_일반주서
 62
     0
100
AcDbMText
 10
-2.025249286279307
 20
30.11092743319785
 30
0.0
 40
3.5
 41
0.0
 71
     2
 72
     1
  1
\A1;79.38 [3 1/8]
  7
SLDTEXTSTYLE0
 73
     1
 44
1.0
  0
POINT
  5
113
330
10A
100
AcDbEntity
  8
Defpoints
 62
     0
100
AcDbPoint
 10
39.6875
 20
1.785937500000005
 30
0.0
  0
POINT
  5
114
330
10A
100
AcDbEntity
  8
Defpoints
 62
     0
100
AcDbPoint
 10
-39.6875
 20
1.7859375
 30
0.0
  0
POINT
  5
115
330
10A
100
AcDbEntity
  8
Defpoints
 62
     0
100
AcDbPoint
 10
-39.6875
 20
25.73592743319785
 30
0.0
  0
ENDBLK
  5
10C
330
10A
100
AcDbEntity
  8
0
100
AcDbBlockEnd
  0
BLOCK
  5
11E
330
11D
100
AcDbEntity
  8
0
100
AcDbBlockBegin
  2
_D_3
 70
     0
 10
0.0
 20
0.0
 30
0.0
  3
_D_3
  1
_D_3
  0
LINE
  5
120
330
11D
100
AcDbEntity
  8
치수문자_일반주서
 62
     0
370
    -2
100
AcDbLine
 10
-17.47826350361913
 20
2.381250000000002
 30
0.0
 11
-52.6875
 21
2.381249999999871
 31
0.0
  0
LINE
  5
121
330
11D
100
AcDbEntity
  8
치수문자_일반주서
 62
     0
370
    -2
100
AcDbLine
 10
-17.47826350361913
 20
-2.381250000000005
 30
0.0
 11
-52.68749999999999
 21
-2.381250000000136
 31
0.0
  0
LINE
  5
122
330
11D
100
AcDbEntity
  8
치수문자_일반주서
 62
     0
370
    -2
100
AcDbLine
 10
-52.68749999999999
 20
-0.9207500000001283
 30
0.0
 11
-52.68749999999999
 21
0.9207499999998641
 31
0.0
  0
SOLID
  5
123
330
11D
100
AcDbEntity
  8
치수문자_일반주서
 62
     0
100
AcDbTrace
 10
-52.13716666666666
 20
-0.9207500000001266
 30
0.0
 11
-53.23783333333333
 21
-0.92075000000013
 31
0.0
 12
-52.6875
 22
2.381249999999871
 32
0.0
 13
-52.6875
 23
2.381249999999871
 33
0.0
  0
SOLID
  5
124
330
11D
100
AcDbEntity
  8
치수문자_일반주서
 62
     0
100
AcDbTrace
 10
-53.23783333333333
 20
0.9207499999998624
 30
0.0
 11
-52.13716666666666
 21
0.9207499999998657
 31
0.0
 12
-52.68749999999999
 22
-2.381250000000136
 32
0.0
 13
-52.68749999999999
 23
-2.381250000000136
 33
0.0
  0
MTEXT
  5
125
330
11D
100
AcDbEntity
  8
치수문자_일반주서
 62
     0
100
AcDbMText
 10
-57.06249999999999
 20
-0.0000000000000131
 30
0.0
 40
3.5
 41
0.0
 71
     2
 72
     1
  1
\A1;%%c4.76 [3/16]
  7
SLDTEXTSTYLE0
 11
-2.983906501879681E-15
 21
1.0
 31
0.0
 73
     1
 44
1.0
  0
POINT
  5
126
330
11D
100
AcDbEntity
  8
Defpoints
 62
     0
100
AcDbPoint
 10
-17.41576350361913
 20
2.381250000000003
 30
0.0
  0
POINT
  5
127
330
11D
100
AcDbEntity
  8
Defpoints
 62
     0
100
AcDbPoint
 10
-17.41576350361913
 20
-2.381250000000004
 30
0.0
  0
POINT
  5
128
330
11D
100
AcDbEntity
  8
Defpoints
 62
     0
100
AcDbPoint
 10
-52.68749999999999
 20
-2.381250000000136
 30
0.0
  0
ENDBLK
  5
11F
330
11D
100
AcDbEntity
  8
0
100
AcDbBlockEnd
  0
BLOCK
  5
138
330
137
100
AcDbEntity
  8
0
100
AcDbBlockBegin
  2
SW_DOWELSYMBOL_0
 70
     0
 10
0.0
 20
0.0
 30
0.0
  3
SW_DOWELSYMBOL_0
  1
SW_DOWELSYMBOL_0
  0
CIRCLE
  5
13A
330
137
100
AcDbEntity
  8
해칭선
 62
     0
100
AcDbCircle
 10
0.0
 20
0.0
 30
0.0
 40
3.000000000000001
  0
HATCH
  5
13B
330
137
100
AcDbEntity
  8
0
  6
Continuous
 62
     0
370
     0
100
AcDbHatch
 10
0.0
 20
0.0
 30
0.0
210
0.0
220
0.0
230
1.0
  2
SOLID
 70
     1
 71
     0
 91
        1
 92
        0
 93
        3
 72
     2
 10
0.0
 20
0.0
 40
3.000000000000001
 50
0.0
 51
90.0
 73
     1
 72
     1
 10
0.0
 20
3.000000000000001
 11
0.0
 21
0.0
 72
     1
 10
0.0
 20
0.0
 11
3.000000000000003
 21
0.0
 97
        0
 75
     0
 76
     1
 98
        1
 10
0.0
 20
0.0
  0
HATCH
  5
13C
330
137
100
AcDbEntity
  8
0
  6
Continuous
 62
     0
370
     0
100
AcDbHatch
 10
0.0
 20
0.0
 30
0.0
210
0.0
220
0.0
230
1.0
  2
SOLID
 70
     1
 71
     0
 91
        1
 92
        0
 93
        3
 72
     2
 10
0.0
 20
0.0
 40
3.000000000000001
 50
180.0
 51
270.0000000000008
 73
     1
 72
     1
 10
0.0
 20
-3.000000000000001
 11
0.0
 21
0.0
 72
     1
 10
0.0
 20
0.0
 11
-3.000000000000001
 21
0.0
 97
        0
 75
     0
 76
     1
 98
        1
 10
0.0
 20
0.0
  0
ENDBLK
  5
139
330
137
100
AcDbEntity
  8
0
100
AcDbBlockEnd
  0
BLOCK
  5
23C
330
23B
100
AcDbEntity
  8
0
100
AcDbBlockBegin
  2
*D8
 70
     1
 10
0.0
 20
0.0
 30
0.0
  3
*D8
  1
*D8
  0
LINE
  5
23E
330
23B
100
AcDbEntity
  8
치수문자_일반주서
 62
     0
370
    -2
100
AcDbLine
 10
96.81250000000003
 20
14.71250000000002
 30
0.0
 11
108.2537869767077
 21
14.71250000000007
 31
0.0
  0
LINE
  5
23F
330
23B
100
AcDbEntity
  8
치수문자_일반주서
 62
     0
370
    -2
100
AcDbLine
 10
96.81250000000006
 20
11.53750000000002
 30
0.0
 11
108.2537869767077
 21
11.53750000000007
 31
0.0
  0
LINE
  5
240
330
23B
100
AcDbEntity
  8
치수문자_일반주서
 62
     0
370
    -2
100
AcDbLine
 10
108.2537869767077
 20
14.71250000000007
 30
0.0
 11
108.2537869767076
 21
47.99816211405127
 31
0.0
  0
LINE
  5
241
330
23B
100
AcDbEntity
  8
치수문자_일반주서
 62
     0
370
    -2
100
AcDbLine
 10
108.2537869767077
 20
14.71250000000007
 30
0.0
 11
108.2537869767077
 21
11.53750000000007
 31
0.0
  0
LINE
  5
242
330
23B
100
AcDbEntity
  8
치수문자_일반주서
 62
     0
370
    -2
100
AcDbLine
 10
108.2537869767077
 20
18.01450000000007
 30
0.0
 11
108.2537869767077
 21
21.31650000000007
 31
0.0
  0
LINE
  5
243
330
23B
100
AcDbEntity
  8
치수문자_일반주서
 62
     0
370
    -2
100
AcDbLine
 10
108.2537869767078
 20
8.235500000000066
 30
0.0
 11
108.2537869767078
 21
4.933500000000066
 31
0.0
  0
SOLID
  5
244
330
23B
100
AcDbEntity
  8
치수문자_일반주서
 62
     0
100
AcDbTrace
 10
107.7034536433744
 20
18.01450000000006
 30
0.0
 11
108.804120310041
 21
18.01450000000007
 31
0.0
 12
108.2537869767077
 22
14.71250000000007
 32
0.0
 13
108.2537869767077
 23
14.71250000000007
 33
0.0
  0
SOLID
  5
245
330
23B
100
AcDbEntity
  8
치수문자_일반주서
 62
     0
100
AcDbTrace
 10
108.8041203100411
 20
8.235500000000068
 30
0.0
 11
107.7034536433744
 21
8.235500000000064
 31
0.0
 12
108.2537869767077
 22
11.53750000000007
 32
0.0
 13
108.2537869767077
 23
11.53750000000007
 33
0.0
  0
MTEXT
  5
246
330
23B
100
AcDbEntity
  8
치수문자_일반주서
 62
     0
100
AcDbMText
 10
103.8787869767076
 20
35.74816211405125
 30
0.0
 40
3.5
 41
0.0
 71
     2
 72
     1
  1
\A1;%%c3.18 [1/8]
  7
SLDTEXTSTYLE0
 11
-4.475859752819528E-15
 21
1.0
 31
0.0
 73
     1
 44
1.0
  0
POINT
  5
247
330
23B
100
AcDbEntity
  8
Defpoints
 62
     0
100
AcDbPoint
 10
96.75000000000003
 20
14.71250000000002
 30
0.0
  0
POINT
  5
248
330
23B
100
AcDbEntity
  8
Defpoints
 62
     0
100
AcDbPoint
 10
96.75000000000006
 20
11.53750000000002
 30
0.0
  0
POINT
  5
249
330
23B
100
AcDbEntity
  8
Defpoints
 62
     0
100
AcDbPoint
 10
108.2537869767077
 20
11.53750000000007
 30
0.0
  0
ENDBLK
  5
23D
330
23B
100
AcDbEntity
  8
0
100
AcDbBlockEnd
  0
BLOCK
  5
24B
330
24A
100
AcDbEntity
  8
0
100
AcDbBlockBegin
  2
*D9
 70
     1
 10
0.0
 20
0.0
 30
0.0
  3
*D9
  1
*D9
  0
LINE
  5
24D
330
24A
100
AcDbEntity
  8
치수문자_일반주서
 62
     0
370
    -2
100
AcDbLine
 10
96.75000000000003
 20
14.77500000000002
 30
0.0
 11
96.75000000000003
 21
25.46638415910724
 31
0.0
  0
LINE
  5
24E
330
24A
100
AcDbEntity
  8
치수문자_일반주서
 62
     0
370
    -2
100
AcDbLine
 10
77.70000000000006
 20
14.58980718904203
 30
0.0
 11
77.70000000000006
 21
25.46638415910724
 31
0.0
  0
LINE
  5
24F
330
24A
100
AcDbEntity
  8
치수문자_일반주서
 62
     0
370
    -2
100
AcDbLine
 10
77.70000000000006
 20
25.46638415910724
 30
0.0
 11
46.15850000000006
 21
25.46638415910724
 31
0.0
  0
LINE
  5
250
330
24A
100
AcDbEntity
  8
치수문자_일반주서
 62
     0
370
    -2
100
AcDbLine
 10
96.75000000000003
 20
25.46638415910724
 30
0.0
 11
77.70000000000006
 21
25.46638415910724
 31
0.0
  0
LINE
  5
251
330
24A
100
AcDbEntity
  8
치수문자_일반주서
 62
     0
370
    -2
100
AcDbLine
 10
100.052
 20
25.46638415910724
 30
0.0
 11
103.354
 21
25.46638415910724
 31
0.0
  0
LINE
  5
252
330
24A
100
AcDbEntity
  8
치수문자_일반주서
 62
     0
370
    -2
100
AcDbLine
 10
74.39800000000005
 20
25.46638415910724
 30
0.0
 11
71.09600000000006
 21
25.46638415910724
 31
0.0
  0
SOLID
  5
253
330
24A
100
AcDbEntity
  8
치수문자_일반주서
 62
     0
100
AcDbTrace
 10
100.052
 20
26.01671749244057
 30
0.0
 11
100.052
 21
24.9160508257739
 31
0.0
 12
96.75000000000003
 22
25.46638415910724
 32
0.0
 13
96.75000000000003
 23
25.46638415910724
 33
0.0
  0
SOLID
  5
254
330
24A
100
AcDbEntity
  8
치수문자_일반주서
 62
     0
100
AcDbTrace
 10
74.39800000000005
 20
24.9160508257739
 30
0.0
 11
74.39800000000005
 21
26.01671749244057
 31
0.0
 12
77.70000000000006
 22
25.46638415910724
 32
0.0
 13
77.70000000000006
 23
25.46638415910724
 33
0.0
  0
MTEXT
  5
255
330
24A
100
AcDbEntity
  8
치수문자_일반주서
 62
     0
100
AcDbMText
 10
58.62725000000006
 20
29.84138415910724
 30
0.0
 40
3.5
 41
0.0
 71
     2
 72
     1
  1
\A1;19.05 [3/4]
  7
SLDTEXTSTYLE0
 73
     1
 44
1.0
  0
POINT
  5
256
330
24A
100
AcDbEntity
  8
Defpoints
 62
     0
100
AcDbPoint
 10
96.75000000000003
 20
14.71250000000002
 30
0.0
  0
POINT
  5
257
330
24A
100
AcDbEntity
  8
Defpoints
 62
     0
100
AcDbPoint
 10
77.70000000000006
 20
14.52730718904203
 30
0.0
  0
POINT
  5
258
330
24A
100
AcDbEntity
  8
Defpoints
 62
     0
100
AcDbPoint
 10
77.70000000000006
 20
25.46638415910724
 30
0.0
  0
ENDBLK
  5
24C
330
24A
100
AcDbEntity
  8
0
100
AcDbBlockEnd
  0
BLOCK
  5
25A
330
259
100
AcDbEntity
  8
0
100
AcDbBlockBegin
  2
*D10
 70
     1
 10
0.0
 20
0.0
 30
0.0
  3
*D10
  1
*D10
  0
LINE
  5
25C
330
259
100
AcDbEntity
  8
치수문자_일반주서
 62
     0
370
    -2
100
AcDbLine
 10
96.75000000000003
 20
14.77500000000002
 30
0.0
 11
96.75000000000003
 21
39.53522530512372
 31
0.0
  0
LINE
  5
25D
330
259
100
AcDbEntity
  8
치수문자_일반주서
 62
     0
370
    -2
100
AcDbLine
 10
17.37500000000001
 20
14.77500000000001
 30
0.0
 11
17.37500000000001
 21
39.53522530512372
 31
0.0
  0
LINE
  5
25E
330
259
100
AcDbEntity
  8
치수문자_일반주서
 62
     0
370
    -2
100
AcDbLine
 10
93.44800000000004
 20
39.53522530512372
 30
0.0
 11
20.67700000000001
 21
39.53522530512372
 31
0.0
  0
SOLID
  5
25F
330
259
100
AcDbEntity
  8
치수문자_일반주서
 62
     0
100
AcDbTrace
 10
93.44800000000004
 20
38.98489197179038
 30
0.0
 11
93.44800000000004
 21
40.08555863845705
 31
0.0
 12
96.75000000000003
 22
39.53522530512372
 32
0.0
 13
96.75000000000003
 23
39.53522530512372
 33
0.0
  0
SOLID
  5
260
330
259
100
AcDbEntity
  8
치수문자_일반주서
 62
     0
100
AcDbTrace
 10
20.67700000000001
 20
40.08555863845705
 30
0.0
 11
20.67700000000001
 21
38.98489197179038
 31
0.0
 12
17.37500000000001
 22
39.53522530512372
 32
0.0
 13
17.37500000000001
 23
39.53522530512372
 33
0.0
  0
MTEXT
  5
261
330
259
100
AcDbEntity
  8
치수문자_일반주서
 62
     0
100
AcDbMText
 10
59.89449034413371
 20
43.91022530512372
 30
0.0
 40
3.5
 41
0.0
 71
     2
 72
     1
  1
\A1;79.38 [3 1/8]
  7
SLDTEXTSTYLE0
 73
     1
 44
1.0
  0
POINT
  5
262
330
259
100
AcDbEntity
  8
Defpoints
 62
     0
100
AcDbPoint
 10
96.75000000000003
 20
14.71250000000002
 30
0.0
  0
POINT
  5
263
330
259
100
AcDbEntity
  8
Defpoints
 62
     0
100
AcDbPoint
 10
17.37500000000001
 20
14.71250000000001
 30
0.0
  0
POINT
  5
264
330
259
100
AcDbEntity
  8
Defpoints
 62
     0
100
AcDbPoint
 10
17.37500000000001
 20
39.53522530512372
 30
0.0
  0
ENDBLK
  5
25B
330
259
100
AcDbEntity
  8
0
100
AcDbBlockEnd
  0
BLOCK
  5
266
330
265
100
AcDbEntity
  8
0
100
AcDbBlockBegin
  2
*D11
 70
     1
 10
0.0
 20
0.0
 30
0.0
  3
*D11
  1
*D11
  0
LINE
  5
268
330
265
100
AcDbEntity
  8
치수문자_일반주서
 62
     0
370
    -2
100
AcDbLine
 10
40.32481532850782
 20
15.50625000000002
 30
0.0
 11
4.375000000000035
 21
15.50624999999988
 31
0.0
  0
LINE
  5
269
330
265
100
AcDbEntity
  8
치수문자_일반주서
 62
     0
370
    -2
100
AcDbLine
 10
40.32481532850782
 20
10.74375000000001
 30
0.0
 11
4.375000000000052
 21
10.74374999999987
 31
0.0
  0
LINE
  5
26A
330
265
100
AcDbEntity
  8
치수문자_일반주서
 62
     0
370
    -2
100
AcDbLine
 10
4.375000000000046
 20
12.20424999999988
 30
0.0
 11
4.37500000000004
 21
14.04574999999987
 31
0.0
  0
SOLID
  5
26B
330
265
100
AcDbEntity
  8
치수문자_일반주서
 62
     0
100
AcDbTrace
 10
4.92533333333338
 20
12.20424999999989
 30
0.0
 11
3.824666666666713
 21
12.20424999999988
 31
0.0
 12
4.375000000000035
 22
15.50624999999988
 32
0.0
 13
4.375000000000035
 23
15.50624999999988
 33
0.0
  0
SOLID
  5
26C
330
265
100
AcDbEntity
  8
치수문자_일반주서
 62
     0
100
AcDbTrace
 10
3.824666666666707
 20
14.04574999999987
 30
0.0
 11
4.925333333333374
 21
14.04574999999988
 31
0.0
 12
4.375000000000052
 22
10.74374999999987
 32
0.0
 13
4.375000000000052
 23
10.74374999999987
 33
0.0
  0
MTEXT
  5
26D
330
265
100
AcDbEntity
  8
치수문자_일반주서
 62
     0
100
AcDbMText
 10
0.0000000000000426
 20
13.125
 30
0.0
 40
3.5
 41
0.0
 71
     2
 72
     1
  1
\A1;%%c4.76 [3/16]
  7
SLDTEXTSTYLE0
 11
-3.543388970982120E-15
 21
1.0
 31
0.0
 73
     1
 44
1.0
  0
POINT
  5
26E
330
265
100
AcDbEntity
  8
Defpoints
 62
     0
100
AcDbPoint
 10
40.38731532850782
 20
15.50625000000002
 30
0.0
  0
POINT
  5
26F
330
265
100
AcDbEntity
  8
Defpoints
 62
     0
100
AcDbPoint
 10
40.38731532850782
 20
10.74375000000001
 30
0.0
  0
POINT
  5
270
330
265
100
AcDbEntity
  8
Defpoints
 62
     0
100
AcDbPoint
 10
4.37500000000005
 20
10.74374999999987
 30
0.0
  0
ENDBLK
  5
267
330
265
100
AcDbEntity
  8
0
100
AcDbBlockEnd
  0
BLOCK
  5
2E2
330
2E1
100
AcDbEntity
  8
0
100
AcDbBlockBegin
  2
*D12
 70
     1
 10
0.0
 20
0.0
 30
0.0
  3
*D12
  1
*D12
  0
LINE
  5
2E4
330
2E1
100
AcDbEntity
  8
치수문자_일반주서
 62
     0
370
    -2
100
AcDbLine
 10
169.5426873278198
 20
-26.70731577770398
 30
0.0
 11
180.9839743045274
 21
-26.70731577770394
 31
0.0
  0
LINE
  5
2E5
330
2E1
100
AcDbEntity
  8
치수문자_일반주서
 62
     0
370
    -2
100
AcDbLine
 10
169.5426873278198
 20
-29.88231577770398
 30
0.0
 11
180.9839743045274
 21
-29.88231577770394
 31
0.0
  0
LINE
  5
2E6
330
2E1
100
AcDbEntity
  8
치수문자_일반주서
 62
     0
370
    -2
100
AcDbLine
 10
180.9839743045274
 20
-26.70731577770394
 30
0.0
 11
180.9839743045274
 21
6.578346336347266
 31
0.0
  0
LINE
  5
2E7
330
2E1
100
AcDbEntity
  8
치수문자_일반주서
 62
     0
370
    -2
100
AcDbLine
 10
180.9839743045274
 20
-26.70731577770394
 30
0.0
 11
180.9839743045274
 21
-29.88231577770394
 31
0.0
  0
LINE
  5
2E8
330
2E1
100
AcDbEntity
  8
치수문자_일반주서
 62
     0
370
    -2
100
AcDbLine
 10
180.9839743045274
 20
-23.40531577770394
 30
0.0
 11
180.9839743045274
 21
-20.10331577770394
 31
0.0
  0
LINE
  5
2E9
330
2E1
100
AcDbEntity
  8
치수문자_일반주서
 62
     0
370
    -2
100
AcDbLine
 10
180.9839743045274
 20
-33.18431577770394
 30
0.0
 11
180.9839743045274
 21
-36.48631577770394
 31
0.0
  0
SOLID
  5
2EA
330
2E1
100
AcDbEntity
  8
치수문자_일반주서
 62
     0
100
AcDbTrace
 10
180.4336409711941
 20
-23.40531577770394
 30
0.0
 11
181.5343076378607
 21
-23.40531577770394
 31
0.0
 12
180.9839743045274
 22
-26.70731577770394
 32
0.0
 13
180.9839743045274
 23
-26.70731577770394
 33
0.0
  0
SOLID
  5
2EB
330
2E1
100
AcDbEntity
  8
치수문자_일반주서
 62
     0
100
AcDbTrace
 10
181.5343076378607
 20
-33.18431577770394
 30
0.0
 11
180.4336409711941
 21
-33.18431577770394
 31
0.0
 12
180.9839743045274
 22
-29.88231577770394
 32
0.0
 13
180.9839743045274
 23
-29.88231577770394
 33
0.0
  0
MTEXT
  5
2EC
330
2E1
100
AcDbEntity
  8
치수문자_일반주서
 62
     0
100
AcDbMText
 10
176.6089743045274
 20
-5.671653663652734
 30
0.0
 40
3.5
 41
0.0
 71
     2
 72
     1
  1
\A1;%%c3.18 [1/8]
  7
SLDTEXTSTYLE0
 11
0.0
 21
1.0
 31
0.0
 73
     1
 44
1.0
  0
POINT
  5
2ED
330
2E1
100
AcDbEntity
  8
Defpoints
 62
     0
100
AcDbPoint
 10
169.4801873278198
 20
-26.70731577770398
 30
0.0
  0
POINT
  5
2EE
330
2E1
100
AcDbEntity
  8
Defpoints
 62
     0
100
AcDbPoint
 10
169.4801873278198
 20
-29.88231577770398
 30
0.0
  0
POINT
  5
2EF
330
2E1
100
AcDbEntity
  8
Defpoints
 62
     0
100
AcDbPoint
 10
180.9839743045275
 20
-29.88231577770394
 30
0.0
  0
ENDBLK
  5
2E3
330
2E1
100
AcDbEntity
  8
0
100
AcDbBlockEnd
  0
BLOCK
  5
2F1
330
2F0
100
AcDbEntity
  8
0
100
AcDbBlockBegin
  2
*D13
 70
     1
 10
0.0
 20
0.0
 30
0.0
  3
*D13
  1
*D13
  0
LINE
  5
2F3
330
2F0
100
AcDbEntity
  8
치수문자_일반주서
 62
     0
370
    -2
100
AcDbLine
 10
169.4801873278198
 20
-26.64481577770398
 30
0.0
 11
169.4801873278198
 21
-15.95343161859676
 31
0.0
  0
LINE
  5
2F4
330
2F0
100
AcDbEntity
  8
치수문자_일반주서
 62
     0
370
    -2
100
AcDbLine
 10
150.4301873278199
 20
-26.83000858866197
 30
0.0
 11
150.4301873278199
 21
-15.95343161859676
 31
0.0
  0
LINE
  5
2F5
330
2F0
100
AcDbEntity
  8
치수문자_일반주서
 62
     0
370
    -2
100
AcDbLine
 10
150.4301873278199
 20
-15.95343161859676
 30
0.0
 11
118.8886873278198
 21
-15.95343161859676
 31
0.0
  0
LINE
  5
2F6
330
2F0
100
AcDbEntity
  8
치수문자_일반주서
 62
     0
370
    -2
100
AcDbLine
 10
169.4801873278198
 20
-15.95343161859676
 30
0.0
 11
150.4301873278199
 21
-15.95343161859676
 31
0.0
  0
LINE
  5
2F7
330
2F0
100
AcDbEntity
  8
치수문자_일반주서
 62
     0
370
    -2
100
AcDbLine
 10
172.7821873278198
 20
-15.95343161859676
 30
0.0
 11
176.0841873278198
 21
-15.95343161859676
 31
0.0
  0
LINE
  5
2F8
330
2F0
100
AcDbEntity
  8
치수문자_일반주서
 62
     0
370
    -2
100
AcDbLine
 10
147.1281873278199
 20
-15.95343161859676
 30
0.0
 11
143.8261873278199
 21
-15.95343161859676
 31
0.0
  0
SOLID
  5
2F9
330
2F0
100
AcDbEntity
  8
치수문자_일반주서
 62
     0
100
AcDbTrace
 10
172.7821873278198
 20
-15.40309828526343
 30
0.0
 11
172.7821873278198
 21
-16.5037649519301
 31
0.0
 12
169.4801873278198
 22
-15.95343161859676
 32
0.0
 13
169.4801873278198
 23
-15.95343161859676
 33
0.0
  0
SOLID
  5
2FA
330
2F0
100
AcDbEntity
  8
치수문자_일반주서
 62
     0
100
AcDbTrace
 10
147.1281873278199
 20
-16.5037649519301
 30
0.0
 11
147.1281873278199
 21
-15.40309828526343
 31
0.0
 12
150.4301873278199
 22
-15.95343161859676
 32
0.0
 13
150.4301873278199
 23
-15.95343161859676
 33
0.0
  0
MTEXT
  5
2FB
330
2F0
100
AcDbEntity
  8
치수문자_일반주서
 62
     0
100
AcDbMText
 10
131.3574373278198
 20
-11.57843161859676
 30
0.0
 40
3.5
 41
0.0
 71
     2
 72
     1
  1
\A1;19.05 [3/4]
  7
SLDTEXTSTYLE0
 73
     1
 44
1.0
  0
POINT
  5
2FC
330
2F0
100
AcDbEntity
  8
Defpoints
 62
     0
100
AcDbPoint
 10
169.4801873278198
 20
-26.70731577770398
 30
0.0
  0
POINT
  5
2FD
330
2F0
100
AcDbEntity
  8
Defpoints
 62
     0
100
AcDbPoint
 10
150.4301873278199
 20
-26.89250858866197
 30
0.0
  0
POINT
  5
2FE
330
2F0
100
AcDbEntity
  8
Defpoints
 62
     0
100
AcDbPoint
 10
150.4301873278199
 20
-15.95343161859676
 30
0.0
  0
ENDBLK
  5
2F2
330
2F0
100
AcDbEntity
  8
0
100
AcDbBlockEnd
  0
BLOCK
  5
300
330
2FF
100
AcDbEntity
  8
0
100
AcDbBlockBegin
  2
*D14
 70
     1
 10
0.0
 20
0.0
 30
0.0
  3
*D14
  1
*D14
  0
LINE
  5
302
330
2FF
100
AcDbEntity
  8
치수문자_일반주서
 62
     0
370
    -2
100
AcDbLine
 10
169.4801873278198
 20
-26.64481577770398
 30
0.0
 11
169.4801873278198
 21
-1.884590472580285
 31
0.0
  0
LINE
  5
303
330
2FF
100
AcDbEntity
  8
치수문자_일반주서
 62
     0
370
    -2
100
AcDbLine
 10
90.10518732781978
 20
-26.64481577770399
 30
0.0
 11
90.10518732781978
 21
-1.884590472580285
 31
0.0
  0
LINE
  5
304
330
2FF
100
AcDbEntity
  8
치수문자_일반주서
 62
     0
370
    -2
100
AcDbLine
 10
166.1781873278198
 20
-1.884590472580285
 30
0.0
 11
93.40718732781977
 21
-1.884590472580285
 31
0.0
  0
SOLID
  5
305
330
2FF
100
AcDbEntity
  8
치수문자_일반주서
 62
     0
100
AcDbTrace
 10
166.1781873278198
 20
-2.434923805913618
 30
0.0
 11
166.1781873278198
 21
-1.334257139246952
 31
0.0
 12
169.4801873278198
 22
-1.884590472580285
 32
0.0
 13
169.4801873278198
 23
-1.884590472580285
 33
0.0
  0
SOLID
  5
306
330
2FF
100
AcDbEntity
  8
치수문자_일반주서
 62
     0
100
AcDbTrace
 10
93.40718732781977
 20
-1.334257139246952
 30
0.0
 11
93.40718732781977
 21
-2.434923805913618
 31
0.0
 12
90.10518732781978
 22
-1.884590472580285
 32
0.0
 13
90.10518732781978
 23
-1.884590472580285
 33
0.0
  0
MTEXT
  5
307
330
2FF
100
AcDbEntity
  8
치수문자_일반주서
 62
     0
100
AcDbMText
 10
132.6246776719535
 20
2.490409527419715
 30
0.0
 40
3.5
 41
0.0
 71
     2
 72
     1
  1
\A1;79.38 [3 1/8]
  7
SLDTEXTSTYLE0
 73
     1
 44
1.0
  0
POINT
  5
308
330
2FF
100
AcDbEntity
  8
Defpoints
 62
     0
100
AcDbPoint
 10
169.4801873278198
 20
-26.70731577770398
 30
0.0
  0
POINT
  5
309
330
2FF
100
AcDbEntity
  8
Defpoints
 62
     0
100
AcDbPoint
 10
90.10518732781978
 20
-26.70731577770399
 30
0.0
  0
POINT
  5
30A
330
2FF
100
AcDbEntity
  8
Defpoints
 62
     0
100
AcDbPoint
 10
90.10518732781978
 20
-1.884590472580285
 30
0.0
  0
ENDBLK
  5
301
330
2FF
100
AcDbEntity
  8
0
100
AcDbBlockEnd
  0
BLOCK
  5
30C
330
30B
100
AcDbEntity
  8
0
100
AcDbBlockBegin
  2
*D15
 70
     1
 10
0.0
 20
0.0
 30
0.0
  3
*D15
  1
*D15
  0
LINE
  5
30E
330
30B
100
AcDbEntity
  8
치수문자_일반주서
 62
     0
370
    -2
100
AcDbLine
 10
113.0550026563276
 20
-25.91356577770398
 30
0.0
 11
77.10518732781982
 21
-25.91356577770412
 31
0.0
  0
LINE
  5
30F
330
30B
100
AcDbEntity
  8
치수문자_일반주서
 62
     0
370
    -2
100
AcDbLine
 10
113.0550026563276
 20
-30.67606577770399
 30
0.0
 11
77.10518732781983
 21
-30.67606577770413
 31
0.0
  0
LINE
  5
310
330
30B
100
AcDbEntity
  8
치수문자_일반주서
 62
     0
370
    -2
100
AcDbLine
 10
77.10518732781983
 20
-29.21556577770412
 30
0.0
 11
77.10518732781982
 21
-27.37406577770413
 31
0.0
  0
SOLID
  5
311
330
30B
100
AcDbEntity
  8
치수문자_일반주서
 62
     0
100
AcDbTrace
 10
77.65552066115316
 20
-29.21556577770412
 30
0.0
 11
76.5548539944865
 21
-29.21556577770412
 31
0.0
 12
77.10518732781982
 22
-25.91356577770412
 32
0.0
 13
77.10518732781982
 23
-25.91356577770412
 33
0.0
  0
SOLID
  5
312
330
30B
100
AcDbEntity
  8
치수문자_일반주서
 62
     0
100
AcDbTrace
 10
76.55485399448649
 20
-27.37406577770413
 30
0.0
 11
77.65552066115315
 21
-27.37406577770413
 31
0.0
 12
77.10518732781983
 22
-30.67606577770413
 32
0.0
 13
77.10518732781983
 23
-30.67606577770413
 33
0.0
  0
MTEXT
  5
313
330
30B
100
AcDbEntity
  8
치수문자_일반주서
 62
     0
100
AcDbMText
 10
72.73018732781982
 20
-28.294815777704
 30
0.0
 40
3.5
 41
0.0
 71
     2
 72
     1
  1
\A1;%%c4.76 [3/16]
  7
SLDTEXTSTYLE0
 11
-2.983906501879679E-15
 21
1.0
 31
0.0
 73
     1
 44
1.0
  0
POINT
  5
314
330
30B
100
AcDbEntity
  8
Defpoints
 62
     0
100
AcDbPoint
 10
113.1175026563276
 20
-25.91356577770398
 30
0.0
  0
POINT
  5
315
330
30B
100
AcDbEntity
  8
Defpoints
 62
     0
100
AcDbPoint
 10
113.1175026563276
 20
-30.67606577770399
 30
0.0
  0
POINT
  5
316
330
30B
100
AcDbEntity
  8
Defpoints
 62
     0
100
AcDbPoint
 10
77.10518732781983
 20
-30.67606577770413
 30
0.0
  0
ENDBLK
  5
30D
330
30B
100
AcDbEntity
  8
0
100
AcDbBlockEnd
  0
BLOCK
  5
3B6
330
3B5
100
AcDbEntity
  8
0
100
AcDbBlockBegin
  2
*D17
 70
     1
 10
0.0
 20
0.0
 30
0.0
  3
*D17
  1
*D17
  0
LINE
  5
3B8
330
3B5
100
AcDbEntity
  8
치수문자_일반주서
 62
     0
370
    -2
100
AcDbLine
 10
82.4375
 20
10.17587499999995
 30
0.0
 11
94.97012606483699
 21
10.175875
 31
0.0
  0
LINE
  5
3B9
330
3B5
100
AcDbEntity
  8
치수문자_일반주서
 62
     0
370
    -2
100
AcDbLine
 10
82.4375
 20
6.603999999999953
 30
0.0
 11
94.970126064837
 21
6.603999999999999
 31
0.0
  0
LINE
  5
3BA
330
3B5
100
AcDbEntity
  8
치수문자_일반주서
 62
     0
370
    -2
100
AcDbLine
 10
94.97012606483699
 20
10.175875
 30
0.0
 11
94.97012606483685
 21
45.654875
 31
0.0
  0
LINE
  5
3BB
330
3B5
100
AcDbEntity
  8
치수문자_일반주서
 62
     0
370
    -2
100
AcDbLine
 10
94.97012606483699
 20
10.175875
 30
0.0
 11
94.970126064837
 21
6.603999999999999
 31
0.0
  0
LINE
  5
3BC
330
3B5
100
AcDbEntity
  8
치수문자_일반주서
 62
     0
370
    -2
100
AcDbLine
 10
94.97012606483698
 20
13.477875
 30
0.0
 11
94.97012606483696
 21
16.779875
 31
0.0
  0
LINE
  5
3BD
330
3B5
100
AcDbEntity
  8
치수문자_일반주서
 62
     0
370
    -2
100
AcDbLine
 10
94.97012606483702
 20
3.302
 30
0.0
 11
94.97012606483703
 21
0.0
 31
0.0
  0
SOLID
  5
3BE
330
3B5
100
AcDbEntity
  8
치수문자_일반주서
 62
     0
100
AcDbTrace
 10
94.41979273150365
 20
13.477875
 30
0.0
 11
95.5204593981703
 21
13.477875
 31
0.0
 12
94.97012606483699
 22
10.175875
 32
0.0
 13
94.97012606483699
 23
10.175875
 33
0.0
  0
SOLID
  5
3BF
330
3B5
100
AcDbEntity
  8
치수문자_일반주서
 62
     0
100
AcDbTrace
 10
95.52045939817035
 20
3.302000000000002
 30
0.0
 11
94.41979273150369
 21
3.301999999999997
 31
0.0
 12
94.970126064837
 22
6.603999999999999
 32
0.0
 13
94.970126064837
 23
6.603999999999999
 33
0.0
  0
MTEXT
  5
3C0
330
3B5
100
AcDbEntity
  8
치수문자_일반주서
 62
     0
100
AcDbMText
 10
90.5951260648369
 20
31.21737499999998
 30
0.0
 40
3.5
 41
0.0
 71
     2
 72
     1
  1
\A1;%%c3.57 [9/64]
  7
SLDTEXTSTYLE0
 11
-3.978542002506246E-15
 21
1.0
 31
0.0
 73
     1
 44
1.0
  0
POINT
  5
3C1
330
3B5
100
AcDbEntity
  8
Defpoints
 62
     0
100
AcDbPoint
 10
82.375
 20
10.17587499999995
 30
0.0
  0
POINT
  5
3C2
330
3B5
100
AcDbEntity
  8
Defpoints
 62
     0
100
AcDbPoint
 10
82.375
 20
6.603999999999953
 30
0.0
  0
POINT
  5
3C3
330
3B5
100
AcDbEntity
  8
Defpoints
 62
     0
100
AcDbPoint
 10
94.97012606483699
 20
6.604
 30
0.0
  0
ENDBLK
  5
3B7
330
3B5
100
AcDbEntity
  8
0
100
AcDbBlockEnd
  0
BLOCK
  5
3C5
330
3C4
100
AcDbEntity
  8
0
100
AcDbBlockBegin
  2
*D18
 70
     1
 10
0.0
 20
0.0
 30
0.0
  3
*D18
  1
*D18
  0
LINE
  5
3C7
330
3C4
100
AcDbEntity
  8
치수문자_일반주서
 62
     0
370
    -2
100
AcDbLine
 10
82.375
 20
10.23837499999995
 30
0.0
 11
82.375
 21
25.5159236996423
 31
0.0
  0
LINE
  5
3C8
330
3C4
100
AcDbEntity
  8
치수문자_일반주서
 62
     0
370
    -2
100
AcDbLine
 10
63.32500000000001
 20
10.2370083876357
 30
0.0
 11
63.32500000000001
 21
25.5159236996423
 31
0.0
  0
LINE
  5
3C9
330
3C4
100
AcDbEntity
  8
치수문자_일반주서
 62
     0
370
    -2
100
AcDbLine
 10
63.32500000000001
 20
25.5159236996423
 30
0.0
 11
31.78350000000001
 21
25.5159236996423
 31
0.0
  0
LINE
  5
3CA
330
3C4
100
AcDbEntity
  8
치수문자_일반주서
 62
     0
370
    -2
100
AcDbLine
 10
82.375
 20
25.5159236996423
 30
0.0
 11
63.32500000000001
 21
25.5159236996423
 31
0.0
  0
LINE
  5
3CB
330
3C4
100
AcDbEntity
  8
치수문자_일반주서
 62
     0
370
    -2
100
AcDbLine
 10
85.67699999999999
 20
25.5159236996423
 30
0.0
 11
88.97899999999998
 21
25.5159236996423
 31
0.0
  0
LINE
  5
3CC
330
3C4
100
AcDbEntity
  8
치수문자_일반주서
 62
     0
370
    -2
100
AcDbLine
 10
60.02300000000001
 20
25.5159236996423
 30
0.0
 11
56.72100000000001
 21
25.5159236996423
 31
0.0
  0
SOLID
  5
3CD
330
3C4
100
AcDbEntity
  8
치수문자_일반주서
 62
     0
100
AcDbTrace
 10
85.67699999999999
 20
26.06625703297563
 30
0.0
 11
85.67699999999999
 21
24.96559036630896
 31
0.0
 12
82.375
 22
25.5159236996423
 32
0.0
 13
82.375
 23
25.5159236996423
 33
0.0
  0
SOLID
  5
3CE
330
3C4
100
AcDbEntity
  8
치수문자_일반주서
 62
     0
100
AcDbTrace
 10
60.02300000000001
 20
24.96559036630896
 30
0.0
 11
60.02300000000001
 21
26.06625703297563
 31
0.0
 12
63.32500000000001
 22
25.5159236996423
 32
0.0
 13
63.32500000000001
 23
25.5159236996423
 33
0.0
  0
MTEXT
  5
3CF
330
3C4
100
AcDbEntity
  8
치수문자_일반주서
 62
     0
100
AcDbMText
 10
44.25225000000001
 20
29.8909236996423
 30
0.0
 40
3.5
 41
0.0
 71
     2
 72
     1
  1
\A1;19.05 [3/4]
  7
SLDTEXTSTYLE0
 73
     1
 44
1.0
  0
POINT
  5
3D0
330
3C4
100
AcDbEntity
  8
Defpoints
 62
     0
100
AcDbPoint
 10
82.375
 20
10.17587499999995
 30
0.0
  0
POINT
  5
3D1
330
3C4
100
AcDbEntity
  8
Defpoints
 62
     0
100
AcDbPoint
 10
63.32500000000001
 20
10.1745083876357
 30
0.0
  0
POINT
  5
3D2
330
3C4
100
AcDbEntity
  8
Defpoints
 62
     0
100
AcDbPoint
 10
63.32500000000001
 20
25.5159236996423
 30
0.0
  0
ENDBLK
  5
3C6
330
3C4
100
AcDbEntity
  8
0
100
AcDbBlockEnd
  0
BLOCK
  5
3D4
330
3D3
100
AcDbEntity
  8
0
100
AcDbBlockBegin
  2
*D19
 70
     1
 10
0.0
 20
0.0
 30
0.0
  3
*D19
  1
*D19
  0
LINE
  5
3D6
330
3D3
100
AcDbEntity
  8
치수문자_일반주서
 62
     0
370
    -2
100
AcDbLine
 10
82.375
 20
10.23837499999995
 30
0.0
 11
82.375
 21
34.1258649331978
 31
0.0
  0
LINE
  5
3D7
330
3D3
100
AcDbEntity
  8
치수문자_일반주서
 62
     0
370
    -2
100
AcDbLine
 10
3.000000000000007
 20
10.35743749999995
 30
0.0
 11
3.000000000000007
 21
34.1258649331978
 31
0.0
  0
LINE
  5
3D8
330
3D3
100
AcDbEntity
  8
치수문자_일반주서
 62
     0
370
    -2
100
AcDbLine
 10
79.07300000000001
 20
34.1258649331978
 30
0.0
 11
6.302000000000007
 21
34.1258649331978
 31
0.0
  0
SOLID
  5
3D9
330
3D3
100
AcDbEntity
  8
치수문자_일반주서
 62
     0
100
AcDbTrace
 10
79.07300000000001
 20
33.57553159986446
 30
0.0
 11
79.07300000000001
 21
34.67619826653113
 31
0.0
 12
82.375
 22
34.1258649331978
 32
0.0
 13
82.375
 23
34.1258649331978
 33
0.0
  0
SOLID
  5
3DA
330
3D3
100
AcDbEntity
  8
치수문자_일반주서
 62
     0
100
AcDbTrace
 10
6.302000000000007
 20
34.67619826653113
 30
0.0
 11
6.302000000000007
 21
33.57553159986446
 31
0.0
 12
3.000000000000007
 22
34.1258649331978
 32
0.0
 13
3.000000000000007
 23
34.1258649331978
 33
0.0
  0
MTEXT
  5
3DB
330
3D3
100
AcDbEntity
  8
치수문자_일반주서
 62
     0
100
AcDbMText
 10
40.6622507137207
 20
38.5008649331978
 30
0.0
 40
3.5
 41
0.0
 71
     2
 72
     1
  1
\A1;79.38 [3 1/8]
  7
SLDTEXTSTYLE0
 73
     1
 44
1.0
  0
POINT
  5
3DC
330
3D3
100
AcDbEntity
  8
Defpoints
 62
     0
100
AcDbPoint
 10
82.375
 20
10.17587499999995
 30
0.0
  0
POINT
  5
3DD
330
3D3
100
AcDbEntity
  8
Defpoints
 62
     0
100
AcDbPoint
 10
3.000000000000007
 20
10.29493749999995
 30
0.0
  0
POINT
  5
3DE
330
3D3
100
AcDbEntity
  8
Defpoints
 62
     0
100
AcDbPoint
 10
3.000000000000007
 20
34.1258649331978
 30
0.0
  0
ENDBLK
  5
3D5
330
3D3
100
AcDbEntity
  8
0
100
AcDbBlockEnd
  0
BLOCK
  5
41F
330
41E
100
AcDbEntity
  8
0
100
AcDbBlockBegin
  2
*D20
 70
     1
 10
0.0
 20
0.0
 30
0.0
  3
*D20
  1
*D20
  0
LINE
  5
421
330
41E
100
AcDbEntity
  8
치수문자_일반주서
 62
     0
370
    -2
100
AcDbLine
 10
170.5654334544011
 20
-28.58416411852382
 30
0.0
 11
183.098059519238
 21
-28.58416411852377
 31
0.0
  0
LINE
  5
422
330
41E
100
AcDbEntity
  8
치수문자_일반주서
 62
     0
370
    -2
100
AcDbLine
 10
170.5654334544011
 20
-32.15603911852382
 30
0.0
 11
183.098059519238
 21
-32.15603911852378
 31
0.0
  0
LINE
  5
423
330
41E
100
AcDbEntity
  8
치수문자_일반주서
 62
     0
370
    -2
100
AcDbLine
 10
183.098059519238
 20
-28.58416411852377
 30
0.0
 11
183.098059519238
 21
6.894835881476229
 31
0.0
  0
LINE
  5
424
330
41E
100
AcDbEntity
  8
치수문자_일반주서
 62
     0
370
    -2
100
AcDbLine
 10
183.098059519238
 20
-28.58416411852377
 30
0.0
 11
183.098059519238
 21
-32.15603911852378
 31
0.0
  0
LINE
  5
425
330
41E
100
AcDbEntity
  8
치수문자_일반주서
 62
     0
370
    -2
100
AcDbLine
 10
183.098059519238
 20
-25.28216411852377
 30
0.0
 11
183.098059519238
 21
-21.98016411852377
 31
0.0
  0
LINE
  5
426
330
41E
100
AcDbEntity
  8
치수문자_일반주서
 62
     0
370
    -2
100
AcDbLine
 10
183.098059519238
 20
-35.45803911852378
 30
0.0
 11
183.098059519238
 21
-38.76003911852378
 31
0.0
  0
SOLID
  5
427
330
41E
100
AcDbEntity
  8
치수문자_일반주서
 62
     0
100
AcDbTrace
 10
182.5477261859047
 20
-25.28216411852377
 30
0.0
 11
183.6483928525713
 21
-25.28216411852377
 31
0.0
 12
183.098059519238
 22
-28.58416411852377
 32
0.0
 13
183.098059519238
 23
-28.58416411852377
 33
0.0
  0
SOLID
  5
428
330
41E
100
AcDbEntity
  8
치수문자_일반주서
 62
     0
100
AcDbTrace
 10
183.6483928525713
 20
-35.45803911852378
 30
0.0
 11
182.5477261859047
 21
-35.45803911852378
 31
0.0
 12
183.098059519238
 22
-32.15603911852378
 32
0.0
 13
183.098059519238
 23
-32.15603911852378
 33
0.0
  0
MTEXT
  5
429
330
41E
100
AcDbEntity
  8
치수문자_일반주서
 62
     0
100
AcDbMText
 10
178.723059519238
 20
-7.542664118523771
 30
0.0
 40
3.5
 41
0.0
 71
     2
 72
     1
  1
\A1;%%c3.57 [9/64]
  7
SLDTEXTSTYLE0
 11
0.0
 21
1.0
 31
0.0
 73
     1
 44
1.0
  0
POINT
  5
42A
330
41E
100
AcDbEntity
  8
Defpoints
 62
     0
100
AcDbPoint
 10
170.5029334544011
 20
-28.58416411852382
 30
0.0
  0
POINT
  5
42B
330
41E
100
AcDbEntity
  8
Defpoints
 62
     0
100
AcDbPoint
 10
170.5029334544011
 20
-32.15603911852382
 30
0.0
  0
POINT
  5
42C
330
41E
100
AcDbEntity
  8
Defpoints
 62
     0
100
AcDbPoint
 10
183.0980595192381
 20
-32.15603911852377
 30
0.0
  0
ENDBLK
  5
420
330
41E
100
AcDbEntity
  8
0
100
AcDbBlockEnd
  0
BLOCK
  5
42E
330
42D
100
AcDbEntity
  8
0
100
AcDbBlockBegin
  2
*D21
 70
     1
 10
0.0
 20
0.0
 30
0.0
  3
*D21
  1
*D21
  0
LINE
  5
430
330
42D
100
AcDbEntity
  8
치수문자_일반주서
 62
     0
370
    -2
100
AcDbLine
 10
170.5029334544011
 20
-28.52166411852382
 30
0.0
 11
170.5029334544011
 21
-13.24411541888147
 31
0.0
  0
LINE
  5
431
330
42D
100
AcDbEntity
  8
치수문자_일반주서
 62
     0
370
    -2
100
AcDbLine
 10
151.4529334544011
 20
-28.52303073088807
 30
0.0
 11
151.4529334544011
 21
-13.24411541888147
 31
0.0
  0
LINE
  5
432
330
42D
100
AcDbEntity
  8
치수문자_일반주서
 62
     0
370
    -2
100
AcDbLine
 10
151.4529334544011
 20
-13.24411541888147
 30
0.0
 11
119.9114334544011
 21
-13.24411541888147
 31
0.0
  0
LINE
  5
433
330
42D
100
AcDbEntity
  8
치수문자_일반주서
 62
     0
370
    -2
100
AcDbLine
 10
170.5029334544011
 20
-13.24411541888147
 30
0.0
 11
151.4529334544011
 21
-13.24411541888147
 31
0.0
  0
LINE
  5
434
330
42D
100
AcDbEntity
  8
치수문자_일반주서
 62
     0
370
    -2
100
AcDbLine
 10
173.8049334544011
 20
-13.24411541888147
 30
0.0
 11
177.1069334544011
 21
-13.24411541888147
 31
0.0
  0
LINE
  5
435
330
42D
100
AcDbEntity
  8
치수문자_일반주서
 62
     0
370
    -2
100
AcDbLine
 10
148.1509334544011
 20
-13.24411541888147
 30
0.0
 11
144.8489334544011
 21
-13.24411541888147
 31
0.0
  0
SOLID
  5
436
330
42D
100
AcDbEntity
  8
치수문자_일반주서
 62
     0
100
AcDbTrace
 10
173.8049334544011
 20
-12.69378208554814
 30
0.0
 11
173.8049334544011
 21
-13.79444875221481
 31
0.0
 12
170.5029334544011
 22
-13.24411541888147
 32
0.0
 13
170.5029334544011
 23
-13.24411541888147
 33
0.0
  0
SOLID
  5
437
330
42D
100
AcDbEntity
  8
치수문자_일반주서
 62
     0
100
AcDbTrace
 10
148.1509334544011
 20
-13.79444875221481
 30
0.0
 11
148.1509334544011
 21
-12.69378208554814
 31
0.0
 12
151.4529334544011
 22
-13.24411541888147
 32
0.0
 13
151.4529334544011
 23
-13.24411541888147
 33
0.0
  0
MTEXT
  5
438
330
42D
100
AcDbEntity
  8
치수문자_일반주서
 62
     0
100
AcDbMText
 10
132.3801834544011
 20
-8.869115418881474
 30
0.0
 40
3.5
 41
0.0
 71
     2
 72
     1
  1
\A1;19.05 [3/4]
  7
SLDTEXTSTYLE0
 73
     1
 44
1.0
  0
POINT
  5
439
330
42D
100
AcDbEntity
  8
Defpoints
 62
     0
100
AcDbPoint
 10
170.5029334544011
 20
-28.58416411852382
 30
0.0
  0
POINT
  5
43A
330
42D
100
AcDbEntity
  8
Defpoints
 62
     0
100
AcDbPoint
 10
151.4529334544011
 20
-28.58553073088807
 30
0.0
  0
POINT
  5
43B
330
42D
100
AcDbEntity
  8
Defpoints
 62
     0
100
AcDbPoint
 10
151.4529334544011
 20
-13.24411541888147
 30
0.0
  0
ENDBLK
  5
42F
330
42D
100
AcDbEntity
  8
0
100
AcDbBlockEnd
  0
BLOCK
  5
43D
330
43C
100
AcDbEntity
  8
0
100
AcDbBlockBegin
  2
*D22
 70
     1
 10
0.0
 20
0.0
 30
0.0
  3
*D22
  1
*D22
  0
LINE
  5
43F
330
43C
100
AcDbEntity
  8
치수문자_일반주서
 62
     0
370
    -2
100
AcDbLine
 10
170.5029334544011
 20
-28.52166411852382
 30
0.0
 11
170.5029334544011
 21
-4.634174185325975
 31
0.0
  0
LINE
  5
440
330
43C
100
AcDbEntity
  8
치수문자_일반주서
 62
     0
370
    -2
100
AcDbLine
 10
91.1279334544011
 20
-28.40260161852382
 30
0.0
 11
91.1279334544011
 21
-4.634174185325975
 31
0.0
  0
LINE
  5
441
330
43C
100
AcDbEntity
  8
치수문자_일반주서
 62
     0
370
    -2
100
AcDbLine
 10
167.2009334544011
 20
-4.634174185325975
 30
0.0
 11
94.4299334544011
 21
-4.634174185325975
 31
0.0
  0
SOLID
  5
442
330
43C
100
AcDbEntity
  8
치수문자_일반주서
 62
     0
100
AcDbTrace
 10
167.2009334544011
 20
-5.184507518659308
 30
0.0
 11
167.2009334544011
 21
-4.083840851992641
 31
0.0
 12
170.5029334544011
 22
-4.634174185325975
 32
0.0
 13
170.5029334544011
 23
-4.634174185325975
 33
0.0
  0
SOLID
  5
443
330
43C
100
AcDbEntity
  8
치수문자_일반주서
 62
     0
100
AcDbTrace
 10
94.4299334544011
 20
-4.083840851992641
 30
0.0
 11
94.4299334544011
 21
-5.184507518659308
 31
0.0
 12
91.1279334544011
 22
-4.634174185325975
 32
0.0
 13
91.1279334544011
 23
-4.634174185325975
 33
0.0
  0
MTEXT
  5
444
330
43C
100
AcDbEntity
  8
치수문자_일반주서
 62
     0
100
AcDbMText
 10
128.7901841681218
 20
-0.2591741853259748
 30
0.0
 40
3.5
 41
0.0
 71
     2
 72
     1
  1
\A1;79.38 [3 1/8]
  7
SLDTEXTSTYLE0
 73
     1
 44
1.0
  0
POINT
  5
445
330
43C
100
AcDbEntity
  8
Defpoints
 62
     0
100
AcDbPoint
 10
170.5029334544011
 20
-28.58416411852382
 30
0.0
  0
POINT
  5
446
330
43C
100
AcDbEntity
  8
Defpoints
 62
     0
100
AcDbPoint
 10
91.1279334544011
 20
-28.46510161852382
 30
0.0
  0
POINT
  5
447
330
43C
100
AcDbEntity
  8
Defpoints
 62
     0
100
AcDbPoint
 10
91.1279334544011
 20
-4.634174185325975
 30
0.0
  0
ENDBLK
  5
43E
330
43C
100
AcDbEntity
  8
0
100
AcDbBlockEnd
  0
ENDSEC
  0
SECTION
  2
ENTITIES
  0
LINE
  5
96
330
1F
100
AcDbEntity
  8
0
  6
Continuous
 62
     1
370
    25
100
AcDbLine
 10
27.35565366904818
 20
-0.5085868786237129
 30
0.0
 11
27.4066329363701
 21
-0.5356816887333885
 31
0.0
  0
LINE
  5
97
330
1F
100
AcDbEntity
  8
0
  6
Continuous
 62
     1
370
    25
100
AcDbLine
 10
29.34390892016105
 20
0.5080779389218103
 30
0.0
 11
29.2907307072096
 21
0.5363066486608504
 31
0.0
  0
LINE
  5
98
330
1F
100
AcDbEntity
  8
0
  6
Continuous
 62
     1
370
    25
100
AcDbLine
 10
39.06941991210374
 20
0.5032673114298414
 30
0.0
 11
39.03256514560179
 21
0.5231951584453379
 31
0.0
  0
LINE
  5
99
330
1F
100
AcDbEntity
  8
0
  6
Continuous
 62
     1
370
    25
100
AcDbLine
 10
37.07496195354523
 20
-0.5092140190401988
 30
0.0
 11
37.12480242772472
 21
-0.5357764390119796
 31
0.0
  0
LINE
  5
9A
330
1F
100
AcDbEntity
  8
0
  6
Continuous
 62
     1
370
    25
100
AcDbLine
 10
34.19746561019831
 20
0.510932663263322
 30
0.0
 11
34.14972886200128
 21
0.5363068125781043
 31
0.0
  0
LINE
  5
9B
330
1F
100
AcDbEntity
  8
0
  6
Continuous
 62
     1
370
    25
100
AcDbLine
 10
35.09338764827712
 20
-1.785937500000003
 30
0.0
 11
36.18262166959636
 21
-1.785937500000003
 31
0.0
  0
LINE
  5
9C
330
1F
100
AcDbEntity
  8
0
  6
Continuous
 62
     1
370
    25
100
AcDbLine
 10
26.4651890642699
 20
1.7859375
 30
0.0
 11
25.3758647082629
 21
1.7859375
 31
0.0
  0
LINE
  5
9D
330
1F
100
AcDbEntity
  8
0
  6
Continuous
 62
     1
370
    25
100
AcDbLine
 10
20.63750000000001
 20
-1.785937500000003
 30
0.0
 11
21.60468975133963
 21
-1.785937500000003
 31
0.0
  0
LINE
  5
9E
330
1F
100
AcDbEntity
  8
0
  6
Continuous
 62
     1
370
    25
100
AcDbLine
 10
31.32392142081471
 20
1.7859375
 30
0.0
 11
30.23463719690855
 21
1.7859375
 31
0.0
  0
LINE
  5
9F
330
1F
100
AcDbEntity
  8
0
  6
Continuous
 62
     1
370
    25
100
AcDbLine
 10
25.37586470826292
 20
-1.785937500000003
 30
0.0
 11
26.4651890642699
 21
-1.785937500000003
 31
0.0
  0
LINE
  5
A0
330
1F
100
AcDbEntity
  8
0
  6
Continuous
 62
     1
370
    25
100
AcDbLine
 10
36.18262166959634
 20
1.7859375
 30
0.0
 11
35.09338764827712
 21
1.7859375
 31
0.0
  0
LINE
  5
A1
330
1F
100
AcDbEntity
  8
0
  6
Continuous
 62
     1
370
    25
100
AcDbLine
 10
30.23463719690856
 20
-1.785937500000003
 30
0.0
 11
31.32392142081467
 21
-1.785937500000003
 31
0.0
  0
LINE
  5
A2
330
1F
100
AcDbEntity
  8
0
  6
Continuous
 62
     1
370
    25
100
AcDbLine
 10
21.6046897513396
 20
1.7859375
 30
0.0
 11
20.63750000000001
 21
1.7859375
 31
0.0
  0
LINE
  5
A3
330
1F
100
AcDbEntity
  8
외형선
  6
Continuous
370
    15
100
AcDbLine
 10
17.41576350361914
 20
-2.381250000000009
 30
0.0
 11
19.63750000000001
 21
-1.785937500000001
 31
0.0
  0
LINE
  5
A4
330
1F
100
AcDbEntity
  8
외형선
  6
Continuous
370
    15
100
AcDbLine
 10
19.63750000000001
 20
1.785937499999999
 30
0.0
 11
17.41576350361914
 21
2.381250000000006
 31
0.0
  0
LINE
  5
A5
330
1F
100
AcDbEntity
  8
외형선
  6
Continuous
370
    15
100
AcDbLine
 10
-17.41576350361913
 20
-2.381250000000005
 30
0.0
 11
17.41576350361914
 21
-2.381250000000005
 31
0.0
  0
LINE
  5
A6
330
1F
100
AcDbEntity
  8
외형선
  6
Continuous
370
    15
100
AcDbLine
 10
17.41576350361914
 20
2.381250000000003
 30
0.0
 11
-17.41576350361913
 21
2.381250000000003
 31
0.0
  0
LINE
  5
A9
330
1F
100
AcDbEntity
  8
외형선
  6
Continuous
370
    15
100
AcDbLine
 10
20.51683170516041
 20
-1.785937500000002
 30
0.0
 11
20.63750000000001
 21
-1.785937500000002
 31
0.0
  0
LINE
  5
AA
330
1F
100
AcDbEntity
  8
외형선
  6
Continuous
370
    15
100
AcDbLine
 10
19.63750000000001
 20
-1.785937500000002
 30
0.0
 11
20.13762895696213
 21
-1.785937500000002
 31
0.0
  0
LINE
  5
AB
330
1F
100
AcDbEntity
  8
외형선
  6
Continuous
370
    15
100
AcDbLine
 10
20.13762895696213
 20
1.785937499999999
 30
0.0
 11
19.63750000000001
 21
1.785937499999999
 31
0.0
  0
LINE
  5
AC
330
1F
100
AcDbEntity
  8
외형선
  6
Continuous
370
    15
100
AcDbLine
 10
20.63750000000001
 20
1.785937499999999
 30
0.0
 11
20.51683170516041
 21
1.785937499999999
 31
0.0
  0
LINE
  5
AD
330
1F
100
AcDbEntity
  8
0
  6
Continuous
 62
     1
370
    25
100
AcDbLine
 10
39.68750000000001
 20
0.7571644027892668
 30
0.0
 11
39.6875
 21
1.785937500000005
 31
0.0
  0
SPLINE
  5
AE
330
1F
100
AcDbEntity
  8
0
  6
Continuous
 62
     1
370
    25
100
AcDbSpline
210
0.0
220
0.0
230
1.0
 70
     8
 71
     3
 72
    16
 73
    12
 74
     0
 42
0.000000001
 43
0.00000001
 40
0.0
 40
0.0
 40
0.0
 40
0.0
 40
0.1136971880073762
 40
0.2274239202496321
 40
0.3411944389489491
 40
0.4550227928209363
 40
0.5688623229989627
 40
0.6955775746193134
 40
0.8222926006478631
 40
0.949007397980334
 40
1.0
 40
1.0
 40
1.0
 40
1.0
 10
20.63750000000011
 20
0.5497502971974287
 30
0.0
 10
20.92977665633491
 20
0.3848643243293382
 30
0.0
 10
21.51440591714653
 20
0.0550495329432676
 30
0.0
 10
22.39155447447692
 20
-0.4558440484126262
 30
0.0
 10
23.2690972273023
 20
-0.9272108554218511
 30
0.0
 10
24.14705266990989
 20
-1.325446734575076
 30
0.0
 10
25.05827858052582
 20
-1.628040469007693
 30
0.0
 10
26.00268270398211
 20
-1.797163831771961
 30
0.0
 10
26.98018156324481
 20
-1.78524172692407
 30
0.0
 10
27.76297098499927
 20
-1.660432967275845
 30
0.0
 10
28.21992576680515
 20
-1.494530306077667
 30
0.0
 10
28.35104756260295
 20
-1.44692503805099
 30
0.0
  0
SPLINE
  5
AF
330
1F
100
AcDbEntity
  8
0
  6
Continuous
 62
     1
370
    25
100
AcDbSpline
210
0.0
220
0.0
230
1.0
 70
     8
 71
     3
 72
    11
 73
     7
 74
     0
 42
0.000000001
 43
0.00000001
 40
0.0
 40
0.0
 40
0.0
 40
0.0
 40
0.1633309506156702
 40
0.4422212139290336
 40
0.7211108992993303
 40
1.0
 40
1.0
 40
1.0
 40
1.0
 10
36.18262166959634
 20
1.764347170919606
 30
0.0
 10
36.37344018317527
 20
1.766922263123012
 30
0.0
 10
36.89008442235301
 20
1.773894367282554
 30
0.0
 10
37.73255326269985
 20
1.586873184686675
 30
0.0
 10
38.71002757807083
 20
1.247512106718245
 30
0.0
 10
39.36167608704525
 20
0.920613523212741
 30
0.0
 10
39.68750000000002
 20
0.7571644027892668
 30
0.0
  0
SPLINE
  5
B0
330
1F
100
AcDbEntity
  8
외형선
  6
Continuous
370
    15
100
AcDbSpline
210
0.0
220
0.0
230
1.0
 70
    24
 71
     3
 72
    13
 73
     9
 74
     0
 42
0.000000001
 43
0.00000001
 40
0.0
 40
0.0
 40
0.0
 40
0.0
 40
0.1796178235320355
 40
0.3544495980842707
 40
0.5292813726365142
 40
0.7041131471887512
 40
0.8789449217408826
 40
1.0
 40
1.0
 40
1.0
 40
1.0
 10
20.6375
 20
1.784570887651104
 30
0.0
 10
20.63750000000001
 20
1.663754392773648
 30
0.0
 10
20.63750000000001
 20
1.425340647360311
 30
0.0
 10
20.63749999999998
 20
1.058617044209281
 30
0.0
 10
20.63750000000006
 20
0.7380761151404902
 30
0.0
 10
20.63749999999994
 20
0.4984449175161004
 30
0.0
 10
20.63750000000001
 20
0.3623069978892505
 30
0.0
 10
20.63750000000002
 20
0.3641312145885098
 30
0.0
 10
20.63750000000004
 20
0.3648775495242877
 30
0.0
  0
SPLINE
  5
B1
330
1F
100
AcDbEntity
  8
0
  6
Continuous
 62
     1
370
    25
100
AcDbSpline
210
0.0
220
0.0
230
1.0
 70
     8
 71
     3
 72
     9
 73
     5
 74
     0
 42
0.000000001
 43
0.00000001
 40
0.0
 40
0.0
 40
0.0
 40
0.0
 40
0.6039605586251272
 40
1.0
 40
1.0
 40
1.0
 40
1.0
 10
39.6875
 20
1.785937500000005
 30
0.0
 10
39.36167609837308
 20
1.750534328124706
 30
0.0
 10
38.82219732451299
 20
1.70279023329747
 30
0.0
 10
38.28271821296364
 20
1.520285307128405
 30
0.0
 10
38.06906320699225
 20
1.448006158120247
 30
0.0
  0
SPLINE
  5
B2
330
1F
100
AcDbEntity
  8
0
  6
Continuous
 62
     1
370
    25
100
AcDbSpline
210
0.0
220
0.0
230
1.0
 70
     8
 71
     3
 72
    18
 73
    14
 74
     0
 42
0.000000001
 43
0.00000001
 40
0.0
 40
0.0
 40
0.0
 40
0.0
 40
0.0335456387463406
 40
0.1353918804788305
 40
0.2372383110060974
 40
0.3390849278391525
 40
0.440931728485951
 40
0.5427787104514513
 40
0.6342768721071546
 40
0.7257660508422954
 40
0.8172087447406633
 40
0.9086162454129143
 40
1.0
 40
1.0
 40
1.0
 40
1.0
 10
30.23463719690856
 20
-1.766295123433821
 30
0.0
 10
30.12731631799311
 20
-1.771734466962905
 30
0.0
 10
29.69416386795698
 20
-1.793687930259333
 30
0.0
 10
28.9351788197068
 20
-1.650103060119764
 30
0.0
 10
27.95768174230897
 20
-1.347590858380279
 30
0.0
 10
26.9801815905791
 20
-0.8993242582838863
 30
0.0
 10
26.00268269663177
 20
-0.3653498001433231
 30
0.0
 10
25.05827858227382
 20
0.1865882297217255
 30
0.0
 10
24.14705266946294
 20
0.7000798655979183
 30
0.0
 10
23.26909722742188
 20
1.139814209820716
 30
0.0
 10
22.39155447444504
 20
1.485689983523037
 30
0.0
 10
21.5144059171545
 20
1.723054601589801
 30
0.0
 10
20.92977665633756
 20
1.764067234923194
 30
0.0
 10
20.63750000000011
 20
1.784570887650955
 30
0.0
  0
SPLINE
  5
B3
330
1F
100
AcDbEntity
  8
0
  6
Continuous
 62
     1
370
    25
100
AcDbSpline
210
0.0
220
0.0
230
1.0
 70
     8
 71
     3
 72
    20
 73
    16
 74
     0
 42
0.000000001
 43
0.00000001
 40
0.0
 40
0.0
 40
0.0
 40
0.0
 40
0.0678056643190018
 40
0.1434271539862575
 40
0.2190870857909211
 40
0.2947544463119283
 40
0.3789800980945094
 40
0.4632055999297382
 40
0.5474309497542497
 40
0.6316561455071737
 40
0.7158811851301565
 40
0.8001060665673951
 40
0.8843307877656746
 40
0.9685553466743891
 40
1.0
 40
1.0
 40
1.0
 40
1.0
 10
21.6046897513396
 20
1.779334288889329
 30
0.0
 10
21.86694025351409
 20
1.770850577123501
 30
0.0
 10
22.42167035661278
 20
1.75290525284959
 30
0.0
 10
23.26909806241061
 20
1.55223386210226
 30
0.0
 10
24.14705244643512
 20
1.233368332149463
 30
0.0
 10
25.05827864968032
 20
0.7966787173653809
 30
0.0
 10
26.00268267744107
 20
0.270598594172141
 30
0.0
 10
26.98018159689954
 20
-0.3008866610104707
 30
0.0
 10
27.95768173621802
 20
-0.8424855242360731
 30
0.0
 10
28.93517883775026
 20
-1.300836680599687
 30
0.0
 10
29.91267400393201
 20
-1.629696510834113
 30
0.0
 10
30.89016691097452
 20
-1.799626549153834
 30
0.0
 10
31.86765758014052
 20
-1.782131191493498
 30
0.0
 10
32.64096339111317
 20
-1.655830490552579
 30
0.0
 10
33.0884388439904
 20
-1.49195355292662
 30
0.0
 10
33.21008496066783
 20
-1.447403638630742
 30
0.0
  0
SPLINE
  5
B4
330
1F
100
AcDbEntity
  8
0
  6
Continuous
 62
     1
370
    25
100
AcDbSpline
210
0.0
220
0.0
230
1.0
 70
     8
 71
     3
 72
    20
 73
    16
 74
     0
 42
0.000000001
 43
0.00000001
 40
0.0
 40
0.0
 40
0.0
 40
0.0
 40
0.0252777770645304
 40
0.1095295511079578
 40
0.1937814915885917
 40
0.2780335964604882
 40
0.3622858636750271
 40
0.4465382911809338
 40
0.5307908769243198
 40
0.6150436188487083
 40
0.6992965148950765
 40
0.7835495630018733
 40
0.8678027611050687
 40
0.9434948689248912
 40
1.0
 40
1.0
 40
1.0
 40
1.0
 10
35.09338764827714
 20
-1.767267481148672
 30
0.0
 10
34.99563062653323
 20
-1.772613640626653
 30
0.0
 10
34.57204580410504
 20
-1.795778749104348
 30
0.0
 10
33.82263214275933
 20
-1.656494756559867
 30
0.0
 10
32.84514602600568
 20
-1.358921243599056
 30
0.0
 10
31.86765759415589
 20
-0.9138666882045798
 30
0.0
 10
30.89016690783892
 20
-0.381766558040827
 30
0.0
 10
29.91267400245905
 20
0.1890746831906151
 30
0.0
 10
28.93517884677776
 20
0.740919002126457
 30
0.0
 10
27.95768170158082
 20
1.219544468626739
 30
0.0
 10
26.98018172642105
 20
1.577036967002587
 30
0.0
 10
26.00268219399106
 20
1.779616340553141
 30
0.0
 10
25.05828037647525
 20
1.800503935293895
 30
0.0
 10
24.22121830337533
 20
1.688320989999244
 30
0.0
 10
23.70999295734783
 20
1.523711539538444
 30
0.0
 10
23.49147965534789
 20
1.453352440874653
 30
0.0
  0
LINE
  5
B5
330
1F
100
AcDbEntity
  8
0
  6
Continuous
 62
     1
370
    25
100
AcDbLine
 10
39.68750000000001
 20
-1.617490284686435
 30
0.0
 11
39.68750000000001
 21
0.1530215346864542
 31
0.0
  0
SPLINE
  5
B6
330
1F
100
AcDbEntity
  8
0
  6
Continuous
 62
     1
370
    25
100
AcDbSpline
210
0.0
220
0.0
230
1.0
 70
     8
 71
     3
 72
    11
 73
     7
 74
     0
 42
0.000000001
 43
0.00000001
 40
0.0
 40
0.0
 40
0.0
 40
0.0
 40
0.3072563801051346
 40
0.6145926008362443
 40
0.9220471505122467
 40
1.0
 40
1.0
 40
1.0
 40
1.0
 10
20.63750000000009
 20
-1.699219634019563
 30
0.0
 10
20.92977637749347
 20
-1.738417415305673
 30
0.0
 10
21.51440508054978
 20
-1.816823163428454
 30
0.0
 10
22.39155782241532
 20
-1.744501678001042
 30
0.0
 10
23.05059951496596
 20
-1.618122316534008
 30
0.0
 10
23.41730871961197
 20
-1.481072301080123
 30
0.0
 10
23.49147965534794
 20
-1.453352440874659
 30
0.0
  0
SPLINE
  5
B7
330
1F
100
AcDbEntity
  8
0
  6
Continuous
 62
     1
370
    25
100
AcDbSpline
210
0.0
220
0.0
230
1.0
 70
     8
 71
     3
 72
    16
 73
    12
 74
     0
 42
0.000000001
 43
0.00000001
 40
0.0
 40
0.0
 40
0.0
 40
0.0
 40
0.0650123425627349
 40
0.1818866177268162
 40
0.2987606648478144
 40
0.4156344810876018
 40
0.5325080636118228
 40
0.6493814095899182
 40
0.7662545161951921
 40
0.8831273806048411
 40
1.0
 40
1.0
 40
1.0
 40
1.0
 10
31.32392142081471
 20
1.763973722260169
 30
0.0
 10
31.50516701129554
 20
1.767198435149435
 30
0.0
 10
32.01224222395457
 20
1.77622029311437
 30
0.0
 10
32.84514601030926
 20
1.595500050922566
 30
0.0
 10
33.82263216362831
 20
1.25647127039236
 30
0.0
 10
34.80011598377967
 20
0.7846294718627979
 30
0.0
 10
35.77759746416881
 20
0.2375344200136666
 30
0.0
 10
36.75507657311463
 20
-0.3345071166539426
 30
0.0
 10
37.73255327386515
 20
-0.870179242835249
 30
0.0
 10
38.71002757527952
 20
-1.331217936399356
 30
0.0
 10
39.36167608611481
 20
-1.522066235273811
 30
0.0
 10
39.68750000000002
 20
-1.617490284686435
 30
0.0
  0
SPLINE
  5
B8
330
1F
100
AcDbEntity
  8
외형선
  6
Continuous
370
    15
100
AcDbSpline
210
0.0
220
0.0
230
1.0
 70
    24
 71
     3
 72
    14
 73
    10
 74
     0
 42
0.000000001
 43
0.00000001
 40
0.0
 40
0.0
 40
0.0
 40
0.0
 40
0.1432333411632015
 40
0.2995817738192652
 40
0.455930206475323
 40
0.6122786391312864
 40
0.7686270717874448
 40
0.9249755044435054
 40
1.0
 40
1.0
 40
1.0
 40
1.0
 10
20.6375
 20
-0.0122977570805568
 30
0.0
 10
20.6375
 20
-0.0237778749778656
 30
0.0
 10
20.63750000000001
 20
-0.0477892822060988
 30
0.0
 10
20.63750000000005
 20
-0.2296959831783529
 30
0.0
 10
20.63749999999994
 20
-0.5019610970606422
 30
0.0
 10
20.63750000000002
 20
-0.8423482503733712
 30
0.0
 10
20.63750000000006
 20
-1.207580943642716
 30
0.0
 10
20.63749999999997
 20
-1.500873857965931
 30
0.0
 10
20.6375
 20
-1.650652672812325
 30
0.0
 10
20.63750000000001
 20
-1.699219634019546
 30
0.0
  0
SPLINE
  5
B9
330
1F
100
AcDbEntity
  8
0
  6
Continuous
 62
     1
370
    25
100
AcDbSpline
210
0.0
220
0.0
230
1.0
 70
     8
 71
     3
 72
    14
 73
    10
 74
     0
 42
0.000000001
 43
0.00000001
 40
0.0
 40
0.0
 40
0.0
 40
0.0
 40
0.1509047909125633
 40
0.3018098981854545
 40
0.4527153181789844
 40
0.603621047248384
 40
0.7545270817438319
 40
0.9054334180105555
 40
1.0
 40
1.0
 40
1.0
 40
1.0
 10
39.68750000000001
 20
0.1530215346864539
 30
0.0
 10
39.36167608610015
 20
0.338953889826953
 30
0.0
 10
38.71002757523556
 20
0.7108189899008829
 30
0.0
 10
37.73255327404092
 20
1.194270091611319
 30
0.0
 10
36.75507657245547
 20
1.560102565610212
 30
0.0
 10
35.77759746662966
 20
1.772772940639405
 30
0.0
 10
34.80011597459528
 20
1.803868681197461
 30
0.0
 10
33.94427826657615
 20
1.694562726572915
 30
0.0
 10
33.41426756712721
 20
1.516139741752399
 30
0.0
 10
33.21008496066786
 20
1.447403638630739
 30
0.0
  0
SPLINE
  5
BA
330
1F
100
AcDbEntity
  8
0
  6
Continuous
 62
     1
370
    25
100
AcDbSpline
210
0.0
220
0.0
230
1.0
 70
     8
 71
     3
 72
    13
 73
     9
 74
     0
 42
0.000000001
 43
0.00000001
 40
0.0
 40
0.0
 40
0.0
 40
0.0
 40
0.074000402459491
 40
0.2593094919652217
 40
0.4446003885717684
 40
0.6297971405242333
 40
0.814922616457918
 40
0.9999999999999999
 40
0.9999999999999999
 40
0.9999999999999999
 40
0.9999999999999999
 10
25.37586470826292
 20
-1.765475506009425
 30
0.0
 10
25.25896848567382
 20
-1.771011919407354
 30
0.0
 10
24.84934503654693
 20
-1.790412415861574
 30
0.0
 10
24.14705341097185
 20
-1.662682517758091
 30
0.0
 10
23.26909702892136
 20
-1.408212422950831
 30
0.0
 10
22.39155452734485
 20
-1.030892034438364
 30
0.0
 10
21.51440590393567
 20
-0.5743926382008558
 30
0.0
 10
20.92977665193166
 20
-0.2380185961998093
 30
0.0
 10
20.63750000000011
 20
-0.069853424074489
 30
0.0
  0
SPLINE
  5
BB
330
1F
100
AcDbEntity
  8
0
  6
Continuous
 62
     1
370
    25
100
AcDbSpline
210
0.0
220
0.0
230
1.0
 70
     8
 71
     3
 72
    20
 73
    16
 74
     0
 42
0.000000001
 43
0.00000001
 40
0.0
 40
0.0
 40
0.0
 40
0.0
 40
0.044381080538058
 40
0.1286199827919809
 40
0.2128587309495253
 40
0.2970973229520061
 40
0.3813357567432895
 40
0.4655740302698302
 40
0.5498121414806924
 40
0.6340500883275952
 40
0.7182878687649348
 40
0.8025254807498252
 40
0.8867629222421176
 40
0.9710001912044471
 40
0.9999999999999999
 40
0.9999999999999999
 40
0.9999999999999999
 40
0.9999999999999999
 10
26.4651890642699
 20
1.76375473688022
 30
0.0
 10
26.63685361279951
 20
1.767569099383628
 30
0.0
 10
27.13435144318557
 20
1.778623432302133
 30
0.0
 10
27.95768157643396
 20
1.6030902162229
 30
0.0
 10
28.9351788802872
 20
1.268626245278362
 30
0.0
 10
29.91267399356787
 20
0.7997624421689858
 30
0.0
 10
30.89016690989433
 20
0.2540463997145773
 30
0.0
 10
31.86765759482535
 20
-0.3174707971257813
 30
0.0
 10
32.84514602127243
 20
-0.857329003328568
 30
0.0
 10
33.82263216102302
 20
-1.312512619819351
 30
0.0
 10
34.80011598323784
 20
-1.637009883794707
 30
0.0
 10
35.77759746894144
 20
-1.801970518552374
 30
0.0
 10
36.75507655456609
 20
-1.778849914456063
 30
0.0
 10
37.51889824878208
 20
-1.651193986011803
 30
0.0
 10
37.9568934387928
 20
-1.489432881533695
 30
0.0
 10
38.06906320699225
 20
-1.448006158120249
 30
0.0
  0
SPLINE
  5
BC
330
1F
100
AcDbEntity
  8
0
  6
Continuous
 62
     1
370
    25
100
AcDbSpline
210
0.0
220
0.0
230
1.0
 70
     8
 71
     3
 72
    19
 73
    15
 74
     0
 42
0.000000001
 43
0.00000001
 40
0.0
 40
0.0
 40
0.0
 40
0.0
 40
0.086223968165103
 40
0.1724481170921466
 40
0.2586724447014853
 40
0.3448969489105714
 40
0.4311216276339703
 40
0.5173464787834181
 40
0.6035715002678353
 40
0.6897966899933645
 40
0.7760220458634092
 40
0.8622475657786562
 40
0.9484732476371176
 40
0.9999999999999999
 40
0.9999999999999999
 40
0.9999999999999999
 40
0.9999999999999999
 10
39.6875
 20
-1.785937499999995
 30
0.0
 10
39.36167608611608
 20
-1.746011125476448
 30
0.0
 10
38.71002757528336
 20
-1.679293549880039
 30
0.0
 10
37.73255327384967
 20
-1.36569513861377
 30
0.0
 10
36.75507657317254
 20
-0.929498708071938
 30
0.0
 10
35.77759746395265
 20
-0.3978630142317793
 30
0.0
 10
34.80011598458624
 20
0.1722753073434943
 30
0.0
 10
33.8226321606182
 20
0.7255634705848678
 30
0.0
 10
32.84514602154315
 20
1.207054825786793
 30
0.0
 10
31.86765759414722
 20
1.56856517136845
 30
0.0
 10
30.89016691233621
 20
1.776445297190139
 30
0.0
 10
29.91267398447842
 20
1.801996199891781
 30
0.0
 10
29.0663006724856
 20
1.690286255922888
 30
0.0
 10
28.54575819368073
 20
1.513174335896712
 30
0.0
 10
28.35104756260295
 20
1.446925038050988
 30
0.0
  0
LINE
  5
BD
330
1F
100
AcDbEntity
  8
0
  6
Continuous
 62
     1
370
    25
100
AcDbLine
 10
39.6875
 20
-1.785937499999995
 30
0.0
 11
39.68750000000001
 21
-1.617490284686435
 31
0.0
  0
LINE
  5
BE
330
1F
100
AcDbEntity
  8
외형선
  6
Continuous
370
    15
100
AcDbLine
 10
20.63750000000001
 20
-1.785937500000003
 30
0.0
 11
20.63750000000001
 21
-1.699219634019546
 31
0.0
  0
LINE
  5
BF
330
1F
100
AcDbEntity
  8
외형선
  6
Continuous
370
    15
100
AcDbLine
 10
20.6375
 20
-0.0698534240744741
 30
0.0
 11
20.63750000000001
 21
0.5497502971974797
 31
0.0
  0
LINE
  5
C0
330
1F
100
AcDbEntity
  8
0
  6
Continuous
 62
     1
370
    25
100
AcDbLine
 10
39.68750000000001
 20
0.1530215346864541
 30
0.0
 11
39.68750000000001
 21
0.7571644027892668
 31
0.0
  0
LINE
  5
C1
330
1F
100
AcDbEntity
  8
외형선
  6
Continuous
370
    15
100
AcDbLine
 10
20.6375
 20
1.784570887651104
 30
0.0
 11
20.63750000000001
 21
1.7859375
 31
0.0
  0
LINE
  5
C2
330
1F
100
AcDbEntity
  8
외형선
  6
Continuous
370
    15
100
AcDbLine
 10
19.63750000000001
 20
-0.0000000000000013
 30
0.0
 11
19.63750000000001
 21
1.785937499999999
 31
0.0
  0
LINE
  5
C3
330
1F
100
AcDbEntity
  8
외형선
  6
Continuous
370
    15
100
AcDbLine
 10
19.63750000000001
 20
-1.785937500000001
 30
0.0
 11
19.63750000000001
 21
-0.0000000000000013
 31
0.0
  0
LINE
  5
C4
330
1F
100
AcDbEntity
  8
외형선
  6
Continuous
370
    15
100
AcDbLine
 10
17.41576350361914
 20
-0.0000000000000013
 30
0.0
 11
17.41576350361914
 21
2.381250000000006
 31
0.0
  0
LINE
  5
C5
330
1F
100
AcDbEntity
  8
외형선
  6
Continuous
370
    15
100
AcDbLine
 10
17.41576350361914
 20
-2.381250000000009
 30
0.0
 11
17.41576350361914
 21
-0.0000000000000013
 31
0.0
  0
SPLINE
  5
CA
330
1F
100
AcDbEntity
  8
외형선
  6
Continuous
370
    15
100
AcDbSpline
210
0.0
220
0.0
230
1.0
 70
    24
 71
     3
 72
    14
 73
    10
 74
     0
 42
0.000000001
 43
0.00000001
 40
0.0
 40
0.0
 40
0.0
 40
0.0
 40
0.1109907974797241
 40
0.2671521273376859
 40
0.4233134571956472
 40
0.5794747870536138
 40
0.7356361169115754
 40
0.8917974467695347
 40
1.0
 40
1.0
 40
1.0
 40
1.0
 10
20.63750000000001
 20
-1.699219634019543
 30
0.0
 10
20.63750000000001
 20
-1.626092457296458
 30
0.0
 10
20.63750000000002
 20
-1.450077136464656
 30
0.0
 10
20.63750000000005
 20
-1.122653052146294
 30
0.0
 10
20.63749999999995
 20
-0.7601771339760268
 30
0.0
 10
20.63750000000002
 20
-0.4312148202851801
 30
0.0
 10
20.63749999999995
 20
-0.1800013658227615
 30
0.0
 10
20.63750000000001
 20
-0.030553401769636
 30
0.0
 10
20.63750000000001
 20
-0.0234116659725551
 30
0.0
 10
20.63750000000001
 20
-0.0204885963054209
 30
0.0
  0
SPLINE
  5
CB
330
1F
100
AcDbEntity
  8
외형선
  6
Continuous
370
    15
100
AcDbSpline
210
0.0
220
0.0
230
1.0
 70
     8
 71
     3
 72
     8
 73
     4
 74
     0
 42
0.000000001
 43
0.00000001
 40
0.0
 40
0.0
 40
0.0
 40
0.0
 40
1.0
 40
1.0
 40
1.0
 40
1.0
 10
20.63750000000012
 20
-1.699219634019563
 30
0.0
 10
20.46945695837709
 20
-1.669462133159222
 30
0.0
 10
20.30399094349555
 20
-1.632407959729027
 30
0.0
 10
20.13762895696213
 20
-1.588358638641847
 30
0.0
  0
SPLINE
  5
CC
330
1F
100
AcDbEntity
  8
외형선
  6
Continuous
370
    15
100
AcDbSpline
210
0.0
220
0.0
230
1.0
 70
     8
 71
     3
 72
     8
 73
     4
 74
     0
 42
0.000000001
 43
0.00000001
 40
0.0
 40
0.0
 40
0.0
 40
0.0
 40
1.0
 40
1.0
 40
1.0
 40
1.0
 10
20.63750000000011
 20
-0.0698534240744761
 30
0.0
 10
20.46945695837709
 20
0.0267438310708673
 30
0.0
 10
20.30399094349553
 20
0.1231504131918011
 30
0.0
 10
20.13762895696213
 20
0.2187730042891137
 30
0.0
  0
LINE
  5
CD
330
1F
100
AcDbEntity
  8
외형선
  6
Continuous
370
    15
100
AcDbLine
 10
20.13762895696213
 20
-1.588357304139799
 30
0.0
 11
20.13762895696213
 21
0.2187805086641251
 31
0.0
  0
LINE
  5
CE
330
1F
100
AcDbEntity
  8
외형선
  6
Continuous
370
    15
100
AcDbLine
 10
20.51683170516039
 20
-1.781653916533766
 30
0.0
 11
20.13762895696213
 21
-1.772487271181538
 31
0.0
  0
LINE
  5
CF
330
1F
100
AcDbEntity
  8
외형선
  6
Continuous
370
    15
100
AcDbLine
 10
20.13762895696213
 20
-1.785937500000002
 30
0.0
 11
20.13762895696213
 21
-1.772486344921994
 31
0.0
  0
SPLINE
  5
D0
330
1F
100
AcDbEntity
  8
외형선
  6
Continuous
370
    15
100
AcDbSpline
210
0.0
220
0.0
230
1.0
 70
     8
 71
     3
 72
     8
 73
     4
 74
     0
 42
0.000000001
 43
0.00000001
 40
0.0
 40
0.0
 40
0.0
 40
0.0
 40
1.0
 40
1.0
 40
1.0
 40
1.0
 10
20.63750000000011
 20
1.784570887650954
 30
0.0
 10
20.46945695837709
 20
1.788351992158931
 30
0.0
 10
20.30399094349553
 20
1.784289692486555
 30
0.0
 10
20.13762895696213
 20
1.772487271181536
 30
0.0
  0
LINE
  5
D1
330
1F
100
AcDbEntity
  8
외형선
  6
Continuous
370
    15
100
AcDbLine
 10
20.13762895696213
 20
0.8165132137889589
 30
0.0
 11
20.13762895696213
 21
1.785937499999999
 31
0.0
  0
SPLINE
  5
D2
330
1F
100
AcDbEntity
  8
외형선
  6
Continuous
370
    15
100
AcDbSpline
210
0.0
220
0.0
230
1.0
 70
     8
 71
     3
 72
     8
 73
     4
 74
     0
 42
0.000000001
 43
0.00000001
 40
0.0
 40
0.0
 40
0.0
 40
0.0
 40
1.0
 40
1.0
 40
1.0
 40
1.0
 10
20.63750000000012
 20
0.5497502971974242
 30
0.0
 10
20.46945695837709
 20
0.6417275639292763
 30
0.0
 10
20.30399094349555
 20
0.730821444674669
 30
0.0
 10
20.13762895696213
 20
0.8165106177864695
 30
0.0
  0
SPLINE
  5
D3
330
1F
100
AcDbEntity
  8
외형선
  6
Continuous
370
    15
100
AcDbSpline
210
0.0
220
0.0
230
1.0
 70
    24
 71
     3
 72
    13
 73
     9
 74
     0
 42
0.000000001
 43
0.00000001
 40
0.0
 40
0.0
 40
0.0
 40
0.0
 40
0.1568251161145338
 40
0.3325574114617892
 40
0.5082897068090391
 40
0.6840220021562864
 40
0.8597542975033686
 40
1.0
 40
1.0
 40
1.0
 40
1.0
 10
20.63750000000004
 20
0.3576340441319718
 30
0.0
 10
20.63750000000001
 20
0.3641880182383102
 30
0.0
 10
20.63749999999995
 20
0.3780861279135468
 30
0.0
 10
20.63750000000002
 20
0.5451877841043455
 30
0.0
 10
20.63749999999998
 20
0.8066284704244966
 30
0.0
 10
20.6375
 20
1.139802764581815
 30
0.0
 10
20.63750000000004
 20
1.482308668621077
 30
0.0
 10
20.63750000000002
 20
1.691653800662232
 30
0.0
 10
20.63750000000001
 20
1.784570887635749
 30
0.0
  0
LINE
  5
D4
330
1F
100
AcDbEntity
  8
중심선
 48
0.8
100
AcDbLine
 10
-42.6875
 20
-0.0000000000000052
 30
0.0
 11
42.68750000000001
 21
0.0000000000000052
 31
0.0
  0
LINE
  5
D5
330
1F
100
AcDbEntity
  8
참조1
100
AcDbLine
 10
0.1933806570156155
 20
0.0010749287238892
 30
0.0
 11
0.1933806570156224
 21
-39.99892507127611
 31
0.0
  0
LINE
  5
D6
330
1F
100
AcDbEntity
  8
참조1
100
AcDbLine
 10
0.1933806570156224
 20
-39.99892507127611
 30
0.0
 11
-29.25297615729306
 21
-39.9989250712761
 31
0.0
  0
CIRCLE
  5
D7
330
1F
100
AcDbEntity
  8
해칭선
100
AcDbCircle
 10
0.0
 20
0.0
 30
0.0
 40
3.000000000000003
  0
INSERT
  5
D8
330
1F
100
AcDbEntity
  8
0
  6
Continuous
 62
     7
100
AcDbBlockReference
 66
     1
  2
블럭10
 10
-13.9402729321252
 20
-52.04717430164393
 30
0.0
  0
ATTRIB
  5
D9
330
D8
100
AcDbEntity
  8
FORMAT
 62
     2
100
AcDbText
 10
-23.12156822086648
 20
-49.97180738881175
 30
0.0
 40
4.233333333333333
  1
E2006009 [ 4 FLUTE ]
 41
0.75
  7
SLDTEXTSTYLE0
 11
-23.12156822086648
 21
-52.08847405547841
 31
0.0
100
AcDbAttribute
  2
AUTOATTR0
 70
     0
 74
     1
  0
SEQEND
  5
DA
330
D8
100
AcDbEntity
  8
0
  6
Continuous
 62
     7
  0
HATCH
  5
DB
330
1F
100
AcDbEntity
  8
중심선
100
AcDbHatch
 10
0.0
 20
0.0
 30
0.0
210
0.0
220
0.0
230
1.0
  2
SOLID
 70
     1
 71
     0
 91
        1
 92
        0
 93
        4
 72
     1
 10
-8.22536362774435
 20
-35.8
 11
-11.67163887158163
 21
-35.8
 72
     1
 10
-11.67163887158163
 20
-35.8
 11
-13.79986873078565
 21
-38.33632558057263
 72
     1
 10
-13.79986873078565
 20
-38.33632558057263
 11
-10.35356040183522
 21
-38.33628615127014
 72
     1
 10
-10.35356040183522
 20
-38.33628615127014
 11
-8.22536362774435
 21
-35.8
 97
        0
 75
     0
 76
     1
 98
        1
 10
-0.1933806570156094
 20
-0.0010749287238945
  0
HATCH
  5
DC
330
1F
100
AcDbEntity
  8
중심선
100
AcDbHatch
 10
0.0
 20
0.0
 30
0.0
210
0.0
220
0.0
230
1.0
  2
SOLID
 70
     1
 71
     0
 91
        1
 92
        0
 93
        4
 72
     1
 10
-3.212599636708371
 20
-35.8
 11
-6.658874880545653
 21
-35.8
 72
     1
 10
-6.658874880545653
 20
-35.8
 11
-11.19001288890307
 21
-41.20000000000002
 72
     1
 10
-11.19001288890307
 20
-41.20000000000002
 11
-7.743737645065787
 21
-41.20000000000002
 72
     1
 10
-7.743737645065787
 20
-41.20000000000002
 11
-3.21259963670837
 21
-35.8
 97
        0
 75
     0
 76
     1
 98
        1
 10
-0.1933806570156094
 20
-0.0010749287238945
  0
HATCH
  5
DD
330
1F
100
AcDbEntity
  8
중심선
100
AcDbHatch
 10
0.0
 20
0.0
 30
0.0
210
0.0
220
0.0
230
1.0
  2
SOLID
 70
     1
 71
     0
 91
        1
 92
        0
 93
        4
 72
     1
 10
1.800164354327525
 20
-35.8
 11
-1.646110889509564
 21
-35.79999999999998
 72
     1
 10
-1.646110889509563
 20
-35.79999999999998
 11
-8.694547791398868
 21
-44.20000000000002
 72
     1
 10
-8.694547791398868
 20
-44.20000000000002
 11
-5.248272547561585
 21
-44.20000000000002
 72
     1
 10
-5.248272547561585
 20
-44.20000000000002
 11
1.800164354327524
 21
-35.8
 97
        0
 75
     0
 76
     1
 98
        1
 10
-0.1933806570156094
 20
-0.0010749287238945
  0
HATCH
  5
DE
330
1F
100
AcDbEntity
  8
중심선
100
AcDbHatch
 10
0.0
 20
0.0
 30
0.0
210
0.0
220
0.0
230
1.0
  2
SOLID
 70
     1
 71
     0
 91
        1
 92
        0
 93
        6
 72
     3
 10
6.600054785339696
 20
-40.00000000005127
 11
3.960054785062284
 21
1.540882976769353E-10
 40
0.3939339440162627
 50
17.09539180608437
 51
320.0019657685081
 73
     0
 72
     1
 10
8.283054441040292
 20
-38.5878940046383
 11
10.58835631474136
 21
-36.65356729459035
 72
     3
 10
6.60005478528685
 20
-40.00000000000015
 11
6.60005478528683
 21
-1.278976924368180E-13
 40
0.636358354079598
 50
39.99873849337413
 51
368.4976242363725
 73
     1
 72
     1
 10
13.02538727718746
 20
-39.03999999993002
 11
5.280122092122772
 21
-39.03999999993002
 72
     1
 10
5.280122092122772
 20
-39.03999999993002
 11
5.280097047676838
 21
-40.95999999992991
 72
     1
 10
5.280097047676838
 20
-40.95999999992991
 11
9.721476817148876
 21
-40.95999999992988
 97
        0
 75
     0
 76
     1
 98
        1
 10
-0.1933806570156094
 20
-0.0010749287238945
  0
DIMENSION
  5
DF
330
1F
100
AcDbEntity
  8
치수문자_일반주서
100
AcDbDimension
  2
_D
 10
52.282626064837
 20
-1.78593749999995
 30
0.0
 11
52.2826260648369
 21
22.82743750000006
 31
0.0
 70
   160
  1
%%c<>
 71
     2
 42
3.571875
 52
-270.0
  3
SLDDIMSTYLE0
100
AcDbAlignedDimension
 13
39.6875
 23
1.785937500000005
 33
0.0
 14
39.6875
 24
-1.785937499999995
 34
0.0
 50
90.0000000000002
100
AcDbRotatedDimension
1001
ACAD
1000
DSTYLE
1002
{
1070
   171
1070
     6
1070
   273
1070
     7
1002
}
  0
DIMENSION
  5
F4
330
1F
100
AcDbEntity
  8
치수문자_일반주서
100
AcDbDimension
  2
_D_1
 10
20.63750000000001
 20
17.12598619964235
 30
0.0
 11
1.564750000000011
 21
17.12598619964235
 31
0.0
 70
   160
  1
<>
 71
     2
 42
19.04999999999999
  3
SLDDIMSTYLE0
100
AcDbAlignedDimension
 13
39.6875
 23
1.785937500000005
 33
0.0
 14
20.63750000000001
 24
1.784570887635749
 34
0.0
100
AcDbRotatedDimension
1001
ACAD
1000
DSTYLE
1002
{
1070
   171
1070
     6
1070
   273
1070
     7
1002
}
  0
DIMENSION
  5
109
330
1F
100
AcDbEntity
  8
치수문자_일반주서
100
AcDbDimension
  2
_D_2
 10
-39.6875
 20
25.73592743319785
 30
0.0
 11
-2.025249286279307
 21
25.73592743319785
 31
0.0
 70
   160
  1
<>
 71
     2
 42
79.375
  3
SLDDIMSTYLE0
100
AcDbAlignedDimension
 13
39.6875
 23
1.785937500000005
 33
0.0
 14
-39.6875
 24
1.7859375
 34
0.0
100
AcDbRotatedDimension
1001
ACAD
1000
DSTYLE
1002
{
1070
   171
1070
     6
1070
   273
1070
     7
1002
}
  0
DIMENSION
  5
11C
330
1F
100
AcDbEntity
  8
치수문자_일반주서
100
AcDbDimension
  2
_D_3
 10
-52.68749999999999
 20
-2.381250000000136
 30
0.0
 11
-52.68749999999999
 21
0.0
 31
0.0
 70
   160
  1
%%c<>
 71
     2
 42
4.762500000000006
 52
-270.0
  3
SLDDIMSTYLE0
100
AcDbAlignedDimension
 13
-17.41576350361913
 23
2.381250000000003
 33
0.0
 14
-17.41576350361913
 24
-2.381250000000004
 34
0.0
 50
90.0000000000002
100
AcDbRotatedDimension
1001
ACAD
1000
DSTYLE
1002
{
1070
   171
1070
     6
1070
   273
1070
     7
1002
}
  0
LINE
  5
130
330
1F
100
AcDbEntity
  8
참조1
100
AcDbLine
 10
68.7193644723612
 20
7.441074928723896
 30
0.0
 11
68.7193644723612
 21
-7.438925071276109
 31
0.0
  0
LINE
  5
131
330
1F
100
AcDbEntity
  8
참조1
100
AcDbLine
 10
81.41936447236121
 20
5.441074928723896
 30
0.0
 11
68.7193644723612
 21
5.441074928723896
 31
0.0
  0
SOLID
  5
132
330
1F
100
AcDbEntity
  8
참조1
100
AcDbTrace
 10
68.7193644723612
 20
5.441074928723896
 30
0.0
 11
75.0693644723612
 21
4.425074928723896
 31
0.0
 12
75.0693644723612
 22
6.457074928723896
 32
0.0
 13
75.0693644723612
 23
6.457074928723896
 33
0.0
  0
LINE
  5
133
330
1F
100
AcDbEntity
  8
참조1
100
AcDbLine
 10
81.41936447236121
 20
-5.438925071276109
 30
0.0
 11
68.7193644723612
 21
-5.438925071276109
 31
0.0
  0
SOLID
  5
134
330
1F
100
AcDbEntity
  8
참조1
100
AcDbTrace
 10
68.7193644723612
 20
-5.438925071276109
 30
0.0
 11
75.0693644723612
 21
-6.454925071276109
 31
0.0
 12
75.0693644723612
 22
-4.422925071276109
 32
0.0
 13
75.0693644723612
 23
-4.422925071276109
 33
0.0
  0
MTEXT
  5
135
330
1F
100
AcDbEntity
  8
참조1
100
AcDbMText
 10
78.1037146049872
 20
11.01136670591223
 30
0.0
 40
3.5
 41
0.0
 71
     1
 72
     1
  1
A
  7
SLDTEXTSTYLE0
 73
     1
 44
1.0
  0
MTEXT
  5
136
330
1F
100
AcDbEntity
  8
참조1
100
AcDbMText
 10
78.1037146049872
 20
0.1313667059122219
 30
0.0
 40
3.5
 41
0.0
 71
     1
 72
     1
  1
A
  7
SLDTEXTSTYLE0
 73
     1
 44
1.0
  0
INSERT
  5
13D
330
1F
100
AcDbEntity
  8
해칭선
100
AcDbBlockReference
  2
SW_DOWELSYMBOL_0
 10
0.0
 20
0.0
 30
0.0
  0
LINE
  5
3E0
330
1F
100
AcDbEntity
  8
0
  6
Continuous
 62
     1
370
    25
100
AcDbLine
 10
-27.35565366904819
 20
0.5085868786237107
 30
0.0
 11
-27.4066329363701
 21
0.5356816887333842
 31
0.0
  0
LINE
  5
3E1
330
1F
100
AcDbEntity
  8
0
  6
Continuous
 62
     1
370
    25
100
AcDbLine
 10
-29.34390892016106
 20
-0.5080779389218109
 30
0.0
 11
-29.2907307072096
 21
-0.5363066486608503
 31
0.0
  0
LINE
  5
3E2
330
1F
100
AcDbEntity
  8
0
  6
Continuous
 62
     1
370
    25
100
AcDbLine
 10
-39.06941991210374
 20
-0.5032673114298405
 30
0.0
 11
-39.03256514560178
 21
-0.5231951584453356
 31
0.0
  0
LINE
  5
3E3
330
1F
100
AcDbEntity
  8
0
  6
Continuous
 62
     1
370
    25
100
AcDbLine
 10
-37.07496195354523
 20
0.5092140190402012
 30
0.0
 11
-37.12480242772472
 21
0.5357764390119797
 31
0.0
  0
LINE
  5
3E4
330
1F
100
AcDbEntity
  8
0
  6
Continuous
 62
     1
370
    25
100
AcDbLine
 10
-34.19746561019832
 20
-0.5109326632633213
 30
0.0
 11
-34.14972886200127
 21
-0.5363068125781034
 31
0.0
  0
LINE
  5
3E5
330
1F
100
AcDbEntity
  8
0
  6
Continuous
 62
     1
370
    25
100
AcDbLine
 10
-35.09338764827712
 20
1.7859375
 30
0.0
 11
-36.18262166959636
 21
1.7859375
 31
0.0
  0
LINE
  5
3E6
330
1F
100
AcDbEntity
  8
0
  6
Continuous
 62
     1
370
    25
100
AcDbLine
 10
-26.46518906426991
 20
-1.785937499999999
 30
0.0
 11
-25.3758647082629
 21
-1.785937499999999
 31
0.0
  0
LINE
  5
3E7
330
1F
100
AcDbEntity
  8
0
  6
Continuous
 62
     1
370
    25
100
AcDbLine
 10
-20.63750000000002
 20
1.7859375
 30
0.0
 11
-21.60468975133963
 21
1.7859375
 31
0.0
  0
LINE
  5
3E8
330
1F
100
AcDbEntity
  8
0
  6
Continuous
 62
     1
370
    25
100
AcDbLine
 10
-31.32392142081471
 20
-1.785937499999999
 30
0.0
 11
-30.23463719690855
 21
-1.785937499999999
 31
0.0
  0
LINE
  5
3E9
330
1F
100
AcDbEntity
  8
0
  6
Continuous
 62
     1
370
    25
100
AcDbLine
 10
-25.37586470826292
 20
1.7859375
 30
0.0
 11
-26.46518906426991
 21
1.7859375
 31
0.0
  0
LINE
  5
3EA
330
1F
100
AcDbEntity
  8
0
  6
Continuous
 62
     1
370
    25
100
AcDbLine
 10
-36.18262166959636
 20
-1.785937499999999
 30
0.0
 11
-35.09338764827712
 21
-1.785937499999999
 31
0.0
  0
LINE
  5
3EB
330
1F
100
AcDbEntity
  8
0
  6
Continuous
 62
     1
370
    25
100
AcDbLine
 10
-30.23463719690855
 20
1.7859375
 30
0.0
 11
-31.32392142081466
 21
1.7859375
 31
0.0
  0
LINE
  5
3EC
330
1F
100
AcDbEntity
  8
0
  6
Continuous
 62
     1
370
    25
100
AcDbLine
 10
-21.60468975133961
 20
-1.785937499999999
 30
0.0
 11
-20.63750000000002
 21
-1.785937499999999
 31
0.0
  0
LINE
  5
3ED
330
1F
100
AcDbEntity
  8
외형선
  6
Continuous
370
    15
100
AcDbLine
 10
-17.41576350361913
 20
2.381250000000013
 30
0.0
 11
-19.63750000000002
 21
1.7859375
 31
0.0
  0
LINE
  5
3EE
330
1F
100
AcDbEntity
  8
외형선
  6
Continuous
370
    15
100
AcDbLine
 10
-19.63750000000002
 20
-1.785937499999999
 30
0.0
 11
-17.41576350361913
 21
-2.381250000000004
 31
0.0
  0
LINE
  5
3F1
330
1F
100
AcDbEntity
  8
외형선
  6
Continuous
370
    15
100
AcDbLine
 10
-20.5168317051604
 20
1.7859375
 30
0.0
 11
-20.63750000000002
 21
1.7859375
 31
0.0
  0
LINE
  5
3F2
330
1F
100
AcDbEntity
  8
외형선
  6
Continuous
370
    15
100
AcDbLine
 10
-19.63750000000002
 20
1.7859375
 30
0.0
 11
-20.13762895696215
 21
1.7859375
 31
0.0
  0
LINE
  5
3F3
330
1F
100
AcDbEntity
  8
외형선
  6
Continuous
370
    15
100
AcDbLine
 10
-20.13762895696215
 20
-1.785937499999999
 30
0.0
 11
-19.63750000000002
 21
-1.785937499999999
 31
0.0
  0
LINE
  5
3F4
330
1F
100
AcDbEntity
  8
외형선
  6
Continuous
370
    15
100
AcDbLine
 10
-20.63750000000002
 20
-1.785937499999999
 30
0.0
 11
-20.5168317051604
 21
-1.785937499999999
 31
0.0
  0
LINE
  5
3F5
330
1F
100
AcDbEntity
  8
0
  6
Continuous
 62
     1
370
    25
100
AcDbLine
 10
-39.6875
 20
-0.7571644027892674
 30
0.0
 11
-39.6875
 21
-1.785937500000006
 31
0.0
  0
SPLINE
  5
3F6
330
1F
100
AcDbEntity
  8
0
  6
Continuous
 62
     1
370
    25
100
AcDbSpline
210
0.0
220
0.0
230
1.0
 70
     8
 71
     3
 72
    16
 73
    12
 74
     0
 42
0.000000001
 43
0.00000001
 40
0.0
 40
0.0
 40
0.0
 40
0.0
 40
0.1136971880073762
 40
0.2274239202496321
 40
0.3411944389489491
 40
0.4550227928209363
 40
0.5688623229989627
 40
0.6955775746193134
 40
0.8222926006478631
 40
0.949007397980334
 40
1.0
 40
1.0
 40
1.0
 40
1.0
 10
-20.6375000000001
 20
-0.5497502971974335
 30
0.0
 10
-20.92977665633492
 20
-0.3848643243293417
 30
0.0
 10
-21.51440591714652
 20
-0.0550495329432714
 30
0.0
 10
-22.39155447447692
 20
0.4558440484126229
 30
0.0
 10
-23.2690972273023
 20
0.9272108554218483
 30
0.0
 10
-24.1470526699099
 20
1.325446734575075
 30
0.0
 10
-25.05827858052584
 20
1.628040469007691
 30
0.0
 10
-26.00268270398212
 20
1.797163831771965
 30
0.0
 10
-26.9801815632448
 20
1.785241726924075
 30
0.0
 10
-27.76297098499927
 20
1.66043296727585
 30
0.0
 10
-28.21992576680515
 20
1.494530306077664
 30
0.0
 10
-28.35104756260296
 20
1.446925038050989
 30
0.0
  0
SPLINE
  5
3F7
330
1F
100
AcDbEntity
  8
0
  6
Continuous
 62
     1
370
    25
100
AcDbSpline
210
0.0
220
0.0
230
1.0
 70
     8
 71
     3
 72
    11
 73
     7
 74
     0
 42
0.000000001
 43
0.00000001
 40
0.0
 40
0.0
 40
0.0
 40
0.0
 40
0.1633309506156702
 40
0.4422212139290336
 40
0.7211108992993303
 40
1.0
 40
1.0
 40
1.0
 40
1.0
 10
-36.18262166959636
 20
-1.764347170919602
 30
0.0
 10
-36.37344018317526
 20
-1.76692226312301
 30
0.0
 10
-36.89008442235303
 20
-1.773894367282554
 30
0.0
 10
-37.73255326269984
 20
-1.586873184686673
 30
0.0
 10
-38.71002757807082
 20
-1.247512106718243
 30
0.0
 10
-39.36167608704525
 20
-0.9206135232127395
 30
0.0
 10
-39.68750000000003
 20
-0.7571644027892674
 30
0.0
  0
SPLINE
  5
3F8
330
1F
100
AcDbEntity
  8
외형선
  6
Continuous
370
    15
100
AcDbSpline
210
0.0
220
0.0
230
1.0
 70
    24
 71
     3
 72
    13
 73
     9
 74
     0
 42
0.000000001
 43
0.00000001
 40
0.0
 40
0.0
 40
0.0
 40
0.0
 40
0.1796178235320355
 40
0.3544495980842707
 40
0.5292813726365142
 40
0.7041131471887512
 40
0.8789449217408826
 40
1.0
 40
1.0
 40
1.0
 40
1.0
 10
-20.63749999999999
 20
-1.78457088765111
 30
0.0
 10
-20.63750000000002
 20
-1.66375439277365
 30
0.0
 10
-20.63750000000002
 20
-1.425340647360314
 30
0.0
 10
-20.63749999999999
 20
-1.058617044209284
 30
0.0
 10
-20.63750000000005
 20
-0.7380761151404933
 30
0.0
 10
-20.63749999999993
 20
-0.4984449175161025
 30
0.0
 10
-20.63750000000002
 20
-0.3623069978892552
 30
0.0
 10
-20.63750000000002
 20
-0.3641312145885103
 30
0.0
 10
-20.63750000000005
 20
-0.3648775495242902
 30
0.0
  0
SPLINE
  5
3F9
330
1F
100
AcDbEntity
  8
0
  6
Continuous
 62
     1
370
    25
100
AcDbSpline
210
0.0
220
0.0
230
1.0
 70
     8
 71
     3
 72
     9
 73
     5
 74
     0
 42
0.000000001
 43
0.00000001
 40
0.0
 40
0.0
 40
0.0
 40
0.0
 40
0.6039605586251272
 40
1.0
 40
1.0
 40
1.0
 40
1.0
 10
-39.6875
 20
-1.785937500000006
 30
0.0
 10
-39.3616760983731
 20
-1.750534328124704
 30
0.0
 10
-38.82219732451298
 20
-1.702790233297473
 30
0.0
 10
-38.28271821296363
 20
-1.520285307128403
 30
0.0
 10
-38.06906320699224
 20
-1.448006158120246
 30
0.0
  0
SPLINE
  5
3FA
330
1F
100
AcDbEntity
  8
0
  6
Continuous
 62
     1
370
    25
100
AcDbSpline
210
0.0
220
0.0
230
1.0
 70
     8
 71
     3
 72
    18
 73
    14
 74
     0
 42
0.000000001
 43
0.00000001
 40
0.0
 40
0.0
 40
0.0
 40
0.0
 40
0.0335456387463406
 40
0.1353918804788305
 40
0.2372383110060974
 40
0.3390849278391525
 40
0.440931728485951
 40
0.5427787104514513
 40
0.6342768721071546
 40
0.7257660508422954
 40
0.8172087447406633
 40
0.9086162454129143
 40
1.0
 40
1.0
 40
1.0
 40
1.0
 10
-30.23463719690855
 20
1.766295123433825
 30
0.0
 10
-30.12731631799312
 20
1.771734466962908
 30
0.0
 10
-29.694163867957
 20
1.793687930259335
 30
0.0
 10
-28.93517881970681
 20
1.650103060119765
 30
0.0
 10
-27.95768174230898
 20
1.347590858380276
 30
0.0
 10
-26.98018159057909
 20
0.8993242582838838
 30
0.0
 10
-26.00268269663178
 20
0.3653498001433213
 30
0.0
 10
-25.05827858227383
 20
-0.1865882297217276
 30
0.0
 10
-24.14705266946294
 20
-0.7000798655979203
 30
0.0
 10
-23.26909722742187
 20
-1.13981420982072
 30
0.0
 10
-22.39155447444503
 20
-1.485689983523037
 30
0.0
 10
-21.51440591715451
 20
-1.723054601589804
 30
0.0
 10
-20.92977665633754
 20
-1.764067234923199
 30
0.0
 10
-20.6375000000001
 20
-1.784570887650953
 30
0.0
  0
SPLINE
  5
3FB
330
1F
100
AcDbEntity
  8
0
  6
Continuous
 62
     1
370
    25
100
AcDbSpline
210
0.0
220
0.0
230
1.0
 70
     8
 71
     3
 72
    20
 73
    16
 74
     0
 42
0.000000001
 43
0.00000001
 40
0.0
 40
0.0
 40
0.0
 40
0.0
 40
0.0678056643190018
 40
0.1434271539862575
 40
0.2190870857909211
 40
0.2947544463119283
 40
0.3789800980945094
 40
0.4632055999297382
 40
0.5474309497542497
 40
0.6316561455071737
 40
0.7158811851301565
 40
0.8001060665673951
 40
0.8843307877656746
 40
0.9685553466743891
 40
1.0
 40
1.0
 40
1.0
 40
1.0
 10
-21.60468975133961
 20
-1.779334288889326
 30
0.0
 10
-21.86694025351409
 20
-1.770850577123507
 30
0.0
 10
-22.42167035661276
 20
-1.752905252849597
 30
0.0
 10
-23.26909806241062
 20
-1.552233862102262
 30
0.0
 10
-24.14705244643511
 20
-1.233368332149467
 30
0.0
 10
-25.05827864968032
 20
-0.7966787173653807
 30
0.0
 10
-26.00268267744107
 20
-0.2705985941721416
 30
0.0
 10
-26.98018159689954
 20
0.3008866610104668
 30
0.0
 10
-27.95768173621803
 20
0.842485524236072
 30
0.0
 10
-28.93517883775024
 20
1.300836680599688
 30
0.0
 10
-29.91267400393201
 20
1.629696510834113
 30
0.0
 10
-30.89016691097453
 20
1.799626549153839
 30
0.0
 10
-31.86765758014053
 20
1.782131191493502
 30
0.0
 10
-32.64096339111316
 20
1.655830490552579
 30
0.0
 10
-33.08843884399039
 20
1.491953552926621
 30
0.0
 10
-33.21008496066781
 20
1.447403638630743
 30
0.0
  0
SPLINE
  5
3FC
330
1F
100
AcDbEntity
  8
0
  6
Continuous
 62
     1
370
    25
100
AcDbSpline
210
0.0
220
0.0
230
1.0
 70
     8
 71
     3
 72
    20
 73
    16
 74
     0
 42
0.000000001
 43
0.00000001
 40
0.0
 40
0.0
 40
0.0
 40
0.0
 40
0.0252777770645304
 40
0.1095295511079578
 40
0.1937814915885917
 40
0.2780335964604882
 40
0.3622858636750271
 40
0.4465382911809338
 40
0.5307908769243198
 40
0.6150436188487083
 40
0.6992965148950765
 40
0.7835495630018733
 40
0.8678027611050687
 40
0.9434948689248912
 40
1.0
 40
1.0
 40
1.0
 40
1.0
 10
-35.09338764827714
 20
1.767267481148676
 30
0.0
 10
-34.99563062653323
 20
1.772613640626656
 30
0.0
 10
-34.57204580410504
 20
1.795778749104348
 30
0.0
 10
-33.82263214275935
 20
1.65649475655987
 30
0.0
 10
-32.84514602600569
 20
1.358921243599057
 30
0.0
 10
-31.8676575941559
 20
0.9138666882045825
 30
0.0
 10
-30.89016690783893
 20
0.3817665580408274
 30
0.0
 10
-29.91267400245906
 20
-0.1890746831906143
 30
0.0
 10
-28.93517884677777
 20
-0.7409190021264564
 30
0.0
 10
-27.95768170158084
 20
-1.219544468626743
 30
0.0
 10
-26.98018172642105
 20
-1.577036967002591
 30
0.0
 10
-26.00268219399106
 20
-1.779616340553143
 30
0.0
 10
-25.05828037647524
 20
-1.800503935293899
 30
0.0
 10
-24.22121830337534
 20
-1.688320989999251
 30
0.0
 10
-23.70999295734782
 20
-1.523711539538446
 30
0.0
 10
-23.49147965534789
 20
-1.453352440874652
 30
0.0
  0
LINE
  5
3FD
330
1F
100
AcDbEntity
  8
0
  6
Continuous
 62
     1
370
    25
100
AcDbLine
 10
-39.6875
 20
1.617490284686437
 30
0.0
 11
-39.6875
 21
-0.1530215346864552
 31
0.0
  0
SPLINE
  5
3FE
330
1F
100
AcDbEntity
  8
0
  6
Continuous
 62
     1
370
    25
100
AcDbSpline
210
0.0
220
0.0
230
1.0
 70
     8
 71
     3
 72
    11
 73
     7
 74
     0
 42
0.000000001
 43
0.00000001
 40
0.0
 40
0.0
 40
0.0
 40
0.0
 40
0.3072563801051346
 40
0.6145926008362443
 40
0.9220471505122467
 40
1.0
 40
1.0
 40
1.0
 40
1.0
 10
-20.6375000000001
 20
1.699219634019568
 30
0.0
 10
-20.92977637749345
 20
1.738417415305673
 30
0.0
 10
-21.51440508054978
 20
1.816823163428457
 30
0.0
 10
-22.39155782241531
 20
1.744501678001041
 30
0.0
 10
-23.05059951496594
 20
1.618122316534006
 30
0.0
 10
-23.41730871961198
 20
1.481072301080119
 30
0.0
 10
-23.49147965534794
 20
1.453352440874657
 30
0.0
  0
SPLINE
  5
3FF
330
1F
100
AcDbEntity
  8
0
  6
Continuous
 62
     1
370
    25
100
AcDbSpline
210
0.0
220
0.0
230
1.0
 70
     8
 71
     3
 72
    16
 73
    12
 74
     0
 42
0.000000001
 43
0.00000001
 40
0.0
 40
0.0
 40
0.0
 40
0.0
 40
0.0650123425627349
 40
0.1818866177268162
 40
0.2987606648478144
 40
0.4156344810876018
 40
0.5325080636118228
 40
0.6493814095899182
 40
0.7662545161951921
 40
0.8831273806048411
 40
1.0
 40
1.0
 40
1.0
 40
1.0
 10
-31.32392142081471
 20
-1.763973722260171
 30
0.0
 10
-31.50516701129555
 20
-1.767198435149435
 30
0.0
 10
-32.01224222395456
 20
-1.776220293114366
 30
0.0
 10
-32.84514601030926
 20
-1.595500050922563
 30
0.0
 10
-33.82263216362833
 20
-1.256471270392356
 30
0.0
 10
-34.80011598377968
 20
-0.784629471862796
 30
0.0
 10
-35.77759746416882
 20
-0.237534420013666
 30
0.0
 10
-36.75507657311462
 20
0.3345071166539426
 30
0.0
 10
-37.73255327386516
 20
0.8701792428352497
 30
0.0
 10
-38.71002757527953
 20
1.331217936399359
 30
0.0
 10
-39.36167608611481
 20
1.522066235273812
 30
0.0
 10
-39.68750000000003
 20
1.617490284686437
 30
0.0
  0
SPLINE
  5
400
330
1F
100
AcDbEntity
  8
외형선
  6
Continuous
370
    15
100
AcDbSpline
210
0.0
220
0.0
230
1.0
 70
    24
 71
     3
 72
    14
 73
    10
 74
     0
 42
0.000000001
 43
0.00000001
 40
0.0
 40
0.0
 40
0.0
 40
0.0
 40
0.1432333411632015
 40
0.2995817738192652
 40
0.455930206475323
 40
0.6122786391312864
 40
0.7686270717874448
 40
0.9249755044435054
 40
1.0
 40
1.0
 40
1.0
 40
1.0
 10
-20.63749999999999
 20
0.0122977570805538
 30
0.0
 10
-20.63749999999999
 20
0.0237778749778641
 30
0.0
 10
-20.63750000000002
 20
0.0477892822060972
 30
0.0
 10
-20.63750000000005
 20
0.2296959831783532
 30
0.0
 10
-20.63749999999993
 20
0.5019610970606407
 30
0.0
 10
-20.63750000000002
 20
0.8423482503733701
 30
0.0
 10
-20.63750000000005
 20
1.207580943642715
 30
0.0
 10
-20.63749999999996
 20
1.500873857965929
 30
0.0
 10
-20.63749999999999
 20
1.650652672812325
 30
0.0
 10
-20.63750000000002
 20
1.699219634019546
 30
0.0
  0
SPLINE
  5
401
330
1F
100
AcDbEntity
  8
0
  6
Continuous
 62
     1
370
    25
100
AcDbSpline
210
0.0
220
0.0
230
1.0
 70
     8
 71
     3
 72
    14
 73
    10
 74
     0
 42
0.000000001
 43
0.00000001
 40
0.0
 40
0.0
 40
0.0
 40
0.0
 40
0.1509047909125633
 40
0.3018098981854545
 40
0.4527153181789844
 40
0.603621047248384
 40
0.7545270817438319
 40
0.9054334180105555
 40
1.0
 40
1.0
 40
1.0
 40
1.0
 10
-39.6875
 20
-0.1530215346864552
 30
0.0
 10
-39.36167608610015
 20
-0.3389538898269493
 30
0.0
 10
-38.71002757523556
 20
-0.7108189899008821
 30
0.0
 10
-37.73255327404092
 20
-1.194270091611318
 30
0.0
 10
-36.75507657245547
 20
-1.560102565610211
 30
0.0
 10
-35.77759746662966
 20
-1.772772940639402
 30
0.0
 10
-34.80011597459529
 20
-1.80386868119746
 30
0.0
 10
-33.94427826657613
 20
-1.694562726572914
 30
0.0
 10
-33.41426756712721
 20
-1.516139741752397
 30
0.0
 10
-33.21008496066787
 20
-1.447403638630738
 30
0.0
  0
SPLINE
  5
402
330
1F
100
AcDbEntity
  8
0
  6
Continuous
 62
     1
370
    25
100
AcDbSpline
210
0.0
220
0.0
230
1.0
 70
     8
 71
     3
 72
    13
 73
     9
 74
     0
 42
0.000000001
 43
0.00000001
 40
0.0
 40
0.0
 40
0.0
 40
0.0
 40
0.074000402459491
 40
0.2593094919652217
 40
0.4446003885717684
 40
0.6297971405242333
 40
0.814922616457918
 40
0.9999999999999999
 40
0.9999999999999999
 40
0.9999999999999999
 40
0.9999999999999999
 10
-25.37586470826292
 20
1.765475506009427
 30
0.0
 10
-25.25896848567382
 20
1.771011919407354
 30
0.0
 10
-24.84934503654694
 20
1.790412415861579
 30
0.0
 10
-24.14705341097186
 20
1.66268251775809
 30
0.0
 10
-23.26909702892135
 20
1.408212422950829
 30
0.0
 10
-22.39155452734485
 20
1.03089203443836
 30
0.0
 10
-21.51440590393565
 20
0.5743926382008524
 30
0.0
 10
-20.92977665193166
 20
0.2380185961998087
 30
0.0
 10
-20.6375000000001
 20
0.0698534240744884
 30
0.0
  0
SPLINE
  5
403
330
1F
100
AcDbEntity
  8
0
  6
Continuous
 62
     1
370
    25
100
AcDbSpline
210
0.0
220
0.0
230
1.0
 70
     8
 71
     3
 72
    20
 73
    16
 74
     0
 42
0.000000001
 43
0.00000001
 40
0.0
 40
0.0
 40
0.0
 40
0.0
 40
0.044381080538058
 40
0.1286199827919809
 40
0.2128587309495253
 40
0.2970973229520061
 40
0.3813357567432895
 40
0.4655740302698302
 40
0.5498121414806924
 40
0.6340500883275952
 40
0.7182878687649348
 40
0.8025254807498252
 40
0.8867629222421176
 40
0.9710001912044471
 40
0.9999999999999999
 40
0.9999999999999999
 40
0.9999999999999999
 40
0.9999999999999999
 10
-26.46518906426991
 20
-1.763754736880226
 30
0.0
 10
-26.63685361279951
 20
-1.767569099383631
 30
0.0
 10
-27.13435144318555
 20
-1.778623432302136
 30
0.0
 10
-27.95768157643397
 20
-1.603090216222902
 30
0.0
 10
-28.9351788802872
 20
-1.268626245278362
 30
0.0
 10
-29.91267399356786
 20
-0.7997624421689864
 30
0.0
 10
-30.89016690989433
 20
-0.2540463997145779
 30
0.0
 10
-31.86765759482535
 20
0.3174707971257831
 30
0.0
 10
-32.84514602127243
 20
0.8573290033285701
 30
0.0
 10
-33.82263216102302
 20
1.312512619819352
 30
0.0
 10
-34.80011598323784
 20
1.637009883794708
 30
0.0
 10
-35.77759746894145
 20
1.801970518552378
 30
0.0
 10
-36.75507655456607
 20
1.778849914456065
 30
0.0
 10
-37.51889824878208
 20
1.651193986011802
 30
0.0
 10
-37.9568934387928
 20
1.489432881533695
 30
0.0
 10
-38.06906320699224
 20
1.448006158120251
 30
0.0
  0
SPLINE
  5
404
330
1F
100
AcDbEntity
  8
0
  6
Continuous
 62
     1
370
    25
100
AcDbSpline
210
0.0
220
0.0
230
1.0
 70
     8
 71
     3
 72
    19
 73
    15
 74
     0
 42
0.000000001
 43
0.00000001
 40
0.0
 40
0.0
 40
0.0
 40
0.0
 40
0.086223968165103
 40
0.1724481170921466
 40
0.2586724447014853
 40
0.3448969489105714
 40
0.4311216276339703
 40
0.5173464787834181
 40
0.6035715002678353
 40
0.6897966899933645
 40
0.7760220458634092
 40
0.8622475657786562
 40
0.9484732476371176
 40
0.9999999999999999
 40
0.9999999999999999
 40
0.9999999999999999
 40
0.9999999999999999
 10
-39.6875
 20
1.7859375
 30
0.0
 10
-39.36167608611606
 20
1.746011125476447
 30
0.0
 10
-38.71002757528336
 20
1.67929354988004
 30
0.0
 10
-37.73255327384967
 20
1.365695138613771
 30
0.0
 10
-36.75507657317254
 20
0.9294987080719401
 30
0.0
 10
-35.77759746395265
 20
0.3978630142317818
 30
0.0
 10
-34.80011598458623
 20
-0.1722753073434931
 30
0.0
 10
-33.82263216061818
 20
-0.7255634705848657
 30
0.0
 10
-32.84514602154314
 20
-1.207054825786794
 30
0.0
 10
-31.8676575941472
 20
-1.568565171368451
 30
0.0
 10
-30.89016691233621
 20
-1.776445297190139
 30
0.0
 10
-29.91267398447843
 20
-1.801996199891778
 30
0.0
 10
-29.0663006724856
 20
-1.690286255922888
 30
0.0
 10
-28.54575819368074
 20
-1.513174335896714
 30
0.0
 10
-28.35104756260296
 20
-1.446925038050991
 30
0.0
  0
LINE
  5
405
330
1F
100
AcDbEntity
  8
0
  6
Continuous
 62
     1
370
    25
100
AcDbLine
 10
-39.6875
 20
1.7859375
 30
0.0
 11
-39.6875
 21
1.617490284686437
 31
0.0
  0
LINE
  5
406
330
1F
100
AcDbEntity
  8
외형선
  6
Continuous
370
    15
100
AcDbLine
 10
-20.63750000000002
 20
1.7859375
 30
0.0
 11
-20.63750000000002
 21
1.699219634019546
 31
0.0
  0
LINE
  5
407
330
1F
100
AcDbEntity
  8
외형선
  6
Continuous
370
    15
100
AcDbLine
 10
-20.63749999999999
 20
0.0698534240744742
 30
0.0
 11
-20.63750000000002
 21
-0.5497502971974833
 31
0.0
  0
LINE
  5
408
330
1F
100
AcDbEntity
  8
0
  6
Continuous
 62
     1
370
    25
100
AcDbLine
 10
-39.6875
 20
-0.1530215346864552
 30
0.0
 11
-39.6875
 21
-0.7571644027892674
 31
0.0
  0
LINE
  5
409
330
1F
100
AcDbEntity
  8
외형선
  6
Continuous
370
    15
100
AcDbLine
 10
-20.63749999999999
 20
-1.78457088765111
 30
0.0
 11
-20.63750000000002
 21
-1.785937499999999
 31
0.0
  0
LINE
  5
40A
330
1F
100
AcDbEntity
  8
외형선
  6
Continuous
370
    15
100
AcDbLine
 10
-19.63750000000002
 20
0.0000000000000007
 30
0.0
 11
-19.63750000000002
 21
-1.785937499999999
 31
0.0
  0
LINE
  5
40B
330
1F
100
AcDbEntity
  8
외형선
  6
Continuous
370
    15
100
AcDbLine
 10
-19.63750000000002
 20
1.7859375
 30
0.0
 11
-19.63750000000002
 21
0.0000000000000007
 31
0.0
  0
LINE
  5
40C
330
1F
100
AcDbEntity
  8
외형선
  6
Continuous
370
    15
100
AcDbLine
 10
-17.41576350361913
 20
0.0000000000000007
 30
0.0
 11
-17.41576350361913
 21
-2.381250000000004
 31
0.0
  0
LINE
  5
40D
330
1F
100
AcDbEntity
  8
외형선
  6
Continuous
370
    15
100
AcDbLine
 10
-17.41576350361913
 20
2.381250000000013
 30
0.0
 11
-17.41576350361913
 21
0.0000000000000007
 31
0.0
  0
SPLINE
  5
40E
330
1F
100
AcDbEntity
  8
외형선
  6
Continuous
370
    15
100
AcDbSpline
210
0.0
220
0.0
230
1.0
 70
    24
 71
     3
 72
    14
 73
    10
 74
     0
 42
0.000000001
 43
0.00000001
 40
0.0
 40
0.0
 40
0.0
 40
0.0
 40
0.1109907974797241
 40
0.2671521273376859
 40
0.4233134571956472
 40
0.5794747870536138
 40
0.7356361169115754
 40
0.8917974467695347
 40
1.0
 40
1.0
 40
1.0
 40
1.0
 10
-20.63750000000002
 20
1.699219634019546
 30
0.0
 10
-20.63750000000002
 20
1.626092457296455
 30
0.0
 10
-20.63750000000002
 20
1.450077136464654
 30
0.0
 10
-20.63750000000005
 20
1.122653052146291
 30
0.0
 10
-20.63749999999996
 20
0.7601771339760226
 30
0.0
 10
-20.63750000000002
 20
0.431214820285178
 30
0.0
 10
-20.63749999999996
 20
0.1800013658227619
 30
0.0
 10
-20.63750000000002
 20
0.0305534017696345
 30
0.0
 10
-20.63750000000002
 20
0.0234116659725536
 30
0.0
 10
-20.63750000000002
 20
0.0204885963054202
 30
0.0
  0
SPLINE
  5
40F
330
1F
100
AcDbEntity
  8
외형선
  6
Continuous
370
    15
100
AcDbSpline
210
0.0
220
0.0
230
1.0
 70
     8
 71
     3
 72
     8
 73
     4
 74
     0
 42
0.000000001
 43
0.00000001
 40
0.0
 40
0.0
 40
0.0
 40
0.0
 40
1.0
 40
1.0
 40
1.0
 40
1.0
 10
-20.6375000000001
 20
1.699219634019568
 30
0.0
 10
-20.46945695837709
 20
1.669462133159226
 30
0.0
 10
-20.30399094349553
 20
1.632407959729026
 30
0.0
 10
-20.13762895696215
 20
1.588358638641844
 30
0.0
  0
SPLINE
  5
410
330
1F
100
AcDbEntity
  8
외형선
  6
Continuous
370
    15
100
AcDbSpline
210
0.0
220
0.0
230
1.0
 70
     8
 71
     3
 72
     8
 73
     4
 74
     0
 42
0.000000001
 43
0.00000001
 40
0.0
 40
0.0
 40
0.0
 40
0.0
 40
1.0
 40
1.0
 40
1.0
 40
1.0
 10
-20.6375000000001
 20
0.0698534240744742
 30
0.0
 10
-20.46945695837709
 20
-0.0267438310708699
 30
0.0
 10
-20.30399094349553
 20
-0.1231504131918009
 30
0.0
 10
-20.13762895696215
 20
-0.2187730042891183
 30
0.0
  0
LINE
  5
411
330
1F
100
AcDbEntity
  8
외형선
  6
Continuous
370
    15
100
AcDbLine
 10
-20.13762895696215
 20
1.588357304139799
 30
0.0
 11
-20.13762895696215
 21
-0.2187805086641277
 31
0.0
  0
LINE
  5
412
330
1F
100
AcDbEntity
  8
외형선
  6
Continuous
370
    15
100
AcDbLine
 10
-20.5168317051604
 20
1.781653916533767
 30
0.0
 11
-20.13762895696215
 21
1.772487271181544
 31
0.0
  0
LINE
  5
413
330
1F
100
AcDbEntity
  8
외형선
  6
Continuous
370
    15
100
AcDbLine
 10
-20.13762895696215
 20
1.7859375
 30
0.0
 11
-20.13762895696215
 21
1.772486344921998
 31
0.0
  0
SPLINE
  5
414
330
1F
100
AcDbEntity
  8
외형선
  6
Continuous
370
    15
100
AcDbSpline
210
0.0
220
0.0
230
1.0
 70
     8
 71
     3
 72
     8
 73
     4
 74
     0
 42
0.000000001
 43
0.00000001
 40
0.0
 40
0.0
 40
0.0
 40
0.0
 40
1.0
 40
1.0
 40
1.0
 40
1.0
 10
-20.6375000000001
 20
-1.784570887650953
 30
0.0
 10
-20.46945695837709
 20
-1.788351992158933
 30
0.0
 10
-20.30399094349553
 20
-1.784289692486563
 30
0.0
 10
-20.13762895696215
 20
-1.772487271181542
 30
0.0
  0
LINE
  5
415
330
1F
100
AcDbEntity
  8
외형선
  6
Continuous
370
    15
100
AcDbLine
 10
-20.13762895696215
 20
-0.8165132137889615
 30
0.0
 11
-20.13762895696215
 21
-1.785937499999999
 31
0.0
  0
SPLINE
  5
416
330
1F
100
AcDbEntity
  8
외형선
  6
Continuous
370
    15
100
AcDbSpline
210
0.0
220
0.0
230
1.0
 70
     8
 71
     3
 72
     8
 73
     4
 74
     0
 42
0.000000001
 43
0.00000001
 40
0.0
 40
0.0
 40
0.0
 40
0.0
 40
1.0
 40
1.0
 40
1.0
 40
1.0
 10
-20.6375000000001
 20
-0.5497502971974264
 30
0.0
 10
-20.46945695837709
 20
-0.641727563929279
 30
0.0
 10
-20.30399094349553
 20
-0.7308214446746704
 30
0.0
 10
-20.13762895696215
 20
-0.8165106177864694
 30
0.0
  0
SPLINE
  5
417
330
1F
100
AcDbEntity
  8
외형선
  6
Continuous
370
    15
100
AcDbSpline
210
0.0
220
0.0
230
1.0
 70
    24
 71
     3
 72
    13
 73
     9
 74
     0
 42
0.000000001
 43
0.00000001
 40
0.0
 40
0.0
 40
0.0
 40
0.0
 40
0.1568251161145338
 40
0.3325574114617892
 40
0.5082897068090391
 40
0.6840220021562864
 40
0.8597542975033686
 40
1.0
 40
1.0
 40
1.0
 40
1.0
 10
-20.63750000000005
 20
-0.3576340441319765
 30
0.0
 10
-20.63750000000002
 20
-0.3641880182383119
 30
0.0
 10
-20.63749999999996
 20
-0.3780861279135472
 30
0.0
 10
-20.63750000000002
 20
-0.5451877841043491
 30
0.0
 10
-20.63749999999999
 20
-0.8066284704244986
 30
0.0
 10
-20.63749999999999
 20
-1.139802764581815
 30
0.0
 10
-20.63750000000005
 20
-1.482308668621079
 30
0.0
 10
-20.63750000000002
 20
-1.691653800662233
 30
0.0
 10
-20.63750000000002
 20
-1.784570887635748
 30
0.0
  0
ENDSEC
  0
SECTION
  2
OBJECTS
  0
DICTIONARY
  5
C
330
0
100
AcDbDictionary
281
     1
  3
ACAD_GROUP
350
D
  3
ACAD_IMAGE_VARS
350
161
  3
ACAD_LAYOUT
350
1A
  3
ACAD_MLINESTYLE
350
17
  3
ACAD_PLOTSETTINGS
350
19
  3
ACAD_PLOTSTYLENAME
350
E
  3
ACAD_SCALELIST
350
47
  3
APPDATA
350
15F
  3
DWGPROPS
350
448
  0
DICTIONARY
  5
237
330
2
100
AcDbDictionary
280
     1
281
     1
  3
ACAD_LAYERSTATES
360
238
  0
DICTIONARY
  5
D
102
{ACAD_REACTORS
330
C
102
}
330
C
100
AcDbDictionary
281
     1
  0
RASTERVARIABLES
  5
161
102
{ACAD_REACTORS
330
C
102
}
330
C
100
AcDbRasterVariables
 90
        0
 70
     1
 71
     1
 72
     1
  0
DICTIONARY
  5
1A
102
{ACAD_REACTORS
330
C
102
}
330
C
100
AcDbDictionary
281
     1
  3
Layout1
350
1E
  3
Layout2
350
26
  3
Model
350
22
  0
DICTIONARY
  5
17
102
{ACAD_REACTORS
330
C
102
}
330
C
100
AcDbDictionary
281
     1
  3
Standard
350
18
  0
DICTIONARY
  5
19
102
{ACAD_REACTORS
330
C
102
}
330
C
100
AcDbDictionary
281
     1
  0
ACDBDICTIONARYWDFLT
  5
E
102
{ACAD_REACTORS
330
C
102
}
330
C
100
AcDbDictionary
281
     1
  3
Normal
350
F
100
AcDbDictionaryWithDefault
340
F
  0
DICTIONARY
  5
47
102
{ACAD_REACTORS
330
C
102
}
330
C
100
AcDbDictionary
281
     1
  3
A0
350
48
  3
A1
350
49
  3
A2
350
4A
  3
A3
350
4B
  3
A4
350
4C
  3
A5
350
4D
  3
A6
350
4E
  3
A7
350
4F
  3
A8
350
50
  3
A9
350
51
  3
B0
350
52
  3
B1
350
53
  3
B2
350
54
  3
B3
350
55
  3
B4
350
56
  3
B5
350
57
  3
B6
350
58
  3
B7
350
59
  3
B8
350
5A
  3
B9
350
5B
  3
C0
350
5C
  3
C1
350
5D
  3
C2
350
5E
  3
C3
350
5F
  3
C4
350
60
  3
C5
350
61
  3
C6
350
62
  3
C7
350
63
  3
C8
350
64
  3
C9
350
65
  3
D0
350
66
  3
D1
350
67
  3
D2
350
68
  0
DICTIONARY
  5
15F
102
{ACAD_REACTORS
330
C
102
}
330
C
100
AcDbDictionary
281
     1
  0
XRECORD
  5
448
102
{ACAD_REACTORS
330
C
102
}
330
C
100
AcDbXrecord
280
     1
  1
DWGPROPS COOKIE
  2

  3

  4

  6

  7

  8
12017012
  9

300
=
301
=
302
=
303
=
304
=
305
=
306
=
307
=
308
=
309
=
 40
0.0
 41
2458313.105978877
 42
2458320.016520845
  1

 90
        0
  0
DICTIONARY
  5
238
102
{ACAD_REACTORS
330
237
102
}
330
237
100
AcDbDictionary
281
     1
  0
LAYOUT
  5
1E
102
{ACAD_REACTORS
330
1A
102
}
330
1A
100
AcDbPlotSettings
  1

  2
none_device
  4

  6

 40
0.0
 41
0.0
 42
0.0
 43
0.0
 44
0.0
 45
0.0
 46
0.0
 47
0.0
 48
0.0
 49
0.0
140
0.0
141
0.0
142
1.0
143
1.0
 70
   688
 72
     1
 73
     0
 74
     5
  7

 75
    16
147
1.0
148
0.0
149
0.0
100
AcDbLayout
  1
Layout1
 70
     1
 71
     1
 10
0.0
 20
0.0
 11
420.0
 21
297.0
 12
0.0
 22
0.0
 32
0.0
 14
1.000000000000000E+20
 24
1.000000000000000E+20
 34
1.000000000000000E+20
 15
-1.000000000000000E+20
 25
-1.000000000000000E+20
 35
-1.000000000000000E+20
146
0.0
 13
0.0
 23
0.0
 33
0.0
 16
1.0
 26
0.0
 36
0.0
 17
0.0
 27
1.0
 37
0.0
 76
     0
330
1B
  0
LAYOUT
  5
26
102
{ACAD_REACTORS
330
1A
102
}
330
1A
100
AcDbPlotSettings
  1

  2
none_device
  4

  6

 40
0.0
 41
0.0
 42
0.0
 43
0.0
 44
0.0
 45
0.0
 46
0.0
 47
0.0
 48
0.0
 49
0.0
140
0.0
141
0.0
142
1.0
143
1.0
 70
   688
 72
     1
 73
     0
 74
     5
  7

 75
    16
147
1.0
148
0.0
149
0.0
100
AcDbLayout
  1
Layout2
 70
     1
 71
     2
 10
0.0
 20
0.0
 11
0.0
 21
0.0
 12
0.0
 22
0.0
 32
0.0
 14
0.0
 24
0.0
 34
0.0
 15
0.0
 25
0.0
 35
0.0
146
0.0
 13
0.0
 23
0.0
 33
0.0
 16
1.0
 26
0.0
 36
0.0
 17
0.0
 27
1.0
 37
0.0
 76
     0
330
23
  0
LAYOUT
  5
22
102
{ACAD_REACTORS
330
1A
102
}
330
1A
100
AcDbPlotSettings
  1

  2
none_device
  4
ANSI_A_(11.00_x_8.50_Inches)
  6

 40
6.35
 41
19.05
 42
6.35000508
 43
19.05000254
 44
279.4
 45
215.9
 46
80.64712955124685
 47
82.50974732963532
 48
0.0
 49
0.0
140
0.0
141
0.0
142
0.0532508079732997
143
1.0
 70
  1696
 72
     0
 73
     0
 74
     0
  7

 75
     0
147
0.0235690232323232
148
0.0
149
0.0
100
AcDbLayout
  1
Model
 70
     1
 71
     0
 10
0.0
 20
0.0
 11
420.0
 21
297.0
 12
0.0
 22
0.0
 32
0.0
 14
1.000000000000000E+20
 24
1.000000000000000E+20
 34
1.000000000000000E+20
 15
-1.000000000000000E+20
 25
-1.000000000000000E+20
 35
-1.000000000000000E+20
146
0.0
 13
0.0
 23
0.0
 33
0.0
 16
1.0
 26
0.0
 36
0.0
 17
0.0
 27
1.0
 37
0.0
 76
     0
330
1F
331
29
  0
MLINESTYLE
  5
18
102
{ACAD_REACTORS
330
17
102
}
330
17
100
AcDbMlineStyle
  2
Standard
 70
     0
  3

 62
   256
 51
90.0
 52
90.0
 71
     2
 49
0.5
 62
   256
  6
BYLAYER
 49
-0.5
 62
   256
  6
BYLAYER
  0
ACDBPLACEHOLDER
  5
F
102
{ACAD_REACTORS
330
E
102
}
330
E
  0
SCALE
  5
48
102
{ACAD_REACTORS
330
47
102
}
330
47
100
AcDbScale
 70
     0
300
1:1
140
1.0
141
1.0
290
     1
  0
SCALE
  5
49
102
{ACAD_REACTORS
330
47
102
}
330
47
100
AcDbScale
 70
     0
300
1:2
140
1.0
141
2.0
290
     0
  0
SCALE
  5
4A
102
{ACAD_REACTORS
330
47
102
}
330
47
100
AcDbScale
 70
     0
300
1:4
140
1.0
141
4.0
290
     0
  0
SCALE
  5
4B
102
{ACAD_REACTORS
330
47
102
}
330
47
100
AcDbScale
 70
     0
300
1:5
140
1.0
141
5.0
290
     0
  0
SCALE
  5
4C
102
{ACAD_REACTORS
330
47
102
}
330
47
100
AcDbScale
 70
     0
300
1:8
140
1.0
141
8.0
290
     0
  0
SCALE
  5
4D
102
{ACAD_REACTORS
330
47
102
}
330
47
100
AcDbScale
 70
     0
300
1:10
140
1.0
141
10.0
290
     0
  0
SCALE
  5
4E
102
{ACAD_REACTORS
330
47
102
}
330
47
100
AcDbScale
 70
     0
300
1:16
140
1.0
141
16.0
290
     0
  0
SCALE
  5
4F
102
{ACAD_REACTORS
330
47
102
}
330
47
100
AcDbScale
 70
     0
300
1:20
140
1.0
141
20.0
290
     0
  0
SCALE
  5
50
102
{ACAD_REACTORS
330
47
102
}
330
47
100
AcDbScale
 70
     0
300
1:30
140
1.0
141
30.0
290
     0
  0
SCALE
  5
51
102
{ACAD_REACTORS
330
47
102
}
330
47
100
AcDbScale
 70
     0
300
1:40
140
1.0
141
40.0
290
     0
  0
SCALE
  5
52
102
{ACAD_REACTORS
330
47
102
}
330
47
100
AcDbScale
 70
     0
300
1:50
140
1.0
141
50.0
290
     0
  0
SCALE
  5
53
102
{ACAD_REACTORS
330
47
102
}
330
47
100
AcDbScale
 70
     0
300
1:100
140
1.0
141
100.0
290
     0
  0
SCALE
  5
54
102
{ACAD_REACTORS
330
47
102
}
330
47
100
AcDbScale
 70
     0
300
2:1
140
2.0
141
1.0
290
     0
  0
SCALE
  5
55
102
{ACAD_REACTORS
330
47
102
}
330
47
100
AcDbScale
 70
     0
300
4:1
140
4.0
141
1.0
290
     0
  0
SCALE
  5
56
102
{ACAD_REACTORS
330
47
102
}
330
47
100
AcDbScale
 70
     0
300
8:1
140
8.0
141
1.0
290
     0
  0
SCALE
  5
57
102
{ACAD_REACTORS
330
47
102
}
330
47
100
AcDbScale
 70
     0
300
10:1
140
10.0
141
1.0
290
     0
  0
SCALE
  5
58
102
{ACAD_REACTORS
330
47
102
}
330
47
100
AcDbScale
 70
     0
300
100:1
140
100.0
141
1.0
290
     0
  0
SCALE
  5
59
102
{ACAD_REACTORS
330
47
102
}
330
47
100
AcDbScale
 70
     0
300
1/128" = 1'-0"
140
0.0078125
141
12.0
290
     0
  0
SCALE
  5
5A
102
{ACAD_REACTORS
330
47
102
}
330
47
100
AcDbScale
 70
     0
300
1/64" = 1'-0"
140
0.015625
141
12.0
290
     0
  0
SCALE
  5
5B
102
{ACAD_REACTORS
330
47
102
}
330
47
100
AcDbScale
 70
     0
300
1/32" = 1'-0"
140
0.03125
141
12.0
290
     0
  0
SCALE
  5
5C
102
{ACAD_REACTORS
330
47
102
}
330
47
100
AcDbScale
 70
     0
300
1/16" = 1'-0"
140
0.0625
141
12.0
290
     0
  0
SCALE
  5
5D
102
{ACAD_REACTORS
330
47
102
}
330
47
100
AcDbScale
 70
     0
300
3/32" = 1'-0"
140
0.09375
141
12.0
290
     0
  0
SCALE
  5
5E
102
{ACAD_REACTORS
330
47
102
}
330
47
100
AcDbScale
 70
     0
300
1/8" = 1'-0"
140
0.125
141
12.0
290
     0
  0
SCALE
  5
5F
102
{ACAD_REACTORS
330
47
102
}
330
47
100
AcDbScale
 70
     0
300
3/16" = 1'-0"
140
0.1875
141
12.0
290
     0
  0
SCALE
  5
60
102
{ACAD_REACTORS
330
47
102
}
330
47
100
AcDbScale
 70
     0
300
1/4" = 1'-0"
140
0.25
141
12.0
290
     0
  0
SCALE
  5
61
102
{ACAD_REACTORS
330
47
102
}
330
47
100
AcDbScale
 70
     0
300
3/8" = 1'-0"
140
0.375
141
12.0
290
     0
  0
SCALE
  5
62
102
{ACAD_REACTORS
330
47
102
}
330
47
100
AcDbScale
 70
     0
300
1/2" = 1'-0"
140
0.5
141
12.0
290
     0
  0
SCALE
  5
63
102
{ACAD_REACTORS
330
47
102
}
330
47
100
AcDbScale
 70
     0
300
3/4" = 1'-0"
140
0.75
141
12.0
290
     0
  0
SCALE
  5
64
102
{ACAD_REACTORS
330
47
102
}
330
47
100
AcDbScale
 70
     0
300
1" = 1'-0"
140
1.0
141
12.0
290
     0
  0
SCALE
  5
65
102
{ACAD_REACTORS
330
47
102
}
330
47
100
AcDbScale
 70
     0
300
1-1/2" = 1'-0"
140
1.5
141
12.0
290
     0
  0
SCALE
  5
66
102
{ACAD_REACTORS
330
47
102
}
330
47
100
AcDbScale
 70
     0
300
3" = 1'-0"
140
3.0
141
12.0
290
     0
  0
SCALE
  5
67
102
{ACAD_REACTORS
330
47
102
}
330
47
100
AcDbScale
 70
     0
300
6" = 1'-0"
140
6.0
141
12.0
290
     0
  0
SCALE
  5
68
102
{ACAD_REACTORS
330
47
102
}
330
47
100
AcDbScale
 70
     0
300
1'-0" = 1'-0"
140
12.0
141
12.0
290
     0
  0
ENDSEC
  0
EOF
