  0
SECTION
  2
HEADER
  9
$ACADVER
  1
AC1015
  9
$ACADMAINTVER
 70
     6
  9
$DWGCODEPAGE
  3
ANSI_949
  9
$INSBASE
 10
0.0
 20
0.0
 30
0.0
  9
$EXTMIN
 10
-39.77500000000012
 20
-49.97180738881174
 30
0.0
  9
$EXTMAX
 10
91.94160881534557
 20
40.25149628173261
 30
0.0
  9
$LIMMIN
 10
0.0
 20
0.0
  9
$LIMMAX
 10
420.0
 20
297.0
  9
$ORTHOMODE
 70
     1
  9
$REGENMODE
 70
     1
  9
$FILLMODE
 70
     1
  9
$QTEXTMODE
 70
     0
  9
$MIRRTEXT
 70
     1
  9
$LTSCALE
 40
1.0
  9
$ATTMODE
 70
     1
  9
$TEXTSIZE
 40
3.5
  9
$TRACEWID
 40
1.0
  9
$TEXTSTYLE
  7
Standard
  9
$CLAYER
  8
0
  9
$CELTYPE
  6
ByLayer
  9
$CECOLOR
 62
   256
  9
$CELTSCALE
 40
1.0
  9
$DISPSILH
 70
     0
  9
$DIMSCALE
 40
1.0
  9
$DIMASZ
 40
3.302
  9
$DIMEXO
 40
1.0
  9
$DIMDLI
 40
3.75
  9
$DIMRND
 40
0.0
  9
$DIMDLE
 40
0.0
  9
$DIMEXE
 40
1.0
  9
$DIMTP
 40
0.0
  9
$DIMTM
 40
0.0
  9
$DIMTXT
 40
3.5
  9
$DIMCEN
 40
2.5
  9
$DIMTSZ
 40
0.0
  9
$DIMTOL
 70
     0
  9
$DIMLIM
 70
     0
  9
$DIMTIH
 70
     1
  9
$DIMTOH
 70
     1
  9
$DIMSE1
 70
     0
  9
$DIMSE2
 70
     0
  9
$DIMTAD
 70
     1
  9
$DIMZIN
 70
     0
  9
$DIMBLK
  1

  9
$DIMASO
 70
     1
  9
$DIMSHO
 70
     1
  9
$DIMPOST
  1

  9
$DIMAPOST
  1

  9
$DIMALT
 70
     0
  9
$DIMALTD
 70
     3
  9
$DIMALTF
 40
0.0393700787401575
  9
$DIMLFAC
 40
1.0
  9
$DIMTOFL
 70
     1
  9
$DIMTVP
 40
0.0
  9
$DIMTIX
 70
     0
  9
$DIMSOXD
 70
     0
  9
$DIMSAH
 70
     0
  9
$DIMBLK1
  1

  9
$DIMBLK2
  1

  9
$DIMSTYLE
  2
ISO-25
  9
$DIMCLRD
 70
     0
  9
$DIMCLRE
 70
     0
  9
$DIMCLRT
 70
     0
  9
$DIMTFAC
 40
1.0
  9
$DIMGAP
 40
1.524
  9
$DIMJUST
 70
     0
  9
$DIMSD1
 70
     0
  9
$DIMSD2
 70
     0
  9
$DIMTOLJ
 70
     0
  9
$DIMTZIN
 70
     0
  9
$DIMALTZ
 70
     0
  9
$DIMALTTZ
 70
     0
  9
$DIMUPT
 70
     0
  9
$DIMDEC
 70
     2
  9
$DIMTDEC
 70
     2
  9
$DIMALTU
 70
     2
  9
$DIMALTTD
 70
     3
  9
$DIMTXSTY
  7
Standard
  9
$DIMAUNIT
 70
     0
  9
$DIMADEC
 70
     2
  9
$DIMALTRND
 40
0.0
  9
$DIMAZIN
 70
     0
  9
$DIMDSEP
 70
    44
  9
$DIMATFIT
 70
     3
  9
$DIMFRAC
 70
     0
  9
$DIMLDRBLK
  1

  9
$DIMLUNIT
 70
     2
  9
$DIMLWD
 70
    -2
  9
$DIMLWE
 70
    -2
  9
$DIMTMOVE
 70
     0
  9
$LUNITS
 70
     2
  9
$LUPREC
 70
     2
  9
$SKETCHINC
 40
1.0
  9
$FILLETRAD
 40
10.0
  9
$AUNITS
 70
     0
  9
$AUPREC
 70
     2
  9
$MENU
  1
.
  9
$ELEVATION
 40
0.0
  9
$PELEVATION
 40
0.0
  9
$THICKNESS
 40
0.0
  9
$LIMCHECK
 70
     0
  9
$CHAMFERA
 40
0.0
  9
$CHAMFERB
 40
0.0
  9
$CHAMFERC
 40
0.0
  9
$CHAMFERD
 40
0.0
  9
$SKPOLY
 70
     0
  9
$TDCREATE
 40
2458319.737323137
  9
$TDUCREATE
 40
2458319.362323137
  9
$TDUPDATE
 40
2458324.493921829
  9
$TDUUPDATE
 40
2458324.118921829
  9
$TDINDWG
 40
0.0030291898
  9
$TDUSRTIMER
 40
2458324.118857048
  9
$USRTIMER
 70
     1
  9
$ANGBASE
 50
0.0
  9
$ANGDIR
 70
     0
  9
$PDMODE
 70
     0
  9
$PDSIZE
 40
-1.0
  9
$PLINEWID
 40
0.0
  9
$SPLFRAME
 70
     0
  9
$SPLINETYPE
 70
     6
  9
$SPLINESEGS
 70
     8
  9
$HANDSEED
  5
237
  9
$SURFTAB1
 70
     6
  9
$SURFTAB2
 70
     6
  9
$SURFTYPE
 70
     6
  9
$SURFU
 70
     6
  9
$SURFV
 70
     6
  9
$UCSBASE
  2

  9
$UCSNAME
  2

  9
$UCSORG
 10
0.0
 20
0.0
 30
0.0
  9
$UCSXDIR
 10
1.0
 20
0.0
 30
0.0
  9
$UCSYDIR
 10
0.0
 20
1.0
 30
0.0
  9
$UCSORTHOREF
  2

  9
$UCSORTHOVIEW
 70
     0
  9
$UCSORGTOP
 10
0.0
 20
0.0
 30
0.0
  9
$UCSORGBOTTOM
 10
0.0
 20
0.0
 30
0.0
  9
$UCSORGLEFT
 10
0.0
 20
0.0
 30
0.0
  9
$UCSORGRIGHT
 10
0.0
 20
0.0
 30
0.0
  9
$UCSORGFRONT
 10
0.0
 20
0.0
 30
0.0
  9
$UCSORGBACK
 10
0.0
 20
0.0
 30
0.0
  9
$PUCSBASE
  2

  9
$PUCSNAME
  2

  9
$PUCSORG
 10
0.0
 20
0.0
 30
0.0
  9
$PUCSXDIR
 10
1.0
 20
0.0
 30
0.0
  9
$PUCSYDIR
 10
0.0
 20
1.0
 30
0.0
  9
$PUCSORTHOREF
  2

  9
$PUCSORTHOVIEW
 70
     0
  9
$PUCSORGTOP
 10
0.0
 20
0.0
 30
0.0
  9
$PUCSORGBOTTOM
 10
0.0
 20
0.0
 30
0.0
  9
$PUCSORGLEFT
 10
0.0
 20
0.0
 30
0.0
  9
$PUCSORGRIGHT
 10
0.0
 20
0.0
 30
0.0
  9
$PUCSORGFRONT
 10
0.0
 20
0.0
 30
0.0
  9
$PUCSORGBACK
 10
0.0
 20
0.0
 30
0.0
  9
$USERI1
 70
     0
  9
$USERI2
 70
     0
  9
$USERI3
 70
     0
  9
$USERI4
 70
     0
  9
$USERI5
 70
     0
  9
$USERR1
 40
0.0
  9
$USERR2
 40
0.0
  9
$USERR3
 40
0.0
  9
$USERR4
 40
0.0
  9
$USERR5
 40
0.0
  9
$WORLDVIEW
 70
     1
  9
$SHADEDGE
 70
     3
  9
$SHADEDIF
 70
    70
  9
$TILEMODE
 70
     1
  9
$MAXACTVP
 70
    64
  9
$PINSBASE
 10
0.0
 20
0.0
 30
0.0
  9
$PLIMCHECK
 70
     0
  9
$PEXTMIN
 10
1.000000000000000E+20
 20
1.000000000000000E+20
 30
1.000000000000000E+20
  9
$PEXTMAX
 10
-1.000000000000000E+20
 20
-1.000000000000000E+20
 30
-1.000000000000000E+20
  9
$PLIMMIN
 10
0.0
 20
0.0
  9
$PLIMMAX
 10
0.0
 20
0.0
  9
$UNITMODE
 70
     0
  9
$VISRETAIN
 70
     1
  9
$PLINEGEN
 70
     0
  9
$PSLTSCALE
 70
     1
  9
$TREEDEPTH
 70
  3020
  9
$CMLSTYLE
  2
Standard
  9
$CMLJUST
 70
     0
  9
$CMLSCALE
 40
20.0
  9
$PROXYGRAPHICS
 70
     1
  9
$MEASUREMENT
 70
     1
  9
$CELWEIGHT
370
    -1
  9
$ENDCAPS
280
     0
  9
$JOINSTYLE
280
     0
  9
$LWDISPLAY
290
     1
  9
$INSUNITS
 70
     4
  9
$HYPERLINKBASE
  1

  9
$STYLESHEET
  1

  9
$XEDIT
290
     1
  9
$CEPSNTYPE
380
     0
  9
$PSTYLEMODE
290
     1
  9
$FINGERPRINTGUID
  2
{D0894849-15A3-42FD-859E-25E623842747}
  9
$VERSIONGUID
  2
{FAEB1C32-E019-11D5-929B-00C0DF256EC4}
  9
$EXTNAMES
290
     1
  9
$PSVPSCALE
 40
0.0
  9
$OLESTARTUP
290
     0
  0
ENDSEC
  0
SECTION
  2
CLASSES
  0
CLASS
  1
ACDBDICTIONARYWDFLT
  2
AcDbDictionaryWithDefault
  3
ObjectDBX Classes
 90
        0
280
     0
281
     0
  0
CLASS
  1
VISUALSTYLE
  2
AcDbVisualStyle
  3
ObjectDBX Classes
 90
     4095
280
     0
281
     0
  0
CLASS
  1
MATERIAL
  2
AcDbMaterial
  3
ObjectDBX Classes
 90
     1153
280
     0
281
     0
  0
CLASS
  1
SCALE
  2
AcDbScale
  3
ObjectDBX Classes
 90
     1153
280
     0
281
     0
  0
CLASS
  1
SUN
  2
AcDbSun
  3
SCENEOE
 90
     1153
280
     0
281
     0
  0
CLASS
  1
ACDBPLACEHOLDER
  2
AcDbPlaceHolder
  3
ObjectDBX Classes
 90
        0
280
     0
281
     0
  0
CLASS
  1
LAYOUT
  2
AcDbLayout
  3
ObjectDBX Classes
 90
        0
280
     0
281
     0
  0
CLASS
  1
TABLESTYLE
  2
AcDbTableStyle
  3
ObjectDBX Classes
 90
     4095
280
     0
281
     0
  0
CLASS
  1
MLEADERSTYLE
  2
AcDbMLeaderStyle
  3
ACDB_MLEADERSTYLE_CLASS
 90
     4095
280
     0
281
     0
  0
CLASS
  1
RASTERVARIABLES
  2
AcDbRasterVariables
  3
ISM
 90
        0
280
     0
281
     0
  0
ENDSEC
  0
SECTION
  2
TABLES
  0
TABLE
  2
VPORT
  5
8
330
0
100
AcDbSymbolTable
 70
     1
  0
VPORT
  5
29
330
8
100
AcDbSymbolTableRecord
100
AcDbViewportTableRecord
  2
*Active
 70
     0
 10
0.0
 20
0.0
 11
1.0
 21
1.0
 12
26.08330440767273
 22
-4.86015555353957
 13
0.0
 23
0.0
 14
10.0
 24
10.0
 15
10.0
 25
10.0
 16
0.0
 26
0.0
 36
1.0
 17
0.0
 27
0.0
 37
0.0
 40
92.02776974395523
 41
1.782762691853601
 42
50.0
 43
0.0
 44
0.0
 50
0.0
 51
0.0
 71
    16
 72
  2000
 73
     1
 74
     3
 75
     0
 76
     0
 77
     0
 78
     0
281
     0
 65
     1
110
0.0
120
0.0
130
0.0
111
1.0
121
0.0
131
0.0
112
0.0
122
1.0
132
0.0
 79
     0
146
0.0
  0
ENDTAB
  0
TABLE
  2
LTYPE
  5
5
330
0
100
AcDbSymbolTable
 70
     6
  0
LTYPE
  5
14
330
5
100
AcDbSymbolTableRecord
100
AcDbLinetypeTableRecord
  2
ByBlock
 70
     0
  3

 72
    65
 73
     0
 40
0.0
  0
LTYPE
  5
15
330
5
100
AcDbSymbolTableRecord
100
AcDbLinetypeTableRecord
  2
ByLayer
 70
     0
  3

 72
    65
 73
     0
 40
0.0
  0
LTYPE
  5
16
330
5
100
AcDbSymbolTableRecord
100
AcDbLinetypeTableRecord
  2
Continuous
 70
     0
  3
Solid line
 72
    65
 73
     0
 40
0.0
  0
LTYPE
  5
6A
330
5
100
AcDbSymbolTableRecord
100
AcDbLinetypeTableRecord
  2
HIDDEN
 70
     0
  3
Hidden __ __ __ __ __ __ __ __ __ __ __ __ __ __
 72
    65
 73
     2
 40
1.905
 49
1.27
 74
     0
 49
-0.635
 74
     0
  0
LTYPE
  5
6B
330
5
100
AcDbSymbolTableRecord
100
AcDbLinetypeTableRecord
  2
PHANTOM
 70
     0
  3
Phantom ______  __  __  ______  __  __  ______
 72
    65
 73
     6
 40
12.7
 49
6.35
 74
     0
 49
-1.27
 74
     0
 49
1.27
 74
     0
 49
-1.27
 74
     0
 49
1.27
 74
     0
 49
-1.27
 74
     0
  0
LTYPE
  5
6C
330
5
100
AcDbSymbolTableRecord
100
AcDbLinetypeTableRecord
  2
CENTER
 70
     0
  3
Center ____ _ ____ _ ____ _ ____ _ ____ _ ____
 72
    65
 73
     4
 40
10.16
 49
6.35
 74
     0
 49
-1.27
 74
     0
 49
1.27
 74
     0
 49
-1.27
 74
     0
  0
LTYPE
  5
6D
330
5
100
AcDbSymbolTableRecord
100
AcDbLinetypeTableRecord
  2
CENTERX2
 70
     0
  3
Center (2x) ________  __  ________  __  _____
 72
    65
 73
     4
 40
20.32
 49
12.7
 74
     0
 49
-2.54
 74
     0
 49
2.54
 74
     0
 49
-2.54
 74
     0
  0
LTYPE
  5
6E
330
5
100
AcDbSymbolTableRecord
100
AcDbLinetypeTableRecord
  2
DOT2
 70
     0
  3
Dot (.5x) ........................................
 72
    65
 73
     2
 40
0.635
 49
0.0
 74
     0
 49
-0.635
 74
     0
  0
ENDTAB
  0
TABLE
  2
LAYER
  5
2
102
{ACAD_XDICTIONARY
360
182
102
}
330
0
100
AcDbSymbolTable
 70
    18
  0
LAYER
  5
10
330
2
100
AcDbSymbolTableRecord
100
AcDbLayerTableRecord
  2
0
 70
     0
 62
     7
  6
Continuous
370
    -3
390
F
  0
LAYER
  5
6F
330
2
100
AcDbSymbolTableRecord
100
AcDbLayerTableRecord
  2
FORMAT
 70
     0
 62
     2
  6
Continuous
370
    -3
390
F
  0
LAYER
  5
70
330
2
100
AcDbSymbolTableRecord
100
AcDbLayerTableRecord
  2
외형선
 70
     0
 62
     4
  6
Continuous
370
    30
390
F
  0
LAYER
  5
71
330
2
100
AcDbSymbolTableRecord
100
AcDbLayerTableRecord
  2
숨은선
 70
     0
 62
     2
  6
HIDDEN
370
    15
390
F
  0
LAYER
  5
72
330
2
100
AcDbSymbolTableRecord
100
AcDbLayerTableRecord
  2
중심선
 70
     0
 62
     1
  6
CENTERX2
370
    -3
390
F
  0
LAYER
  5
73
330
2
100
AcDbSymbolTableRecord
100
AcDbLayerTableRecord
  2
파단선
 70
     0
 62
     4
  6
Continuous
370
    -3
390
F
  0
LAYER
  5
74
330
2
100
AcDbSymbolTableRecord
100
AcDbLayerTableRecord
  2
해칭선
 70
     0
 62
   100
  6
Continuous
370
    -3
390
F
  0
LAYER
  5
75
330
2
100
AcDbSymbolTableRecord
100
AcDbLayerTableRecord
  2
가는실선
 70
     0
 62
     4
  6
Continuous
370
    -3
390
F
  0
LAYER
  5
76
330
2
100
AcDbSymbolTableRecord
100
AcDbLayerTableRecord
  2
치수_보조선
 70
     0
 62
     4
  6
Continuous
370
    -3
390
F
  0
LAYER
  5
77
330
2
100
AcDbSymbolTableRecord
100
AcDbLayerTableRecord
  2
치수문자_일반주서
 70
     0
 62
     7
  6
Continuous
370
    15
390
F
  0
LAYER
  5
78
330
2
100
AcDbSymbolTableRecord
100
AcDbLayerTableRecord
  2
개별주서
 70
     0
 62
   100
  6
Continuous
370
    30
390
F
  0
LAYER
  5
79
330
2
100
AcDbSymbolTableRecord
100
AcDbLayerTableRecord
  2
중간선
 70
     0
 62
     2
  6
Continuous
370
    15
390
F
  0
LAYER
  5
7A
330
2
100
AcDbSymbolTableRecord
100
AcDbLayerTableRecord
  2
윤곽선
 70
     0
 62
     3
  6
Continuous
370
    40
390
F
  0
LAYER
  5
7B
330
2
100
AcDbSymbolTableRecord
100
AcDbLayerTableRecord
  2
중심마크
 70
     0
 62
   100
  6
Continuous
370
    30
390
F
  0
LAYER
  5
7C
330
2
100
AcDbSymbolTableRecord
100
AcDbLayerTableRecord
  2
가상선
 70
     0
 62
     4
  6
PHANTOM
370
    -3
390
F
  0
LAYER
  5
7D
330
2
100
AcDbSymbolTableRecord
100
AcDbLayerTableRecord
  2
특수지정선
 70
     0
 62
     5
  6
CENTERX2
370
    60
390
F
  0
LAYER
  5
7E
330
2
100
AcDbSymbolTableRecord
100
AcDbLayerTableRecord
  2
참조1
 70
     0
 62
    -4
  6
Continuous
370
    -3
390
F
  0
LAYER
  5
14B
330
2
100
AcDbSymbolTableRecord
100
AcDbLayerTableRecord
  2
Defpoints
 70
     0
 62
     7
  6
Continuous
290
     0
370
    -3
390
F
  0
ENDTAB
  0
TABLE
  2
STYLE
  5
3
330
0
100
AcDbSymbolTable
 70
     2
  0
STYLE
  5
11
330
3
100
AcDbSymbolTableRecord
100
AcDbTextStyleTableRecord
  2
Standard
 70
     0
 40
0.0
 41
1.0
 50
0.0
 71
     0
 42
3.5
  3
txt
  4

  0
STYLE
  5
94
330
3
100
AcDbSymbolTableRecord
100
AcDbTextStyleTableRecord
  2
SLDTEXTSTYLE0
 70
     0
 40
0.0
 41
0.75
 50
0.0
 71
     0
 42
3.5
  3
TXT
  4

  0
ENDTAB
  0
TABLE
  2
VIEW
  5
6
330
0
100
AcDbSymbolTable
 70
     0
  0
ENDTAB
  0
TABLE
  2
UCS
  5
7
330
0
100
AcDbSymbolTable
 70
     0
  0
ENDTAB
  0
TABLE
  2
APPID
  5
9
330
0
100
AcDbSymbolTable
 70
     2
  0
APPID
  5
12
330
9
100
AcDbSymbolTableRecord
100
AcDbRegAppTableRecord
  2
ACAD
 70
     0
  0
APPID
  5
152
330
9
100
AcDbSymbolTableRecord
100
AcDbRegAppTableRecord
  2
PE_URL
 70
     0
  0
ENDTAB
  0
TABLE
  2
DIMSTYLE
  5
A
330
0
100
AcDbSymbolTable
 70
     3
100
AcDbDimStyleTable
  0
DIMSTYLE
105
27
330
A
100
AcDbSymbolTableRecord
100
AcDbDimStyleTableRecord
  2
ISO-25
 70
     0
 41
2.5
 42
0.625
 43
3.75
 44
1.25
 73
     0
 74
     0
 77
     1
 78
     8
140
2.5
141
2.5
143
0.03937007874016
147
0.625
171
     3
172
     1
178
     0
271
     2
272
     2
274
     3
278
    44
283
     0
284
     8
340
11
  0
DIMSTYLE
105
C9
102
{ACAD_REACTORS
330
C8
330
F2
330
106
330
DE
102
}
330
A
100
AcDbSymbolTableRecord
100
AcDbDimStyleTableRecord
  2
SLDDIMSTYLE0
 70
     0
 41
3.302
 44
0.0
 45
0.000000001
 73
     0
 74
     0
 77
     1
 78
    12
 79
     3
140
3.5
143
0.0393700787401575
147
0.875
148
0.000000001
170
     1
172
     1
173
     1
178
     0
271
     2
272
     2
276
     2
284
    12
289
     0
340
94
  0
DIMSTYLE
105
DF
330
A
100
AcDbSymbolTableRecord
100
AcDbDimStyleTableRecord
  2
SLDDIMSTYLE1
 70
     0
 41
3.302
 44
0.0
 45
0.000000001
 73
     0
 74
     0
 77
     1
 78
     4
 79
     1
140
3.5
143
0.0393700787401575
147
0.875
148
0.000000001
170
     1
173
     1
178
     0
271
     2
272
     2
276
     2
284
    12
340
94
  0
ENDTAB
  0
TABLE
  2
BLOCK_RECORD
  5
1
330
0
100
AcDbSymbolTable
 70
     9
  0
BLOCK_RECORD
  5
1F
330
1
100
AcDbSymbolTableRecord
100
AcDbBlockTableRecord
  2
*Model_Space
340
22
  0
BLOCK_RECORD
  5
1B
330
1
100
AcDbSymbolTableRecord
100
AcDbBlockTableRecord
  2
*Paper_Space
340
1E
  0
BLOCK_RECORD
  5
23
330
1
100
AcDbSymbolTableRecord
100
AcDbBlockTableRecord
  2
*Paper_Space0
340
26
  0
BLOCK_RECORD
  5
7F
330
1
100
AcDbSymbolTableRecord
100
AcDbBlockTableRecord
  2
블럭10
340
0
102
{BLKREFS
331
C1
102
}
  0
BLOCK_RECORD
  5
CA
330
1
100
AcDbSymbolTableRecord
100
AcDbBlockTableRecord
  2
_D
340
0
  0
BLOCK_RECORD
  5
E0
330
1
100
AcDbSymbolTableRecord
100
AcDbBlockTableRecord
  2
_D_1
340
0
  0
BLOCK_RECORD
  5
F3
330
1
100
AcDbSymbolTableRecord
100
AcDbBlockTableRecord
  2
_D_2
340
0
  0
BLOCK_RECORD
  5
107
330
1
100
AcDbSymbolTableRecord
100
AcDbBlockTableRecord
  2
_D_3
340
0
  0
BLOCK_RECORD
  5
121
330
1
100
AcDbSymbolTableRecord
100
AcDbBlockTableRecord
  2
SW_DOWELSYMBOL_0
340
0
102
{BLKREFS
331
127
102
}
  0
BLOCK_RECORD
  5
186
330
1
100
AcDbSymbolTableRecord
100
AcDbBlockTableRecord
  2
*D7
340
0
  0
BLOCK_RECORD
  5
198
330
1
100
AcDbSymbolTableRecord
100
AcDbBlockTableRecord
  2
*D8
340
0
  0
ENDTAB
  0
ENDSEC
  0
SECTION
  2
BLOCKS
  0
BLOCK
  5
20
330
1F
100
AcDbEntity
  8
0
100
AcDbBlockBegin
  2
*Model_Space
 70
     0
 10
0.0
 20
0.0
 30
0.0
  3
*Model_Space
  1
*Model_Space
  0
ENDBLK
  5
21
330
1F
100
AcDbEntity
  8
0
100
AcDbBlockEnd
  0
BLOCK
  5
1C
330
1B
100
AcDbEntity
 67
     1
  8
0
100
AcDbBlockBegin
  2
*Paper_Space
 70
     0
 10
0.0
 20
0.0
 30
0.0
  3
*Paper_Space
  1
*Paper_Space
  0
ENDBLK
  5
1D
330
1B
100
AcDbEntity
 67
     1
  8
0
100
AcDbBlockEnd
  0
BLOCK
  5
24
330
23
100
AcDbEntity
  8
0
100
AcDbBlockBegin
  2
*Paper_Space0
 70
     0
 10
0.0
 20
0.0
 30
0.0
  3
*Paper_Space0
  1
*Paper_Space0
  0
ENDBLK
  5
25
330
23
100
AcDbEntity
  8
0
100
AcDbBlockEnd
  0
BLOCK
  5
80
330
7F
100
AcDbEntity
  8
0
100
AcDbBlockBegin
  2
블럭10
 70
     2
 10
0.0
 20
0.0
 30
0.0
  3
블럭10
  1
블럭10
  0
ELLIPSE
  5
82
330
7F
100
AcDbEntity
  8
중심선
100
AcDbEllipse
 10
20.54032771741204
 20
12.0471743016438
 30
0.0
 11
6.600054785286829
 21
-1.261213355974178E-13
 31
0.0
210
0.0
220
0.0
230
1.0
 40
0.636358354079598
 41
0.9219305317359503
 42
6.513795318482858
  0
ELLIPSE
  5
83
330
7F
100
AcDbEntity
  8
중심선
100
AcDbEllipse
 10
20.54032771746488
 20
12.04717430159265
 30
0.0
 11
3.960054785062283
 21
1.540847449632565E-10
 31
0.0
210
0.0
220
0.0
230
1.0
 40
0.3939339440162632
 41
1.131841032648279
 42
5.62031148352944
  0
LINE
  5
84
330
7F
100
AcDbEntity
  8
중심선
100
AcDbLine
 10
2.268634060543552
 20
16.24717430164393
 30
0.0
 11
5.714909304380834
 21
16.24717430164393
 31
0.0
  0
LINE
  5
85
330
7F
100
AcDbEntity
  8
중심선
100
AcDbLine
 10
5.245725140726316
 20
7.84717430164391
 30
0.0
 11
8.692000384563599
 21
7.84717430164391
 31
0.0
  0
LINE
  5
86
330
7F
100
AcDbEntity
  8
중심선
100
AcDbLine
 10
15.74043728645272
 20
16.24717430164393
 30
0.0
 11
8.692000384563599
 21
7.84717430164391
 31
0.0
  0
LINE
  5
87
330
7F
100
AcDbEntity
  8
중심선
100
AcDbLine
 10
0.1404042013395286
 20
13.71084872107135
 30
0.0
 11
3.58671253028996
 21
13.71088815037384
 31
0.0
  0
LINE
  5
88
330
7F
100
AcDbEntity
  8
중심선
100
AcDbLine
 10
2.750260043222114
 20
10.84717430164391
 30
0.0
 11
6.196535287059397
 21
10.84717430164391
 31
0.0
  0
LINE
  5
89
330
7F
100
AcDbEntity
  8
중심선
100
AcDbLine
 10
12.29416204261559
 20
16.24717430164393
 30
0.0
 11
5.245725140726316
 21
7.84717430164391
 31
0.0
  0
LINE
  5
8A
330
7F
100
AcDbEntity
  8
중심선
100
AcDbLine
 10
10.72767329541681
 20
16.24717430164393
 30
0.0
 11
6.196535287059397
 21
10.84717430164391
 31
0.0
  0
LINE
  5
8B
330
7F
100
AcDbEntity
  8
중심선
100
AcDbLine
 10
7.28139805157953
 20
16.24717430164393
 30
0.0
 11
2.750260043222114
 21
10.84717430164391
 31
0.0
  0
LINE
  5
8C
330
7F
100
AcDbEntity
  8
중심선
100
AcDbLine
 10
5.714909304380834
 20
16.24717430164393
 30
0.0
 11
3.58671253028996
 21
13.71088815037384
 31
0.0
  0
LINE
  5
8D
330
7F
100
AcDbEntity
  8
중심선
100
AcDbLine
 10
2.268634060543552
 20
16.24717430164393
 30
0.0
 11
0.1404042013395286
 21
13.71084872107135
 31
0.0
  0
LINE
  5
8E
330
7F
100
AcDbEntity
  8
중심선
100
AcDbLine
 10
7.28139805157953
 20
16.24717430164393
 30
0.0
 11
10.72767329541681
 21
16.24717430164393
 31
0.0
  0
LINE
  5
8F
330
7F
100
AcDbEntity
  8
중심선
100
AcDbLine
 10
12.29416204261559
 20
16.24717430164393
 30
0.0
 11
15.74043728645272
 21
16.24717430164393
 31
0.0
  0
LINE
  5
90
330
7F
100
AcDbEntity
  8
중심선
100
AcDbLine
 10
19.22036997980202
 20
11.08717430171403
 30
0.0
 11
23.66174974927406
 21
11.08717430171406
 31
0.0
  0
LINE
  5
91
330
7F
100
AcDbEntity
  8
중심선
100
AcDbLine
 10
19.22039502424796
 20
13.00717430171391
 30
0.0
 11
19.22036997980202
 21
11.08717430171403
 31
0.0
  0
LINE
  5
92
330
7F
100
AcDbEntity
  8
중심선
100
AcDbLine
 10
19.22039502424796
 20
13.00717430171391
 30
0.0
 11
26.96566020931264
 21
13.00717430171391
 31
0.0
  0
LINE
  5
93
330
7F
100
AcDbEntity
  8
중심선
100
AcDbLine
 10
22.22332737316547
 20
13.45928029700563
 30
0.0
 11
24.52862924686651
 21
15.39360700705356
 31
0.0
  0
ATTDEF
  5
95
330
7F
100
AcDbEntity
  8
FORMAT
 62
     2
100
AcDbText
 10
4.408487351596664
 20
2.075366912832191
 30
0.0
 40
4.233333333333333
  1
E1008010
 41
0.75
  7
SLDTEXTSTYLE0
 11
4.408487351596664
 21
-0.0412997538344756
 31
0.0
100
AcDbAttributeDefinition
  3

  2
AUTOATTR0
 70
     0
 74
     1
  0
ENDBLK
  5
81
330
7F
100
AcDbEntity
  8
0
100
AcDbBlockEnd
  0
BLOCK
  5
CB
330
CA
100
AcDbEntity
  8
0
100
AcDbBlockBegin
  2
_D
 70
     0
 10
0.0
 20
0.0
 30
0.0
  3
_D
  1
_D
  0
LINE
  5
CD
330
CA
100
AcDbEntity
  8
치수문자_일반주서
 62
     0
370
    -2
100
AcDbLine
 10
25.4
 20
2.046875000000004
 30
0.0
 11
25.4
 21
12.38125
 31
0.0
  0
LINE
  5
CE
330
CA
100
AcDbEntity
  8
치수문자_일반주서
 62
     0
370
    -2
100
AcDbLine
 10
19.446875
 20
1.396311081056957
 30
0.0
 11
19.446875
 21
12.38125
 31
0.0
  0
LINE
  5
CF
330
CA
100
AcDbEntity
  8
치수문자_일반주서
 62
     0
370
    -2
100
AcDbLine
 10
25.4
 20
12.38125
 30
0.0
 11
60.004
 21
12.38125
 31
0.0
  0
LINE
  5
D0
330
CA
100
AcDbEntity
  8
치수문자_일반주서
 62
     0
370
    -2
100
AcDbLine
 10
25.4
 20
12.38125
 30
0.0
 11
19.446875
 21
12.38125
 31
0.0
  0
LINE
  5
D1
330
CA
100
AcDbEntity
  8
치수문자_일반주서
 62
     0
370
    -2
100
AcDbLine
 10
28.70199999999999
 20
12.38125
 30
0.0
 11
32.00399999999999
 21
12.38125
 31
0.0
  0
LINE
  5
D2
330
CA
100
AcDbEntity
  8
치수문자_일반주서
 62
     0
370
    -2
100
AcDbLine
 10
16.144875
 20
12.38125
 30
0.0
 11
12.842875
 21
12.38125
 31
0.0
  0
SOLID
  5
D3
330
CA
100
AcDbEntity
  8
치수문자_일반주서
 62
     0
100
AcDbTrace
 10
28.70199999999999
 20
12.93158333333334
 30
0.0
 11
28.70199999999999
 21
11.83091666666667
 31
0.0
 12
25.4
 22
12.38125
 32
0.0
 13
25.4
 23
12.38125
 33
0.0
  0
SOLID
  5
D4
330
CA
100
AcDbEntity
  8
치수문자_일반주서
 62
     0
100
AcDbTrace
 10
16.144875
 20
11.83091666666667
 30
0.0
 11
16.144875
 21
12.93158333333334
 31
0.0
 12
19.446875
 22
12.38125
 32
0.0
 13
19.446875
 23
12.38125
 33
0.0
  0
MTEXT
  5
D5
330
CA
100
AcDbEntity
  8
치수문자_일반주서
 62
     0
100
AcDbMText
 10
46.004
 20
16.75625
 30
0.0
 40
3.5
 41
0.0
 71
     2
 72
     1
  1
\A1;5.95 [15/64]
  7
SLDTEXTSTYLE0
 73
     1
 44
1.0
  0
POINT
  5
D6
330
CA
100
AcDbEntity
  8
Defpoints
 62
     0
100
AcDbPoint
 10
25.4
 20
1.984375000000004
 30
0.0
  0
POINT
  5
D7
330
CA
100
AcDbEntity
  8
Defpoints
 62
     0
100
AcDbPoint
 10
19.446875
 20
1.333811081056957
 30
0.0
  0
POINT
  5
D8
330
CA
100
AcDbEntity
  8
Defpoints
 62
     0
100
AcDbPoint
 10
19.446875
 20
12.38125
 30
0.0
  0
ENDBLK
  5
CC
330
CA
100
AcDbEntity
  8
0
100
AcDbBlockEnd
  0
BLOCK
  5
E1
330
E0
100
AcDbEntity
  8
0
100
AcDbBlockBegin
  2
_D_1
 70
     0
 10
0.0
 20
0.0
 30
0.0
  3
_D_1
  1
_D_1
  0
LINE
  5
E3
330
E0
100
AcDbEntity
  8
치수문자_일반주서
 62
     0
370
    -2
100
AcDbLine
 10
25.4
 20
2.046875000000004
 30
0.0
 11
25.4
 21
22.38125
 31
0.0
  0
LINE
  5
E4
330
E0
100
AcDbEntity
  8
치수문자_일반주서
 62
     0
370
    -2
100
AcDbLine
 10
-25.39999999999998
 20
2.046875000000001
 30
0.0
 11
-25.39999999999998
 21
22.38125
 31
0.0
  0
LINE
  5
E5
330
E0
100
AcDbEntity
  8
치수문자_일반주서
 62
     0
370
    -2
100
AcDbLine
 10
22.098
 20
22.38125
 30
0.0
 11
-22.09799999999998
 21
22.38125
 31
0.0
  0
SOLID
  5
E6
330
E0
100
AcDbEntity
  8
치수문자_일반주서
 62
     0
100
AcDbTrace
 10
22.098
 20
21.83091666666667
 30
0.0
 11
22.098
 21
22.93158333333334
 31
0.0
 12
25.4
 22
22.38125
 32
0.0
 13
25.4
 23
22.38125
 33
0.0
  0
SOLID
  5
E7
330
E0
100
AcDbEntity
  8
치수문자_일반주서
 62
     0
100
AcDbTrace
 10
-22.09799999999998
 20
22.93158333333334
 30
0.0
 11
-22.09799999999998
 21
21.83091666666667
 31
0.0
 12
-25.39999999999998
 22
22.38125
 32
0.0
 13
-25.39999999999998
 23
22.38125
 33
0.0
  0
MTEXT
  5
E8
330
E0
100
AcDbEntity
  8
치수문자_일반주서
 62
     0
100
AcDbMText
 10
0.2223325356664496
 20
26.75625
 30
0.0
 40
3.5
 41
0.0
 71
     2
 72
     1
  1
\A1;50.8 [2]
  7
SLDTEXTSTYLE0
 73
     1
 44
1.0
  0
POINT
  5
E9
330
E0
100
AcDbEntity
  8
Defpoints
 62
     0
100
AcDbPoint
 10
25.4
 20
1.984375000000004
 30
0.0
  0
POINT
  5
EA
330
E0
100
AcDbEntity
  8
Defpoints
 62
     0
100
AcDbPoint
 10
-25.39999999999998
 20
1.984375000000001
 30
0.0
  0
POINT
  5
EB
330
E0
100
AcDbEntity
  8
Defpoints
 62
     0
100
AcDbPoint
 10
-25.39999999999998
 20
22.38125
 30
0.0
  0
ENDBLK
  5
E2
330
E0
100
AcDbEntity
  8
0
100
AcDbBlockEnd
  0
BLOCK
  5
F4
330
F3
100
AcDbEntity
  8
0
100
AcDbBlockBegin
  2
_D_2
 70
     0
 10
0.0
 20
0.0
 30
0.0
  3
_D_2
  1
_D_2
  0
LINE
  5
F6
330
F3
100
AcDbEntity
  8
치수문자_일반주서
 62
     0
370
    -2
100
AcDbLine
 10
-17.02821733574608
 20
2.381249999999999
 30
0.0
 11
-35.40000000000001
 21
2.38124999999993
 31
0.0
  0
LINE
  5
F7
330
F3
100
AcDbEntity
  8
치수문자_일반주서
 62
     0
370
    -2
100
AcDbLine
 10
-17.02821733574608
 20
-2.381250000000005
 30
0.0
 11
-35.4
 21
-2.381250000000072
 31
0.0
  0
LINE
  5
F8
330
F3
100
AcDbEntity
  8
치수문자_일반주서
 62
     0
370
    -2
100
AcDbLine
 10
-35.40000000000001
 20
2.38124999999993
 30
0.0
 11
-35.40000000000012
 21
36.98524999999997
 31
0.0
  0
LINE
  5
F9
330
F3
100
AcDbEntity
  8
치수문자_일반주서
 62
     0
370
    -2
100
AcDbLine
 10
-35.40000000000001
 20
2.38124999999993
 30
0.0
 11
-35.4
 21
-2.381250000000072
 31
0.0
  0
LINE
  5
FA
330
F3
100
AcDbEntity
  8
치수문자_일반주서
 62
     0
370
    -2
100
AcDbLine
 10
-35.40000000000002
 20
5.68324999999993
 30
0.0
 11
-35.40000000000003
 21
8.98524999999993
 31
0.0
  0
LINE
  5
FB
330
F3
100
AcDbEntity
  8
치수문자_일반주서
 62
     0
370
    -2
100
AcDbLine
 10
-35.39999999999999
 20
-5.683250000000072
 30
0.0
 11
-35.39999999999998
 21
-8.985250000000072
 31
0.0
  0
SOLID
  5
FC
330
F3
100
AcDbEntity
  8
치수문자_일반주서
 62
     0
100
AcDbTrace
 10
-35.95033333333335
 20
5.683249999999928
 30
0.0
 11
-34.84966666666669
 21
5.683249999999932
 31
0.0
 12
-35.40000000000001
 22
2.38124999999993
 32
0.0
 13
-35.40000000000001
 23
2.38124999999993
 33
0.0
  0
SOLID
  5
FD
330
F3
100
AcDbEntity
  8
치수문자_일반주서
 62
     0
100
AcDbTrace
 10
-34.84966666666666
 20
-5.68325000000007
 30
0.0
 11
-35.95033333333333
 21
-5.683250000000074
 31
0.0
 12
-35.4
 22
-2.381250000000072
 32
0.0
 13
-35.4
 23
-2.381250000000072
 33
0.0
  0
MTEXT
  5
FE
330
F3
100
AcDbEntity
  8
치수문자_일반주서
 62
     0
100
AcDbMText
 10
-39.77500000000008
 20
22.98524999999995
 30
0.0
 40
3.5
 41
0.0
 71
     2
 72
     1
  1
\A1;%%c4.76 [3/16]
  7
SLDTEXTSTYLE0
 11
-2.983906501879683E-15
 21
1.0
 31
0.0
 73
     1
 44
1.0
  0
POINT
  5
1AA
330
F3
100
AcDbEntity
  8
Defpoints
 62
     0
100
AcDbPoint
 10
-16.96571733574608
 20
2.38125
 30
0.0
  0
POINT
  5
1AB
330
F3
100
AcDbEntity
  8
Defpoints
 62
     0
100
AcDbPoint
 10
-16.96571733574608
 20
-2.381250000000005
 30
0.0
  0
POINT
  5
1AC
330
F3
100
AcDbEntity
  8
Defpoints
 62
     0
100
AcDbPoint
 10
-35.4
 20
-2.381250000000074
 30
0.0
  0
ENDBLK
  5
F5
330
F3
100
AcDbEntity
  8
0
100
AcDbBlockEnd
  0
BLOCK
  5
108
330
107
100
AcDbEntity
  8
0
100
AcDbBlockBegin
  2
_D_3
 70
     0
 10
0.0
 20
0.0
 30
0.0
  3
_D_3
  1
_D_3
  0
LINE
  5
10A
330
107
100
AcDbEntity
  8
치수문자_일반주서
 62
     0
370
    -2
100
AcDbLine
 10
25.4625
 20
1.984375000000004
 30
0.0
 11
65.87361220481637
 21
1.984375000000156
 31
0.0
  0
LINE
  5
10B
330
107
100
AcDbEntity
  8
치수문자_일반주서
 62
     0
370
    -2
100
AcDbLine
 10
25.4625
 20
-1.984374999999996
 30
0.0
 11
65.87361220481638
 21
-1.984374999999844
 31
0.0
  0
LINE
  5
10C
330
107
100
AcDbEntity
  8
치수문자_일반주서
 62
     0
370
    -2
100
AcDbLine
 10
65.87361220481637
 20
1.984375000000156
 30
0.0
 11
65.87361220481623
 21
40.25149628173261
 31
0.0
  0
LINE
  5
10D
330
107
100
AcDbEntity
  8
치수문자_일반주서
 62
     0
370
    -2
100
AcDbLine
 10
65.87361220481637
 20
1.984375000000156
 30
0.0
 11
65.87361220481638
 21
-1.984374999999844
 31
0.0
  0
LINE
  5
10E
330
107
100
AcDbEntity
  8
치수문자_일반주서
 62
     0
370
    -2
100
AcDbLine
 10
65.87361220481635
 20
5.286375000000156
 30
0.0
 11
65.87361220481634
 21
8.588375000000156
 31
0.0
  0
LINE
  5
10F
330
107
100
AcDbEntity
  8
치수문자_일반주서
 62
     0
370
    -2
100
AcDbLine
 10
65.8736122048164
 20
-5.286374999999843
 30
0.0
 11
65.87361220481641
 21
-8.588374999999843
 31
0.0
  0
SOLID
  5
110
330
107
100
AcDbEntity
  8
치수문자_일반주서
 62
     0
100
AcDbTrace
 10
65.32327887148303
 20
5.286375000000154
 30
0.0
 11
66.42394553814968
 21
5.286375000000158
 31
0.0
 12
65.87361220481637
 22
1.984375000000156
 32
0.0
 13
65.87361220481637
 23
1.984375000000156
 33
0.0
  0
SOLID
  5
111
330
107
100
AcDbEntity
  8
치수문자_일반주서
 62
     0
100
AcDbTrace
 10
66.42394553814972
 20
-5.286374999999842
 30
0.0
 11
65.32327887148307
 21
-5.286374999999845
 31
0.0
 12
65.87361220481638
 22
-1.984374999999844
 32
0.0
 13
65.87361220481638
 23
-1.984374999999844
 33
0.0
  0
MTEXT
  5
112
330
107
100
AcDbEntity
  8
치수문자_일반주서
 62
     0
100
AcDbMText
 10
61.49861220481628
 20
25.8139962817326
 30
0.0
 40
3.5
 41
0.0
 71
     2
 72
     1
  1
\A1;%%c3.97 [5/32]
  7
SLDTEXTSTYLE0
 11
-3.580687802255623E-15
 21
1.0
 31
0.0
 73
     1
 44
1.0
  0
POINT
  5
113
330
107
100
AcDbEntity
  8
Defpoints
 62
     0
100
AcDbPoint
 10
25.4
 20
1.984375000000004
 30
0.0
  0
POINT
  5
114
330
107
100
AcDbEntity
  8
Defpoints
 62
     0
100
AcDbPoint
 10
25.4
 20
-1.984374999999996
 30
0.0
  0
POINT
  5
115
330
107
100
AcDbEntity
  8
Defpoints
 62
     0
100
AcDbPoint
 10
65.87361220481638
 20
-1.984374999999845
 30
0.0
  0
ENDBLK
  5
109
330
107
100
AcDbEntity
  8
0
100
AcDbBlockEnd
  0
BLOCK
  5
122
330
121
100
AcDbEntity
  8
0
100
AcDbBlockBegin
  2
SW_DOWELSYMBOL_0
 70
     0
 10
0.0
 20
0.0
 30
0.0
  3
SW_DOWELSYMBOL_0
  1
SW_DOWELSYMBOL_0
  0
CIRCLE
  5
124
330
121
100
AcDbEntity
  8
해칭선
 62
     0
100
AcDbCircle
 10
0.0
 20
0.0
 30
0.0
 40
3.000000000000001
  0
HATCH
  5
125
330
121
100
AcDbEntity
  8
0
  6
Continuous
 62
     0
370
     0
100
AcDbHatch
 10
0.0
 20
0.0
 30
0.0
210
0.0
220
0.0
230
1.0
  2
SOLID
 70
     1
 71
     0
 91
        1
 92
        0
 93
        3
 72
     2
 10
0.0
 20
0.0
 40
3.000000000000001
 50
0.0
 51
90.0
 73
     1
 72
     1
 10
0.0
 20
3.000000000000001
 11
0.0
 21
0.0
 72
     1
 10
0.0
 20
0.0
 11
3.000000000000001
 21
0.0
 97
        0
 75
     0
 76
     1
 98
        1
 10
0.0
 20
0.0
  0
HATCH
  5
126
330
121
100
AcDbEntity
  8
0
  6
Continuous
 62
     0
370
     0
100
AcDbHatch
 10
0.0
 20
0.0
 30
0.0
210
0.0
220
0.0
230
1.0
  2
SOLID
 70
     1
 71
     0
 91
        1
 92
        0
 93
        3
 72
     2
 10
0.0
 20
0.0
 40
3.000000000000001
 50
180.0
 51
270.0000000000007
 73
     1
 72
     1
 10
0.0
 20
-3.000000000000001
 11
0.0
 21
0.0
 72
     1
 10
0.0
 20
0.0
 11
-3.000000000000001
 21
0.0
 97
        0
 75
     0
 76
     1
 98
        1
 10
0.0
 20
0.0
  0
ENDBLK
  5
123
330
121
100
AcDbEntity
  8
0
100
AcDbBlockEnd
  0
BLOCK
  5
187
330
186
100
AcDbEntity
  8
0
100
AcDbBlockBegin
  2
*D7
 70
     1
 10
0.0
 20
0.0
 30
0.0
  3
*D7
  1
*D7
  0
LINE
  5
189
330
186
100
AcDbEntity
  8
치수문자_일반주서
 62
     0
370
    -2
100
AcDbLine
 10
11.36649999999999
 20
0.5829511351544328
 30
0.0
 11
11.36649999999999
 21
11.31420113515444
 31
0.0
  0
LINE
  5
18A
330
186
100
AcDbEntity
  8
치수문자_일반주서
 62
     0
370
    -2
100
AcDbLine
 10
6.604
 20
0.0624999999999998
 30
0.0
 11
6.603999999999999
 21
11.31420113515444
 31
0.0
  0
LINE
  5
18B
330
186
100
AcDbEntity
  8
치수문자_일반주서
 62
     0
370
    -2
100
AcDbLine
 10
11.36649999999999
 20
11.31420113515444
 30
0.0
 11
43.3455
 21
11.31420113515444
 31
0.0
  0
LINE
  5
18C
330
186
100
AcDbEntity
  8
치수문자_일반주서
 62
     0
370
    -2
100
AcDbLine
 10
11.36649999999999
 20
11.31420113515444
 30
0.0
 11
6.603999999999999
 21
11.31420113515444
 31
0.0
  0
LINE
  5
18D
330
186
100
AcDbEntity
  8
치수문자_일반주서
 62
     0
370
    -2
100
AcDbLine
 10
14.66849999999999
 20
11.31420113515444
 30
0.0
 11
17.97049999999999
 21
11.31420113515444
 31
0.0
  0
LINE
  5
18E
330
186
100
AcDbEntity
  8
치수문자_일반주서
 62
     0
370
    -2
100
AcDbLine
 10
3.302
 20
11.31420113515444
 30
0.0
 11
0.0
 21
11.31420113515444
 31
0.0
  0
SOLID
  5
18F
330
186
100
AcDbEntity
  8
치수문자_일반주서
 62
     0
100
AcDbTrace
 10
14.66849999999999
 20
11.86453446848777
 30
0.0
 11
14.66849999999999
 21
10.7638678018211
 31
0.0
 12
11.36649999999999
 22
11.31420113515444
 32
0.0
 13
11.36649999999999
 23
11.31420113515444
 33
0.0
  0
SOLID
  5
190
330
186
100
AcDbEntity
  8
치수문자_일반주서
 62
     0
100
AcDbTrace
 10
3.302
 20
10.7638678018211
 30
0.0
 11
3.302
 21
11.86453446848777
 31
0.0
 12
6.603999999999999
 22
11.31420113515444
 32
0.0
 13
6.603999999999999
 23
11.31420113515444
 33
0.0
  0
MTEXT
  5
191
330
186
100
AcDbEntity
  8
치수문자_일반주서
 62
     0
100
AcDbMText
 10
30.658
 20
15.68920113515444
 30
0.0
 40
3.5
 41
0.0
 71
     2
 72
     1
  1
\A1;4.76 [3/16]
  7
SLDTEXTSTYLE0
 73
     1
 44
1.0
  0
POINT
  5
192
330
186
100
AcDbEntity
  8
Defpoints
 62
     0
100
AcDbPoint
 10
11.36649999999999
 20
0.5204511351544328
 30
0.0
  0
POINT
  5
193
330
186
100
AcDbEntity
  8
Defpoints
 62
     0
100
AcDbPoint
 10
6.604
 20
-0.0000000000000002
 30
0.0
  0
POINT
  5
194
330
186
100
AcDbEntity
  8
Defpoints
 62
     0
100
AcDbPoint
 10
6.604
 20
11.31420113515444
 30
0.0
  0
ENDBLK
  5
188
330
186
100
AcDbEntity
  8
0
100
AcDbBlockEnd
  0
BLOCK
  5
199
330
198
100
AcDbEntity
  8
0
100
AcDbBlockBegin
  2
*D8
 70
     1
 10
0.0
 20
0.0
 30
0.0
  3
*D8
  1
*D8
  0
LINE
  5
19B
330
198
100
AcDbEntity
  8
치수문자_일반주서
 62
     0
370
    -2
100
AcDbLine
 10
63.95271987613411
 20
-18.35069212237149
 30
0.0
 11
63.95271987613411
 21
-7.619442122371487
 31
0.0
  0
LINE
  5
19C
330
198
100
AcDbEntity
  8
치수문자_일반주서
 62
     0
370
    -2
100
AcDbLine
 10
59.19021987613412
 20
-18.87114325752592
 30
0.0
 11
59.19021987613412
 21
-7.619442122371487
 31
0.0
  0
LINE
  5
19D
330
198
100
AcDbEntity
  8
치수문자_일반주서
 62
     0
370
    -2
100
AcDbLine
 10
63.95271987613411
 20
-7.619442122371487
 30
0.0
 11
95.93171987613412
 21
-7.619442122371487
 31
0.0
  0
LINE
  5
19E
330
198
100
AcDbEntity
  8
치수문자_일반주서
 62
     0
370
    -2
100
AcDbLine
 10
63.95271987613411
 20
-7.619442122371487
 30
0.0
 11
59.19021987613412
 21
-7.619442122371487
 31
0.0
  0
LINE
  5
19F
330
198
100
AcDbEntity
  8
치수문자_일반주서
 62
     0
370
    -2
100
AcDbLine
 10
67.25471987613412
 20
-7.619442122371487
 30
0.0
 11
70.55671987613411
 21
-7.619442122371487
 31
0.0
  0
LINE
  5
1A0
330
198
100
AcDbEntity
  8
치수문자_일반주서
 62
     0
370
    -2
100
AcDbLine
 10
55.88821987613412
 20
-7.619442122371487
 30
0.0
 11
52.58621987613412
 21
-7.619442122371487
 31
0.0
  0
SOLID
  5
1A1
330
198
100
AcDbEntity
  8
치수문자_일반주서
 62
     0
100
AcDbTrace
 10
67.25471987613412
 20
-7.069108789038153
 30
0.0
 11
67.25471987613412
 21
-8.16977545570482
 31
0.0
 12
63.95271987613411
 22
-7.619442122371487
 32
0.0
 13
63.95271987613411
 23
-7.619442122371487
 33
0.0
  0
SOLID
  5
1A2
330
198
100
AcDbEntity
  8
치수문자_일반주서
 62
     0
100
AcDbTrace
 10
55.88821987613412
 20
-8.16977545570482
 30
0.0
 11
55.88821987613412
 21
-7.069108789038153
 31
0.0
 12
59.19021987613412
 22
-7.619442122371487
 32
0.0
 13
59.19021987613412
 23
-7.619442122371487
 33
0.0
  0
MTEXT
  5
1A3
330
198
100
AcDbEntity
  8
치수문자_일반주서
 62
     0
100
AcDbMText
 10
83.24421987613412
 20
-3.244442122371487
 30
0.0
 40
3.5
 41
0.0
 71
     2
 72
     1
  1
\A1;4.76 [3/16]
  7
SLDTEXTSTYLE0
 73
     1
 44
1.0
  0
POINT
  5
1A4
330
198
100
AcDbEntity
  8
Defpoints
 62
     0
100
AcDbPoint
 10
63.95271987613411
 20
-18.41319212237149
 30
0.0
  0
POINT
  5
1A5
330
198
100
AcDbEntity
  8
Defpoints
 62
     0
100
AcDbPoint
 10
59.19021987613412
 20
-18.93364325752592
 30
0.0
  0
POINT
  5
1A6
330
198
100
AcDbEntity
  8
Defpoints
 62
     0
100
AcDbPoint
 10
59.19021987613412
 20
-7.619442122371487
 30
0.0
  0
ENDBLK
  5
19A
330
198
100
AcDbEntity
  8
0
100
AcDbBlockEnd
  0
ENDSEC
  0
SECTION
  2
ENTITIES
  0
LINE
  5
96
330
1F
100
AcDbEntity
  8
외형선
  6
Continuous
370
    15
100
AcDbLine
 10
16.9657173357461
 20
2.381250000000004
 30
0.0
 11
-16.96571733574608
 21
2.38125
 31
0.0
  0
LINE
  5
97
330
1F
100
AcDbEntity
  8
외형선
  6
Continuous
370
    15
100
AcDbLine
 10
-16.96571733574608
 20
-2.381250000000001
 30
0.0
 11
16.9657173357461
 21
-2.381249999999997
 31
0.0
  0
LINE
  5
9A
330
1F
100
AcDbEntity
  8
외형선
  6
Continuous
370
    15
100
AcDbLine
 10
16.9657173357461
 20
-2.381249999999997
 30
0.0
 11
18.446875
 21
-1.984374999999996
 31
0.0
  0
LINE
  5
9B
330
1F
100
AcDbEntity
  8
외형선
  6
Continuous
370
    15
100
AcDbLine
 10
18.446875
 20
1.984375000000004
 30
0.0
 11
16.9657173357461
 21
2.381250000000003
 31
0.0
  0
LINE
  5
9C
330
1F
100
AcDbEntity
  8
외형선
  6
Continuous
370
    15
100
AcDbLine
 10
18.55715920075099
 20
1.984375000000004
 30
0.0
 11
18.446875
 21
1.984375000000004
 31
0.0
  0
LINE
  5
9D
330
1F
100
AcDbEntity
  8
외형선
  6
Continuous
370
    15
100
AcDbLine
 10
18.446875
 20
-1.984374999999996
 30
0.0
 11
18.55715920075099
 21
-1.984374999999996
 31
0.0
  0
LINE
  5
9E
330
1F
100
AcDbEntity
  8
0
  6
Continuous
 62
     1
370
    15
100
AcDbLine
 10
23.01812276019329
 20
-1.984374999999996
 30
0.0
 11
23.415625
 21
-1.984374999999996
 31
0.0
1001
PE_URL
1000

  0
ARC
  5
9F
330
1F
100
AcDbEntity
  8
0
  6
Continuous
 62
     1
370
    15
100
AcDbCircle
 10
23.415625
 20
0.0000000000000039
 30
0.0
 40
1.984375
100
AcDbArc
 50
270.0000000000007
 51
0.0
1001
PE_URL
1000

  0
ARC
  5
A0
330
1F
100
AcDbEntity
  8
0
  6
Continuous
 62
     1
370
    15
100
AcDbCircle
 10
23.415625
 20
0.0000000000000039
 30
0.0
 40
1.984375
100
AcDbArc
 50
0.0
 51
90.0
1001
PE_URL
1000

  0
LINE
  5
A1
330
1F
100
AcDbEntity
  8
0
  6
Continuous
 62
     1
370
    15
100
AcDbLine
 10
23.415625
 20
1.984375000000004
 30
0.0
 11
23.01812276019329
 21
1.984375000000004
 31
0.0
1001
PE_URL
1000

  0
LINE
  5
A2
330
1F
100
AcDbEntity
  8
외형선
  6
Continuous
370
    15
100
AcDbLine
 10
16.9657173357461
 20
2.381250000000003
 30
0.0
 11
16.9657173357461
 21
-2.381249999999997
 31
0.0
  0
LINE
  5
A5
330
1F
100
AcDbEntity
  8
외형선
  6
Continuous
370
    15
100
AcDbLine
 10
18.446875
 20
1.984375000000004
 30
0.0
 11
18.446875
 21
-1.984374999999996
 31
0.0
  0
LINE
  5
A6
330
1F
100
AcDbEntity
  8
외형선
  6
Continuous
370
    15
100
AcDbLine
 10
18.55715920075099
 20
1.650607444147769
 30
0.0
 11
18.55715920075099
 21
1.984375000000004
 31
0.0
  0
SPLINE
  5
A7
330
1F
100
AcDbEntity
  8
외형선
  6
Continuous
370
    15
100
AcDbSpline
210
0.0
220
0.0
230
1.0
 70
     8
 71
     3
 72
    10
 73
     6
 74
     0
 42
0.000000001
 43
0.00000001
 40
0.0
 40
0.0
 40
0.0
 40
0.0
 40
0.5000000000000001
 40
0.5000000000000001
 40
1.0
 40
1.0
 40
1.0
 40
1.0
 10
19.44687500000007
 20
1.313443725088075
 30
0.0
 10
19.2974953004716
 20
1.377827425430537
 30
0.0
 10
19.148181768127
 20
1.438493663944554
 30
0.0
 10
18.85341256651456
 20
1.55097555812251
 30
0.0
 10
18.70625035835264
 20
1.60303388417854
 30
0.0
 10
18.55715920075099
 20
1.650674491198107
 30
0.0
  0
SPLINE
  5
A8
330
1F
100
AcDbEntity
  8
외형선
  6
Continuous
370
    15
100
AcDbSpline
210
0.0
220
0.0
230
1.0
 70
     8
 71
     3
 72
    10
 73
     6
 74
     0
 42
0.000000001
 43
0.00000001
 40
0.0
 40
0.0
 40
0.0
 40
0.0
 40
0.5
 40
0.5
 40
1.0
 40
1.0
 40
1.0
 40
1.0
 10
19.446875
 20
-1.005884236119498
 30
0.0
 10
19.29746223751822
 20
-0.9318295705921497
 30
0.0
 10
19.14811567517336
 20
-0.8549478804377835
 30
0.0
 10
18.85328293182368
 20
-0.6975255946807499
 30
0.0
 10
18.70608601702053
 20
-0.61669288133128
 30
0.0
 10
18.55696120578303
 20
-0.5340052683605503
 30
0.0
  0
LINE
  5
A9
330
1F
100
AcDbEntity
  8
외형선
  6
Continuous
370
    15
100
AcDbLine
 10
18.55715920075099
 20
-1.984374999999996
 30
0.0
 11
18.55715920075099
 21
-0.533911054060377
 31
0.0
  0
SPLINE
  5
AA
330
1F
100
AcDbEntity
  8
외형선
  6
Continuous
370
    15
100
AcDbSpline
210
0.0
220
0.0
230
1.0
 70
     8
 71
     3
 72
    11
 73
     7
 74
     0
 42
0.000000001
 43
0.00000001
 40
0.0
 40
0.0
 40
0.0
 40
0.0
 40
0.2155833562955401
 40
0.4764172449223901
 40
0.7380696008924018
 40
1.0
 40
1.0
 40
1.0
 40
1.0
 10
19.40853978718783
 20
-1.329498674110914
 30
0.0
 10
19.34728314132829
 20
-1.355446637661324
 30
0.0
 10
19.21191219732284
 20
-1.412788992462992
 30
0.0
 10
19.00243140095949
 20
-1.494865091962288
 30
0.0
 10
18.78026935098368
 20
-1.577384891813579
 30
0.0
 10
18.63155557512619
 20
-1.626235977450631
 30
0.0
 10
18.55715920075099
 20
-1.650674491197815
 30
0.0
  0
LINE
  5
AB
330
1F
100
AcDbEntity
  8
외형선
  6
Continuous
370
    15
100
AcDbLine
 10
19.446875
 20
1.313443725087752
 30
0.0
 11
19.446875
 21
-1.005884236119498
 31
0.0
  0
SPLINE
  5
AC
330
1F
100
AcDbEntity
  8
외형선
  6
Continuous
370
    15
100
AcDbSpline
210
0.0
220
0.0
230
1.0
 70
     8
 71
     3
 72
    10
 73
     6
 74
     0
 42
0.000000001
 43
0.00000001
 40
0.0
 40
0.0
 40
0.0
 40
0.0
 40
0.5
 40
0.5
 40
1.0
 40
1.0
 40
1.0
 40
1.0
 10
19.446875
 20
-1.333811081056955
 30
0.0
 10
19.29749530047154
 20
-1.324420985644714
 30
0.0
 10
19.14818176812695
 20
-1.311268634259183
 30
0.0
 10
18.85341256651454
 20
-1.277867670003681
 30
0.0
 10
18.70625035835263
 20
-1.257576207485924
 30
0.0
 10
18.55715920075099
 20
-1.233725120624594
 30
0.0
  0
SPLINE
  5
AD
330
1F
100
AcDbEntity
  8
외형선
  6
Continuous
370
    15
100
AcDbSpline
210
0.0
220
0.0
230
1.0
 70
    24
 71
     3
 72
    12
 73
     8
 74
     0
 42
0.000000001
 43
0.00000001
 40
0.0
 40
0.0
 40
0.0
 40
0.0
 40
0.0999773661549156
 40
0.2817761736014469
 40
0.463574981047979
 40
0.645373788494511
 40
1.0
 40
1.0
 40
1.0
 40
1.0
 10
19.44687499999999
 20
-0.8788448912210056
 30
0.0
 10
19.44687499999999
 20
-0.8773211575588616
 30
0.0
 10
19.446875
 20
-0.8730266671414859
 30
0.0
 10
19.44687499999999
 20
-0.9030635044377833
 30
0.0
 10
19.446875
 20
-0.9668842291936163
 30
0.0
 10
19.446875
 20
-1.090996673160485
 30
0.0
 10
19.446875
 20
-1.23717426531847
 30
0.0
 10
19.446875
 20
-1.333811081056957
 30
0.0
  0
LINE
  5
AE
330
1F
100
AcDbEntity
  8
외형선
  6
Continuous
370
    15
100
AcDbLine
 10
19.446875
 20
1.333811081056963
 30
0.0
 11
19.4084989162656
 21
1.329494076456807
 31
0.0
  0
SPLINE
  5
AF
330
1F
100
AcDbEntity
  8
0
  6
Continuous
 62
     1
370
    15
100
AcDbSpline
210
0.0
220
0.0
230
1.0
 70
     8
 71
     3
 72
    22
 73
    18
 74
     0
 42
0.000000001
 43
0.00000001
 40
0.0
 40
0.0
 40
0.0
 40
0.0
 40
0.1249999999999998
 40
0.1249999999999998
 40
0.2499999999999996
 40
0.2499999999999996
 40
0.3749999999999997
 40
0.3749999999999997
 40
0.4999999999999998
 40
0.4999999999999998
 40
0.6249999999999999
 40
0.6249999999999999
 40
0.7499999999999999
 40
0.7499999999999999
 40
0.875
 40
0.875
 40
1.0
 40
1.0
 40
1.0
 40
1.0
 10
23.41562500000268
 20
-0.8300775338870666
 30
0.0
 10
23.25058368779696
 20
-0.7433982553191539
 30
0.0
 10
23.08767539187578
 20
-0.6542255845686881
 30
0.0
 10
22.75582806366278
 20
-0.470871068214895
 30
0.0
 10
22.58874870917506
 20
-0.3770142918048958
 30
0.0
 10
22.25748971087425
 20
-0.1878744247457667
 30
0.0
 10
22.09486574121399
 20
-0.0928998444773797
 30
0.0
 10
21.7639906318821
 20
0.0981116083535031
 30
0.0
 10
21.59694053978702
 20
0.1939167929016247
 30
0.0
 10
21.26482336601882
 20
0.3831345141321573
 30
0.0
 10
21.10159913451518
 20
0.476202587593173
 30
0.0
 10
20.77201320784404
 20
0.6589960206075598
 30
0.0
 10
20.60515606017498
 20
0.7487954592949045
 30
0.0
 10
20.27250167570894
 20
0.9223574403571616
 30
0.0
 10
20.10779451472181
 20
1.005938562165772
 30
0.0
 10
19.77981060110607
 20
1.165362217388125
 30
0.0
 10
19.61330944711573
 20
1.241709308678121
 30
0.0
 10
19.44687500000004
 20
1.313443725092263
 30
0.0
1001
PE_URL
1000

  0
SPLINE
  5
B0
330
1F
100
AcDbEntity
  8
0
  6
Continuous
 62
     1
370
    15
100
AcDbSpline
210
0.0
220
0.0
230
1.0
 70
     8
 71
     3
 72
    22
 73
    18
 74
     0
 42
0.000000001
 43
0.00000001
 40
0.0
 40
0.0
 40
0.0
 40
0.0
 40
0.125
 40
0.125
 40
0.25
 40
0.25
 40
0.375
 40
0.375
 40
0.5
 40
0.5
 40
0.625
 40
0.625
 40
0.75
 40
0.75
 40
0.875
 40
0.875
 40
1.0
 40
1.0
 40
1.0
 40
1.0
 10
24.86876907189902
 20
0.2080470296777642
 30
0.0
 10
24.64146453511235
 20
0.295988349254764
 30
0.0
 10
24.4169411893595
 20
0.3822120771267568
 30
0.0
 10
23.96718848322837
 20
0.5487273528916343
 30
0.0
 10
23.73830489506901
 20
0.6294377077671774
 30
0.0
 10
23.28575539947563
 20
0.7810491527972167
 30
0.0
 10
23.06338388057385
 20
0.8518693911470335
 30
0.0
 10
22.60930052582889
 20
0.9825421956931593
 30
0.0
 10
22.38104239177546
 20
1.041969537524444
 30
0.0
 10
21.93470576395221
 20
1.145843622006639
 30
0.0
 10
21.7063278226453
 20
1.191081634447908
 30
0.0
 10
21.25228959597457
 20
1.26529375919756
 30
0.0
 10
21.0299569948234
 20
1.294201319623908
 30
0.0
 10
20.57732129694724
 20
1.335286484897976
 30
0.0
 10
20.34845023297906
 20
1.347291933097085
 30
0.0
 10
19.8988314639786
 20
1.353648874787961
 30
0.0
 10
19.67417766265501
 20
1.348099459575093
 30
0.0
 10
19.446875
 20
1.333811081056963
 30
0.0
1001
PE_URL
1000

  0
SPLINE
  5
B1
330
1F
100
AcDbEntity
  8
0
  6
Continuous
 62
     1
370
    15
100
AcDbSpline
210
0.0
220
0.0
230
1.0
 70
     8
 71
     3
 72
    22
 73
    18
 74
     0
 42
0.000000001
 43
0.00000001
 40
0.0
 40
0.0
 40
0.0
 40
0.0
 40
0.125
 40
0.125
 40
0.25
 40
0.25
 40
0.375
 40
0.375
 40
0.5
 40
0.5
 40
0.625
 40
0.625
 40
0.75
 40
0.75
 40
0.875
 40
0.875
 40
1.0
 40
1.0
 40
1.0
 40
1.0
 10
23.415625
 20
-0.8300775338827482
 30
0.0
 10
23.52578657398242
 20
-0.8879341131298363
 30
0.0
 10
23.63433143308989
 20
-0.9395411437415834
 30
0.0
 10
23.85088600244686
 20
-1.026486217218812
 30
0.0
 10
23.96004300111436
 20
-1.062148162290747
 30
0.0
 10
24.17546643330479
 20
-1.108178324039669
 30
0.0
 10
24.28090808213069
 20
-1.11903630813349
 30
0.0
 10
24.49246790949181
 20
-1.103712219425281
 30
0.0
 10
24.595651961649
 20
-1.077300210086854
 30
0.0
 10
24.79020374747887
 20
-0.9719650662643693
 30
0.0
 10
24.88066354798703
 20
-0.8921676036361914
 30
0.0
 10
25.01820642621581
 20
-0.6803282895537746
 30
0.0
 10
25.05961417403895
 20
-0.5547987590871338
 30
0.0
 10
25.08050259435145
 20
-0.3093907265024453
 30
0.0
 10
25.06165280749456
 20
-0.1937294326027742
 30
0.0
 10
24.98875614178232
 20
0.0181050338764503
 30
0.0
 10
24.93477105964319
 20
0.1153624110963826
 30
0.0
 10
24.86876907190868
 20
0.2080470296740287
 30
0.0
1001
PE_URL
1000

  0
SPLINE
  5
B2
330
1F
100
AcDbEntity
  8
0
  6
Continuous
 62
     1
370
    15
100
AcDbSpline
210
0.0
220
0.0
230
1.0
 70
     8
 71
     3
 72
    12
 73
     8
 74
     0
 42
0.000000001
 43
0.00000001
 40
0.0
 40
0.0
 40
0.0
 40
0.0
 40
0.2072377848437127
 40
0.415308067224716
 40
0.6226170097935624
 40
0.8668563247356468
 40
1.0
 40
1.0
 40
1.0
 40
1.0
 10
19.446875
 20
-1.005884236119498
 30
0.0
 10
19.69343748432003
 20
-1.124242198286467
 30
0.0
 10
20.18755292224706
 20
-1.361433579893299
 30
0.0
 10
20.92950971651712
 20
-1.641309863851018
 30
0.0
 10
21.7142716102138
 20
-1.857112062446884
 30
0.0
 10
22.41031792362121
 20
-1.978099299260095
 30
0.0
 10
22.85960925784757
 20
-1.971012655012923
 30
0.0
 10
23.01812276019329
 20
-1.968512431407606
 30
0.0
1001
PE_URL
1000

  0
SPLINE
  5
B3
330
1F
100
AcDbEntity
  8
0
  6
Continuous
 62
     1
370
    15
100
AcDbSpline
210
0.0
220
0.0
230
1.0
 70
     8
 71
     3
 72
    10
 73
     6
 74
     0
 42
0.000000001
 43
0.00000001
 40
0.0
 40
0.0
 40
0.0
 40
0.0
 40
0.5
 40
0.5
 40
1.0
 40
1.0
 40
1.0
 40
1.0
 10
24.86876907190867
 20
0.2080470296740291
 30
0.0
 10
24.91438540101896
 20
0.2355917229833778
 30
0.0
 10
24.95080812148343
 20
0.2774489934119337
 30
0.0
 10
24.99953444748552
 20
0.3835494034300954
 30
0.0
 10
25.0116100713899
 20
0.4474623992772233
 30
0.0
 10
25.01273979422836
 20
0.5139363598915722
 30
0.0
1001
PE_URL
1000

  0
ARC
  5
B4
330
1F
100
AcDbEntity
  8
0
  6
Continuous
 62
     1
370
    15
100
AcDbCircle
 10
24.45060260748971
 20
-0.3449528589926254
 30
0.0
 40
1.026493500724669
100
AcDbArc
 50
23.84130656543773
 51
56.79552415731785
1001
PE_URL
1000

  0
ARC
  5
B5
330
1F
100
AcDbEntity
  8
0
  6
Continuous
 62
     1
370
    15
100
AcDbCircle
 10
23.61529824995682
 20
0.0368082333512537
 30
0.0
 40
1.774515342453025
100
AcDbArc
 50
1.07049532445031
 51
71.1422567017303
1001
PE_URL
1000

  0
SPLINE
  5
B6
330
1F
100
AcDbEntity
  8
0
  6
Continuous
 62
     1
370
    15
100
AcDbSpline
210
0.0
220
0.0
230
1.0
 70
     8
 71
     3
 72
    10
 73
     6
 74
     0
 42
0.000000001
 43
0.00000001
 40
0.0
 40
0.0
 40
0.0
 40
0.0
 40
0.5
 40
0.5
 40
1.0
 40
1.0
 40
1.0
 40
1.0
 10
24.18885634413625
 20
1.716074684276307
 30
0.0
 10
24.06612596567039
 20
1.790994664922368
 30
0.0
 10
23.93965901481299
 20
1.849814266196822
 30
0.0
 10
23.68155290051369
 20
1.935399668267504
 30
0.0
 10
23.54862764323686
 20
1.962226064067969
 30
0.0
 10
23.415625
 20
1.971105018280594
 30
0.0
1001
PE_URL
1000

  0
LINE
  5
B7
330
1F
100
AcDbEntity
  8
0
  6
Continuous
 62
     1
370
    15
100
AcDbLine
 10
20.17921862534521
 20
-1.344891418109523
 30
0.0
 11
19.446875
 21
-1.333811081056955
 31
0.0
1001
PE_URL
1000

  0
SPLINE
  5
B8
330
1F
100
AcDbEntity
  8
외형선
  6
Continuous
370
    15
100
AcDbSpline
210
0.0
220
0.0
230
1.0
 70
    24
 71
     3
 72
    12
 73
     8
 74
     0
 42
0.000000001
 43
0.00000001
 40
0.0
 40
0.0
 40
0.0
 40
0.0
 40
0.0930128674455926
 40
0.2762184590242174
 40
0.4594240506028422
 40
0.6426296421814672
 40
1.0
 40
1.0
 40
1.0
 40
1.0
 10
19.446875
 20
-0.8787118563210548
 30
0.0
 10
19.446875
 20
-0.8773474595720205
 30
0.0
 10
19.446875
 20
-0.8732956377341834
 30
0.0
 10
19.446875
 20
-0.90314068862537
 30
0.0
 10
19.446875
 20
-0.9668640795363518
 30
0.0
 10
19.446875
 20
-1.091007554688
 30
0.0
 10
19.446875
 20
-1.237178596017701
 30
0.0
 10
19.446875
 20
-1.333811081056957
 30
0.0
  0
SPLINE
  5
B9
330
1F
100
AcDbEntity
  8
0
  6
Continuous
 62
     1
370
    15
100
AcDbSpline
210
0.0
220
0.0
230
1.0
 70
     8
 71
     3
 72
     8
 73
     4
 74
     0
 42
0.000000001
 43
0.00000001
 40
0.0
 40
0.0
 40
0.0
 40
0.0
 40
1.0
 40
1.0
 40
1.0
 40
1.0
 10
23.78575209568504
 20
0.8883030911123525
 30
0.0
 10
24.18915721057353
 20
0.7761712238508311
 30
0.0
 10
24.60043153547451
 20
0.6498693170931624
 30
0.0
 10
25.01273979422837
 20
0.5139363598915864
 30
0.0
1001
PE_URL
1000

  0
SPLINE
  5
BA
330
1F
100
AcDbEntity
  8
0
  6
Continuous
 62
     1
370
    15
100
AcDbSpline
210
0.0
220
0.0
230
1.0
 70
     8
 71
     3
 72
    12
 73
     8
 74
     0
 42
0.000000001
 43
0.00000001
 40
0.0
 40
0.0
 40
0.0
 40
0.0
 40
0.0023312626708593
 40
0.2319463266643969
 40
0.4607212173872071
 40
0.7302504614888373
 40
1.0
 40
1.0
 40
1.0
 40
1.0
 10
20.17921862534521
 20
1.344891418109532
 30
0.0
 10
20.18173266928682
 20
1.346056128339102
 30
0.0
 10
20.43186461049485
 20
1.461937647291963
 30
0.0
 10
20.92956958594605
 20
1.637005066459172
 30
0.0
 10
21.71425171226279
 20
1.860286400332489
 30
0.0
 10
22.54281811666316
 20
1.992044400577291
 30
0.0
 10
23.12461015188888
 20
1.978086712942896
 30
0.0
 10
23.41562499999999
 20
1.971105018280593
 30
0.0
1001
PE_URL
1000

  0
SPLINE
  5
BB
330
1F
100
AcDbEntity
  8
0
  6
Continuous
 62
     1
370
    15
100
AcDbSpline
210
0.0
220
0.0
230
1.0
 70
     8
 71
     3
 72
    14
 73
    10
 74
     0
 42
0.000000001
 43
0.00000001
 40
0.0
 40
0.0
 40
0.0
 40
0.0
 40
0.25
 40
0.25
 40
0.5
 40
0.5
 40
0.75
 40
0.75
 40
1.0
 40
1.0
 40
1.0
 40
1.0
 10
24.18885634413625
 20
1.716074684276308
 30
0.0
 10
24.20290321261466
 20
1.632734876113746
 30
0.0
 10
24.20919658843523
 20
1.547853063103867
 30
0.0
 10
24.19683638247847
 20
1.376146266903988
 30
0.0
 10
24.17769351254699
 20
1.291510334148874
 30
0.0
 10
24.10765909298888
 20
1.137608996775112
 30
0.0
 10
24.05649146462746
 20
1.069074365420361
 30
0.0
 10
23.93299747084866
 20
0.9596824978252583
 30
0.0
 10
23.8606765811667
 20
0.9180785534937949
 30
0.0
 10
23.78575209568565
 20
0.8883030911124309
 30
0.0
1001
PE_URL
1000

  0
LINE
  5
BC
330
1F
100
AcDbEntity
  8
중심선
 62
     1
100
AcDbLine
 10
-28.4
 20
-0.0000000000000035
 30
0.0
 11
28.4
 21
0.0000000000000035
 31
0.0
  0
LINE
  5
BD
330
1F
100
AcDbEntity
  8
참조1
100
AcDbLine
 10
0.0000000000000036
 20
-0.0000000000000035
 30
0.0
 11
0.0000000000000071
 21
-40.00000000000001
 31
0.0
  0
LINE
  5
BE
330
1F
100
AcDbEntity
  8
참조1
100
AcDbLine
 10
25.4
 20
-0.0000000000000035
 30
0.0
 11
25.4
 21
0.6309734778393068
 31
0.0
  0
LINE
  5
BF
330
1F
100
AcDbEntity
  8
참조1
100
AcDbLine
 10
0.0000000000000071
 20
-40.00000000000001
 30
0.0
 11
-18.73073181430868
 21
-40.0
 31
0.0
  0
INSERT
  5
C1
330
1F
100
AcDbEntity
  8
0
  6
Continuous
 62
     7
100
AcDbBlockReference
 66
     1
  2
블럭10
 10
-13.9402729321252
 20
-52.04717430164393
 30
0.0
  0
ATTRIB
  5
C2
330
C1
100
AcDbEntity
  8
FORMAT
 62
     2
100
AcDbText
 10
-23.12156822086649
 20
-49.97180738881174
 30
0.0
 40
4.233333333333333
  1
E2008010 [ 2 FLUTE ]
 41
0.75
  7
SLDTEXTSTYLE0
 11
-23.12156822086649
 21
-52.08847405547841
 31
0.0
100
AcDbAttribute
  2
AUTOATTR0
 70
     0
 74
     1
  0
SEQEND
  5
C3
330
C1
100
AcDbEntity
  8
0
  6
Continuous
 62
     7
  0
HATCH
  5
C4
330
1F
100
AcDbEntity
  8
중심선
100
AcDbHatch
 10
0.0
 20
0.0
 30
0.0
210
0.0
220
0.0
230
1.0
  2
SOLID
 70
     1
 71
     0
 91
        1
 92
        0
 93
        4
 72
     1
 10
-8.225363627744368
 20
-35.8
 11
-11.67163887158165
 21
-35.8
 72
     1
 10
-11.67163887158165
 20
-35.8
 11
-13.79986873078568
 21
-38.3363255805726
 72
     1
 10
-13.79986873078568
 20
-38.3363255805726
 11
-10.35356040183524
 21
-38.33628615127011
 72
     1
 10
-10.35356040183524
 20
-38.33628615127011
 11
-8.225363627744368
 21
-35.8
 97
        0
 75
     0
 76
     1
 98
        1
 10
10.52224434298443
 20
-0.0010749287238927
  0
HATCH
  5
C5
330
1F
100
AcDbEntity
  8
중심선
100
AcDbHatch
 10
0.0
 20
0.0
 30
0.0
210
0.0
220
0.0
230
1.0
  2
SOLID
 70
     1
 71
     0
 91
        1
 92
        0
 93
        4
 72
     1
 10
-3.21259963670839
 20
-35.79999999999998
 11
-6.658874880545699
 21
-35.80000000000003
 72
     1
 10
-6.658874880545699
 20
-35.80000000000003
 11
-11.19001288890309
 21
-41.20000000000002
 72
     1
 10
-11.19001288890309
 20
-41.20000000000002
 11
-7.743737645065806
 21
-41.20000000000002
 72
     1
 10
-7.743737645065806
 20
-41.20000000000002
 11
-3.21259963670839
 21
-35.79999999999998
 97
        0
 75
     0
 76
     1
 98
        1
 10
10.52224434298443
 20
-0.0010749287238927
  0
HATCH
  5
C6
330
1F
100
AcDbEntity
  8
중심선
100
AcDbHatch
 10
0.0
 20
0.0
 30
0.0
210
0.0
220
0.0
230
1.0
  2
SOLID
 70
     1
 71
     0
 91
        1
 92
        0
 93
        4
 72
     1
 10
1.800164354327505
 20
-35.8
 11
-1.646110889509611
 21
-35.8
 72
     1
 10
-1.646110889509611
 20
-35.8
 11
-8.694547791398886
 21
-44.20000000000002
 72
     1
 10
-8.694547791398886
 20
-44.20000000000002
 11
-5.248272547561605
 21
-44.20000000000002
 72
     1
 10
-5.248272547561605
 20
-44.20000000000002
 11
1.800164354327505
 21
-35.8
 97
        0
 75
     0
 76
     1
 98
        1
 10
10.52224434298443
 20
-0.0010749287238927
  0
HATCH
  5
C7
330
1F
100
AcDbEntity
  8
중심선
100
AcDbHatch
 10
0.0
 20
0.0
 30
0.0
210
0.0
220
0.0
230
1.0
  2
SOLID
 70
     1
 71
     0
 91
        1
 92
        0
 93
        6
 72
     3
 10
6.600054785339676
 20
-40.00000000005127
 11
3.960054785062283
 21
1.540882976769353E-10
 40
0.3939339440162628
 50
17.09539180608436
 51
320.0019657685086
 73
     0
 72
     1
 10
8.28305444104027
 20
-38.58789400463833
 11
10.58835631474131
 21
-36.65356729459038
 72
     3
 10
6.600054785286829
 20
-40.00000000000015
 11
6.600054785286829
 21
-1.278976924368180E-13
 40
0.636358354079598
 50
39.99873849337411
 51
368.4976242363724
 73
     1
 72
     1
 10
13.02538727718744
 20
-39.03999999993002
 11
5.280122092122753
 21
-39.03999999993002
 72
     1
 10
5.280122092122753
 20
-39.03999999993002
 11
5.280097047676819
 21
-40.95999999992991
 72
     1
 10
5.280097047676819
 20
-40.95999999992991
 11
9.721476817148854
 21
-40.95999999992988
 97
        0
 75
     0
 76
     1
 98
        1
 10
10.52224434298443
 20
-0.0010749287238927
  0
DIMENSION
  5
C8
330
1F
100
AcDbEntity
  8
치수문자_일반주서
100
AcDbDimension
  2
_D
 10
19.446875
 20
12.38125
 30
0.0
 11
46.004
 21
12.38125
 31
0.0
 70
   160
  1
<>
 71
     2
 42
5.953124999999993
  3
SLDDIMSTYLE0
100
AcDbAlignedDimension
 13
25.4
 23
1.984375000000004
 33
0.0
 14
19.446875
 24
1.333811081056957
 34
0.0
 50
0.0000000000000171
100
AcDbRotatedDimension
1001
PE_URL
1000

1001
ACAD
1000
DSTYLE
1002
{
1070
   171
1070
     8
1070
   273
1070
     7
1002
}
  0
DIMENSION
  5
DE
330
1F
100
AcDbEntity
  8
치수문자_일반주서
100
AcDbDimension
  2
_D_1
 10
-25.39999999999998
 20
22.38125
 30
0.0
 11
0.2223325356664496
 21
22.38125
 31
0.0
 70
   160
  1
<>
 71
     2
 42
50.79999999999998
  3
SLDDIMSTYLE0
100
AcDbAlignedDimension
 13
25.4
 23
1.984375000000004
 33
0.0
 14
-25.39999999999998
 24
1.984375000000001
 34
0.0
100
AcDbRotatedDimension
1001
PE_URL
1000

1001
ACAD
1000
DSTYLE
1002
{
1070
   171
1070
     8
1070
   273
1070
     7
1002
}
  0
DIMENSION
  5
F2
330
1F
100
AcDbEntity
  8
치수문자_일반주서
100
AcDbDimension
  2
_D_2
 10
-35.4
 20
-2.381250000000072
 30
0.0
 11
-35.40000000000008
 21
22.98524999999997
 31
0.0
 70
   160
  1
%%c<>
 71
     2
 42
4.762500000000005
 52
-270.0
  3
SLDDIMSTYLE0
100
AcDbAlignedDimension
 13
-16.96571733574608
 23
2.38125
 33
0.0
 14
-16.96571733574608
 24
-2.381250000000005
 34
0.0
 50
90.0000000000002
100
AcDbRotatedDimension
1001
PE_URL
1000

1001
ACAD
1000
DSTYLE
1002
{
1070
   171
1070
     8
1070
   273
1070
     7
1002
}
  0
DIMENSION
  5
106
330
1F
100
AcDbEntity
  8
치수문자_일반주서
100
AcDbDimension
  2
_D_3
 10
65.87361220481638
 20
-1.984374999999844
 30
0.0
 11
65.87361220481628
 21
25.81399628173261
 31
0.0
 70
   160
  1
%%c<>
 71
     2
 42
3.96875
 52
-270.0
  3
SLDDIMSTYLE0
100
AcDbAlignedDimension
 13
25.4
 23
1.984375000000004
 33
0.0
 14
25.4
 24
-1.984374999999996
 34
0.0
 50
90.0000000000002
100
AcDbRotatedDimension
1001
PE_URL
1000

1001
ACAD
1000
DSTYLE
1002
{
1070
   171
1070
     8
1070
   273
1070
     7
1002
}
  0
LINE
  5
11A
330
1F
100
AcDbEntity
  8
참조1
100
AcDbLine
 10
79.24160881534559
 20
7.440000000000003
 30
0.0
 11
79.24160881534559
 21
-7.440000000000001
 31
0.0
  0
LINE
  5
11B
330
1F
100
AcDbEntity
  8
참조1
100
AcDbLine
 10
91.94160881534559
 20
5.440000000000003
 30
0.0
 11
79.24160881534559
 21
5.440000000000003
 31
0.0
  0
SOLID
  5
11C
330
1F
100
AcDbEntity
  8
참조1
100
AcDbTrace
 10
79.24160881534559
 20
5.440000000000003
 30
0.0
 11
85.59160881534558
 21
4.424000000000003
 31
0.0
 12
85.59160881534558
 22
6.456000000000003
 32
0.0
 13
85.59160881534558
 23
6.456000000000003
 33
0.0
  0
LINE
  5
11D
330
1F
100
AcDbEntity
  8
참조1
100
AcDbLine
 10
91.94160881534559
 20
-5.440000000000001
 30
0.0
 11
79.24160881534559
 21
-5.440000000000001
 31
0.0
  0
SOLID
  5
11E
330
1F
100
AcDbEntity
  8
참조1
100
AcDbTrace
 10
79.24160881534559
 20
-5.440000000000001
 30
0.0
 11
85.59160881534558
 21
-6.456000000000001
 31
0.0
 12
85.59160881534558
 22
-4.424000000000001
 32
0.0
 13
85.59160881534558
 23
-4.424000000000001
 33
0.0
  0
MTEXT
  5
11F
330
1F
100
AcDbEntity
  8
참조1
100
AcDbMText
 10
88.63909890781586
 20
10.98821664464994
 30
0.0
 40
3.5
 41
0.0
 71
     1
 72
     1
  1
A
  7
SLDTEXTSTYLE0
 73
     1
 44
1.0
  0
MTEXT
  5
120
330
1F
100
AcDbEntity
  8
참조1
100
AcDbMText
 10
88.63909890781586
 20
0.1082166446499323
 30
0.0
 40
3.5
 41
0.0
 71
     1
 72
     1
  1
A
  7
SLDTEXTSTYLE0
 73
     1
 44
1.0
  0
INSERT
  5
127
330
1F
100
AcDbEntity
  8
해칭선
100
AcDbBlockReference
  2
SW_DOWELSYMBOL_0
 10
0.0
 20
0.0
 30
0.0
  0
LINE
  5
1CE
330
1F
100
AcDbEntity
  8
외형선
  6
Continuous
370
    15
100
AcDbLine
 10
-16.96571733574608
 20
2.381249999999998
 30
0.0
 11
-18.44687499999998
 21
1.984374999999997
 31
0.0
  0
LINE
  5
1CF
330
1F
100
AcDbEntity
  8
외형선
  6
Continuous
370
    15
100
AcDbLine
 10
-18.44687499999998
 20
-1.984375000000003
 30
0.0
 11
-16.96571733574608
 21
-2.381250000000005
 31
0.0
  0
LINE
  5
1D0
330
1F
100
AcDbEntity
  8
외형선
  6
Continuous
370
    15
100
AcDbLine
 10
-18.55715920075097
 20
-1.984375000000003
 30
0.0
 11
-18.44687499999998
 21
-1.984375000000003
 31
0.0
  0
LINE
  5
1D1
330
1F
100
AcDbEntity
  8
외형선
  6
Continuous
370
    15
100
AcDbLine
 10
-18.44687499999998
 20
1.984374999999997
 30
0.0
 11
-18.55715920075097
 21
1.984374999999997
 31
0.0
  0
LINE
  5
1D2
330
1F
100
AcDbEntity
  8
0
  6
Continuous
 62
     1
370
    15
100
AcDbLine
 10
-23.01812276019328
 20
1.984374999999997
 30
0.0
 11
-23.41562499999998
 21
1.984374999999997
 31
0.0
1001
PE_URL
1000

  0
ARC
  5
1D3
330
1F
100
AcDbEntity
  8
0
  6
Continuous
 62
     1
370
    15
100
AcDbCircle
 10
-23.41562499999998
 20
-0.0000000000000034
 30
0.0
 40
1.984375
100
AcDbArc
 50
90.00000000000082
 51
180.0
1001
PE_URL
1000

  0
ARC
  5
1D4
330
1F
100
AcDbEntity
  8
0
  6
Continuous
 62
     1
370
    15
100
AcDbCircle
 10
-23.41562499999998
 20
-0.0000000000000034
 30
0.0
 40
1.984375
100
AcDbArc
 50
180.0
 51
270.0
1001
PE_URL
1000

  0
LINE
  5
1D5
330
1F
100
AcDbEntity
  8
0
  6
Continuous
 62
     1
370
    15
100
AcDbLine
 10
-23.41562499999998
 20
-1.984375000000003
 30
0.0
 11
-23.01812276019328
 21
-1.984375000000003
 31
0.0
1001
PE_URL
1000

  0
LINE
  5
1D6
330
1F
100
AcDbEntity
  8
외형선
  6
Continuous
370
    15
100
AcDbLine
 10
-16.96571733574608
 20
-2.381250000000005
 30
0.0
 11
-16.96571733574608
 21
2.381249999999998
 31
0.0
  0
LINE
  5
1D7
330
1F
100
AcDbEntity
  8
외형선
  6
Continuous
370
    15
100
AcDbLine
 10
-18.44687499999998
 20
-1.984375000000003
 30
0.0
 11
-18.44687499999998
 21
1.984374999999997
 31
0.0
  0
LINE
  5
1D8
330
1F
100
AcDbEntity
  8
외형선
  6
Continuous
370
    15
100
AcDbLine
 10
-18.55715920075097
 20
-1.65060744414777
 30
0.0
 11
-18.55715920075097
 21
-1.984375000000003
 31
0.0
  0
SPLINE
  5
1D9
330
1F
100
AcDbEntity
  8
외형선
  6
Continuous
370
    15
100
AcDbSpline
210
0.0
220
0.0
230
1.0
 70
     8
 71
     3
 72
    10
 73
     6
 74
     0
 42
0.000000001
 43
0.00000001
 40
0.0
 40
0.0
 40
0.0
 40
0.0
 40
0.5000000000000001
 40
0.5000000000000001
 40
1.0
 40
1.0
 40
1.0
 40
1.0
 10
-19.44687500000006
 20
-1.313443725088074
 30
0.0
 10
-19.29749530047158
 20
-1.377827425430538
 30
0.0
 10
-19.14818176812699
 20
-1.438493663944555
 30
0.0
 10
-18.85341256651455
 20
-1.550975558122509
 30
0.0
 10
-18.70625035835263
 20
-1.60303388417854
 30
0.0
 10
-18.55715920075097
 20
-1.650674491198106
 30
0.0
  0
SPLINE
  5
1DA
330
1F
100
AcDbEntity
  8
외형선
  6
Continuous
370
    15
100
AcDbSpline
210
0.0
220
0.0
230
1.0
 70
     8
 71
     3
 72
    10
 73
     6
 74
     0
 42
0.000000001
 43
0.00000001
 40
0.0
 40
0.0
 40
0.0
 40
0.0
 40
0.5
 40
0.5
 40
1.0
 40
1.0
 40
1.0
 40
1.0
 10
-19.44687499999998
 20
1.005884236119499
 30
0.0
 10
-19.2974622375182
 20
0.9318295705921502
 30
0.0
 10
-19.14811567517335
 20
0.8549478804377844
 30
0.0
 10
-18.85328293182367
 20
0.6975255946807517
 30
0.0
 10
-18.70608601702052
 20
0.6166928813312789
 30
0.0
 10
-18.55696120578301
 20
0.5340052683605487
 30
0.0
  0
LINE
  5
1DB
330
1F
100
AcDbEntity
  8
외형선
  6
Continuous
370
    15
100
AcDbLine
 10
-18.55715920075097
 20
1.984374999999997
 30
0.0
 11
-18.55715920075097
 21
0.5339110540603758
 31
0.0
  0
SPLINE
  5
1DC
330
1F
100
AcDbEntity
  8
외형선
  6
Continuous
370
    15
100
AcDbSpline
210
0.0
220
0.0
230
1.0
 70
     8
 71
     3
 72
    11
 73
     7
 74
     0
 42
0.000000001
 43
0.00000001
 40
0.0
 40
0.0
 40
0.0
 40
0.0
 40
0.2155833562955401
 40
0.4764172449223901
 40
0.7380696008924018
 40
1.0
 40
1.0
 40
1.0
 40
1.0
 10
-19.40853978718782
 20
1.329498674110912
 30
0.0
 10
-19.34728314132828
 20
1.355446637661324
 30
0.0
 10
-19.21191219732283
 20
1.412788992462993
 30
0.0
 10
-19.00243140095948
 20
1.494865091962289
 30
0.0
 10
-18.78026935098367
 20
1.57738489181358
 30
0.0
 10
-18.63155557512617
 20
1.62623597745063
 30
0.0
 10
-18.55715920075097
 20
1.650674491197816
 30
0.0
  0
LINE
  5
1DD
330
1F
100
AcDbEntity
  8
외형선
  6
Continuous
370
    15
100
AcDbLine
 10
-19.44687499999998
 20
-1.313443725087751
 30
0.0
 11
-19.44687499999998
 21
1.005884236119499
 31
0.0
  0
SPLINE
  5
1DE
330
1F
100
AcDbEntity
  8
외형선
  6
Continuous
370
    15
100
AcDbSpline
210
0.0
220
0.0
230
1.0
 70
     8
 71
     3
 72
    10
 73
     6
 74
     0
 42
0.000000001
 43
0.00000001
 40
0.0
 40
0.0
 40
0.0
 40
0.0
 40
0.5
 40
0.5
 40
1.0
 40
1.0
 40
1.0
 40
1.0
 10
-19.44687499999998
 20
1.333811081056954
 30
0.0
 10
-19.29749530047152
 20
1.324420985644714
 30
0.0
 10
-19.14818176812694
 20
1.311268634259182
 30
0.0
 10
-18.85341256651453
 20
1.27786767000368
 30
0.0
 10
-18.70625035835261
 20
1.257576207485922
 30
0.0
 10
-18.55715920075097
 20
1.233725120624595
 30
0.0
  0
SPLINE
  5
1DF
330
1F
100
AcDbEntity
  8
외형선
  6
Continuous
370
    15
100
AcDbSpline
210
0.0
220
0.0
230
1.0
 70
    24
 71
     3
 72
    12
 73
     8
 74
     0
 42
0.000000001
 43
0.00000001
 40
0.0
 40
0.0
 40
0.0
 40
0.0
 40
0.0999773661549156
 40
0.2817761736014469
 40
0.463574981047979
 40
0.645373788494511
 40
1.0
 40
1.0
 40
1.0
 40
1.0
 10
-19.44687499999998
 20
0.8788448912210074
 30
0.0
 10
-19.44687499999998
 20
0.8773211575588606
 30
0.0
 10
-19.44687499999998
 20
0.8730266671414848
 30
0.0
 10
-19.44687499999998
 20
0.9030635044377819
 30
0.0
 10
-19.44687499999998
 20
0.9668842291936175
 30
0.0
 10
-19.44687499999998
 20
1.090996673160486
 30
0.0
 10
-19.44687499999998
 20
1.237174265318469
 30
0.0
 10
-19.44687499999998
 20
1.333811081056958
 30
0.0
  0
LINE
  5
1E0
330
1F
100
AcDbEntity
  8
외형선
  6
Continuous
370
    15
100
AcDbLine
 10
-19.44687499999998
 20
-1.333811081056964
 30
0.0
 11
-19.40849891626559
 21
-1.329494076456807
 31
0.0
  0
SPLINE
  5
1E1
330
1F
100
AcDbEntity
  8
0
  6
Continuous
 62
     1
370
    15
100
AcDbSpline
210
0.0
220
0.0
230
1.0
 70
     8
 71
     3
 72
    22
 73
    18
 74
     0
 42
0.000000001
 43
0.00000001
 40
0.0
 40
0.0
 40
0.0
 40
0.0
 40
0.1249999999999998
 40
0.1249999999999998
 40
0.2499999999999996
 40
0.2499999999999996
 40
0.3749999999999997
 40
0.3749999999999997
 40
0.4999999999999998
 40
0.4999999999999998
 40
0.6249999999999999
 40
0.6249999999999999
 40
0.7499999999999999
 40
0.7499999999999999
 40
0.875
 40
0.875
 40
1.0
 40
1.0
 40
1.0
 40
1.0
 10
-23.41562500000267
 20
0.8300775338870674
 30
0.0
 10
-23.25058368779695
 20
0.7433982553191536
 30
0.0
 10
-23.08767539187577
 20
0.6542255845686891
 30
0.0
 10
-22.75582806366276
 20
0.4708710682148942
 30
0.0
 10
-22.58874870917505
 20
0.3770142918048942
 30
0.0
 10
-22.25748971087424
 20
0.1878744247457684
 30
0.0
 10
-22.09486574121398
 20
0.0928998444773798
 30
0.0
 10
-21.76399063188208
 20
-0.0981116083535019
 30
0.0
 10
-21.59694053978701
 20
-0.1939167929016248
 30
0.0
 10
-21.26482336601881
 20
-0.3831345141321554
 30
0.0
 10
-21.10159913451517
 20
-0.476202587593171
 30
0.0
 10
-20.77201320784402
 20
-0.65899602060756
 30
0.0
 10
-20.60515606017497
 20
-0.7487954592949035
 30
0.0
 10
-20.27250167570892
 20
-0.9223574403571602
 30
0.0
 10
-20.1077945147218
 20
-1.005938562165774
 30
0.0
 10
-19.77981060110606
 20
-1.165362217388125
 30
0.0
 10
-19.61330944711571
 20
-1.241709308678121
 30
0.0
 10
-19.44687500000002
 20
-1.313443725092263
 30
0.0
1001
PE_URL
1000

  0
SPLINE
  5
1E2
330
1F
100
AcDbEntity
  8
0
  6
Continuous
 62
     1
370
    15
100
AcDbSpline
210
0.0
220
0.0
230
1.0
 70
     8
 71
     3
 72
    22
 73
    18
 74
     0
 42
0.000000001
 43
0.00000001
 40
0.0
 40
0.0
 40
0.0
 40
0.0
 40
0.125
 40
0.125
 40
0.25
 40
0.25
 40
0.375
 40
0.375
 40
0.5
 40
0.5
 40
0.625
 40
0.625
 40
0.75
 40
0.75
 40
0.875
 40
0.875
 40
1.0
 40
1.0
 40
1.0
 40
1.0
 10
-24.86876907189901
 20
-0.2080470296777646
 30
0.0
 10
-24.64146453511234
 20
-0.295988349254763
 30
0.0
 10
-24.41694118935949
 20
-0.3822120771267554
 30
0.0
 10
-23.96718848322836
 20
-0.5487273528916352
 30
0.0
 10
-23.738304895069
 20
-0.6294377077671773
 30
0.0
 10
-23.28575539947561
 20
-0.7810491527972159
 30
0.0
 10
-23.06338388057384
 20
-0.8518693911470334
 30
0.0
 10
-22.60930052582887
 20
-0.9825421956931597
 30
0.0
 10
-22.38104239177544
 20
-1.041969537524444
 30
0.0
 10
-21.93470576395219
 20
-1.145843622006637
 30
0.0
 10
-21.70632782264529
 20
-1.191081634447908
 30
0.0
 10
-21.25228959597455
 20
-1.265293759197561
 30
0.0
 10
-21.02995699482339
 20
-1.294201319623909
 30
0.0
 10
-20.57732129694723
 20
-1.335286484897978
 30
0.0
 10
-20.34845023297905
 20
-1.347291933097086
 30
0.0
 10
-19.89883146397858
 20
-1.353648874787961
 30
0.0
 10
-19.67417766265499
 20
-1.348099459575092
 30
0.0
 10
-19.44687499999998
 20
-1.333811081056964
 30
0.0
1001
PE_URL
1000

  0
SPLINE
  5
1E3
330
1F
100
AcDbEntity
  8
0
  6
Continuous
 62
     1
370
    15
100
AcDbSpline
210
0.0
220
0.0
230
1.0
 70
     8
 71
     3
 72
    22
 73
    18
 74
     0
 42
0.000000001
 43
0.00000001
 40
0.0
 40
0.0
 40
0.0
 40
0.0
 40
0.125
 40
0.125
 40
0.25
 40
0.25
 40
0.375
 40
0.375
 40
0.5
 40
0.5
 40
0.625
 40
0.625
 40
0.75
 40
0.75
 40
0.875
 40
0.875
 40
1.0
 40
1.0
 40
1.0
 40
1.0
 10
-23.41562499999998
 20
0.8300775338827473
 30
0.0
 10
-23.5257865739824
 20
0.8879341131298377
 30
0.0
 10
-23.63433143308988
 20
0.9395411437415826
 30
0.0
 10
-23.85088600244684
 20
1.026486217218814
 30
0.0
 10
-23.96004300111435
 20
1.062148162290747
 30
0.0
 10
-24.17546643330477
 20
1.108178324039671
 30
0.0
 10
-24.28090808213067
 20
1.119036308133492
 30
0.0
 10
-24.49246790949179
 20
1.10371221942528
 30
0.0
 10
-24.59565196164898
 20
1.077300210086854
 30
0.0
 10
-24.79020374747885
 20
0.9719650662643711
 30
0.0
 10
-24.88066354798702
 20
0.8921676036361925
 30
0.0
 10
-25.0182064262158
 20
0.6803282895537743
 30
0.0
 10
-25.05961417403893
 20
0.5547987590871346
 30
0.0
 10
-25.08050259435144
 20
0.3093907265024465
 30
0.0
 10
-25.06165280749455
 20
0.1937294326027727
 30
0.0
 10
-24.9887561417823
 20
-0.0181050338764484
 30
0.0
 10
-24.93477105964318
 20
-0.1153624110963809
 30
0.0
 10
-24.86876907190867
 20
-0.2080470296740271
 30
0.0
1001
PE_URL
1000

  0
SPLINE
  5
1E4
330
1F
100
AcDbEntity
  8
0
  6
Continuous
 62
     1
370
    15
100
AcDbSpline
210
0.0
220
0.0
230
1.0
 70
     8
 71
     3
 72
    12
 73
     8
 74
     0
 42
0.000000001
 43
0.00000001
 40
0.0
 40
0.0
 40
0.0
 40
0.0
 40
0.2072377848437127
 40
0.415308067224716
 40
0.6226170097935624
 40
0.8668563247356468
 40
1.0
 40
1.0
 40
1.0
 40
1.0
 10
-19.44687499999998
 20
1.005884236119499
 30
0.0
 10
-19.69343748432001
 20
1.124242198286467
 30
0.0
 10
-20.18755292224704
 20
1.361433579893298
 30
0.0
 10
-20.92950971651711
 20
1.641309863851017
 30
0.0
 10
-21.71427161021378
 20
1.857112062446884
 30
0.0
 10
-22.41031792362119
 20
1.978099299260095
 30
0.0
 10
-22.85960925784756
 20
1.971012655012924
 30
0.0
 10
-23.01812276019328
 20
1.968512431407607
 30
0.0
1001
PE_URL
1000

  0
SPLINE
  5
1E5
330
1F
100
AcDbEntity
  8
0
  6
Continuous
 62
     1
370
    15
100
AcDbSpline
210
0.0
220
0.0
230
1.0
 70
     8
 71
     3
 72
    10
 73
     6
 74
     0
 42
0.000000001
 43
0.00000001
 40
0.0
 40
0.0
 40
0.0
 40
0.0
 40
0.5
 40
0.5
 40
1.0
 40
1.0
 40
1.0
 40
1.0
 10
-24.86876907190866
 20
-0.2080470296740307
 30
0.0
 10
-24.91438540101895
 20
-0.2355917229833791
 30
0.0
 10
-24.95080812148342
 20
-0.2774489934119335
 30
0.0
 10
-24.9995344474855
 20
-0.3835494034300948
 30
0.0
 10
-25.01161007138989
 20
-0.4474623992772242
 30
0.0
 10
-25.01273979422835
 20
-0.5139363598915734
 30
0.0
1001
PE_URL
1000

  0
ARC
  5
1E6
330
1F
100
AcDbEntity
  8
0
  6
Continuous
 62
     1
370
    15
100
AcDbCircle
 10
-24.4506026074897
 20
0.3449528589926241
 30
0.0
 40
1.026493500724669
100
AcDbArc
 50
203.8413065654376
 51
236.7955241573178
1001
PE_URL
1000

  0
ARC
  5
1E7
330
1F
100
AcDbEntity
  8
0
  6
Continuous
 62
     1
370
    15
100
AcDbCircle
 10
-23.6152982499568
 20
-0.0368082333512552
 30
0.0
 40
1.774515342453025
100
AcDbArc
 50
181.0704953244502
 51
251.1422567017303
1001
PE_URL
1000

  0
SPLINE
  5
1E8
330
1F
100
AcDbEntity
  8
0
  6
Continuous
 62
     1
370
    15
100
AcDbSpline
210
0.0
220
0.0
230
1.0
 70
     8
 71
     3
 72
    10
 73
     6
 74
     0
 42
0.000000001
 43
0.00000001
 40
0.0
 40
0.0
 40
0.0
 40
0.0
 40
0.5
 40
0.5
 40
1.0
 40
1.0
 40
1.0
 40
1.0
 10
-24.18885634413624
 20
-1.716074684276307
 30
0.0
 10
-24.06612596567038
 20
-1.790994664922369
 30
0.0
 10
-23.93965901481298
 20
-1.849814266196823
 30
0.0
 10
-23.68155290051368
 20
-1.935399668267504
 30
0.0
 10
-23.54862764323685
 20
-1.96222606406797
 30
0.0
 10
-23.41562499999998
 20
-1.971105018280592
 30
0.0
1001
PE_URL
1000

  0
LINE
  5
1E9
330
1F
100
AcDbEntity
  8
0
  6
Continuous
 62
     1
370
    15
100
AcDbLine
 10
-20.1792186253452
 20
1.344891418109523
 30
0.0
 11
-19.44687499999998
 21
1.333811081056954
 31
0.0
1001
PE_URL
1000

  0
SPLINE
  5
1EA
330
1F
100
AcDbEntity
  8
외형선
  6
Continuous
370
    15
100
AcDbSpline
210
0.0
220
0.0
230
1.0
 70
    24
 71
     3
 72
    12
 73
     8
 74
     0
 42
0.000000001
 43
0.00000001
 40
0.0
 40
0.0
 40
0.0
 40
0.0
 40
0.0930128674455926
 40
0.2762184590242174
 40
0.4594240506028422
 40
0.6426296421814672
 40
1.0
 40
1.0
 40
1.0
 40
1.0
 10
-19.44687499999998
 20
0.8787118563210543
 30
0.0
 10
-19.44687499999998
 20
0.8773474595720219
 30
0.0
 10
-19.44687499999998
 20
0.8732956377341845
 30
0.0
 10
-19.44687499999998
 20
0.9031406886253708
 30
0.0
 10
-19.44687499999998
 20
0.9668640795363503
 30
0.0
 10
-19.44687499999998
 20
1.091007554688002
 30
0.0
 10
-19.44687499999998
 20
1.2371785960177
 30
0.0
 10
-19.44687499999998
 20
1.333811081056958
 30
0.0
  0
SPLINE
  5
1EB
330
1F
100
AcDbEntity
  8
0
  6
Continuous
 62
     1
370
    15
100
AcDbSpline
210
0.0
220
0.0
230
1.0
 70
     8
 71
     3
 72
     8
 73
     4
 74
     0
 42
0.000000001
 43
0.00000001
 40
0.0
 40
0.0
 40
0.0
 40
0.0
 40
1.0
 40
1.0
 40
1.0
 40
1.0
 10
-23.78575209568503
 20
-0.8883030911123517
 30
0.0
 10
-24.18915721057351
 20
-0.7761712238508307
 30
0.0
 10
-24.60043153547449
 20
-0.6498693170931629
 30
0.0
 10
-25.01273979422836
 20
-0.5139363598915876
 30
0.0
1001
PE_URL
1000

  0
SPLINE
  5
1EC
330
1F
100
AcDbEntity
  8
0
  6
Continuous
 62
     1
370
    15
100
AcDbSpline
210
0.0
220
0.0
230
1.0
 70
     8
 71
     3
 72
    12
 73
     8
 74
     0
 42
0.000000001
 43
0.00000001
 40
0.0
 40
0.0
 40
0.0
 40
0.0
 40
0.0023312626708593
 40
0.2319463266643969
 40
0.4607212173872071
 40
0.7302504614888373
 40
1.0
 40
1.0
 40
1.0
 40
1.0
 10
-20.1792186253452
 20
-1.34489141810953
 30
0.0
 10
-20.1817326692868
 20
-1.346056128339103
 30
0.0
 10
-20.43186461049483
 20
-1.461937647291961
 30
0.0
 10
-20.92956958594603
 20
-1.637005066459171
 30
0.0
 10
-21.71425171226277
 20
-1.860286400332487
 30
0.0
 10
-22.54281811666315
 20
-1.992044400577292
 30
0.0
 10
-23.12461015188887
 20
-1.978086712942897
 30
0.0
 10
-23.41562499999998
 20
-1.971105018280592
 30
0.0
1001
PE_URL
1000

  0
SPLINE
  5
1ED
330
1F
100
AcDbEntity
  8
0
  6
Continuous
 62
     1
370
    15
100
AcDbSpline
210
0.0
220
0.0
230
1.0
 70
     8
 71
     3
 72
    14
 73
    10
 74
     0
 42
0.000000001
 43
0.00000001
 40
0.0
 40
0.0
 40
0.0
 40
0.0
 40
0.25
 40
0.25
 40
0.5
 40
0.5
 40
0.75
 40
0.75
 40
1.0
 40
1.0
 40
1.0
 40
1.0
 10
-24.18885634413624
 20
-1.716074684276307
 30
0.0
 10
-24.20290321261465
 20
-1.632734876113744
 30
0.0
 10
-24.20919658843522
 20
-1.547853063103868
 30
0.0
 10
-24.19683638247845
 20
-1.376146266903987
 30
0.0
 10
-24.17769351254697
 20
-1.291510334148874
 30
0.0
 10
-24.10765909298887
 20
-1.13760899677511
 30
0.0
 10
-24.05649146462745
 20
-1.069074365420359
 30
0.0
 10
-23.93299747084865
 20
-0.9596824978252589
 30
0.0
 10
-23.86067658116669
 20
-0.9180785534937959
 30
0.0
 10
-23.78575209568564
 20
-0.8883030911124299
 30
0.0
1001
PE_URL
1000

  0
ENDSEC
  0
SECTION
  2
OBJECTS
  0
DICTIONARY
  5
C
330
0
100
AcDbDictionary
281
     1
  3
ACAD_GROUP
350
D
  3
ACAD_IMAGE_VARS
350
235
  3
ACAD_LAYOUT
350
1A
  3
ACAD_MLINESTYLE
350
17
  3
ACAD_PLOTSETTINGS
350
19
  3
ACAD_PLOTSTYLENAME
350
E
  3
ACAD_SCALELIST
350
47
  3
APPDATA
350
149
  3
DWGPROPS
350
236
  0
DICTIONARY
  5
182
330
2
100
AcDbDictionary
280
     1
281
     1
  3
ACAD_LAYERSTATES
360
183
  0
DICTIONARY
  5
D
102
{ACAD_REACTORS
330
C
102
}
330
C
100
AcDbDictionary
281
     1
  0
RASTERVARIABLES
  5
235
102
{ACAD_REACTORS
330
C
102
}
330
C
100
AcDbRasterVariables
 90
        0
 70
     1
 71
     1
 72
     1
  0
DICTIONARY
  5
1A
102
{ACAD_REACTORS
330
C
102
}
330
C
100
AcDbDictionary
281
     1
  3
Layout1
350
1E
  3
Layout2
350
26
  3
Model
350
22
  0
DICTIONARY
  5
17
102
{ACAD_REACTORS
330
C
102
}
330
C
100
AcDbDictionary
281
     1
  3
Standard
350
18
  0
DICTIONARY
  5
19
102
{ACAD_REACTORS
330
C
102
}
330
C
100
AcDbDictionary
281
     1
  0
ACDBDICTIONARYWDFLT
  5
E
102
{ACAD_REACTORS
330
C
102
}
330
C
100
AcDbDictionary
281
     1
  3
Normal
350
F
100
AcDbDictionaryWithDefault
340
F
  0
DICTIONARY
  5
47
102
{ACAD_REACTORS
330
C
102
}
330
C
100
AcDbDictionary
281
     1
  3
A0
350
48
  3
A1
350
49
  3
A2
350
4A
  3
A3
350
4B
  3
A4
350
4C
  3
A5
350
4D
  3
A6
350
4E
  3
A7
350
4F
  3
A8
350
50
  3
A9
350
51
  3
B0
350
52
  3
B1
350
53
  3
B2
350
54
  3
B3
350
55
  3
B4
350
56
  3
B5
350
57
  3
B6
350
58
  3
B7
350
59
  3
B8
350
5A
  3
B9
350
5B
  3
C0
350
5C
  3
C1
350
5D
  3
C2
350
5E
  3
C3
350
5F
  3
C4
350
60
  3
C5
350
61
  3
C6
350
62
  3
C7
350
63
  3
C8
350
64
  3
C9
350
65
  3
D0
350
66
  3
D1
350
67
  3
D2
350
68
  0
DICTIONARY
  5
149
102
{ACAD_REACTORS
330
C
102
}
330
C
100
AcDbDictionary
281
     1
  0
XRECORD
  5
236
102
{ACAD_REACTORS
330
C
102
}
330
C
100
AcDbXrecord
280
     1
  1
DWGPROPS COOKIE
  2

  3

  4

  6

  7

  8
12017012
  9

300
=
301
=
302
=
303
=
304
=
305
=
306
=
307
=
308
=
309
=
 40
0.0
 41
2458319.362323137
 42
2458324.118921829
  1

 90
        0
  0
DICTIONARY
  5
183
102
{ACAD_REACTORS
330
182
102
}
330
182
100
AcDbDictionary
281
     1
  0
LAYOUT
  5
1E
102
{ACAD_REACTORS
330
1A
102
}
330
1A
100
AcDbPlotSettings
  1

  2
none_device
  4

  6

 40
0.0
 41
0.0
 42
0.0
 43
0.0
 44
0.0
 45
0.0
 46
0.0
 47
0.0
 48
0.0
 49
0.0
140
0.0
141
0.0
142
1.0
143
1.0
 70
   688
 72
     1
 73
     0
 74
     5
  7

 75
    16
147
1.0
148
0.0
149
0.0
100
AcDbLayout
  1
Layout1
 70
     1
 71
     1
 10
0.0
 20
0.0
 11
420.0
 21
297.0
 12
0.0
 22
0.0
 32
0.0
 14
1.000000000000000E+20
 24
1.000000000000000E+20
 34
1.000000000000000E+20
 15
-1.000000000000000E+20
 25
-1.000000000000000E+20
 35
-1.000000000000000E+20
146
0.0
 13
0.0
 23
0.0
 33
0.0
 16
1.0
 26
0.0
 36
0.0
 17
0.0
 27
1.0
 37
0.0
 76
     0
330
1B
  0
LAYOUT
  5
26
102
{ACAD_REACTORS
330
1A
102
}
330
1A
100
AcDbPlotSettings
  1

  2
none_device
  4

  6

 40
0.0
 41
0.0
 42
0.0
 43
0.0
 44
0.0
 45
0.0
 46
0.0
 47
0.0
 48
0.0
 49
0.0
140
0.0
141
0.0
142
1.0
143
1.0
 70
   688
 72
     1
 73
     0
 74
     5
  7

 75
    16
147
1.0
148
0.0
149
0.0
100
AcDbLayout
  1
Layout2
 70
     1
 71
     2
 10
0.0
 20
0.0
 11
0.0
 21
0.0
 12
0.0
 22
0.0
 32
0.0
 14
0.0
 24
0.0
 34
0.0
 15
0.0
 25
0.0
 35
0.0
146
0.0
 13
0.0
 23
0.0
 33
0.0
 16
1.0
 26
0.0
 36
0.0
 17
0.0
 27
1.0
 37
0.0
 76
     0
330
23
  0
LAYOUT
  5
22
102
{ACAD_REACTORS
330
1A
102
}
330
1A
100
AcDbPlotSettings
  1

  2
none_device
  4
ANSI_A_(11.00_x_8.50_Inches)
  6

 40
6.35
 41
19.05
 42
6.35000508
 43
19.05000254
 44
279.4
 45
215.9
 46
112.0811972257176
 47
99.31944301674545
 48
0.0
 49
0.0
140
0.0
141
0.0
142
0.0771604443321957
143
1.0
 70
  1696
 72
     0
 73
     0
 74
     0
  7

 75
     0
147
0.0235690232323232
148
0.0
149
0.0
100
AcDbLayout
  1
Model
 70
     1
 71
     0
 10
0.0
 20
0.0
 11
420.0
 21
297.0
 12
0.0
 22
0.0
 32
0.0
 14
-39.77500000000012
 24
-49.97180738881174
 34
0.0
 15
91.94160881534557
 25
40.25149628173261
 35
0.0
146
0.0
 13
0.0
 23
0.0
 33
0.0
 16
1.0
 26
0.0
 36
0.0
 17
0.0
 27
1.0
 37
0.0
 76
     0
330
1F
331
29
  0
MLINESTYLE
  5
18
102
{ACAD_REACTORS
330
17
102
}
330
17
100
AcDbMlineStyle
  2
Standard
 70
     0
  3

 62
   256
 51
90.0
 52
90.0
 71
     2
 49
0.5
 62
   256
  6
BYLAYER
 49
-0.5
 62
   256
  6
BYLAYER
  0
ACDBPLACEHOLDER
  5
F
102
{ACAD_REACTORS
330
E
102
}
330
E
  0
SCALE
  5
48
102
{ACAD_REACTORS
330
47
102
}
330
47
100
AcDbScale
 70
     0
300
1:1
140
1.0
141
1.0
290
     1
  0
SCALE
  5
49
102
{ACAD_REACTORS
330
47
102
}
330
47
100
AcDbScale
 70
     0
300
1:2
140
1.0
141
2.0
290
     0
  0
SCALE
  5
4A
102
{ACAD_REACTORS
330
47
102
}
330
47
100
AcDbScale
 70
     0
300
1:4
140
1.0
141
4.0
290
     0
  0
SCALE
  5
4B
102
{ACAD_REACTORS
330
47
102
}
330
47
100
AcDbScale
 70
     0
300
1:5
140
1.0
141
5.0
290
     0
  0
SCALE
  5
4C
102
{ACAD_REACTORS
330
47
102
}
330
47
100
AcDbScale
 70
     0
300
1:8
140
1.0
141
8.0
290
     0
  0
SCALE
  5
4D
102
{ACAD_REACTORS
330
47
102
}
330
47
100
AcDbScale
 70
     0
300
1:10
140
1.0
141
10.0
290
     0
  0
SCALE
  5
4E
102
{ACAD_REACTORS
330
47
102
}
330
47
100
AcDbScale
 70
     0
300
1:16
140
1.0
141
16.0
290
     0
  0
SCALE
  5
4F
102
{ACAD_REACTORS
330
47
102
}
330
47
100
AcDbScale
 70
     0
300
1:20
140
1.0
141
20.0
290
     0
  0
SCALE
  5
50
102
{ACAD_REACTORS
330
47
102
}
330
47
100
AcDbScale
 70
     0
300
1:30
140
1.0
141
30.0
290
     0
  0
SCALE
  5
51
102
{ACAD_REACTORS
330
47
102
}
330
47
100
AcDbScale
 70
     0
300
1:40
140
1.0
141
40.0
290
     0
  0
SCALE
  5
52
102
{ACAD_REACTORS
330
47
102
}
330
47
100
AcDbScale
 70
     0
300
1:50
140
1.0
141
50.0
290
     0
  0
SCALE
  5
53
102
{ACAD_REACTORS
330
47
102
}
330
47
100
AcDbScale
 70
     0
300
1:100
140
1.0
141
100.0
290
     0
  0
SCALE
  5
54
102
{ACAD_REACTORS
330
47
102
}
330
47
100
AcDbScale
 70
     0
300
2:1
140
2.0
141
1.0
290
     0
  0
SCALE
  5
55
102
{ACAD_REACTORS
330
47
102
}
330
47
100
AcDbScale
 70
     0
300
4:1
140
4.0
141
1.0
290
     0
  0
SCALE
  5
56
102
{ACAD_REACTORS
330
47
102
}
330
47
100
AcDbScale
 70
     0
300
8:1
140
8.0
141
1.0
290
     0
  0
SCALE
  5
57
102
{ACAD_REACTORS
330
47
102
}
330
47
100
AcDbScale
 70
     0
300
10:1
140
10.0
141
1.0
290
     0
  0
SCALE
  5
58
102
{ACAD_REACTORS
330
47
102
}
330
47
100
AcDbScale
 70
     0
300
100:1
140
100.0
141
1.0
290
     0
  0
SCALE
  5
59
102
{ACAD_REACTORS
330
47
102
}
330
47
100
AcDbScale
 70
     0
300
1/128" = 1'-0"
140
0.0078125
141
12.0
290
     0
  0
SCALE
  5
5A
102
{ACAD_REACTORS
330
47
102
}
330
47
100
AcDbScale
 70
     0
300
1/64" = 1'-0"
140
0.015625
141
12.0
290
     0
  0
SCALE
  5
5B
102
{ACAD_REACTORS
330
47
102
}
330
47
100
AcDbScale
 70
     0
300
1/32" = 1'-0"
140
0.03125
141
12.0
290
     0
  0
SCALE
  5
5C
102
{ACAD_REACTORS
330
47
102
}
330
47
100
AcDbScale
 70
     0
300
1/16" = 1'-0"
140
0.0625
141
12.0
290
     0
  0
SCALE
  5
5D
102
{ACAD_REACTORS
330
47
102
}
330
47
100
AcDbScale
 70
     0
300
3/32" = 1'-0"
140
0.09375
141
12.0
290
     0
  0
SCALE
  5
5E
102
{ACAD_REACTORS
330
47
102
}
330
47
100
AcDbScale
 70
     0
300
1/8" = 1'-0"
140
0.125
141
12.0
290
     0
  0
SCALE
  5
5F
102
{ACAD_REACTORS
330
47
102
}
330
47
100
AcDbScale
 70
     0
300
3/16" = 1'-0"
140
0.1875
141
12.0
290
     0
  0
SCALE
  5
60
102
{ACAD_REACTORS
330
47
102
}
330
47
100
AcDbScale
 70
     0
300
1/4" = 1'-0"
140
0.25
141
12.0
290
     0
  0
SCALE
  5
61
102
{ACAD_REACTORS
330
47
102
}
330
47
100
AcDbScale
 70
     0
300
3/8" = 1'-0"
140
0.375
141
12.0
290
     0
  0
SCALE
  5
62
102
{ACAD_REACTORS
330
47
102
}
330
47
100
AcDbScale
 70
     0
300
1/2" = 1'-0"
140
0.5
141
12.0
290
     0
  0
SCALE
  5
63
102
{ACAD_REACTORS
330
47
102
}
330
47
100
AcDbScale
 70
     0
300
3/4" = 1'-0"
140
0.75
141
12.0
290
     0
  0
SCALE
  5
64
102
{ACAD_REACTORS
330
47
102
}
330
47
100
AcDbScale
 70
     0
300
1" = 1'-0"
140
1.0
141
12.0
290
     0
  0
SCALE
  5
65
102
{ACAD_REACTORS
330
47
102
}
330
47
100
AcDbScale
 70
     0
300
1-1/2" = 1'-0"
140
1.5
141
12.0
290
     0
  0
SCALE
  5
66
102
{ACAD_REACTORS
330
47
102
}
330
47
100
AcDbScale
 70
     0
300
3" = 1'-0"
140
3.0
141
12.0
290
     0
  0
SCALE
  5
67
102
{ACAD_REACTORS
330
47
102
}
330
47
100
AcDbScale
 70
     0
300
6" = 1'-0"
140
6.0
141
12.0
290
     0
  0
SCALE
  5
68
102
{ACAD_REACTORS
330
47
102
}
330
47
100
AcDbScale
 70
     0
300
1'-0" = 1'-0"
140
12.0
141
12.0
290
     0
  0
ENDSEC
  0
EOF
