  0
SECTION
  2
HEADER
  9
$ACADVER
  1
AC1015
  9
$ACADMAINTVER
 70
     6
  9
$DWGCODEPAGE
  3
ANSI_949
  9
$INSBASE
 10
0.0
 20
0.0
 30
0.0
  9
$EXTMIN
 10
-39.95000000000008
 20
-49.97180738881175
 30
0.0
  9
$EXTMAX
 10
96.30723381534558
 20
27.88124999999998
 30
0.0
  9
$LIMMIN
 10
0.0
 20
0.0
  9
$LIMMAX
 10
420.0
 20
297.0
  9
$ORTHOMODE
 70
     1
  9
$REGENMODE
 70
     1
  9
$FILLMODE
 70
     1
  9
$QTEXTMODE
 70
     0
  9
$MIRRTEXT
 70
     1
  9
$LTSCALE
 40
1.0
  9
$ATTMODE
 70
     1
  9
$TEXTSIZE
 40
3.5
  9
$TRACEWID
 40
1.0
  9
$TEXTSTYLE
  7
Standard
  9
$CLAYER
  8
0
  9
$CELTYPE
  6
ByLayer
  9
$CECOLOR
 62
   256
  9
$CELTSCALE
 40
1.0
  9
$DISPSILH
 70
     0
  9
$DIMSCALE
 40
1.0
  9
$DIMASZ
 40
3.302
  9
$DIMEXO
 40
1.0
  9
$DIMDLI
 40
3.75
  9
$DIMRND
 40
0.0
  9
$DIMDLE
 40
0.0
  9
$DIMEXE
 40
1.0
  9
$DIMTP
 40
0.0
  9
$DIMTM
 40
0.0
  9
$DIMTXT
 40
3.5
  9
$DIMCEN
 40
2.5
  9
$DIMTSZ
 40
0.0
  9
$DIMTOL
 70
     0
  9
$DIMLIM
 70
     0
  9
$DIMTIH
 70
     1
  9
$DIMTOH
 70
     1
  9
$DIMSE1
 70
     0
  9
$DIMSE2
 70
     0
  9
$DIMTAD
 70
     1
  9
$DIMZIN
 70
     0
  9
$DIMBLK
  1

  9
$DIMASO
 70
     1
  9
$DIMSHO
 70
     1
  9
$DIMPOST
  1

  9
$DIMAPOST
  1

  9
$DIMALT
 70
     0
  9
$DIMALTD
 70
     3
  9
$DIMALTF
 40
0.0393700787401575
  9
$DIMLFAC
 40
1.0
  9
$DIMTOFL
 70
     1
  9
$DIMTVP
 40
0.0
  9
$DIMTIX
 70
     0
  9
$DIMSOXD
 70
     0
  9
$DIMSAH
 70
     0
  9
$DIMBLK1
  1

  9
$DIMBLK2
  1

  9
$DIMSTYLE
  2
ISO-25
  9
$DIMCLRD
 70
     0
  9
$DIMCLRE
 70
     0
  9
$DIMCLRT
 70
     0
  9
$DIMTFAC
 40
1.0
  9
$DIMGAP
 40
1.524
  9
$DIMJUST
 70
     0
  9
$DIMSD1
 70
     0
  9
$DIMSD2
 70
     0
  9
$DIMTOLJ
 70
     0
  9
$DIMTZIN
 70
     0
  9
$DIMALTZ
 70
     0
  9
$DIMALTTZ
 70
     0
  9
$DIMUPT
 70
     0
  9
$DIMDEC
 70
     2
  9
$DIMTDEC
 70
     2
  9
$DIMALTU
 70
     2
  9
$DIMALTTD
 70
     3
  9
$DIMTXSTY
  7
Standard
  9
$DIMAUNIT
 70
     0
  9
$DIMADEC
 70
     2
  9
$DIMALTRND
 40
0.0
  9
$DIMAZIN
 70
     0
  9
$DIMDSEP
 70
    44
  9
$DIMATFIT
 70
     3
  9
$DIMFRAC
 70
     0
  9
$DIMLDRBLK
  1

  9
$DIMLUNIT
 70
     2
  9
$DIMLWD
 70
    -2
  9
$DIMLWE
 70
    -2
  9
$DIMTMOVE
 70
     0
  9
$LUNITS
 70
     2
  9
$LUPREC
 70
     2
  9
$SKETCHINC
 40
1.0
  9
$FILLETRAD
 40
10.0
  9
$AUNITS
 70
     0
  9
$AUPREC
 70
     2
  9
$MENU
  1
.
  9
$ELEVATION
 40
0.0
  9
$PELEVATION
 40
0.0
  9
$THICKNESS
 40
0.0
  9
$LIMCHECK
 70
     0
  9
$CHAMFERA
 40
0.0
  9
$CHAMFERB
 40
0.0
  9
$CHAMFERC
 40
0.0
  9
$CHAMFERD
 40
0.0
  9
$SKPOLY
 70
     0
  9
$TDCREATE
 40
2458319.738170475
  9
$TDUCREATE
 40
2458319.363170475
  9
$TDUPDATE
 40
2458324.497360555
  9
$TDUUPDATE
 40
2458324.122360555
  9
$TDINDWG
 40
0.0010341319
  9
$TDUSRTIMER
 40
2458324.122297951
  9
$USRTIMER
 70
     1
  9
$ANGBASE
 50
0.0
  9
$ANGDIR
 70
     0
  9
$PDMODE
 70
     0
  9
$PDSIZE
 40
-1.0
  9
$PLINEWID
 40
0.0
  9
$SPLFRAME
 70
     0
  9
$SPLINETYPE
 70
     6
  9
$SPLINESEGS
 70
     8
  9
$HANDSEED
  5
2A6
  9
$SURFTAB1
 70
     6
  9
$SURFTAB2
 70
     6
  9
$SURFTYPE
 70
     6
  9
$SURFU
 70
     6
  9
$SURFV
 70
     6
  9
$UCSBASE
  2

  9
$UCSNAME
  2

  9
$UCSORG
 10
0.0
 20
0.0
 30
0.0
  9
$UCSXDIR
 10
1.0
 20
0.0
 30
0.0
  9
$UCSYDIR
 10
0.0
 20
1.0
 30
0.0
  9
$UCSORTHOREF
  2

  9
$UCSORTHOVIEW
 70
     0
  9
$UCSORGTOP
 10
0.0
 20
0.0
 30
0.0
  9
$UCSORGBOTTOM
 10
0.0
 20
0.0
 30
0.0
  9
$UCSORGLEFT
 10
0.0
 20
0.0
 30
0.0
  9
$UCSORGRIGHT
 10
0.0
 20
0.0
 30
0.0
  9
$UCSORGFRONT
 10
0.0
 20
0.0
 30
0.0
  9
$UCSORGBACK
 10
0.0
 20
0.0
 30
0.0
  9
$PUCSBASE
  2

  9
$PUCSNAME
  2

  9
$PUCSORG
 10
0.0
 20
0.0
 30
0.0
  9
$PUCSXDIR
 10
1.0
 20
0.0
 30
0.0
  9
$PUCSYDIR
 10
0.0
 20
1.0
 30
0.0
  9
$PUCSORTHOREF
  2

  9
$PUCSORTHOVIEW
 70
     0
  9
$PUCSORGTOP
 10
0.0
 20
0.0
 30
0.0
  9
$PUCSORGBOTTOM
 10
0.0
 20
0.0
 30
0.0
  9
$PUCSORGLEFT
 10
0.0
 20
0.0
 30
0.0
  9
$PUCSORGRIGHT
 10
0.0
 20
0.0
 30
0.0
  9
$PUCSORGFRONT
 10
0.0
 20
0.0
 30
0.0
  9
$PUCSORGBACK
 10
0.0
 20
0.0
 30
0.0
  9
$USERI1
 70
     0
  9
$USERI2
 70
     0
  9
$USERI3
 70
     0
  9
$USERI4
 70
     0
  9
$USERI5
 70
     0
  9
$USERR1
 40
0.0
  9
$USERR2
 40
0.0
  9
$USERR3
 40
0.0
  9
$USERR4
 40
0.0
  9
$USERR5
 40
0.0
  9
$WORLDVIEW
 70
     1
  9
$SHADEDGE
 70
     3
  9
$SHADEDIF
 70
    70
  9
$TILEMODE
 70
     1
  9
$MAXACTVP
 70
    64
  9
$PINSBASE
 10
0.0
 20
0.0
 30
0.0
  9
$PLIMCHECK
 70
     0
  9
$PEXTMIN
 10
1.000000000000000E+20
 20
1.000000000000000E+20
 30
1.000000000000000E+20
  9
$PEXTMAX
 10
-1.000000000000000E+20
 20
-1.000000000000000E+20
 30
-1.000000000000000E+20
  9
$PLIMMIN
 10
0.0
 20
0.0
  9
$PLIMMAX
 10
0.0
 20
0.0
  9
$UNITMODE
 70
     0
  9
$VISRETAIN
 70
     1
  9
$PLINEGEN
 70
     0
  9
$PSLTSCALE
 70
     1
  9
$TREEDEPTH
 70
  3020
  9
$CMLSTYLE
  2
Standard
  9
$CMLJUST
 70
     0
  9
$CMLSCALE
 40
20.0
  9
$PROXYGRAPHICS
 70
     1
  9
$MEASUREMENT
 70
     1
  9
$CELWEIGHT
370
    -1
  9
$ENDCAPS
280
     0
  9
$JOINSTYLE
280
     0
  9
$LWDISPLAY
290
     1
  9
$INSUNITS
 70
     4
  9
$HYPERLINKBASE
  1

  9
$STYLESHEET
  1

  9
$XEDIT
290
     1
  9
$CEPSNTYPE
380
     0
  9
$PSTYLEMODE
290
     1
  9
$FINGERPRINTGUID
  2
{D8549B69-3EA6-4717-ACB0-49D67665AA0D}
  9
$VERSIONGUID
  2
{FAEB1C32-E019-11D5-929B-00C0DF256EC4}
  9
$EXTNAMES
290
     1
  9
$PSVPSCALE
 40
0.0
  9
$OLESTARTUP
290
     0
  0
ENDSEC
  0
SECTION
  2
CLASSES
  0
CLASS
  1
ACDBDICTIONARYWDFLT
  2
AcDbDictionaryWithDefault
  3
ObjectDBX Classes
 90
        0
280
     0
281
     0
  0
CLASS
  1
VISUALSTYLE
  2
AcDbVisualStyle
  3
ObjectDBX Classes
 90
     4095
280
     0
281
     0
  0
CLASS
  1
MATERIAL
  2
AcDbMaterial
  3
ObjectDBX Classes
 90
     1153
280
     0
281
     0
  0
CLASS
  1
SCALE
  2
AcDbScale
  3
ObjectDBX Classes
 90
     1153
280
     0
281
     0
  0
CLASS
  1
SUN
  2
AcDbSun
  3
SCENEOE
 90
     1153
280
     0
281
     0
  0
CLASS
  1
ACDBPLACEHOLDER
  2
AcDbPlaceHolder
  3
ObjectDBX Classes
 90
        0
280
     0
281
     0
  0
CLASS
  1
LAYOUT
  2
AcDbLayout
  3
ObjectDBX Classes
 90
        0
280
     0
281
     0
  0
CLASS
  1
TABLESTYLE
  2
AcDbTableStyle
  3
ObjectDBX Classes
 90
     4095
280
     0
281
     0
  0
CLASS
  1
MLEADERSTYLE
  2
AcDbMLeaderStyle
  3
ACDB_MLEADERSTYLE_CLASS
 90
     4095
280
     0
281
     0
  0
CLASS
  1
DICTIONARYVAR
  2
AcDbDictionaryVar
  3
ObjectDBX Classes
 90
        0
280
     0
281
     0
  0
CLASS
  1
RASTERVARIABLES
  2
AcDbRasterVariables
  3
ISM
 90
        0
280
     0
281
     0
  0
ENDSEC
  0
SECTION
  2
TABLES
  0
TABLE
  2
VPORT
  5
8
330
0
100
AcDbSymbolTable
 70
     1
  0
VPORT
  5
29
330
8
100
AcDbSymbolTableRecord
100
AcDbViewportTableRecord
  2
*Active
 70
     0
 10
0.0
 20
0.0
 11
1.0
 21
1.0
 12
28.17861690767275
 22
-11.04527869440588
 13
0.0
 23
0.0
 14
10.0
 24
10.0
 15
10.0
 25
10.0
 16
0.0
 26
0.0
 36
1.0
 17
0.0
 27
0.0
 37
0.0
 40
79.41011853658796
 41
1.782762691853601
 42
50.0
 43
0.0
 44
0.0
 50
0.0
 51
0.0
 71
    16
 72
  2000
 73
     1
 74
     3
 75
     0
 76
     0
 77
     0
 78
     0
281
     0
 65
     1
110
0.0
120
0.0
130
0.0
111
1.0
121
0.0
131
0.0
112
0.0
122
1.0
132
0.0
 79
     0
146
0.0
  0
ENDTAB
  0
TABLE
  2
LTYPE
  5
5
330
0
100
AcDbSymbolTable
 70
     6
  0
LTYPE
  5
14
330
5
100
AcDbSymbolTableRecord
100
AcDbLinetypeTableRecord
  2
ByBlock
 70
     0
  3

 72
    65
 73
     0
 40
0.0
  0
LTYPE
  5
15
330
5
100
AcDbSymbolTableRecord
100
AcDbLinetypeTableRecord
  2
ByLayer
 70
     0
  3

 72
    65
 73
     0
 40
0.0
  0
LTYPE
  5
16
330
5
100
AcDbSymbolTableRecord
100
AcDbLinetypeTableRecord
  2
Continuous
 70
     0
  3
Solid line
 72
    65
 73
     0
 40
0.0
  0
LTYPE
  5
6A
330
5
100
AcDbSymbolTableRecord
100
AcDbLinetypeTableRecord
  2
HIDDEN
 70
     0
  3
Hidden __ __ __ __ __ __ __ __ __ __ __ __ __ __
 72
    65
 73
     2
 40
1.905
 49
1.27
 74
     0
 49
-0.635
 74
     0
  0
LTYPE
  5
6B
330
5
100
AcDbSymbolTableRecord
100
AcDbLinetypeTableRecord
  2
PHANTOM
 70
     0
  3
Phantom ______  __  __  ______  __  __  ______
 72
    65
 73
     6
 40
12.7
 49
6.35
 74
     0
 49
-1.27
 74
     0
 49
1.27
 74
     0
 49
-1.27
 74
     0
 49
1.27
 74
     0
 49
-1.27
 74
     0
  0
LTYPE
  5
6C
330
5
100
AcDbSymbolTableRecord
100
AcDbLinetypeTableRecord
  2
CENTER
 70
     0
  3
Center ____ _ ____ _ ____ _ ____ _ ____ _ ____
 72
    65
 73
     4
 40
10.16
 49
6.35
 74
     0
 49
-1.27
 74
     0
 49
1.27
 74
     0
 49
-1.27
 74
     0
  0
LTYPE
  5
6D
330
5
100
AcDbSymbolTableRecord
100
AcDbLinetypeTableRecord
  2
CENTERX2
 70
     0
  3
Center (2x) ________  __  ________  __  _____
 72
    65
 73
     4
 40
20.32
 49
12.7
 74
     0
 49
-2.54
 74
     0
 49
2.54
 74
     0
 49
-2.54
 74
     0
  0
LTYPE
  5
6E
330
5
100
AcDbSymbolTableRecord
100
AcDbLinetypeTableRecord
  2
DOT2
 70
     0
  3
Dot (.5x) ........................................
 72
    65
 73
     2
 40
0.635
 49
0.0
 74
     0
 49
-0.635
 74
     0
  0
ENDTAB
  0
TABLE
  2
LAYER
  5
2
330
0
100
AcDbSymbolTable
 70
    18
  0
LAYER
  5
10
330
2
100
AcDbSymbolTableRecord
100
AcDbLayerTableRecord
  2
0
 70
     0
 62
     7
  6
Continuous
370
    -3
390
F
  0
LAYER
  5
6F
330
2
100
AcDbSymbolTableRecord
100
AcDbLayerTableRecord
  2
FORMAT
 70
     0
 62
     2
  6
Continuous
370
    -3
390
F
  0
LAYER
  5
70
330
2
100
AcDbSymbolTableRecord
100
AcDbLayerTableRecord
  2
외형선
 70
     0
 62
     4
  6
Continuous
370
    30
390
F
  0
LAYER
  5
71
330
2
100
AcDbSymbolTableRecord
100
AcDbLayerTableRecord
  2
숨은선
 70
     0
 62
     2
  6
HIDDEN
370
    15
390
F
  0
LAYER
  5
72
330
2
100
AcDbSymbolTableRecord
100
AcDbLayerTableRecord
  2
중심선
 70
     0
 62
     1
  6
CENTERX2
370
    -3
390
F
  0
LAYER
  5
73
330
2
100
AcDbSymbolTableRecord
100
AcDbLayerTableRecord
  2
파단선
 70
     0
 62
     4
  6
Continuous
370
    -3
390
F
  0
LAYER
  5
74
330
2
100
AcDbSymbolTableRecord
100
AcDbLayerTableRecord
  2
해칭선
 70
     0
 62
   100
  6
Continuous
370
    -3
390
F
  0
LAYER
  5
75
330
2
100
AcDbSymbolTableRecord
100
AcDbLayerTableRecord
  2
가는실선
 70
     0
 62
     4
  6
Continuous
370
    -3
390
F
  0
LAYER
  5
76
330
2
100
AcDbSymbolTableRecord
100
AcDbLayerTableRecord
  2
치수_보조선
 70
     0
 62
     4
  6
Continuous
370
    -3
390
F
  0
LAYER
  5
77
330
2
100
AcDbSymbolTableRecord
100
AcDbLayerTableRecord
  2
치수문자_일반주서
 70
     0
 62
     7
  6
Continuous
370
    15
390
F
  0
LAYER
  5
78
330
2
100
AcDbSymbolTableRecord
100
AcDbLayerTableRecord
  2
개별주서
 70
     0
 62
   100
  6
Continuous
370
    30
390
F
  0
LAYER
  5
79
330
2
100
AcDbSymbolTableRecord
100
AcDbLayerTableRecord
  2
중간선
 70
     0
 62
     2
  6
Continuous
370
    15
390
F
  0
LAYER
  5
7A
330
2
100
AcDbSymbolTableRecord
100
AcDbLayerTableRecord
  2
윤곽선
 70
     0
 62
     3
  6
Continuous
370
    40
390
F
  0
LAYER
  5
7B
330
2
100
AcDbSymbolTableRecord
100
AcDbLayerTableRecord
  2
중심마크
 70
     0
 62
   100
  6
Continuous
370
    30
390
F
  0
LAYER
  5
7C
330
2
100
AcDbSymbolTableRecord
100
AcDbLayerTableRecord
  2
가상선
 70
     0
 62
     4
  6
PHANTOM
370
    -3
390
F
  0
LAYER
  5
7D
330
2
100
AcDbSymbolTableRecord
100
AcDbLayerTableRecord
  2
특수지정선
 70
     0
 62
     5
  6
CENTERX2
370
    60
390
F
  0
LAYER
  5
7E
330
2
100
AcDbSymbolTableRecord
100
AcDbLayerTableRecord
  2
참조1
 70
     0
 62
    -4
  6
Continuous
370
    -3
390
F
  0
LAYER
  5
152
330
2
100
AcDbSymbolTableRecord
100
AcDbLayerTableRecord
  2
Defpoints
 70
     0
 62
     7
  6
Continuous
290
     0
370
    -3
390
F
  0
ENDTAB
  0
TABLE
  2
STYLE
  5
3
330
0
100
AcDbSymbolTable
 70
     2
  0
STYLE
  5
11
330
3
100
AcDbSymbolTableRecord
100
AcDbTextStyleTableRecord
  2
Standard
 70
     0
 40
0.0
 41
1.0
 50
0.0
 71
     0
 42
3.5
  3
txt
  4

  0
STYLE
  5
94
330
3
100
AcDbSymbolTableRecord
100
AcDbTextStyleTableRecord
  2
SLDTEXTSTYLE0
 70
     0
 40
0.0
 41
0.75
 50
0.0
 71
     0
 42
3.5
  3
TXT
  4

  0
ENDTAB
  0
TABLE
  2
VIEW
  5
6
330
0
100
AcDbSymbolTable
 70
     0
  0
ENDTAB
  0
TABLE
  2
UCS
  5
7
330
0
100
AcDbSymbolTable
 70
     0
  0
ENDTAB
  0
TABLE
  2
APPID
  5
9
330
0
100
AcDbSymbolTable
 70
     2
  0
APPID
  5
12
330
9
100
AcDbSymbolTableRecord
100
AcDbRegAppTableRecord
  2
ACAD
 70
     0
  0
APPID
  5
1AF
330
9
100
AcDbSymbolTableRecord
100
AcDbRegAppTableRecord
  2
PE_URL
 70
     0
  0
ENDTAB
  0
TABLE
  2
DIMSTYLE
  5
A
330
0
100
AcDbSymbolTable
 70
     3
100
AcDbDimStyleTable
  0
DIMSTYLE
105
27
330
A
100
AcDbSymbolTableRecord
100
AcDbDimStyleTableRecord
  2
ISO-25
 70
     0
 41
2.5
 42
0.625
 43
3.75
 44
1.25
 73
     0
 74
     0
 77
     1
 78
     8
140
2.5
141
2.5
143
0.03937007874016
147
0.625
171
     3
172
     1
178
     0
271
     2
272
     2
274
     3
278
    44
283
     0
284
     8
340
11
  0
DIMSTYLE
105
D0
102
{ACAD_REACTORS
330
CF
330
F9
330
10D
330
E5
102
}
330
A
100
AcDbSymbolTableRecord
100
AcDbDimStyleTableRecord
  2
SLDDIMSTYLE0
 70
     0
 41
3.302
 44
0.0
 45
0.000000001
 73
     0
 74
     0
 77
     1
 78
    12
 79
     3
140
3.5
143
0.0393700787401575
147
0.875
148
0.000000001
170
     1
172
     1
173
     1
178
     0
271
     2
272
     2
276
     2
284
    12
289
     0
340
94
  0
DIMSTYLE
105
E6
330
A
100
AcDbSymbolTableRecord
100
AcDbDimStyleTableRecord
  2
SLDDIMSTYLE1
 70
     0
 41
3.302
 44
0.0
 45
0.000000001
 73
     0
 74
     0
 77
     1
 78
    12
 79
     3
140
3.5
143
0.0393700787401575
147
0.875
148
0.000000001
170
     1
173
     1
178
     0
271
     2
272
     2
276
     2
284
    12
340
94
  0
ENDTAB
  0
TABLE
  2
BLOCK_RECORD
  5
1
330
0
100
AcDbSymbolTable
 70
    11
  0
BLOCK_RECORD
  5
1F
330
1
100
AcDbSymbolTableRecord
100
AcDbBlockTableRecord
  2
*Model_Space
340
22
  0
BLOCK_RECORD
  5
1B
330
1
100
AcDbSymbolTableRecord
100
AcDbBlockTableRecord
  2
*Paper_Space
340
1E
  0
BLOCK_RECORD
  5
23
330
1
100
AcDbSymbolTableRecord
100
AcDbBlockTableRecord
  2
*Paper_Space0
340
26
  0
BLOCK_RECORD
  5
7F
330
1
100
AcDbSymbolTableRecord
100
AcDbBlockTableRecord
  2
블럭10
340
0
102
{BLKREFS
331
C8
102
}
  0
BLOCK_RECORD
  5
D1
330
1
100
AcDbSymbolTableRecord
100
AcDbBlockTableRecord
  2
_D
340
0
  0
BLOCK_RECORD
  5
E7
330
1
100
AcDbSymbolTableRecord
100
AcDbBlockTableRecord
  2
_D_1
340
0
  0
BLOCK_RECORD
  5
FA
330
1
100
AcDbSymbolTableRecord
100
AcDbBlockTableRecord
  2
_D_2
340
0
  0
BLOCK_RECORD
  5
10E
330
1
100
AcDbSymbolTableRecord
100
AcDbBlockTableRecord
  2
_D_3
340
0
  0
BLOCK_RECORD
  5
128
330
1
100
AcDbSymbolTableRecord
100
AcDbBlockTableRecord
  2
SW_DOWELSYMBOL_0
340
0
102
{BLKREFS
331
12E
102
}
  0
BLOCK_RECORD
  5
189
330
1
100
AcDbSymbolTableRecord
100
AcDbBlockTableRecord
  2
*D7
340
0
  0
BLOCK_RECORD
  5
19A
330
1
100
AcDbSymbolTableRecord
100
AcDbBlockTableRecord
  2
*D8
340
0
  0
BLOCK_RECORD
  5
1E1
330
1
100
AcDbSymbolTableRecord
100
AcDbBlockTableRecord
  2
*D9
340
0
  0
BLOCK_RECORD
  5
1F3
330
1
100
AcDbSymbolTableRecord
100
AcDbBlockTableRecord
  2
*D10
340
0
  0
ENDTAB
  0
ENDSEC
  0
SECTION
  2
BLOCKS
  0
BLOCK
  5
20
330
1F
100
AcDbEntity
  8
0
100
AcDbBlockBegin
  2
*Model_Space
 70
     0
 10
0.0
 20
0.0
 30
0.0
  3
*Model_Space
  1
*Model_Space
  0
ENDBLK
  5
21
330
1F
100
AcDbEntity
  8
0
100
AcDbBlockEnd
  0
BLOCK
  5
1C
330
1B
100
AcDbEntity
 67
     1
  8
0
100
AcDbBlockBegin
  2
*Paper_Space
 70
     0
 10
0.0
 20
0.0
 30
0.0
  3
*Paper_Space
  1
*Paper_Space
  0
ENDBLK
  5
1D
330
1B
100
AcDbEntity
 67
     1
  8
0
100
AcDbBlockEnd
  0
BLOCK
  5
24
330
23
100
AcDbEntity
  8
0
100
AcDbBlockBegin
  2
*Paper_Space0
 70
     0
 10
0.0
 20
0.0
 30
0.0
  3
*Paper_Space0
  1
*Paper_Space0
  0
ENDBLK
  5
25
330
23
100
AcDbEntity
  8
0
100
AcDbBlockEnd
  0
BLOCK
  5
80
330
7F
100
AcDbEntity
  8
0
100
AcDbBlockBegin
  2
블럭10
 70
     2
 10
0.0
 20
0.0
 30
0.0
  3
블럭10
  1
블럭10
  0
ELLIPSE
  5
82
330
7F
100
AcDbEntity
  8
중심선
100
AcDbEllipse
 10
20.54032771741204
 20
12.0471743016438
 30
0.0
 11
6.600054785286829
 21
-1.261213355974178E-13
 31
0.0
210
0.0
220
0.0
230
1.0
 40
0.636358354079598
 41
0.9219305317359503
 42
6.513795318482858
  0
ELLIPSE
  5
83
330
7F
100
AcDbEntity
  8
중심선
100
AcDbEllipse
 10
20.54032771746488
 20
12.04717430159265
 30
0.0
 11
3.960054785062283
 21
1.540847449632565E-10
 31
0.0
210
0.0
220
0.0
230
1.0
 40
0.3939339440162632
 41
1.131841032648279
 42
5.62031148352944
  0
LINE
  5
84
330
7F
100
AcDbEntity
  8
중심선
100
AcDbLine
 10
2.268634060543552
 20
16.24717430164393
 30
0.0
 11
5.714909304380834
 21
16.24717430164393
 31
0.0
  0
LINE
  5
85
330
7F
100
AcDbEntity
  8
중심선
100
AcDbLine
 10
5.245725140726316
 20
7.84717430164391
 30
0.0
 11
8.692000384563599
 21
7.84717430164391
 31
0.0
  0
LINE
  5
86
330
7F
100
AcDbEntity
  8
중심선
100
AcDbLine
 10
15.74043728645272
 20
16.24717430164393
 30
0.0
 11
8.692000384563599
 21
7.84717430164391
 31
0.0
  0
LINE
  5
87
330
7F
100
AcDbEntity
  8
중심선
100
AcDbLine
 10
0.1404042013395286
 20
13.71084872107135
 30
0.0
 11
3.58671253028996
 21
13.71088815037384
 31
0.0
  0
LINE
  5
88
330
7F
100
AcDbEntity
  8
중심선
100
AcDbLine
 10
2.750260043222114
 20
10.84717430164391
 30
0.0
 11
6.196535287059397
 21
10.84717430164391
 31
0.0
  0
LINE
  5
89
330
7F
100
AcDbEntity
  8
중심선
100
AcDbLine
 10
12.29416204261559
 20
16.24717430164393
 30
0.0
 11
5.245725140726316
 21
7.84717430164391
 31
0.0
  0
LINE
  5
8A
330
7F
100
AcDbEntity
  8
중심선
100
AcDbLine
 10
10.72767329541681
 20
16.24717430164393
 30
0.0
 11
6.196535287059397
 21
10.84717430164391
 31
0.0
  0
LINE
  5
8B
330
7F
100
AcDbEntity
  8
중심선
100
AcDbLine
 10
7.28139805157953
 20
16.24717430164393
 30
0.0
 11
2.750260043222114
 21
10.84717430164391
 31
0.0
  0
LINE
  5
8C
330
7F
100
AcDbEntity
  8
중심선
100
AcDbLine
 10
5.714909304380834
 20
16.24717430164393
 30
0.0
 11
3.58671253028996
 21
13.71088815037384
 31
0.0
  0
LINE
  5
8D
330
7F
100
AcDbEntity
  8
중심선
100
AcDbLine
 10
2.268634060543552
 20
16.24717430164393
 30
0.0
 11
0.1404042013395286
 21
13.71084872107135
 31
0.0
  0
LINE
  5
8E
330
7F
100
AcDbEntity
  8
중심선
100
AcDbLine
 10
7.28139805157953
 20
16.24717430164393
 30
0.0
 11
10.72767329541681
 21
16.24717430164393
 31
0.0
  0
LINE
  5
8F
330
7F
100
AcDbEntity
  8
중심선
100
AcDbLine
 10
12.29416204261559
 20
16.24717430164393
 30
0.0
 11
15.74043728645272
 21
16.24717430164393
 31
0.0
  0
LINE
  5
90
330
7F
100
AcDbEntity
  8
중심선
100
AcDbLine
 10
19.22036997980202
 20
11.08717430171403
 30
0.0
 11
23.66174974927406
 21
11.08717430171406
 31
0.0
  0
LINE
  5
91
330
7F
100
AcDbEntity
  8
중심선
100
AcDbLine
 10
19.22039502424796
 20
13.00717430171391
 30
0.0
 11
19.22036997980202
 21
11.08717430171403
 31
0.0
  0
LINE
  5
92
330
7F
100
AcDbEntity
  8
중심선
100
AcDbLine
 10
19.22039502424796
 20
13.00717430171391
 30
0.0
 11
26.96566020931264
 21
13.00717430171391
 31
0.0
  0
LINE
  5
93
330
7F
100
AcDbEntity
  8
중심선
100
AcDbLine
 10
22.22332737316547
 20
13.45928029700563
 30
0.0
 11
24.52862924686651
 21
15.39360700705356
 31
0.0
  0
ATTDEF
  5
95
330
7F
100
AcDbEntity
  8
FORMAT
 62
     2
100
AcDbText
 10
4.408487351596664
 20
2.075366912832191
 30
0.0
 40
4.233333333333333
  1
E1013004
 41
0.75
  7
SLDTEXTSTYLE0
 11
4.408487351596664
 21
-0.0412997538344756
 31
0.0
100
AcDbAttributeDefinition
  3

  2
AUTOATTR0
 70
     0
 74
     1
  0
ENDBLK
  5
81
330
7F
100
AcDbEntity
  8
0
100
AcDbBlockEnd
  0
BLOCK
  5
D2
330
D1
100
AcDbEntity
  8
0
100
AcDbBlockBegin
  2
_D
 70
     0
 10
0.0
 20
0.0
 30
0.0
  3
_D
  1
_D
  0
LINE
  5
D4
330
D1
100
AcDbEntity
  8
치수문자_일반주서
 62
     0
370
    -2
100
AcDbLine
 10
28.57499999999999
 20
0.8562500000000034
 30
0.0
 11
28.57499999999999
 21
10.38125
 31
0.0
  0
LINE
  5
D5
330
D1
100
AcDbEntity
  8
치수문자_일반주서
 62
     0
370
    -2
100
AcDbLine
 10
23.8125
 20
0.8562500000000097
 30
0.0
 11
23.8125
 21
10.38125
 31
0.0
  0
LINE
  5
D6
330
D1
100
AcDbEntity
  8
치수문자_일반주서
 62
     0
370
    -2
100
AcDbLine
 10
28.57499999999999
 20
10.38125
 30
0.0
 11
52.2
 21
10.38125
 31
0.0
  0
LINE
  5
D7
330
D1
100
AcDbEntity
  8
치수문자_일반주서
 62
     0
370
    -2
100
AcDbLine
 10
28.57499999999999
 20
10.38125
 30
0.0
 11
23.8125
 21
10.38125
 31
0.0
  0
LINE
  5
D8
330
D1
100
AcDbEntity
  8
치수문자_일반주서
 62
     0
370
    -2
100
AcDbLine
 10
31.07499999999999
 20
10.38125
 30
0.0
 11
33.57499999999999
 21
10.38125
 31
0.0
  0
LINE
  5
D9
330
D1
100
AcDbEntity
  8
치수문자_일반주서
 62
     0
370
    -2
100
AcDbLine
 10
21.3125
 20
10.38125
 30
0.0
 11
18.8125
 21
10.38125
 31
0.0
  0
SOLID
  5
DA
330
D1
100
AcDbEntity
  8
치수문자_일반주서
 62
     0
100
AcDbTrace
 10
31.07499999999999
 20
10.79791666666667
 30
0.0
 11
31.07499999999999
 21
9.964583333333334
 31
0.0
 12
28.57499999999999
 22
10.38125
 32
0.0
 13
28.57499999999999
 23
10.38125
 33
0.0
  0
SOLID
  5
DB
330
D1
100
AcDbEntity
  8
치수문자_일반주서
 62
     0
100
AcDbTrace
 10
21.3125
 20
9.964583333333334
 30
0.0
 11
21.3125
 21
10.79791666666667
 31
0.0
 12
23.8125
 22
10.38125
 32
0.0
 13
23.8125
 23
10.38125
 33
0.0
  0
MTEXT
  5
DC
330
D1
100
AcDbEntity
  8
치수문자_일반주서
 62
     0
100
AcDbMText
 10
42.8875
 20
13.75625
 30
0.0
 40
2.5
 41
0.0
 71
     2
 72
     1
  1
\A1;4.76 [3/16]
  7
SLDTEXTSTYLE0
 73
     1
 44
1.0
  0
POINT
  5
DD
330
D1
100
AcDbEntity
  8
Defpoints
 62
     0
100
AcDbPoint
 10
28.57499999999999
 20
0.7937500000000034
 30
0.0
  0
POINT
  5
DE
330
D1
100
AcDbEntity
  8
Defpoints
 62
     0
100
AcDbPoint
 10
23.8125
 20
0.7937500000000097
 30
0.0
  0
POINT
  5
DF
330
D1
100
AcDbEntity
  8
Defpoints
 62
     0
100
AcDbPoint
 10
23.8125
 20
10.38125
 30
0.0
  0
ENDBLK
  5
D3
330
D1
100
AcDbEntity
  8
0
100
AcDbBlockEnd
  0
BLOCK
  5
E8
330
E7
100
AcDbEntity
  8
0
100
AcDbBlockBegin
  2
_D_1
 70
     0
 10
0.0
 20
0.0
 30
0.0
  3
_D_1
  1
_D_1
  0
LINE
  5
EA
330
E7
100
AcDbEntity
  8
치수문자_일반주서
 62
     0
370
    -2
100
AcDbLine
 10
28.57499999999999
 20
0.8562500000000034
 30
0.0
 11
28.57499999999999
 21
18.38125
 31
0.0
  0
LINE
  5
EB
330
E7
100
AcDbEntity
  8
치수문자_일반주서
 62
     0
370
    -2
100
AcDbLine
 10
-28.575
 20
0.8562500000000062
 30
0.0
 11
-28.575
 21
18.38125
 31
0.0
  0
LINE
  5
EC
330
E7
100
AcDbEntity
  8
치수문자_일반주서
 62
     0
370
    -2
100
AcDbLine
 10
26.07499999999999
 20
18.38125
 30
0.0
 11
-26.075
 21
18.38125
 31
0.0
  0
SOLID
  5
ED
330
E7
100
AcDbEntity
  8
치수문자_일반주서
 62
     0
100
AcDbTrace
 10
26.07499999999999
 20
17.96458333333333
 30
0.0
 11
26.07499999999999
 21
18.79791666666667
 31
0.0
 12
28.57499999999999
 22
18.38125
 32
0.0
 13
28.57499999999999
 23
18.38125
 33
0.0
  0
SOLID
  5
EE
330
E7
100
AcDbEntity
  8
치수문자_일반주서
 62
     0
100
AcDbTrace
 10
-26.075
 20
18.79791666666667
 30
0.0
 11
-26.075
 21
17.96458333333333
 31
0.0
 12
-28.575
 22
18.38125
 32
0.0
 13
-28.575
 23
18.38125
 33
0.0
  0
MTEXT
  5
EF
330
E7
100
AcDbEntity
  8
치수문자_일반주서
 62
     0
100
AcDbMText
 10
0.2501241026247349
 20
21.75625
 30
0.0
 40
2.5
 41
0.0
 71
     2
 72
     1
  1
\A1;57.15 [2 1/4]
  7
SLDTEXTSTYLE0
 73
     1
 44
1.0
  0
POINT
  5
F0
330
E7
100
AcDbEntity
  8
Defpoints
 62
     0
100
AcDbPoint
 10
28.57499999999999
 20
0.7937500000000034
 30
0.0
  0
POINT
  5
F1
330
E7
100
AcDbEntity
  8
Defpoints
 62
     0
100
AcDbPoint
 10
-28.575
 20
0.7937500000000062
 30
0.0
  0
POINT
  5
F2
330
E7
100
AcDbEntity
  8
Defpoints
 62
     0
100
AcDbPoint
 10
-28.575
 20
18.38125
 30
0.0
  0
ENDBLK
  5
E9
330
E7
100
AcDbEntity
  8
0
100
AcDbBlockEnd
  0
BLOCK
  5
FB
330
FA
100
AcDbEntity
  8
0
100
AcDbBlockBegin
  2
_D_2
 70
     0
 10
0.0
 20
0.0
 30
0.0
  3
_D_2
  1
_D_2
  0
LINE
  5
FD
330
FA
100
AcDbEntity
  8
치수문자_일반주서
 62
     0
370
    -2
100
AcDbLine
 10
-16.9503693429844
 20
2.381249999999996
 30
0.0
 11
-36.57500000000001
 21
2.381249999999921
 31
0.0
  0
LINE
  5
FE
330
FA
100
AcDbEntity
  8
치수문자_일반주서
 62
     0
370
    -2
100
AcDbLine
 10
-16.9503693429844
 20
-2.381250000000002
 30
0.0
 11
-36.575
 21
-2.381250000000076
 31
0.0
  0
LINE
  5
FF
330
FA
100
AcDbEntity
  8
치수문자_일반주서
 62
     0
370
    -2
100
AcDbLine
 10
-36.57500000000001
 20
2.381249999999921
 30
0.0
 11
-36.57500000000008
 21
27.88124999999998
 31
0.0
  0
LINE
  5
100
330
FA
100
AcDbEntity
  8
치수문자_일반주서
 62
     0
370
    -2
100
AcDbLine
 10
-36.57500000000001
 20
2.381249999999921
 30
0.0
 11
-36.575
 21
-2.381250000000076
 31
0.0
  0
LINE
  5
101
330
FA
100
AcDbEntity
  8
치수문자_일반주서
 62
     0
370
    -2
100
AcDbLine
 10
-36.57500000000002
 20
4.881249999999921
 30
0.0
 11
-36.57500000000002
 21
7.381249999999921
 31
0.0
  0
LINE
  5
102
330
FA
100
AcDbEntity
  8
치수문자_일반주서
 62
     0
370
    -2
100
AcDbLine
 10
-36.57499999999999
 20
-4.881250000000076
 30
0.0
 11
-36.57499999999998
 21
-7.381250000000076
 31
0.0
  0
SOLID
  5
103
330
FA
100
AcDbEntity
  8
치수문자_일반주서
 62
     0
100
AcDbTrace
 10
-36.99166666666668
 20
4.881249999999921
 30
0.0
 11
-36.15833333333335
 21
4.881249999999922
 31
0.0
 12
-36.57500000000001
 22
2.381249999999921
 32
0.0
 13
-36.57500000000001
 23
2.381249999999921
 33
0.0
  0
SOLID
  5
104
330
FA
100
AcDbEntity
  8
치수문자_일반주서
 62
     0
100
AcDbTrace
 10
-36.15833333333332
 20
-4.881250000000075
 30
0.0
 11
-36.99166666666665
 21
-4.881250000000077
 31
0.0
 12
-36.575
 22
-2.381250000000076
 32
0.0
 13
-36.575
 23
-2.381250000000076
 33
0.0
  0
MTEXT
  5
105
330
FA
100
AcDbEntity
  8
치수문자_일반주서
 62
     0
100
AcDbMText
 10
-39.95000000000005
 20
17.63124999999997
 30
0.0
 40
2.5
 41
0.0
 71
     2
 72
     1
  1
\A1;%%c4.76 [3/16]
  7
SLDTEXTSTYLE0
 11
-2.983906501879687E-15
 21
1.0
 31
0.0
 73
     1
 44
1.0
  0
POINT
  5
205
330
FA
100
AcDbEntity
  8
Defpoints
 62
     0
100
AcDbPoint
 10
-16.8878693429844
 20
2.381249999999996
 30
0.0
  0
POINT
  5
206
330
FA
100
AcDbEntity
  8
Defpoints
 62
     0
100
AcDbPoint
 10
-16.8878693429844
 20
-2.381250000000001
 30
0.0
  0
POINT
  5
207
330
FA
100
AcDbEntity
  8
Defpoints
 62
     0
100
AcDbPoint
 10
-36.575
 20
-2.381250000000075
 30
0.0
  0
ENDBLK
  5
FC
330
FA
100
AcDbEntity
  8
0
100
AcDbBlockEnd
  0
BLOCK
  5
10F
330
10E
100
AcDbEntity
  8
0
100
AcDbBlockBegin
  2
_D_3
 70
     0
 10
0.0
 20
0.0
 30
0.0
  3
_D_3
  1
_D_3
  0
LINE
  5
111
330
10E
100
AcDbEntity
  8
치수문자_일반주서
 62
     0
370
    -2
100
AcDbLine
 10
28.63749999999999
 20
0.7937500000000036
 30
0.0
 11
57.07818199557678
 21
0.7937500000001094
 31
0.0
  0
LINE
  5
112
330
10E
100
AcDbEntity
  8
치수문자_일반주서
 62
     0
370
    -2
100
AcDbLine
 10
28.63749999999999
 20
-0.7937499999999963
 30
0.0
 11
57.07818199557679
 21
-0.7937499999998909
 31
0.0
  0
LINE
  5
113
330
10E
100
AcDbEntity
  8
치수문자_일반주서
 62
     0
370
    -2
100
AcDbLine
 10
57.07818199557678
 20
0.7937500000001094
 30
0.0
 11
57.07818199557668
 21
25.04375000000012
 31
0.0
  0
LINE
  5
114
330
10E
100
AcDbEntity
  8
치수문자_일반주서
 62
     0
370
    -2
100
AcDbLine
 10
57.07818199557678
 20
0.7937500000001094
 30
0.0
 11
57.07818199557679
 21
-0.7937499999998909
 31
0.0
  0
LINE
  5
115
330
10E
100
AcDbEntity
  8
치수문자_일반주서
 62
     0
370
    -2
100
AcDbLine
 10
57.07818199557677
 20
3.293750000000109
 30
0.0
 11
57.07818199557676
 21
5.793750000000109
 31
0.0
  0
LINE
  5
116
330
10E
100
AcDbEntity
  8
치수문자_일반주서
 62
     0
370
    -2
100
AcDbLine
 10
57.07818199557681
 20
-3.293749999999891
 30
0.0
 11
57.07818199557682
 21
-5.793749999999891
 31
0.0
  0
SOLID
  5
117
330
10E
100
AcDbEntity
  8
치수문자_일반주서
 62
     0
100
AcDbTrace
 10
56.66151532891011
 20
3.293750000000108
 30
0.0
 11
57.49484866224343
 21
3.293750000000111
 31
0.0
 12
57.07818199557678
 22
0.7937500000001094
 32
0.0
 13
57.07818199557678
 23
0.7937500000001094
 33
0.0
  0
SOLID
  5
118
330
10E
100
AcDbEntity
  8
치수문자_일반주서
 62
     0
100
AcDbTrace
 10
57.49484866224347
 20
-3.293749999999889
 30
0.0
 11
56.66151532891014
 21
-3.293749999999893
 31
0.0
 12
57.07818199557679
 22
-0.7937499999998909
 32
0.0
 13
57.07818199557679
 23
-0.7937499999998909
 33
0.0
  0
MTEXT
  5
119
330
10E
100
AcDbEntity
  8
치수문자_일반주서
 62
     0
100
AcDbMText
 10
53.70318199557672
 20
15.4187500000001
 30
0.0
 40
2.5
 41
0.0
 71
     2
 72
     1
  1
\A1;%%c1.59 [1/16]
  7
SLDTEXTSTYLE0
 11
-4.475859752819529E-15
 21
1.0
 31
0.0
 73
     1
 44
1.0
  0
POINT
  5
11A
330
10E
100
AcDbEntity
  8
Defpoints
 62
     0
100
AcDbPoint
 10
28.57499999999999
 20
0.7937500000000034
 30
0.0
  0
POINT
  5
11B
330
10E
100
AcDbEntity
  8
Defpoints
 62
     0
100
AcDbPoint
 10
28.57499999999999
 20
-0.7937499999999965
 30
0.0
  0
POINT
  5
11C
330
10E
100
AcDbEntity
  8
Defpoints
 62
     0
100
AcDbPoint
 10
57.07818199557679
 20
-0.79374999999989
 30
0.0
  0
ENDBLK
  5
110
330
10E
100
AcDbEntity
  8
0
100
AcDbBlockEnd
  0
BLOCK
  5
129
330
128
100
AcDbEntity
  8
0
100
AcDbBlockBegin
  2
SW_DOWELSYMBOL_0
 70
     0
 10
0.0
 20
0.0
 30
0.0
  3
SW_DOWELSYMBOL_0
  1
SW_DOWELSYMBOL_0
  0
CIRCLE
  5
12B
330
128
100
AcDbEntity
  8
해칭선
 62
     0
100
AcDbCircle
 10
0.0
 20
0.0
 30
0.0
 40
3.000000000000003
  0
HATCH
  5
12C
330
128
100
AcDbEntity
  8
0
  6
Continuous
 62
     0
370
     0
100
AcDbHatch
 10
0.0
 20
0.0
 30
0.0
210
0.0
220
0.0
230
1.0
  2
SOLID
 70
     1
 71
     0
 91
        1
 92
        0
 93
        3
 72
     2
 10
-0.0000000000000087
 20
0.0
 40
3.000000000000003
 50
0.0
 51
90.0
 73
     1
 72
     1
 10
-0.0000000000000087
 20
3.000000000000003
 11
-0.0000000000000087
 21
0.0
 72
     1
 10
-0.0000000000000087
 20
0.0
 11
2.999999999999994
 21
0.0
 97
        0
 75
     0
 76
     1
 98
        1
 10
0.0
 20
0.0
  0
HATCH
  5
12D
330
128
100
AcDbEntity
  8
0
  6
Continuous
 62
     0
370
     0
100
AcDbHatch
 10
0.0
 20
0.0
 30
0.0
210
0.0
220
0.0
230
1.0
  2
SOLID
 70
     1
 71
     0
 91
        1
 92
        0
 93
        3
 72
     2
 10
-0.0000000000000087
 20
0.0
 40
3.000000000000003
 50
180.0
 51
270.0000000000007
 73
     1
 72
     1
 10
-0.0000000000000087
 20
-3.000000000000003
 11
-0.0000000000000087
 21
0.0
 72
     1
 10
-0.0000000000000087
 20
0.0
 11
-3.000000000000012
 21
0.0
 97
        0
 75
     0
 76
     1
 98
        1
 10
0.0
 20
0.0
  0
ENDBLK
  5
12A
330
128
100
AcDbEntity
  8
0
100
AcDbBlockEnd
  0
BLOCK
  5
18A
330
189
100
AcDbEntity
  8
0
100
AcDbBlockBegin
  2
*D7
 70
     1
 10
0.0
 20
0.0
 30
0.0
  3
*D7
  1
*D7
  0
LINE
  5
18C
330
189
100
AcDbEntity
  8
치수문자_일반주서
 62
     0
370
    -2
100
AcDbLine
 10
4.999999999999998
 20
0.9414100773884738
 30
0.0
 11
4.999999999999998
 21
11.72482837997612
 31
0.0
  0
LINE
  5
18D
330
189
100
AcDbEntity
  8
치수문자_일반주서
 62
     0
370
    -2
100
AcDbLine
 10
10.99999999999999
 20
0.9786074100472517
 30
0.0
 11
10.99999999999999
 21
11.72482837997612
 31
0.0
  0
LINE
  5
18E
330
189
100
AcDbEntity
  8
치수문자_일반주서
 62
     0
370
    -2
100
AcDbLine
 10
4.999999999999998
 20
11.72482837997612
 30
0.0
 11
10.99999999999999
 21
11.72482837997612
 31
0.0
  0
LINE
  5
18F
330
189
100
AcDbEntity
  8
치수문자_일반주서
 62
     0
370
    -2
100
AcDbLine
 10
2.499999999999998
 20
11.72482837997612
 30
0.0
 11
-0.0000000000000018
 21
11.72482837997612
 31
0.0
  0
LINE
  5
190
330
189
100
AcDbEntity
  8
치수문자_일반주서
 62
     0
370
    -2
100
AcDbLine
 10
13.49999999999999
 20
11.72482837997612
 30
0.0
 11
15.99999999999999
 21
11.72482837997612
 31
0.0
  0
SOLID
  5
191
330
189
100
AcDbEntity
  8
치수문자_일반주서
 62
     0
100
AcDbTrace
 10
2.499999999999998
 20
11.30816171330945
 30
0.0
 11
2.499999999999998
 21
12.14149504664279
 31
0.0
 12
4.999999999999998
 22
11.72482837997612
 32
0.0
 13
4.999999999999998
 23
11.72482837997612
 33
0.0
  0
SOLID
  5
192
330
189
100
AcDbEntity
  8
치수문자_일반주서
 62
     0
100
AcDbTrace
 10
13.49999999999999
 20
12.14149504664279
 30
0.0
 11
13.49999999999999
 21
11.30816171330945
 31
0.0
 12
10.99999999999999
 22
11.72482837997612
 32
0.0
 13
10.99999999999999
 23
11.72482837997612
 33
0.0
  0
MTEXT
  5
193
330
189
100
AcDbEntity
  8
치수문자_일반주서
 62
     0
100
AcDbMText
 10
7.999999999999995
 20
15.09982837997612
 30
0.0
 40
2.5
 41
0.0
 71
     2
 72
     1
  1
\A1;6 [0.24]
  7
SLDTEXTSTYLE0
 73
     1
 44
1.0
  0
POINT
  5
194
330
189
100
AcDbEntity
  8
Defpoints
 62
     0
100
AcDbPoint
 10
4.999999999999998
 20
0.8789100773884738
 30
0.0
  0
POINT
  5
195
330
189
100
AcDbEntity
  8
Defpoints
 62
     0
100
AcDbPoint
 10
10.99999999999999
 20
0.9161074100472517
 30
0.0
  0
POINT
  5
196
330
189
100
AcDbEntity
  8
Defpoints
 62
     0
100
AcDbPoint
 10
10.99999999999999
 20
11.72482837997612
 30
0.0
  0
ENDBLK
  5
18B
330
189
100
AcDbEntity
  8
0
100
AcDbBlockEnd
  0
BLOCK
  5
19B
330
19A
100
AcDbEntity
  8
0
100
AcDbBlockBegin
  2
*D8
 70
     1
 10
0.0
 20
0.0
 30
0.0
  3
*D8
  1
*D8
  0
LINE
  5
19D
330
19A
100
AcDbEntity
  8
치수문자_일반주서
 62
     0
370
    -2
100
AcDbLine
 10
62.9174931604328
 20
-22.98700586664282
 30
0.0
 11
62.9174931604328
 21
-12.20358756405517
 31
0.0
  0
LINE
  5
19E
330
19A
100
AcDbEntity
  8
치수문자_일반주서
 62
     0
370
    -2
100
AcDbLine
 10
68.9174931604328
 20
-22.94980853398404
 30
0.0
 11
68.9174931604328
 21
-12.20358756405517
 31
0.0
  0
LINE
  5
19F
330
19A
100
AcDbEntity
  8
치수문자_일반주서
 62
     0
370
    -2
100
AcDbLine
 10
62.9174931604328
 20
-12.20358756405517
 30
0.0
 11
68.9174931604328
 21
-12.20358756405517
 31
0.0
  0
LINE
  5
1A0
330
19A
100
AcDbEntity
  8
치수문자_일반주서
 62
     0
370
    -2
100
AcDbLine
 10
60.4174931604328
 20
-12.20358756405517
 30
0.0
 11
57.9174931604328
 21
-12.20358756405517
 31
0.0
  0
LINE
  5
1A1
330
19A
100
AcDbEntity
  8
치수문자_일반주서
 62
     0
370
    -2
100
AcDbLine
 10
71.4174931604328
 20
-12.20358756405517
 30
0.0
 11
73.9174931604328
 21
-12.20358756405517
 31
0.0
  0
SOLID
  5
1A2
330
19A
100
AcDbEntity
  8
치수문자_일반주서
 62
     0
100
AcDbTrace
 10
60.4174931604328
 20
-12.62025423072184
 30
0.0
 11
60.4174931604328
 21
-11.78692089738851
 31
0.0
 12
62.9174931604328
 22
-12.20358756405517
 32
0.0
 13
62.9174931604328
 23
-12.20358756405517
 33
0.0
  0
SOLID
  5
1A3
330
19A
100
AcDbEntity
  8
치수문자_일반주서
 62
     0
100
AcDbTrace
 10
71.4174931604328
 20
-11.78692089738851
 30
0.0
 11
71.4174931604328
 21
-12.62025423072184
 31
0.0
 12
68.9174931604328
 22
-12.20358756405517
 32
0.0
 13
68.9174931604328
 23
-12.20358756405517
 33
0.0
  0
MTEXT
  5
1A4
330
19A
100
AcDbEntity
  8
치수문자_일반주서
 62
     0
100
AcDbMText
 10
65.9174931604328
 20
-8.828587564055173
 30
0.0
 40
2.5
 41
0.0
 71
     2
 72
     1
  1
\A1;6 [0.24]
  7
SLDTEXTSTYLE0
 73
     1
 44
1.0
  0
POINT
  5
1A5
330
19A
100
AcDbEntity
  8
Defpoints
 62
     0
100
AcDbPoint
 10
62.9174931604328
 20
-23.04950586664282
 30
0.0
  0
POINT
  5
1A6
330
19A
100
AcDbEntity
  8
Defpoints
 62
     0
100
AcDbPoint
 10
68.9174931604328
 20
-23.01230853398404
 30
0.0
  0
POINT
  5
1A7
330
19A
100
AcDbEntity
  8
Defpoints
 62
     0
100
AcDbPoint
 10
68.9174931604328
 20
-12.20358756405517
 30
0.0
  0
ENDBLK
  5
19C
330
19A
100
AcDbEntity
  8
0
100
AcDbBlockEnd
  0
BLOCK
  5
1E2
330
1E1
100
AcDbEntity
  8
0
100
AcDbBlockBegin
  2
*D9
 70
     1
 10
0.0
 20
0.0
 30
0.0
  3
*D9
  1
*D9
  0
LINE
  5
1E4
330
1E1
100
AcDbEntity
  8
치수문자_일반주서
 62
     0
370
    -2
100
AcDbLine
 10
7.381249999999987
 20
0.6249837474663138
 30
0.0
 11
7.381249999999987
 21
10.54685874746631
 31
0.0
  0
LINE
  5
1E5
330
1E1
100
AcDbEntity
  8
치수문자_일반주서
 62
     0
370
    -2
100
AcDbLine
 10
5.0
 20
0.6249837474663014
 30
0.0
 11
5.0
 21
10.54685874746631
 31
0.0
  0
LINE
  5
1E6
330
1E1
100
AcDbEntity
  8
치수문자_일반주서
 62
     0
370
    -2
100
AcDbLine
 10
7.381249999999987
 20
10.54685874746631
 30
0.0
 11
31.63125
 21
10.54685874746631
 31
0.0
  0
LINE
  5
1E7
330
1E1
100
AcDbEntity
  8
치수문자_일반주서
 62
     0
370
    -2
100
AcDbLine
 10
7.381249999999987
 20
10.54685874746631
 30
0.0
 11
5.0
 21
10.54685874746631
 31
0.0
  0
LINE
  5
1E8
330
1E1
100
AcDbEntity
  8
치수문자_일반주서
 62
     0
370
    -2
100
AcDbLine
 10
9.881249999999987
 20
10.54685874746631
 30
0.0
 11
12.38124999999999
 21
10.54685874746631
 31
0.0
  0
LINE
  5
1E9
330
1E1
100
AcDbEntity
  8
치수문자_일반주서
 62
     0
370
    -2
100
AcDbLine
 10
2.5
 20
10.54685874746631
 30
0.0
 11
0.0
 21
10.54685874746631
 31
0.0
  0
SOLID
  5
1EA
330
1E1
100
AcDbEntity
  8
치수문자_일반주서
 62
     0
100
AcDbTrace
 10
9.881249999999987
 20
10.96352541413298
 30
0.0
 11
9.881249999999987
 21
10.13019208079964
 31
0.0
 12
7.381249999999987
 22
10.54685874746631
 32
0.0
 13
7.381249999999987
 23
10.54685874746631
 33
0.0
  0
SOLID
  5
1EB
330
1E1
100
AcDbEntity
  8
치수문자_일반주서
 62
     0
100
AcDbTrace
 10
2.5
 20
10.13019208079964
 30
0.0
 11
2.5
 21
10.96352541413298
 31
0.0
 12
5.0
 22
10.54685874746631
 32
0.0
 13
5.0
 23
10.54685874746631
 33
0.0
  0
MTEXT
  5
1EC
330
1E1
100
AcDbEntity
  8
치수문자_일반주서
 62
     0
100
AcDbMText
 10
22.00625
 20
13.92185874746631
 30
0.0
 40
2.5
 41
0.0
 71
     2
 72
     1
  1
\A1;2.38 [3/32]
  7
SLDTEXTSTYLE0
 73
     1
 44
1.0
  0
POINT
  5
1ED
330
1E1
100
AcDbEntity
  8
Defpoints
 62
     0
100
AcDbPoint
 10
7.381249999999987
 20
0.5624837474663138
 30
0.0
  0
POINT
  5
1EE
330
1E1
100
AcDbEntity
  8
Defpoints
 62
     0
100
AcDbPoint
 10
5.0
 20
0.5624837474663014
 30
0.0
  0
POINT
  5
1EF
330
1E1
100
AcDbEntity
  8
Defpoints
 62
     0
100
AcDbPoint
 10
5.0
 20
10.54685874746631
 30
0.0
  0
ENDBLK
  5
1E3
330
1E1
100
AcDbEntity
  8
0
100
AcDbBlockEnd
  0
BLOCK
  5
1F4
330
1F3
100
AcDbEntity
  8
0
100
AcDbBlockBegin
  2
*D10
 70
     1
 10
0.0
 20
0.0
 30
0.0
  3
*D10
  1
*D10
  0
LINE
  5
1F6
330
1F3
100
AcDbEntity
  8
치수문자_일반주서
 62
     0
370
    -2
100
AcDbLine
 10
58.08407150214723
 20
-23.19243724797598
 30
0.0
 11
58.08407150214723
 21
-13.27056224797599
 31
0.0
  0
LINE
  5
1F7
330
1F3
100
AcDbEntity
  8
치수문자_일반주서
 62
     0
370
    -2
100
AcDbLine
 10
55.70282150214724
 20
-23.192437247976
 30
0.0
 11
55.70282150214724
 21
-13.27056224797599
 31
0.0
  0
LINE
  5
1F8
330
1F3
100
AcDbEntity
  8
치수문자_일반주서
 62
     0
370
    -2
100
AcDbLine
 10
58.08407150214723
 20
-13.27056224797599
 30
0.0
 11
82.33407150214725
 21
-13.27056224797599
 31
0.0
  0
LINE
  5
1F9
330
1F3
100
AcDbEntity
  8
치수문자_일반주서
 62
     0
370
    -2
100
AcDbLine
 10
58.08407150214723
 20
-13.27056224797599
 30
0.0
 11
55.70282150214724
 21
-13.27056224797599
 31
0.0
  0
LINE
  5
1FA
330
1F3
100
AcDbEntity
  8
치수문자_일반주서
 62
     0
370
    -2
100
AcDbLine
 10
60.58407150214723
 20
-13.27056224797599
 30
0.0
 11
63.08407150214723
 21
-13.27056224797599
 31
0.0
  0
LINE
  5
1FB
330
1F3
100
AcDbEntity
  8
치수문자_일반주서
 62
     0
370
    -2
100
AcDbLine
 10
53.20282150214724
 20
-13.27056224797599
 30
0.0
 11
50.70282150214724
 21
-13.27056224797599
 31
0.0
  0
SOLID
  5
1FC
330
1F3
100
AcDbEntity
  8
치수문자_일반주서
 62
     0
100
AcDbTrace
 10
60.58407150214723
 20
-12.85389558130932
 30
0.0
 11
60.58407150214723
 21
-13.68722891464265
 31
0.0
 12
58.08407150214723
 22
-13.27056224797599
 32
0.0
 13
58.08407150214723
 23
-13.27056224797599
 33
0.0
  0
SOLID
  5
1FD
330
1F3
100
AcDbEntity
  8
치수문자_일반주서
 62
     0
100
AcDbTrace
 10
53.20282150214724
 20
-13.68722891464265
 30
0.0
 11
53.20282150214724
 21
-12.85389558130932
 31
0.0
 12
55.70282150214724
 22
-13.27056224797599
 32
0.0
 13
55.70282150214724
 23
-13.27056224797599
 33
0.0
  0
MTEXT
  5
1FE
330
1F3
100
AcDbEntity
  8
치수문자_일반주서
 62
     0
100
AcDbMText
 10
72.70907150214725
 20
-9.895562247975988
 30
0.0
 40
2.5
 41
0.0
 71
     2
 72
     1
  1
\A1;2.38 [3/32]
  7
SLDTEXTSTYLE0
 73
     1
 44
1.0
  0
POINT
  5
1FF
330
1F3
100
AcDbEntity
  8
Defpoints
 62
     0
100
AcDbPoint
 10
58.08407150214723
 20
-23.25493724797598
 30
0.0
  0
POINT
  5
200
330
1F3
100
AcDbEntity
  8
Defpoints
 62
     0
100
AcDbPoint
 10
55.70282150214724
 20
-23.254937247976
 30
0.0
  0
POINT
  5
201
330
1F3
100
AcDbEntity
  8
Defpoints
 62
     0
100
AcDbPoint
 10
55.70282150214724
 20
-13.27056224797599
 30
0.0
  0
ENDBLK
  5
1F5
330
1F3
100
AcDbEntity
  8
0
100
AcDbBlockEnd
  0
ENDSEC
  0
SECTION
  2
ENTITIES
  0
LINE
  5
96
330
1F
100
AcDbEntity
  8
외형선
  6
Continuous
370
    15
100
AcDbLine
 10
16.88786934298442
 20
-2.381249999999997
 30
0.0
 11
22.81249999999999
 21
-0.7937499999999967
 31
0.0
  0
LINE
  5
97
330
1F
100
AcDbEntity
  8
외형선
  6
Continuous
370
    15
100
AcDbLine
 10
22.81249999999999
 20
0.7937500000000034
 30
0.0
 11
16.88786934298442
 21
2.381250000000002
 31
0.0
  0
LINE
  5
98
330
1F
100
AcDbEntity
  8
외형선
  6
Continuous
370
    15
100
AcDbLine
 10
16.88786934298442
 20
2.381250000000002
 30
0.0
 11
-16.88786934298441
 21
2.381249999999998
 31
0.0
  0
LINE
  5
99
330
1F
100
AcDbEntity
  8
외형선
  6
Continuous
370
    15
100
AcDbLine
 10
-16.8878693429844
 20
-2.381250000000001
 30
0.0
 11
16.88786934298442
 21
-2.381249999999997
 31
0.0
  0
LINE
  5
9C
330
1F
100
AcDbEntity
  8
외형선
  6
Continuous
370
    15
100
AcDbLine
 10
23.01275442766094
 20
0.7937500000000033
 30
0.0
 11
22.81249999999999
 21
0.7937500000000033
 31
0.0
  0
LINE
  5
9D
330
1F
100
AcDbEntity
  8
외형선
  6
Continuous
370
    15
100
AcDbLine
 10
23.81249999999999
 20
0.7937500000000034
 30
0.0
 11
23.3039197652226
 21
0.7937500000000033
 31
0.0
  0
LINE
  5
9E
330
1F
100
AcDbEntity
  8
외형선
  6
Continuous
370
    15
100
AcDbLine
 10
23.3039197652226
 20
-0.7937499999999966
 30
0.0
 11
23.81249999999999
 21
-0.7937499999999965
 31
0.0
  0
LINE
  5
9F
330
1F
100
AcDbEntity
  8
외형선
  6
Continuous
370
    15
100
AcDbLine
 10
22.81249999999999
 20
-0.7937499999999966
 30
0.0
 11
23.01275442766094
 21
-0.7937499999999966
 31
0.0
  0
LINE
  5
A0
330
1F
100
AcDbEntity
  8
0
  6
Continuous
 62
     1
370
    25
100
AcDbLine
 10
27.62331129450634
 20
-0.7937499999999965
 30
0.0
 11
27.78124999999999
 21
-0.7937499999999965
 31
0.0
1001
PE_URL
1000

  0
LINE
  5
A1
330
1F
100
AcDbEntity
  8
0
  6
Continuous
 62
     1
370
    25
100
AcDbLine
 10
25.02863079097452
 20
0.7937500000000034
 30
0.0
 11
23.81249999999999
 21
0.7937500000000034
 31
0.0
1001
PE_URL
1000

  0
ARC
  5
A2
330
1F
100
AcDbEntity
  8
0
  6
Continuous
 62
     1
370
    25
100
AcDbCircle
 10
27.78124999999999
 20
0.0000000000000034
 30
0.0
 40
0.7937499999999997
100
AcDbArc
 50
270.0000000000007
 51
0.0
1001
PE_URL
1000

  0
ARC
  5
A3
330
1F
100
AcDbEntity
  8
0
  6
Continuous
 62
     1
370
    25
100
AcDbCircle
 10
27.78124999999999
 20
0.0000000000000034
 30
0.0
 40
0.7937499999999997
100
AcDbArc
 50
0.0
 51
90.0
1001
PE_URL
1000

  0
LINE
  5
A4
330
1F
100
AcDbEntity
  8
0
  6
Continuous
 62
     1
370
    25
100
AcDbLine
 10
23.81249999999999
 20
-0.7937499999999965
 30
0.0
 11
25.02778655641254
 21
-0.7937499999999965
 31
0.0
1001
PE_URL
1000

  0
LINE
  5
A5
330
1F
100
AcDbEntity
  8
0
  6
Continuous
 62
     1
370
    25
100
AcDbLine
 10
27.78124999999999
 20
0.7937500000000034
 30
0.0
 11
27.62331129450634
 21
0.7937500000000034
 31
0.0
1001
PE_URL
1000

  0
LINE
  5
A6
330
1F
100
AcDbEntity
  8
외형선
  6
Continuous
370
    15
100
AcDbLine
 10
22.81249999999999
 20
0.7937500000000034
 30
0.0
 11
22.81249999999999
 21
-0.793749999999997
 31
0.0
  0
LINE
  5
A7
330
1F
100
AcDbEntity
  8
외형선
  6
Continuous
370
    15
100
AcDbLine
 10
16.88786934298442
 20
2.381250000000002
 30
0.0
 11
16.88786934298442
 21
-2.38125
 31
0.0
  0
LINE
  5
AA
330
1F
100
AcDbEntity
  8
외형선
  6
Continuous
370
    15
100
AcDbLine
 10
23.01257714408822
 20
-0.7759887673809734
 30
0.0
 11
23.3039197652226
 21
-0.7841563818995888
 31
0.0
  0
LINE
  5
AB
330
1F
100
AcDbEntity
  8
외형선
  6
Continuous
370
    15
100
AcDbLine
 10
23.01275442766094
 20
-0.7937499999999966
 30
0.0
 11
23.01275442766094
 21
-0.7758799886573089
 31
0.0
  0
LINE
  5
AC
330
1F
100
AcDbEntity
  8
외형선
  6
Continuous
370
    15
100
AcDbLine
 10
23.81249999999999
 20
0.7937500000000034
 30
0.0
 11
23.81249999999999
 21
0.739806630986247
 31
0.0
  0
SPLINE
  5
AD
330
1F
100
AcDbEntity
  8
외형선
  6
Continuous
370
    15
100
AcDbSpline
210
0.0
220
0.0
230
1.0
 70
     8
 71
     3
 72
    12
 73
     8
 74
     0
 42
0.000000001
 43
0.00000001
 40
0.0
 40
0.0
 40
0.0
 40
0.0
 40
0.25
 40
0.25
 40
0.5
 40
0.5
 40
1.0
 40
1.0
 40
1.0
 40
1.0
 10
23.81249999999999
 20
0.7398066309862468
 30
0.0
 10
23.7458333346311
 20
0.7537744373515761
 30
0.0
 10
23.68075484883717
 20
0.7650379749576832
 30
0.0
 10
23.54732265646998
 20
0.7822783648681765
 30
0.0
 10
23.47971171277026
 20
0.7881840397542151
 30
0.0
 10
23.27741397970537
 20
0.7973868966749752
 30
0.0
 10
23.14690385489562
 20
0.7922465795570348
 30
0.0
 10
23.01257714408822
 20
0.7759887673809804
 30
0.0
  0
SPLINE
  5
AE
330
1F
100
AcDbEntity
  8
외형선
  6
Continuous
370
    15
100
AcDbSpline
210
0.0
220
0.0
230
1.0
 70
     8
 71
     3
 72
    12
 73
     8
 74
     0
 42
0.000000001
 43
0.00000001
 40
0.0
 40
0.0
 40
0.0
 40
0.0
 40
0.2499999999999999
 40
0.2499999999999999
 40
0.4999999999999998
 40
0.4999999999999998
 40
1.0
 40
1.0
 40
1.0
 40
1.0
 10
23.8125000000028
 20
-0.5032051364283047
 30
0.0
 10
23.74584799912001
 20
-0.4734005705747636
 30
0.0
 10
23.68078380760839
 20
-0.4420685348175321
 30
0.0
 10
23.54738174960145
 20
-0.3759970131580624
 30
0.0
 10
23.47978603634673
 20
-0.3413593085513689
 30
0.0
 10
23.27753232618727
 20
-0.2342524552469815
 30
0.0
 10
23.14704959366554
 20
-0.1592916760423735
 30
0.0
 10
23.01275442767325
 20
-0.0824418902240243
 30
0.0
  0
LINE
  5
AF
330
1F
100
AcDbEntity
  8
외형선
  6
Continuous
370
    15
100
AcDbLine
 10
23.81249999999999
 20
-0.5032051364252961
 30
0.0
 11
23.81249999999999
 21
-0.7937499999999965
 31
0.0
  0
LINE
  5
B0
330
1F
100
AcDbEntity
  8
외형선
  6
Continuous
370
    15
100
AcDbLine
 10
23.01275442766094
 20
-0.0824982085115969
 30
0.0
 11
23.01275442766094
 21
0.7937500000000033
 31
0.0
  0
SPLINE
  5
B1
330
1F
100
AcDbEntity
  8
외형선
  6
Continuous
370
    15
100
AcDbSpline
210
0.0
220
0.0
230
1.0
 70
    24
 71
     3
 72
    12
 73
     8
 74
     0
 42
0.000000001
 43
0.00000001
 40
0.0
 40
0.0
 40
0.0
 40
0.0
 40
0.4999999999999999
 40
0.4999999999999999
 40
0.75
 40
0.75
 40
1.0
 40
1.0
 40
1.0
 40
1.0
 10
23.81249999999999
 20
0.1710758789452463
 30
0.0
 10
23.81249999999999
 20
0.0920331011793409
 30
0.0
 10
23.81249999999999
 20
-0.0205847443499567
 30
0.0
 10
23.81249999999999
 20
-0.2127687978244582
 30
0.0
 10
23.81249999999999
 20
-0.2795263218749046
 30
0.0
 10
23.81249999999999
 20
-0.4028406146867022
 30
0.0
 10
23.81249999999999
 20
-0.458980058875093
 30
0.0
 10
23.81249999999999
 20
-0.5032051364250089
 30
0.0
  0
SPLINE
  5
B2
330
1F
100
AcDbEntity
  8
외형선
  6
Continuous
370
    15
100
AcDbSpline
210
0.0
220
0.0
230
1.0
 70
     8
 71
     3
 72
    12
 73
     8
 74
     0
 42
0.000000001
 43
0.00000001
 40
0.0
 40
0.0
 40
0.0
 40
0.0
 40
0.2499999999999999
 40
0.2499999999999999
 40
0.4999999999999998
 40
0.4999999999999998
 40
1.0
 40
1.0
 40
1.0
 40
1.0
 10
23.81250000000636
 20
0.1710758789428673
 30
0.0
 10
23.74584799912222
 20
0.1959712531399788
 30
0.0
 10
23.68078380760933
 20
0.2200700327054057
 30
0.0
 10
23.54738174959974
 20
0.2669426347506785
 30
0.0
 10
23.47978603634368
 20
0.2896172309276178
 30
0.0
 10
23.27753232618025
 20
0.3542426092983739
 30
0.0
 10
23.14704959365589
 20
0.3924543072310801
 30
0.0
 10
23.01275442766094
 20
0.4249708422157151
 30
0.0
  0
SPLINE
  5
B3
330
1F
100
AcDbEntity
  8
외형선
  6
Continuous
370
    15
100
AcDbSpline
210
0.0
220
0.0
230
1.0
 70
    24
 71
     3
 72
    12
 73
     8
 74
     0
 42
0.000000001
 43
0.00000001
 40
0.0
 40
0.0
 40
0.0
 40
0.0
 40
0.2499999999999999
 40
0.2499999999999999
 40
0.4999999999999998
 40
0.4999999999999998
 40
1.0
 40
1.0
 40
1.0
 40
1.0
 10
23.81249999999999
 20
0.739806630994354
 30
0.0
 10
23.81249999999999
 20
0.6817217443129039
 30
0.0
 10
23.81249999999999
 20
0.6188927634221366
 30
0.0
 10
23.81249999999999
 20
0.4970172550888016
 30
0.0
 10
23.81249999999999
 20
0.438247261904026
 30
0.0
 10
23.81249999999999
 20
0.2836277175633129
 30
0.0
 10
23.81249999999999
 20
0.2123216372665152
 30
0.0
 10
23.81249999999999
 20
0.1710758789452463
 30
0.0
  0
SPLINE
  5
B4
330
1F
100
AcDbEntity
  8
0
  6
Continuous
 62
     1
370
    25
100
AcDbSpline
210
0.0
220
0.0
230
1.0
 70
     8
 71
     3
 72
    19
 73
    15
 74
     0
 42
0.000000001
 43
0.00000001
 40
0.0
 40
0.0
 40
0.0
 40
0.0
 40
0.1074295841733791
 40
0.2161069726411116
 40
0.2994296291557914
 40
0.3833344883022832
 40
0.4663703819792439
 40
0.5499843802824728
 40
0.632893137747645
 40
0.716377174337872
 40
0.7990448289740361
 40
0.8822820784833051
 40
0.9649510178546151
 40
1.0
 40
1.0
 40
1.0
 40
1.0
 10
27.78124999999999
 20
-0.3318054003276282
 30
0.0
 10
27.68268055031408
 20
-0.2785958355416556
 30
0.0
 10
27.48439675790785
 20
-0.1715586720831279
 30
0.0
 10
27.2094372285873
 20
-0.0123123596022446
 30
0.0
 10
26.95637108985753
 20
0.1337472788409496
 30
0.0
 10
26.7269913294079
 20
0.2629888934609839
 30
0.0
 10
26.49651686314681
 20
0.3837211383416221
 30
0.0
 10
26.26837608707415
 20
0.495399466954902
 30
0.0
 10
26.03815509862139
 20
0.5913195383396008
 30
0.0
 10
25.81039816003122
 20
0.6723489763513659
 30
0.0
 10
25.58113022497521
 20
0.7339552133955239
 30
0.0
 10
25.35307273549549
 20
0.7744735824593776
 30
0.0
 10
25.16899015402564
 20
0.7938795622417376
 30
0.0
 10
25.06083313776292
 20
0.7917243675602439
 30
0.0
 10
25.02863079097452
 20
0.7910826863367032
 30
0.0
1001
PE_URL
1000

  0
SPLINE
  5
B5
330
1F
100
AcDbEntity
  8
0
  6
Continuous
 62
     1
370
    25
100
AcDbSpline
210
0.0
220
0.0
230
1.0
 70
     8
 71
     3
 72
    11
 73
     7
 74
     0
 42
0.000000001
 43
0.00000001
 40
0.0
 40
0.0
 40
0.0
 40
0.0
 40
0.2735132643440287
 40
0.5470330187021856
 40
0.869875027548664
 40
1.0
 40
1.0
 40
1.0
 40
1.0
 10
28.36250762875995
 20
0.0833500437369208
 30
0.0
 10
28.16605788543352
 20
0.1584452004091482
 30
0.0
 10
27.77315373735552
 20
0.3086372956365727
 30
0.0
 10
27.14849397378174
 20
0.4778985884505915
 30
0.0
 10
26.6263412080062
 20
0.5609473742670721
 30
0.0
 10
26.30100001915715
 20
0.5276738313387371
 30
0.0
 10
26.20753843148255
 20
0.5181152563527575
 30
0.0
1001
PE_URL
1000

  0
SPLINE
  5
B6
330
1F
100
AcDbEntity
  8
0
  6
Continuous
 62
     1
370
    25
100
AcDbSpline
210
0.0
220
0.0
230
1.0
 70
     8
 71
     3
 72
    18
 73
    14
 74
     0
 42
0.000000001
 43
0.00000001
 40
0.0
 40
0.0
 40
0.0
 40
0.0
 40
0.2500000000000008
 40
0.2500000000000008
 40
0.5000000000000016
 40
0.5000000000000016
 40
0.6250000000000011
 40
0.6250000000000011
 40
0.7500000000000008
 40
0.7500000000000008
 40
0.8750000000000003
 40
0.8750000000000003
 40
1.0
 40
1.0
 40
1.0
 40
1.0
 10
27.78124999999999
 20
-0.3318054003195614
 30
0.0
 10
27.86956756378585
 20
-0.3778327824717655
 30
0.0
 10
27.9559917582496
 20
-0.4153638588685725
 30
0.0
 10
28.12793128233758
 20
-0.4530848913587725
 30
0.0
 10
28.21424306390589
 20
-0.4520401155009531
 30
0.0
 10
28.33101788385029
 20
-0.3887418509727614
 30
0.0
 10
28.36720840655999
 20
-0.3568244623680483
 30
0.0
 10
28.42224748764703
 20
-0.2721039480785065
 30
0.0
 10
28.43883151461625
 20
-0.2218770058071647
 30
0.0
 10
28.44720552721126
 20
-0.1236993027694556
 30
0.0
 10
28.43967020148715
 20
-0.077410644253387
 30
0.0
 10
28.41051192743659
 20
0.0073585254712539
 30
0.0
 10
28.38891821735921
 20
0.0462716933615833
 30
0.0
 10
28.36250762876346
 20
0.0833500437355632
 30
0.0
1001
PE_URL
1000

  0
SPLINE
  5
B7
330
1F
100
AcDbEntity
  8
0
  6
Continuous
 62
     1
370
    25
100
AcDbSpline
210
0.0
220
0.0
230
1.0
 70
     8
 71
     3
 72
    12
 73
     8
 74
     0
 42
0.000000001
 43
0.00000001
 40
0.0
 40
0.0
 40
0.0
 40
0.0
 40
0.0055430433306831
 40
0.2633773487609065
 40
0.5220426055321753
 40
0.7809201794226373
 40
1.0
 40
1.0
 40
1.0
 40
1.0
 10
26.50285655000678
 20
-0.5380241649356652
 30
0.0
 10
26.49788487339502
 20
-0.5386160495738631
 30
0.0
 10
26.26165597768149
 20
-0.5667394102407327
 30
0.0
 10
25.79371926416784
 20
-0.4970780215219822
 30
0.0
 10
25.09819312103684
 20
-0.3274450758210649
 30
0.0
 10
24.43731751629741
 20
-0.0713199345420749
 30
0.0
 10
24.00888106318067
 20
0.0948905187056203
 30
0.0
 10
23.81250000000636
 20
0.1710758789428673
 30
0.0
1001
PE_URL
1000

  0
SPLINE
  5
B8
330
1F
100
AcDbEntity
  8
외형선
  6
Continuous
370
    15
100
AcDbSpline
210
0.0
220
0.0
230
1.0
 70
    24
 71
     3
 72
    12
 73
     8
 74
     0
 42
0.000000001
 43
0.00000001
 40
0.0
 40
0.0
 40
0.0
 40
0.0
 40
0.25
 40
0.25
 40
0.4999999999999999
 40
0.4999999999999999
 40
1.0
 40
1.0
 40
1.0
 40
1.0
 10
23.81249999999999
 20
0.7398066309943558
 30
0.0
 10
23.81249999999999
 20
0.6817217443129061
 30
0.0
 10
23.81249999999999
 20
0.6188927634221385
 30
0.0
 10
23.81249999999999
 20
0.4970172550888029
 30
0.0
 10
23.81249999999999
 20
0.4382472619040271
 30
0.0
 10
23.81249999999999
 20
0.2836277175633132
 30
0.0
 10
23.81249999999999
 20
0.2123216372665154
 30
0.0
 10
23.81249999999999
 20
0.1710758789452463
 30
0.0
  0
SPLINE
  5
B9
330
1F
100
AcDbEntity
  8
0
  6
Continuous
 62
     1
370
    25
100
AcDbSpline
210
0.0
220
0.0
230
1.0
 70
     8
 71
     3
 72
    14
 73
    10
 74
     0
 42
0.000000001
 43
0.00000001
 40
0.0
 40
0.0
 40
0.0
 40
0.0
 40
0.1457729382282881
 40
0.2915525202842622
 40
0.4373380983782299
 40
0.5831290210246878
 40
0.7358818566645636
 40
0.8886558663451622
 40
1.0
 40
1.0
 40
1.0
 40
1.0
 10
23.81249999999957
 20
0.7398066309863347
 30
0.0
 10
23.99764884986255
 20
0.6893019459449913
 30
0.0
 10
24.36795498803441
 20
0.5882902740329744
 30
0.0
 10
24.92342902453293
 20
0.3100391368798313
 30
0.0
 10
25.47894421815406
 20
-0.0092707131378149
 30
0.0
 10
26.04326692193654
 20
-0.3356957049473459
 30
0.0
 10
26.61667841847958
 20
-0.6056206072179237
 30
0.0
 10
27.14629110868586
 20
-0.7740091373176222
 30
0.0
 10
27.48184994783841
 20
-0.7780643158766468
 30
0.0
 10
27.62331129450634
 20
-0.7797738551675424
 30
0.0
1001
PE_URL
1000

  0
SPLINE
  5
BA
330
1F
100
AcDbEntity
  8
0
  6
Continuous
 62
     1
370
    25
100
AcDbSpline
210
0.0
220
0.0
230
1.0
 70
     8
 71
     3
 72
     8
 73
     4
 74
     0
 42
0.000000001
 43
0.00000001
 40
0.0
 40
0.0
 40
0.0
 40
0.0
 40
1.0
 40
1.0
 40
1.0
 40
1.0
 10
28.36250762876346
 20
0.0833500437355637
 30
0.0
 10
28.39896960831869
 20
0.1053769935627966
 30
0.0
 10
28.41916675377477
 20
0.1524478564115694
 30
0.0
 10
28.42009395390986
 20
0.2055760650343262
 30
0.0
1001
PE_URL
1000

  0
ARC
  5
BB
330
1F
100
AcDbEntity
  8
0
  6
Continuous
 62
     1
370
    25
100
AcDbCircle
 10
28.19523833881277
 20
-0.1379829822488757
 30
0.0
 40
0.4106006169133287
100
AcDbArc
 50
23.84138871527525
 51
56.79569445020737
1001
PE_URL
1000

  0
ARC
  5
BC
330
1F
100
AcDbEntity
  8
0
  6
Continuous
 62
     1
370
    25
100
AcDbCircle
 10
27.86116425058231
 20
0.0147437392166237
 30
0.0
 40
0.7097608125160155
100
AcDbArc
 50
1.06891290214332
 51
71.18739922808881
1001
PE_URL
1000

  0
SPLINE
  5
BD
330
1F
100
AcDbEntity
  8
0
  6
Continuous
 62
     1
370
    25
100
AcDbSpline
210
0.0
220
0.0
230
1.0
 70
     8
 71
     3
 72
     8
 73
     4
 74
     0
 42
0.000000001
 43
0.00000001
 40
0.0
 40
0.0
 40
0.0
 40
0.0
 40
1.0
 40
1.0
 40
1.0
 40
1.0
 10
28.09004357312279
 20
0.6865879672165428
 30
0.0
 10
27.99193449399107
 20
0.7464542051279496
 30
0.0
 10
27.88777157043755
 20
0.781434214561009
 30
0.0
 10
27.78124999999999
 20
0.7884706442928647
 30
0.0
1001
PE_URL
1000

  0
SPLINE
  5
BE
330
1F
100
AcDbEntity
  8
0
  6
Continuous
 62
     1
370
    25
100
AcDbSpline
210
0.0
220
0.0
230
1.0
 70
     8
 71
     3
 72
    10
 73
     6
 74
     0
 42
0.000000001
 43
0.00000001
 40
0.0
 40
0.0
 40
0.0
 40
0.0
 40
0.0890119525285677
 40
0.5444938637400172
 40
1.0
 40
1.0
 40
1.0
 40
1.0
 10
26.50285655000677
 20
0.5380241649356734
 30
0.0
 10
26.54078608994955
 20
0.5560315372404797
 30
0.0
 10
26.7728043882415
 20
0.6661842015009574
 30
0.0
 10
27.19893961752825
 20
0.781513308039598
 30
0.0
 10
27.58714309813215
 20
0.7861514910955327
 30
0.0
 10
27.78124999999916
 20
0.7884706442929206
 30
0.0
1001
PE_URL
1000

  0
SPLINE
  5
BF
330
1F
100
AcDbEntity
  8
0
  6
Continuous
 62
     1
370
    25
100
AcDbSpline
210
0.0
220
0.0
230
1.0
 70
     8
 71
     3
 72
    13
 73
     9
 74
     0
 42
0.000000001
 43
0.00000001
 40
0.0
 40
0.0
 40
0.0
 40
0.0
 40
0.1646806638605026
 40
0.3556880713410646
 40
0.5467021024667688
 40
0.7377092922959285
 40
0.868014964344941
 40
1.0
 40
1.0
 40
1.0
 40
1.0
 10
26.20317043841754
 20
-0.5177779006227832
 30
0.0
 10
26.07194404609334
 20
-0.5722913549301909
 30
0.0
 10
25.78851269902046
 20
-0.6900330798552605
 30
0.0
 10
25.35256081535026
 20
-0.7850436513715336
 30
0.0
 10
24.89588424811941
 20
-0.805123177087749
 30
0.0
 10
24.48733928186844
 20
-0.7424016969159127
 30
0.0
 10
24.12703148751952
 20
-0.6352229006206465
 30
0.0
 10
23.91779039712589
 20
-0.5473984950280436
 30
0.0
 10
23.81250000000185
 20
-0.5032051364260981
 30
0.0
1001
PE_URL
1000

  0
SPLINE
  5
C0
330
1F
100
AcDbEntity
  8
외형선
  6
Continuous
370
    15
100
AcDbSpline
210
0.0
220
0.0
230
1.0
 70
    24
 71
     3
 72
    12
 73
     8
 74
     0
 42
0.000000001
 43
0.00000001
 40
0.0
 40
0.0
 40
0.0
 40
0.0
 40
0.5
 40
0.5
 40
0.75
 40
0.75
 40
1.0
 40
1.0
 40
1.0
 40
1.0
 10
23.81249999999626
 20
0.1710758789466431
 30
0.0
 10
23.81249999999626
 20
0.092033101180596
 30
0.0
 10
23.81249999999626
 20
-0.0205847443488159
 30
0.0
 10
23.81249999999626
 20
-0.2127687978232845
 30
0.0
 10
23.81249999999626
 20
-0.2795263218736845
 30
0.0
 10
23.81249999999626
 20
-0.4028406146853147
 30
0.0
 10
23.81249999999626
 20
-0.4589800588735842
 30
0.0
 10
23.81249999999626
 20
-0.5032051364233554
 30
0.0
  0
SPLINE
  5
C1
330
1F
100
AcDbEntity
  8
0
  6
Continuous
 62
     1
370
    25
100
AcDbSpline
210
0.0
220
0.0
230
1.0
 70
     8
 71
     3
 72
     8
 73
     4
 74
     0
 42
0.000000001
 43
0.00000001
 40
0.0
 40
0.0
 40
0.0
 40
0.0
 40
1.0
 40
1.0
 40
1.0
 40
1.0
 10
27.92932476607294
 20
0.3553090268680214
 30
0.0
 10
28.09068057572703
 20
0.3104683959722309
 30
0.0
 10
28.2551980964592
 20
0.2599395155639302
 30
0.0
 10
28.42009395390775
 20
0.2055760650339277
 30
0.0
1001
PE_URL
1000

  0
SPLINE
  5
C2
330
1F
100
AcDbEntity
  8
0
  6
Continuous
 62
     1
370
    25
100
AcDbSpline
210
0.0
220
0.0
230
1.0
 70
     8
 71
     3
 72
    10
 73
     6
 74
     0
 42
0.000000001
 43
0.00000001
 40
0.0
 40
0.0
 40
0.0
 40
0.0
 40
0.5
 40
0.5
 40
1.0
 40
1.0
 40
1.0
 40
1.0
 10
28.09004357312279
 20
0.6865879672165431
 30
0.0
 10
28.10130913406296
 20
0.6199186467491747
 30
0.0
 10
28.09967584626565
 20
0.547578824000574
 30
0.0
 10
28.04395229067254
 20
0.424349886325436
 30
0.0
 10
27.98926653400998
 20
0.3790710383202762
 30
0.0
 10
27.92932476607277
 20
0.3553090268682839
 30
0.0
1001
PE_URL
1000

  0
LINE
  5
C3
330
1F
100
AcDbEntity
  8
중심선
 62
     1
100
AcDbLine
 10
-30.07499999999999
 20
-0.0000000000000035
 30
0.0
 11
30.07499999999999
 21
0.0000000000000035
 31
0.0
  0
LINE
  5
C4
330
1F
100
AcDbEntity
  8
참조1
100
AcDbLine
 10
0.0
 20
-0.000000000000004
 30
0.0
 11
0.0000000000000053
 21
-40.00000000000001
 31
0.0
  0
LINE
  5
C5
330
1F
100
AcDbEntity
  8
참조1
100
AcDbLine
 10
28.575
 20
-0.000000000000004
 30
0.0
 11
28.575
 21
0.6309734778393064
 31
0.0
  0
LINE
  5
C6
330
1F
100
AcDbEntity
  8
참조1
100
AcDbLine
 10
0.0000000000000053
 20
-40.00000000000001
 30
0.0
 11
-14.36510681430868
 21
-40.0
 31
0.0
  0
CIRCLE
  5
C7
330
1F
100
AcDbEntity
  8
해칭선
100
AcDbCircle
 10
0.0
 20
0.0
 30
0.0
 40
3.000000000000003
  0
INSERT
  5
C8
330
1F
100
AcDbEntity
  8
0
  6
Continuous
 62
     7
100
AcDbBlockReference
 66
     1
  2
블럭10
 10
-13.94027293212521
 20
-52.04717430164393
 30
0.0
  0
ATTRIB
  5
C9
330
C8
100
AcDbEntity
  8
FORMAT
 62
     2
100
AcDbText
 10
-23.12156822086649
 20
-49.97180738881174
 30
0.0
 40
4.233333333333333
  1
E2013004 [ 2 FLUTE ]
 41
0.75
  7
SLDTEXTSTYLE0
 11
-23.12156822086649
 21
-52.08847405547841
 31
0.0
100
AcDbAttribute
  2
AUTOATTR0
 70
     0
 74
     1
  0
SEQEND
  5
CA
330
C8
100
AcDbEntity
  8
0
  6
Continuous
 62
     7
  0
HATCH
  5
CB
330
1F
100
AcDbEntity
  8
중심선
100
AcDbHatch
 10
0.0
 20
0.0
 30
0.0
210
0.0
220
0.0
230
1.0
  2
SOLID
 70
     1
 71
     0
 91
        1
 92
        0
 93
        4
 72
     1
 10
-8.225363627744358
 20
-35.8
 11
-11.67163887158164
 21
-35.8
 72
     1
 10
-11.67163887158164
 20
-35.8
 11
-13.79986873078566
 21
-38.33632558057257
 72
     1
 10
-13.79986873078566
 20
-38.33632558057257
 11
-10.3535604018352
 21
-38.33628615127008
 72
     1
 10
-10.3535604018352
 20
-38.33628615127008
 11
-8.225363627744358
 21
-35.8
 97
        0
 75
     0
 76
     1
 98
        1
 10
14.88786934298443
 20
-0.0010749287238932
  0
HATCH
  5
CC
330
1F
100
AcDbEntity
  8
중심선
100
AcDbHatch
 10
0.0
 20
0.0
 30
0.0
210
0.0
220
0.0
230
1.0
  2
SOLID
 70
     1
 71
     0
 91
        1
 92
        0
 93
        4
 72
     1
 10
-3.212599636708404
 20
-35.79999999999998
 11
-6.658874880545714
 21
-35.80000000000003
 72
     1
 10
-6.658874880545714
 20
-35.80000000000003
 11
-11.19001288890308
 21
-41.20000000000002
 72
     1
 10
-11.19001288890308
 20
-41.20000000000002
 11
-7.743737645065792
 21
-41.20000000000002
 72
     1
 10
-7.743737645065792
 20
-41.20000000000002
 11
-3.212599636708404
 21
-35.79999999999998
 97
        0
 75
     0
 76
     1
 98
        1
 10
14.88786934298443
 20
-0.0010749287238932
  0
HATCH
  5
CD
330
1F
100
AcDbEntity
  8
중심선
100
AcDbHatch
 10
0.0
 20
0.0
 30
0.0
210
0.0
220
0.0
230
1.0
  2
SOLID
 70
     1
 71
     0
 91
        1
 92
        0
 93
        4
 72
     1
 10
1.800164354327491
 20
-35.80000000000003
 11
-1.646110889509597
 21
-35.8
 72
     1
 10
-1.646110889509597
 20
-35.8
 11
-8.694547791398875
 21
-44.20000000000002
 72
     1
 10
-8.694547791398875
 20
-44.20000000000002
 11
-5.248272547561591
 21
-44.20000000000002
 72
     1
 10
-5.248272547561591
 20
-44.20000000000002
 11
1.800164354327491
 21
-35.80000000000003
 97
        0
 75
     0
 76
     1
 98
        1
 10
14.88786934298443
 20
-0.0010749287238932
  0
HATCH
  5
CE
330
1F
100
AcDbEntity
  8
중심선
100
AcDbHatch
 10
0.0
 20
0.0
 30
0.0
210
0.0
220
0.0
230
1.0
  2
SOLID
 70
     1
 71
     0
 91
        1
 92
        0
 93
        6
 72
     3
 10
6.60005478533969
 20
-40.00000000005127
 11
3.960054785062283
 21
1.540882976769353E-10
 40
0.3939339440162628
 50
17.09539180608436
 51
320.0019657685075
 73
     0
 72
     1
 10
8.283054441040285
 20
-38.58789400463827
 11
10.58835631474138
 21
-36.65356729459035
 72
     3
 10
6.600054785286844
 20
-40.00000000000015
 11
6.600054785286829
 21
-1.278976924368180E-13
 40
0.636358354079598
 50
39.99873849337393
 51
368.4976242363724
 73
     1
 72
     1
 10
13.02538727718745
 20
-39.03999999993002
 11
5.280122092122766
 21
-39.03999999993
 72
     1
 10
5.280122092122767
 20
-39.03999999993
 11
5.280097047676833
 21
-40.95999999992991
 72
     1
 10
5.280097047676833
 20
-40.95999999992991
 11
9.721476817148869
 21
-40.95999999992988
 97
        0
 75
     0
 76
     1
 98
        1
 10
14.88786934298443
 20
-0.0010749287238932
  0
DIMENSION
  5
CF
330
1F
100
AcDbEntity
  8
치수문자_일반주서
100
AcDbDimension
  2
_D
 10
23.8125
 20
10.38125
 30
0.0
 11
42.8875
 21
10.38125
 31
0.0
 70
   160
  1
<>
 71
     2
 42
4.762499999999992
  3
SLDDIMSTYLE0
100
AcDbAlignedDimension
 13
28.57499999999999
 23
0.7937500000000034
 33
0.0
 14
23.8125
 24
0.7937500000000097
 34
0.0
100
AcDbRotatedDimension
1001
PE_URL
1000

1001
ACAD
1000
DSTYLE
1002
{
1070
   171
1070
     8
1070
   273
1070
     7
1070
    41
1040
2.5
1070
   140
1040
2.5
1002
}
  0
DIMENSION
  5
E5
330
1F
100
AcDbEntity
  8
치수문자_일반주서
100
AcDbDimension
  2
_D_1
 10
-28.575
 20
18.38125
 30
0.0
 11
0.2501241026247349
 21
18.38125
 31
0.0
 70
   160
  1
<>
 71
     2
 42
57.14999999999999
  3
SLDDIMSTYLE0
100
AcDbAlignedDimension
 13
28.57499999999999
 23
0.7937500000000034
 33
0.0
 14
-28.575
 24
0.7937500000000062
 34
0.0
100
AcDbRotatedDimension
1001
PE_URL
1000

1001
ACAD
1000
DSTYLE
1002
{
1070
   171
1070
     8
1070
   273
1070
     7
1070
    41
1040
2.5
1070
   140
1040
2.5
1002
}
  0
DIMENSION
  5
F9
330
1F
100
AcDbEntity
  8
치수문자_일반주서
100
AcDbDimension
  2
_D_2
 10
-36.575
 20
-2.381250000000076
 30
0.0
 11
-36.57500000000005
 21
17.63124999999998
 31
0.0
 70
   160
  1
%%c<>
 71
     2
 42
4.762499999999998
 52
-270.0
  3
SLDDIMSTYLE0
100
AcDbAlignedDimension
 13
-16.8878693429844
 23
2.381249999999996
 33
0.0
 14
-16.8878693429844
 24
-2.381250000000001
 34
0.0
 50
90.0000000000002
100
AcDbRotatedDimension
1001
PE_URL
1000

1001
ACAD
1000
DSTYLE
1002
{
1070
   171
1070
     8
1070
   273
1070
     7
1070
    41
1040
2.5
1070
   140
1040
2.5
1002
}
  0
DIMENSION
  5
10D
330
1F
100
AcDbEntity
  8
치수문자_일반주서
100
AcDbDimension
  2
_D_3
 10
57.07818199557679
 20
-0.7937499999998909
 30
0.0
 11
57.07818199557672
 21
15.41875000000011
 31
0.0
 70
   160
  1
%%c<>
 71
     2
 42
1.5875
 52
-270.0
  3
SLDDIMSTYLE0
100
AcDbAlignedDimension
 13
28.57499999999999
 23
0.7937500000000034
 33
0.0
 14
28.57499999999999
 24
-0.7937499999999965
 34
0.0
 50
90.0000000000002
100
AcDbRotatedDimension
1001
PE_URL
1000

1001
ACAD
1000
DSTYLE
1002
{
1070
   171
1070
     8
1070
   273
1070
     7
1070
    41
1040
2.5
1070
   140
1040
2.5
1002
}
  0
LINE
  5
121
330
1F
100
AcDbEntity
  8
참조1
100
AcDbLine
 10
83.60723381534558
 20
7.440000000000002
 30
0.0
 11
83.60723381534558
 21
-7.440000000000002
 31
0.0
  0
LINE
  5
122
330
1F
100
AcDbEntity
  8
참조1
100
AcDbLine
 10
96.30723381534558
 20
5.440000000000002
 30
0.0
 11
83.60723381534558
 21
5.440000000000002
 31
0.0
  0
SOLID
  5
123
330
1F
100
AcDbEntity
  8
참조1
100
AcDbTrace
 10
83.60723381534558
 20
5.440000000000002
 30
0.0
 11
89.95723381534557
 21
4.424000000000002
 31
0.0
 12
89.95723381534557
 22
6.456000000000002
 32
0.0
 13
89.95723381534557
 23
6.456000000000002
 33
0.0
  0
LINE
  5
124
330
1F
100
AcDbEntity
  8
참조1
100
AcDbLine
 10
96.30723381534558
 20
-5.440000000000002
 30
0.0
 11
83.60723381534558
 21
-5.440000000000002
 31
0.0
  0
SOLID
  5
125
330
1F
100
AcDbEntity
  8
참조1
100
AcDbTrace
 10
83.60723381534558
 20
-5.440000000000002
 30
0.0
 11
89.95723381534557
 21
-6.456000000000002
 31
0.0
 12
89.95723381534557
 22
-4.424000000000002
 32
0.0
 13
89.95723381534557
 23
-4.424000000000002
 33
0.0
  0
MTEXT
  5
126
330
1F
100
AcDbEntity
  8
참조1
100
AcDbMText
 10
93.00472390781586
 20
10.98821664464994
 30
0.0
 40
3.5
 41
0.0
 71
     1
 72
     1
  1
A
  7
SLDTEXTSTYLE0
 73
     1
 44
1.0
  0
MTEXT
  5
127
330
1F
100
AcDbEntity
  8
참조1
100
AcDbMText
 10
93.00472390781586
 20
0.1082166446499319
 30
0.0
 40
3.5
 41
0.0
 71
     1
 72
     1
  1
A
  7
SLDTEXTSTYLE0
 73
     1
 44
1.0
  0
INSERT
  5
12E
330
1F
100
AcDbEntity
  8
해칭선
100
AcDbBlockReference
  2
SW_DOWELSYMBOL_0
 10
0.0
 20
0.0
 30
0.0
  0
LINE
  5
237
330
1F
100
AcDbEntity
  8
외형선
  6
Continuous
370
    15
100
AcDbLine
 10
-16.8878693429844
 20
2.381249999999996
 30
0.0
 11
-22.81249999999998
 21
0.7937499999999922
 31
0.0
  0
LINE
  5
238
330
1F
100
AcDbEntity
  8
외형선
  6
Continuous
370
    15
100
AcDbLine
 10
-22.81249999999998
 20
-0.7937500000000064
 30
0.0
 11
-16.8878693429844
 21
-2.381250000000001
 31
0.0
  0
LINE
  5
239
330
1F
100
AcDbEntity
  8
외형선
  6
Continuous
370
    15
100
AcDbLine
 10
-23.01275442766092
 20
-0.7937500000000064
 30
0.0
 11
-22.81249999999998
 21
-0.7937500000000064
 31
0.0
  0
LINE
  5
23A
330
1F
100
AcDbEntity
  8
외형선
  6
Continuous
370
    15
100
AcDbLine
 10
-23.81249999999998
 20
-0.79375000000001
 30
0.0
 11
-23.30391976522259
 21
-0.79375000000001
 31
0.0
  0
LINE
  5
23B
330
1F
100
AcDbEntity
  8
외형선
  6
Continuous
370
    15
100
AcDbLine
 10
-23.30391976522259
 20
0.7937499999999904
 30
0.0
 11
-23.81249999999998
 21
0.7937499999999904
 31
0.0
  0
LINE
  5
23C
330
1F
100
AcDbEntity
  8
외형선
  6
Continuous
370
    15
100
AcDbLine
 10
-22.81249999999998
 20
0.7937499999999904
 30
0.0
 11
-23.01275442766092
 21
0.7937499999999904
 31
0.0
  0
LINE
  5
23D
330
1F
100
AcDbEntity
  8
0
  6
Continuous
 62
     1
370
    25
100
AcDbLine
 10
-27.62331129450632
 20
0.7937499999999869
 30
0.0
 11
-27.78124999999998
 21
0.7937499999999869
 31
0.0
1001
PE_URL
1000

  0
LINE
  5
23E
330
1F
100
AcDbEntity
  8
0
  6
Continuous
 62
     1
370
    25
100
AcDbLine
 10
-25.02863079097451
 20
-0.79375000000001
 30
0.0
 11
-23.81249999999998
 21
-0.79375000000001
 31
0.0
1001
PE_URL
1000

  0
ARC
  5
23F
330
1F
100
AcDbEntity
  8
0
  6
Continuous
 62
     1
370
    25
100
AcDbCircle
 10
-27.78124999999998
 20
-0.0000000000000124
 30
0.0
 40
0.7937499999999997
100
AcDbArc
 50
90.00000000000078
 51
180.0
1001
PE_URL
1000

  0
ARC
  5
240
330
1F
100
AcDbEntity
  8
0
  6
Continuous
 62
     1
370
    25
100
AcDbCircle
 10
-27.78124999999998
 20
-0.0000000000000124
 30
0.0
 40
0.7937499999999997
100
AcDbArc
 50
180.0
 51
270.0
1001
PE_URL
1000

  0
LINE
  5
241
330
1F
100
AcDbEntity
  8
0
  6
Continuous
 62
     1
370
    25
100
AcDbLine
 10
-23.81249999999998
 20
0.7937499999999904
 30
0.0
 11
-25.02778655641253
 21
0.7937499999999886
 31
0.0
1001
PE_URL
1000

  0
LINE
  5
242
330
1F
100
AcDbEntity
  8
0
  6
Continuous
 62
     1
370
    25
100
AcDbLine
 10
-27.78124999999998
 20
-0.79375000000001
 30
0.0
 11
-27.62331129450632
 21
-0.79375000000001
 31
0.0
1001
PE_URL
1000

  0
LINE
  5
243
330
1F
100
AcDbEntity
  8
외형선
  6
Continuous
370
    15
100
AcDbLine
 10
-22.81249999999998
 20
-0.7937500000000064
 30
0.0
 11
-22.81249999999998
 21
0.7937499999999922
 31
0.0
  0
LINE
  5
244
330
1F
100
AcDbEntity
  8
외형선
  6
Continuous
370
    15
100
AcDbLine
 10
-16.8878693429844
 20
-2.381250000000001
 30
0.0
 11
-16.8878693429844
 21
2.381249999999998
 31
0.0
  0
LINE
  5
245
330
1F
100
AcDbEntity
  8
외형선
  6
Continuous
370
    15
100
AcDbLine
 10
-23.0125771440882
 20
0.7759887673809676
 30
0.0
 11
-23.30391976522259
 21
0.7841563818995834
 31
0.0
  0
LINE
  5
246
330
1F
100
AcDbEntity
  8
외형선
  6
Continuous
370
    15
100
AcDbLine
 10
-23.01275442766092
 20
0.7937499999999904
 30
0.0
 11
-23.01275442766092
 21
0.7758799886573033
 31
0.0
  0
LINE
  5
247
330
1F
100
AcDbEntity
  8
외형선
  6
Continuous
370
    15
100
AcDbLine
 10
-23.81249999999998
 20
-0.79375000000001
 30
0.0
 11
-23.81249999999998
 21
-0.739806630986255
 31
0.0
  0
SPLINE
  5
248
330
1F
100
AcDbEntity
  8
외형선
  6
Continuous
370
    15
100
AcDbSpline
210
0.0
220
0.0
230
1.0
 70
     8
 71
     3
 72
    12
 73
     8
 74
     0
 42
0.000000001
 43
0.00000001
 40
0.0
 40
0.0
 40
0.0
 40
0.0
 40
0.25
 40
0.25
 40
0.5
 40
0.5
 40
1.0
 40
1.0
 40
1.0
 40
1.0
 10
-23.81249999999998
 20
-0.739806630986255
 30
0.0
 10
-23.74583333463109
 20
-0.7537744373515842
 30
0.0
 10
-23.68075484883715
 20
-0.7650379749576892
 30
0.0
 10
-23.54732265646997
 20
-0.7822783648681835
 30
0.0
 10
-23.47971171277024
 20
-0.7881840397542206
 30
0.0
 10
-23.27741397970536
 20
-0.7973868966749826
 30
0.0
 10
-23.14690385489561
 20
-0.792246579557041
 30
0.0
 10
-23.0125771440882
 20
-0.7759887673809835
 30
0.0
  0
SPLINE
  5
249
330
1F
100
AcDbEntity
  8
외형선
  6
Continuous
370
    15
100
AcDbSpline
210
0.0
220
0.0
230
1.0
 70
     8
 71
     3
 72
    12
 73
     8
 74
     0
 42
0.000000001
 43
0.00000001
 40
0.0
 40
0.0
 40
0.0
 40
0.0
 40
0.2499999999999999
 40
0.2499999999999999
 40
0.4999999999999998
 40
0.4999999999999998
 40
1.0
 40
1.0
 40
1.0
 40
1.0
 10
-23.81250000000279
 20
0.5032051364282992
 30
0.0
 10
-23.74584799911999
 20
0.4734005705747588
 30
0.0
 10
-23.68078380760838
 20
0.4420685348175262
 30
0.0
 10
-23.54738174960143
 20
0.3759970131580577
 30
0.0
 10
-23.47978603634672
 20
0.3413593085513629
 30
0.0
 10
-23.27753232618726
 20
0.2342524552469758
 30
0.0
 10
-23.14704959366553
 20
0.1592916760423684
 30
0.0
 10
-23.01275442767323
 20
0.0824418902240183
 30
0.0
  0
LINE
  5
24A
330
1F
100
AcDbEntity
  8
외형선
  6
Continuous
370
    15
100
AcDbLine
 10
-23.81249999999998
 20
0.5032051364252901
 30
0.0
 11
-23.81249999999998
 21
0.7937499999999904
 31
0.0
  0
LINE
  5
24B
330
1F
100
AcDbEntity
  8
외형선
  6
Continuous
370
    15
100
AcDbLine
 10
-23.01275442766092
 20
0.0824982085115913
 30
0.0
 11
-23.01275442766092
 21
-0.7937500000000064
 31
0.0
  0
SPLINE
  5
24C
330
1F
100
AcDbEntity
  8
외형선
  6
Continuous
370
    15
100
AcDbSpline
210
0.0
220
0.0
230
1.0
 70
    24
 71
     3
 72
    12
 73
     8
 74
     0
 42
0.000000001
 43
0.00000001
 40
0.0
 40
0.0
 40
0.0
 40
0.0
 40
0.4999999999999999
 40
0.4999999999999999
 40
0.75
 40
0.75
 40
1.0
 40
1.0
 40
1.0
 40
1.0
 10
-23.81249999999998
 20
-0.1710758789452509
 30
0.0
 10
-23.81249999999998
 20
-0.0920331011793465
 30
0.0
 10
-23.81249999999998
 20
0.0205847443499518
 30
0.0
 10
-23.81249999999998
 20
0.2127687978244523
 30
0.0
 10
-23.81249999999998
 20
0.2795263218748989
 30
0.0
 10
-23.81249999999998
 20
0.4028406146866974
 30
0.0
 10
-23.81249999999998
 20
0.4589800588750883
 30
0.0
 10
-23.81249999999998
 20
0.5032051364250041
 30
0.0
  0
SPLINE
  5
24D
330
1F
100
AcDbEntity
  8
외형선
  6
Continuous
370
    15
100
AcDbSpline
210
0.0
220
0.0
230
1.0
 70
     8
 71
     3
 72
    12
 73
     8
 74
     0
 42
0.000000001
 43
0.00000001
 40
0.0
 40
0.0
 40
0.0
 40
0.0
 40
0.2499999999999999
 40
0.2499999999999999
 40
0.4999999999999998
 40
0.4999999999999998
 40
1.0
 40
1.0
 40
1.0
 40
1.0
 10
-23.81250000000635
 20
-0.1710758789428724
 30
0.0
 10
-23.7458479991222
 20
-0.1959712531399838
 30
0.0
 10
-23.68078380760931
 20
-0.2200700327054115
 30
0.0
 10
-23.54738174959973
 20
-0.2669426347506842
 30
0.0
 10
-23.47978603634366
 20
-0.2896172309276235
 30
0.0
 10
-23.27753232618023
 20
-0.3542426092983799
 30
0.0
 10
-23.14704959365587
 20
-0.3924543072310875
 30
0.0
 10
-23.01275442766092
 20
-0.4249708422157177
 30
0.0
  0
SPLINE
  5
24E
330
1F
100
AcDbEntity
  8
외형선
  6
Continuous
370
    15
100
AcDbSpline
210
0.0
220
0.0
230
1.0
 70
    24
 71
     3
 72
    12
 73
     8
 74
     0
 42
0.000000001
 43
0.00000001
 40
0.0
 40
0.0
 40
0.0
 40
0.0
 40
0.2499999999999999
 40
0.2499999999999999
 40
0.4999999999999998
 40
0.4999999999999998
 40
1.0
 40
1.0
 40
1.0
 40
1.0
 10
-23.81249999999998
 20
-0.7398066309943623
 30
0.0
 10
-23.81249999999998
 20
-0.6817217443129095
 30
0.0
 10
-23.81249999999998
 20
-0.6188927634221422
 30
0.0
 10
-23.81249999999998
 20
-0.4970172550888101
 30
0.0
 10
-23.81249999999998
 20
-0.4382472619040314
 30
0.0
 10
-23.81249999999998
 20
-0.2836277175633182
 30
0.0
 10
-23.81249999999998
 20
-0.2123216372665198
 30
0.0
 10
-23.81249999999998
 20
-0.1710758789452509
 30
0.0
  0
SPLINE
  5
24F
330
1F
100
AcDbEntity
  8
0
  6
Continuous
 62
     1
370
    25
100
AcDbSpline
210
0.0
220
0.0
230
1.0
 70
     8
 71
     3
 72
    19
 73
    15
 74
     0
 42
0.000000001
 43
0.00000001
 40
0.0
 40
0.0
 40
0.0
 40
0.0
 40
0.1074295841733791
 40
0.2161069726411116
 40
0.2994296291557914
 40
0.3833344883022832
 40
0.4663703819792439
 40
0.5499843802824728
 40
0.632893137747645
 40
0.716377174337872
 40
0.7990448289740361
 40
0.8822820784833051
 40
0.9649510178546151
 40
1.0
 40
1.0
 40
1.0
 40
1.0
 10
-27.78124999999998
 20
0.3318054003276192
 30
0.0
 10
-27.68268055031407
 20
0.2785958355416458
 30
0.0
 10
-27.48439675790783
 20
0.171558672083119
 30
0.0
 10
-27.20943722858729
 20
0.0123123596022356
 30
0.0
 10
-26.95637108985752
 20
-0.1337472788409588
 30
0.0
 10
-26.72699132940789
 20
-0.2629888934609905
 30
0.0
 10
-26.4965168631468
 20
-0.3837211383416275
 30
0.0
 10
-26.26837608707413
 20
-0.4953994669549076
 30
0.0
 10
-26.03815509862137
 20
-0.5913195383396079
 30
0.0
 10
-25.81039816003121
 20
-0.6723489763513726
 30
0.0
 10
-25.5811302249752
 20
-0.7339552133955323
 30
0.0
 10
-25.35307273549548
 20
-0.774473582459386
 30
0.0
 10
-25.16899015402562
 20
-0.7938795622417452
 30
0.0
 10
-25.06083313776291
 20
-0.7917243675602492
 30
0.0
 10
-25.02863079097451
 20
-0.7910826863367113
 30
0.0
1001
PE_URL
1000

  0
SPLINE
  5
250
330
1F
100
AcDbEntity
  8
0
  6
Continuous
 62
     1
370
    25
100
AcDbSpline
210
0.0
220
0.0
230
1.0
 70
     8
 71
     3
 72
    11
 73
     7
 74
     0
 42
0.000000001
 43
0.00000001
 40
0.0
 40
0.0
 40
0.0
 40
0.0
 40
0.2735132643440287
 40
0.5470330187021856
 40
0.869875027548664
 40
1.0
 40
1.0
 40
1.0
 40
1.0
 10
-28.36250762875994
 20
-0.0833500437369299
 30
0.0
 10
-28.16605788543351
 20
-0.1584452004091563
 30
0.0
 10
-27.77315373735551
 20
-0.308637295636581
 30
0.0
 10
-27.14849397378173
 20
-0.4778985884506
 30
0.0
 10
-26.62634120800619
 20
-0.5609473742670801
 30
0.0
 10
-26.30100001915714
 20
-0.5276738313387455
 30
0.0
 10
-26.20753843148253
 20
-0.5181152563527647
 30
0.0
1001
PE_URL
1000

  0
SPLINE
  5
251
330
1F
100
AcDbEntity
  8
0
  6
Continuous
 62
     1
370
    25
100
AcDbSpline
210
0.0
220
0.0
230
1.0
 70
     8
 71
     3
 72
    18
 73
    14
 74
     0
 42
0.000000001
 43
0.00000001
 40
0.0
 40
0.0
 40
0.0
 40
0.0
 40
0.2500000000000008
 40
0.2500000000000008
 40
0.5000000000000016
 40
0.5000000000000016
 40
0.6250000000000011
 40
0.6250000000000011
 40
0.7500000000000008
 40
0.7500000000000008
 40
0.8750000000000003
 40
0.8750000000000003
 40
1.0
 40
1.0
 40
1.0
 40
1.0
 10
-27.78124999999998
 20
0.3318054003195527
 30
0.0
 10
-27.86956756378584
 20
0.3778327824717564
 30
0.0
 10
-27.95599175824958
 20
0.4153638588685631
 30
0.0
 10
-28.12793128233757
 20
0.4530848913587633
 30
0.0
 10
-28.21424306390588
 20
0.4520401155009441
 30
0.0
 10
-28.33101788385027
 20
0.3887418509727532
 30
0.0
 10
-28.36720840655997
 20
0.3568244623680403
 30
0.0
 10
-28.42224748764702
 20
0.272103948078497
 30
0.0
 10
-28.43883151461624
 20
0.2218770058071566
 30
0.0
 10
-28.44720552721124
 20
0.1236993027694471
 30
0.0
 10
-28.43967020148714
 20
0.0774106442533782
 30
0.0
 10
-28.41051192743658
 20
-0.0073585254712629
 30
0.0
 10
-28.3889182173592
 20
-0.046271693361593
 30
0.0
 10
-28.36250762876345
 20
-0.0833500437355728
 30
0.0
1001
PE_URL
1000

  0
SPLINE
  5
252
330
1F
100
AcDbEntity
  8
0
  6
Continuous
 62
     1
370
    25
100
AcDbSpline
210
0.0
220
0.0
230
1.0
 70
     8
 71
     3
 72
    12
 73
     8
 74
     0
 42
0.000000001
 43
0.00000001
 40
0.0
 40
0.0
 40
0.0
 40
0.0
 40
0.0055430433306831
 40
0.2633773487609065
 40
0.5220426055321753
 40
0.7809201794226373
 40
1.0
 40
1.0
 40
1.0
 40
1.0
 10
-26.50285655000676
 20
0.5380241649356581
 30
0.0
 10
-26.49788487339501
 20
0.5386160495738554
 30
0.0
 10
-26.26165597768147
 20
0.566739410240725
 30
0.0
 10
-25.79371926416783
 20
0.4970780215219754
 30
0.0
 10
-25.09819312103683
 20
0.327445075821057
 30
0.0
 10
-24.43731751629739
 20
0.0713199345420676
 30
0.0
 10
-24.00888106318066
 20
-0.0948905187056255
 30
0.0
 10
-23.81250000000635
 20
-0.1710758789428724
 30
0.0
1001
PE_URL
1000

  0
SPLINE
  5
253
330
1F
100
AcDbEntity
  8
외형선
  6
Continuous
370
    15
100
AcDbSpline
210
0.0
220
0.0
230
1.0
 70
    24
 71
     3
 72
    12
 73
     8
 74
     0
 42
0.000000001
 43
0.00000001
 40
0.0
 40
0.0
 40
0.0
 40
0.0
 40
0.25
 40
0.25
 40
0.4999999999999999
 40
0.4999999999999999
 40
1.0
 40
1.0
 40
1.0
 40
1.0
 10
-23.81249999999998
 20
-0.7398066309943623
 30
0.0
 10
-23.81249999999998
 20
-0.6817217443129131
 30
0.0
 10
-23.81249999999998
 20
-0.6188927634221457
 30
0.0
 10
-23.81249999999998
 20
-0.4970172550888101
 30
0.0
 10
-23.81249999999998
 20
-0.438247261904035
 30
0.0
 10
-23.81249999999998
 20
-0.2836277175633182
 30
0.0
 10
-23.81249999999998
 20
-0.2123216372665215
 30
0.0
 10
-23.81249999999998
 20
-0.1710758789452509
 30
0.0
  0
SPLINE
  5
254
330
1F
100
AcDbEntity
  8
0
  6
Continuous
 62
     1
370
    25
100
AcDbSpline
210
0.0
220
0.0
230
1.0
 70
     8
 71
     3
 72
    14
 73
    10
 74
     0
 42
0.000000001
 43
0.00000001
 40
0.0
 40
0.0
 40
0.0
 40
0.0
 40
0.1457729382282881
 40
0.2915525202842622
 40
0.4373380983782299
 40
0.5831290210246878
 40
0.7358818566645636
 40
0.8886558663451622
 40
1.0
 40
1.0
 40
1.0
 40
1.0
 10
-23.81249999999956
 20
-0.7398066309863403
 30
0.0
 10
-23.99764884986254
 20
-0.6893019459449974
 30
0.0
 10
-24.3679549880344
 20
-0.5882902740329818
 30
0.0
 10
-24.92342902453291
 20
-0.3100391368798388
 30
0.0
 10
-25.47894421815405
 20
0.0092707131378074
 30
0.0
 10
-26.04326692193652
 20
0.335695704947339
 30
0.0
 10
-26.61667841847957
 20
0.6056206072179169
 30
0.0
 10
-27.14629110868585
 20
0.7740091373176128
 30
0.0
 10
-27.4818499478384
 20
0.7780643158766374
 30
0.0
 10
-27.62331129450632
 20
0.7797738551675337
 30
0.0
1001
PE_URL
1000

  0
SPLINE
  5
255
330
1F
100
AcDbEntity
  8
0
  6
Continuous
 62
     1
370
    25
100
AcDbSpline
210
0.0
220
0.0
230
1.0
 70
     8
 71
     3
 72
     8
 73
     4
 74
     0
 42
0.000000001
 43
0.00000001
 40
0.0
 40
0.0
 40
0.0
 40
0.0
 40
1.0
 40
1.0
 40
1.0
 40
1.0
 10
-28.36250762876345
 20
-0.0833500437355728
 30
0.0
 10
-28.39896960831867
 20
-0.1053769935628051
 30
0.0
 10
-28.41916675377476
 20
-0.1524478564115785
 30
0.0
 10
-28.42009395390985
 20
-0.2055760650343359
 30
0.0
1001
PE_URL
1000

  0
ARC
  5
256
330
1F
100
AcDbEntity
  8
0
  6
Continuous
 62
     1
370
    25
100
AcDbCircle
 10
-28.19523833881276
 20
0.1379829822488663
 30
0.0
 40
0.4106006169133287
100
AcDbArc
 50
203.8413887152752
 51
236.7956944502073
1001
PE_URL
1000

  0
ARC
  5
257
330
1F
100
AcDbEntity
  8
0
  6
Continuous
 62
     1
370
    25
100
AcDbCircle
 10
-27.8611642505823
 20
-0.0147437392166321
 30
0.0
 40
0.7097608125160155
100
AcDbArc
 50
181.0689129021434
 51
251.1873992280887
1001
PE_URL
1000

  0
SPLINE
  5
258
330
1F
100
AcDbEntity
  8
0
  6
Continuous
 62
     1
370
    25
100
AcDbSpline
210
0.0
220
0.0
230
1.0
 70
     8
 71
     3
 72
     8
 73
     4
 74
     0
 42
0.000000001
 43
0.00000001
 40
0.0
 40
0.0
 40
0.0
 40
0.0
 40
1.0
 40
1.0
 40
1.0
 40
1.0
 10
-28.09004357312278
 20
-0.6865879672165498
 30
0.0
 10
-27.99193449399106
 20
-0.7464542051279572
 30
0.0
 10
-27.88777157043754
 20
-0.7814342145610169
 30
0.0
 10
-27.78124999999998
 20
-0.7884706442928717
 30
0.0
1001
PE_URL
1000

  0
SPLINE
  5
259
330
1F
100
AcDbEntity
  8
0
  6
Continuous
 62
     1
370
    25
100
AcDbSpline
210
0.0
220
0.0
230
1.0
 70
     8
 71
     3
 72
    10
 73
     6
 74
     0
 42
0.000000001
 43
0.00000001
 40
0.0
 40
0.0
 40
0.0
 40
0.0
 40
0.0890119525285677
 40
0.5444938637400172
 40
1.0
 40
1.0
 40
1.0
 40
1.0
 10
-26.50285655000675
 20
-0.5380241649356812
 30
0.0
 10
-26.54078608994953
 20
-0.5560315372404858
 30
0.0
 10
-26.77280438824149
 20
-0.6661842015009647
 30
0.0
 10
-27.19893961752824
 20
-0.7815133080396066
 30
0.0
 10
-27.58714309813213
 20
-0.7861514910955414
 30
0.0
 10
-27.78124999999915
 20
-0.7884706442929286
 30
0.0
1001
PE_URL
1000

  0
SPLINE
  5
25A
330
1F
100
AcDbEntity
  8
0
  6
Continuous
 62
     1
370
    25
100
AcDbSpline
210
0.0
220
0.0
230
1.0
 70
     8
 71
     3
 72
    13
 73
     9
 74
     0
 42
0.000000001
 43
0.00000001
 40
0.0
 40
0.0
 40
0.0
 40
0.0
 40
0.1646806638605026
 40
0.3556880713410646
 40
0.5467021024667688
 40
0.7377092922959285
 40
0.868014964344941
 40
1.0
 40
1.0
 40
1.0
 40
1.0
 10
-26.20317043841752
 20
0.5177779006227752
 30
0.0
 10
-26.07194404609333
 20
0.5722913549301829
 30
0.0
 10
-25.78851269902044
 20
0.6900330798552528
 30
0.0
 10
-25.35256081535025
 20
0.7850436513715273
 30
0.0
 10
-24.89588424811939
 20
0.8051231770877418
 30
0.0
 10
-24.48733928186843
 20
0.7424016969159055
 30
0.0
 10
-24.12703148751951
 20
0.6352229006206418
 30
0.0
 10
-23.91779039712588
 20
0.5473984950280375
 30
0.0
 10
-23.81250000000184
 20
0.503205136426093
 30
0.0
1001
PE_URL
1000

  0
SPLINE
  5
25B
330
1F
100
AcDbEntity
  8
외형선
  6
Continuous
370
    15
100
AcDbSpline
210
0.0
220
0.0
230
1.0
 70
    24
 71
     3
 72
    12
 73
     8
 74
     0
 42
0.000000001
 43
0.00000001
 40
0.0
 40
0.0
 40
0.0
 40
0.0
 40
0.5
 40
0.5
 40
0.75
 40
0.75
 40
1.0
 40
1.0
 40
1.0
 40
1.0
 10
-23.81249999999624
 20
-0.1710758789466489
 30
0.0
 10
-23.81249999999624
 20
-0.0920331011806006
 30
0.0
 10
-23.81249999999624
 20
0.0205847443488114
 30
0.0
 10
-23.81249999999624
 20
0.21276879782328
 30
0.0
 10
-23.81249999999624
 20
0.2795263218736785
 30
0.0
 10
-23.81249999999624
 20
0.4028406146853101
 30
0.0
 10
-23.81249999999624
 20
0.4589800588735784
 30
0.0
 10
-23.81249999999624
 20
0.5032051364233503
 30
0.0
  0
SPLINE
  5
25C
330
1F
100
AcDbEntity
  8
0
  6
Continuous
 62
     1
370
    25
100
AcDbSpline
210
0.0
220
0.0
230
1.0
 70
     8
 71
     3
 72
     8
 73
     4
 74
     0
 42
0.000000001
 43
0.00000001
 40
0.0
 40
0.0
 40
0.0
 40
0.0
 40
1.0
 40
1.0
 40
1.0
 40
1.0
 10
-27.92932476607292
 20
-0.3553090268680297
 30
0.0
 10
-28.09068057572701
 20
-0.3104683959722401
 30
0.0
 10
-28.25519809645918
 20
-0.2599395155639392
 30
0.0
 10
-28.42009395390773
 20
-0.2055760650339362
 30
0.0
1001
PE_URL
1000

  0
SPLINE
  5
25D
330
1F
100
AcDbEntity
  8
0
  6
Continuous
 62
     1
370
    25
100
AcDbSpline
210
0.0
220
0.0
230
1.0
 70
     8
 71
     3
 72
    10
 73
     6
 74
     0
 42
0.000000001
 43
0.00000001
 40
0.0
 40
0.0
 40
0.0
 40
0.0
 40
0.5
 40
0.5
 40
1.0
 40
1.0
 40
1.0
 40
1.0
 10
-28.09004357312277
 20
-0.6865879672165498
 30
0.0
 10
-28.10130913406294
 20
-0.6199186467491806
 30
0.0
 10
-28.09967584626563
 20
-0.5475788240005812
 30
0.0
 10
-28.04395229067253
 20
-0.4243498863254445
 30
0.0
 10
-27.98926653400996
 20
-0.3790710383202835
 30
0.0
 10
-27.92932476607276
 20
-0.3553090268682926
 30
0.0
1001
PE_URL
1000

  0
ENDSEC
  0
SECTION
  2
OBJECTS
  0
DICTIONARY
  5
C
330
0
100
AcDbDictionary
281
     1
  3
ACAD_DETAILVIEWSTYLE
350
20E
  3
ACAD_GROUP
350
D
  3
ACAD_IMAGE_VARS
350
2A4
  3
ACAD_LAYOUT
350
1A
  3
ACAD_MLINESTYLE
350
17
  3
ACAD_PLOTSETTINGS
350
19
  3
ACAD_PLOTSTYLENAME
350
E
  3
ACAD_SCALELIST
350
47
  3
ACAD_SECTIONVIEWSTYLE
350
20F
  3
AcDbVariableDictionary
350
209
  3
APPDATA
350
150
  3
DWGPROPS
350
2A5
  0
DICTIONARY
  5
20E
102
{ACAD_REACTORS
330
C
102
}
330
C
100
AcDbDictionary
281
     1
  0
DICTIONARY
  5
D
102
{ACAD_REACTORS
330
C
102
}
330
C
100
AcDbDictionary
281
     1
  0
RASTERVARIABLES
  5
2A4
102
{ACAD_REACTORS
330
C
102
}
330
C
100
AcDbRasterVariables
 90
        0
 70
     1
 71
     1
 72
     1
  0
DICTIONARY
  5
1A
102
{ACAD_REACTORS
330
C
102
}
330
C
100
AcDbDictionary
281
     1
  3
Layout1
350
1E
  3
Layout2
350
26
  3
Model
350
22
  0
DICTIONARY
  5
17
102
{ACAD_REACTORS
330
C
102
}
330
C
100
AcDbDictionary
281
     1
  3
Standard
350
18
  0
DICTIONARY
  5
19
102
{ACAD_REACTORS
330
C
102
}
330
C
100
AcDbDictionary
281
     1
  0
ACDBDICTIONARYWDFLT
  5
E
102
{ACAD_REACTORS
330
C
102
}
330
C
100
AcDbDictionary
281
     1
  3
Normal
350
F
100
AcDbDictionaryWithDefault
340
F
  0
DICTIONARY
  5
47
102
{ACAD_REACTORS
330
C
102
}
330
C
100
AcDbDictionary
281
     1
  3
A0
350
48
  3
A1
350
49
  3
A2
350
4A
  3
A3
350
4B
  3
A4
350
4C
  3
A5
350
4D
  3
A6
350
4E
  3
A7
350
4F
  3
A8
350
50
  3
A9
350
51
  3
B0
350
52
  3
B1
350
53
  3
B2
350
54
  3
B3
350
55
  3
B4
350
56
  3
B5
350
57
  3
B6
350
58
  3
B7
350
59
  3
B8
350
5A
  3
B9
350
5B
  3
C0
350
5C
  3
C1
350
5D
  3
C2
350
5E
  3
C3
350
5F
  3
C4
350
60
  3
C5
350
61
  3
C6
350
62
  3
C7
350
63
  3
C8
350
64
  3
C9
350
65
  3
D0
350
66
  3
D1
350
67
  3
D2
350
68
  0
DICTIONARY
  5
20F
102
{ACAD_REACTORS
330
C
102
}
330
C
100
AcDbDictionary
281
     1
  0
DICTIONARY
  5
209
102
{ACAD_REACTORS
330
C
102
}
330
C
100
AcDbDictionary
281
     1
  0
DICTIONARY
  5
150
102
{ACAD_REACTORS
330
C
102
}
330
C
100
AcDbDictionary
281
     1
  0
XRECORD
  5
2A5
102
{ACAD_REACTORS
330
C
102
}
330
C
100
AcDbXrecord
280
     1
  1
DWGPROPS COOKIE
  2

  3

  4

  6

  7

  8
12017012
  9

300
=
301
=
302
=
303
=
304
=
305
=
306
=
307
=
308
=
309
=
 40
0.0
 41
2458319.363170475
 42
2458324.122360555
  1

 90
        0
  0
LAYOUT
  5
1E
102
{ACAD_REACTORS
330
1A
102
}
330
1A
100
AcDbPlotSettings
  1

  2
none_device
  4

  6

 40
0.0
 41
0.0
 42
0.0
 43
0.0
 44
0.0
 45
0.0
 46
0.0
 47
0.0
 48
0.0
 49
0.0
140
0.0
141
0.0
142
1.0
143
1.0
 70
   688
 72
     1
 73
     0
 74
     5
  7

 75
    16
147
1.0
148
0.0
149
0.0
100
AcDbLayout
  1
Layout1
 70
     1
 71
     1
 10
0.0
 20
0.0
 11
420.0
 21
297.0
 12
0.0
 22
0.0
 32
0.0
 14
1.000000000000000E+20
 24
1.000000000000000E+20
 34
1.000000000000000E+20
 15
-1.000000000000000E+20
 25
-1.000000000000000E+20
 35
-1.000000000000000E+20
146
0.0
 13
0.0
 23
0.0
 33
0.0
 16
1.0
 26
0.0
 36
0.0
 17
0.0
 27
1.0
 37
0.0
 76
     0
330
1B
  0
LAYOUT
  5
26
102
{ACAD_REACTORS
330
1A
102
}
330
1A
100
AcDbPlotSettings
  1

  2
none_device
  4

  6

 40
0.0
 41
0.0
 42
0.0
 43
0.0
 44
0.0
 45
0.0
 46
0.0
 47
0.0
 48
0.0
 49
0.0
140
0.0
141
0.0
142
1.0
143
1.0
 70
   688
 72
     1
 73
     0
 74
     5
  7

 75
    16
147
1.0
148
0.0
149
0.0
100
AcDbLayout
  1
Layout2
 70
     1
 71
     2
 10
0.0
 20
0.0
 11
0.0
 21
0.0
 12
0.0
 22
0.0
 32
0.0
 14
0.0
 24
0.0
 34
0.0
 15
0.0
 25
0.0
 35
0.0
146
0.0
 13
0.0
 23
0.0
 33
0.0
 16
1.0
 26
0.0
 36
0.0
 17
0.0
 27
1.0
 37
0.0
 76
     0
330
23
  0
LAYOUT
  5
22
102
{ACAD_REACTORS
330
1A
102
}
330
1A
100
AcDbPlotSettings
  1

  2
none_device
  4
ANSI_A_(11.00_x_8.50_Inches)
  6

 40
6.35
 41
19.05
 42
6.35000508
 43
19.05000254
 44
279.4
 45
215.9
 46
120.1744891114576
 47
98.79098119720074
 48
0.0
 49
0.0
140
0.0
141
0.0
142
0.0732469583835696
143
1.0
 70
  1696
 72
     0
 73
     0
 74
     0
  7

 75
     0
147
0.0235690232323232
148
0.0
149
0.0
100
AcDbLayout
  1
Model
 70
     1
 71
     0
 10
0.0
 20
0.0
 11
420.0
 21
297.0
 12
0.0
 22
0.0
 32
0.0
 14
-39.95000000000008
 24
-49.97180738881175
 34
0.0
 15
96.30723381534558
 25
27.88124999999998
 35
0.0
146
0.0
 13
0.0
 23
0.0
 33
0.0
 16
1.0
 26
0.0
 36
0.0
 17
0.0
 27
1.0
 37
0.0
 76
     0
330
1F
331
29
  0
MLINESTYLE
  5
18
102
{ACAD_REACTORS
330
17
102
}
330
17
100
AcDbMlineStyle
  2
Standard
 70
     0
  3

 62
   256
 51
90.0
 52
90.0
 71
     2
 49
0.5
 62
   256
  6
BYLAYER
 49
-0.5
 62
   256
  6
BYLAYER
  0
ACDBPLACEHOLDER
  5
F
102
{ACAD_REACTORS
330
E
102
}
330
E
  0
SCALE
  5
48
102
{ACAD_REACTORS
330
47
102
}
330
47
100
AcDbScale
 70
     0
300
1:1
140
1.0
141
1.0
290
     1
  0
SCALE
  5
49
102
{ACAD_REACTORS
330
47
102
}
330
47
100
AcDbScale
 70
     0
300
1:2
140
1.0
141
2.0
290
     0
  0
SCALE
  5
4A
102
{ACAD_REACTORS
330
47
102
}
330
47
100
AcDbScale
 70
     0
300
1:4
140
1.0
141
4.0
290
     0
  0
SCALE
  5
4B
102
{ACAD_REACTORS
330
47
102
}
330
47
100
AcDbScale
 70
     0
300
1:5
140
1.0
141
5.0
290
     0
  0
SCALE
  5
4C
102
{ACAD_REACTORS
330
47
102
}
330
47
100
AcDbScale
 70
     0
300
1:8
140
1.0
141
8.0
290
     0
  0
SCALE
  5
4D
102
{ACAD_REACTORS
330
47
102
}
330
47
100
AcDbScale
 70
     0
300
1:10
140
1.0
141
10.0
290
     0
  0
SCALE
  5
4E
102
{ACAD_REACTORS
330
47
102
}
330
47
100
AcDbScale
 70
     0
300
1:16
140
1.0
141
16.0
290
     0
  0
SCALE
  5
4F
102
{ACAD_REACTORS
330
47
102
}
330
47
100
AcDbScale
 70
     0
300
1:20
140
1.0
141
20.0
290
     0
  0
SCALE
  5
50
102
{ACAD_REACTORS
330
47
102
}
330
47
100
AcDbScale
 70
     0
300
1:30
140
1.0
141
30.0
290
     0
  0
SCALE
  5
51
102
{ACAD_REACTORS
330
47
102
}
330
47
100
AcDbScale
 70
     0
300
1:40
140
1.0
141
40.0
290
     0
  0
SCALE
  5
52
102
{ACAD_REACTORS
330
47
102
}
330
47
100
AcDbScale
 70
     0
300
1:50
140
1.0
141
50.0
290
     0
  0
SCALE
  5
53
102
{ACAD_REACTORS
330
47
102
}
330
47
100
AcDbScale
 70
     0
300
1:100
140
1.0
141
100.0
290
     0
  0
SCALE
  5
54
102
{ACAD_REACTORS
330
47
102
}
330
47
100
AcDbScale
 70
     0
300
2:1
140
2.0
141
1.0
290
     0
  0
SCALE
  5
55
102
{ACAD_REACTORS
330
47
102
}
330
47
100
AcDbScale
 70
     0
300
4:1
140
4.0
141
1.0
290
     0
  0
SCALE
  5
56
102
{ACAD_REACTORS
330
47
102
}
330
47
100
AcDbScale
 70
     0
300
8:1
140
8.0
141
1.0
290
     0
  0
SCALE
  5
57
102
{ACAD_REACTORS
330
47
102
}
330
47
100
AcDbScale
 70
     0
300
10:1
140
10.0
141
1.0
290
     0
  0
SCALE
  5
58
102
{ACAD_REACTORS
330
47
102
}
330
47
100
AcDbScale
 70
     0
300
100:1
140
100.0
141
1.0
290
     0
  0
SCALE
  5
59
102
{ACAD_REACTORS
330
47
102
}
330
47
100
AcDbScale
 70
     0
300
1/128" = 1'-0"
140
0.0078125
141
12.0
290
     0
  0
SCALE
  5
5A
102
{ACAD_REACTORS
330
47
102
}
330
47
100
AcDbScale
 70
     0
300
1/64" = 1'-0"
140
0.015625
141
12.0
290
     0
  0
SCALE
  5
5B
102
{ACAD_REACTORS
330
47
102
}
330
47
100
AcDbScale
 70
     0
300
1/32" = 1'-0"
140
0.03125
141
12.0
290
     0
  0
SCALE
  5
5C
102
{ACAD_REACTORS
330
47
102
}
330
47
100
AcDbScale
 70
     0
300
1/16" = 1'-0"
140
0.0625
141
12.0
290
     0
  0
SCALE
  5
5D
102
{ACAD_REACTORS
330
47
102
}
330
47
100
AcDbScale
 70
     0
300
3/32" = 1'-0"
140
0.09375
141
12.0
290
     0
  0
SCALE
  5
5E
102
{ACAD_REACTORS
330
47
102
}
330
47
100
AcDbScale
 70
     0
300
1/8" = 1'-0"
140
0.125
141
12.0
290
     0
  0
SCALE
  5
5F
102
{ACAD_REACTORS
330
47
102
}
330
47
100
AcDbScale
 70
     0
300
3/16" = 1'-0"
140
0.1875
141
12.0
290
     0
  0
SCALE
  5
60
102
{ACAD_REACTORS
330
47
102
}
330
47
100
AcDbScale
 70
     0
300
1/4" = 1'-0"
140
0.25
141
12.0
290
     0
  0
SCALE
  5
61
102
{ACAD_REACTORS
330
47
102
}
330
47
100
AcDbScale
 70
     0
300
3/8" = 1'-0"
140
0.375
141
12.0
290
     0
  0
SCALE
  5
62
102
{ACAD_REACTORS
330
47
102
}
330
47
100
AcDbScale
 70
     0
300
1/2" = 1'-0"
140
0.5
141
12.0
290
     0
  0
SCALE
  5
63
102
{ACAD_REACTORS
330
47
102
}
330
47
100
AcDbScale
 70
     0
300
3/4" = 1'-0"
140
0.75
141
12.0
290
     0
  0
SCALE
  5
64
102
{ACAD_REACTORS
330
47
102
}
330
47
100
AcDbScale
 70
     0
300
1" = 1'-0"
140
1.0
141
12.0
290
     0
  0
SCALE
  5
65
102
{ACAD_REACTORS
330
47
102
}
330
47
100
AcDbScale
 70
     0
300
1-1/2" = 1'-0"
140
1.5
141
12.0
290
     0
  0
SCALE
  5
66
102
{ACAD_REACTORS
330
47
102
}
330
47
100
AcDbScale
 70
     0
300
3" = 1'-0"
140
3.0
141
12.0
290
     0
  0
SCALE
  5
67
102
{ACAD_REACTORS
330
47
102
}
330
47
100
AcDbScale
 70
     0
300
6" = 1'-0"
140
6.0
141
12.0
290
     0
  0
SCALE
  5
68
102
{ACAD_REACTORS
330
47
102
}
330
47
100
AcDbScale
 70
     0
300
1'-0" = 1'-0"
140
12.0
141
12.0
290
     0
  0
ENDSEC
  0
EOF
