  0
SECTION
  2
HEADER
  9
$ACADVER
  1
AC1015
  9
$ACADMAINTVER
 70
     6
  9
$DWGCODEPAGE
  3
ANSI_949
  9
$INSBASE
 10
0.0
 20
0.0
 30
0.0
  9
$EXTMIN
 10
-44.71250000000008
 20
-49.97180738881175
 30
0.0
  9
$EXTMAX
 10
98.68848381534559
 20
27.88124999999997
 30
0.0
  9
$LIMMIN
 10
0.0
 20
0.0
  9
$LIMMAX
 10
420.0
 20
297.0
  9
$ORTHOMODE
 70
     1
  9
$REGENMODE
 70
     1
  9
$FILLMODE
 70
     1
  9
$QTEXTMODE
 70
     0
  9
$MIRRTEXT
 70
     1
  9
$LTSCALE
 40
1.0
  9
$ATTMODE
 70
     1
  9
$TEXTSIZE
 40
3.5
  9
$TRACEWID
 40
1.0
  9
$TEXTSTYLE
  7
Standard
  9
$CLAYER
  8
0
  9
$CELTYPE
  6
ByLayer
  9
$CECOLOR
 62
   256
  9
$CELTSCALE
 40
1.0
  9
$DISPSILH
 70
     0
  9
$DIMSCALE
 40
1.0
  9
$DIMASZ
 40
3.302
  9
$DIMEXO
 40
1.0
  9
$DIMDLI
 40
3.75
  9
$DIMRND
 40
0.0
  9
$DIMDLE
 40
0.0
  9
$DIMEXE
 40
1.0
  9
$DIMTP
 40
0.0
  9
$DIMTM
 40
0.0
  9
$DIMTXT
 40
3.5
  9
$DIMCEN
 40
2.5
  9
$DIMTSZ
 40
0.0
  9
$DIMTOL
 70
     0
  9
$DIMLIM
 70
     0
  9
$DIMTIH
 70
     1
  9
$DIMTOH
 70
     1
  9
$DIMSE1
 70
     0
  9
$DIMSE2
 70
     0
  9
$DIMTAD
 70
     1
  9
$DIMZIN
 70
     0
  9
$DIMBLK
  1

  9
$DIMASO
 70
     1
  9
$DIMSHO
 70
     1
  9
$DIMPOST
  1

  9
$DIMAPOST
  1

  9
$DIMALT
 70
     0
  9
$DIMALTD
 70
     3
  9
$DIMALTF
 40
0.0393700787401575
  9
$DIMLFAC
 40
1.0
  9
$DIMTOFL
 70
     1
  9
$DIMTVP
 40
0.0
  9
$DIMTIX
 70
     0
  9
$DIMSOXD
 70
     0
  9
$DIMSAH
 70
     0
  9
$DIMBLK1
  1

  9
$DIMBLK2
  1

  9
$DIMSTYLE
  2
ISO-25
  9
$DIMCLRD
 70
     0
  9
$DIMCLRE
 70
     0
  9
$DIMCLRT
 70
     0
  9
$DIMTFAC
 40
1.0
  9
$DIMGAP
 40
1.524
  9
$DIMJUST
 70
     0
  9
$DIMSD1
 70
     0
  9
$DIMSD2
 70
     0
  9
$DIMTOLJ
 70
     0
  9
$DIMTZIN
 70
     0
  9
$DIMALTZ
 70
     0
  9
$DIMALTTZ
 70
     0
  9
$DIMUPT
 70
     0
  9
$DIMDEC
 70
     2
  9
$DIMTDEC
 70
     2
  9
$DIMALTU
 70
     2
  9
$DIMALTTD
 70
     3
  9
$DIMTXSTY
  7
Standard
  9
$DIMAUNIT
 70
     0
  9
$DIMADEC
 70
     2
  9
$DIMALTRND
 40
0.0
  9
$DIMAZIN
 70
     0
  9
$DIMDSEP
 70
    44
  9
$DIMATFIT
 70
     3
  9
$DIMFRAC
 70
     0
  9
$DIMLDRBLK
  1

  9
$DIMLUNIT
 70
     2
  9
$DIMLWD
 70
    -2
  9
$DIMLWE
 70
    -2
  9
$DIMTMOVE
 70
     0
  9
$LUNITS
 70
     2
  9
$LUPREC
 70
     2
  9
$SKETCHINC
 40
1.0
  9
$FILLETRAD
 40
10.0
  9
$AUNITS
 70
     0
  9
$AUPREC
 70
     2
  9
$MENU
  1
.
  9
$ELEVATION
 40
0.0
  9
$PELEVATION
 40
0.0
  9
$THICKNESS
 40
0.0
  9
$LIMCHECK
 70
     0
  9
$CHAMFERA
 40
0.0
  9
$CHAMFERB
 40
0.0
  9
$CHAMFERC
 40
0.0
  9
$CHAMFERD
 40
0.0
  9
$SKPOLY
 70
     0
  9
$TDCREATE
 40
2458319.740500382
  9
$TDUCREATE
 40
2458319.365500382
  9
$TDUPDATE
 40
2458324.498910799
  9
$TDUUPDATE
 40
2458324.123910799
  9
$TDINDWG
 40
0.0021628588
  9
$TDUSRTIMER
 40
2458324.123860637
  9
$USRTIMER
 70
     1
  9
$ANGBASE
 50
0.0
  9
$ANGDIR
 70
     0
  9
$PDMODE
 70
     0
  9
$PDSIZE
 40
-1.0
  9
$PLINEWID
 40
0.0
  9
$SPLFRAME
 70
     0
  9
$SPLINETYPE
 70
     6
  9
$SPLINESEGS
 70
     8
  9
$HANDSEED
  5
22E
  9
$SURFTAB1
 70
     6
  9
$SURFTAB2
 70
     6
  9
$SURFTYPE
 70
     6
  9
$SURFU
 70
     6
  9
$SURFV
 70
     6
  9
$UCSBASE
  2

  9
$UCSNAME
  2

  9
$UCSORG
 10
0.0
 20
0.0
 30
0.0
  9
$UCSXDIR
 10
1.0
 20
0.0
 30
0.0
  9
$UCSYDIR
 10
0.0
 20
1.0
 30
0.0
  9
$UCSORTHOREF
  2

  9
$UCSORTHOVIEW
 70
     0
  9
$UCSORGTOP
 10
0.0
 20
0.0
 30
0.0
  9
$UCSORGBOTTOM
 10
0.0
 20
0.0
 30
0.0
  9
$UCSORGLEFT
 10
0.0
 20
0.0
 30
0.0
  9
$UCSORGRIGHT
 10
0.0
 20
0.0
 30
0.0
  9
$UCSORGFRONT
 10
0.0
 20
0.0
 30
0.0
  9
$UCSORGBACK
 10
0.0
 20
0.0
 30
0.0
  9
$PUCSBASE
  2

  9
$PUCSNAME
  2

  9
$PUCSORG
 10
0.0
 20
0.0
 30
0.0
  9
$PUCSXDIR
 10
1.0
 20
0.0
 30
0.0
  9
$PUCSYDIR
 10
0.0
 20
1.0
 30
0.0
  9
$PUCSORTHOREF
  2

  9
$PUCSORTHOVIEW
 70
     0
  9
$PUCSORGTOP
 10
0.0
 20
0.0
 30
0.0
  9
$PUCSORGBOTTOM
 10
0.0
 20
0.0
 30
0.0
  9
$PUCSORGLEFT
 10
0.0
 20
0.0
 30
0.0
  9
$PUCSORGRIGHT
 10
0.0
 20
0.0
 30
0.0
  9
$PUCSORGFRONT
 10
0.0
 20
0.0
 30
0.0
  9
$PUCSORGBACK
 10
0.0
 20
0.0
 30
0.0
  9
$USERI1
 70
     0
  9
$USERI2
 70
     0
  9
$USERI3
 70
     0
  9
$USERI4
 70
     0
  9
$USERI5
 70
     0
  9
$USERR1
 40
0.0
  9
$USERR2
 40
0.0
  9
$USERR3
 40
0.0
  9
$USERR4
 40
0.0
  9
$USERR5
 40
0.0
  9
$WORLDVIEW
 70
     1
  9
$SHADEDGE
 70
     3
  9
$SHADEDIF
 70
    70
  9
$TILEMODE
 70
     1
  9
$MAXACTVP
 70
    64
  9
$PINSBASE
 10
0.0
 20
0.0
 30
0.0
  9
$PLIMCHECK
 70
     0
  9
$PEXTMIN
 10
1.000000000000000E+20
 20
1.000000000000000E+20
 30
1.000000000000000E+20
  9
$PEXTMAX
 10
-1.000000000000000E+20
 20
-1.000000000000000E+20
 30
-1.000000000000000E+20
  9
$PLIMMIN
 10
0.0
 20
0.0
  9
$PLIMMAX
 10
0.0
 20
0.0
  9
$UNITMODE
 70
     0
  9
$VISRETAIN
 70
     1
  9
$PLINEGEN
 70
     0
  9
$PSLTSCALE
 70
     1
  9
$TREEDEPTH
 70
  3020
  9
$CMLSTYLE
  2
Standard
  9
$CMLJUST
 70
     0
  9
$CMLSCALE
 40
20.0
  9
$PROXYGRAPHICS
 70
     1
  9
$MEASUREMENT
 70
     1
  9
$CELWEIGHT
370
    -1
  9
$ENDCAPS
280
     0
  9
$JOINSTYLE
280
     0
  9
$LWDISPLAY
290
     1
  9
$INSUNITS
 70
     4
  9
$HYPERLINKBASE
  1

  9
$STYLESHEET
  1

  9
$XEDIT
290
     1
  9
$CEPSNTYPE
380
     0
  9
$PSTYLEMODE
290
     1
  9
$FINGERPRINTGUID
  2
{16F06B0B-2AAC-43A3-B87F-9B74F299BCAA}
  9
$VERSIONGUID
  2
{FAEB1C32-E019-11D5-929B-00C0DF256EC4}
  9
$EXTNAMES
290
     1
  9
$PSVPSCALE
 40
0.0
  9
$OLESTARTUP
290
     0
  0
ENDSEC
  0
SECTION
  2
CLASSES
  0
CLASS
  1
ACDBDICTIONARYWDFLT
  2
AcDbDictionaryWithDefault
  3
ObjectDBX Classes
 90
        0
280
     0
281
     0
  0
CLASS
  1
VISUALSTYLE
  2
AcDbVisualStyle
  3
ObjectDBX Classes
 90
     4095
280
     0
281
     0
  0
CLASS
  1
MATERIAL
  2
AcDbMaterial
  3
ObjectDBX Classes
 90
     1153
280
     0
281
     0
  0
CLASS
  1
SCALE
  2
AcDbScale
  3
ObjectDBX Classes
 90
     1153
280
     0
281
     0
  0
CLASS
  1
SUN
  2
AcDbSun
  3
SCENEOE
 90
     1153
280
     0
281
     0
  0
CLASS
  1
ACDBPLACEHOLDER
  2
AcDbPlaceHolder
  3
ObjectDBX Classes
 90
        0
280
     0
281
     0
  0
CLASS
  1
LAYOUT
  2
AcDbLayout
  3
ObjectDBX Classes
 90
        0
280
     0
281
     0
  0
CLASS
  1
TABLESTYLE
  2
AcDbTableStyle
  3
ObjectDBX Classes
 90
     4095
280
     0
281
     0
  0
CLASS
  1
MLEADERSTYLE
  2
AcDbMLeaderStyle
  3
ACDB_MLEADERSTYLE_CLASS
 90
     4095
280
     0
281
     0
  0
CLASS
  1
DICTIONARYVAR
  2
AcDbDictionaryVar
  3
ObjectDBX Classes
 90
        0
280
     0
281
     0
  0
CLASS
  1
RASTERVARIABLES
  2
AcDbRasterVariables
  3
ISM
 90
        0
280
     0
281
     0
  0
ENDSEC
  0
SECTION
  2
TABLES
  0
TABLE
  2
VPORT
  5
8
330
0
100
AcDbSymbolTable
 70
     1
  0
VPORT
  5
29
330
8
100
AcDbSymbolTableRecord
100
AcDbViewportTableRecord
  2
*Active
 70
     0
 10
0.0
 20
0.0
 11
1.0
 21
1.0
 12
26.98799190767276
 22
-11.04527869440589
 13
0.0
 23
0.0
 14
10.0
 24
10.0
 15
10.0
 25
10.0
 16
0.0
 26
0.0
 36
1.0
 17
0.0
 27
0.0
 37
0.0
 40
82.04625560094685
 41
1.782762691853601
 42
50.0
 43
0.0
 44
0.0
 50
0.0
 51
0.0
 71
    16
 72
  2000
 73
     1
 74
     3
 75
     0
 76
     0
 77
     0
 78
     0
281
     0
 65
     1
110
0.0
120
0.0
130
0.0
111
1.0
121
0.0
131
0.0
112
0.0
122
1.0
132
0.0
 79
     0
146
0.0
  0
ENDTAB
  0
TABLE
  2
LTYPE
  5
5
330
0
100
AcDbSymbolTable
 70
     6
  0
LTYPE
  5
14
330
5
100
AcDbSymbolTableRecord
100
AcDbLinetypeTableRecord
  2
ByBlock
 70
     0
  3

 72
    65
 73
     0
 40
0.0
  0
LTYPE
  5
15
330
5
100
AcDbSymbolTableRecord
100
AcDbLinetypeTableRecord
  2
ByLayer
 70
     0
  3

 72
    65
 73
     0
 40
0.0
  0
LTYPE
  5
16
330
5
100
AcDbSymbolTableRecord
100
AcDbLinetypeTableRecord
  2
Continuous
 70
     0
  3
Solid line
 72
    65
 73
     0
 40
0.0
  0
LTYPE
  5
6A
330
5
100
AcDbSymbolTableRecord
100
AcDbLinetypeTableRecord
  2
HIDDEN
 70
     0
  3
Hidden __ __ __ __ __ __ __ __ __ __ __ __ __ __
 72
    65
 73
     2
 40
1.905
 49
1.27
 74
     0
 49
-0.635
 74
     0
  0
LTYPE
  5
6B
330
5
100
AcDbSymbolTableRecord
100
AcDbLinetypeTableRecord
  2
PHANTOM
 70
     0
  3
Phantom ______  __  __  ______  __  __  ______
 72
    65
 73
     6
 40
12.7
 49
6.35
 74
     0
 49
-1.27
 74
     0
 49
1.27
 74
     0
 49
-1.27
 74
     0
 49
1.27
 74
     0
 49
-1.27
 74
     0
  0
LTYPE
  5
6C
330
5
100
AcDbSymbolTableRecord
100
AcDbLinetypeTableRecord
  2
CENTER
 70
     0
  3
Center ____ _ ____ _ ____ _ ____ _ ____ _ ____
 72
    65
 73
     4
 40
10.16
 49
6.35
 74
     0
 49
-1.27
 74
     0
 49
1.27
 74
     0
 49
-1.27
 74
     0
  0
LTYPE
  5
6D
330
5
100
AcDbSymbolTableRecord
100
AcDbLinetypeTableRecord
  2
CENTERX2
 70
     0
  3
Center (2x) ________  __  ________  __  _____
 72
    65
 73
     4
 40
20.32
 49
12.7
 74
     0
 49
-2.54
 74
     0
 49
2.54
 74
     0
 49
-2.54
 74
     0
  0
LTYPE
  5
6E
330
5
100
AcDbSymbolTableRecord
100
AcDbLinetypeTableRecord
  2
DOT2
 70
     0
  3
Dot (.5x) ........................................
 72
    65
 73
     2
 40
0.635
 49
0.0
 74
     0
 49
-0.635
 74
     0
  0
ENDTAB
  0
TABLE
  2
LAYER
  5
2
330
0
100
AcDbSymbolTable
 70
    18
  0
LAYER
  5
10
330
2
100
AcDbSymbolTableRecord
100
AcDbLayerTableRecord
  2
0
 70
     0
 62
     7
  6
Continuous
370
    -3
390
F
  0
LAYER
  5
6F
330
2
100
AcDbSymbolTableRecord
100
AcDbLayerTableRecord
  2
FORMAT
 70
     0
 62
     2
  6
Continuous
370
    -3
390
F
  0
LAYER
  5
70
330
2
100
AcDbSymbolTableRecord
100
AcDbLayerTableRecord
  2
외형선
 70
     0
 62
     4
  6
Continuous
370
    30
390
F
  0
LAYER
  5
71
330
2
100
AcDbSymbolTableRecord
100
AcDbLayerTableRecord
  2
숨은선
 70
     0
 62
     2
  6
HIDDEN
370
    15
390
F
  0
LAYER
  5
72
330
2
100
AcDbSymbolTableRecord
100
AcDbLayerTableRecord
  2
중심선
 70
     0
 62
     1
  6
CENTERX2
370
    -3
390
F
  0
LAYER
  5
73
330
2
100
AcDbSymbolTableRecord
100
AcDbLayerTableRecord
  2
파단선
 70
     0
 62
     4
  6
Continuous
370
    -3
390
F
  0
LAYER
  5
74
330
2
100
AcDbSymbolTableRecord
100
AcDbLayerTableRecord
  2
해칭선
 70
     0
 62
   100
  6
Continuous
370
    -3
390
F
  0
LAYER
  5
75
330
2
100
AcDbSymbolTableRecord
100
AcDbLayerTableRecord
  2
가는실선
 70
     0
 62
     4
  6
Continuous
370
    -3
390
F
  0
LAYER
  5
76
330
2
100
AcDbSymbolTableRecord
100
AcDbLayerTableRecord
  2
치수_보조선
 70
     0
 62
     4
  6
Continuous
370
    -3
390
F
  0
LAYER
  5
77
330
2
100
AcDbSymbolTableRecord
100
AcDbLayerTableRecord
  2
치수문자_일반주서
 70
     0
 62
     7
  6
Continuous
370
    15
390
F
  0
LAYER
  5
78
330
2
100
AcDbSymbolTableRecord
100
AcDbLayerTableRecord
  2
개별주서
 70
     0
 62
   100
  6
Continuous
370
    30
390
F
  0
LAYER
  5
79
330
2
100
AcDbSymbolTableRecord
100
AcDbLayerTableRecord
  2
중간선
 70
     0
 62
     2
  6
Continuous
370
    15
390
F
  0
LAYER
  5
7A
330
2
100
AcDbSymbolTableRecord
100
AcDbLayerTableRecord
  2
윤곽선
 70
     0
 62
     3
  6
Continuous
370
    40
390
F
  0
LAYER
  5
7B
330
2
100
AcDbSymbolTableRecord
100
AcDbLayerTableRecord
  2
중심마크
 70
     0
 62
   100
  6
Continuous
370
    30
390
F
  0
LAYER
  5
7C
330
2
100
AcDbSymbolTableRecord
100
AcDbLayerTableRecord
  2
가상선
 70
     0
 62
     4
  6
PHANTOM
370
    -3
390
F
  0
LAYER
  5
7D
330
2
100
AcDbSymbolTableRecord
100
AcDbLayerTableRecord
  2
특수지정선
 70
     0
 62
     5
  6
CENTERX2
370
    60
390
F
  0
LAYER
  5
7E
330
2
100
AcDbSymbolTableRecord
100
AcDbLayerTableRecord
  2
참조1
 70
     0
 62
    -4
  6
Continuous
370
    -3
390
F
  0
LAYER
  5
152
330
2
100
AcDbSymbolTableRecord
100
AcDbLayerTableRecord
  2
Defpoints
 70
     0
 62
     7
  6
Continuous
290
     0
370
    -3
390
F
  0
ENDTAB
  0
TABLE
  2
STYLE
  5
3
330
0
100
AcDbSymbolTable
 70
     2
  0
STYLE
  5
11
330
3
100
AcDbSymbolTableRecord
100
AcDbTextStyleTableRecord
  2
Standard
 70
     0
 40
0.0
 41
1.0
 50
0.0
 71
     0
 42
3.5
  3
txt
  4

  0
STYLE
  5
94
330
3
100
AcDbSymbolTableRecord
100
AcDbTextStyleTableRecord
  2
SLDTEXTSTYLE0
 70
     0
 40
0.0
 41
0.75
 50
0.0
 71
     0
 42
3.5
  3
TXT
  4

  0
ENDTAB
  0
TABLE
  2
VIEW
  5
6
330
0
100
AcDbSymbolTable
 70
     0
  0
ENDTAB
  0
TABLE
  2
UCS
  5
7
330
0
100
AcDbSymbolTable
 70
     0
  0
ENDTAB
  0
TABLE
  2
APPID
  5
9
330
0
100
AcDbSymbolTable
 70
     2
  0
APPID
  5
12
330
9
100
AcDbSymbolTableRecord
100
AcDbRegAppTableRecord
  2
ACAD
 70
     0
  0
APPID
  5
159
330
9
100
AcDbSymbolTableRecord
100
AcDbRegAppTableRecord
  2
PE_URL
 70
     0
  0
ENDTAB
  0
TABLE
  2
DIMSTYLE
  5
A
330
0
100
AcDbSymbolTable
 70
     3
100
AcDbDimStyleTable
  0
DIMSTYLE
105
27
330
A
100
AcDbSymbolTableRecord
100
AcDbDimStyleTableRecord
  2
ISO-25
 70
     0
 41
2.5
 42
0.625
 43
3.75
 44
1.25
 73
     0
 74
     0
 77
     1
 78
     8
140
2.5
141
2.5
143
0.03937007874016
147
0.625
171
     3
172
     1
178
     0
271
     2
272
     2
274
     3
278
    44
283
     0
284
     8
340
11
  0
DIMSTYLE
105
D0
102
{ACAD_REACTORS
330
CF
330
F9
330
10D
330
E5
102
}
330
A
100
AcDbSymbolTableRecord
100
AcDbDimStyleTableRecord
  2
SLDDIMSTYLE0
 70
     0
 41
3.302
 44
0.0
 45
0.000000001
 73
     0
 74
     0
 77
     1
 78
    12
 79
     3
140
3.5
143
0.0393700787401575
147
0.875
148
0.000000001
170
     1
172
     1
173
     1
178
     0
271
     2
272
     2
276
     2
284
    12
289
     0
340
94
  0
DIMSTYLE
105
E6
330
A
100
AcDbSymbolTableRecord
100
AcDbDimStyleTableRecord
  2
SLDDIMSTYLE1
 70
     0
 41
3.302
 44
0.0
 45
0.000000001
 73
     0
 74
     0
 77
     1
 78
    12
 79
     3
140
3.5
143
0.0393700787401575
147
0.875
148
0.000000001
170
     1
173
     1
178
     0
271
     2
272
     2
276
     2
284
    12
340
94
  0
ENDTAB
  0
TABLE
  2
BLOCK_RECORD
  5
1
330
0
100
AcDbSymbolTable
 70
     9
  0
BLOCK_RECORD
  5
1F
330
1
100
AcDbSymbolTableRecord
100
AcDbBlockTableRecord
  2
*Model_Space
340
22
  0
BLOCK_RECORD
  5
1B
330
1
100
AcDbSymbolTableRecord
100
AcDbBlockTableRecord
  2
*Paper_Space
340
1E
  0
BLOCK_RECORD
  5
23
330
1
100
AcDbSymbolTableRecord
100
AcDbBlockTableRecord
  2
*Paper_Space0
340
26
  0
BLOCK_RECORD
  5
7F
330
1
100
AcDbSymbolTableRecord
100
AcDbBlockTableRecord
  2
블럭10
340
0
102
{BLKREFS
331
C8
102
}
  0
BLOCK_RECORD
  5
D1
330
1
100
AcDbSymbolTableRecord
100
AcDbBlockTableRecord
  2
_D
340
0
  0
BLOCK_RECORD
  5
E7
330
1
100
AcDbSymbolTableRecord
100
AcDbBlockTableRecord
  2
_D_1
340
0
  0
BLOCK_RECORD
  5
FA
330
1
100
AcDbSymbolTableRecord
100
AcDbBlockTableRecord
  2
_D_2
340
0
  0
BLOCK_RECORD
  5
10E
330
1
100
AcDbSymbolTableRecord
100
AcDbBlockTableRecord
  2
_D_3
340
0
  0
BLOCK_RECORD
  5
128
330
1
100
AcDbSymbolTableRecord
100
AcDbBlockTableRecord
  2
SW_DOWELSYMBOL_0
340
0
102
{BLKREFS
331
12E
102
}
  0
BLOCK_RECORD
  5
18B
330
1
100
AcDbSymbolTableRecord
100
AcDbBlockTableRecord
  2
*D7
340
0
  0
BLOCK_RECORD
  5
19D
330
1
100
AcDbSymbolTableRecord
100
AcDbBlockTableRecord
  2
*D8
340
0
  0
ENDTAB
  0
ENDSEC
  0
SECTION
  2
BLOCKS
  0
BLOCK
  5
20
330
1F
100
AcDbEntity
  8
0
100
AcDbBlockBegin
  2
*Model_Space
 70
     0
 10
0.0
 20
0.0
 30
0.0
  3
*Model_Space
  1
*Model_Space
  0
ENDBLK
  5
21
330
1F
100
AcDbEntity
  8
0
100
AcDbBlockEnd
  0
BLOCK
  5
1C
330
1B
100
AcDbEntity
 67
     1
  8
0
100
AcDbBlockBegin
  2
*Paper_Space
 70
     0
 10
0.0
 20
0.0
 30
0.0
  3
*Paper_Space
  1
*Paper_Space
  0
ENDBLK
  5
1D
330
1B
100
AcDbEntity
 67
     1
  8
0
100
AcDbBlockEnd
  0
BLOCK
  5
24
330
23
100
AcDbEntity
  8
0
100
AcDbBlockBegin
  2
*Paper_Space0
 70
     0
 10
0.0
 20
0.0
 30
0.0
  3
*Paper_Space0
  1
*Paper_Space0
  0
ENDBLK
  5
25
330
23
100
AcDbEntity
  8
0
100
AcDbBlockEnd
  0
BLOCK
  5
80
330
7F
100
AcDbEntity
  8
0
100
AcDbBlockBegin
  2
블럭10
 70
     2
 10
0.0
 20
0.0
 30
0.0
  3
블럭10
  1
블럭10
  0
ELLIPSE
  5
82
330
7F
100
AcDbEntity
  8
중심선
100
AcDbEllipse
 10
20.54032771741204
 20
12.0471743016438
 30
0.0
 11
6.600054785286829
 21
-1.261213355974178E-13
 31
0.0
210
0.0
220
0.0
230
1.0
 40
0.636358354079598
 41
0.9219305317359503
 42
6.513795318482858
  0
ELLIPSE
  5
83
330
7F
100
AcDbEntity
  8
중심선
100
AcDbEllipse
 10
20.54032771746488
 20
12.04717430159265
 30
0.0
 11
3.960054785062283
 21
1.540847449632565E-10
 31
0.0
210
0.0
220
0.0
230
1.0
 40
0.3939339440162632
 41
1.131841032648279
 42
5.62031148352944
  0
LINE
  5
84
330
7F
100
AcDbEntity
  8
중심선
100
AcDbLine
 10
2.268634060543552
 20
16.24717430164393
 30
0.0
 11
5.714909304380834
 21
16.24717430164393
 31
0.0
  0
LINE
  5
85
330
7F
100
AcDbEntity
  8
중심선
100
AcDbLine
 10
5.245725140726316
 20
7.84717430164391
 30
0.0
 11
8.692000384563599
 21
7.84717430164391
 31
0.0
  0
LINE
  5
86
330
7F
100
AcDbEntity
  8
중심선
100
AcDbLine
 10
15.74043728645272
 20
16.24717430164393
 30
0.0
 11
8.692000384563599
 21
7.84717430164391
 31
0.0
  0
LINE
  5
87
330
7F
100
AcDbEntity
  8
중심선
100
AcDbLine
 10
0.1404042013395286
 20
13.71084872107135
 30
0.0
 11
3.58671253028996
 21
13.71088815037384
 31
0.0
  0
LINE
  5
88
330
7F
100
AcDbEntity
  8
중심선
100
AcDbLine
 10
2.750260043222114
 20
10.84717430164391
 30
0.0
 11
6.196535287059397
 21
10.84717430164391
 31
0.0
  0
LINE
  5
89
330
7F
100
AcDbEntity
  8
중심선
100
AcDbLine
 10
12.29416204261559
 20
16.24717430164393
 30
0.0
 11
5.245725140726316
 21
7.84717430164391
 31
0.0
  0
LINE
  5
8A
330
7F
100
AcDbEntity
  8
중심선
100
AcDbLine
 10
10.72767329541681
 20
16.24717430164393
 30
0.0
 11
6.196535287059397
 21
10.84717430164391
 31
0.0
  0
LINE
  5
8B
330
7F
100
AcDbEntity
  8
중심선
100
AcDbLine
 10
7.28139805157953
 20
16.24717430164393
 30
0.0
 11
2.750260043222114
 21
10.84717430164391
 31
0.0
  0
LINE
  5
8C
330
7F
100
AcDbEntity
  8
중심선
100
AcDbLine
 10
5.714909304380834
 20
16.24717430164393
 30
0.0
 11
3.58671253028996
 21
13.71088815037384
 31
0.0
  0
LINE
  5
8D
330
7F
100
AcDbEntity
  8
중심선
100
AcDbLine
 10
2.268634060543552
 20
16.24717430164393
 30
0.0
 11
0.1404042013395286
 21
13.71084872107135
 31
0.0
  0
LINE
  5
8E
330
7F
100
AcDbEntity
  8
중심선
100
AcDbLine
 10
7.28139805157953
 20
16.24717430164393
 30
0.0
 11
10.72767329541681
 21
16.24717430164393
 31
0.0
  0
LINE
  5
8F
330
7F
100
AcDbEntity
  8
중심선
100
AcDbLine
 10
12.29416204261559
 20
16.24717430164393
 30
0.0
 11
15.74043728645272
 21
16.24717430164393
 31
0.0
  0
LINE
  5
90
330
7F
100
AcDbEntity
  8
중심선
100
AcDbLine
 10
19.22036997980202
 20
11.08717430171403
 30
0.0
 11
23.66174974927406
 21
11.08717430171406
 31
0.0
  0
LINE
  5
91
330
7F
100
AcDbEntity
  8
중심선
100
AcDbLine
 10
19.22039502424796
 20
13.00717430171391
 30
0.0
 11
19.22036997980202
 21
11.08717430171403
 31
0.0
  0
LINE
  5
92
330
7F
100
AcDbEntity
  8
중심선
100
AcDbLine
 10
19.22039502424796
 20
13.00717430171391
 30
0.0
 11
26.96566020931264
 21
13.00717430171391
 31
0.0
  0
LINE
  5
93
330
7F
100
AcDbEntity
  8
중심선
100
AcDbLine
 10
22.22332737316547
 20
13.45928029700563
 30
0.0
 11
24.52862924686651
 21
15.39360700705356
 31
0.0
  0
ATTDEF
  5
95
330
7F
100
AcDbEntity
  8
FORMAT
 62
     2
100
AcDbText
 10
4.408487351596664
 20
2.075366912832191
 30
0.0
 40
4.233333333333333
  1
E1015006
 41
0.75
  7
SLDTEXTSTYLE0
 11
4.408487351596664
 21
-0.0412997538344756
 31
0.0
100
AcDbAttributeDefinition
  3

  2
AUTOATTR0
 70
     0
 74
     1
  0
ENDBLK
  5
81
330
7F
100
AcDbEntity
  8
0
100
AcDbBlockEnd
  0
BLOCK
  5
D2
330
D1
100
AcDbEntity
  8
0
100
AcDbBlockBegin
  2
_D
 70
     0
 10
0.0
 20
0.0
 30
0.0
  3
_D
  1
_D
  0
LINE
  5
D4
330
D1
100
AcDbEntity
  8
치수문자_일반주서
 62
     0
370
    -2
100
AcDbLine
 10
33.33749999999999
 20
1.253125000000003
 30
0.0
 11
33.33749999999999
 21
10.38125000000001
 31
0.0
  0
LINE
  5
D5
330
D1
100
AcDbEntity
  8
치수문자_일반주서
 62
     0
370
    -2
100
AcDbLine
 10
26.19375
 20
1.253125
 30
0.0
 11
26.19375
 21
10.38125000000001
 31
0.0
  0
LINE
  5
D6
330
D1
100
AcDbEntity
  8
치수문자_일반주서
 62
     0
370
    -2
100
AcDbLine
 10
33.33749999999999
 20
10.38125000000001
 30
0.0
 11
56.96250000000001
 21
10.38125000000001
 31
0.0
  0
LINE
  5
D7
330
D1
100
AcDbEntity
  8
치수문자_일반주서
 62
     0
370
    -2
100
AcDbLine
 10
33.33749999999999
 20
10.38125000000001
 30
0.0
 11
26.19375
 21
10.38125000000001
 31
0.0
  0
LINE
  5
D8
330
D1
100
AcDbEntity
  8
치수문자_일반주서
 62
     0
370
    -2
100
AcDbLine
 10
35.83749999999999
 20
10.38125000000001
 30
0.0
 11
38.33749999999999
 21
10.38125000000001
 31
0.0
  0
LINE
  5
D9
330
D1
100
AcDbEntity
  8
치수문자_일반주서
 62
     0
370
    -2
100
AcDbLine
 10
23.69375
 20
10.38125000000001
 30
0.0
 11
21.19375
 21
10.38125000000001
 31
0.0
  0
SOLID
  5
DA
330
D1
100
AcDbEntity
  8
치수문자_일반주서
 62
     0
100
AcDbTrace
 10
35.83749999999999
 20
10.79791666666667
 30
0.0
 11
35.83749999999999
 21
9.964583333333342
 31
0.0
 12
33.33749999999999
 22
10.38125000000001
 32
0.0
 13
33.33749999999999
 23
10.38125000000001
 33
0.0
  0
SOLID
  5
DB
330
D1
100
AcDbEntity
  8
치수문자_일반주서
 62
     0
100
AcDbTrace
 10
23.69375
 20
9.964583333333342
 30
0.0
 11
23.69375
 21
10.79791666666667
 31
0.0
 12
26.19375
 22
10.38125000000001
 32
0.0
 13
26.19375
 23
10.38125000000001
 33
0.0
  0
MTEXT
  5
DC
330
D1
100
AcDbEntity
  8
치수문자_일반주서
 62
     0
100
AcDbMText
 10
47.65000000000001
 20
13.75625000000001
 30
0.0
 40
2.5
 41
0.0
 71
     2
 72
     1
  1
\A1;7.14 [9/32]
  7
SLDTEXTSTYLE0
 73
     1
 44
1.0
  0
POINT
  5
DD
330
D1
100
AcDbEntity
  8
Defpoints
 62
     0
100
AcDbPoint
 10
33.33749999999999
 20
1.190625000000003
 30
0.0
  0
POINT
  5
DE
330
D1
100
AcDbEntity
  8
Defpoints
 62
     0
100
AcDbPoint
 10
26.19375
 20
1.190625
 30
0.0
  0
POINT
  5
DF
330
D1
100
AcDbEntity
  8
Defpoints
 62
     0
100
AcDbPoint
 10
26.19375
 20
10.38125000000001
 30
0.0
  0
ENDBLK
  5
D3
330
D1
100
AcDbEntity
  8
0
100
AcDbBlockEnd
  0
BLOCK
  5
E8
330
E7
100
AcDbEntity
  8
0
100
AcDbBlockBegin
  2
_D_1
 70
     0
 10
0.0
 20
0.0
 30
0.0
  3
_D_1
  1
_D_1
  0
LINE
  5
EA
330
E7
100
AcDbEntity
  8
치수문자_일반주서
 62
     0
370
    -2
100
AcDbLine
 10
33.33749999999999
 20
1.253125000000003
 30
0.0
 11
33.33749999999999
 21
18.38125
 31
0.0
  0
LINE
  5
EB
330
E7
100
AcDbEntity
  8
치수문자_일반주서
 62
     0
370
    -2
100
AcDbLine
 10
-33.33750000000001
 20
1.253125000000004
 30
0.0
 11
-33.33750000000001
 21
18.38125
 31
0.0
  0
LINE
  5
EC
330
E7
100
AcDbEntity
  8
치수문자_일반주서
 62
     0
370
    -2
100
AcDbLine
 10
30.83749999999999
 20
18.38125
 30
0.0
 11
-30.83750000000001
 21
18.38125
 31
0.0
  0
SOLID
  5
ED
330
E7
100
AcDbEntity
  8
치수문자_일반주서
 62
     0
100
AcDbTrace
 10
30.83749999999999
 20
17.96458333333334
 30
0.0
 11
30.83749999999999
 21
18.79791666666667
 31
0.0
 12
33.33749999999999
 22
18.38125
 32
0.0
 13
33.33749999999999
 23
18.38125
 33
0.0
  0
SOLID
  5
EE
330
E7
100
AcDbEntity
  8
치수문자_일반주서
 62
     0
100
AcDbTrace
 10
-30.83750000000001
 20
18.79791666666667
 30
0.0
 11
-30.83750000000001
 21
17.96458333333334
 31
0.0
 12
-33.33750000000001
 22
18.38125
 32
0.0
 13
-33.33750000000001
 23
18.38125
 33
0.0
  0
MTEXT
  5
EF
330
E7
100
AcDbEntity
  8
치수문자_일반주서
 62
     0
100
AcDbMText
 10
0.0
 20
21.75625
 30
0.0
 40
2.5
 41
0.0
 71
     2
 72
     1
  1
\A1;66.68 [2 5/8]
  7
SLDTEXTSTYLE0
 73
     1
 44
1.0
  0
POINT
  5
F0
330
E7
100
AcDbEntity
  8
Defpoints
 62
     0
100
AcDbPoint
 10
33.33749999999999
 20
1.190625000000003
 30
0.0
  0
POINT
  5
F1
330
E7
100
AcDbEntity
  8
Defpoints
 62
     0
100
AcDbPoint
 10
-33.33750000000001
 20
1.190625000000004
 30
0.0
  0
POINT
  5
F2
330
E7
100
AcDbEntity
  8
Defpoints
 62
     0
100
AcDbPoint
 10
-33.33750000000001
 20
18.38125
 30
0.0
  0
ENDBLK
  5
E9
330
E7
100
AcDbEntity
  8
0
100
AcDbBlockEnd
  0
BLOCK
  5
FB
330
FA
100
AcDbEntity
  8
0
100
AcDbBlockBegin
  2
_D_2
 70
     0
 10
0.0
 20
0.0
 30
0.0
  3
_D_2
  1
_D_2
  0
LINE
  5
FD
330
FA
100
AcDbEntity
  8
치수문자_일반주서
 62
     0
370
    -2
100
AcDbLine
 10
-20.81277700723831
 20
2.381249999999997
 30
0.0
 11
-41.33750000000001
 21
2.38124999999992
 31
0.0
  0
LINE
  5
FE
330
FA
100
AcDbEntity
  8
치수문자_일반주서
 62
     0
370
    -2
100
AcDbLine
 10
-20.81277700723831
 20
-2.381250000000002
 30
0.0
 11
-41.3375
 21
-2.38125000000008
 31
0.0
  0
LINE
  5
FF
330
FA
100
AcDbEntity
  8
치수문자_일반주서
 62
     0
370
    -2
100
AcDbLine
 10
-41.33750000000001
 20
2.38124999999992
 30
0.0
 11
-41.33750000000008
 21
27.88124999999997
 31
0.0
  0
LINE
  5
100
330
FA
100
AcDbEntity
  8
치수문자_일반주서
 62
     0
370
    -2
100
AcDbLine
 10
-41.33750000000001
 20
2.38124999999992
 30
0.0
 11
-41.3375
 21
-2.38125000000008
 31
0.0
  0
LINE
  5
101
330
FA
100
AcDbEntity
  8
치수문자_일반주서
 62
     0
370
    -2
100
AcDbLine
 10
-41.33750000000002
 20
4.88124999999992
 30
0.0
 11
-41.33750000000003
 21
7.38124999999992
 31
0.0
  0
LINE
  5
102
330
FA
100
AcDbEntity
  8
치수문자_일반주서
 62
     0
370
    -2
100
AcDbLine
 10
-41.33749999999999
 20
-4.88125000000008
 30
0.0
 11
-41.33749999999998
 21
-7.38125000000008
 31
0.0
  0
SOLID
  5
103
330
FA
100
AcDbEntity
  8
치수문자_일반주서
 62
     0
100
AcDbTrace
 10
-41.75416666666668
 20
4.881249999999919
 30
0.0
 11
-40.92083333333336
 21
4.881249999999921
 31
0.0
 12
-41.33750000000001
 22
2.38124999999992
 32
0.0
 13
-41.33750000000001
 23
2.38124999999992
 33
0.0
  0
SOLID
  5
104
330
FA
100
AcDbEntity
  8
치수문자_일반주서
 62
     0
100
AcDbTrace
 10
-40.92083333333333
 20
-4.881250000000079
 30
0.0
 11
-41.75416666666666
 21
-4.88125000000008
 31
0.0
 12
-41.3375
 22
-2.38125000000008
 32
0.0
 13
-41.3375
 23
-2.38125000000008
 33
0.0
  0
MTEXT
  5
105
330
FA
100
AcDbEntity
  8
치수문자_일반주서
 62
     0
100
AcDbMText
 10
-44.71250000000006
 20
17.63124999999996
 30
0.0
 40
2.5
 41
0.0
 71
     2
 72
     1
  1
\A1;%%c4.76 [3/16]
  7
SLDTEXTSTYLE0
 11
-2.983906501879687E-15
 21
1.0
 31
0.0
 73
     1
 44
1.0
  0
POINT
  5
1B6
330
FA
100
AcDbEntity
  8
Defpoints
 62
     0
100
AcDbPoint
 10
-20.75027700723831
 20
2.381249999999998
 30
0.0
  0
POINT
  5
1B7
330
FA
100
AcDbEntity
  8
Defpoints
 62
     0
100
AcDbPoint
 10
-20.75027700723831
 20
-2.381250000000001
 30
0.0
  0
POINT
  5
1B8
330
FA
100
AcDbEntity
  8
Defpoints
 62
     0
100
AcDbPoint
 10
-41.3375
 20
-2.381250000000078
 30
0.0
  0
ENDBLK
  5
FC
330
FA
100
AcDbEntity
  8
0
100
AcDbBlockEnd
  0
BLOCK
  5
10F
330
10E
100
AcDbEntity
  8
0
100
AcDbBlockBegin
  2
_D_3
 70
     0
 10
0.0
 20
0.0
 30
0.0
  3
_D_3
  1
_D_3
  0
LINE
  5
111
330
10E
100
AcDbEntity
  8
치수문자_일반주서
 62
     0
370
    -2
100
AcDbLine
 10
33.39999999999999
 20
1.190625000000003
 30
0.0
 11
63.93849591285006
 21
1.190625000000116
 31
0.0
  0
LINE
  5
112
330
10E
100
AcDbEntity
  8
치수문자_일반주서
 62
     0
370
    -2
100
AcDbLine
 10
33.39999999999999
 20
-1.190624999999997
 30
0.0
 11
63.93849591285007
 21
-1.190624999999883
 31
0.0
  0
LINE
  5
113
330
10E
100
AcDbEntity
  8
치수문자_일반주서
 62
     0
370
    -2
100
AcDbLine
 10
63.93849591285006
 20
1.190625000000116
 30
0.0
 11
63.93849591284998
 21
27.31562500000013
 31
0.0
  0
LINE
  5
114
330
10E
100
AcDbEntity
  8
치수문자_일반주서
 62
     0
370
    -2
100
AcDbLine
 10
63.93849591285006
 20
1.190625000000116
 30
0.0
 11
63.93849591285007
 21
-1.190624999999883
 31
0.0
  0
LINE
  5
115
330
10E
100
AcDbEntity
  8
치수문자_일반주서
 62
     0
370
    -2
100
AcDbLine
 10
63.93849591285005
 20
3.690625000000116
 30
0.0
 11
63.93849591285004
 21
6.190625000000116
 31
0.0
  0
LINE
  5
116
330
10E
100
AcDbEntity
  8
치수문자_일반주서
 62
     0
370
    -2
100
AcDbLine
 10
63.93849591285007
 20
-3.690624999999883
 30
0.0
 11
63.93849591285008
 21
-6.190624999999883
 31
0.0
  0
SOLID
  5
117
330
10E
100
AcDbEntity
  8
치수문자_일반주서
 62
     0
100
AcDbTrace
 10
63.52182924618339
 20
3.690625000000115
 30
0.0
 11
64.35516257951672
 21
3.690625000000118
 31
0.0
 12
63.93849591285006
 22
1.190625000000116
 32
0.0
 13
63.93849591285006
 23
1.190625000000116
 33
0.0
  0
SOLID
  5
118
330
10E
100
AcDbEntity
  8
치수문자_일반주서
 62
     0
100
AcDbTrace
 10
64.35516257951674
 20
-3.690624999999882
 30
0.0
 11
63.52182924618341
 21
-3.690624999999885
 31
0.0
 12
63.93849591285007
 22
-1.190624999999883
 32
0.0
 13
63.93849591285007
 23
-1.190624999999883
 33
0.0
  0
MTEXT
  5
119
330
10E
100
AcDbEntity
  8
치수문자_일반주서
 62
     0
100
AcDbMText
 10
60.56349591285001
 20
16.75312500000011
 30
0.0
 40
2.5
 41
0.0
 71
     2
 72
     1
  1
\A1;%%c2.38 [3/32]
  7
SLDTEXTSTYLE0
 11
-2.983906501879686E-15
 21
1.0
 31
0.0
 73
     1
 44
1.0
  0
POINT
  5
11A
330
10E
100
AcDbEntity
  8
Defpoints
 62
     0
100
AcDbPoint
 10
33.33749999999999
 20
1.190625000000003
 30
0.0
  0
POINT
  5
11B
330
10E
100
AcDbEntity
  8
Defpoints
 62
     0
100
AcDbPoint
 10
33.33749999999999
 20
-1.190624999999997
 30
0.0
  0
POINT
  5
11C
330
10E
100
AcDbEntity
  8
Defpoints
 62
     0
100
AcDbPoint
 10
63.93849591285007
 20
-1.190624999999883
 30
0.0
  0
ENDBLK
  5
110
330
10E
100
AcDbEntity
  8
0
100
AcDbBlockEnd
  0
BLOCK
  5
129
330
128
100
AcDbEntity
  8
0
100
AcDbBlockBegin
  2
SW_DOWELSYMBOL_0
 70
     0
 10
0.0
 20
0.0
 30
0.0
  3
SW_DOWELSYMBOL_0
  1
SW_DOWELSYMBOL_0
  0
CIRCLE
  5
12B
330
128
100
AcDbEntity
  8
해칭선
 62
     0
100
AcDbCircle
 10
0.0
 20
0.0
 30
0.0
 40
3.0
  0
HATCH
  5
12C
330
128
100
AcDbEntity
  8
0
  6
Continuous
 62
     0
370
     0
100
AcDbHatch
 10
0.0
 20
0.0
 30
0.0
210
0.0
220
0.0
230
1.0
  2
SOLID
 70
     1
 71
     0
 91
        1
 92
        0
 93
        3
 72
     2
 10
0.0
 20
0.0
 40
3.0
 50
0.0
 51
90.0
 73
     1
 72
     1
 10
0.0
 20
3.0
 11
0.0
 21
0.0
 72
     1
 10
0.0
 20
0.0
 11
2.999999999999999
 21
0.0
 97
        0
 75
     0
 76
     1
 98
        1
 10
0.0
 20
0.0
  0
HATCH
  5
12D
330
128
100
AcDbEntity
  8
0
  6
Continuous
 62
     0
370
     0
100
AcDbHatch
 10
0.0
 20
0.0
 30
0.0
210
0.0
220
0.0
230
1.0
  2
SOLID
 70
     1
 71
     0
 91
        1
 92
        0
 93
        3
 72
     2
 10
0.0
 20
0.0
 40
3.0
 50
180.0
 51
270.0000000000007
 73
     1
 72
     1
 10
0.0
 20
-3.0
 11
0.0
 21
0.0
 72
     1
 10
0.0
 20
0.0
 11
-3.0
 21
0.0
 97
        0
 75
     0
 76
     1
 98
        1
 10
0.0
 20
0.0
  0
ENDBLK
  5
12A
330
128
100
AcDbEntity
  8
0
100
AcDbBlockEnd
  0
BLOCK
  5
18C
330
18B
100
AcDbEntity
  8
0
100
AcDbBlockBegin
  2
*D7
 70
     1
 10
0.0
 20
0.0
 30
0.0
  3
*D7
  1
*D7
  0
LINE
  5
18E
330
18B
100
AcDbEntity
  8
치수문자_일반주서
 62
     0
370
    -2
100
AcDbLine
 10
10.55625000009783
 20
1.188055400319565
 30
0.0
 11
10.55625000009783
 21
10.71305540031956
 31
0.0
  0
LINE
  5
18F
330
18B
100
AcDbEntity
  8
치수문자_일반주서
 62
     0
370
    -2
100
AcDbLine
 10
5.0
 20
1.171033638408753
 30
0.0
 11
5.0
 21
10.71305540031956
 31
0.0
  0
LINE
  5
190
330
18B
100
AcDbEntity
  8
치수문자_일반주서
 62
     0
370
    -2
100
AcDbLine
 10
10.55625000009783
 20
10.71305540031956
 30
0.0
 11
34.80625000009785
 21
10.71305540031956
 31
0.0
  0
LINE
  5
191
330
18B
100
AcDbEntity
  8
치수문자_일반주서
 62
     0
370
    -2
100
AcDbLine
 10
10.55625000009783
 20
10.71305540031956
 30
0.0
 11
5.0
 21
10.71305540031956
 31
0.0
  0
LINE
  5
192
330
18B
100
AcDbEntity
  8
치수문자_일반주서
 62
     0
370
    -2
100
AcDbLine
 10
13.05625000009783
 20
10.71305540031956
 30
0.0
 11
15.55625000009783
 21
10.71305540031956
 31
0.0
  0
LINE
  5
193
330
18B
100
AcDbEntity
  8
치수문자_일반주서
 62
     0
370
    -2
100
AcDbLine
 10
2.5
 20
10.71305540031956
 30
0.0
 11
0.0
 21
10.71305540031956
 31
0.0
  0
SOLID
  5
194
330
18B
100
AcDbEntity
  8
치수문자_일반주서
 62
     0
100
AcDbTrace
 10
13.05625000009783
 20
11.12972206698623
 30
0.0
 11
13.05625000009783
 21
10.2963887336529
 31
0.0
 12
10.55625000009783
 22
10.71305540031956
 32
0.0
 13
10.55625000009783
 23
10.71305540031956
 33
0.0
  0
SOLID
  5
195
330
18B
100
AcDbEntity
  8
치수문자_일반주서
 62
     0
100
AcDbTrace
 10
2.5
 20
10.2963887336529
 30
0.0
 11
2.5
 21
11.12972206698623
 31
0.0
 12
5.0
 22
10.71305540031956
 32
0.0
 13
5.0
 23
10.71305540031956
 33
0.0
  0
MTEXT
  5
196
330
18B
100
AcDbEntity
  8
치수문자_일반주서
 62
     0
100
AcDbMText
 10
25.18125000009785
 20
14.08805540031956
 30
0.0
 40
2.5
 41
0.0
 71
     2
 72
     1
  1
\A1;5.56 [7/32]
  7
SLDTEXTSTYLE0
 73
     1
 44
1.0
  0
POINT
  5
197
330
18B
100
AcDbEntity
  8
Defpoints
 62
     0
100
AcDbPoint
 10
10.55625000009783
 20
1.125555400319565
 30
0.0
  0
POINT
  5
198
330
18B
100
AcDbEntity
  8
Defpoints
 62
     0
100
AcDbPoint
 10
5.0
 20
1.108533638408753
 30
0.0
  0
POINT
  5
199
330
18B
100
AcDbEntity
  8
Defpoints
 62
     0
100
AcDbPoint
 10
5.0
 20
10.71305540031956
 30
0.0
  0
ENDBLK
  5
18D
330
18B
100
AcDbEntity
  8
0
100
AcDbBlockEnd
  0
BLOCK
  5
19E
330
19D
100
AcDbEntity
  8
0
100
AcDbBlockBegin
  2
*D8
 70
     1
 10
0.0
 20
0.0
 30
0.0
  3
*D8
  1
*D8
  0
LINE
  5
1A0
330
19D
100
AcDbEntity
  8
치수문자_일반주서
 62
     0
370
    -2
100
AcDbLine
 10
68.34271156678992
 20
-10.64191114750982
 30
0.0
 11
68.34271156678992
 21
-1.116911147509825
 31
0.0
  0
LINE
  5
1A1
330
19D
100
AcDbEntity
  8
치수문자_일반주서
 62
     0
370
    -2
100
AcDbLine
 10
62.78646156669208
 20
-10.65893290942063
 30
0.0
 11
62.78646156669208
 21
-1.116911147509825
 31
0.0
  0
LINE
  5
1A2
330
19D
100
AcDbEntity
  8
치수문자_일반주서
 62
     0
370
    -2
100
AcDbLine
 10
68.34271156678992
 20
-1.116911147509825
 30
0.0
 11
92.59271156678993
 21
-1.116911147509825
 31
0.0
  0
LINE
  5
1A3
330
19D
100
AcDbEntity
  8
치수문자_일반주서
 62
     0
370
    -2
100
AcDbLine
 10
68.34271156678992
 20
-1.116911147509825
 30
0.0
 11
62.78646156669208
 21
-1.116911147509825
 31
0.0
  0
LINE
  5
1A4
330
19D
100
AcDbEntity
  8
치수문자_일반주서
 62
     0
370
    -2
100
AcDbLine
 10
70.84271156678992
 20
-1.116911147509825
 30
0.0
 11
73.34271156678992
 21
-1.116911147509825
 31
0.0
  0
LINE
  5
1A5
330
19D
100
AcDbEntity
  8
치수문자_일반주서
 62
     0
370
    -2
100
AcDbLine
 10
60.28646156669208
 20
-1.116911147509825
 30
0.0
 11
57.78646156669208
 21
-1.116911147509825
 31
0.0
  0
SOLID
  5
1A6
330
19D
100
AcDbEntity
  8
치수문자_일반주서
 62
     0
100
AcDbTrace
 10
70.84271156678992
 20
-0.700244480843158
 30
0.0
 11
70.84271156678992
 21
-1.533577814176492
 31
0.0
 12
68.34271156678992
 22
-1.116911147509825
 32
0.0
 13
68.34271156678992
 23
-1.116911147509825
 33
0.0
  0
SOLID
  5
1A7
330
19D
100
AcDbEntity
  8
치수문자_일반주서
 62
     0
100
AcDbTrace
 10
60.28646156669208
 20
-1.533577814176492
 30
0.0
 11
60.28646156669208
 21
-0.700244480843158
 31
0.0
 12
62.78646156669208
 22
-1.116911147509825
 32
0.0
 13
62.78646156669208
 23
-1.116911147509825
 33
0.0
  0
MTEXT
  5
1A8
330
19D
100
AcDbEntity
  8
치수문자_일반주서
 62
     0
100
AcDbMText
 10
82.96771156678993
 20
2.258088852490175
 30
0.0
 40
2.5
 41
0.0
 71
     2
 72
     1
  1
\A1;5.56 [7/32]
  7
SLDTEXTSTYLE0
 73
     1
 44
1.0
  0
POINT
  5
1A9
330
19D
100
AcDbEntity
  8
Defpoints
 62
     0
100
AcDbPoint
 10
68.34271156678992
 20
-10.70441114750982
 30
0.0
  0
POINT
  5
1AA
330
19D
100
AcDbEntity
  8
Defpoints
 62
     0
100
AcDbPoint
 10
62.78646156669208
 20
-10.72143290942063
 30
0.0
  0
POINT
  5
1AB
330
19D
100
AcDbEntity
  8
Defpoints
 62
     0
100
AcDbPoint
 10
62.78646156669208
 20
-1.116911147509825
 30
0.0
  0
ENDBLK
  5
19F
330
19D
100
AcDbEntity
  8
0
100
AcDbBlockEnd
  0
ENDSEC
  0
SECTION
  2
ENTITIES
  0
LINE
  5
96
330
1F
100
AcDbEntity
  8
외형선
  6
Continuous
370
    15
100
AcDbLine
 10
20.75027700723831
 20
-2.381249999999999
 30
0.0
 11
25.19374999999999
 21
-1.190624999999997
 31
0.0
  0
LINE
  5
97
330
1F
100
AcDbEntity
  8
외형선
  6
Continuous
370
    15
100
AcDbLine
 10
25.19374999999999
 20
1.190625000000003
 30
0.0
 11
20.75027700723831
 21
2.381250000000002
 31
0.0
  0
LINE
  5
98
330
1F
100
AcDbEntity
  8
외형선
  6
Continuous
370
    15
100
AcDbLine
 10
20.75027700723831
 20
2.381250000000002
 30
0.0
 11
-20.75027700723831
 21
2.381249999999997
 31
0.0
  0
LINE
  5
99
330
1F
100
AcDbEntity
  8
외형선
  6
Continuous
370
    15
100
AcDbLine
 10
-20.75027700723831
 20
-2.381250000000004
 30
0.0
 11
20.75027700723831
 21
-2.381249999999999
 31
0.0
  0
LINE
  5
9C
330
1F
100
AcDbEntity
  8
외형선
  6
Continuous
370
    15
100
AcDbLine
 10
25.30404600926177
 20
1.190625000000003
 30
0.0
 11
25.19374999999999
 21
1.190625000000003
 31
0.0
  0
LINE
  5
9D
330
1F
100
AcDbEntity
  8
외형선
  6
Continuous
370
    15
100
AcDbLine
 10
26.19374999999999
 20
1.190625000000003
 30
0.0
 11
25.43037989819545
 21
1.190625000000003
 31
0.0
  0
LINE
  5
9E
330
1F
100
AcDbEntity
  8
외형선
  6
Continuous
370
    15
100
AcDbLine
 10
25.43037989819545
 20
-1.190624999999997
 30
0.0
 11
26.19374999999999
 21
-1.190624999999997
 31
0.0
  0
LINE
  5
9F
330
1F
100
AcDbEntity
  8
외형선
  6
Continuous
370
    15
100
AcDbLine
 10
25.19374999999999
 20
-1.190624999999997
 30
0.0
 11
25.30404600926177
 21
-1.190624999999997
 31
0.0
  0
LINE
  5
A0
330
1F
100
AcDbEntity
  8
0
  6
Continuous
 62
     1
370
    25
100
AcDbLine
 10
31.90868073977564
 20
-1.190624999999997
 30
0.0
 11
32.14687499999999
 21
-1.190624999999997
 31
0.0
1001
PE_URL
1000

  0
LINE
  5
A1
330
1F
100
AcDbEntity
  8
0
  6
Continuous
 62
     1
370
    25
100
AcDbLine
 10
28.01821494406867
 20
1.190625000000003
 30
0.0
 11
26.19374999999999
 21
1.190625000000003
 31
0.0
1001
PE_URL
1000

  0
ARC
  5
A2
330
1F
100
AcDbEntity
  8
0
  6
Continuous
 62
     1
370
    25
100
AcDbCircle
 10
32.14687499999999
 20
0.0000000000000029
 30
0.0
 40
1.190625000000001
100
AcDbArc
 50
270.0000000000007
 51
0.0
1001
PE_URL
1000

  0
ARC
  5
A3
330
1F
100
AcDbEntity
  8
0
  6
Continuous
 62
     1
370
    25
100
AcDbCircle
 10
32.14687499999999
 20
0.0000000000000029
 30
0.0
 40
1.190625000000001
100
AcDbArc
 50
0.0
 51
90.0
1001
PE_URL
1000

  0
LINE
  5
A4
330
1F
100
AcDbEntity
  8
0
  6
Continuous
 62
     1
370
    25
100
AcDbLine
 10
26.19374999999999
 20
-1.190624999999997
 30
0.0
 11
28.01690310560937
 21
-1.190624999999997
 31
0.0
1001
PE_URL
1000

  0
LINE
  5
A5
330
1F
100
AcDbEntity
  8
0
  6
Continuous
 62
     1
370
    25
100
AcDbLine
 10
32.14687499999999
 20
1.190625000000003
 30
0.0
 11
31.90868073977564
 21
1.190625000000003
 31
0.0
1001
PE_URL
1000

  0
LINE
  5
A6
330
1F
100
AcDbEntity
  8
외형선
  6
Continuous
370
    15
100
AcDbLine
 10
25.19374999999999
 20
1.190625000000003
 30
0.0
 11
25.19374999999999
 21
-1.190624999999997
 31
0.0
  0
LINE
  5
A7
330
1F
100
AcDbEntity
  8
외형선
  6
Continuous
370
    15
100
AcDbLine
 10
20.75027700723831
 20
2.381250000000002
 30
0.0
 11
20.75027700723831
 21
-2.381249999999999
 31
0.0
  0
LINE
  5
AA
330
1F
100
AcDbEntity
  8
외형선
  6
Continuous
370
    15
100
AcDbLine
 10
25.30384004937121
 20
-1.188371212061423
 30
0.0
 11
25.43037989819545
 21
-1.184036398300639
 31
0.0
  0
LINE
  5
AB
330
1F
100
AcDbEntity
  8
외형선
  6
Continuous
370
    15
100
AcDbLine
 10
25.30404600926177
 20
-1.190624999999997
 30
0.0
 11
25.30404600926177
 21
-1.188367807885021
 31
0.0
  0
LINE
  5
AC
330
1F
100
AcDbEntity
  8
외형선
  6
Continuous
370
    15
100
AcDbLine
 10
26.19374999999999
 20
1.190625000000003
 30
0.0
 11
26.19374999999999
 21
1.109824437707357
 31
0.0
  0
SPLINE
  5
AD
330
1F
100
AcDbEntity
  8
외형선
  6
Continuous
370
    15
100
AcDbSpline
210
0.0
220
0.0
230
1.0
 70
     8
 71
     3
 72
    10
 73
     6
 74
     0
 42
0.000000001
 43
0.00000001
 40
0.0
 40
0.0
 40
0.0
 40
0.0
 40
0.5
 40
0.5
 40
1.0
 40
1.0
 40
1.0
 40
1.0
 10
26.19374999999999
 20
1.109824437707356
 30
0.0
 10
26.04645524718456
 20
1.140799813191675
 30
0.0
 10
25.89809853503701
 20
1.163226857522055
 30
0.0
 10
25.59868099915608
 20
1.18968499615522
 30
0.0
 10
25.45200724945788
 20
1.193642403761345
 30
0.0
 10
25.30384004937121
 20
1.188371212061429
 30
0.0
  0
SPLINE
  5
AE
330
1F
100
AcDbEntity
  8
외형선
  6
Continuous
370
    15
100
AcDbSpline
210
0.0
220
0.0
230
1.0
 70
     8
 71
     3
 72
    10
 73
     6
 74
     0
 42
0.000000001
 43
0.00000001
 40
0.0
 40
0.0
 40
0.0
 40
0.0
 40
0.5
 40
0.5
 40
1.0
 40
1.0
 40
1.0
 40
1.0
 10
26.19375000000306
 20
-0.7545632389546391
 30
0.0
 10
26.04648937201533
 20
-0.6884090675881251
 30
0.0
 10
25.89816806980854
 20
-0.6162350696117902
 30
0.0
 10
25.59881956910592
 20
-0.4629377730488272
 30
0.0
 10
25.45217624166453
 20
-0.3826021098470676
 30
0.0
 10
25.30404600926177
 20
-0.2996712648071674
 30
0.0
  0
LINE
  5
AF
330
1F
100
AcDbEntity
  8
외형선
  6
Continuous
370
    15
100
AcDbLine
 10
26.19374999999999
 20
-0.754563238957087
 30
0.0
 11
26.19374999999999
 21
-1.190624999999997
 31
0.0
  0
LINE
  5
B0
330
1F
100
AcDbEntity
  8
외형선
  6
Continuous
370
    15
100
AcDbLine
 10
25.30404600926177
 20
-0.2997468038322649
 30
0.0
 11
25.30404600926177
 21
1.190625000000003
 31
0.0
  0
SPLINE
  5
B1
330
1F
100
AcDbEntity
  8
외형선
  6
Continuous
370
    15
100
AcDbSpline
210
0.0
220
0.0
230
1.0
 70
    24
 71
     3
 72
    14
 73
    10
 74
     0
 42
0.000000001
 43
0.00000001
 40
0.0
 40
0.0
 40
0.0
 40
0.0
 40
0.2500000000000001
 40
0.2500000000000001
 40
0.5000000000000001
 40
0.5000000000000001
 40
0.75
 40
0.75
 40
1.0
 40
1.0
 40
1.0
 40
1.0
 10
26.19375
 20
0.2568179862289385
 30
0.0
 10
26.19375
 20
0.1975257514092014
 30
0.0
 10
26.19375
 20
0.1270563846963288
 30
0.0
 10
26.19375
 20
-0.0350258315724919
 30
0.0
 10
26.19375
 20
-0.1267991411046459
 30
0.0
 10
26.19375
 20
-0.318979213292694
 30
0.0
 10
26.19375
 20
-0.4191084481828007
 30
0.0
 10
26.19375
 20
-0.6040550870436633
 30
0.0
 10
26.19375
 20
-0.688246527559855
 30
0.0
 10
26.19375
 20
-0.7545632389567197
 30
0.0
  0
SPLINE
  5
B2
330
1F
100
AcDbEntity
  8
외형선
  6
Continuous
370
    15
100
AcDbSpline
210
0.0
220
0.0
230
1.0
 70
     8
 71
     3
 72
    10
 73
     6
 74
     0
 42
0.000000001
 43
0.00000001
 40
0.0
 40
0.0
 40
0.0
 40
0.0
 40
0.5
 40
0.5
 40
1.0
 40
1.0
 40
1.0
 40
1.0
 10
26.19375000001828
 20
0.2568179862220826
 30
0.0
 10
26.04648937202776
 20
0.3120588074470952
 30
0.0
 10
25.89816806981885
 20
0.3654384914698169
 30
0.0
 10
25.59881956911104
 20
0.4659849631008798
 30
0.0
 10
25.45217624166715
 20
0.5126728105674181
 30
0.0
 10
25.30404600926177
 20
0.5551995033258662
 30
0.0
  0
SPLINE
  5
B3
330
1F
100
AcDbEntity
  8
외형선
  6
Continuous
370
    15
100
AcDbSpline
210
0.0
220
0.0
230
1.0
 70
    24
 71
     3
 72
    14
 73
    10
 74
     0
 42
0.000000001
 43
0.00000001
 40
0.0
 40
0.0
 40
0.0
 40
0.0
 40
0.25
 40
0.25
 40
0.5
 40
0.5
 40
0.75
 40
0.75
 40
1.0
 40
1.0
 40
1.0
 40
1.0
 10
26.19374999999999
 20
1.10982443771139
 30
0.0
 10
26.19374999999999
 20
1.02268966713124
 30
0.0
 10
26.19374999999999
 20
0.9284431773566798
 30
0.0
 10
26.19374999999999
 20
0.7456333927576552
 30
0.0
 10
26.19374999999999
 20
0.6574848490096539
 30
0.0
 10
26.19374999999999
 20
0.5028846941258835
 30
0.0
 10
26.19374999999999
 20
0.4364535717556927
 30
0.0
 10
26.19374999999999
 20
0.3289854931980314
 30
0.0
 10
26.19374999999999
 20
0.2877374698942771
 30
0.0
 10
26.19374999999999
 20
0.2568179862289406
 30
0.0
  0
SPLINE
  5
B4
330
1F
100
AcDbEntity
  8
0
  6
Continuous
 62
     1
370
    25
100
AcDbSpline
210
0.0
220
0.0
230
1.0
 70
     8
 71
     3
 72
    14
 73
    10
 74
     0
 42
0.000000001
 43
0.00000001
 40
0.0
 40
0.0
 40
0.0
 40
0.0
 40
0.0509725901868029
 40
0.2183104110941685
 40
0.3856362890133165
 40
0.5529605748695972
 40
0.7202936242373345
 40
0.8599259119559424
 40
1.0
 40
1.0
 40
1.0
 40
1.0
 10
30.19290671419795
 20
-0.8009449045785121
 30
0.0
 10
30.12495586672071
 20
-0.8047463788344793
 30
0.0
 10
29.83392930925937
 20
-0.8210277058092854
 30
0.0
 10
29.31985393185774
 20
-0.763263451415221
 30
0.0
 10
28.6506702345131
 20
-0.631177707745882
 30
0.0
 10
27.9815183304428
 20
-0.4269150341525148
 30
0.0
 10
27.34919440136558
 20
-0.1938391041299333
 30
0.0
 10
26.75346733118441
 20
0.043165515656807
 30
0.0
 10
26.38051880296474
 20
0.1855255427830101
 30
0.0
 10
26.19375000001806
 20
0.2568179862221628
 30
0.0
1001
PE_URL
1000

  0
SPLINE
  5
B5
330
1F
100
AcDbEntity
  8
외형선
  6
Continuous
370
    15
100
AcDbSpline
210
0.0
220
0.0
230
1.0
 70
    24
 71
     3
 72
    14
 73
    10
 74
     0
 42
0.000000001
 43
0.00000001
 40
0.0
 40
0.0
 40
0.0
 40
0.0
 40
0.25
 40
0.25
 40
0.5
 40
0.5
 40
0.75
 40
0.75
 40
1.0
 40
1.0
 40
1.0
 40
1.0
 10
26.19374999999999
 20
1.109824437711388
 30
0.0
 10
26.19374999999999
 20
1.022689667131238
 30
0.0
 10
26.19374999999999
 20
0.9284431773566785
 30
0.0
 10
26.19374999999999
 20
0.745633392757654
 30
0.0
 10
26.19374999999999
 20
0.6574848490096531
 30
0.0
 10
26.19374999999999
 20
0.5028846941258831
 30
0.0
 10
26.19374999999999
 20
0.4364535717556922
 30
0.0
 10
26.19374999999999
 20
0.3289854931980313
 30
0.0
 10
26.19374999999999
 20
0.2877374698942769
 30
0.0
 10
26.19374999999999
 20
0.2568179862289406
 30
0.0
  0
SPLINE
  5
B6
330
1F
100
AcDbEntity
  8
0
  6
Continuous
 62
     1
370
    25
100
AcDbSpline
210
0.0
220
0.0
230
1.0
 70
     8
 71
     3
 72
    16
 73
    12
 74
     0
 42
0.000000001
 43
0.00000001
 40
0.0
 40
0.0
 40
0.0
 40
0.0
 40
0.1167594307957252
 40
0.2335229778626588
 40
0.3502420567743146
 40
0.4669240131350371
 40
0.5835764084944078
 40
0.6981171971619285
 40
0.8126393373118201
 40
0.92715709917749
 40
1.0
 40
1.0
 40
1.0
 40
1.0
 10
26.19374999999971
 20
1.109824437707414
 30
0.0
 10
26.41621044167873
 20
1.05207736996415
 30
0.0
 10
26.8611391677224
 20
0.9365811986455623
 30
0.0
 10
27.528476425335
 20
0.6354471536679329
 30
0.0
 10
28.19559426034525
 20
0.2766974667451237
 30
0.0
 10
28.86245928277249
 20
-0.11298928694093
 30
0.0
 10
29.5251569322315
 20
-0.4877208391883553
 30
0.0
 10
30.18365172711369
 20
-0.8119397346900599
 30
0.0
 10
30.83807334051822
 20
-1.048140979807623
 30
0.0
 10
31.41306219785033
 20
-1.179549352788439
 30
0.0
 10
31.76993439899473
 20
-1.17754800645385
 30
0.0
 10
31.90868073977564
 20
-1.176769914241375
 30
0.0
1001
PE_URL
1000

  0
SPLINE
  5
B7
330
1F
100
AcDbEntity
  8
0
  6
Continuous
 62
     1
370
    25
100
AcDbSpline
210
0.0
220
0.0
230
1.0
 70
     8
 71
     3
 72
    19
 73
    15
 74
     0
 42
0.000000001
 43
0.00000001
 40
0.0
 40
0.0
 40
0.0
 40
0.0
 40
0.1076081263892471
 40
0.2164729737952127
 40
0.2992949920663887
 40
0.3826911742494077
 40
0.4655131310873265
 40
0.5489081083405948
 40
0.6317300717365145
 40
0.7151240487325226
 40
0.7979460271440497
 40
0.8813392058481025
 40
0.9641611634143061
 40
1.0
 40
1.0
 40
1.0
 40
1.0
 10
32.14687499999999
 20
-0.498056044742434
 30
0.0
 10
31.99893016624265
 20
-0.4178548557082351
 30
0.0
 10
31.70131269815996
 20
-0.2565158335107449
 30
0.0
 10
31.28849915938255
 20
-0.0186802519207879
 30
0.0
 10
30.91071304944765
 20
0.2008710760903152
 30
0.0
 10
30.56716493137833
 20
0.3919375650513431
 30
0.0
 10
30.22454157820797
 20
0.5752137607284692
 30
0.0
 10
29.88086142185813
 20
0.7395140782248693
 30
0.0
 10
29.53834055970535
 20
0.8863272454209618
 30
0.0
 10
29.19460096825292
 20
1.005955370628276
 30
0.0
 10
28.85211035685286
 20
1.100412221532653
 30
0.0
 10
28.50837440287202
 20
1.160978906050356
 30
0.0
 10
28.23112010456752
 20
1.190716651627998
 30
0.0
 10
28.06760194401775
 20
1.187541578970675
 30
0.0
 10
28.01821494406867
 20
1.186582619350298
 30
0.0
1001
PE_URL
1000

  0
SPLINE
  5
B8
330
1F
100
AcDbEntity
  8
0
  6
Continuous
 62
     1
370
    25
100
AcDbSpline
210
0.0
220
0.0
230
1.0
 70
     8
 71
     3
 72
    12
 73
     8
 74
     0
 42
0.000000001
 43
0.00000001
 40
0.0
 40
0.0
 40
0.0
 40
0.0
 40
0.2590360107441992
 40
0.5179416103210335
 40
0.7230876623975486
 40
0.928193871848529
 40
1.0
 40
1.0
 40
1.0
 40
1.0
 10
33.01876144318256
 20
0.1248999932060646
 30
0.0
 10
32.73686650479835
 20
0.2321577490563773
 30
0.0
 10
32.17321854747923
 20
0.4466192620519224
 30
0.0
 10
31.38623254456343
 20
0.673860321648019
 30
0.0
 10
30.65842842964146
 20
0.791378711114956
 30
0.0
 10
30.13404847898624
 20
0.8272431975210995
 30
0.0
 10
29.83284143285951
 20
0.7977531766661019
 30
0.0
 10
29.7547354447278
 20
0.7901061204351022
 30
0.0
1001
PE_URL
1000

  0
SPLINE
  5
B9
330
1F
100
AcDbEntity
  8
0
  6
Continuous
 62
     1
370
    25
100
AcDbSpline
210
0.0
220
0.0
230
1.0
 70
     8
 71
     3
 72
    20
 73
    16
 74
     0
 42
0.000000001
 43
0.00000001
 40
0.0
 40
0.0
 40
0.0
 40
0.0
 40
0.25
 40
0.25
 40
0.375
 40
0.375
 40
0.5
 40
0.5
 40
0.625
 40
0.625
 40
0.75
 40
0.75
 40
0.875
 40
0.875
 40
1.0
 40
1.0
 40
1.0
 40
1.0
 10
32.14687499999999
 20
-0.4980560447413399
 30
0.0
 10
32.27922555117625
 20
-0.56720892099672
 30
0.0
 10
32.40901284320802
 20
-0.6232006833571706
 30
0.0
 10
32.60270327908834
 20
-0.6650062666270108
 30
0.0
 10
32.66590536970432
 20
-0.6716598284050115
 30
0.0
 10
32.79292542006721
 20
-0.6623066671758188
 30
0.0
 10
32.85482462340435
 20
-0.6464166853092571
 30
0.0
 10
32.97157888278382
 20
-0.5831647827831223
 30
0.0
 10
33.02585919798089
 20
-0.5352835635322306
 30
0.0
 10
33.10839583983834
 20
-0.4081956450062326
 30
0.0
 10
33.13325795808747
 20
-0.332861386163415
 30
0.0
 10
33.14580473797155
 20
-0.1856118124177522
 30
0.0
 10
33.13449882334919
 20
-0.1161957558486851
 30
0.0
 10
33.09076018027505
 20
0.0109297493681389
 30
0.0
 10
33.05836994344628
 20
0.0692877014379482
 30
0.0
 10
33.01876144314521
 20
0.1248999932205044
 30
0.0
1001
PE_URL
1000

  0
SPLINE
  5
BA
330
1F
100
AcDbEntity
  8
0
  6
Continuous
 62
     1
370
    25
100
AcDbSpline
210
0.0
220
0.0
230
1.0
 70
     8
 71
     3
 72
    10
 73
     6
 74
     0
 42
0.000000001
 43
0.00000001
 40
0.0
 40
0.0
 40
0.0
 40
0.0
 40
0.5
 40
0.5
 40
1.0
 40
1.0
 40
1.0
 40
1.0
 10
33.0187614431452
 20
0.124899993221302
 30
0.0
 10
33.04612181862036
 20
0.1414263909085501
 30
0.0
 10
33.06797130557014
 20
0.1665293324136075
 30
0.0
 10
33.09720784540919
 20
0.2301613533301365
 30
0.0
 10
33.10445801268911
 20
0.2684927825847715
 30
0.0
 10
33.10514273271755
 20
0.3083627019017221
 30
0.0
1001
PE_URL
1000

  0
ARC
  5
BB
330
1F
100
AcDbEntity
  8
0
  6
Continuous
 62
     1
370
    25
100
AcDbCircle
 10
32.76785998941752
 20
-0.2069727863339214
 30
0.0
 40
0.6158979739860297
100
AcDbArc
 50
23.84133846476404
 51
56.79559028330543
1001
PE_URL
1000

  0
ARC
  5
BC
330
1F
100
AcDbEntity
  8
0
  6
Continuous
 62
     1
370
    25
100
AcDbCircle
 10
32.26669936791841
 20
0.0220942250394817
 30
0.0
 40
1.064688617660047
100
AcDbArc
 50
1.070016269770046
 51
71.1559256913566
1001
PE_URL
1000

  0
SPLINE
  5
BD
330
1F
100
AcDbEntity
  8
0
  6
Continuous
 62
     1
370
    25
100
AcDbSpline
210
0.0
220
0.0
230
1.0
 70
     8
 71
     3
 72
     8
 73
     4
 74
     0
 42
0.000000001
 43
0.00000001
 40
0.0
 40
0.0
 40
0.0
 40
0.0
 40
1.0
 40
1.0
 40
1.0
 40
1.0
 10
32.61058719247531
 20
1.029716682459112
 30
0.0
 10
32.46354830786972
 20
1.119622365734641
 30
0.0
 10
32.30662069882349
 20
1.17205151014773
 30
0.0
 10
32.14687499999972
 20
1.182661800274159
 30
0.0
1001
PE_URL
1000

  0
SPLINE
  5
BE
330
1F
100
AcDbEntity
  8
0
  6
Continuous
 62
     1
370
    25
100
AcDbSpline
210
0.0
220
0.0
230
1.0
 70
     8
 71
     3
 72
    10
 73
     6
 74
     0
 42
0.000000001
 43
0.00000001
 40
0.0
 40
0.0
 40
0.0
 40
0.0
 40
0.3301862370802233
 40
0.6650786243022309
 40
1.0
 40
1.0
 40
1.0
 40
1.0
 10
30.19290671419796
 20
0.8009449045785191
 30
0.0
 10
30.40796506371449
 20
0.8849878346730148
 30
0.0
 10
30.8411469931188
 20
1.054271560196666
 30
0.0
 10
31.49245888090749
 20
1.190641390016183
 30
0.0
 10
31.9287299999288
 20
1.185321740263485
 30
0.0
 10
32.14687499999999
 20
1.18266180027414
 30
0.0
1001
PE_URL
1000

  0
SPLINE
  5
BF
330
1F
100
AcDbEntity
  8
0
  6
Continuous
 62
     1
370
    25
100
AcDbSpline
210
0.0
220
0.0
230
1.0
 70
     8
 71
     3
 72
    13
 73
     9
 74
     0
 42
0.000000001
 43
0.00000001
 40
0.0
 40
0.0
 40
0.0
 40
0.0
 40
0.1550371977332241
 40
0.3482538178797204
 40
0.5414697246522535
 40
0.7346851102590441
 40
0.8664887142544937
 40
1.0
 40
1.0
 40
1.0
 40
1.0
 10
29.74479336186793
 20
-0.7892756483518328
 30
0.0
 10
29.56124735718954
 20
-0.865537468972898
 30
0.0
 10
29.14895535359044
 20
-1.036841327518149
 30
0.0
 10
28.50789957865156
 20
-1.176910035372845
 30
0.0
 10
27.82179590381287
 20
-1.2079946899209
 30
0.0
 10
27.20791313428864
 20
-1.113848852472278
 30
0.0
 10
26.66608557203905
 20
-0.9533367427261816
 30
0.0
 10
26.35186933469406
 20
-0.8211047743217038
 30
0.0
 10
26.19375000000084
 20
-0.7545632389575252
 30
0.0
1001
PE_URL
1000

  0
SPLINE
  5
C0
330
1F
100
AcDbEntity
  8
외형선
  6
Continuous
370
    15
100
AcDbSpline
210
0.0
220
0.0
230
1.0
 70
    24
 71
     3
 72
    14
 73
    10
 74
     0
 42
0.000000001
 43
0.00000001
 40
0.0
 40
0.0
 40
0.0
 40
0.0
 40
0.25
 40
0.25
 40
0.5
 40
0.5
 40
0.75
 40
0.75
 40
1.0
 40
1.0
 40
1.0
 40
1.0
 10
26.19375
 20
0.2568179862289379
 30
0.0
 10
26.19375
 20
0.1975257514092008
 30
0.0
 10
26.19375
 20
0.1270563846963283
 30
0.0
 10
26.19375
 20
-0.0350258315724924
 30
0.0
 10
26.19375
 20
-0.1267991411046464
 30
0.0
 10
26.19375
 20
-0.3189792132926945
 30
0.0
 10
26.19375
 20
-0.4191084481828011
 30
0.0
 10
26.19375
 20
-0.6040550870436635
 30
0.0
 10
26.19375
 20
-0.6882465275598556
 30
0.0
 10
26.19375
 20
-0.7545632389567204
 30
0.0
  0
SPLINE
  5
C1
330
1F
100
AcDbEntity
  8
0
  6
Continuous
 62
     1
370
    25
100
AcDbSpline
210
0.0
220
0.0
230
1.0
 70
     8
 71
     3
 72
     8
 73
     4
 74
     0
 42
0.000000001
 43
0.00000001
 40
0.0
 40
0.0
 40
0.0
 40
0.0
 40
1.0
 40
1.0
 40
1.0
 40
1.0
 10
32.36896938131148
 20
0.5329726066309557
 30
0.0
 10
32.61101232688357
 20
0.4656974624848981
 30
0.0
 10
32.85778866945836
 20
0.3899118237834886
 30
0.0
 10
33.10514273271411
 20
0.3083627019010882
 30
0.0
1001
PE_URL
1000

  0
SPLINE
  5
C2
330
1F
100
AcDbEntity
  8
0
  6
Continuous
 62
     1
370
    25
100
AcDbSpline
210
0.0
220
0.0
230
1.0
 70
     8
 71
     3
 72
    12
 73
     8
 74
     0
 42
0.000000001
 43
0.00000001
 40
0.0
 40
0.0
 40
0.0
 40
0.0
 40
0.5000000000000009
 40
0.5000000000000009
 40
0.7500000000000004
 40
0.7500000000000004
 40
1.0
 40
1.0
 40
1.0
 40
1.0
 10
32.61058719247531
 20
1.029716682459114
 30
0.0
 10
32.6274023035473
 20
0.9296849684393133
 30
0.0
 10
32.6249359949595
 20
0.821130087391992
 30
0.0
 10
32.56207470035946
 20
0.682561897657046
 30
0.0
 10
32.53140982496801
 20
0.6414044741224354
 30
0.0
 10
32.45733324584316
 20
0.5757575840469481
 30
0.0
 10
32.41393051936431
 20
0.5508152549926164
 30
0.0
 10
32.36896938131158
 20
0.5329726066311876
 30
0.0
1001
PE_URL
1000

  0
LINE
  5
C3
330
1F
100
AcDbEntity
  8
중심선
 62
     1
100
AcDbLine
 10
-34.83749999999999
 20
-0.0000000000000047
 30
0.0
 11
34.83749999999999
 21
0.0000000000000044
 31
0.0
  0
LINE
  5
C4
330
1F
100
AcDbEntity
  8
참조1
100
AcDbLine
 10
0.0
 20
-0.0000000000000045
 30
0.0
 11
0.0000000000000036
 21
-40.00000000000001
 31
0.0
  0
LINE
  5
C5
330
1F
100
AcDbEntity
  8
참조1
100
AcDbLine
 10
33.3375
 20
-0.0000000000000045
 30
0.0
 11
33.3375
 21
0.6309734778393058
 31
0.0
  0
LINE
  5
C6
330
1F
100
AcDbEntity
  8
참조1
100
AcDbLine
 10
0.0000000000000036
 20
-40.00000000000001
 30
0.0
 11
-11.98385681430868
 21
-40.0
 31
0.0
  0
CIRCLE
  5
C7
330
1F
100
AcDbEntity
  8
해칭선
100
AcDbCircle
 10
0.0
 20
0.0
 30
0.0
 40
3.0
  0
INSERT
  5
C8
330
1F
100
AcDbEntity
  8
0
  6
Continuous
 62
     7
100
AcDbBlockReference
 66
     1
  2
블럭10
 10
-13.94027293212521
 20
-52.04717430164393
 30
0.0
  0
ATTRIB
  5
C9
330
C8
100
AcDbEntity
  8
FORMAT
 62
     2
100
AcDbText
 10
-23.12156822086649
 20
-49.97180738881174
 30
0.0
 40
4.233333333333333
  1
E2015006 [ 2 FLUTE ]
 41
0.75
  7
SLDTEXTSTYLE0
 11
-23.12156822086649
 21
-52.08847405547841
 31
0.0
100
AcDbAttribute
  2
AUTOATTR0
 70
     0
 74
     1
  0
SEQEND
  5
CA
330
C8
100
AcDbEntity
  8
0
  6
Continuous
 62
     7
  0
HATCH
  5
CB
330
1F
100
AcDbEntity
  8
중심선
100
AcDbHatch
 10
0.0
 20
0.0
 30
0.0
210
0.0
220
0.0
230
1.0
  2
SOLID
 70
     1
 71
     0
 91
        1
 92
        0
 93
        4
 72
     1
 10
-8.225363627744358
 20
-35.8
 11
-11.67163887158164
 21
-35.8
 72
     1
 10
-11.67163887158164
 20
-35.8
 11
-13.79986873078566
 21
-38.3363255805726
 72
     1
 10
-13.79986873078566
 20
-38.3363255805726
 11
-10.3535604018352
 21
-38.33628615127011
 72
     1
 10
-10.3535604018352
 20
-38.33628615127011
 11
-8.225363627744358
 21
-35.8
 97
        0
 75
     0
 76
     1
 98
        1
 10
17.26911934298443
 20
-0.0010749287238937
  0
HATCH
  5
CC
330
1F
100
AcDbEntity
  8
중심선
100
AcDbHatch
 10
0.0
 20
0.0
 30
0.0
210
0.0
220
0.0
230
1.0
  2
SOLID
 70
     1
 71
     0
 91
        1
 92
        0
 93
        4
 72
     1
 10
-3.212599636708376
 20
-35.8
 11
-6.658874880545689
 21
-35.8
 72
     1
 10
-6.658874880545689
 20
-35.8
 11
-11.19001288890308
 21
-41.20000000000002
 72
     1
 10
-11.19001288890308
 20
-41.20000000000002
 11
-7.743737645065792
 21
-41.20000000000002
 72
     1
 10
-7.743737645065792
 20
-41.20000000000002
 11
-3.212599636708376
 21
-35.8
 97
        0
 75
     0
 76
     1
 98
        1
 10
17.26911934298443
 20
-0.0010749287238937
  0
HATCH
  5
CD
330
1F
100
AcDbEntity
  8
중심선
100
AcDbHatch
 10
0.0
 20
0.0
 30
0.0
210
0.0
220
0.0
230
1.0
  2
SOLID
 70
     1
 71
     0
 91
        1
 92
        0
 93
        4
 72
     1
 10
1.800164354327464
 20
-35.8
 11
-1.646110889509597
 21
-35.8
 72
     1
 10
-1.646110889509597
 20
-35.8
 11
-8.694547791398875
 21
-44.20000000000002
 72
     1
 10
-8.694547791398875
 20
-44.20000000000002
 11
-5.248272547561591
 21
-44.20000000000002
 72
     1
 10
-5.248272547561591
 20
-44.20000000000002
 11
1.800164354327464
 21
-35.8
 97
        0
 75
     0
 76
     1
 98
        1
 10
17.26911934298443
 20
-0.0010749287238937
  0
HATCH
  5
CE
330
1F
100
AcDbEntity
  8
중심선
100
AcDbHatch
 10
0.0
 20
0.0
 30
0.0
210
0.0
220
0.0
230
1.0
  2
SOLID
 70
     1
 71
     0
 91
        1
 92
        0
 93
        6
 72
     3
 10
6.60005478533969
 20
-40.00000000005127
 11
3.960054785062283
 21
1.540882976769353E-10
 40
0.3939339440162628
 50
17.09539180608436
 51
320.0019657685077
 73
     0
 72
     1
 10
8.283054441040258
 20
-38.5878940046383
 11
10.58835631474132
 21
-36.65356729459035
 72
     3
 10
6.600054785286844
 20
-40.00000000000015
 11
6.600054785286829
 21
-1.278976924368180E-13
 40
0.636358354079598
 50
39.99873849337431
 51
368.4976242363724
 73
     1
 72
     1
 10
13.02538727718745
 20
-39.03999999993002
 11
5.280122092122766
 21
-39.03999999993002
 72
     1
 10
5.280122092122767
 20
-39.03999999993002
 11
5.280097047676833
 21
-40.95999999992991
 72
     1
 10
5.280097047676833
 20
-40.95999999992991
 11
9.721476817148869
 21
-40.95999999992988
 97
        0
 75
     0
 76
     1
 98
        1
 10
17.26911934298443
 20
-0.0010749287238937
  0
DIMENSION
  5
CF
330
1F
100
AcDbEntity
  8
치수문자_일반주서
100
AcDbDimension
  2
_D
 10
26.19375
 20
10.38125000000001
 30
0.0
 11
47.65000000000001
 21
10.38125000000001
 31
0.0
 70
   160
  1
<>
 71
     2
 42
7.14374999999999
  3
SLDDIMSTYLE0
100
AcDbAlignedDimension
 13
33.33749999999999
 23
1.190625000000003
 33
0.0
 14
26.19375
 24
1.190625
 34
0.0
 50
0.0000000000000142
100
AcDbRotatedDimension
1001
PE_URL
1000

1001
ACAD
1000
DSTYLE
1002
{
1070
   171
1070
     8
1070
   273
1070
     7
1070
    41
1040
2.5
1070
   140
1040
2.5
1002
}
  0
DIMENSION
  5
E5
330
1F
100
AcDbEntity
  8
치수문자_일반주서
100
AcDbDimension
  2
_D_1
 10
-33.33750000000001
 20
18.38125
 30
0.0
 11
0.0
 21
18.38125
 31
0.0
 70
   160
  1
<>
 71
     2
 42
66.675
  3
SLDDIMSTYLE0
100
AcDbAlignedDimension
 13
33.33749999999999
 23
1.190625000000003
 33
0.0
 14
-33.33750000000001
 24
1.190625000000004
 34
0.0
 50
0.0000000000000092
100
AcDbRotatedDimension
1001
PE_URL
1000

1001
ACAD
1000
DSTYLE
1002
{
1070
   171
1070
     8
1070
   273
1070
     7
1070
    41
1040
2.5
1070
   140
1040
2.5
1002
}
  0
DIMENSION
  5
F9
330
1F
100
AcDbEntity
  8
치수문자_일반주서
100
AcDbDimension
  2
_D_2
 10
-41.3375
 20
-2.38125000000008
 30
0.0
 11
-41.33750000000006
 21
17.63124999999997
 31
0.0
 70
   160
  1
%%c<>
 71
     2
 42
4.762499999999999
 52
-270.0
  3
SLDDIMSTYLE0
100
AcDbAlignedDimension
 13
-20.75027700723831
 23
2.381249999999998
 33
0.0
 14
-20.75027700723831
 24
-2.381250000000001
 34
0.0
 50
90.0000000000002
100
AcDbRotatedDimension
1001
PE_URL
1000

1001
ACAD
1000
DSTYLE
1002
{
1070
   171
1070
     8
1070
   273
1070
     7
1070
    41
1040
2.5
1070
   140
1040
2.5
1002
}
  0
DIMENSION
  5
10D
330
1F
100
AcDbEntity
  8
치수문자_일반주서
100
AcDbDimension
  2
_D_3
 10
63.93849591285007
 20
-1.190624999999883
 30
0.0
 11
63.93849591285001
 21
16.75312500000013
 31
0.0
 70
   160
  1
%%c<>
 71
     2
 42
2.38125
 52
-270.0
  3
SLDDIMSTYLE0
100
AcDbAlignedDimension
 13
33.33749999999999
 23
1.190625000000003
 33
0.0
 14
33.33749999999999
 24
-1.190624999999997
 34
0.0
 50
90.0000000000002
100
AcDbRotatedDimension
1001
PE_URL
1000

1001
ACAD
1000
DSTYLE
1002
{
1070
   171
1070
     8
1070
   273
1070
     7
1070
    41
1040
2.5
1070
   140
1040
2.5
1002
}
  0
LINE
  5
121
330
1F
100
AcDbEntity
  8
참조1
100
AcDbLine
 10
85.98848381534557
 20
7.440000000000002
 30
0.0
 11
85.98848381534557
 21
-7.440000000000002
 31
0.0
  0
LINE
  5
122
330
1F
100
AcDbEntity
  8
참조1
100
AcDbLine
 10
98.68848381534559
 20
5.440000000000002
 30
0.0
 11
85.98848381534557
 21
5.440000000000002
 31
0.0
  0
SOLID
  5
123
330
1F
100
AcDbEntity
  8
참조1
100
AcDbTrace
 10
85.98848381534557
 20
5.440000000000002
 30
0.0
 11
92.33848381534557
 21
4.424000000000002
 31
0.0
 12
92.33848381534557
 22
6.456000000000002
 32
0.0
 13
92.33848381534557
 23
6.456000000000002
 33
0.0
  0
LINE
  5
124
330
1F
100
AcDbEntity
  8
참조1
100
AcDbLine
 10
98.68848381534559
 20
-5.440000000000002
 30
0.0
 11
85.98848381534557
 21
-5.440000000000002
 31
0.0
  0
SOLID
  5
125
330
1F
100
AcDbEntity
  8
참조1
100
AcDbTrace
 10
85.98848381534557
 20
-5.440000000000002
 30
0.0
 11
92.33848381534557
 21
-6.456000000000002
 31
0.0
 12
92.33848381534557
 22
-4.424000000000002
 32
0.0
 13
92.33848381534557
 23
-4.424000000000002
 33
0.0
  0
MTEXT
  5
126
330
1F
100
AcDbEntity
  8
참조1
100
AcDbMText
 10
95.38597390781587
 20
10.98821664464994
 30
0.0
 40
3.5
 41
0.0
 71
     1
 72
     1
  1
A
  7
SLDTEXTSTYLE0
 73
     1
 44
1.0
  0
MTEXT
  5
127
330
1F
100
AcDbEntity
  8
참조1
100
AcDbMText
 10
95.38597390781587
 20
0.1082166446499314
 30
0.0
 40
3.5
 41
0.0
 71
     1
 72
     1
  1
A
  7
SLDTEXTSTYLE0
 73
     1
 44
1.0
  0
INSERT
  5
12E
330
1F
100
AcDbEntity
  8
해칭선
100
AcDbBlockReference
  2
SW_DOWELSYMBOL_0
 10
0.0
 20
0.0
 30
0.0
  0
LINE
  5
1E1
330
1F
100
AcDbEntity
  8
외형선
  6
Continuous
370
    15
100
AcDbLine
 10
-20.75027700723831
 20
2.381249999999998
 30
0.0
 11
-25.19374999999999
 21
1.190624999999997
 31
0.0
  0
LINE
  5
1E2
330
1F
100
AcDbEntity
  8
외형선
  6
Continuous
370
    15
100
AcDbLine
 10
-25.19374999999999
 20
-1.190625000000004
 30
0.0
 11
-20.75027700723831
 21
-2.381250000000001
 31
0.0
  0
LINE
  5
1E3
330
1F
100
AcDbEntity
  8
외형선
  6
Continuous
370
    15
100
AcDbLine
 10
-25.30404600926177
 20
-1.190625000000004
 30
0.0
 11
-25.19374999999999
 21
-1.190625000000004
 31
0.0
  0
LINE
  5
1E4
330
1F
100
AcDbEntity
  8
외형선
  6
Continuous
370
    15
100
AcDbLine
 10
-26.19374999999999
 20
-1.190625000000004
 30
0.0
 11
-25.43037989819545
 21
-1.190625000000004
 31
0.0
  0
LINE
  5
1E5
330
1F
100
AcDbEntity
  8
외형선
  6
Continuous
370
    15
100
AcDbLine
 10
-25.43037989819545
 20
1.190624999999997
 30
0.0
 11
-26.19374999999999
 21
1.190624999999997
 31
0.0
  0
LINE
  5
1E6
330
1F
100
AcDbEntity
  8
외형선
  6
Continuous
370
    15
100
AcDbLine
 10
-25.19374999999999
 20
1.190624999999997
 30
0.0
 11
-25.30404600926177
 21
1.190624999999997
 31
0.0
  0
LINE
  5
1E7
330
1F
100
AcDbEntity
  8
0
  6
Continuous
 62
     1
370
    25
100
AcDbLine
 10
-31.90868073977564
 20
1.190624999999997
 30
0.0
 11
-32.14687499999999
 21
1.190624999999997
 31
0.0
1001
PE_URL
1000

  0
LINE
  5
1E8
330
1F
100
AcDbEntity
  8
0
  6
Continuous
 62
     1
370
    25
100
AcDbLine
 10
-28.01821494406867
 20
-1.190625000000004
 30
0.0
 11
-26.19374999999999
 21
-1.190625000000004
 31
0.0
1001
PE_URL
1000

  0
ARC
  5
1E9
330
1F
100
AcDbEntity
  8
0
  6
Continuous
 62
     1
370
    25
100
AcDbCircle
 10
-32.14687499999999
 20
-0.0000000000000036
 30
0.0
 40
1.190625000000001
100
AcDbArc
 50
90.00000000000068
 51
180.0
1001
PE_URL
1000

  0
ARC
  5
1EA
330
1F
100
AcDbEntity
  8
0
  6
Continuous
 62
     1
370
    25
100
AcDbCircle
 10
-32.14687499999999
 20
-0.0000000000000036
 30
0.0
 40
1.190625000000001
100
AcDbArc
 50
180.0
 51
270.0
1001
PE_URL
1000

  0
LINE
  5
1EB
330
1F
100
AcDbEntity
  8
0
  6
Continuous
 62
     1
370
    25
100
AcDbLine
 10
-26.19374999999999
 20
1.190624999999997
 30
0.0
 11
-28.01690310560937
 21
1.190624999999997
 31
0.0
1001
PE_URL
1000

  0
LINE
  5
1EC
330
1F
100
AcDbEntity
  8
0
  6
Continuous
 62
     1
370
    25
100
AcDbLine
 10
-32.14687499999999
 20
-1.190625000000004
 30
0.0
 11
-31.90868073977564
 21
-1.190625000000004
 31
0.0
1001
PE_URL
1000

  0
LINE
  5
1ED
330
1F
100
AcDbEntity
  8
외형선
  6
Continuous
370
    15
100
AcDbLine
 10
-25.19374999999999
 20
-1.190625000000004
 30
0.0
 11
-25.19374999999999
 21
1.190624999999997
 31
0.0
  0
LINE
  5
1EE
330
1F
100
AcDbEntity
  8
외형선
  6
Continuous
370
    15
100
AcDbLine
 10
-20.75027700723831
 20
-2.381250000000001
 30
0.0
 11
-20.75027700723831
 21
2.381249999999998
 31
0.0
  0
LINE
  5
1EF
330
1F
100
AcDbEntity
  8
외형선
  6
Continuous
370
    15
100
AcDbLine
 10
-25.30384004937121
 20
1.188371212061423
 30
0.0
 11
-25.43037989819545
 21
1.184036398300638
 31
0.0
  0
LINE
  5
1F0
330
1F
100
AcDbEntity
  8
외형선
  6
Continuous
370
    15
100
AcDbLine
 10
-25.30404600926177
 20
1.190624999999997
 30
0.0
 11
-25.30404600926177
 21
1.188367807885022
 31
0.0
  0
LINE
  5
1F1
330
1F
100
AcDbEntity
  8
외형선
  6
Continuous
370
    15
100
AcDbLine
 10
-26.19374999999999
 20
-1.190625000000004
 30
0.0
 11
-26.19374999999999
 21
-1.109824437707356
 31
0.0
  0
SPLINE
  5
1F2
330
1F
100
AcDbEntity
  8
외형선
  6
Continuous
370
    15
100
AcDbSpline
210
0.0
220
0.0
230
1.0
 70
     8
 71
     3
 72
    10
 73
     6
 74
     0
 42
0.000000001
 43
0.00000001
 40
0.0
 40
0.0
 40
0.0
 40
0.0
 40
0.5
 40
0.5
 40
1.0
 40
1.0
 40
1.0
 40
1.0
 10
-26.19374999999999
 20
-1.109824437707356
 30
0.0
 10
-26.04645524718456
 20
-1.140799813191673
 30
0.0
 10
-25.89809853503701
 20
-1.163226857522055
 30
0.0
 10
-25.59868099915608
 20
-1.189684996155218
 30
0.0
 10
-25.45200724945788
 20
-1.193642403761345
 30
0.0
 10
-25.30384004937121
 20
-1.18837121206143
 30
0.0
  0
SPLINE
  5
1F3
330
1F
100
AcDbEntity
  8
외형선
  6
Continuous
370
    15
100
AcDbSpline
210
0.0
220
0.0
230
1.0
 70
     8
 71
     3
 72
    10
 73
     6
 74
     0
 42
0.000000001
 43
0.00000001
 40
0.0
 40
0.0
 40
0.0
 40
0.0
 40
0.5
 40
0.5
 40
1.0
 40
1.0
 40
1.0
 40
1.0
 10
-26.19375000000306
 20
0.7545632389546384
 30
0.0
 10
-26.04648937201533
 20
0.6884090675881254
 30
0.0
 10
-25.89816806980854
 20
0.6162350696117898
 30
0.0
 10
-25.59881956910592
 20
0.4629377730488287
 30
0.0
 10
-25.45217624166453
 20
0.3826021098470669
 30
0.0
 10
-25.30404600926177
 20
0.2996712648071664
 30
0.0
  0
LINE
  5
1F4
330
1F
100
AcDbEntity
  8
외형선
  6
Continuous
370
    15
100
AcDbLine
 10
-26.19374999999999
 20
0.7545632389570862
 30
0.0
 11
-26.19374999999999
 21
1.190624999999997
 31
0.0
  0
LINE
  5
1F5
330
1F
100
AcDbEntity
  8
외형선
  6
Continuous
370
    15
100
AcDbLine
 10
-25.30404600926177
 20
0.2997468038322637
 30
0.0
 11
-25.30404600926177
 21
-1.190625000000004
 31
0.0
  0
SPLINE
  5
1F6
330
1F
100
AcDbEntity
  8
외형선
  6
Continuous
370
    15
100
AcDbSpline
210
0.0
220
0.0
230
1.0
 70
    24
 71
     3
 72
    14
 73
    10
 74
     0
 42
0.000000001
 43
0.00000001
 40
0.0
 40
0.0
 40
0.0
 40
0.0
 40
0.2500000000000001
 40
0.2500000000000001
 40
0.5000000000000001
 40
0.5000000000000001
 40
0.75
 40
0.75
 40
1.0
 40
1.0
 40
1.0
 40
1.0
 10
-26.19375
 20
-0.2568179862289384
 30
0.0
 10
-26.19375
 20
-0.1975257514092021
 30
0.0
 10
-26.19375
 20
-0.1270563846963277
 30
0.0
 10
-26.19375
 20
0.0350258315724936
 30
0.0
 10
-26.19375
 20
0.1267991411046445
 30
0.0
 10
-26.19375
 20
0.3189792132926925
 30
0.0
 10
-26.19375
 20
0.4191084481828007
 30
0.0
 10
-26.19375
 20
0.6040550870436618
 30
0.0
 10
-26.19375
 20
0.6882465275598548
 30
0.0
 10
-26.19375
 20
0.7545632389567203
 30
0.0
  0
SPLINE
  5
1F7
330
1F
100
AcDbEntity
  8
외형선
  6
Continuous
370
    15
100
AcDbSpline
210
0.0
220
0.0
230
1.0
 70
     8
 71
     3
 72
    10
 73
     6
 74
     0
 42
0.000000001
 43
0.00000001
 40
0.0
 40
0.0
 40
0.0
 40
0.0
 40
0.5
 40
0.5
 40
1.0
 40
1.0
 40
1.0
 40
1.0
 10
-26.19375000001828
 20
-0.2568179862220816
 30
0.0
 10
-26.04648937202776
 20
-0.3120588074470945
 30
0.0
 10
-25.89816806981885
 20
-0.365438491469817
 30
0.0
 10
-25.59881956911104
 20
-0.4659849631008797
 30
0.0
 10
-25.45217624166715
 20
-0.5126728105674196
 30
0.0
 10
-25.30404600926177
 20
-0.5551995033258663
 30
0.0
  0
SPLINE
  5
1F8
330
1F
100
AcDbEntity
  8
외형선
  6
Continuous
370
    15
100
AcDbSpline
210
0.0
220
0.0
230
1.0
 70
    24
 71
     3
 72
    14
 73
    10
 74
     0
 42
0.000000001
 43
0.00000001
 40
0.0
 40
0.0
 40
0.0
 40
0.0
 40
0.25
 40
0.25
 40
0.5
 40
0.5
 40
0.75
 40
0.75
 40
1.0
 40
1.0
 40
1.0
 40
1.0
 10
-26.19374999999999
 20
-1.109824437711389
 30
0.0
 10
-26.19374999999999
 20
-1.022689667131239
 30
0.0
 10
-26.19374999999999
 20
-0.9284431773566801
 30
0.0
 10
-26.19374999999999
 20
-0.7456333927576537
 30
0.0
 10
-26.19374999999999
 20
-0.6574848490096521
 30
0.0
 10
-26.19374999999999
 20
-0.502884694125882
 30
0.0
 10
-26.19374999999999
 20
-0.4364535717556919
 30
0.0
 10
-26.19374999999999
 20
-0.3289854931980329
 30
0.0
 10
-26.19374999999999
 20
-0.2877374698942781
 30
0.0
 10
-26.19374999999999
 20
-0.2568179862289419
 30
0.0
  0
SPLINE
  5
1F9
330
1F
100
AcDbEntity
  8
0
  6
Continuous
 62
     1
370
    25
100
AcDbSpline
210
0.0
220
0.0
230
1.0
 70
     8
 71
     3
 72
    14
 73
    10
 74
     0
 42
0.000000001
 43
0.00000001
 40
0.0
 40
0.0
 40
0.0
 40
0.0
 40
0.0509725901868029
 40
0.2183104110941685
 40
0.3856362890133165
 40
0.5529605748695972
 40
0.7202936242373345
 40
0.8599259119559424
 40
1.0
 40
1.0
 40
1.0
 40
1.0
 10
-30.19290671419795
 20
0.8009449045785111
 30
0.0
 10
-30.12495586672071
 20
0.80474637883448
 30
0.0
 10
-29.83392930925937
 20
0.8210277058092856
 30
0.0
 10
-29.31985393185774
 20
0.7632634514152201
 30
0.0
 10
-28.6506702345131
 20
0.6311777077458807
 30
0.0
 10
-27.9815183304428
 20
0.4269150341525147
 30
0.0
 10
-27.34919440136558
 20
0.1938391041299319
 30
0.0
 10
-26.75346733118441
 20
-0.0431655156568063
 30
0.0
 10
-26.38051880296474
 20
-0.1855255427830116
 30
0.0
 10
-26.19375000001806
 20
-0.2568179862221633
 30
0.0
1001
PE_URL
1000

  0
SPLINE
  5
1FA
330
1F
100
AcDbEntity
  8
외형선
  6
Continuous
370
    15
100
AcDbSpline
210
0.0
220
0.0
230
1.0
 70
    24
 71
     3
 72
    14
 73
    10
 74
     0
 42
0.000000001
 43
0.00000001
 40
0.0
 40
0.0
 40
0.0
 40
0.0
 40
0.25
 40
0.25
 40
0.5
 40
0.5
 40
0.75
 40
0.75
 40
1.0
 40
1.0
 40
1.0
 40
1.0
 10
-26.19374999999999
 20
-1.109824437711389
 30
0.0
 10
-26.19374999999999
 20
-1.022689667131239
 30
0.0
 10
-26.19374999999999
 20
-0.9284431773566801
 30
0.0
 10
-26.19374999999999
 20
-0.7456333927576537
 30
0.0
 10
-26.19374999999999
 20
-0.6574848490096521
 30
0.0
 10
-26.19374999999999
 20
-0.502884694125882
 30
0.0
 10
-26.19374999999999
 20
-0.4364535717556919
 30
0.0
 10
-26.19374999999999
 20
-0.3289854931980329
 30
0.0
 10
-26.19374999999999
 20
-0.2877374698942781
 30
0.0
 10
-26.19374999999999
 20
-0.2568179862289419
 30
0.0
  0
SPLINE
  5
1FB
330
1F
100
AcDbEntity
  8
0
  6
Continuous
 62
     1
370
    25
100
AcDbSpline
210
0.0
220
0.0
230
1.0
 70
     8
 71
     3
 72
    16
 73
    12
 74
     0
 42
0.000000001
 43
0.00000001
 40
0.0
 40
0.0
 40
0.0
 40
0.0
 40
0.1167594307957252
 40
0.2335229778626588
 40
0.3502420567743146
 40
0.4669240131350371
 40
0.5835764084944078
 40
0.6981171971619285
 40
0.8126393373118201
 40
0.92715709917749
 40
1.0
 40
1.0
 40
1.0
 40
1.0
 10
-26.19374999999971
 20
-1.109824437707413
 30
0.0
 10
-26.41621044167873
 20
-1.052077369964149
 30
0.0
 10
-26.8611391677224
 20
-0.9365811986455626
 30
0.0
 10
-27.528476425335
 20
-0.6354471536679327
 30
0.0
 10
-28.19559426034525
 20
-0.276697466745123
 30
0.0
 10
-28.86245928277249
 20
0.1129892869409304
 30
0.0
 10
-29.5251569322315
 20
0.4877208391883556
 30
0.0
 10
-30.18365172711369
 20
0.8119397346900605
 30
0.0
 10
-30.83807334051822
 20
1.048140979807624
 30
0.0
 10
-31.41306219785033
 20
1.179549352788438
 30
0.0
 10
-31.76993439899473
 20
1.177548006453851
 30
0.0
 10
-31.90868073977564
 20
1.176769914241376
 30
0.0
1001
PE_URL
1000

  0
SPLINE
  5
1FC
330
1F
100
AcDbEntity
  8
0
  6
Continuous
 62
     1
370
    25
100
AcDbSpline
210
0.0
220
0.0
230
1.0
 70
     8
 71
     3
 72
    19
 73
    15
 74
     0
 42
0.000000001
 43
0.00000001
 40
0.0
 40
0.0
 40
0.0
 40
0.0
 40
0.1076081263892471
 40
0.2164729737952127
 40
0.2992949920663887
 40
0.3826911742494077
 40
0.4655131310873265
 40
0.5489081083405948
 40
0.6317300717365145
 40
0.7151240487325226
 40
0.7979460271440497
 40
0.8813392058481025
 40
0.9641611634143061
 40
1.0
 40
1.0
 40
1.0
 40
1.0
 10
-32.14687499999999
 20
0.4980560447424338
 30
0.0
 10
-31.99893016624265
 20
0.4178548557082351
 30
0.0
 10
-31.70131269815996
 20
0.2565158335107434
 30
0.0
 10
-31.28849915938255
 20
0.018680251920788
 30
0.0
 10
-30.91071304944765
 20
-0.2008710760903156
 30
0.0
 10
-30.56716493137833
 20
-0.391937565051343
 30
0.0
 10
-30.22454157820797
 20
-0.5752137607284702
 30
0.0
 10
-29.88086142185813
 20
-0.7395140782248681
 30
0.0
 10
-29.53834055970535
 20
-0.8863272454209614
 30
0.0
 10
-29.19460096825292
 20
-1.005955370628275
 30
0.0
 10
-28.85211035685286
 20
-1.100412221532654
 30
0.0
 10
-28.50837440287202
 20
-1.160978906050357
 30
0.0
 10
-28.23112010456752
 20
-1.190716651627998
 30
0.0
 10
-28.06760194401775
 20
-1.187541578970677
 30
0.0
 10
-28.01821494406867
 20
-1.186582619350297
 30
0.0
1001
PE_URL
1000

  0
SPLINE
  5
1FD
330
1F
100
AcDbEntity
  8
0
  6
Continuous
 62
     1
370
    25
100
AcDbSpline
210
0.0
220
0.0
230
1.0
 70
     8
 71
     3
 72
    12
 73
     8
 74
     0
 42
0.000000001
 43
0.00000001
 40
0.0
 40
0.0
 40
0.0
 40
0.0
 40
0.2590360107441992
 40
0.5179416103210335
 40
0.7230876623975486
 40
0.928193871848529
 40
1.0
 40
1.0
 40
1.0
 40
1.0
 10
-33.01876144318256
 20
-0.1248999932060642
 30
0.0
 10
-32.73686650479835
 20
-0.2321577490563769
 30
0.0
 10
-32.17321854747923
 20
-0.4466192620519216
 30
0.0
 10
-31.38623254456343
 20
-0.6738603216480179
 30
0.0
 10
-30.65842842964146
 20
-0.7913787111149553
 30
0.0
 10
-30.13404847898624
 20
-0.8272431975210992
 30
0.0
 10
-29.83284143285951
 20
-0.7977531766661023
 30
0.0
 10
-29.7547354447278
 20
-0.7901061204351016
 30
0.0
1001
PE_URL
1000

  0
SPLINE
  5
1FE
330
1F
100
AcDbEntity
  8
0
  6
Continuous
 62
     1
370
    25
100
AcDbSpline
210
0.0
220
0.0
230
1.0
 70
     8
 71
     3
 72
    20
 73
    16
 74
     0
 42
0.000000001
 43
0.00000001
 40
0.0
 40
0.0
 40
0.0
 40
0.0
 40
0.25
 40
0.25
 40
0.375
 40
0.375
 40
0.5
 40
0.5
 40
0.625
 40
0.625
 40
0.75
 40
0.75
 40
0.875
 40
0.875
 40
1.0
 40
1.0
 40
1.0
 40
1.0
 10
-32.14687499999999
 20
0.4980560447413396
 30
0.0
 10
-32.27922555117625
 20
0.5672089209967197
 30
0.0
 10
-32.40901284320802
 20
0.6232006833571724
 30
0.0
 10
-32.60270327908834
 20
0.6650062666270102
 30
0.0
 10
-32.66590536970432
 20
0.6716598284050121
 30
0.0
 10
-32.79292542006721
 20
0.6623066671758195
 30
0.0
 10
-32.85482462340435
 20
0.6464166853092586
 30
0.0
 10
-32.97157888278382
 20
0.5831647827831219
 30
0.0
 10
-33.02585919798089
 20
0.5352835635322322
 30
0.0
 10
-33.10839583983834
 20
0.4081956450062343
 30
0.0
 10
-33.13325795808747
 20
0.3328613861634153
 30
0.0
 10
-33.14580473797155
 20
0.1856118124177506
 30
0.0
 10
-33.13449882334919
 20
0.1161957558486861
 30
0.0
 10
-33.09076018027505
 20
-0.0109297493681382
 30
0.0
 10
-33.05836994344628
 20
-0.0692877014379469
 30
0.0
 10
-33.01876144314521
 20
-0.1248999932205059
 30
0.0
1001
PE_URL
1000

  0
SPLINE
  5
1FF
330
1F
100
AcDbEntity
  8
0
  6
Continuous
 62
     1
370
    25
100
AcDbSpline
210
0.0
220
0.0
230
1.0
 70
     8
 71
     3
 72
    10
 73
     6
 74
     0
 42
0.000000001
 43
0.00000001
 40
0.0
 40
0.0
 40
0.0
 40
0.0
 40
0.5
 40
0.5
 40
1.0
 40
1.0
 40
1.0
 40
1.0
 10
-33.0187614431452
 20
-0.1248999932213017
 30
0.0
 10
-33.04612181862036
 20
-0.1414263909085491
 30
0.0
 10
-33.06797130557014
 20
-0.1665293324136066
 30
0.0
 10
-33.09720784540919
 20
-0.2301613533301357
 30
0.0
 10
-33.10445801268911
 20
-0.2684927825847723
 30
0.0
 10
-33.10514273271755
 20
-0.3083627019017214
 30
0.0
1001
PE_URL
1000

  0
ARC
  5
200
330
1F
100
AcDbEntity
  8
0
  6
Continuous
 62
     1
370
    25
100
AcDbCircle
 10
-32.76785998941752
 20
0.206972786333921
 30
0.0
 40
0.6158979739860297
100
AcDbArc
 50
203.8413384647639
 51
236.7955902833053
1001
PE_URL
1000

  0
ARC
  5
201
330
1F
100
AcDbEntity
  8
0
  6
Continuous
 62
     1
370
    25
100
AcDbCircle
 10
-32.26669936791841
 20
-0.0220942250394813
 30
0.0
 40
1.064688617660047
100
AcDbArc
 50
181.07001626977
 51
251.1559256913566
1001
PE_URL
1000

  0
SPLINE
  5
202
330
1F
100
AcDbEntity
  8
0
  6
Continuous
 62
     1
370
    25
100
AcDbSpline
210
0.0
220
0.0
230
1.0
 70
     8
 71
     3
 72
     8
 73
     4
 74
     0
 42
0.000000001
 43
0.00000001
 40
0.0
 40
0.0
 40
0.0
 40
0.0
 40
1.0
 40
1.0
 40
1.0
 40
1.0
 10
-32.61058719247531
 20
-1.02971668245911
 30
0.0
 10
-32.46354830786972
 20
-1.119622365734642
 30
0.0
 10
-32.30662069882349
 20
-1.172051510147732
 30
0.0
 10
-32.14687499999972
 20
-1.182661800274158
 30
0.0
1001
PE_URL
1000

  0
SPLINE
  5
203
330
1F
100
AcDbEntity
  8
0
  6
Continuous
 62
     1
370
    25
100
AcDbSpline
210
0.0
220
0.0
230
1.0
 70
     8
 71
     3
 72
    10
 73
     6
 74
     0
 42
0.000000001
 43
0.00000001
 40
0.0
 40
0.0
 40
0.0
 40
0.0
 40
0.3301862370802233
 40
0.6650786243022309
 40
1.0
 40
1.0
 40
1.0
 40
1.0
 10
-30.19290671419796
 20
-0.8009449045785182
 30
0.0
 10
-30.40796506371449
 20
-0.8849878346730158
 30
0.0
 10
-30.8411469931188
 20
-1.054271560196668
 30
0.0
 10
-31.49245888090749
 20
-1.190641390016182
 30
0.0
 10
-31.9287299999288
 20
-1.185321740263486
 30
0.0
 10
-32.14687499999999
 20
-1.18266180027414
 30
0.0
1001
PE_URL
1000

  0
SPLINE
  5
204
330
1F
100
AcDbEntity
  8
0
  6
Continuous
 62
     1
370
    25
100
AcDbSpline
210
0.0
220
0.0
230
1.0
 70
     8
 71
     3
 72
    13
 73
     9
 74
     0
 42
0.000000001
 43
0.00000001
 40
0.0
 40
0.0
 40
0.0
 40
0.0
 40
0.1550371977332241
 40
0.3482538178797204
 40
0.5414697246522535
 40
0.7346851102590441
 40
0.8664887142544937
 40
1.0
 40
1.0
 40
1.0
 40
1.0
 10
-29.74479336186793
 20
0.7892756483518326
 30
0.0
 10
-29.56124735718954
 20
0.8655374689728994
 30
0.0
 10
-29.14895535359044
 20
1.03684132751815
 30
0.0
 10
-28.50789957865156
 20
1.176910035372845
 30
0.0
 10
-27.82179590381287
 20
1.207994689920898
 30
0.0
 10
-27.20791313428864
 20
1.113848852472277
 30
0.0
 10
-26.66608557203905
 20
0.953336742726183
 30
0.0
 10
-26.35186933469406
 20
0.8211047743217037
 30
0.0
 10
-26.19375000000084
 20
0.7545632389575267
 30
0.0
1001
PE_URL
1000

  0
SPLINE
  5
205
330
1F
100
AcDbEntity
  8
외형선
  6
Continuous
370
    15
100
AcDbSpline
210
0.0
220
0.0
230
1.0
 70
    24
 71
     3
 72
    14
 73
    10
 74
     0
 42
0.000000001
 43
0.00000001
 40
0.0
 40
0.0
 40
0.0
 40
0.0
 40
0.25
 40
0.25
 40
0.5
 40
0.5
 40
0.75
 40
0.75
 40
1.0
 40
1.0
 40
1.0
 40
1.0
 10
-26.19375
 20
-0.2568179862289384
 30
0.0
 10
-26.19375
 20
-0.1975257514092021
 30
0.0
 10
-26.19375
 20
-0.1270563846963277
 30
0.0
 10
-26.19375
 20
0.0350258315724936
 30
0.0
 10
-26.19375
 20
0.1267991411046481
 30
0.0
 10
-26.19375
 20
0.3189792132926961
 30
0.0
 10
-26.19375
 20
0.4191084481828007
 30
0.0
 10
-26.19375
 20
0.6040550870436618
 30
0.0
 10
-26.19375
 20
0.6882465275598548
 30
0.0
 10
-26.19375
 20
0.7545632389567203
 30
0.0
  0
SPLINE
  5
206
330
1F
100
AcDbEntity
  8
0
  6
Continuous
 62
     1
370
    25
100
AcDbSpline
210
0.0
220
0.0
230
1.0
 70
     8
 71
     3
 72
     8
 73
     4
 74
     0
 42
0.000000001
 43
0.00000001
 40
0.0
 40
0.0
 40
0.0
 40
0.0
 40
1.0
 40
1.0
 40
1.0
 40
1.0
 10
-32.36896938131148
 20
-0.5329726066309561
 30
0.0
 10
-32.61101232688357
 20
-0.4656974624848971
 30
0.0
 10
-32.85778866945836
 20
-0.3899118237834891
 30
0.0
 10
-33.10514273271411
 20
-0.3083627019010891
 30
0.0
1001
PE_URL
1000

  0
SPLINE
  5
207
330
1F
100
AcDbEntity
  8
0
  6
Continuous
 62
     1
370
    25
100
AcDbSpline
210
0.0
220
0.0
230
1.0
 70
     8
 71
     3
 72
    12
 73
     8
 74
     0
 42
0.000000001
 43
0.00000001
 40
0.0
 40
0.0
 40
0.0
 40
0.0
 40
0.5000000000000009
 40
0.5000000000000009
 40
0.7500000000000004
 40
0.7500000000000004
 40
1.0
 40
1.0
 40
1.0
 40
1.0
 10
-32.61058719247531
 20
-1.029716682459114
 30
0.0
 10
-32.6274023035473
 20
-0.9296849684393145
 30
0.0
 10
-32.6249359949595
 20
-0.8211300873919924
 30
0.0
 10
-32.56207470035946
 20
-0.6825618976570453
 30
0.0
 10
-32.53140982496801
 20
-0.6414044741224352
 30
0.0
 10
-32.45733324584316
 20
-0.5757575840469471
 30
0.0
 10
-32.41393051936431
 20
-0.5508152549926173
 30
0.0
 10
-32.36896938131158
 20
-0.5329726066311871
 30
0.0
1001
PE_URL
1000

  0
ENDSEC
  0
SECTION
  2
OBJECTS
  0
DICTIONARY
  5
C
330
0
100
AcDbDictionary
281
     1
  3
ACAD_DETAILVIEWSTYLE
350
1B1
  3
ACAD_GROUP
350
D
  3
ACAD_IMAGE_VARS
350
22C
  3
ACAD_LAYOUT
350
1A
  3
ACAD_MLINESTYLE
350
17
  3
ACAD_PLOTSETTINGS
350
19
  3
ACAD_PLOTSTYLENAME
350
E
  3
ACAD_SCALELIST
350
47
  3
ACAD_SECTIONVIEWSTYLE
350
1B2
  3
AcDbVariableDictionary
350
1AC
  3
APPDATA
350
150
  3
DWGPROPS
350
22D
  0
DICTIONARY
  5
1B1
102
{ACAD_REACTORS
330
C
102
}
330
C
100
AcDbDictionary
281
     1
  0
DICTIONARY
  5
D
102
{ACAD_REACTORS
330
C
102
}
330
C
100
AcDbDictionary
281
     1
  0
RASTERVARIABLES
  5
22C
102
{ACAD_REACTORS
330
C
102
}
330
C
100
AcDbRasterVariables
 90
        0
 70
     1
 71
     1
 72
     1
  0
DICTIONARY
  5
1A
102
{ACAD_REACTORS
330
C
102
}
330
C
100
AcDbDictionary
281
     1
  3
Layout1
350
1E
  3
Layout2
350
26
  3
Model
350
22
  0
DICTIONARY
  5
17
102
{ACAD_REACTORS
330
C
102
}
330
C
100
AcDbDictionary
281
     1
  3
Standard
350
18
  0
DICTIONARY
  5
19
102
{ACAD_REACTORS
330
C
102
}
330
C
100
AcDbDictionary
281
     1
  0
ACDBDICTIONARYWDFLT
  5
E
102
{ACAD_REACTORS
330
C
102
}
330
C
100
AcDbDictionary
281
     1
  3
Normal
350
F
100
AcDbDictionaryWithDefault
340
F
  0
DICTIONARY
  5
47
102
{ACAD_REACTORS
330
C
102
}
330
C
100
AcDbDictionary
281
     1
  3
A0
350
48
  3
A1
350
49
  3
A2
350
4A
  3
A3
350
4B
  3
A4
350
4C
  3
A5
350
4D
  3
A6
350
4E
  3
A7
350
4F
  3
A8
350
50
  3
A9
350
51
  3
B0
350
52
  3
B1
350
53
  3
B2
350
54
  3
B3
350
55
  3
B4
350
56
  3
B5
350
57
  3
B6
350
58
  3
B7
350
59
  3
B8
350
5A
  3
B9
350
5B
  3
C0
350
5C
  3
C1
350
5D
  3
C2
350
5E
  3
C3
350
5F
  3
C4
350
60
  3
C5
350
61
  3
C6
350
62
  3
C7
350
63
  3
C8
350
64
  3
C9
350
65
  3
D0
350
66
  3
D1
350
67
  3
D2
350
68
  0
DICTIONARY
  5
1B2
102
{ACAD_REACTORS
330
C
102
}
330
C
100
AcDbDictionary
281
     1
  0
DICTIONARY
  5
1AC
102
{ACAD_REACTORS
330
C
102
}
330
C
100
AcDbDictionary
281
     1
  0
DICTIONARY
  5
150
102
{ACAD_REACTORS
330
C
102
}
330
C
100
AcDbDictionary
281
     1
  0
XRECORD
  5
22D
102
{ACAD_REACTORS
330
C
102
}
330
C
100
AcDbXrecord
280
     1
  1
DWGPROPS COOKIE
  2

  3

  4

  6

  7

  8
12017012
  9

300
=
301
=
302
=
303
=
304
=
305
=
306
=
307
=
308
=
309
=
 40
0.0
 41
2458319.365500382
 42
2458324.123910799
  1

 90
        0
  0
LAYOUT
  5
1E
102
{ACAD_REACTORS
330
1A
102
}
330
1A
100
AcDbPlotSettings
  1

  2
none_device
  4

  6

 40
0.0
 41
0.0
 42
0.0
 43
0.0
 44
0.0
 45
0.0
 46
0.0
 47
0.0
 48
0.0
 49
0.0
140
0.0
141
0.0
142
1.0
143
1.0
 70
   688
 72
     1
 73
     0
 74
     5
  7

 75
    16
147
1.0
148
0.0
149
0.0
100
AcDbLayout
  1
Layout1
 70
     1
 71
     1
 10
0.0
 20
0.0
 11
420.0
 21
297.0
 12
0.0
 22
0.0
 32
0.0
 14
1.000000000000000E+20
 24
1.000000000000000E+20
 34
1.000000000000000E+20
 15
-1.000000000000000E+20
 25
-1.000000000000000E+20
 35
-1.000000000000000E+20
146
0.0
 13
0.0
 23
0.0
 33
0.0
 16
1.0
 26
0.0
 36
0.0
 17
0.0
 27
1.0
 37
0.0
 76
     0
330
1B
  0
LAYOUT
  5
26
102
{ACAD_REACTORS
330
1A
102
}
330
1A
100
AcDbPlotSettings
  1

  2
none_device
  4

  6

 40
0.0
 41
0.0
 42
0.0
 43
0.0
 44
0.0
 45
0.0
 46
0.0
 47
0.0
 48
0.0
 49
0.0
140
0.0
141
0.0
142
1.0
143
1.0
 70
   688
 72
     1
 73
     0
 74
     5
  7

 75
    16
147
1.0
148
0.0
149
0.0
100
AcDbLayout
  1
Layout2
 70
     1
 71
     2
 10
0.0
 20
0.0
 11
0.0
 21
0.0
 12
0.0
 22
0.0
 32
0.0
 14
0.0
 24
0.0
 34
0.0
 15
0.0
 25
0.0
 35
0.0
146
0.0
 13
0.0
 23
0.0
 33
0.0
 16
1.0
 26
0.0
 36
0.0
 17
0.0
 27
1.0
 37
0.0
 76
     0
330
23
  0
LAYOUT
  5
22
102
{ACAD_REACTORS
330
1A
102
}
330
1A
100
AcDbPlotSettings
  1

  2
none_device
  4
ANSI_A_(11.00_x_8.50_Inches)
  6

 40
6.35
 41
19.05
 42
6.35000508
 43
19.05000254
 44
279.4
 45
215.9
 46
127.1192489152498
 47
98.33751424530696
 48
0.0
 49
0.0
140
0.0
141
0.0
142
0.0698888415267425
143
1.0
 70
  1696
 72
     0
 73
     0
 74
     0
  7

 75
     0
147
0.0235690232323232
148
0.0
149
0.0
100
AcDbLayout
  1
Model
 70
     1
 71
     0
 10
0.0
 20
0.0
 11
420.0
 21
297.0
 12
0.0
 22
0.0
 32
0.0
 14
-44.71250000000008
 24
-49.97180738881175
 34
0.0
 15
98.68848381534559
 25
27.88124999999997
 35
0.0
146
0.0
 13
0.0
 23
0.0
 33
0.0
 16
1.0
 26
0.0
 36
0.0
 17
0.0
 27
1.0
 37
0.0
 76
     0
330
1F
331
29
  0
MLINESTYLE
  5
18
102
{ACAD_REACTORS
330
17
102
}
330
17
100
AcDbMlineStyle
  2
Standard
 70
     0
  3

 62
   256
 51
90.0
 52
90.0
 71
     2
 49
0.5
 62
   256
  6
BYLAYER
 49
-0.5
 62
   256
  6
BYLAYER
  0
ACDBPLACEHOLDER
  5
F
102
{ACAD_REACTORS
330
E
102
}
330
E
  0
SCALE
  5
48
102
{ACAD_REACTORS
330
47
102
}
330
47
100
AcDbScale
 70
     0
300
1:1
140
1.0
141
1.0
290
     1
  0
SCALE
  5
49
102
{ACAD_REACTORS
330
47
102
}
330
47
100
AcDbScale
 70
     0
300
1:2
140
1.0
141
2.0
290
     0
  0
SCALE
  5
4A
102
{ACAD_REACTORS
330
47
102
}
330
47
100
AcDbScale
 70
     0
300
1:4
140
1.0
141
4.0
290
     0
  0
SCALE
  5
4B
102
{ACAD_REACTORS
330
47
102
}
330
47
100
AcDbScale
 70
     0
300
1:5
140
1.0
141
5.0
290
     0
  0
SCALE
  5
4C
102
{ACAD_REACTORS
330
47
102
}
330
47
100
AcDbScale
 70
     0
300
1:8
140
1.0
141
8.0
290
     0
  0
SCALE
  5
4D
102
{ACAD_REACTORS
330
47
102
}
330
47
100
AcDbScale
 70
     0
300
1:10
140
1.0
141
10.0
290
     0
  0
SCALE
  5
4E
102
{ACAD_REACTORS
330
47
102
}
330
47
100
AcDbScale
 70
     0
300
1:16
140
1.0
141
16.0
290
     0
  0
SCALE
  5
4F
102
{ACAD_REACTORS
330
47
102
}
330
47
100
AcDbScale
 70
     0
300
1:20
140
1.0
141
20.0
290
     0
  0
SCALE
  5
50
102
{ACAD_REACTORS
330
47
102
}
330
47
100
AcDbScale
 70
     0
300
1:30
140
1.0
141
30.0
290
     0
  0
SCALE
  5
51
102
{ACAD_REACTORS
330
47
102
}
330
47
100
AcDbScale
 70
     0
300
1:40
140
1.0
141
40.0
290
     0
  0
SCALE
  5
52
102
{ACAD_REACTORS
330
47
102
}
330
47
100
AcDbScale
 70
     0
300
1:50
140
1.0
141
50.0
290
     0
  0
SCALE
  5
53
102
{ACAD_REACTORS
330
47
102
}
330
47
100
AcDbScale
 70
     0
300
1:100
140
1.0
141
100.0
290
     0
  0
SCALE
  5
54
102
{ACAD_REACTORS
330
47
102
}
330
47
100
AcDbScale
 70
     0
300
2:1
140
2.0
141
1.0
290
     0
  0
SCALE
  5
55
102
{ACAD_REACTORS
330
47
102
}
330
47
100
AcDbScale
 70
     0
300
4:1
140
4.0
141
1.0
290
     0
  0
SCALE
  5
56
102
{ACAD_REACTORS
330
47
102
}
330
47
100
AcDbScale
 70
     0
300
8:1
140
8.0
141
1.0
290
     0
  0
SCALE
  5
57
102
{ACAD_REACTORS
330
47
102
}
330
47
100
AcDbScale
 70
     0
300
10:1
140
10.0
141
1.0
290
     0
  0
SCALE
  5
58
102
{ACAD_REACTORS
330
47
102
}
330
47
100
AcDbScale
 70
     0
300
100:1
140
100.0
141
1.0
290
     0
  0
SCALE
  5
59
102
{ACAD_REACTORS
330
47
102
}
330
47
100
AcDbScale
 70
     0
300
1/128" = 1'-0"
140
0.0078125
141
12.0
290
     0
  0
SCALE
  5
5A
102
{ACAD_REACTORS
330
47
102
}
330
47
100
AcDbScale
 70
     0
300
1/64" = 1'-0"
140
0.015625
141
12.0
290
     0
  0
SCALE
  5
5B
102
{ACAD_REACTORS
330
47
102
}
330
47
100
AcDbScale
 70
     0
300
1/32" = 1'-0"
140
0.03125
141
12.0
290
     0
  0
SCALE
  5
5C
102
{ACAD_REACTORS
330
47
102
}
330
47
100
AcDbScale
 70
     0
300
1/16" = 1'-0"
140
0.0625
141
12.0
290
     0
  0
SCALE
  5
5D
102
{ACAD_REACTORS
330
47
102
}
330
47
100
AcDbScale
 70
     0
300
3/32" = 1'-0"
140
0.09375
141
12.0
290
     0
  0
SCALE
  5
5E
102
{ACAD_REACTORS
330
47
102
}
330
47
100
AcDbScale
 70
     0
300
1/8" = 1'-0"
140
0.125
141
12.0
290
     0
  0
SCALE
  5
5F
102
{ACAD_REACTORS
330
47
102
}
330
47
100
AcDbScale
 70
     0
300
3/16" = 1'-0"
140
0.1875
141
12.0
290
     0
  0
SCALE
  5
60
102
{ACAD_REACTORS
330
47
102
}
330
47
100
AcDbScale
 70
     0
300
1/4" = 1'-0"
140
0.25
141
12.0
290
     0
  0
SCALE
  5
61
102
{ACAD_REACTORS
330
47
102
}
330
47
100
AcDbScale
 70
     0
300
3/8" = 1'-0"
140
0.375
141
12.0
290
     0
  0
SCALE
  5
62
102
{ACAD_REACTORS
330
47
102
}
330
47
100
AcDbScale
 70
     0
300
1/2" = 1'-0"
140
0.5
141
12.0
290
     0
  0
SCALE
  5
63
102
{ACAD_REACTORS
330
47
102
}
330
47
100
AcDbScale
 70
     0
300
3/4" = 1'-0"
140
0.75
141
12.0
290
     0
  0
SCALE
  5
64
102
{ACAD_REACTORS
330
47
102
}
330
47
100
AcDbScale
 70
     0
300
1" = 1'-0"
140
1.0
141
12.0
290
     0
  0
SCALE
  5
65
102
{ACAD_REACTORS
330
47
102
}
330
47
100
AcDbScale
 70
     0
300
1-1/2" = 1'-0"
140
1.5
141
12.0
290
     0
  0
SCALE
  5
66
102
{ACAD_REACTORS
330
47
102
}
330
47
100
AcDbScale
 70
     0
300
3" = 1'-0"
140
3.0
141
12.0
290
     0
  0
SCALE
  5
67
102
{ACAD_REACTORS
330
47
102
}
330
47
100
AcDbScale
 70
     0
300
6" = 1'-0"
140
6.0
141
12.0
290
     0
  0
SCALE
  5
68
102
{ACAD_REACTORS
330
47
102
}
330
47
100
AcDbScale
 70
     0
300
1'-0" = 1'-0"
140
12.0
141
12.0
290
     0
  0
ENDSEC
  0
EOF
