  0
SECTION
  2
HEADER
  9
$ACADVER
  1
AC1015
  9
$ACADMAINTVER
 70
     6
  9
$DWGCODEPAGE
  3
ANSI_949
  9
$INSBASE
 10
0.0
 20
0.0
 30
0.0
  9
$EXTMIN
 10
-54.06250000000012
 20
-49.97180738881175
 30
0.0
  9
$EXTMAX
 10
93.13223381534559
 20
36.98524999999997
 30
0.0
  9
$LIMMIN
 10
0.0
 20
0.0
  9
$LIMMAX
 10
420.0
 20
297.0
  9
$ORTHOMODE
 70
     1
  9
$REGENMODE
 70
     1
  9
$FILLMODE
 70
     1
  9
$QTEXTMODE
 70
     0
  9
$MIRRTEXT
 70
     1
  9
$LTSCALE
 40
1.0
  9
$ATTMODE
 70
     1
  9
$TEXTSIZE
 40
3.5
  9
$TRACEWID
 40
1.0
  9
$TEXTSTYLE
  7
Standard
  9
$CLAYER
  8
0
  9
$CELTYPE
  6
ByLayer
  9
$CECOLOR
 62
   256
  9
$CELTSCALE
 40
1.0
  9
$DISPSILH
 70
     0
  9
$DIMSCALE
 40
1.0
  9
$DIMASZ
 40
3.302
  9
$DIMEXO
 40
1.0
  9
$DIMDLI
 40
3.75
  9
$DIMRND
 40
0.0
  9
$DIMDLE
 40
0.0
  9
$DIMEXE
 40
1.0
  9
$DIMTP
 40
0.0
  9
$DIMTM
 40
0.0
  9
$DIMTXT
 40
3.5
  9
$DIMCEN
 40
2.5
  9
$DIMTSZ
 40
0.0
  9
$DIMTOL
 70
     0
  9
$DIMLIM
 70
     0
  9
$DIMTIH
 70
     1
  9
$DIMTOH
 70
     1
  9
$DIMSE1
 70
     0
  9
$DIMSE2
 70
     0
  9
$DIMTAD
 70
     1
  9
$DIMZIN
 70
     0
  9
$DIMBLK
  1

  9
$DIMASO
 70
     1
  9
$DIMSHO
 70
     1
  9
$DIMPOST
  1

  9
$DIMAPOST
  1

  9
$DIMALT
 70
     0
  9
$DIMALTD
 70
     3
  9
$DIMALTF
 40
0.0393700787401575
  9
$DIMLFAC
 40
1.0
  9
$DIMTOFL
 70
     1
  9
$DIMTVP
 40
0.0
  9
$DIMTIX
 70
     0
  9
$DIMSOXD
 70
     0
  9
$DIMSAH
 70
     0
  9
$DIMBLK1
  1

  9
$DIMBLK2
  1

  9
$DIMSTYLE
  2
ISO-25
  9
$DIMCLRD
 70
     0
  9
$DIMCLRE
 70
     0
  9
$DIMCLRT
 70
     0
  9
$DIMTFAC
 40
1.0
  9
$DIMGAP
 40
1.524
  9
$DIMJUST
 70
     0
  9
$DIMSD1
 70
     0
  9
$DIMSD2
 70
     0
  9
$DIMTOLJ
 70
     0
  9
$DIMTZIN
 70
     0
  9
$DIMALTZ
 70
     0
  9
$DIMALTTZ
 70
     0
  9
$DIMUPT
 70
     0
  9
$DIMDEC
 70
     2
  9
$DIMTDEC
 70
     2
  9
$DIMALTU
 70
     2
  9
$DIMALTTD
 70
     3
  9
$DIMTXSTY
  7
Standard
  9
$DIMAUNIT
 70
     0
  9
$DIMADEC
 70
     2
  9
$DIMALTRND
 40
0.0
  9
$DIMAZIN
 70
     0
  9
$DIMDSEP
 70
    44
  9
$DIMATFIT
 70
     3
  9
$DIMFRAC
 70
     0
  9
$DIMLDRBLK
  1

  9
$DIMLUNIT
 70
     2
  9
$DIMLWD
 70
    -2
  9
$DIMLWE
 70
    -2
  9
$DIMTMOVE
 70
     0
  9
$LUNITS
 70
     2
  9
$LUPREC
 70
     2
  9
$SKETCHINC
 40
1.0
  9
$FILLETRAD
 40
10.0
  9
$AUNITS
 70
     0
  9
$AUPREC
 70
     2
  9
$MENU
  1
.
  9
$ELEVATION
 40
0.0
  9
$PELEVATION
 40
0.0
  9
$THICKNESS
 40
0.0
  9
$LIMCHECK
 70
     0
  9
$CHAMFERA
 40
0.0
  9
$CHAMFERB
 40
0.0
  9
$CHAMFERC
 40
0.0
  9
$CHAMFERD
 40
0.0
  9
$SKPOLY
 70
     0
  9
$TDCREATE
 40
2458319.740923785
  9
$TDUCREATE
 40
2458319.365923785
  9
$TDUPDATE
 40
2458324.498773611
  9
$TDUUPDATE
 40
2458324.123773611
  9
$TDINDWG
 40
0.0021320023
  9
$TDUSRTIMER
 40
2458324.123709884
  9
$USRTIMER
 70
     1
  9
$ANGBASE
 50
0.0
  9
$ANGDIR
 70
     0
  9
$PDMODE
 70
     0
  9
$PDSIZE
 40
-1.0
  9
$PLINEWID
 40
0.0
  9
$SPLFRAME
 70
     0
  9
$SPLINETYPE
 70
     6
  9
$SPLINESEGS
 70
     8
  9
$HANDSEED
  5
252
  9
$SURFTAB1
 70
     6
  9
$SURFTAB2
 70
     6
  9
$SURFTYPE
 70
     6
  9
$SURFU
 70
     6
  9
$SURFV
 70
     6
  9
$UCSBASE
  2

  9
$UCSNAME
  2

  9
$UCSORG
 10
0.0
 20
0.0
 30
0.0
  9
$UCSXDIR
 10
1.0
 20
0.0
 30
0.0
  9
$UCSYDIR
 10
0.0
 20
1.0
 30
0.0
  9
$UCSORTHOREF
  2

  9
$UCSORTHOVIEW
 70
     0
  9
$UCSORGTOP
 10
0.0
 20
0.0
 30
0.0
  9
$UCSORGBOTTOM
 10
0.0
 20
0.0
 30
0.0
  9
$UCSORGLEFT
 10
0.0
 20
0.0
 30
0.0
  9
$UCSORGRIGHT
 10
0.0
 20
0.0
 30
0.0
  9
$UCSORGFRONT
 10
0.0
 20
0.0
 30
0.0
  9
$UCSORGBACK
 10
0.0
 20
0.0
 30
0.0
  9
$PUCSBASE
  2

  9
$PUCSNAME
  2

  9
$PUCSORG
 10
0.0
 20
0.0
 30
0.0
  9
$PUCSXDIR
 10
1.0
 20
0.0
 30
0.0
  9
$PUCSYDIR
 10
0.0
 20
1.0
 30
0.0
  9
$PUCSORTHOREF
  2

  9
$PUCSORTHOVIEW
 70
     0
  9
$PUCSORGTOP
 10
0.0
 20
0.0
 30
0.0
  9
$PUCSORGBOTTOM
 10
0.0
 20
0.0
 30
0.0
  9
$PUCSORGLEFT
 10
0.0
 20
0.0
 30
0.0
  9
$PUCSORGRIGHT
 10
0.0
 20
0.0
 30
0.0
  9
$PUCSORGFRONT
 10
0.0
 20
0.0
 30
0.0
  9
$PUCSORGBACK
 10
0.0
 20
0.0
 30
0.0
  9
$USERI1
 70
     0
  9
$USERI2
 70
     0
  9
$USERI3
 70
     0
  9
$USERI4
 70
     0
  9
$USERI5
 70
     0
  9
$USERR1
 40
0.0
  9
$USERR2
 40
0.0
  9
$USERR3
 40
0.0
  9
$USERR4
 40
0.0
  9
$USERR5
 40
0.0
  9
$WORLDVIEW
 70
     1
  9
$SHADEDGE
 70
     3
  9
$SHADEDIF
 70
    70
  9
$TILEMODE
 70
     1
  9
$MAXACTVP
 70
    64
  9
$PINSBASE
 10
0.0
 20
0.0
 30
0.0
  9
$PLIMCHECK
 70
     0
  9
$PEXTMIN
 10
1.000000000000000E+20
 20
1.000000000000000E+20
 30
1.000000000000000E+20
  9
$PEXTMAX
 10
-1.000000000000000E+20
 20
-1.000000000000000E+20
 30
-1.000000000000000E+20
  9
$PLIMMIN
 10
0.0
 20
0.0
  9
$PLIMMAX
 10
0.0
 20
0.0
  9
$UNITMODE
 70
     0
  9
$VISRETAIN
 70
     1
  9
$PLINEGEN
 70
     0
  9
$PSLTSCALE
 70
     1
  9
$TREEDEPTH
 70
  3020
  9
$CMLSTYLE
  2
Standard
  9
$CMLJUST
 70
     0
  9
$CMLSCALE
 40
20.0
  9
$PROXYGRAPHICS
 70
     1
  9
$MEASUREMENT
 70
     1
  9
$CELWEIGHT
370
    -1
  9
$ENDCAPS
280
     0
  9
$JOINSTYLE
280
     0
  9
$LWDISPLAY
290
     1
  9
$INSUNITS
 70
     4
  9
$HYPERLINKBASE
  1

  9
$STYLESHEET
  1

  9
$XEDIT
290
     1
  9
$CEPSNTYPE
380
     0
  9
$PSTYLEMODE
290
     1
  9
$FINGERPRINTGUID
  2
{78722C46-E02C-42BE-8FAE-3AC2CD825AD7}
  9
$VERSIONGUID
  2
{FAEB1C32-E019-11D5-929B-00C0DF256EC4}
  9
$EXTNAMES
290
     1
  9
$PSVPSCALE
 40
0.0
  9
$OLESTARTUP
290
     0
  0
ENDSEC
  0
SECTION
  2
CLASSES
  0
CLASS
  1
ACDBDICTIONARYWDFLT
  2
AcDbDictionaryWithDefault
  3
ObjectDBX Classes
 90
        0
280
     0
281
     0
  0
CLASS
  1
VISUALSTYLE
  2
AcDbVisualStyle
  3
ObjectDBX Classes
 90
     4095
280
     0
281
     0
  0
CLASS
  1
MATERIAL
  2
AcDbMaterial
  3
ObjectDBX Classes
 90
     1153
280
     0
281
     0
  0
CLASS
  1
SCALE
  2
AcDbScale
  3
ObjectDBX Classes
 90
     1153
280
     0
281
     0
  0
CLASS
  1
SUN
  2
AcDbSun
  3
SCENEOE
 90
     1153
280
     0
281
     0
  0
CLASS
  1
ACDBPLACEHOLDER
  2
AcDbPlaceHolder
  3
ObjectDBX Classes
 90
        0
280
     0
281
     0
  0
CLASS
  1
LAYOUT
  2
AcDbLayout
  3
ObjectDBX Classes
 90
        0
280
     0
281
     0
  0
CLASS
  1
TABLESTYLE
  2
AcDbTableStyle
  3
ObjectDBX Classes
 90
     4095
280
     0
281
     0
  0
CLASS
  1
MLEADERSTYLE
  2
AcDbMLeaderStyle
  3
ACDB_MLEADERSTYLE_CLASS
 90
     4095
280
     0
281
     0
  0
CLASS
  1
RASTERVARIABLES
  2
AcDbRasterVariables
  3
ISM
 90
        0
280
     0
281
     0
  0
ENDSEC
  0
SECTION
  2
TABLES
  0
TABLE
  2
VPORT
  5
8
330
0
100
AcDbSymbolTable
 70
     1
  0
VPORT
  5
29
330
8
100
AcDbSymbolTableRecord
100
AcDbViewportTableRecord
  2
*Active
 70
     0
 10
0.0
 20
0.0
 11
1.0
 21
1.0
 12
19.53486690767273
 22
-6.493278694405888
 13
0.0
 23
0.0
 14
10.0
 24
10.0
 15
10.0
 25
10.0
 16
0.0
 26
0.0
 36
1.0
 17
0.0
 27
0.0
 37
0.0
 40
88.69619853658794
 41
1.782762691853601
 42
50.0
 43
0.0
 44
0.0
 50
0.0
 51
0.0
 71
    16
 72
  2000
 73
     1
 74
     3
 75
     0
 76
     0
 77
     0
 78
     0
281
     0
 65
     1
110
0.0
120
0.0
130
0.0
111
1.0
121
0.0
131
0.0
112
0.0
122
1.0
132
0.0
 79
     0
146
0.0
  0
ENDTAB
  0
TABLE
  2
LTYPE
  5
5
330
0
100
AcDbSymbolTable
 70
     6
  0
LTYPE
  5
14
330
5
100
AcDbSymbolTableRecord
100
AcDbLinetypeTableRecord
  2
ByBlock
 70
     0
  3

 72
    65
 73
     0
 40
0.0
  0
LTYPE
  5
15
330
5
100
AcDbSymbolTableRecord
100
AcDbLinetypeTableRecord
  2
ByLayer
 70
     0
  3

 72
    65
 73
     0
 40
0.0
  0
LTYPE
  5
16
330
5
100
AcDbSymbolTableRecord
100
AcDbLinetypeTableRecord
  2
Continuous
 70
     0
  3
Solid line
 72
    65
 73
     0
 40
0.0
  0
LTYPE
  5
6A
330
5
100
AcDbSymbolTableRecord
100
AcDbLinetypeTableRecord
  2
HIDDEN
 70
     0
  3
Hidden __ __ __ __ __ __ __ __ __ __ __ __ __ __
 72
    65
 73
     2
 40
1.905
 49
1.27
 74
     0
 49
-0.635
 74
     0
  0
LTYPE
  5
6B
330
5
100
AcDbSymbolTableRecord
100
AcDbLinetypeTableRecord
  2
PHANTOM
 70
     0
  3
Phantom ______  __  __  ______  __  __  ______
 72
    65
 73
     6
 40
12.7
 49
6.35
 74
     0
 49
-1.27
 74
     0
 49
1.27
 74
     0
 49
-1.27
 74
     0
 49
1.27
 74
     0
 49
-1.27
 74
     0
  0
LTYPE
  5
6C
330
5
100
AcDbSymbolTableRecord
100
AcDbLinetypeTableRecord
  2
CENTER
 70
     0
  3
Center ____ _ ____ _ ____ _ ____ _ ____ _ ____
 72
    65
 73
     4
 40
10.16
 49
6.35
 74
     0
 49
-1.27
 74
     0
 49
1.27
 74
     0
 49
-1.27
 74
     0
  0
LTYPE
  5
6D
330
5
100
AcDbSymbolTableRecord
100
AcDbLinetypeTableRecord
  2
CENTERX2
 70
     0
  3
Center (2x) ________  __  ________  __  _____
 72
    65
 73
     4
 40
20.32
 49
12.7
 74
     0
 49
-2.54
 74
     0
 49
2.54
 74
     0
 49
-2.54
 74
     0
  0
LTYPE
  5
6E
330
5
100
AcDbSymbolTableRecord
100
AcDbLinetypeTableRecord
  2
DOT2
 70
     0
  3
Dot (.5x) ........................................
 72
    65
 73
     2
 40
0.635
 49
0.0
 74
     0
 49
-0.635
 74
     0
  0
ENDTAB
  0
TABLE
  2
LAYER
  5
2
102
{ACAD_XDICTIONARY
360
189
102
}
330
0
100
AcDbSymbolTable
 70
    18
  0
LAYER
  5
10
330
2
100
AcDbSymbolTableRecord
100
AcDbLayerTableRecord
  2
0
 70
     0
 62
     7
  6
Continuous
370
    -3
390
F
  0
LAYER
  5
6F
330
2
100
AcDbSymbolTableRecord
100
AcDbLayerTableRecord
  2
FORMAT
 70
     0
 62
     2
  6
Continuous
370
    -3
390
F
  0
LAYER
  5
70
330
2
100
AcDbSymbolTableRecord
100
AcDbLayerTableRecord
  2
외형선
 70
     0
 62
     4
  6
Continuous
370
    30
390
F
  0
LAYER
  5
71
330
2
100
AcDbSymbolTableRecord
100
AcDbLayerTableRecord
  2
숨은선
 70
     0
 62
     2
  6
HIDDEN
370
    15
390
F
  0
LAYER
  5
72
330
2
100
AcDbSymbolTableRecord
100
AcDbLayerTableRecord
  2
중심선
 70
     0
 62
     1
  6
CENTERX2
370
    -3
390
F
  0
LAYER
  5
73
330
2
100
AcDbSymbolTableRecord
100
AcDbLayerTableRecord
  2
파단선
 70
     0
 62
     4
  6
Continuous
370
    -3
390
F
  0
LAYER
  5
74
330
2
100
AcDbSymbolTableRecord
100
AcDbLayerTableRecord
  2
해칭선
 70
     0
 62
   100
  6
Continuous
370
    -3
390
F
  0
LAYER
  5
75
330
2
100
AcDbSymbolTableRecord
100
AcDbLayerTableRecord
  2
가는실선
 70
     0
 62
     4
  6
Continuous
370
    -3
390
F
  0
LAYER
  5
76
330
2
100
AcDbSymbolTableRecord
100
AcDbLayerTableRecord
  2
치수_보조선
 70
     0
 62
     4
  6
Continuous
370
    -3
390
F
  0
LAYER
  5
77
330
2
100
AcDbSymbolTableRecord
100
AcDbLayerTableRecord
  2
치수문자_일반주서
 70
     0
 62
     7
  6
Continuous
370
    15
390
F
  0
LAYER
  5
78
330
2
100
AcDbSymbolTableRecord
100
AcDbLayerTableRecord
  2
개별주서
 70
     0
 62
   100
  6
Continuous
370
    30
390
F
  0
LAYER
  5
79
330
2
100
AcDbSymbolTableRecord
100
AcDbLayerTableRecord
  2
중간선
 70
     0
 62
     2
  6
Continuous
370
    15
390
F
  0
LAYER
  5
7A
330
2
100
AcDbSymbolTableRecord
100
AcDbLayerTableRecord
  2
윤곽선
 70
     0
 62
     3
  6
Continuous
370
    40
390
F
  0
LAYER
  5
7B
330
2
100
AcDbSymbolTableRecord
100
AcDbLayerTableRecord
  2
중심마크
 70
     0
 62
   100
  6
Continuous
370
    30
390
F
  0
LAYER
  5
7C
330
2
100
AcDbSymbolTableRecord
100
AcDbLayerTableRecord
  2
가상선
 70
     0
 62
     4
  6
PHANTOM
370
    -3
390
F
  0
LAYER
  5
7D
330
2
100
AcDbSymbolTableRecord
100
AcDbLayerTableRecord
  2
특수지정선
 70
     0
 62
     5
  6
CENTERX2
370
    60
390
F
  0
LAYER
  5
7E
330
2
100
AcDbSymbolTableRecord
100
AcDbLayerTableRecord
  2
참조1
 70
     0
 62
    -4
  6
Continuous
370
    -3
390
F
  0
LAYER
  5
156
330
2
100
AcDbSymbolTableRecord
100
AcDbLayerTableRecord
  2
Defpoints
 70
     0
 62
     7
  6
Continuous
290
     0
370
    -3
390
F
  0
ENDTAB
  0
TABLE
  2
STYLE
  5
3
330
0
100
AcDbSymbolTable
 70
     2
  0
STYLE
  5
11
330
3
100
AcDbSymbolTableRecord
100
AcDbTextStyleTableRecord
  2
Standard
 70
     0
 40
0.0
 41
1.0
 50
0.0
 71
     0
 42
3.5
  3
txt
  4

  0
STYLE
  5
94
330
3
100
AcDbSymbolTableRecord
100
AcDbTextStyleTableRecord
  2
SLDTEXTSTYLE0
 70
     0
 40
0.0
 41
0.75
 50
0.0
 71
     0
 42
3.5
  3
TXT
  4

  0
ENDTAB
  0
TABLE
  2
VIEW
  5
6
330
0
100
AcDbSymbolTable
 70
     0
  0
ENDTAB
  0
TABLE
  2
UCS
  5
7
330
0
100
AcDbSymbolTable
 70
     0
  0
ENDTAB
  0
TABLE
  2
APPID
  5
9
330
0
100
AcDbSymbolTable
 70
     4
  0
APPID
  5
12
330
9
100
AcDbSymbolTableRecord
100
AcDbRegAppTableRecord
  2
ACAD
 70
     0
  0
APPID
  5
1A8
330
9
100
AcDbSymbolTableRecord
100
AcDbRegAppTableRecord
  2
PE_URL
 70
     0
  0
APPID
  5
20A
330
9
100
AcDbSymbolTableRecord
100
AcDbRegAppTableRecord
  2
ACAD_DSTYLE_DIMFLIPARROW_SYMBOL
 70
     0
  0
APPID
  5
20B
330
9
100
AcDbSymbolTableRecord
100
AcDbRegAppTableRecord
  2
ACAD_DSTYLE_DIMFLIPARROW_WHICH_SYMBOL
 70
     0
  0
ENDTAB
  0
TABLE
  2
DIMSTYLE
  5
A
330
0
100
AcDbSymbolTable
 70
     3
100
AcDbDimStyleTable
  0
DIMSTYLE
105
27
330
A
100
AcDbSymbolTableRecord
100
AcDbDimStyleTableRecord
  2
ISO-25
 70
     0
 41
2.5
 42
0.625
 43
3.75
 44
1.25
 73
     0
 74
     0
 77
     1
 78
     8
140
2.5
141
2.5
143
0.03937007874016
147
0.625
171
     3
172
     1
178
     0
271
     2
272
     2
274
     3
278
    44
283
     0
284
     8
340
11
  0
DIMSTYLE
105
D5
102
{ACAD_REACTORS
330
D4
330
E9
330
111
330
FC
102
}
330
A
100
AcDbSymbolTableRecord
100
AcDbDimStyleTableRecord
  2
SLDDIMSTYLE0
 70
     0
 41
3.302
 44
0.0
 45
0.000000001
 73
     0
 74
     0
 77
     1
 78
    12
 79
     3
140
3.5
143
0.0393700787401575
147
0.875
148
0.000000001
170
     1
173
     1
178
     0
271
     2
272
     2
276
     2
284
    12
340
94
  0
DIMSTYLE
105
FD
330
A
100
AcDbSymbolTableRecord
100
AcDbDimStyleTableRecord
  2
SLDDIMSTYLE1
 70
     0
 41
3.302
 44
0.0
 45
0.000000001
 73
     0
 74
     0
 77
     1
 78
    12
 79
     3
140
3.5
143
0.0393700787401575
147
0.875
148
0.000000001
170
     1
172
     1
173
     1
178
     0
271
     2
272
     2
276
     2
284
    12
289
     0
340
94
  0
ENDTAB
  0
TABLE
  2
BLOCK_RECORD
  5
1
330
0
100
AcDbSymbolTable
 70
     9
  0
BLOCK_RECORD
  5
1F
330
1
100
AcDbSymbolTableRecord
100
AcDbBlockTableRecord
  2
*Model_Space
340
22
  0
BLOCK_RECORD
  5
1B
330
1
100
AcDbSymbolTableRecord
100
AcDbBlockTableRecord
  2
*Paper_Space
340
1E
  0
BLOCK_RECORD
  5
23
330
1
100
AcDbSymbolTableRecord
100
AcDbBlockTableRecord
  2
*Paper_Space0
340
26
  0
BLOCK_RECORD
  5
7F
330
1
100
AcDbSymbolTableRecord
100
AcDbBlockTableRecord
  2
블럭10
340
0
102
{BLKREFS
331
CD
102
}
  0
BLOCK_RECORD
  5
D6
330
1
100
AcDbSymbolTableRecord
100
AcDbBlockTableRecord
  2
_D
340
0
  0
BLOCK_RECORD
  5
EA
330
1
100
AcDbSymbolTableRecord
100
AcDbBlockTableRecord
  2
_D_1
340
0
  0
BLOCK_RECORD
  5
FE
330
1
100
AcDbSymbolTableRecord
100
AcDbBlockTableRecord
  2
_D_2
340
0
  0
BLOCK_RECORD
  5
112
330
1
100
AcDbSymbolTableRecord
100
AcDbBlockTableRecord
  2
_D_3
340
0
  0
BLOCK_RECORD
  5
12C
330
1
100
AcDbSymbolTableRecord
100
AcDbBlockTableRecord
  2
SW_DOWELSYMBOL_0
340
0
102
{BLKREFS
331
132
102
}
  0
BLOCK_RECORD
  5
18D
330
1
100
AcDbSymbolTableRecord
100
AcDbBlockTableRecord
  2
*D7
340
0
  0
BLOCK_RECORD
  5
19C
330
1
100
AcDbSymbolTableRecord
100
AcDbBlockTableRecord
  2
*D8
340
0
  0
ENDTAB
  0
ENDSEC
  0
SECTION
  2
BLOCKS
  0
BLOCK
  5
20
330
1F
100
AcDbEntity
  8
0
100
AcDbBlockBegin
  2
*Model_Space
 70
     0
 10
0.0
 20
0.0
 30
0.0
  3
*Model_Space
  1
*Model_Space
  0
ENDBLK
  5
21
330
1F
100
AcDbEntity
  8
0
100
AcDbBlockEnd
  0
BLOCK
  5
1C
330
1B
100
AcDbEntity
 67
     1
  8
0
100
AcDbBlockBegin
  2
*Paper_Space
 70
     0
 10
0.0
 20
0.0
 30
0.0
  3
*Paper_Space
  1
*Paper_Space
  0
ENDBLK
  5
1D
330
1B
100
AcDbEntity
 67
     1
  8
0
100
AcDbBlockEnd
  0
BLOCK
  5
24
330
23
100
AcDbEntity
  8
0
100
AcDbBlockBegin
  2
*Paper_Space0
 70
     0
 10
0.0
 20
0.0
 30
0.0
  3
*Paper_Space0
  1
*Paper_Space0
  0
ENDBLK
  5
25
330
23
100
AcDbEntity
  8
0
100
AcDbBlockEnd
  0
BLOCK
  5
80
330
7F
100
AcDbEntity
  8
0
100
AcDbBlockBegin
  2
블럭10
 70
     2
 10
0.0
 20
0.0
 30
0.0
  3
블럭10
  1
블럭10
  0
ELLIPSE
  5
82
330
7F
100
AcDbEntity
  8
중심선
100
AcDbEllipse
 10
20.54032771741204
 20
12.0471743016438
 30
0.0
 11
6.600054785286829
 21
-1.261213355974178E-13
 31
0.0
210
0.0
220
0.0
230
1.0
 40
0.636358354079598
 41
0.9219305317359503
 42
6.513795318482858
  0
ELLIPSE
  5
83
330
7F
100
AcDbEntity
  8
중심선
100
AcDbEllipse
 10
20.54032771746488
 20
12.04717430159265
 30
0.0
 11
3.960054785062283
 21
1.540847449632565E-10
 31
0.0
210
0.0
220
0.0
230
1.0
 40
0.3939339440162632
 41
1.131841032648279
 42
5.62031148352944
  0
LINE
  5
84
330
7F
100
AcDbEntity
  8
중심선
100
AcDbLine
 10
2.268634060543552
 20
16.24717430164393
 30
0.0
 11
5.714909304380834
 21
16.24717430164393
 31
0.0
  0
LINE
  5
85
330
7F
100
AcDbEntity
  8
중심선
100
AcDbLine
 10
5.245725140726316
 20
7.84717430164391
 30
0.0
 11
8.692000384563599
 21
7.84717430164391
 31
0.0
  0
LINE
  5
86
330
7F
100
AcDbEntity
  8
중심선
100
AcDbLine
 10
15.74043728645272
 20
16.24717430164393
 30
0.0
 11
8.692000384563599
 21
7.84717430164391
 31
0.0
  0
LINE
  5
87
330
7F
100
AcDbEntity
  8
중심선
100
AcDbLine
 10
0.1404042013395286
 20
13.71084872107135
 30
0.0
 11
3.58671253028996
 21
13.71088815037384
 31
0.0
  0
LINE
  5
88
330
7F
100
AcDbEntity
  8
중심선
100
AcDbLine
 10
2.750260043222114
 20
10.84717430164391
 30
0.0
 11
6.196535287059397
 21
10.84717430164391
 31
0.0
  0
LINE
  5
89
330
7F
100
AcDbEntity
  8
중심선
100
AcDbLine
 10
12.29416204261559
 20
16.24717430164393
 30
0.0
 11
5.245725140726316
 21
7.84717430164391
 31
0.0
  0
LINE
  5
8A
330
7F
100
AcDbEntity
  8
중심선
100
AcDbLine
 10
10.72767329541681
 20
16.24717430164393
 30
0.0
 11
6.196535287059397
 21
10.84717430164391
 31
0.0
  0
LINE
  5
8B
330
7F
100
AcDbEntity
  8
중심선
100
AcDbLine
 10
7.28139805157953
 20
16.24717430164393
 30
0.0
 11
2.750260043222114
 21
10.84717430164391
 31
0.0
  0
LINE
  5
8C
330
7F
100
AcDbEntity
  8
중심선
100
AcDbLine
 10
5.714909304380834
 20
16.24717430164393
 30
0.0
 11
3.58671253028996
 21
13.71088815037384
 31
0.0
  0
LINE
  5
8D
330
7F
100
AcDbEntity
  8
중심선
100
AcDbLine
 10
2.268634060543552
 20
16.24717430164393
 30
0.0
 11
0.1404042013395286
 21
13.71084872107135
 31
0.0
  0
LINE
  5
8E
330
7F
100
AcDbEntity
  8
중심선
100
AcDbLine
 10
7.28139805157953
 20
16.24717430164393
 30
0.0
 11
10.72767329541681
 21
16.24717430164393
 31
0.0
  0
LINE
  5
8F
330
7F
100
AcDbEntity
  8
중심선
100
AcDbLine
 10
12.29416204261559
 20
16.24717430164393
 30
0.0
 11
15.74043728645272
 21
16.24717430164393
 31
0.0
  0
LINE
  5
90
330
7F
100
AcDbEntity
  8
중심선
100
AcDbLine
 10
19.22036997980202
 20
11.08717430171403
 30
0.0
 11
23.66174974927406
 21
11.08717430171406
 31
0.0
  0
LINE
  5
91
330
7F
100
AcDbEntity
  8
중심선
100
AcDbLine
 10
19.22039502424796
 20
13.00717430171391
 30
0.0
 11
19.22036997980202
 21
11.08717430171403
 31
0.0
  0
LINE
  5
92
330
7F
100
AcDbEntity
  8
중심선
100
AcDbLine
 10
19.22039502424796
 20
13.00717430171391
 30
0.0
 11
26.96566020931264
 21
13.00717430171391
 31
0.0
  0
LINE
  5
93
330
7F
100
AcDbEntity
  8
중심선
100
AcDbLine
 10
22.22332737316547
 20
13.45928029700563
 30
0.0
 11
24.52862924686651
 21
15.39360700705356
 31
0.0
  0
ATTDEF
  5
95
330
7F
100
AcDbEntity
  8
FORMAT
 62
     2
100
AcDbText
 10
4.408487351596664
 20
2.075366912832191
 30
0.0
 40
4.233333333333333
  1
E1015008
 41
0.75
  7
SLDTEXTSTYLE0
 11
4.408487351596664
 21
-0.0412997538344756
 31
0.0
100
AcDbAttributeDefinition
  3

  2
AUTOATTR0
 70
     0
 74
     1
  0
ENDBLK
  5
81
330
7F
100
AcDbEntity
  8
0
100
AcDbBlockEnd
  0
BLOCK
  5
D7
330
D6
100
AcDbEntity
  8
0
100
AcDbBlockBegin
  2
_D
 70
     0
 10
0.0
 20
0.0
 30
0.0
  3
_D
  1
_D
  0
LINE
  5
D9
330
D6
100
AcDbEntity
  8
치수문자_일반주서
 62
     0
370
    -2
100
AcDbLine
 10
39.6875
 20
1.650000000000002
 30
0.0
 11
39.6875
 21
12.38124999999999
 31
0.0
  0
LINE
  5
DA
330
D6
100
AcDbEntity
  8
치수문자_일반주서
 62
     0
370
    -2
100
AcDbLine
 10
20.63750000000001
 20
1.648195112678918
 30
0.0
 11
20.63750000000001
 21
12.38124999999999
 31
0.0
  0
LINE
  5
DB
330
D6
100
AcDbEntity
  8
치수문자_일반주서
 62
     0
370
    -2
100
AcDbLine
 10
39.6875
 20
12.38124999999999
 30
0.0
 11
68.14574999999999
 21
12.38124999999999
 31
0.0
  0
LINE
  5
DC
330
D6
100
AcDbEntity
  8
치수문자_일반주서
 62
     0
370
    -2
100
AcDbLine
 10
39.6875
 20
12.38124999999999
 30
0.0
 11
20.63750000000001
 21
12.38124999999999
 31
0.0
  0
LINE
  5
DD
330
D6
100
AcDbEntity
  8
치수문자_일반주서
 62
     0
370
    -2
100
AcDbLine
 10
42.9895
 20
12.38124999999999
 30
0.0
 11
46.2915
 21
12.38124999999999
 31
0.0
  0
LINE
  5
DE
330
D6
100
AcDbEntity
  8
치수문자_일반주서
 62
     0
370
    -2
100
AcDbLine
 10
17.33550000000001
 20
12.38124999999999
 30
0.0
 11
14.03350000000001
 21
12.38124999999999
 31
0.0
  0
SOLID
  5
DF
330
D6
100
AcDbEntity
  8
치수문자_일반주서
 62
     0
100
AcDbTrace
 10
42.9895
 20
12.93158333333333
 30
0.0
 11
42.9895
 21
11.83091666666666
 31
0.0
 12
39.6875
 22
12.38124999999999
 32
0.0
 13
39.6875
 23
12.38124999999999
 33
0.0
  0
SOLID
  5
E0
330
D6
100
AcDbEntity
  8
치수문자_일반주서
 62
     0
100
AcDbTrace
 10
17.33550000000001
 20
11.83091666666666
 30
0.0
 11
17.33550000000001
 21
12.93158333333333
 31
0.0
 12
20.63750000000001
 22
12.38124999999999
 32
0.0
 13
20.63750000000001
 23
12.38124999999999
 33
0.0
  0
MTEXT
  5
E1
330
D6
100
AcDbEntity
  8
치수문자_일반주서
 62
     0
100
AcDbMText
 10
55.67699999999999
 20
16.75624999999999
 30
0.0
 40
3.5
 41
0.0
 71
     2
 72
     1
  1
\A1;19.05 [3/4]
  7
SLDTEXTSTYLE0
 73
     1
 44
1.0
  0
POINT
  5
E2
330
D6
100
AcDbEntity
  8
Defpoints
 62
     0
100
AcDbPoint
 10
39.6875
 20
1.587500000000002
 30
0.0
  0
POINT
  5
1AD
330
D6
100
AcDbEntity
  8
Defpoints
 62
     0
100
AcDbPoint
 10
20.63750000000001
 20
1.585695112678918
 30
0.0
  0
POINT
  5
1AE
330
D6
100
AcDbEntity
  8
Defpoints
 62
     0
100
AcDbPoint
 10
20.63750000000001
 20
12.38124999999999
 30
0.0
  0
ENDBLK
  5
D8
330
D6
100
AcDbEntity
  8
0
100
AcDbBlockEnd
  0
BLOCK
  5
EB
330
EA
100
AcDbEntity
  8
0
100
AcDbBlockBegin
  2
_D_1
 70
     0
 10
0.0
 20
0.0
 30
0.0
  3
_D_1
  1
_D_1
  0
LINE
  5
ED
330
EA
100
AcDbEntity
  8
치수문자_일반주서
 62
     0
370
    -2
100
AcDbLine
 10
39.6875
 20
1.650000000000002
 30
0.0
 11
39.6875
 21
22.38124999999999
 31
0.0
  0
LINE
  5
EE
330
EA
100
AcDbEntity
  8
치수문자_일반주서
 62
     0
370
    -2
100
AcDbLine
 10
-39.6875
 20
1.650000000000005
 30
0.0
 11
-39.6875
 21
22.38124999999999
 31
0.0
  0
LINE
  5
EF
330
EA
100
AcDbEntity
  8
치수문자_일반주서
 62
     0
370
    -2
100
AcDbLine
 10
36.3855
 20
22.38124999999999
 30
0.0
 11
-36.3855
 21
22.38124999999999
 31
0.0
  0
SOLID
  5
F0
330
EA
100
AcDbEntity
  8
치수문자_일반주서
 62
     0
100
AcDbTrace
 10
36.3855
 20
21.83091666666666
 30
0.0
 11
36.3855
 21
22.93158333333333
 31
0.0
 12
39.6875
 22
22.38124999999999
 32
0.0
 13
39.6875
 23
22.38124999999999
 33
0.0
  0
SOLID
  5
F1
330
EA
100
AcDbEntity
  8
치수문자_일반주서
 62
     0
100
AcDbTrace
 10
-36.3855
 20
22.93158333333333
 30
0.0
 11
-36.3855
 21
21.83091666666666
 31
0.0
 12
-39.6875
 22
22.38124999999999
 32
0.0
 13
-39.6875
 23
22.38124999999999
 33
0.0
  0
MTEXT
  5
F2
330
EA
100
AcDbEntity
  8
치수문자_일반주서
 62
     0
100
AcDbMText
 10
0.3473945869787869
 20
26.75624999999999
 30
0.0
 40
3.5
 41
0.0
 71
     2
 72
     1
  1
\A1;79.38 [3 1/8]
  7
SLDTEXTSTYLE0
 73
     1
 44
1.0
  0
POINT
  5
F3
330
EA
100
AcDbEntity
  8
Defpoints
 62
     0
100
AcDbPoint
 10
39.6875
 20
1.587500000000002
 30
0.0
  0
POINT
  5
F4
330
EA
100
AcDbEntity
  8
Defpoints
 62
     0
100
AcDbPoint
 10
-39.6875
 20
1.587500000000005
 30
0.0
  0
POINT
  5
F5
330
EA
100
AcDbEntity
  8
Defpoints
 62
     0
100
AcDbPoint
 10
-39.6875
 20
22.38124999999999
 30
0.0
  0
ENDBLK
  5
EC
330
EA
100
AcDbEntity
  8
0
100
AcDbBlockEnd
  0
BLOCK
  5
FF
330
FE
100
AcDbEntity
  8
0
100
AcDbBlockBegin
  2
_D_2
 70
     0
 10
0.0
 20
0.0
 30
0.0
  3
_D_2
  1
_D_2
  0
LINE
  5
101
330
FE
100
AcDbEntity
  8
치수문자_일반주서
 62
     0
370
    -2
100
AcDbLine
 10
-16.73768467149222
 20
2.381249999999998
 30
0.0
 11
-49.68750000000001
 21
2.381249999999874
 31
0.0
  0
LINE
  5
102
330
FE
100
AcDbEntity
  8
치수문자_일반주서
 62
     0
370
    -2
100
AcDbLine
 10
-16.73768467149221
 20
-2.381250000000003
 30
0.0
 11
-49.6875
 21
-2.381250000000126
 31
0.0
  0
LINE
  5
103
330
FE
100
AcDbEntity
  8
치수문자_일반주서
 62
     0
370
    -2
100
AcDbLine
 10
-49.68750000000001
 20
2.381249999999874
 30
0.0
 11
-49.68750000000012
 21
36.98524999999997
 31
0.0
  0
LINE
  5
104
330
FE
100
AcDbEntity
  8
치수문자_일반주서
 62
     0
370
    -2
100
AcDbLine
 10
-49.68750000000002
 20
5.683249999999873
 30
0.0
 11
-49.68750000000003
 21
8.985249999999873
 31
0.0
  0
LINE
  5
105
330
FE
100
AcDbEntity
  8
치수문자_일반주서
 62
     0
370
    -2
100
AcDbLine
 10
-49.68749999999999
 20
-5.683250000000125
 30
0.0
 11
-49.68749999999999
 21
-8.985250000000125
 31
0.0
  0
SOLID
  5
106
330
FE
100
AcDbEntity
  8
치수문자_일반주서
 62
     0
100
AcDbTrace
 10
-50.23783333333336
 20
5.683249999999871
 30
0.0
 11
-49.13716666666669
 21
5.683249999999875
 31
0.0
 12
-49.68750000000001
 22
2.381249999999874
 32
0.0
 13
-49.68750000000001
 23
2.381249999999874
 33
0.0
  0
SOLID
  5
107
330
FE
100
AcDbEntity
  8
치수문자_일반주서
 62
     0
100
AcDbTrace
 10
-49.13716666666666
 20
-5.683250000000124
 30
0.0
 11
-50.23783333333333
 21
-5.683250000000127
 31
0.0
 12
-49.6875
 22
-2.381250000000126
 32
0.0
 13
-49.6875
 23
-2.381250000000126
 33
0.0
  0
MTEXT
  5
108
330
FE
100
AcDbEntity
  8
치수문자_일반주서
 62
     0
100
AcDbMText
 10
-54.06250000000008
 20
22.98524999999995
 30
0.0
 40
3.5
 41
0.0
 71
     2
 72
     1
  1
\A1;%%c4.76 [3/16]
  7
SLDTEXTSTYLE0
 11
-2.983906501879685E-15
 21
1.0
 31
0.0
 73
     1
 44
1.0
  0
POINT
  5
109
330
FE
100
AcDbEntity
  8
Defpoints
 62
     0
100
AcDbPoint
 10
-16.67518467149222
 20
2.381249999999998
 30
0.0
  0
POINT
  5
10A
330
FE
100
AcDbEntity
  8
Defpoints
 62
     0
100
AcDbPoint
 10
-16.67518467149221
 20
-2.381250000000003
 30
0.0
  0
POINT
  5
1AC
330
FE
100
AcDbEntity
  8
Defpoints
 62
     0
100
AcDbPoint
 10
-49.6875
 20
-2.381250000000126
 30
0.0
  0
ENDBLK
  5
100
330
FE
100
AcDbEntity
  8
0
100
AcDbBlockEnd
  0
BLOCK
  5
113
330
112
100
AcDbEntity
  8
0
100
AcDbBlockBegin
  2
_D_3
 70
     0
 10
0.0
 20
0.0
 30
0.0
  3
_D_3
  1
_D_3
  0
LINE
  5
115
330
112
100
AcDbEntity
  8
치수문자_일반주서
 62
     0
370
    -2
100
AcDbLine
 10
39.75
 20
1.587500000000002
 30
0.0
 11
74.42086952149015
 21
1.58750000000013
 31
0.0
  0
LINE
  5
116
330
112
100
AcDbEntity
  8
치수문자_일반주서
 62
     0
370
    -2
100
AcDbLine
 10
39.75
 20
-1.587499999999997
 30
0.0
 11
74.42086952149016
 21
-1.587499999999871
 31
0.0
  0
LINE
  5
117
330
112
100
AcDbEntity
  8
치수문자_일반주서
 62
     0
370
    -2
100
AcDbLine
 10
74.42086952149015
 20
1.58750000000013
 30
0.0
 11
74.42086952149
 21
32.69150000000013
 31
0.0
  0
LINE
  5
118
330
112
100
AcDbEntity
  8
치수문자_일반주서
 62
     0
370
    -2
100
AcDbLine
 10
74.42086952149013
 20
4.88950000000013
 30
0.0
 11
74.42086952149012
 21
8.19150000000013
 31
0.0
  0
LINE
  5
119
330
112
100
AcDbEntity
  8
치수문자_일반주서
 62
     0
370
    -2
100
AcDbLine
 10
74.42086952149018
 20
-4.88949999999987
 30
0.0
 11
74.42086952149019
 21
-8.19149999999987
 31
0.0
  0
SOLID
  5
11A
330
112
100
AcDbEntity
  8
치수문자_일반주서
 62
     0
100
AcDbTrace
 10
73.8705361881568
 20
4.889500000000127
 30
0.0
 11
74.97120285482346
 21
4.889500000000132
 31
0.0
 12
74.42086952149015
 22
1.58750000000013
 32
0.0
 13
74.42086952149015
 23
1.58750000000013
 33
0.0
  0
SOLID
  5
11B
330
112
100
AcDbEntity
  8
치수문자_일반주서
 62
     0
100
AcDbTrace
 10
74.9712028548235
 20
-4.889499999999868
 30
0.0
 11
73.87053618815685
 21
-4.889499999999873
 31
0.0
 12
74.42086952149016
 22
-1.587499999999871
 32
0.0
 13
74.42086952149016
 23
-1.587499999999871
 33
0.0
  0
MTEXT
  5
11C
330
112
100
AcDbEntity
  8
치수문자_일반주서
 62
     0
100
AcDbMText
 10
70.04586952149006
 20
20.44150000000012
 30
0.0
 40
3.5
 41
0.0
 71
     2
 72
     1
  1
\A1;%%c3.18 [1/8]
  7
SLDTEXTSTYLE0
 11
-4.475859752819529E-15
 21
1.0
 31
0.0
 73
     1
 44
1.0
  0
POINT
  5
11D
330
112
100
AcDbEntity
  8
Defpoints
 62
     0
100
AcDbPoint
 10
39.6875
 20
1.587500000000002
 30
0.0
  0
POINT
  5
11E
330
112
100
AcDbEntity
  8
Defpoints
 62
     0
100
AcDbPoint
 10
39.6875
 20
-1.587499999999998
 30
0.0
  0
POINT
  5
11F
330
112
100
AcDbEntity
  8
Defpoints
 62
     0
100
AcDbPoint
 10
74.42086952149016
 20
-1.587499999999868
 30
0.0
  0
ENDBLK
  5
114
330
112
100
AcDbEntity
  8
0
100
AcDbBlockEnd
  0
BLOCK
  5
12D
330
12C
100
AcDbEntity
  8
0
100
AcDbBlockBegin
  2
SW_DOWELSYMBOL_0
 70
     0
 10
0.0
 20
0.0
 30
0.0
  3
SW_DOWELSYMBOL_0
  1
SW_DOWELSYMBOL_0
  0
CIRCLE
  5
12F
330
12C
100
AcDbEntity
  8
해칭선
 62
     0
100
AcDbCircle
 10
0.0
 20
0.0
 30
0.0
 40
3.000000000000001
  0
HATCH
  5
130
330
12C
100
AcDbEntity
  8
0
  6
Continuous
 62
     0
370
     0
100
AcDbHatch
 10
0.0
 20
0.0
 30
0.0
210
0.0
220
0.0
230
1.0
  2
SOLID
 70
     1
 71
     0
 91
        1
 92
        0
 93
        3
 72
     2
 10
0.0
 20
0.0
 40
3.000000000000001
 50
0.0
 51
90.0
 73
     1
 72
     1
 10
0.0
 20
3.000000000000001
 11
0.0
 21
0.0
 72
     1
 10
0.0
 20
0.0
 11
3.000000000000001
 21
0.0
 97
        0
 75
     0
 76
     1
 98
        1
 10
0.0
 20
0.0
  0
HATCH
  5
131
330
12C
100
AcDbEntity
  8
0
  6
Continuous
 62
     0
370
     0
100
AcDbHatch
 10
0.0
 20
0.0
 30
0.0
210
0.0
220
0.0
230
1.0
  2
SOLID
 70
     1
 71
     0
 91
        1
 92
        0
 93
        3
 72
     2
 10
0.0
 20
0.0
 40
3.000000000000001
 50
180.0
 51
270.0000000000007
 73
     1
 72
     1
 10
0.0
 20
-3.000000000000001
 11
0.0
 21
0.0
 72
     1
 10
0.0
 20
0.0
 11
-3.000000000000001
 21
0.0
 97
        0
 75
     0
 76
     1
 98
        1
 10
0.0
 20
0.0
  0
ENDBLK
  5
12E
330
12C
100
AcDbEntity
  8
0
100
AcDbBlockEnd
  0
BLOCK
  5
18E
330
18D
100
AcDbEntity
  8
0
100
AcDbBlockBegin
  2
*D7
 70
     1
 10
0.0
 20
0.0
 30
0.0
  3
*D7
  1
*D7
  0
LINE
  5
190
330
18D
100
AcDbEntity
  8
치수문자_일반주서
 62
     0
370
    -2
100
AcDbLine
 10
0.0
 20
0.5121961990748796
 30
0.0
 11
0.0
 21
33.79272327212171
 31
0.0
  0
LINE
  5
191
330
18D
100
AcDbEntity
  8
치수문자_일반주서
 62
     0
370
    -2
100
AcDbLine
 10
25.99995813577124
 20
8.175743682859753
 30
0.0
 11
25.99995813577124
 21
33.79272327212171
 31
0.0
  0
LINE
  5
192
330
18D
100
AcDbEntity
  8
치수문자_일반주서
 62
     0
370
    -2
100
AcDbLine
 10
3.302
 20
33.79272327212171
 30
0.0
 11
22.69795813577124
 21
33.79272327212171
 31
0.0
  0
SOLID
  5
193
330
18D
100
AcDbEntity
  8
치수문자_일반주서
 62
     0
100
AcDbTrace
 10
3.302
 20
34.34305660545504
 30
0.0
 11
3.302
 21
33.24238993878837
 31
0.0
 12
0.0
 22
33.79272327212171
 32
0.0
 13
0.0
 23
33.79272327212171
 33
0.0
  0
SOLID
  5
194
330
18D
100
AcDbEntity
  8
치수문자_일반주서
 62
     0
100
AcDbTrace
 10
22.69795813577124
 20
33.24238993878837
 30
0.0
 11
22.69795813577124
 21
34.34305660545504
 31
0.0
 12
25.99995813577124
 22
33.79272327212171
 32
0.0
 13
25.99995813577124
 23
33.79272327212171
 33
0.0
  0
MTEXT
  5
195
330
18D
100
AcDbEntity
  8
치수문자_일반주서
 62
     0
100
AcDbMText
 10
13.04655386270326
 20
38.16772327212171
 30
0.0
 40
3.5
 41
0.0
 71
     2
 72
     1
  1
\A1;26 [1.02]
  7
SLDTEXTSTYLE0
 73
     1
 44
1.0
  0
POINT
  5
196
330
18D
100
AcDbEntity
  8
Defpoints
 62
     0
100
AcDbPoint
 10
0.0
 20
0.4496961990748796
 30
0.0
  0
POINT
  5
197
330
18D
100
AcDbEntity
  8
Defpoints
 62
     0
100
AcDbPoint
 10
25.99995813577124
 20
8.113243682859753
 30
0.0
  0
POINT
  5
198
330
18D
100
AcDbEntity
  8
Defpoints
 62
     0
100
AcDbPoint
 10
25.99995813577124
 20
33.79272327212171
 30
0.0
  0
ENDBLK
  5
18F
330
18D
100
AcDbEntity
  8
0
100
AcDbBlockEnd
  0
BLOCK
  5
19D
330
19C
100
AcDbEntity
  8
0
100
AcDbBlockBegin
  2
*D8
 70
     1
 10
0.0
 20
0.0
 30
0.0
  3
*D8
  1
*D8
  0
LINE
  5
19F
330
19C
100
AcDbEntity
  8
치수문자_일반주서
 62
     0
370
    -2
100
AcDbLine
 10
63.25989290727901
 20
-24.2303663503995
 30
0.0
 11
63.25989290727901
 21
9.050160722647327
 31
0.0
  0
LINE
  5
1A0
330
19C
100
AcDbEntity
  8
치수문자_일반주서
 62
     0
370
    -2
100
AcDbLine
 10
89.25985104305025
 20
-16.56681886661462
 30
0.0
 11
89.25985104305025
 21
9.050160722647327
 31
0.0
  0
LINE
  5
1A1
330
19C
100
AcDbEntity
  8
치수문자_일반주서
 62
     0
370
    -2
100
AcDbLine
 10
66.561892907279
 20
9.050160722647327
 30
0.0
 11
85.95785104305025
 21
9.050160722647327
 31
0.0
  0
SOLID
  5
1A2
330
19C
100
AcDbEntity
  8
치수문자_일반주서
 62
     0
100
AcDbTrace
 10
66.561892907279
 20
9.60049405598066
 30
0.0
 11
66.561892907279
 21
8.499827389313994
 31
0.0
 12
63.25989290727901
 22
9.050160722647327
 32
0.0
 13
63.25989290727901
 23
9.050160722647327
 33
0.0
  0
SOLID
  5
1A3
330
19C
100
AcDbEntity
  8
치수문자_일반주서
 62
     0
100
AcDbTrace
 10
85.95785104305025
 20
8.499827389313994
 30
0.0
 11
85.95785104305025
 21
9.60049405598066
 31
0.0
 12
89.25985104305025
 22
9.050160722647327
 32
0.0
 13
89.25985104305025
 23
9.050160722647327
 33
0.0
  0
MTEXT
  5
1A4
330
19C
100
AcDbEntity
  8
치수문자_일반주서
 62
     0
100
AcDbMText
 10
76.30644676998227
 20
13.42516072264733
 30
0.0
 40
3.5
 41
0.0
 71
     2
 72
     1
  1
\A1;26 [1.02]
  7
SLDTEXTSTYLE0
 73
     1
 44
1.0
  0
POINT
  5
1A5
330
19C
100
AcDbEntity
  8
Defpoints
 62
     0
100
AcDbPoint
 10
63.25989290727901
 20
-24.2928663503995
 30
0.0
  0
POINT
  5
1A6
330
19C
100
AcDbEntity
  8
Defpoints
 62
     0
100
AcDbPoint
 10
89.25985104305025
 20
-16.62931886661462
 30
0.0
  0
POINT
  5
1A7
330
19C
100
AcDbEntity
  8
Defpoints
 62
     0
100
AcDbPoint
 10
89.25985104305025
 20
9.050160722647327
 30
0.0
  0
ENDBLK
  5
19E
330
19C
100
AcDbEntity
  8
0
100
AcDbBlockEnd
  0
ENDSEC
  0
SECTION
  2
ENTITIES
  0
LINE
  5
96
330
1F
100
AcDbEntity
  8
외형선
  6
Continuous
370
    15
100
AcDbLine
 10
16.67518467149221
 20
2.381250000000002
 30
0.0
 11
-16.67518467149222
 21
2.381249999999998
 31
0.0
  0
LINE
  5
97
330
1F
100
AcDbEntity
  8
외형선
  6
Continuous
370
    15
100
AcDbLine
 10
-16.67518467149221
 20
-2.381250000000003
 30
0.0
 11
16.67518467149221
 21
-2.381249999999999
 31
0.0
  0
LINE
  5
9A
330
1F
100
AcDbEntity
  8
외형선
  6
Continuous
370
    15
100
AcDbLine
 10
16.67518467149221
 20
-2.381249999999998
 30
0.0
 11
19.6375
 21
-1.587499999999998
 31
0.0
  0
LINE
  5
9B
330
1F
100
AcDbEntity
  8
외형선
  6
Continuous
370
    15
100
AcDbLine
 10
19.6375
 20
1.587500000000002
 30
0.0
 11
16.67518467149221
 21
2.381250000000001
 31
0.0
  0
LINE
  5
9C
330
1F
100
AcDbEntity
  8
외형선
  6
Continuous
370
    15
100
AcDbLine
 10
19.74770089872444
 20
1.587500000000002
 30
0.0
 11
19.6375
 21
1.587500000000002
 31
0.0
  0
LINE
  5
9D
330
1F
100
AcDbEntity
  8
외형선
  6
Continuous
370
    15
100
AcDbLine
 10
20.6375
 20
1.587500000000002
 30
0.0
 11
20.50708089384079
 21
1.587500000000002
 31
0.0
  0
LINE
  5
9E
330
1F
100
AcDbEntity
  8
외형선
  6
Continuous
370
    15
100
AcDbLine
 10
20.50708089384079
 20
-1.587499999999998
 30
0.0
 11
20.6375
 21
-1.587499999999998
 31
0.0
  0
LINE
  5
9F
330
1F
100
AcDbEntity
  8
외형선
  6
Continuous
370
    15
100
AcDbLine
 10
19.6375
 20
-1.587499999999998
 30
0.0
 11
19.74770089872444
 21
-1.587499999999998
 31
0.0
  0
LINE
  5
A0
330
1F
100
AcDbEntity
  8
0
  6
Continuous
 62
     1
370
    15
100
AcDbLine
 10
37.78222533510245
 20
-1.587499999999998
 30
0.0
 11
38.09999999999999
 21
-1.587499999999998
 31
0.0
1001
PE_URL
1000

  0
LINE
  5
A1
330
1F
100
AcDbEntity
  8
0
  6
Continuous
 62
     1
370
    15
100
AcDbLine
 10
20.6375
 20
-1.587499999999998
 30
0.0
 11
23.95714839006937
 21
-1.587499999999998
 31
0.0
1001
PE_URL
1000

  0
LINE
  5
A2
330
1F
100
AcDbEntity
  8
0
  6
Continuous
 62
     1
370
    15
100
AcDbLine
 10
32.59406533849298
 20
1.587500000000002
 30
0.0
 11
29.14369839819441
 21
1.587500000000002
 31
0.0
1001
PE_URL
1000

  0
LINE
  5
A3
330
1F
100
AcDbEntity
  8
0
  6
Continuous
 62
     1
370
    15
100
AcDbLine
 10
29.14369839819442
 20
-1.587499999999998
 30
0.0
 11
32.59503994578401
 21
-1.587499999999998
 31
0.0
1001
PE_URL
1000

  0
LINE
  5
A4
330
1F
100
AcDbEntity
  8
0
  6
Continuous
 62
     1
370
    15
100
AcDbLine
 10
23.95722543431754
 20
1.587500000000002
 30
0.0
 11
20.6375
 21
1.587500000000002
 31
0.0
1001
PE_URL
1000

  0
LINE
  5
A5
330
1F
100
AcDbEntity
  8
0
  6
Continuous
 62
     1
370
    15
100
AcDbLine
 10
38.09999999999999
 20
1.587500000000002
 30
0.0
 11
37.78222533510244
 21
1.587500000000002
 31
0.0
1001
PE_URL
1000

  0
ARC
  5
A6
330
1F
100
AcDbEntity
  8
0
  6
Continuous
 62
     1
370
    15
100
AcDbCircle
 10
38.1
 20
0.0000000000000021
 30
0.0
 40
1.587500000000002
100
AcDbArc
 50
270.0000000000005
 51
0.0
1001
PE_URL
1000

  0
ARC
  5
A7
330
1F
100
AcDbEntity
  8
0
  6
Continuous
 62
     1
370
    15
100
AcDbCircle
 10
38.1
 20
0.0000000000000021
 30
0.0
 40
1.587500000000002
100
AcDbArc
 50
0.0
 51
90.00000000000026
1001
PE_URL
1000

  0
LINE
  5
A8
330
1F
100
AcDbEntity
  8
외형선
  6
Continuous
370
    15
100
AcDbLine
 10
16.67518467149221
 20
2.381250000000002
 30
0.0
 11
16.67518467149221
 21
-2.381249999999999
 31
0.0
  0
LINE
  5
AB
330
1F
100
AcDbEntity
  8
외형선
  6
Continuous
370
    15
100
AcDbLine
 10
19.6375
 20
1.587500000000002
 30
0.0
 11
19.6375
 21
-1.587499999999998
 31
0.0
  0
SPLINE
  5
AC
330
1F
100
AcDbEntity
  8
외형선
  6
Continuous
370
    15
100
AcDbSpline
210
0.0
220
0.0
230
1.0
 70
    24
 71
     3
 72
    14
 73
    10
 74
     0
 42
0.000000001
 43
0.00000001
 40
0.0
 40
0.0
 40
0.0
 40
0.0
 40
0.25
 40
0.25
 40
0.5
 40
0.5
 40
0.75
 40
0.75
 40
1.0
 40
1.0
 40
1.0
 40
1.0
 10
20.6375
 20
0.6500548529748287
 30
0.0
 10
20.6375
 20
0.5589099253790237
 30
0.0
 10
20.6375
 20
0.4554495006782334
 30
0.0
 10
20.6375
 20
0.2313143717359596
 30
0.0
 10
20.6375
 20
0.1105692293545481
 30
0.0
 10
20.6375
 20
-0.1260782690198611
 30
0.0
 10
20.6375
 20
-0.2414453359045945
 30
0.0
 10
20.6375
 20
-0.435772337409287
 30
0.0
 10
20.6375
 20
-0.5139781018254637
 30
0.0
 10
20.6375
 20
-0.5645172436075625
 30
0.0
  0
SPLINE
  5
AD
330
1F
100
AcDbEntity
  8
외형선
  6
Continuous
370
    15
100
AcDbSpline
210
0.0
220
0.0
230
1.0
 70
     8
 71
     3
 72
    10
 73
     6
 74
     0
 42
0.000000001
 43
0.00000001
 40
0.0
 40
0.0
 40
0.0
 40
0.0
 40
0.5
 40
0.5
 40
1.0
 40
1.0
 40
1.0
 40
1.0
 10
20.6375
 20
-0.5645172436078874
 30
0.0
 10
20.49043964571278
 20
-0.4847036211611765
 30
0.0
 10
20.34085554895925
 20
-0.4019691830453212
 30
0.0
 10
20.04245714237511
 20
-0.2338321957278488
 30
0.0
 10
19.89504670484764
 20
-0.1487105289965595
 30
0.0
 10
19.74770089872444
 20
-0.0633282482161501
 30
0.0
  0
SPLINE
  5
AE
330
1F
100
AcDbEntity
  8
외형선
  6
Continuous
370
    15
100
AcDbSpline
210
0.0
220
0.0
230
1.0
 70
     8
 71
     3
 72
    10
 73
     6
 74
     0
 42
0.000000001
 43
0.00000001
 40
0.0
 40
0.0
 40
0.0
 40
0.0
 40
0.4999999999999999
 40
0.4999999999999999
 40
1.0
 40
1.0
 40
1.0
 40
1.0
 10
20.6374999999948
 20
0.6500548529764709
 30
0.0
 10
20.49043964570839
 20
0.6965204037131162
 30
0.0
 10
20.34085554895575
 20
0.7404104416814639
 30
0.0
 10
20.04245714237339
 20
0.8212369621095124
 30
0.0
 10
19.89504670484672
 20
0.8580667082915923
 30
0.0
 10
19.74770089872444
 20
0.8910199729071817
 30
0.0
  0
SPLINE
  5
AF
330
1F
100
AcDbEntity
  8
외형선
  6
Continuous
370
    15
100
AcDbSpline
210
0.0
220
0.0
230
1.0
 70
     8
 71
     3
 72
    10
 73
     6
 74
     0
 42
0.000000001
 43
0.00000001
 40
0.0
 40
0.0
 40
0.0
 40
0.0
 40
0.5
 40
0.5
 40
1.0
 40
1.0
 40
1.0
 40
1.0
 10
20.6375
 20
1.585695112678923
 30
0.0
 10
20.49041640959031
 20
1.589766683960839
 30
0.0
 10
20.34080827643766
 20
1.58693135723881
 30
0.0
 10
20.04236297054087
 20
1.567359345755883
 30
0.0
 10
19.89493177916642
 20
1.550702154942982
 30
0.0
 10
19.74756121067244
 20
1.527411052819328
 30
0.0
  0
LINE
  5
B0
330
1F
100
AcDbEntity
  8
외형선
  6
Continuous
370
    15
100
AcDbLine
 10
20.6375
 20
-0.5645172436078902
 30
0.0
 11
20.6375
 21
-1.587499999999998
 31
0.0
  0
LINE
  5
B1
330
1F
100
AcDbEntity
  8
외형선
  6
Continuous
370
    15
100
AcDbLine
 10
19.74756121067244
 20
-1.527411052819323
 30
0.0
 11
20.50708089384079
 21
-1.577153676929206
 31
0.0
  0
LINE
  5
B2
330
1F
100
AcDbEntity
  8
외형선
  6
Continuous
370
    15
100
AcDbLine
 10
19.74770089872444
 20
-1.587499999999998
 30
0.0
 11
19.74770089872444
 21
-1.527390178665901
 31
0.0
  0
LINE
  5
B3
330
1F
100
AcDbEntity
  8
외형선
  6
Continuous
370
    15
100
AcDbLine
 10
20.6375
 20
1.587500000000002
 30
0.0
 11
20.6375
 21
1.585695112678921
 31
0.0
  0
LINE
  5
B4
330
1F
100
AcDbEntity
  8
외형선
  6
Continuous
370
    15
100
AcDbLine
 10
19.74770089872444
 20
-0.0634276021311857
 30
0.0
 11
19.74770089872444
 21
1.587500000000002
 31
0.0
  0
SPLINE
  5
B5
330
1F
100
AcDbEntity
  8
외형선
  6
Continuous
370
    15
100
AcDbSpline
210
0.0
220
0.0
230
1.0
 70
    24
 71
     3
 72
    14
 73
    10
 74
     0
 42
0.000000001
 43
0.00000001
 40
0.0
 40
0.0
 40
0.0
 40
0.0
 40
0.2500000000000001
 40
0.2500000000000001
 40
0.5000000000000002
 40
0.5000000000000002
 40
0.7500000000000001
 40
0.7500000000000001
 40
1.0
 40
1.0
 40
1.0
 40
1.0
 10
20.6375
 20
1.585695112676671
 30
0.0
 10
20.6375
 20
1.463666015191438
 30
0.0
 10
20.6375
 20
1.339691411341696
 30
0.0
 10
20.6375
 20
1.114089526988684
 30
0.0
 10
20.6375
 20
1.01290648792354
 30
0.0
 10
20.6375
 20
0.8483273219052502
 30
0.0
 10
20.6375
 20
0.7847986093177717
 30
0.0
 10
20.6375
 20
0.6935560728700322
 30
0.0
 10
20.6375
 20
0.665510042042888
 30
0.0
 10
20.6375
 20
0.6500548529748292
 30
0.0
  0
SPLINE
  5
B6
330
1F
100
AcDbEntity
  8
0
  6
Continuous
 62
     1
370
    15
100
AcDbSpline
210
0.0
220
0.0
230
1.0
 70
     8
 71
     3
 72
    31
 73
    27
 74
     0
 42
0.000000001
 43
0.00000001
 40
0.0
 40
0.0
 40
0.0
 40
0.0
 40
0.0295310908455958
 40
0.071891358477594
 40
0.1136959468286992
 40
0.1557909283199362
 40
0.1975918931750219
 40
0.2396828693578871
 40
0.2826688540992701
 40
0.3259701329412238
 40
0.3680724778119889
 40
0.4104712257238342
 40
0.4537864866168366
 40
0.4974251820813122
 40
0.5394667532329235
 40
0.5818048930851346
 40
0.6233699704331238
 40
0.66522239391086
 40
0.7067536372851241
 40
0.7485722361137676
 40
0.7901034938800964
 40
0.8319221739214456
 40
0.8746272203411214
 40
0.9176443588258596
 40
0.9595546111040374
 40
1.0
 40
1.0
 40
1.0
 40
1.0
 10
34.90401286444154
 20
-1.056714105521685
 30
0.0
 10
34.79618057176021
 20
-1.102792809894639
 30
0.0
 10
34.53367045829549
 20
-1.214968166761049
 30
0.0
 10
34.11916881049601
 20
-1.355598034997439
 30
0.0
 10
33.65821925865329
 20
-1.477195440312323
 30
0.0
 10
33.19958826030819
 20
-1.556443570516107
 30
0.0
 10
32.74006945910176
 20
-1.592676835996641
 30
0.0
 10
32.27670321921728
 20
-1.584526740851888
 30
0.0
 10
31.80885815765608
 20
-1.5303221889289
 30
0.0
 10
31.33956896474016
 20
-1.43222870149712
 30
0.0
 10
30.87411401325703
 20
-1.292088176808315
 30
0.0
 10
30.40675963532907
 20
-1.117016873303131
 30
0.0
 10
29.93569664581858
 20
-0.9048447441743728
 30
0.0
 10
29.46407103615009
 20
-0.6690602291378839
 30
0.0
 10
28.99773158892935
 20
-0.4132490671259076
 30
0.0
 10
28.53750254278277
 20
-0.1523034203256572
 30
0.0
 10
28.0791355131089
 20
0.1143793709879772
 30
0.0
 10
27.62287979219271
 20
0.3748268256258947
 30
0.0
 10
27.16617365629726
 20
0.626279479006533
 30
0.0
 10
26.71056667997878
 20
0.8597474966141463
 30
0.0
 10
26.25357965993914
 20
1.069716798304656
 30
0.0
 10
25.79406063392281
 20
1.252285412412776
 30
0.0
 10
25.32804546090205
 20
1.400697365533548
 30
0.0
 10
24.86306585966909
 20
1.50890193401914
 30
0.0
 10
24.40480463154169
 20
1.575508552216845
 30
0.0
 10
24.10463881255337
 20
1.582949001435445
 30
0.0
 10
23.95722543431754
 20
1.58660305424733
 30
0.0
1001
PE_URL
1000

  0
SPLINE
  5
B7
330
1F
100
AcDbEntity
  8
0
  6
Continuous
 62
     1
370
    15
100
AcDbSpline
210
0.0
220
0.0
230
1.0
 70
     8
 71
     3
 72
    19
 73
    15
 74
     0
 42
0.000000001
 43
0.00000001
 40
0.0
 40
0.0
 40
0.0
 40
0.0
 40
0.088526253688099
 40
0.1782953680984353
 40
0.2680601890026046
 40
0.3578214154418176
 40
0.4475797489873465
 40
0.5373358932491766
 40
0.6270905533816137
 40
0.7168444355865866
 40
0.8065982466153808
 40
0.8963526932695544
 40
0.986108481901773
 40
1.0
 40
1.0
 40
1.0
 40
1.0
 10
35.52066492963532
 20
-1.078724619018085
 30
0.0
 10
35.24756213149739
 20
-1.075680129255608
 30
0.0
 10
34.69752231964368
 20
-1.069548406741005
 30
0.0
 10
33.87056460918805
 20
-0.9376840221462504
 30
0.0
 10
33.03980055193203
 20
-0.7275088972714255
 30
0.0
 10
32.2090731115855
 20
-0.4494778378658328
 30
0.0
 10
31.37837503275883
 20
-0.1312351094610393
 30
0.0
 10
30.54769920133797
 20
0.1989885446384271
 30
0.0
 10
29.71703844934578
 20
0.5113158547954685
 30
0.0
 10
28.88638558685568
 20
0.7766868941940055
 30
0.0
 10
28.05573350038357
 20
0.9740772781529716
 30
0.0
 10
27.22507475842472
 20
1.074299877425386
 30
0.0
 10
26.62844497534684
 20
1.100281342528897
 30
0.0
 10
26.30869984702722
 20
1.064239299803721
 30
0.0
 10
26.26584542681132
 20
1.059408699717642
 30
0.0
1001
PE_URL
1000

  0
SPLINE
  5
B8
330
1F
100
AcDbEntity
  8
0
  6
Continuous
 62
     1
370
    15
100
AcDbSpline
210
0.0
220
0.0
230
1.0
 70
     8
 71
     3
 72
    14
 73
    10
 74
     0
 42
0.000000001
 43
0.00000001
 40
0.0
 40
0.0
 40
0.0
 40
0.0
 40
0.1077874607887752
 40
0.2168472207895429
 40
0.3838435710706289
 40
0.5556286726155504
 40
0.7234533155297749
 40
0.8902366888464767
 40
1.0
 40
1.0
 40
1.0
 40
1.0
 10
38.09999999999999
 20
-0.664062027106195
 30
0.0
 10
37.90231269097598
 20
-0.5573172316466874
 30
0.0
 10
37.50460461590376
 20
-0.3425676489053064
 30
0.0
 10
36.80092691522211
 20
0.0665849143987577
 30
0.0
 10
35.97852915025774
 20
0.5396682501384357
 30
0.0
 10
35.04854765696512
 20
1.017170903648113
 30
0.0
 10
34.11894148591415
 20
1.370973702845912
 30
0.0
 10
33.30321385844256
 20
1.569240212181392
 30
0.0
 10
32.79555763879861
 20
1.568099400711323
 30
0.0
 10
32.59406533849298
 20
1.567646604668599
 30
0.0
1001
PE_URL
1000

  0
SPLINE
  5
B9
330
1F
100
AcDbEntity
  8
0
  6
Continuous
 62
     1
370
    15
100
AcDbSpline
210
0.0
220
0.0
230
1.0
 70
     8
 71
     3
 72
    14
 73
    10
 74
     0
 42
0.000000001
 43
0.00000001
 40
0.0
 40
0.0
 40
0.0
 40
0.0
 40
0.0789494682597463
 40
0.2464402420366686
 40
0.4107958141641478
 40
0.579883725707487
 40
0.7447383621188595
 40
0.8713052074238611
 40
1.0
 40
1.0
 40
1.0
 40
1.0
 10
26.23938355150217
 20
-1.056610626110559
 30
0.0
 10
26.09196354503206
 20
-1.122381598217418
 30
0.0
 10
25.63179297167223
 20
-1.327685251836394
 30
0.0
 10
24.86461440393715
 20
-1.526785542543997
 30
0.0
 10
23.92916350258613
 20
-1.619291375675022
 30
0.0
 10
22.99852056604006
 20
-1.520896948209764
 30
0.0
 10
22.13825038213361
 20
-1.270506590986906
 30
0.0
 10
21.35437731739125
 20
-0.9398361948697616
 30
0.0
 10
20.87778345495953
 20
-0.6903169196935727
 30
0.0
 10
20.6375
 20
-0.5645172436078907
 30
0.0
1001
PE_URL
1000

  0
SPLINE
  5
BA
330
1F
100
AcDbEntity
  8
외형선
  6
Continuous
370
    15
100
AcDbSpline
210
0.0
220
0.0
230
1.0
 70
    24
 71
     3
 72
    14
 73
    10
 74
     0
 42
0.000000001
 43
0.00000001
 40
0.0
 40
0.0
 40
0.0
 40
0.0
 40
0.25
 40
0.25
 40
0.5
 40
0.5
 40
0.75
 40
0.75
 40
1.0
 40
1.0
 40
1.0
 40
1.0
 10
20.6375
 20
0.6500548529748287
 30
0.0
 10
20.6375
 20
0.5589099253790237
 30
0.0
 10
20.6375
 20
0.4554495006782334
 30
0.0
 10
20.6375
 20
0.2313143717359596
 30
0.0
 10
20.6375
 20
0.1105692293545481
 30
0.0
 10
20.6375
 20
-0.1260782690198611
 30
0.0
 10
20.6375
 20
-0.2414453359045945
 30
0.0
 10
20.6375
 20
-0.435772337409287
 30
0.0
 10
20.6375
 20
-0.5139781018254637
 30
0.0
 10
20.6375
 20
-0.5645172436075625
 30
0.0
  0
SPLINE
  5
BB
330
1F
100
AcDbEntity
  8
0
  6
Continuous
 62
     1
370
    15
100
AcDbSpline
210
0.0
220
0.0
230
1.0
 70
     8
 71
     3
 72
    12
 73
     8
 74
     0
 42
0.000000001
 43
0.00000001
 40
0.0
 40
0.0
 40
0.0
 40
0.0
 40
0.2367014216138869
 40
0.4732069674115756
 40
0.6633741627332764
 40
0.8535278651228909
 40
1.0
 40
1.0
 40
1.0
 40
1.0
 10
39.26251525756017
 20
0.1664376237263725
 30
0.0
 10
38.91762343205377
 20
0.2979665491793925
 30
0.0
 10
38.22812518687994
 20
0.5609155569046389
 30
0.0
 10
37.26154560149457
 20
0.8516333735770456
 30
0.0
 10
36.36315991134257
 20
1.024618789748338
 30
0.0
 10
35.59583515303213
 20
1.096916202258185
 30
0.0
 10
35.10552287427316
 20
1.068608789394272
 30
0.0
 10
34.89217892299057
 20
1.056291709907174
 30
0.0
1001
PE_URL
1000

  0
SPLINE
  5
BC
330
1F
100
AcDbEntity
  8
0
  6
Continuous
 62
     1
370
    15
100
AcDbSpline
210
0.0
220
0.0
230
1.0
 70
     8
 71
     3
 72
    15
 73
    11
 74
     0
 42
0.000000001
 43
0.00000001
 40
0.0
 40
0.0
 40
0.0
 40
0.0
 40
0.0779167088752016
 40
0.2109695369807915
 40
0.3440264435505951
 40
0.4770884692284723
 40
0.6101566510541034
 40
0.7432320217390074
 40
0.8715977511575587
 40
1.0
 40
1.0
 40
1.0
 40
1.0
 10
26.88086627777331
 20
-1.06751074369886
 30
0.0
 10
26.71871379633684
 20
-1.072400830917743
 30
0.0
 10
26.27966504257428
 20
-1.085641372661052
 30
0.0
 10
25.56370956308722
 20
-0.9975087989451485
 30
0.0
 10
24.73298882533842
 20
-0.8211815594136087
 30
0.0
 10
23.90223209725806
 20
-0.5661508492724235
 30
0.0
 10
23.07143633395159
 20
-0.260694672905962
 30
0.0
 10
22.25039823709819
 20
0.0637230126183801
 30
0.0
 10
21.43910776921474
 20
0.3822784733161611
 30
0.0
 10
20.90472792420765
 20
0.5607875967976939
 30
0.0
 10
20.63749999999492
 20
0.6500548529764366
 30
0.0
1001
PE_URL
1000

  0
SPLINE
  5
BD
330
1F
100
AcDbEntity
  8
0
  6
Continuous
 62
     1
370
    15
100
AcDbSpline
210
0.0
220
0.0
230
1.0
 70
     8
 71
     3
 72
    22
 73
    18
 74
     0
 42
0.000000001
 43
0.00000001
 40
0.0
 40
0.0
 40
0.0
 40
0.0
 40
0.125
 40
0.125
 40
0.25
 40
0.25
 40
0.375
 40
0.375
 40
0.5
 40
0.5
 40
0.625
 40
0.625
 40
0.75
 40
0.75
 40
0.875
 40
0.875
 40
1.0
 40
1.0
 40
1.0
 40
1.0
 10
38.09999999999999
 20
-0.6640620271061964
 30
0.0
 10
38.18812925918593
 20
-0.7103472905038674
 30
0.0
 10
38.27496514647191
 20
-0.7516329149932657
 30
0.0
 10
38.44820880195748
 20
-0.8211889737750495
 30
0.0
 10
38.53553440089149
 20
-0.8497185298325983
 30
0.0
 10
38.70787314664383
 20
-0.8865426592317363
 30
0.0
 10
38.79222646570455
 20
-0.8952290465067904
 30
0.0
 10
38.96147432759344
 20
-0.882969775540225
 30
0.0
 10
39.0440215693192
 20
-0.8618401680694815
 30
0.0
 10
39.19966299798309
 20
-0.7775720530114962
 30
0.0
 10
39.27203083838963
 20
-0.7137340829089551
 30
0.0
 10
39.38206514097265
 20
-0.544262631643022
 30
0.0
 10
39.41519133923117
 20
-0.4438390072697115
 30
0.0
 10
39.43190207548116
 20
-0.2475125812019576
 30
0.0
 10
39.41682224599776
 20
-0.1549835460825416
 30
0.0
 10
39.35850491342798
 20
0.0144840271007695
 30
0.0
 10
39.31531684771456
 20
0.0922899288771061
 30
0.0
 10
39.26251525752695
 20
0.1664376237392235
 30
0.0
1001
PE_URL
1000

  0
SPLINE
  5
BE
330
1F
100
AcDbEntity
  8
0
  6
Continuous
 62
     1
370
    15
100
AcDbSpline
210
0.0
220
0.0
230
1.0
 70
     8
 71
     3
 72
    21
 73
    17
 74
     0
 42
0.000000001
 43
0.00000001
 40
0.0
 40
0.0
 40
0.0
 40
0.0
 40
0.0315679349617872
 40
0.1077682491009853
 40
0.1839680710750435
 40
0.2601679495816649
 40
0.3363684332795213
 40
0.4125700704095014
 40
0.4887734084165818
 40
0.5649789935728651
 40
0.6411873706023539
 40
0.7173990823080023
 40
0.7953352082826807
 40
0.8732720923700407
 40
0.9512097771979913
 40
1.0
 40
1.0
 40
1.0
 40
1.0
 10
26.88086627777331
 20
1.067510743698866
 30
0.0
 10
26.9955743693834
 20
1.118896345882564
 30
0.0
 10
27.38717078535102
 20
1.294319172337328
 30
0.0
 10
28.05565108458161
 20
1.483465632256799
 30
0.0
 10
28.88630895871223
 20
1.60573253021586
 30
0.0
 10
29.71696739446509
 20
1.576722288311661
 30
0.0
 10
30.54763381513455
 20
1.40641182296678
 30
0.0
 10
31.37831522457563
 20
1.108262518208442
 30
0.0
 10
32.20901920369946
 20
0.709801058871242
 30
0.0
 10
33.03975137932798
 20
0.2470244388636502
 30
0.0
 10
33.87052452178563
 20
-0.2382509316739246
 30
0.0
 10
34.70757662619673
 20
-0.7049969850935535
 30
0.0
 10
35.55098199940452
 20
-1.111658106419011
 30
0.0
 10
36.40064200950973
 20
-1.409771724092217
 30
0.0
 10
37.14439266496235
 20
-1.574243848692296
 30
0.0
 10
37.60492172544147
 20
-1.57103307513366
 30
0.0
 10
37.78222533510245
 20
-1.569796927861742
 30
0.0
1001
PE_URL
1000

  0
SPLINE
  5
BF
330
1F
100
AcDbEntity
  8
0
  6
Continuous
 62
     1
370
    15
100
AcDbSpline
210
0.0
220
0.0
230
1.0
 70
     8
 71
     3
 72
     8
 73
     4
 74
     0
 42
0.000000001
 43
0.00000001
 40
0.0
 40
0.0
 40
0.0
 40
0.0
 40
1.0
 40
1.0
 40
1.0
 40
1.0
 10
38.39610167654803
 20
0.7106424728898835
 30
0.0
 10
38.71885045650026
 20
0.6209301167081182
 30
0.0
 10
39.04793469010669
 20
0.5198659592444292
 30
0.0
 10
39.37769183538269
 20
0.4111490879132761
 30
0.0
1001
PE_URL
1000

  0
SPLINE
  5
C0
330
1F
100
AcDbEntity
  8
0
  6
Continuous
 62
     1
370
    15
100
AcDbSpline
210
0.0
220
0.0
230
1.0
 70
     8
 71
     3
 72
    10
 73
     6
 74
     0
 42
0.000000001
 43
0.00000001
 40
0.0
 40
0.0
 40
0.0
 40
0.0
 40
0.5
 40
0.5
 40
1.0
 40
1.0
 40
1.0
 40
1.0
 10
39.26251525752695
 20
0.1664376237392235
 30
0.0
 10
39.29900832081517
 20
0.1884733783867025
 30
0.0
 10
39.32814649718675
 20
0.2219591947295472
 30
0.0
 10
39.36712755798841
 20
0.3068395227440763
 30
0.0
 10
39.37678805711194
 20
0.3579699194217779
 30
0.0
 10
39.37769183538269
 20
0.4111490879132575
 30
0.0
1001
PE_URL
1000

  0
SPLINE
  5
C1
330
1F
100
AcDbEntity
  8
외형선
  6
Continuous
370
    15
100
AcDbSpline
210
0.0
220
0.0
230
1.0
 70
    24
 71
     3
 72
    14
 73
    10
 74
     0
 42
0.000000001
 43
0.00000001
 40
0.0
 40
0.0
 40
0.0
 40
0.0
 40
0.25
 40
0.25
 40
0.5
 40
0.5
 40
0.75
 40
0.75
 40
1.0
 40
1.0
 40
1.0
 40
1.0
 10
20.6375
 20
1.585695112676672
 30
0.0
 10
20.6375
 20
1.463666015191438
 30
0.0
 10
20.6375
 20
1.339691411341696
 30
0.0
 10
20.6375
 20
1.114089526988684
 30
0.0
 10
20.6375
 20
1.012906487923539
 30
0.0
 10
20.6375
 20
0.8483273219052501
 30
0.0
 10
20.6375
 20
0.7847986093177717
 30
0.0
 10
20.6375
 20
0.6935560728700323
 30
0.0
 10
20.6375
 20
0.6655100420428881
 30
0.0
 10
20.6375
 20
0.6500548529748292
 30
0.0
  0
SPLINE
  5
C2
330
1F
100
AcDbEntity
  8
0
  6
Continuous
 62
     1
370
    15
100
AcDbSpline
210
0.0
220
0.0
230
1.0
 70
     8
 71
     3
 72
    18
 73
    14
 74
     0
 42
0.000000001
 43
0.00000001
 40
0.0
 40
0.0
 40
0.0
 40
0.0
 40
0.0963138768344272
 40
0.1926144803857718
 40
0.2889035220477616
 40
0.3851827277941742
 40
0.4814538360389225
 40
0.579115223743256
 40
0.6767738756916821
 40
0.7744304923138615
 40
0.8720857754431802
 40
0.9697404278332873
 40
1.0
 40
1.0
 40
1.0
 40
1.0
 10
20.63750000000001
 20
1.58569511267892
 30
0.0
 10
20.91060641046926
 20
1.56454100073819
 30
0.0
 10
21.45678159385419
 20
1.522235692163695
 30
0.0
 10
22.27596371400949
 20
1.287271545266688
 30
0.0
 10
23.09502870080187
 20
0.9489734326675626
 30
0.0
 10
23.91399666216369
 20
0.5244179460559357
 30
0.0
 10
24.73682775858682
 20
0.0521940141361674
 30
0.0
 10
25.56361287336595
 20
-0.427556807769912
 30
0.0
 10
26.39430864416151
 20
-0.8700614268409943
 30
0.0
 10
27.22498716736404
 20
-1.236514935834514
 30
0.0
 10
28.05565117619525
 20
-1.48060260665788
 30
0.0
 10
28.69521992173331
 20
-1.594937939120544
 30
0.0
 10
29.05790184336168
 20
-1.576425275293352
 30
0.0
 10
29.14369839819442
 20
-1.572045893023571
 30
0.0
1001
PE_URL
1000

  0
SPLINE
  5
C3
330
1F
100
AcDbEntity
  8
0
  6
Continuous
 62
     1
370
    15
100
AcDbSpline
210
0.0
220
0.0
230
1.0
 70
     8
 71
     3
 72
    11
 73
     7
 74
     0
 42
0.000000001
 43
0.00000001
 40
0.0
 40
0.0
 40
0.0
 40
0.0
 40
0.0117516716561773
 40
0.3411643367314053
 40
0.6705803862643916
 40
1.0
 40
1.0
 40
1.0
 40
1.0
 10
35.52066492963532
 20
1.078724619018094
 30
0.0
 10
35.53076872203697
 20
1.083522056421399
 30
0.0
 10
35.82409325781641
 20
1.222797097249186
 30
0.0
 10
36.40064297485881
 20
1.405151095414974
 30
0.0
 10
37.25031723591417
 20
1.591393114343616
 30
0.0
 10
37.81677139049391
 20
1.581720398640171
 30
0.0
 10
38.1
 20
1.576884014624474
 30
0.0
1001
PE_URL
1000

  0
SPLINE
  5
C4
330
1F
100
AcDbEntity
  8
0
  6
Continuous
 62
     1
370
    15
100
AcDbSpline
210
0.0
220
0.0
230
1.0
 70
     8
 71
     3
 72
    10
 73
     6
 74
     0
 42
0.000000001
 43
0.00000001
 40
0.0
 40
0.0
 40
0.0
 40
0.0
 40
0.5
 40
0.5
 40
1.0
 40
1.0
 40
1.0
 40
1.0
 10
38.718585075309
 20
1.372859747421047
 30
0.0
 10
38.6204007725363
 20
1.432795731937896
 30
0.0
 10
38.51922721185041
 20
1.47985141295746
 30
0.0
 10
38.31274232041096
 20
1.548319734614006
 30
0.0
 10
38.20640211458949
 20
1.569780851254378
 30
0.0
 10
38.09999999999999
 20
1.576884014624477
 30
0.0
1001
PE_URL
1000

  0
SPLINE
  5
C5
330
1F
100
AcDbEntity
  8
0
  6
Continuous
 62
     1
370
    15
100
AcDbSpline
210
0.0
220
0.0
230
1.0
 70
     8
 71
     3
 72
    14
 73
    10
 74
     0
 42
0.000000001
 43
0.00000001
 40
0.0
 40
0.0
 40
0.0
 40
0.0
 40
0.2499999999999998
 40
0.2499999999999998
 40
0.4999999999999996
 40
0.4999999999999996
 40
0.7499999999999998
 40
0.7499999999999998
 40
1.0
 40
1.0
 40
1.0
 40
1.0
 10
38.71858507530901
 20
1.372859747421048
 30
0.0
 10
38.72982257009175
 20
1.306187900890999
 30
0.0
 10
38.73485727074819
 20
1.238282450483099
 30
0.0
 10
38.72496910598278
 20
1.100917013523193
 30
0.0
 10
38.70965481003759
 20
1.0332082673191
 30
0.0
 10
38.6536272743911
 20
0.9100871974200871
 30
0.0
 10
38.61269317170197
 20
0.8552594923362897
 30
0.0
 10
38.51389797667893
 20
0.767745998260207
 30
0.0
 10
38.45604126493335
 20
0.7344628427950353
 30
0.0
 10
38.39610167654851
 20
0.7106424728899449
 30
0.0
1001
PE_URL
1000

  0
ARC
  5
C6
330
1F
100
AcDbEntity
  8
0
  6
Continuous
 62
     1
370
    15
100
AcDbCircle
 10
38.92798208599177
 20
-0.2759622871941244
 30
0.0
 40
0.8211948005797519
100
AcDbArc
 50
23.84130656543896
 51
56.79552415731947
1001
PE_URL
1000

  0
ARC
  5
C7
330
1F
100
AcDbEntity
  8
0
  6
Continuous
 62
     1
370
    15
100
AcDbCircle
 10
38.25973859996544
 20
0.0294465866809864
 30
0.0
 40
1.419612273962442
100
AcDbArc
 50
1.070495324450976
 51
71.14225670173013
1001
PE_URL
1000

  0
LINE
  5
C8
330
1F
100
AcDbEntity
  8
중심선
 62
     1
100
AcDbLine
 10
-42.6875
 20
-0.0000000000000052
 30
0.0
 11
42.6875
 21
0.0000000000000052
 31
0.0
  0
LINE
  5
C9
330
1F
100
AcDbEntity
  8
참조1
100
AcDbLine
 10
0.0
 20
-0.0000000000000053
 30
0.0
 11
0.0000000000000036
 21
-40.00000000000001
 31
0.0
  0
LINE
  5
CA
330
1F
100
AcDbEntity
  8
참조1
100
AcDbLine
 10
39.68750000000001
 20
-0.0000000000000053
 30
0.0
 11
39.68750000000001
 21
0.630973477839305
 31
0.0
  0
LINE
  5
CB
330
1F
100
AcDbEntity
  8
참조1
100
AcDbLine
 10
0.0000000000000036
 20
-40.00000000000001
 30
0.0
 11
-17.54010681430867
 21
-40.0
 31
0.0
  0
CIRCLE
  5
CC
330
1F
100
AcDbEntity
  8
해칭선
100
AcDbCircle
 10
0.0
 20
0.0
 30
0.0
 40
3.000000000000001
  0
INSERT
  5
CD
330
1F
100
AcDbEntity
  8
0
  6
Continuous
 62
     7
100
AcDbBlockReference
 66
     1
  2
블럭10
 10
-13.94027293212521
 20
-52.04717430164393
 30
0.0
  0
ATTRIB
  5
CE
330
CD
100
AcDbEntity
  8
FORMAT
 62
     2
100
AcDbText
 10
-23.12156822086649
 20
-49.97180738881174
 30
0.0
 40
4.233333333333333
  1
E2015008 [ 2 FLUTE ]
 41
0.75
  7
SLDTEXTSTYLE0
 11
-23.12156822086649
 21
-52.08847405547841
 31
0.0
100
AcDbAttribute
  2
AUTOATTR0
 70
     0
 74
     1
  0
SEQEND
  5
CF
330
CD
100
AcDbEntity
  8
0
  6
Continuous
 62
     7
  0
HATCH
  5
D0
330
1F
100
AcDbEntity
  8
중심선
100
AcDbHatch
 10
0.0
 20
0.0
 30
0.0
210
0.0
220
0.0
230
1.0
  2
SOLID
 70
     1
 71
     0
 91
        1
 92
        0
 93
        4
 72
     1
 10
-8.225363627744361
 20
-35.8
 11
-11.67163887158165
 21
-35.8
 72
     1
 10
-11.67163887158165
 20
-35.8
 11
-13.79986873078567
 21
-38.3363255805726
 72
     1
 10
-13.79986873078567
 20
-38.3363255805726
 11
-10.35356040183524
 21
-38.33628615127011
 72
     1
 10
-10.35356040183524
 20
-38.33628615127011
 11
-8.225363627744361
 21
-35.8
 97
        0
 75
     0
 76
     1
 98
        1
 10
11.71286934298444
 20
-0.0010749287238945
  0
HATCH
  5
D1
330
1F
100
AcDbEntity
  8
중심선
100
AcDbHatch
 10
0.0
 20
0.0
 30
0.0
210
0.0
220
0.0
230
1.0
  2
SOLID
 70
     1
 71
     0
 91
        1
 92
        0
 93
        4
 72
     1
 10
-3.212599636708383
 20
-35.8
 11
-6.658874880545667
 21
-35.8
 72
     1
 10
-6.658874880545667
 20
-35.8
 11
-11.19001288890308
 21
-41.20000000000002
 72
     1
 10
-11.19001288890308
 20
-41.20000000000002
 11
-7.743737645065799
 21
-41.20000000000002
 72
     1
 10
-7.743737645065799
 20
-41.20000000000002
 11
-3.212599636708383
 21
-35.8
 97
        0
 75
     0
 76
     1
 98
        1
 10
11.71286934298444
 20
-0.0010749287238945
  0
HATCH
  5
D2
330
1F
100
AcDbEntity
  8
중심선
100
AcDbHatch
 10
0.0
 20
0.0
 30
0.0
210
0.0
220
0.0
230
1.0
  2
SOLID
 70
     1
 71
     0
 91
        1
 92
        0
 93
        4
 72
     1
 10
1.800164354327483
 20
-35.8
 11
-1.646110889509632
 21
-35.8
 72
     1
 10
-1.646110889509632
 20
-35.8
 11
-8.694547791398882
 21
-44.20000000000002
 72
     1
 10
-8.694547791398882
 20
-44.20000000000002
 11
-5.248272547561598
 21
-44.20000000000002
 72
     1
 10
-5.248272547561598
 20
-44.20000000000002
 11
1.800164354327483
 21
-35.8
 97
        0
 75
     0
 76
     1
 98
        1
 10
11.71286934298444
 20
-0.0010749287238945
  0
HATCH
  5
D3
330
1F
100
AcDbEntity
  8
중심선
100
AcDbHatch
 10
0.0
 20
0.0
 30
0.0
210
0.0
220
0.0
230
1.0
  2
SOLID
 70
     1
 71
     0
 91
        1
 92
        0
 93
        6
 72
     3
 10
6.600054785339683
 20
-40.00000000005127
 11
3.960054785062283
 21
1.540882976769353E-10
 40
0.3939339440162628
 50
17.09539180608436
 51
320.0019657685086
 73
     0
 72
     1
 10
8.283054441040278
 20
-38.58789400463833
 11
10.58835631474131
 21
-36.65356729459038
 72
     3
 10
6.600054785286837
 20
-40.00000000000015
 11
6.600054785286829
 21
-1.278976924368180E-13
 40
0.636358354079598
 50
39.99873849337411
 51
368.4976242363724
 73
     1
 72
     1
 10
13.02538727718745
 20
-39.03999999993002
 11
5.28012209212276
 21
-39.03999999993002
 72
     1
 10
5.28012209212276
 20
-39.03999999993002
 11
5.280097047676826
 21
-40.95999999992991
 72
     1
 10
5.280097047676826
 20
-40.95999999992991
 11
9.721476817148861
 21
-40.95999999992988
 97
        0
 75
     0
 76
     1
 98
        1
 10
11.71286934298444
 20
-0.0010749287238945
  0
DIMENSION
  5
D4
330
1F
100
AcDbEntity
  8
치수문자_일반주서
100
AcDbDimension
  2
_D
 10
20.63750000000001
 20
12.38124999999999
 30
0.0
 11
55.67699999999999
 21
12.38124999999999
 31
0.0
 70
   160
  1
<>
 71
     2
 42
19.04999999999999
  3
SLDDIMSTYLE0
100
AcDbAlignedDimension
 13
39.6875
 23
1.587500000000002
 33
0.0
 14
20.63750000000001
 24
1.585695112678918
 34
0.0
 50
0.0000000000000053
100
AcDbRotatedDimension
1001
PE_URL
1000

1001
ACAD
1000
DSTYLE
1002
{
1070
   171
1070
     8
1070
   273
1070
     7
1002
}
1001
ACAD_DSTYLE_DIMFLIPARROW_SYMBOL
1070
   385
1070
     0
1001
ACAD_DSTYLE_DIMFLIPARROW_WHICH_SYMBOL
1070
   386
1070
     3
  0
DIMENSION
  5
E9
330
1F
100
AcDbEntity
  8
치수문자_일반주서
100
AcDbDimension
  2
_D_1
 10
-39.6875
 20
22.38124999999999
 30
0.0
 11
0.3473945869787869
 21
22.38124999999999
 31
0.0
 70
   160
  1
<>
 71
     2
 42
79.375
  3
SLDDIMSTYLE0
100
AcDbAlignedDimension
 13
39.6875
 23
1.587500000000002
 33
0.0
 14
-39.6875
 24
1.587500000000005
 34
0.0
 50
0.0000000000000077
100
AcDbRotatedDimension
1001
PE_URL
1000

1001
ACAD
1000
DSTYLE
1002
{
1070
   171
1070
     8
1070
   273
1070
     7
1002
}
  0
DIMENSION
  5
FC
330
1F
100
AcDbEntity
  8
치수문자_일반주서
100
AcDbDimension
  2
_D_2
 10
-49.6875
 20
-2.381250000000126
 30
0.0
 11
-49.68750000000008
 21
22.98524999999997
 31
0.0
 70
   160
  1
%%c<>
 71
     2
 42
4.762500000000001
 52
-270.0
  3
SLDDIMSTYLE0
100
AcDbAlignedDimension
 13
-16.67518467149222
 23
2.381249999999998
 33
0.0
 14
-16.67518467149221
 24
-2.381250000000003
 34
0.0
 50
90.0000000000002
100
AcDbRotatedDimension
1001
PE_URL
1000

1001
ACAD
1000
DSTYLE
1002
{
1070
   171
1070
     8
1070
   273
1070
     7
1002
}
  0
DIMENSION
  5
111
330
1F
100
AcDbEntity
  8
치수문자_일반주서
100
AcDbDimension
  2
_D_3
 10
74.42086952149016
 20
-1.587499999999871
 30
0.0
 11
74.42086952149006
 21
20.44150000000014
 31
0.0
 70
   160
  1
%%c<>
 71
     2
 42
3.175
 52
-270.0
  3
SLDDIMSTYLE0
100
AcDbAlignedDimension
 13
39.6875
 23
1.587500000000002
 33
0.0
 14
39.6875
 24
-1.587499999999998
 34
0.0
 50
90.0000000000002
100
AcDbRotatedDimension
1001
PE_URL
1000

1001
ACAD
1000
DSTYLE
1002
{
1070
   171
1070
     8
1070
   273
1070
     7
1002
}
  0
LINE
  5
125
330
1F
100
AcDbEntity
  8
참조1
100
AcDbLine
 10
80.4322338153456
 20
7.440000000000001
 30
0.0
 11
80.4322338153456
 21
-7.440000000000003
 31
0.0
  0
LINE
  5
126
330
1F
100
AcDbEntity
  8
참조1
100
AcDbLine
 10
93.13223381534559
 20
5.440000000000001
 30
0.0
 11
80.4322338153456
 21
5.440000000000001
 31
0.0
  0
SOLID
  5
127
330
1F
100
AcDbEntity
  8
참조1
100
AcDbTrace
 10
80.4322338153456
 20
5.440000000000001
 30
0.0
 11
86.78223381534559
 21
4.424000000000001
 31
0.0
 12
86.78223381534559
 22
6.456000000000001
 32
0.0
 13
86.78223381534559
 23
6.456000000000001
 33
0.0
  0
LINE
  5
128
330
1F
100
AcDbEntity
  8
참조1
100
AcDbLine
 10
93.13223381534559
 20
-5.440000000000003
 30
0.0
 11
80.4322338153456
 21
-5.440000000000003
 31
0.0
  0
SOLID
  5
129
330
1F
100
AcDbEntity
  8
참조1
100
AcDbTrace
 10
80.4322338153456
 20
-5.440000000000003
 30
0.0
 11
86.78223381534559
 21
-6.456000000000003
 31
0.0
 12
86.78223381534559
 22
-4.424000000000003
 32
0.0
 13
86.78223381534559
 23
-4.424000000000003
 33
0.0
  0
MTEXT
  5
12A
330
1F
100
AcDbEntity
  8
참조1
100
AcDbMText
 10
89.82972390781586
 20
10.98821664464993
 30
0.0
 40
3.5
 41
0.0
 71
     1
 72
     1
  1
A
  7
SLDTEXTSTYLE0
 73
     1
 44
1.0
  0
MTEXT
  5
12B
330
1F
100
AcDbEntity
  8
참조1
100
AcDbMText
 10
89.82972390781586
 20
0.1082166446499306
 30
0.0
 40
3.5
 41
0.0
 71
     1
 72
     1
  1
A
  7
SLDTEXTSTYLE0
 73
     1
 44
1.0
  0
INSERT
  5
132
330
1F
100
AcDbEntity
  8
해칭선
100
AcDbBlockReference
  2
SW_DOWELSYMBOL_0
 10
0.0
 20
0.0
 30
0.0
  0
LINE
  5
1DC
330
1F
100
AcDbEntity
  8
외형선
  6
Continuous
370
    15
100
AcDbLine
 10
-16.67518467149221
 20
2.381249999999998
 30
0.0
 11
-19.6375
 21
1.587499999999999
 31
0.0
  0
LINE
  5
1DD
330
1F
100
AcDbEntity
  8
외형선
  6
Continuous
370
    15
100
AcDbLine
 10
-19.6375
 20
-1.587500000000002
 30
0.0
 11
-16.67518467149221
 21
-2.381250000000001
 31
0.0
  0
LINE
  5
1DE
330
1F
100
AcDbEntity
  8
외형선
  6
Continuous
370
    15
100
AcDbLine
 10
-19.74770089872443
 20
-1.587500000000002
 30
0.0
 11
-19.6375
 21
-1.587500000000002
 31
0.0
  0
LINE
  5
1DF
330
1F
100
AcDbEntity
  8
외형선
  6
Continuous
370
    15
100
AcDbLine
 10
-20.6375
 20
-1.587500000000002
 30
0.0
 11
-20.50708089384079
 21
-1.587500000000002
 31
0.0
  0
LINE
  5
1E0
330
1F
100
AcDbEntity
  8
외형선
  6
Continuous
370
    15
100
AcDbLine
 10
-20.50708089384079
 20
1.587499999999999
 30
0.0
 11
-20.6375
 21
1.587499999999999
 31
0.0
  0
LINE
  5
1E1
330
1F
100
AcDbEntity
  8
외형선
  6
Continuous
370
    15
100
AcDbLine
 10
-19.6375
 20
1.587499999999999
 30
0.0
 11
-19.74770089872444
 21
1.587499999999999
 31
0.0
  0
LINE
  5
1E2
330
1F
100
AcDbEntity
  8
0
  6
Continuous
 62
     1
370
    15
100
AcDbLine
 10
-37.78222533510245
 20
1.587499999999988
 30
0.0
 11
-38.09999999999999
 21
1.587499999999988
 31
0.0
1001
PE_URL
1000

  0
LINE
  5
1E3
330
1F
100
AcDbEntity
  8
0
  6
Continuous
 62
     1
370
    15
100
AcDbLine
 10
-20.6375
 20
1.587499999999999
 30
0.0
 11
-23.95714839006937
 21
1.587499999999995
 31
0.0
1001
PE_URL
1000

  0
LINE
  5
1E4
330
1F
100
AcDbEntity
  8
0
  6
Continuous
 62
     1
370
    15
100
AcDbLine
 10
-32.59406533849297
 20
-1.587500000000009
 30
0.0
 11
-29.14369839819441
 21
-1.587500000000009
 31
0.0
1001
PE_URL
1000

  0
LINE
  5
1E5
330
1F
100
AcDbEntity
  8
0
  6
Continuous
 62
     1
370
    15
100
AcDbLine
 10
-29.14369839819442
 20
1.587499999999991
 30
0.0
 11
-32.595039945784
 21
1.587499999999991
 31
0.0
1001
PE_URL
1000

  0
LINE
  5
1E6
330
1F
100
AcDbEntity
  8
0
  6
Continuous
 62
     1
370
    15
100
AcDbLine
 10
-23.95722543431754
 20
-1.587500000000006
 30
0.0
 11
-20.6375
 21
-1.587500000000002
 31
0.0
1001
PE_URL
1000

  0
LINE
  5
1E7
330
1F
100
AcDbEntity
  8
0
  6
Continuous
 62
     1
370
    15
100
AcDbLine
 10
-38.09999999999999
 20
-1.587500000000013
 30
0.0
 11
-37.78222533510243
 21
-1.587500000000013
 31
0.0
1001
PE_URL
1000

  0
ARC
  5
1E8
330
1F
100
AcDbEntity
  8
0
  6
Continuous
 62
     1
370
    15
100
AcDbCircle
 10
-38.09999999999999
 20
-0.0000000000000142
 30
0.0
 40
1.587500000000002
100
AcDbArc
 50
90.00000000000053
 51
180.0000000000001
1001
PE_URL
1000

  0
ARC
  5
1E9
330
1F
100
AcDbEntity
  8
0
  6
Continuous
 62
     1
370
    15
100
AcDbCircle
 10
-38.09999999999999
 20
-0.0000000000000142
 30
0.0
 40
1.587500000000002
100
AcDbArc
 50
180.0000000000001
 51
270.0000000000002
1001
PE_URL
1000

  0
LINE
  5
1EA
330
1F
100
AcDbEntity
  8
외형선
  6
Continuous
370
    15
100
AcDbLine
 10
-16.67518467149221
 20
-2.381250000000001
 30
0.0
 11
-16.67518467149221
 21
2.381249999999998
 31
0.0
  0
LINE
  5
1EB
330
1F
100
AcDbEntity
  8
외형선
  6
Continuous
370
    15
100
AcDbLine
 10
-19.6375
 20
-1.587500000000002
 30
0.0
 11
-19.6375
 21
1.587499999999999
 31
0.0
  0
SPLINE
  5
1EC
330
1F
100
AcDbEntity
  8
외형선
  6
Continuous
370
    15
100
AcDbSpline
210
0.0
220
0.0
230
1.0
 70
    24
 71
     3
 72
    14
 73
    10
 74
     0
 42
0.000000001
 43
0.00000001
 40
0.0
 40
0.0
 40
0.0
 40
0.0
 40
0.25
 40
0.25
 40
0.5
 40
0.5
 40
0.75
 40
0.75
 40
1.0
 40
1.0
 40
1.0
 40
1.0
 10
-20.6375
 20
-0.6500548529748293
 30
0.0
 10
-20.6375
 20
-0.5589099253790231
 30
0.0
 10
-20.6375
 20
-0.4554495006782346
 30
0.0
 10
-20.6375
 20
-0.2313143717359587
 30
0.0
 10
-20.6375
 20
-0.1105692293545495
 30
0.0
 10
-20.6375
 20
0.1260782690198603
 30
0.0
 10
-20.6375
 20
0.2414453359045936
 30
0.0
 10
-20.6375
 20
0.4357723374092863
 30
0.0
 10
-20.6375
 20
0.5139781018254652
 30
0.0
 10
-20.6375
 20
0.5645172436075612
 30
0.0
  0
SPLINE
  5
1ED
330
1F
100
AcDbEntity
  8
외형선
  6
Continuous
370
    15
100
AcDbSpline
210
0.0
220
0.0
230
1.0
 70
     8
 71
     3
 72
    10
 73
     6
 74
     0
 42
0.000000001
 43
0.00000001
 40
0.0
 40
0.0
 40
0.0
 40
0.0
 40
0.5
 40
0.5
 40
1.0
 40
1.0
 40
1.0
 40
1.0
 10
-20.6375
 20
0.564517243607888
 30
0.0
 10
-20.49043964571278
 20
0.4847036211611773
 30
0.0
 10
-20.34085554895925
 20
0.4019691830453205
 30
0.0
 10
-20.04245714237511
 20
0.2338321957278495
 30
0.0
 10
-19.89504670484764
 20
0.1487105289965598
 30
0.0
 10
-19.74770089872443
 20
0.0633282482161484
 30
0.0
  0
SPLINE
  5
1EE
330
1F
100
AcDbEntity
  8
외형선
  6
Continuous
370
    15
100
AcDbSpline
210
0.0
220
0.0
230
1.0
 70
     8
 71
     3
 72
    10
 73
     6
 74
     0
 42
0.000000001
 43
0.00000001
 40
0.0
 40
0.0
 40
0.0
 40
0.0
 40
0.4999999999999999
 40
0.4999999999999999
 40
1.0
 40
1.0
 40
1.0
 40
1.0
 10
-20.6374999999948
 20
-0.6500548529764707
 30
0.0
 10
-20.49043964570838
 20
-0.6965204037131159
 30
0.0
 10
-20.34085554895574
 20
-0.7404104416814654
 30
0.0
 10
-20.04245714237339
 20
-0.8212369621095128
 30
0.0
 10
-19.89504670484672
 20
-0.8580667082915916
 30
0.0
 10
-19.74770089872443
 20
-0.8910199729071806
 30
0.0
  0
SPLINE
  5
1EF
330
1F
100
AcDbEntity
  8
외형선
  6
Continuous
370
    15
100
AcDbSpline
210
0.0
220
0.0
230
1.0
 70
     8
 71
     3
 72
    10
 73
     6
 74
     0
 42
0.000000001
 43
0.00000001
 40
0.0
 40
0.0
 40
0.0
 40
0.0
 40
0.5
 40
0.5
 40
1.0
 40
1.0
 40
1.0
 40
1.0
 10
-20.6375
 20
-1.585695112678923
 30
0.0
 10
-20.49041640959031
 20
-1.589766683960839
 30
0.0
 10
-20.34080827643765
 20
-1.586931357238811
 30
0.0
 10
-20.04236297054086
 20
-1.567359345755882
 30
0.0
 10
-19.89493177916641
 20
-1.550702154942982
 30
0.0
 10
-19.74756121067243
 20
-1.527411052819328
 30
0.0
  0
LINE
  5
1F0
330
1F
100
AcDbEntity
  8
외형선
  6
Continuous
370
    15
100
AcDbLine
 10
-20.6375
 20
0.5645172436078916
 30
0.0
 11
-20.6375
 21
1.587499999999999
 31
0.0
  0
LINE
  5
1F1
330
1F
100
AcDbEntity
  8
외형선
  6
Continuous
370
    15
100
AcDbLine
 10
-19.74756121067244
 20
1.527411052819325
 30
0.0
 11
-20.50708089384079
 21
1.577153676929207
 31
0.0
  0
LINE
  5
1F2
330
1F
100
AcDbEntity
  8
외형선
  6
Continuous
370
    15
100
AcDbLine
 10
-19.74770089872444
 20
1.587499999999999
 30
0.0
 11
-19.74770089872444
 21
1.5273901786659
 31
0.0
  0
LINE
  5
1F3
330
1F
100
AcDbEntity
  8
외형선
  6
Continuous
370
    15
100
AcDbLine
 10
-20.6375
 20
-1.587500000000002
 30
0.0
 11
-20.6375
 21
-1.58569511267892
 31
0.0
  0
LINE
  5
1F4
330
1F
100
AcDbEntity
  8
외형선
  6
Continuous
370
    15
100
AcDbLine
 10
-19.74770089872443
 20
0.0634276021311848
 30
0.0
 11
-19.74770089872443
 21
-1.587500000000002
 31
0.0
  0
SPLINE
  5
1F5
330
1F
100
AcDbEntity
  8
외형선
  6
Continuous
370
    15
100
AcDbSpline
210
0.0
220
0.0
230
1.0
 70
    24
 71
     3
 72
    14
 73
    10
 74
     0
 42
0.000000001
 43
0.00000001
 40
0.0
 40
0.0
 40
0.0
 40
0.0
 40
0.2500000000000001
 40
0.2500000000000001
 40
0.5000000000000002
 40
0.5000000000000002
 40
0.7500000000000001
 40
0.7500000000000001
 40
1.0
 40
1.0
 40
1.0
 40
1.0
 10
-20.6375
 20
-1.585695112676671
 30
0.0
 10
-20.6375
 20
-1.463666015191439
 30
0.0
 10
-20.6375
 20
-1.339691411341697
 30
0.0
 10
-20.6375
 20
-1.114089526988685
 30
0.0
 10
-20.6375
 20
-1.012906487923541
 30
0.0
 10
-20.6375
 20
-0.8483273219052485
 30
0.0
 10
-20.6375
 20
-0.7847986093177717
 30
0.0
 10
-20.6375
 20
-0.693556072870031
 30
0.0
 10
-20.6375
 20
-0.6655100420428894
 30
0.0
 10
-20.6375
 20
-0.6500548529748293
 30
0.0
  0
SPLINE
  5
1F6
330
1F
100
AcDbEntity
  8
0
  6
Continuous
 62
     1
370
    15
100
AcDbSpline
210
0.0
220
0.0
230
1.0
 70
     8
 71
     3
 72
    31
 73
    27
 74
     0
 42
0.000000001
 43
0.00000001
 40
0.0
 40
0.0
 40
0.0
 40
0.0
 40
0.0295310908455958
 40
0.071891358477594
 40
0.1136959468286992
 40
0.1557909283199362
 40
0.1975918931750219
 40
0.2396828693578871
 40
0.2826688540992701
 40
0.3259701329412238
 40
0.3680724778119889
 40
0.4104712257238342
 40
0.4537864866168366
 40
0.4974251820813122
 40
0.5394667532329235
 40
0.5818048930851346
 40
0.6233699704331238
 40
0.66522239391086
 40
0.7067536372851241
 40
0.7485722361137676
 40
0.7901034938800964
 40
0.8319221739214456
 40
0.8746272203411214
 40
0.9176443588258596
 40
0.9595546111040374
 40
1.0
 40
1.0
 40
1.0
 40
1.0
 10
-34.90401286444153
 20
1.056714105521674
 30
0.0
 10
-34.7961805717602
 20
1.102792809894627
 30
0.0
 10
-34.53367045829548
 20
1.214968166761039
 30
0.0
 10
-34.119168810496
 20
1.355598034997428
 30
0.0
 10
-33.65821925865328
 20
1.477195440312311
 30
0.0
 10
-33.19958826030818
 20
1.556443570516095
 30
0.0
 10
-32.74006945910175
 20
1.592676835996635
 30
0.0
 10
-32.27670321921727
 20
1.584526740851881
 30
0.0
 10
-31.80885815765608
 20
1.530322188928892
 30
0.0
 10
-31.33956896474016
 20
1.432228701497113
 30
0.0
 10
-30.87411401325703
 20
1.29208817680831
 30
0.0
 10
-30.40675963532907
 20
1.117016873303125
 30
0.0
 10
-29.93569664581858
 20
0.9048447441743654
 30
0.0
 10
-29.46407103615009
 20
0.6690602291378767
 30
0.0
 10
-28.99773158892935
 20
0.4132490671258999
 30
0.0
 10
-28.53750254278277
 20
0.1523034203256515
 30
0.0
 10
-28.0791355131089
 20
-0.114379370987983
 30
0.0
 10
-27.6228797921927
 20
-0.3748268256259024
 30
0.0
 10
-27.16617365629726
 20
-0.6262794790065414
 30
0.0
 10
-26.71056667997878
 20
-0.8597474966141512
 30
0.0
 10
-26.25357965993913
 20
-1.069716798304658
 30
0.0
 10
-25.7940606339228
 20
-1.252285412412778
 30
0.0
 10
-25.32804546090205
 20
-1.400697365533553
 30
0.0
 10
-24.86306585966909
 20
-1.508901934019143
 30
0.0
 10
-24.40480463154169
 20
-1.575508552216849
 30
0.0
 10
-24.10463881255336
 20
-1.582949001435448
 30
0.0
 10
-23.95722543431753
 20
-1.586603054247334
 30
0.0
1001
PE_URL
1000

  0
SPLINE
  5
1F7
330
1F
100
AcDbEntity
  8
0
  6
Continuous
 62
     1
370
    15
100
AcDbSpline
210
0.0
220
0.0
230
1.0
 70
     8
 71
     3
 72
    19
 73
    15
 74
     0
 42
0.000000001
 43
0.00000001
 40
0.0
 40
0.0
 40
0.0
 40
0.0
 40
0.088526253688099
 40
0.1782953680984353
 40
0.2680601890026046
 40
0.3578214154418176
 40
0.4475797489873465
 40
0.5373358932491766
 40
0.6270905533816137
 40
0.7168444355865866
 40
0.8065982466153808
 40
0.8963526932695544
 40
0.986108481901773
 40
1.0
 40
1.0
 40
1.0
 40
1.0
 10
-35.52066492963531
 20
1.078724619018075
 30
0.0
 10
-35.24756213149738
 20
1.075680129255598
 30
0.0
 10
-34.69752231964367
 20
1.069548406740996
 30
0.0
 10
-33.87056460918804
 20
0.9376840221462395
 30
0.0
 10
-33.03980055193203
 20
0.7275088972714165
 30
0.0
 10
-32.2090731115855
 20
0.4494778378658246
 30
0.0
 10
-31.37837503275882
 20
0.1312351094610307
 30
0.0
 10
-30.54769920133796
 20
-0.1989885446384356
 30
0.0
 10
-29.71703844934578
 20
-0.5113158547954768
 30
0.0
 10
-28.88638558685567
 20
-0.776686894194011
 30
0.0
 10
-28.05573350038357
 20
-0.9740772781529792
 30
0.0
 10
-27.22507475842471
 20
-1.074299877425393
 30
0.0
 10
-26.62844497534683
 20
-1.100281342528902
 30
0.0
 10
-26.30869984702721
 20
-1.064239299803724
 30
0.0
 10
-26.26584542681132
 20
-1.059408699717647
 30
0.0
1001
PE_URL
1000

  0
SPLINE
  5
1F8
330
1F
100
AcDbEntity
  8
0
  6
Continuous
 62
     1
370
    15
100
AcDbSpline
210
0.0
220
0.0
230
1.0
 70
     8
 71
     3
 72
    14
 73
    10
 74
     0
 42
0.000000001
 43
0.00000001
 40
0.0
 40
0.0
 40
0.0
 40
0.0
 40
0.1077874607887752
 40
0.2168472207895429
 40
0.3838435710706289
 40
0.5556286726155504
 40
0.7234533155297749
 40
0.8902366888464767
 40
1.0
 40
1.0
 40
1.0
 40
1.0
 10
-38.09999999999999
 20
0.6640620271061835
 30
0.0
 10
-37.90231269097597
 20
0.5573172316466781
 30
0.0
 10
-37.50460461590375
 20
0.3425676489052947
 30
0.0
 10
-36.8009269152221
 20
-0.0665849143987671
 30
0.0
 10
-35.97852915025774
 20
-0.5396682501384475
 30
0.0
 10
-35.04854765696511
 20
-1.017170903648125
 30
0.0
 10
-34.11894148591414
 20
-1.370973702845923
 30
0.0
 10
-33.30321385844255
 20
-1.569240212181402
 30
0.0
 10
-32.7955576387986
 20
-1.568099400711329
 30
0.0
 10
-32.59406533849297
 20
-1.567646604668607
 30
0.0
1001
PE_URL
1000

  0
SPLINE
  5
1F9
330
1F
100
AcDbEntity
  8
0
  6
Continuous
 62
     1
370
    15
100
AcDbSpline
210
0.0
220
0.0
230
1.0
 70
     8
 71
     3
 72
    14
 73
    10
 74
     0
 42
0.000000001
 43
0.00000001
 40
0.0
 40
0.0
 40
0.0
 40
0.0
 40
0.0789494682597463
 40
0.2464402420366686
 40
0.4107958141641478
 40
0.579883725707487
 40
0.7447383621188595
 40
0.8713052074238611
 40
1.0
 40
1.0
 40
1.0
 40
1.0
 10
-26.23938355150217
 20
1.056610626110555
 30
0.0
 10
-26.09196354503206
 20
1.122381598217416
 30
0.0
 10
-25.63179297167223
 20
1.327685251836389
 30
0.0
 10
-24.86461440393715
 20
1.526785542543994
 30
0.0
 10
-23.92916350258613
 20
1.619291375675019
 30
0.0
 10
-22.99852056604006
 20
1.52089694820976
 30
0.0
 10
-22.13825038213361
 20
1.270506590986901
 30
0.0
 10
-21.35437731739125
 20
0.9398361948697591
 30
0.0
 10
-20.87778345495953
 20
0.6903169196935721
 30
0.0
 10
-20.6375
 20
0.5645172436078916
 30
0.0
1001
PE_URL
1000

  0
SPLINE
  5
1FA
330
1F
100
AcDbEntity
  8
외형선
  6
Continuous
370
    15
100
AcDbSpline
210
0.0
220
0.0
230
1.0
 70
    24
 71
     3
 72
    14
 73
    10
 74
     0
 42
0.000000001
 43
0.00000001
 40
0.0
 40
0.0
 40
0.0
 40
0.0
 40
0.25
 40
0.25
 40
0.5
 40
0.5
 40
0.75
 40
0.75
 40
1.0
 40
1.0
 40
1.0
 40
1.0
 10
-20.6375
 20
-0.6500548529748293
 30
0.0
 10
-20.6375
 20
-0.5589099253790231
 30
0.0
 10
-20.6375
 20
-0.4554495006782346
 30
0.0
 10
-20.6375
 20
-0.2313143717359587
 30
0.0
 10
-20.6375
 20
-0.1105692293545495
 30
0.0
 10
-20.6375
 20
0.1260782690198603
 30
0.0
 10
-20.6375
 20
0.2414453359045936
 30
0.0
 10
-20.6375
 20
0.4357723374092863
 30
0.0
 10
-20.6375
 20
0.5139781018254652
 30
0.0
 10
-20.6375
 20
0.5645172436075612
 30
0.0
  0
SPLINE
  5
1FB
330
1F
100
AcDbEntity
  8
0
  6
Continuous
 62
     1
370
    15
100
AcDbSpline
210
0.0
220
0.0
230
1.0
 70
     8
 71
     3
 72
    12
 73
     8
 74
     0
 42
0.000000001
 43
0.00000001
 40
0.0
 40
0.0
 40
0.0
 40
0.0
 40
0.2367014216138869
 40
0.4732069674115756
 40
0.6633741627332764
 40
0.8535278651228909
 40
1.0
 40
1.0
 40
1.0
 40
1.0
 10
-39.26251525756016
 20
-0.166437623726388
 30
0.0
 10
-38.91762343205377
 20
-0.297966549179403
 30
0.0
 10
-38.22812518687994
 20
-0.56091555690465
 30
0.0
 10
-37.26154560149457
 20
-0.8516333735770552
 30
0.0
 10
-36.36315991134256
 20
-1.024618789748349
 30
0.0
 10
-35.59583515303213
 20
-1.096916202258196
 30
0.0
 10
-35.10552287427315
 20
-1.068608789394283
 30
0.0
 10
-34.89217892299057
 20
-1.056291709907185
 30
0.0
1001
PE_URL
1000

  0
SPLINE
  5
1FC
330
1F
100
AcDbEntity
  8
0
  6
Continuous
 62
     1
370
    15
100
AcDbSpline
210
0.0
220
0.0
230
1.0
 70
     8
 71
     3
 72
    15
 73
    11
 74
     0
 42
0.000000001
 43
0.00000001
 40
0.0
 40
0.0
 40
0.0
 40
0.0
 40
0.0779167088752016
 40
0.2109695369807915
 40
0.3440264435505951
 40
0.4770884692284723
 40
0.6101566510541034
 40
0.7432320217390074
 40
0.8715977511575587
 40
1.0
 40
1.0
 40
1.0
 40
1.0
 10
-26.88086627777331
 20
1.067510743698858
 30
0.0
 10
-26.71871379633684
 20
1.07240083091774
 30
0.0
 10
-26.27966504257428
 20
1.085641372661048
 30
0.0
 10
-25.56370956308722
 20
0.9975087989451445
 30
0.0
 10
-24.73298882533842
 20
0.8211815594136063
 30
0.0
 10
-23.90223209725806
 20
0.5661508492724217
 30
0.0
 10
-23.07143633395159
 20
0.2606946729059594
 30
0.0
 10
-22.25039823709819
 20
-0.0637230126183823
 30
0.0
 10
-21.43910776921474
 20
-0.3822784733161662
 30
0.0
 10
-20.90472792420764
 20
-0.5607875967976952
 30
0.0
 10
-20.63749999999491
 20
-0.6500548529764352
 30
0.0
1001
PE_URL
1000

  0
SPLINE
  5
1FD
330
1F
100
AcDbEntity
  8
0
  6
Continuous
 62
     1
370
    15
100
AcDbSpline
210
0.0
220
0.0
230
1.0
 70
     8
 71
     3
 72
    22
 73
    18
 74
     0
 42
0.000000001
 43
0.00000001
 40
0.0
 40
0.0
 40
0.0
 40
0.0
 40
0.125
 40
0.125
 40
0.25
 40
0.25
 40
0.375
 40
0.375
 40
0.5
 40
0.5
 40
0.625
 40
0.625
 40
0.75
 40
0.75
 40
0.875
 40
0.875
 40
1.0
 40
1.0
 40
1.0
 40
1.0
 10
-38.09999999999999
 20
0.664062027106187
 30
0.0
 10
-38.18812925918592
 20
0.7103472905038579
 30
0.0
 10
-38.27496514647191
 20
0.7516329149932552
 30
0.0
 10
-38.44820880195747
 20
0.8211889737750404
 30
0.0
 10
-38.53553440089149
 20
0.849718529832586
 30
0.0
 10
-38.70787314664383
 20
0.8865426592317256
 30
0.0
 10
-38.79222646570454
 20
0.8952290465067811
 30
0.0
 10
-38.96147432759344
 20
0.8829697755402144
 30
0.0
 10
-39.04402156931919
 20
0.8618401680694667
 30
0.0
 10
-39.19966299798308
 20
0.7775720530114825
 30
0.0
 10
-39.27203083838962
 20
0.7137340829089425
 30
0.0
 10
-39.38206514097264
 20
0.5442626316430079
 30
0.0
 10
-39.41519133923116
 20
0.4438390072696983
 30
0.0
 10
-39.43190207548115
 20
0.2475125812019421
 30
0.0
 10
-39.41682224599776
 20
0.1549835460825264
 30
0.0
 10
-39.35850491342797
 20
-0.0144840271007851
 30
0.0
 10
-39.31531684771455
 20
-0.092289928877122
 30
0.0
 10
-39.26251525752694
 20
-0.1664376237392382
 30
0.0
1001
PE_URL
1000

  0
SPLINE
  5
1FE
330
1F
100
AcDbEntity
  8
0
  6
Continuous
 62
     1
370
    15
100
AcDbSpline
210
0.0
220
0.0
230
1.0
 70
     8
 71
     3
 72
    21
 73
    17
 74
     0
 42
0.000000001
 43
0.00000001
 40
0.0
 40
0.0
 40
0.0
 40
0.0
 40
0.0315679349617872
 40
0.1077682491009853
 40
0.1839680710750435
 40
0.2601679495816649
 40
0.3363684332795213
 40
0.4125700704095014
 40
0.4887734084165818
 40
0.5649789935728651
 40
0.6411873706023539
 40
0.7173990823080023
 40
0.7953352082826807
 40
0.8732720923700407
 40
0.9512097771979913
 40
1.0
 40
1.0
 40
1.0
 40
1.0
 10
-26.88086627777331
 20
-1.067510743698868
 30
0.0
 10
-26.99557436938339
 20
-1.118896345882572
 30
0.0
 10
-27.38717078535101
 20
-1.294319172337335
 30
0.0
 10
-28.05565108458161
 20
-1.483465632256806
 30
0.0
 10
-28.88630895871222
 20
-1.605732530215867
 30
0.0
 10
-29.71696739446509
 20
-1.576722288311668
 30
0.0
 10
-30.54763381513455
 20
-1.406411822966788
 30
0.0
 10
-31.37831522457562
 20
-1.108262518208448
 30
0.0
 10
-32.20901920369945
 20
-0.7098010588712498
 30
0.0
 10
-33.03975137932797
 20
-0.2470244388636615
 30
0.0
 10
-33.87052452178562
 20
0.2382509316739139
 30
0.0
 10
-34.70757662619672
 20
0.704996985093544
 30
0.0
 10
-35.55098199940451
 20
1.111658106419
 30
0.0
 10
-36.40064200950972
 20
1.409771724092206
 30
0.0
 10
-37.14439266496235
 20
1.574243848692284
 30
0.0
 10
-37.60492172544146
 20
1.571033075133649
 30
0.0
 10
-37.78222533510245
 20
1.569796927861731
 30
0.0
1001
PE_URL
1000

  0
SPLINE
  5
1FF
330
1F
100
AcDbEntity
  8
0
  6
Continuous
 62
     1
370
    15
100
AcDbSpline
210
0.0
220
0.0
230
1.0
 70
     8
 71
     3
 72
     8
 73
     4
 74
     0
 42
0.000000001
 43
0.00000001
 40
0.0
 40
0.0
 40
0.0
 40
0.0
 40
1.0
 40
1.0
 40
1.0
 40
1.0
 10
-38.39610167654802
 20
-0.7106424728898943
 30
0.0
 10
-38.71885045650026
 20
-0.6209301167081271
 30
0.0
 10
-39.04793469010669
 20
-0.519865959244445
 30
0.0
 10
-39.37769183538268
 20
-0.4111490879132909
 30
0.0
1001
PE_URL
1000

  0
SPLINE
  5
200
330
1F
100
AcDbEntity
  8
0
  6
Continuous
 62
     1
370
    15
100
AcDbSpline
210
0.0
220
0.0
230
1.0
 70
     8
 71
     3
 72
    10
 73
     6
 74
     0
 42
0.000000001
 43
0.00000001
 40
0.0
 40
0.0
 40
0.0
 40
0.0
 40
0.5
 40
0.5
 40
1.0
 40
1.0
 40
1.0
 40
1.0
 10
-39.26251525752694
 20
-0.1664376237392382
 30
0.0
 10
-39.29900832081516
 20
-0.1884733783867176
 30
0.0
 10
-39.32814649718674
 20
-0.2219591947295605
 30
0.0
 10
-39.3671275579884
 20
-0.3068395227440917
 30
0.0
 10
-39.37678805711193
 20
-0.3579699194217909
 30
0.0
 10
-39.37769183538268
 20
-0.4111490879132731
 30
0.0
1001
PE_URL
1000

  0
SPLINE
  5
201
330
1F
100
AcDbEntity
  8
외형선
  6
Continuous
370
    15
100
AcDbSpline
210
0.0
220
0.0
230
1.0
 70
    24
 71
     3
 72
    14
 73
    10
 74
     0
 42
0.000000001
 43
0.00000001
 40
0.0
 40
0.0
 40
0.0
 40
0.0
 40
0.25
 40
0.25
 40
0.5
 40
0.5
 40
0.75
 40
0.75
 40
1.0
 40
1.0
 40
1.0
 40
1.0
 10
-20.6375
 20
-1.585695112676671
 30
0.0
 10
-20.6375
 20
-1.463666015191439
 30
0.0
 10
-20.6375
 20
-1.339691411341697
 30
0.0
 10
-20.6375
 20
-1.114089526988685
 30
0.0
 10
-20.6375
 20
-1.012906487923541
 30
0.0
 10
-20.6375
 20
-0.8483273219052485
 30
0.0
 10
-20.6375
 20
-0.7847986093177717
 30
0.0
 10
-20.6375
 20
-0.693556072870031
 30
0.0
 10
-20.6375
 20
-0.6655100420428894
 30
0.0
 10
-20.6375
 20
-0.6500548529748293
 30
0.0
  0
SPLINE
  5
202
330
1F
100
AcDbEntity
  8
0
  6
Continuous
 62
     1
370
    15
100
AcDbSpline
210
0.0
220
0.0
230
1.0
 70
     8
 71
     3
 72
    18
 73
    14
 74
     0
 42
0.000000001
 43
0.00000001
 40
0.0
 40
0.0
 40
0.0
 40
0.0
 40
0.0963138768344272
 40
0.1926144803857718
 40
0.2889035220477616
 40
0.3851827277941742
 40
0.4814538360389225
 40
0.579115223743256
 40
0.6767738756916821
 40
0.7744304923138615
 40
0.8720857754431802
 40
0.9697404278332873
 40
1.0
 40
1.0
 40
1.0
 40
1.0
 10
-20.63750000000001
 20
-1.58569511267892
 30
0.0
 10
-20.91060641046925
 20
-1.564541000738188
 30
0.0
 10
-21.45678159385418
 20
-1.522235692163697
 30
0.0
 10
-22.27596371400948
 20
-1.287271545266691
 30
0.0
 10
-23.09502870080187
 20
-0.9489734326675645
 30
0.0
 10
-23.91399666216369
 20
-0.5244179460559408
 30
0.0
 10
-24.73682775858682
 20
-0.0521940141361696
 30
0.0
 10
-25.56361287336595
 20
0.427556807769907
 30
0.0
 10
-26.39430864416151
 20
0.8700614268409907
 30
0.0
 10
-27.22498716736404
 20
1.236514935834506
 30
0.0
 10
-28.05565117619525
 20
1.480602606657872
 30
0.0
 10
-28.69521992173331
 20
1.594937939120538
 30
0.0
 10
-29.05790184336168
 20
1.576425275293346
 30
0.0
 10
-29.14369839819442
 20
1.572045893023564
 30
0.0
1001
PE_URL
1000

  0
SPLINE
  5
203
330
1F
100
AcDbEntity
  8
0
  6
Continuous
 62
     1
370
    15
100
AcDbSpline
210
0.0
220
0.0
230
1.0
 70
     8
 71
     3
 72
    11
 73
     7
 74
     0
 42
0.000000001
 43
0.00000001
 40
0.0
 40
0.0
 40
0.0
 40
0.0
 40
0.0117516716561773
 40
0.3411643367314053
 40
0.6705803862643916
 40
1.0
 40
1.0
 40
1.0
 40
1.0
 10
-35.52066492963531
 20
-1.078724619018104
 30
0.0
 10
-35.53076872203696
 20
-1.083522056421408
 30
0.0
 10
-35.82409325781641
 20
-1.222797097249195
 30
0.0
 10
-36.4006429748588
 20
-1.405151095414983
 30
0.0
 10
-37.25031723591417
 20
-1.591393114343628
 30
0.0
 10
-37.8167713904939
 20
-1.581720398640183
 30
0.0
 10
-38.09999999999999
 20
-1.576884014624486
 30
0.0
1001
PE_URL
1000

  0
SPLINE
  5
204
330
1F
100
AcDbEntity
  8
0
  6
Continuous
 62
     1
370
    15
100
AcDbSpline
210
0.0
220
0.0
230
1.0
 70
     8
 71
     3
 72
    10
 73
     6
 74
     0
 42
0.000000001
 43
0.00000001
 40
0.0
 40
0.0
 40
0.0
 40
0.0
 40
0.5
 40
0.5
 40
1.0
 40
1.0
 40
1.0
 40
1.0
 10
-38.71858507530899
 20
-1.372859747421057
 30
0.0
 10
-38.62040077253629
 20
-1.432795731937908
 30
0.0
 10
-38.5192272118504
 20
-1.479851412957469
 30
0.0
 10
-38.31274232041095
 20
-1.548319734614015
 30
0.0
 10
-38.20640211458949
 20
-1.569780851254389
 30
0.0
 10
-38.09999999999999
 20
-1.57688401462449
 30
0.0
1001
PE_URL
1000

  0
SPLINE
  5
205
330
1F
100
AcDbEntity
  8
0
  6
Continuous
 62
     1
370
    15
100
AcDbSpline
210
0.0
220
0.0
230
1.0
 70
     8
 71
     3
 72
    14
 73
    10
 74
     0
 42
0.000000001
 43
0.00000001
 40
0.0
 40
0.0
 40
0.0
 40
0.0
 40
0.2499999999999998
 40
0.2499999999999998
 40
0.4999999999999996
 40
0.4999999999999996
 40
0.7499999999999998
 40
0.7499999999999998
 40
1.0
 40
1.0
 40
1.0
 40
1.0
 10
-38.718585075309
 20
-1.37285974742106
 30
0.0
 10
-38.72982257009174
 20
-1.306187900891011
 30
0.0
 10
-38.73485727074819
 20
-1.238282450483108
 30
0.0
 10
-38.72496910598277
 20
-1.100917013523205
 30
0.0
 10
-38.70965481003758
 20
-1.033208267319111
 30
0.0
 10
-38.65362727439109
 20
-0.910087197420097
 30
0.0
 10
-38.61269317170196
 20
-0.8552594923363017
 30
0.0
 10
-38.51389797667893
 20
-0.7677459982602173
 30
0.0
 10
-38.45604126493334
 20
-0.7344628427950468
 30
0.0
 10
-38.3961016765485
 20
-0.7106424728899547
 30
0.0
1001
PE_URL
1000

  0
ARC
  5
206
330
1F
100
AcDbEntity
  8
0
  6
Continuous
 62
     1
370
    15
100
AcDbCircle
 10
-38.92798208599176
 20
0.2759622871941154
 30
0.0
 40
0.8211948005797519
100
AcDbArc
 50
203.8413065654392
 51
236.7955241573193
1001
PE_URL
1000

  0
ARC
  5
207
330
1F
100
AcDbEntity
  8
0
  6
Continuous
 62
     1
370
    15
100
AcDbCircle
 10
-38.25973859996544
 20
-0.0294465866809972
 30
0.0
 40
1.419612273962442
100
AcDbArc
 50
181.0704953244511
 51
251.1422567017301
1001
PE_URL
1000

  0
ENDSEC
  0
SECTION
  2
OBJECTS
  0
DICTIONARY
  5
C
330
0
100
AcDbDictionary
281
     1
  3
ACAD_GROUP
350
D
  3
ACAD_IMAGE_VARS
350
250
  3
ACAD_LAYOUT
350
1A
  3
ACAD_MLINESTYLE
350
17
  3
ACAD_PLOTSETTINGS
350
19
  3
ACAD_PLOTSTYLENAME
350
E
  3
ACAD_SCALELIST
350
47
  3
APPDATA
350
154
  3
DWGPROPS
350
251
  0
DICTIONARY
  5
189
330
2
100
AcDbDictionary
280
     1
281
     1
  3
ACAD_LAYERSTATES
360
18A
  0
DICTIONARY
  5
D
102
{ACAD_REACTORS
330
C
102
}
330
C
100
AcDbDictionary
281
     1
  0
RASTERVARIABLES
  5
250
102
{ACAD_REACTORS
330
C
102
}
330
C
100
AcDbRasterVariables
 90
        0
 70
     1
 71
     1
 72
     1
  0
DICTIONARY
  5
1A
102
{ACAD_REACTORS
330
C
102
}
330
C
100
AcDbDictionary
281
     1
  3
Layout1
350
1E
  3
Layout2
350
26
  3
Model
350
22
  0
DICTIONARY
  5
17
102
{ACAD_REACTORS
330
C
102
}
330
C
100
AcDbDictionary
281
     1
  3
Standard
350
18
  0
DICTIONARY
  5
19
102
{ACAD_REACTORS
330
C
102
}
330
C
100
AcDbDictionary
281
     1
  0
ACDBDICTIONARYWDFLT
  5
E
102
{ACAD_REACTORS
330
C
102
}
330
C
100
AcDbDictionary
281
     1
  3
Normal
350
F
100
AcDbDictionaryWithDefault
340
F
  0
DICTIONARY
  5
47
102
{ACAD_REACTORS
330
C
102
}
330
C
100
AcDbDictionary
281
     1
  3
A0
350
48
  3
A1
350
49
  3
A2
350
4A
  3
A3
350
4B
  3
A4
350
4C
  3
A5
350
4D
  3
A6
350
4E
  3
A7
350
4F
  3
A8
350
50
  3
A9
350
51
  3
B0
350
52
  3
B1
350
53
  3
B2
350
54
  3
B3
350
55
  3
B4
350
56
  3
B5
350
57
  3
B6
350
58
  3
B7
350
59
  3
B8
350
5A
  3
B9
350
5B
  3
C0
350
5C
  3
C1
350
5D
  3
C2
350
5E
  3
C3
350
5F
  3
C4
350
60
  3
C5
350
61
  3
C6
350
62
  3
C7
350
63
  3
C8
350
64
  3
C9
350
65
  3
D0
350
66
  3
D1
350
67
  3
D2
350
68
  0
DICTIONARY
  5
154
102
{ACAD_REACTORS
330
C
102
}
330
C
100
AcDbDictionary
281
     1
  0
XRECORD
  5
251
102
{ACAD_REACTORS
330
C
102
}
330
C
100
AcDbXrecord
280
     1
  1
DWGPROPS COOKIE
  2

  3

  4

  6

  7

  8
12017012
  9

300
=
301
=
302
=
303
=
304
=
305
=
306
=
307
=
308
=
309
=
 40
0.0
 41
2458319.365923785
 42
2458324.123773611
  1

 90
        0
  0
DICTIONARY
  5
18A
102
{ACAD_REACTORS
330
189
102
}
330
189
100
AcDbDictionary
281
     1
  0
LAYOUT
  5
1E
102
{ACAD_REACTORS
330
1A
102
}
330
1A
100
AcDbPlotSettings
  1

  2
none_device
  4

  6

 40
0.0
 41
0.0
 42
0.0
 43
0.0
 44
0.0
 45
0.0
 46
0.0
 47
0.0
 48
0.0
 49
0.0
140
0.0
141
0.0
142
1.0
143
1.0
 70
   688
 72
     1
 73
     0
 74
     5
  7

 75
    16
147
1.0
148
0.0
149
0.0
100
AcDbLayout
  1
Layout1
 70
     1
 71
     1
 10
0.0
 20
0.0
 11
420.0
 21
297.0
 12
0.0
 22
0.0
 32
0.0
 14
1.000000000000000E+20
 24
1.000000000000000E+20
 34
1.000000000000000E+20
 15
-1.000000000000000E+20
 25
-1.000000000000000E+20
 35
-1.000000000000000E+20
146
0.0
 13
0.0
 23
0.0
 33
0.0
 16
1.0
 26
0.0
 36
0.0
 17
0.0
 27
1.0
 37
0.0
 76
     0
330
1B
  0
LAYOUT
  5
26
102
{ACAD_REACTORS
330
1A
102
}
330
1A
100
AcDbPlotSettings
  1

  2
none_device
  4

  6

 40
0.0
 41
0.0
 42
0.0
 43
0.0
 44
0.0
 45
0.0
 46
0.0
 47
0.0
 48
0.0
 49
0.0
140
0.0
141
0.0
142
1.0
143
1.0
 70
   688
 72
     1
 73
     0
 74
     5
  7

 75
    16
147
1.0
148
0.0
149
0.0
100
AcDbLayout
  1
Layout2
 70
     1
 71
     2
 10
0.0
 20
0.0
 11
0.0
 21
0.0
 12
0.0
 22
0.0
 32
0.0
 14
0.0
 24
0.0
 34
0.0
 15
0.0
 25
0.0
 35
0.0
146
0.0
 13
0.0
 23
0.0
 33
0.0
 16
1.0
 26
0.0
 36
0.0
 17
0.0
 27
1.0
 37
0.0
 76
     0
330
23
  0
LAYOUT
  5
22
102
{ACAD_REACTORS
330
1A
102
}
330
1A
100
AcDbPlotSettings
  1

  2
none_device
  4
ANSI_A_(11.00_x_8.50_Inches)
  6

 40
6.35
 41
19.05
 42
6.35000508
 43
19.05000254
 44
279.4
 45
215.9
 46
127.8517803433096
 47
98.28968267110804
 48
0.0
 49
0.0
140
0.0
141
0.0
142
0.0695346282484978
143
1.0
 70
  1696
 72
     0
 73
     0
 74
     0
  7

 75
     0
147
0.0235690232323232
148
0.0
149
0.0
100
AcDbLayout
  1
Model
 70
     1
 71
     0
 10
0.0
 20
0.0
 11
420.0
 21
297.0
 12
0.0
 22
0.0
 32
0.0
 14
-54.06250000000012
 24
-49.97180738881175
 34
0.0
 15
93.13223381534559
 25
36.98524999999997
 35
0.0
146
0.0
 13
0.0
 23
0.0
 33
0.0
 16
1.0
 26
0.0
 36
0.0
 17
0.0
 27
1.0
 37
0.0
 76
     0
330
1F
331
29
  0
MLINESTYLE
  5
18
102
{ACAD_REACTORS
330
17
102
}
330
17
100
AcDbMlineStyle
  2
Standard
 70
     0
  3

 62
   256
 51
90.0
 52
90.0
 71
     2
 49
0.5
 62
   256
  6
BYLAYER
 49
-0.5
 62
   256
  6
BYLAYER
  0
ACDBPLACEHOLDER
  5
F
102
{ACAD_REACTORS
330
E
102
}
330
E
  0
SCALE
  5
48
102
{ACAD_REACTORS
330
47
102
}
330
47
100
AcDbScale
 70
     0
300
1:1
140
1.0
141
1.0
290
     1
  0
SCALE
  5
49
102
{ACAD_REACTORS
330
47
102
}
330
47
100
AcDbScale
 70
     0
300
1:2
140
1.0
141
2.0
290
     0
  0
SCALE
  5
4A
102
{ACAD_REACTORS
330
47
102
}
330
47
100
AcDbScale
 70
     0
300
1:4
140
1.0
141
4.0
290
     0
  0
SCALE
  5
4B
102
{ACAD_REACTORS
330
47
102
}
330
47
100
AcDbScale
 70
     0
300
1:5
140
1.0
141
5.0
290
     0
  0
SCALE
  5
4C
102
{ACAD_REACTORS
330
47
102
}
330
47
100
AcDbScale
 70
     0
300
1:8
140
1.0
141
8.0
290
     0
  0
SCALE
  5
4D
102
{ACAD_REACTORS
330
47
102
}
330
47
100
AcDbScale
 70
     0
300
1:10
140
1.0
141
10.0
290
     0
  0
SCALE
  5
4E
102
{ACAD_REACTORS
330
47
102
}
330
47
100
AcDbScale
 70
     0
300
1:16
140
1.0
141
16.0
290
     0
  0
SCALE
  5
4F
102
{ACAD_REACTORS
330
47
102
}
330
47
100
AcDbScale
 70
     0
300
1:20
140
1.0
141
20.0
290
     0
  0
SCALE
  5
50
102
{ACAD_REACTORS
330
47
102
}
330
47
100
AcDbScale
 70
     0
300
1:30
140
1.0
141
30.0
290
     0
  0
SCALE
  5
51
102
{ACAD_REACTORS
330
47
102
}
330
47
100
AcDbScale
 70
     0
300
1:40
140
1.0
141
40.0
290
     0
  0
SCALE
  5
52
102
{ACAD_REACTORS
330
47
102
}
330
47
100
AcDbScale
 70
     0
300
1:50
140
1.0
141
50.0
290
     0
  0
SCALE
  5
53
102
{ACAD_REACTORS
330
47
102
}
330
47
100
AcDbScale
 70
     0
300
1:100
140
1.0
141
100.0
290
     0
  0
SCALE
  5
54
102
{ACAD_REACTORS
330
47
102
}
330
47
100
AcDbScale
 70
     0
300
2:1
140
2.0
141
1.0
290
     0
  0
SCALE
  5
55
102
{ACAD_REACTORS
330
47
102
}
330
47
100
AcDbScale
 70
     0
300
4:1
140
4.0
141
1.0
290
     0
  0
SCALE
  5
56
102
{ACAD_REACTORS
330
47
102
}
330
47
100
AcDbScale
 70
     0
300
8:1
140
8.0
141
1.0
290
     0
  0
SCALE
  5
57
102
{ACAD_REACTORS
330
47
102
}
330
47
100
AcDbScale
 70
     0
300
10:1
140
10.0
141
1.0
290
     0
  0
SCALE
  5
58
102
{ACAD_REACTORS
330
47
102
}
330
47
100
AcDbScale
 70
     0
300
100:1
140
100.0
141
1.0
290
     0
  0
SCALE
  5
59
102
{ACAD_REACTORS
330
47
102
}
330
47
100
AcDbScale
 70
     0
300
1/128" = 1'-0"
140
0.0078125
141
12.0
290
     0
  0
SCALE
  5
5A
102
{ACAD_REACTORS
330
47
102
}
330
47
100
AcDbScale
 70
     0
300
1/64" = 1'-0"
140
0.015625
141
12.0
290
     0
  0
SCALE
  5
5B
102
{ACAD_REACTORS
330
47
102
}
330
47
100
AcDbScale
 70
     0
300
1/32" = 1'-0"
140
0.03125
141
12.0
290
     0
  0
SCALE
  5
5C
102
{ACAD_REACTORS
330
47
102
}
330
47
100
AcDbScale
 70
     0
300
1/16" = 1'-0"
140
0.0625
141
12.0
290
     0
  0
SCALE
  5
5D
102
{ACAD_REACTORS
330
47
102
}
330
47
100
AcDbScale
 70
     0
300
3/32" = 1'-0"
140
0.09375
141
12.0
290
     0
  0
SCALE
  5
5E
102
{ACAD_REACTORS
330
47
102
}
330
47
100
AcDbScale
 70
     0
300
1/8" = 1'-0"
140
0.125
141
12.0
290
     0
  0
SCALE
  5
5F
102
{ACAD_REACTORS
330
47
102
}
330
47
100
AcDbScale
 70
     0
300
3/16" = 1'-0"
140
0.1875
141
12.0
290
     0
  0
SCALE
  5
60
102
{ACAD_REACTORS
330
47
102
}
330
47
100
AcDbScale
 70
     0
300
1/4" = 1'-0"
140
0.25
141
12.0
290
     0
  0
SCALE
  5
61
102
{ACAD_REACTORS
330
47
102
}
330
47
100
AcDbScale
 70
     0
300
3/8" = 1'-0"
140
0.375
141
12.0
290
     0
  0
SCALE
  5
62
102
{ACAD_REACTORS
330
47
102
}
330
47
100
AcDbScale
 70
     0
300
1/2" = 1'-0"
140
0.5
141
12.0
290
     0
  0
SCALE
  5
63
102
{ACAD_REACTORS
330
47
102
}
330
47
100
AcDbScale
 70
     0
300
3/4" = 1'-0"
140
0.75
141
12.0
290
     0
  0
SCALE
  5
64
102
{ACAD_REACTORS
330
47
102
}
330
47
100
AcDbScale
 70
     0
300
1" = 1'-0"
140
1.0
141
12.0
290
     0
  0
SCALE
  5
65
102
{ACAD_REACTORS
330
47
102
}
330
47
100
AcDbScale
 70
     0
300
1-1/2" = 1'-0"
140
1.5
141
12.0
290
     0
  0
SCALE
  5
66
102
{ACAD_REACTORS
330
47
102
}
330
47
100
AcDbScale
 70
     0
300
3" = 1'-0"
140
3.0
141
12.0
290
     0
  0
SCALE
  5
67
102
{ACAD_REACTORS
330
47
102
}
330
47
100
AcDbScale
 70
     0
300
6" = 1'-0"
140
6.0
141
12.0
290
     0
  0
SCALE
  5
68
102
{ACAD_REACTORS
330
47
102
}
330
47
100
AcDbScale
 70
     0
300
1'-0" = 1'-0"
140
12.0
141
12.0
290
     0
  0
ENDSEC
  0
EOF
