  0
SECTION
  2
HEADER
  9
$ACADVER
  1
AC1015
  9
$ACADMAINTVER
 70
     6
  9
$DWGCODEPAGE
  3
ANSI_949
  9
$INSBASE
 10
0.0
 20
0.0
 30
0.0
  9
$EXTMIN
 10
-57.2375000000001
 20
-49.97180738881175
 30
0.0
  9
$EXTMAX
 10
89.9572338153456
 20
36.98525000000011
 30
0.0
  9
$LIMMIN
 10
0.0
 20
0.0
  9
$LIMMAX
 10
420.0
 20
297.0
  9
$ORTHOMODE
 70
     1
  9
$REGENMODE
 70
     1
  9
$FILLMODE
 70
     1
  9
$QTEXTMODE
 70
     0
  9
$MIRRTEXT
 70
     1
  9
$LTSCALE
 40
1.0
  9
$ATTMODE
 70
     1
  9
$TEXTSIZE
 40
3.5
  9
$TRACEWID
 40
1.0
  9
$TEXTSTYLE
  7
Standard
  9
$CLAYER
  8
0
  9
$CELTYPE
  6
ByLayer
  9
$CECOLOR
 62
   256
  9
$CELTSCALE
 40
1.0
  9
$DISPSILH
 70
     0
  9
$DIMSCALE
 40
1.0
  9
$DIMASZ
 40
3.302
  9
$DIMEXO
 40
1.0
  9
$DIMDLI
 40
3.75
  9
$DIMRND
 40
0.0
  9
$DIMDLE
 40
0.0
  9
$DIMEXE
 40
1.0
  9
$DIMTP
 40
0.0
  9
$DIMTM
 40
0.0
  9
$DIMTXT
 40
3.5
  9
$DIMCEN
 40
2.5
  9
$DIMTSZ
 40
0.0
  9
$DIMTOL
 70
     0
  9
$DIMLIM
 70
     0
  9
$DIMTIH
 70
     1
  9
$DIMTOH
 70
     1
  9
$DIMSE1
 70
     0
  9
$DIMSE2
 70
     0
  9
$DIMTAD
 70
     1
  9
$DIMZIN
 70
     0
  9
$DIMBLK
  1

  9
$DIMASO
 70
     1
  9
$DIMSHO
 70
     1
  9
$DIMPOST
  1

  9
$DIMAPOST
  1

  9
$DIMALT
 70
     0
  9
$DIMALTD
 70
     3
  9
$DIMALTF
 40
0.0393700787401575
  9
$DIMLFAC
 40
1.0
  9
$DIMTOFL
 70
     1
  9
$DIMTVP
 40
0.0
  9
$DIMTIX
 70
     0
  9
$DIMSOXD
 70
     0
  9
$DIMSAH
 70
     0
  9
$DIMBLK1
  1

  9
$DIMBLK2
  1

  9
$DIMSTYLE
  2
ISO-25
  9
$DIMCLRD
 70
     0
  9
$DIMCLRE
 70
     0
  9
$DIMCLRT
 70
     0
  9
$DIMTFAC
 40
1.0
  9
$DIMGAP
 40
1.524
  9
$DIMJUST
 70
     0
  9
$DIMSD1
 70
     0
  9
$DIMSD2
 70
     0
  9
$DIMTOLJ
 70
     0
  9
$DIMTZIN
 70
     0
  9
$DIMALTZ
 70
     0
  9
$DIMALTTZ
 70
     0
  9
$DIMUPT
 70
     0
  9
$DIMDEC
 70
     2
  9
$DIMTDEC
 70
     2
  9
$DIMALTU
 70
     2
  9
$DIMALTTD
 70
     3
  9
$DIMTXSTY
  7
Standard
  9
$DIMAUNIT
 70
     0
  9
$DIMADEC
 70
     2
  9
$DIMALTRND
 40
0.0
  9
$DIMAZIN
 70
     0
  9
$DIMDSEP
 70
    44
  9
$DIMATFIT
 70
     3
  9
$DIMFRAC
 70
     0
  9
$DIMLDRBLK
  1

  9
$DIMLUNIT
 70
     2
  9
$DIMLWD
 70
    -2
  9
$DIMLWE
 70
    -2
  9
$DIMTMOVE
 70
     0
  9
$LUNITS
 70
     2
  9
$LUPREC
 70
     2
  9
$SKETCHINC
 40
1.0
  9
$FILLETRAD
 40
10.0
  9
$AUNITS
 70
     0
  9
$AUPREC
 70
     2
  9
$MENU
  1
.
  9
$ELEVATION
 40
0.0
  9
$PELEVATION
 40
0.0
  9
$THICKNESS
 40
0.0
  9
$LIMCHECK
 70
     0
  9
$CHAMFERA
 40
0.0
  9
$CHAMFERB
 40
0.0
  9
$CHAMFERC
 40
0.0
  9
$CHAMFERD
 40
0.0
  9
$SKPOLY
 70
     0
  9
$TDCREATE
 40
2458319.741770949
  9
$TDUCREATE
 40
2458319.366770949
  9
$TDUPDATE
 40
2458324.498483657
  9
$TDUUPDATE
 40
2458324.123483657
  9
$TDINDWG
 40
0.0013814583
  9
$TDUSRTIMER
 40
2458324.123406111
  9
$USRTIMER
 70
     1
  9
$ANGBASE
 50
0.0
  9
$ANGDIR
 70
     0
  9
$PDMODE
 70
     0
  9
$PDSIZE
 40
-1.0
  9
$PLINEWID
 40
0.0
  9
$SPLFRAME
 70
     0
  9
$SPLINETYPE
 70
     6
  9
$SPLINESEGS
 70
     8
  9
$HANDSEED
  5
222
  9
$SURFTAB1
 70
     6
  9
$SURFTAB2
 70
     6
  9
$SURFTYPE
 70
     6
  9
$SURFU
 70
     6
  9
$SURFV
 70
     6
  9
$UCSBASE
  2

  9
$UCSNAME
  2

  9
$UCSORG
 10
0.0
 20
0.0
 30
0.0
  9
$UCSXDIR
 10
1.0
 20
0.0
 30
0.0
  9
$UCSYDIR
 10
0.0
 20
1.0
 30
0.0
  9
$UCSORTHOREF
  2

  9
$UCSORTHOVIEW
 70
     0
  9
$UCSORGTOP
 10
0.0
 20
0.0
 30
0.0
  9
$UCSORGBOTTOM
 10
0.0
 20
0.0
 30
0.0
  9
$UCSORGLEFT
 10
0.0
 20
0.0
 30
0.0
  9
$UCSORGRIGHT
 10
0.0
 20
0.0
 30
0.0
  9
$UCSORGFRONT
 10
0.0
 20
0.0
 30
0.0
  9
$UCSORGBACK
 10
0.0
 20
0.0
 30
0.0
  9
$PUCSBASE
  2

  9
$PUCSNAME
  2

  9
$PUCSORG
 10
0.0
 20
0.0
 30
0.0
  9
$PUCSXDIR
 10
1.0
 20
0.0
 30
0.0
  9
$PUCSYDIR
 10
0.0
 20
1.0
 30
0.0
  9
$PUCSORTHOREF
  2

  9
$PUCSORTHOVIEW
 70
     0
  9
$PUCSORGTOP
 10
0.0
 20
0.0
 30
0.0
  9
$PUCSORGBOTTOM
 10
0.0
 20
0.0
 30
0.0
  9
$PUCSORGLEFT
 10
0.0
 20
0.0
 30
0.0
  9
$PUCSORGRIGHT
 10
0.0
 20
0.0
 30
0.0
  9
$PUCSORGFRONT
 10
0.0
 20
0.0
 30
0.0
  9
$PUCSORGBACK
 10
0.0
 20
0.0
 30
0.0
  9
$USERI1
 70
     0
  9
$USERI2
 70
     0
  9
$USERI3
 70
     0
  9
$USERI4
 70
     0
  9
$USERI5
 70
     0
  9
$USERR1
 40
0.0
  9
$USERR2
 40
0.0
  9
$USERR3
 40
0.0
  9
$USERR4
 40
0.0
  9
$USERR5
 40
0.0
  9
$WORLDVIEW
 70
     1
  9
$SHADEDGE
 70
     3
  9
$SHADEDIF
 70
    70
  9
$TILEMODE
 70
     1
  9
$MAXACTVP
 70
    64
  9
$PINSBASE
 10
0.0
 20
0.0
 30
0.0
  9
$PLIMCHECK
 70
     0
  9
$PEXTMIN
 10
1.000000000000000E+20
 20
1.000000000000000E+20
 30
1.000000000000000E+20
  9
$PEXTMAX
 10
-1.000000000000000E+20
 20
-1.000000000000000E+20
 30
-1.000000000000000E+20
  9
$PLIMMIN
 10
0.0
 20
0.0
  9
$PLIMMAX
 10
0.0
 20
0.0
  9
$UNITMODE
 70
     0
  9
$VISRETAIN
 70
     1
  9
$PLINEGEN
 70
     0
  9
$PSLTSCALE
 70
     1
  9
$TREEDEPTH
 70
  3020
  9
$CMLSTYLE
  2
Standard
  9
$CMLJUST
 70
     0
  9
$CMLSCALE
 40
20.0
  9
$PROXYGRAPHICS
 70
     1
  9
$MEASUREMENT
 70
     1
  9
$CELWEIGHT
370
    -1
  9
$ENDCAPS
280
     0
  9
$JOINSTYLE
280
     0
  9
$LWDISPLAY
290
     1
  9
$INSUNITS
 70
     4
  9
$HYPERLINKBASE
  1

  9
$STYLESHEET
  1

  9
$XEDIT
290
     1
  9
$CEPSNTYPE
380
     0
  9
$PSTYLEMODE
290
     1
  9
$FINGERPRINTGUID
  2
{EE51014E-EE1B-4EBB-A632-81EECEF8D2BC}
  9
$VERSIONGUID
  2
{FAEB1C32-E019-11D5-929B-00C0DF256EC4}
  9
$EXTNAMES
290
     1
  9
$PSVPSCALE
 40
0.0
  9
$OLESTARTUP
290
     0
  0
ENDSEC
  0
SECTION
  2
CLASSES
  0
CLASS
  1
ACDBDICTIONARYWDFLT
  2
AcDbDictionaryWithDefault
  3
ObjectDBX Classes
 90
        0
280
     0
281
     0
  0
CLASS
  1
VISUALSTYLE
  2
AcDbVisualStyle
  3
ObjectDBX Classes
 90
     4095
280
     0
281
     0
  0
CLASS
  1
MATERIAL
  2
AcDbMaterial
  3
ObjectDBX Classes
 90
     1153
280
     0
281
     0
  0
CLASS
  1
SCALE
  2
AcDbScale
  3
ObjectDBX Classes
 90
     1153
280
     0
281
     0
  0
CLASS
  1
SUN
  2
AcDbSun
  3
SCENEOE
 90
     1153
280
     0
281
     0
  0
CLASS
  1
ACDBPLACEHOLDER
  2
AcDbPlaceHolder
  3
ObjectDBX Classes
 90
        0
280
     0
281
     0
  0
CLASS
  1
LAYOUT
  2
AcDbLayout
  3
ObjectDBX Classes
 90
        0
280
     0
281
     0
  0
CLASS
  1
TABLESTYLE
  2
AcDbTableStyle
  3
ObjectDBX Classes
 90
     4095
280
     0
281
     0
  0
CLASS
  1
MLEADERSTYLE
  2
AcDbMLeaderStyle
  3
ACDB_MLEADERSTYLE_CLASS
 90
     4095
280
     0
281
     0
  0
CLASS
  1
DICTIONARYVAR
  2
AcDbDictionaryVar
  3
ObjectDBX Classes
 90
        0
280
     0
281
     0
  0
CLASS
  1
RASTERVARIABLES
  2
AcDbRasterVariables
  3
ISM
 90
        0
280
     0
281
     0
  0
ENDSEC
  0
SECTION
  2
TABLES
  0
TABLE
  2
VPORT
  5
8
330
0
100
AcDbSymbolTable
 70
     1
  0
VPORT
  5
29
330
8
100
AcDbSymbolTableRecord
100
AcDbViewportTableRecord
  2
*Active
 70
     0
 10
0.0
 20
0.0
 11
1.0
 21
1.0
 12
16.35986690767275
 22
-6.493278694405824
 13
0.0
 23
0.0
 14
10.0
 24
10.0
 15
10.0
 25
10.0
 16
0.0
 26
0.0
 36
1.0
 17
0.0
 27
0.0
 37
0.0
 40
88.69619853658808
 41
1.782762691853601
 42
50.0
 43
0.0
 44
0.0
 50
0.0
 51
0.0
 71
    16
 72
  2000
 73
     1
 74
     3
 75
     0
 76
     0
 77
     0
 78
     0
281
     0
 65
     1
110
0.0
120
0.0
130
0.0
111
1.0
121
0.0
131
0.0
112
0.0
122
1.0
132
0.0
 79
     0
146
0.0
  0
ENDTAB
  0
TABLE
  2
LTYPE
  5
5
330
0
100
AcDbSymbolTable
 70
     6
  0
LTYPE
  5
14
330
5
100
AcDbSymbolTableRecord
100
AcDbLinetypeTableRecord
  2
ByBlock
 70
     0
  3

 72
    65
 73
     0
 40
0.0
  0
LTYPE
  5
15
330
5
100
AcDbSymbolTableRecord
100
AcDbLinetypeTableRecord
  2
ByLayer
 70
     0
  3

 72
    65
 73
     0
 40
0.0
  0
LTYPE
  5
16
330
5
100
AcDbSymbolTableRecord
100
AcDbLinetypeTableRecord
  2
Continuous
 70
     0
  3
Solid line
 72
    65
 73
     0
 40
0.0
  0
LTYPE
  5
6A
330
5
100
AcDbSymbolTableRecord
100
AcDbLinetypeTableRecord
  2
HIDDEN
 70
     0
  3
Hidden __ __ __ __ __ __ __ __ __ __ __ __ __ __
 72
    65
 73
     2
 40
1.905
 49
1.27
 74
     0
 49
-0.635
 74
     0
  0
LTYPE
  5
6B
330
5
100
AcDbSymbolTableRecord
100
AcDbLinetypeTableRecord
  2
PHANTOM
 70
     0
  3
Phantom ______  __  __  ______  __  __  ______
 72
    65
 73
     6
 40
12.7
 49
6.35
 74
     0
 49
-1.27
 74
     0
 49
1.27
 74
     0
 49
-1.27
 74
     0
 49
1.27
 74
     0
 49
-1.27
 74
     0
  0
LTYPE
  5
6C
330
5
100
AcDbSymbolTableRecord
100
AcDbLinetypeTableRecord
  2
CENTER
 70
     0
  3
Center ____ _ ____ _ ____ _ ____ _ ____ _ ____
 72
    65
 73
     4
 40
10.16
 49
6.35
 74
     0
 49
-1.27
 74
     0
 49
1.27
 74
     0
 49
-1.27
 74
     0
  0
LTYPE
  5
6D
330
5
100
AcDbSymbolTableRecord
100
AcDbLinetypeTableRecord
  2
CENTERX2
 70
     0
  3
Center (2x) ________  __  ________  __  _____
 72
    65
 73
     4
 40
20.32
 49
12.7
 74
     0
 49
-2.54
 74
     0
 49
2.54
 74
     0
 49
-2.54
 74
     0
  0
LTYPE
  5
6E
330
5
100
AcDbSymbolTableRecord
100
AcDbLinetypeTableRecord
  2
DOT2
 70
     0
  3
Dot (.5x) ........................................
 72
    65
 73
     2
 40
0.635
 49
0.0
 74
     0
 49
-0.635
 74
     0
  0
ENDTAB
  0
TABLE
  2
LAYER
  5
2
102
{ACAD_XDICTIONARY
360
184
102
}
330
0
100
AcDbSymbolTable
 70
    18
  0
LAYER
  5
10
330
2
100
AcDbSymbolTableRecord
100
AcDbLayerTableRecord
  2
0
 70
     0
 62
     7
  6
Continuous
370
    -3
390
F
  0
LAYER
  5
6F
330
2
100
AcDbSymbolTableRecord
100
AcDbLayerTableRecord
  2
FORMAT
 70
     0
 62
     2
  6
Continuous
370
    -3
390
F
  0
LAYER
  5
70
330
2
100
AcDbSymbolTableRecord
100
AcDbLayerTableRecord
  2
외형선
 70
     0
 62
     4
  6
Continuous
370
    30
390
F
  0
LAYER
  5
71
330
2
100
AcDbSymbolTableRecord
100
AcDbLayerTableRecord
  2
숨은선
 70
     0
 62
     2
  6
HIDDEN
370
    15
390
F
  0
LAYER
  5
72
330
2
100
AcDbSymbolTableRecord
100
AcDbLayerTableRecord
  2
중심선
 70
     0
 62
     1
  6
CENTERX2
370
    -3
390
F
  0
LAYER
  5
73
330
2
100
AcDbSymbolTableRecord
100
AcDbLayerTableRecord
  2
파단선
 70
     0
 62
     4
  6
Continuous
370
    -3
390
F
  0
LAYER
  5
74
330
2
100
AcDbSymbolTableRecord
100
AcDbLayerTableRecord
  2
해칭선
 70
     0
 62
   100
  6
Continuous
370
    -3
390
F
  0
LAYER
  5
75
330
2
100
AcDbSymbolTableRecord
100
AcDbLayerTableRecord
  2
가는실선
 70
     0
 62
     4
  6
Continuous
370
    -3
390
F
  0
LAYER
  5
76
330
2
100
AcDbSymbolTableRecord
100
AcDbLayerTableRecord
  2
치수_보조선
 70
     0
 62
     4
  6
Continuous
370
    -3
390
F
  0
LAYER
  5
77
330
2
100
AcDbSymbolTableRecord
100
AcDbLayerTableRecord
  2
치수문자_일반주서
 70
     0
 62
     7
  6
Continuous
370
    15
390
F
  0
LAYER
  5
78
330
2
100
AcDbSymbolTableRecord
100
AcDbLayerTableRecord
  2
개별주서
 70
     0
 62
   100
  6
Continuous
370
    30
390
F
  0
LAYER
  5
79
330
2
100
AcDbSymbolTableRecord
100
AcDbLayerTableRecord
  2
중간선
 70
     0
 62
     2
  6
Continuous
370
    15
390
F
  0
LAYER
  5
7A
330
2
100
AcDbSymbolTableRecord
100
AcDbLayerTableRecord
  2
윤곽선
 70
     0
 62
     3
  6
Continuous
370
    40
390
F
  0
LAYER
  5
7B
330
2
100
AcDbSymbolTableRecord
100
AcDbLayerTableRecord
  2
중심마크
 70
     0
 62
   100
  6
Continuous
370
    30
390
F
  0
LAYER
  5
7C
330
2
100
AcDbSymbolTableRecord
100
AcDbLayerTableRecord
  2
가상선
 70
     0
 62
     4
  6
PHANTOM
370
    -3
390
F
  0
LAYER
  5
7D
330
2
100
AcDbSymbolTableRecord
100
AcDbLayerTableRecord
  2
특수지정선
 70
     0
 62
     5
  6
CENTERX2
370
    60
390
F
  0
LAYER
  5
7E
330
2
100
AcDbSymbolTableRecord
100
AcDbLayerTableRecord
  2
참조1
 70
     0
 62
    -4
  6
Continuous
370
    -3
390
F
  0
LAYER
  5
14D
330
2
100
AcDbSymbolTableRecord
100
AcDbLayerTableRecord
  2
Defpoints
 70
     0
 62
     7
  6
Continuous
290
     0
370
    -3
390
F
  0
ENDTAB
  0
TABLE
  2
STYLE
  5
3
330
0
100
AcDbSymbolTable
 70
     2
  0
STYLE
  5
11
330
3
100
AcDbSymbolTableRecord
100
AcDbTextStyleTableRecord
  2
Standard
 70
     0
 40
0.0
 41
1.0
 50
0.0
 71
     0
 42
3.5
  3
txt
  4

  0
STYLE
  5
94
330
3
100
AcDbSymbolTableRecord
100
AcDbTextStyleTableRecord
  2
SLDTEXTSTYLE0
 70
     0
 40
0.0
 41
0.75
 50
0.0
 71
     0
 42
3.5
  3
TXT
  4

  0
ENDTAB
  0
TABLE
  2
VIEW
  5
6
330
0
100
AcDbSymbolTable
 70
     0
  0
ENDTAB
  0
TABLE
  2
UCS
  5
7
330
0
100
AcDbSymbolTable
 70
     0
  0
ENDTAB
  0
TABLE
  2
APPID
  5
9
330
0
100
AcDbSymbolTable
 70
     4
  0
APPID
  5
12
330
9
100
AcDbSymbolTableRecord
100
AcDbRegAppTableRecord
  2
ACAD
 70
     0
  0
APPID
  5
154
330
9
100
AcDbSymbolTableRecord
100
AcDbRegAppTableRecord
  2
PE_URL
 70
     0
  0
APPID
  5
1FC
330
9
100
AcDbSymbolTableRecord
100
AcDbRegAppTableRecord
  2
ACAD_DSTYLE_DIMFLIPARROW_SYMBOL
 70
     0
  0
APPID
  5
1FD
330
9
100
AcDbSymbolTableRecord
100
AcDbRegAppTableRecord
  2
ACAD_DSTYLE_DIMFLIPARROW_WHICH_SYMBOL
 70
     0
  0
ENDTAB
  0
TABLE
  2
DIMSTYLE
  5
A
330
0
100
AcDbSymbolTable
 70
     4
100
AcDbDimStyleTable
  0
DIMSTYLE
105
27
330
A
100
AcDbSymbolTableRecord
100
AcDbDimStyleTableRecord
  2
ISO-25
 70
     0
 41
2.5
 42
0.625
 43
3.75
 44
1.25
 73
     0
 74
     0
 77
     1
 78
     8
140
2.5
141
2.5
143
0.03937007874016
147
0.625
171
     3
172
     1
178
     0
271
     2
272
     2
274
     3
278
    44
283
     0
284
     8
340
11
  0
DIMSTYLE
105
CB
102
{ACAD_REACTORS
330
CA
330
DF
330
108
330
F3
102
}
330
A
100
AcDbSymbolTableRecord
100
AcDbDimStyleTableRecord
  2
SLDDIMSTYLE0
 70
     0
 41
3.302
 44
0.0
 45
0.000000001
 73
     0
 74
     0
 77
     1
 78
     4
 79
     1
140
3.5
143
0.0393700787401575
147
0.875
148
0.000000001
170
     1
173
     1
178
     0
271
     2
272
     2
276
     2
284
    12
340
94
  0
DIMSTYLE
105
E0
330
A
100
AcDbSymbolTableRecord
100
AcDbDimStyleTableRecord
  2
SLDDIMSTYLE1
 70
     0
 41
3.302
 44
0.0
 45
0.000000001
 73
     0
 74
     0
 77
     1
 78
    12
 79
     3
140
3.5
143
0.0393700787401575
147
0.875
148
0.000000001
170
     1
173
     1
178
     0
271
     2
272
     2
276
     2
284
    12
340
94
  0
DIMSTYLE
105
F4
330
A
100
AcDbSymbolTableRecord
100
AcDbDimStyleTableRecord
  2
SLDDIMSTYLE2
 70
     0
 41
3.302
 44
0.0
 45
0.000000001
 73
     0
 74
     0
 77
     1
 78
    12
 79
     3
140
3.5
143
0.0393700787401575
147
0.875
148
0.000000001
170
     1
172
     1
173
     1
178
     0
271
     2
272
     2
276
     2
284
    12
289
     0
340
94
  0
ENDTAB
  0
TABLE
  2
BLOCK_RECORD
  5
1
330
0
100
AcDbSymbolTable
 70
     9
  0
BLOCK_RECORD
  5
1F
330
1
100
AcDbSymbolTableRecord
100
AcDbBlockTableRecord
  2
*Model_Space
340
22
  0
BLOCK_RECORD
  5
1B
330
1
100
AcDbSymbolTableRecord
100
AcDbBlockTableRecord
  2
*Paper_Space
340
1E
  0
BLOCK_RECORD
  5
23
330
1
100
AcDbSymbolTableRecord
100
AcDbBlockTableRecord
  2
*Paper_Space0
340
26
  0
BLOCK_RECORD
  5
7F
330
1
100
AcDbSymbolTableRecord
100
AcDbBlockTableRecord
  2
블럭10
340
0
102
{BLKREFS
331
C3
102
}
  0
BLOCK_RECORD
  5
CC
330
1
100
AcDbSymbolTableRecord
100
AcDbBlockTableRecord
  2
_D
340
0
  0
BLOCK_RECORD
  5
E1
330
1
100
AcDbSymbolTableRecord
100
AcDbBlockTableRecord
  2
_D_1
340
0
  0
BLOCK_RECORD
  5
F5
330
1
100
AcDbSymbolTableRecord
100
AcDbBlockTableRecord
  2
_D_2
340
0
  0
BLOCK_RECORD
  5
109
330
1
100
AcDbSymbolTableRecord
100
AcDbBlockTableRecord
  2
_D_3
340
0
  0
BLOCK_RECORD
  5
123
330
1
100
AcDbSymbolTableRecord
100
AcDbBlockTableRecord
  2
SW_DOWELSYMBOL_0
340
0
102
{BLKREFS
331
129
102
}
  0
BLOCK_RECORD
  5
188
330
1
100
AcDbSymbolTableRecord
100
AcDbBlockTableRecord
  2
*D7
340
0
  0
BLOCK_RECORD
  5
19A
330
1
100
AcDbSymbolTableRecord
100
AcDbBlockTableRecord
  2
*D8
340
0
  0
ENDTAB
  0
ENDSEC
  0
SECTION
  2
BLOCKS
  0
BLOCK
  5
20
330
1F
100
AcDbEntity
  8
0
100
AcDbBlockBegin
  2
*Model_Space
 70
     0
 10
0.0
 20
0.0
 30
0.0
  3
*Model_Space
  1
*Model_Space
  0
ENDBLK
  5
21
330
1F
100
AcDbEntity
  8
0
100
AcDbBlockEnd
  0
BLOCK
  5
1C
330
1B
100
AcDbEntity
 67
     1
  8
0
100
AcDbBlockBegin
  2
*Paper_Space
 70
     0
 10
0.0
 20
0.0
 30
0.0
  3
*Paper_Space
  1
*Paper_Space
  0
ENDBLK
  5
1D
330
1B
100
AcDbEntity
 67
     1
  8
0
100
AcDbBlockEnd
  0
BLOCK
  5
24
330
23
100
AcDbEntity
  8
0
100
AcDbBlockBegin
  2
*Paper_Space0
 70
     0
 10
0.0
 20
0.0
 30
0.0
  3
*Paper_Space0
  1
*Paper_Space0
  0
ENDBLK
  5
25
330
23
100
AcDbEntity
  8
0
100
AcDbBlockEnd
  0
BLOCK
  5
80
330
7F
100
AcDbEntity
  8
0
100
AcDbBlockBegin
  2
블럭10
 70
     2
 10
0.0
 20
0.0
 30
0.0
  3
블럭10
  1
블럭10
  0
ELLIPSE
  5
82
330
7F
100
AcDbEntity
  8
중심선
100
AcDbEllipse
 10
20.54032771741204
 20
12.0471743016438
 30
0.0
 11
6.600054785286829
 21
-1.261213355974178E-13
 31
0.0
210
0.0
220
0.0
230
1.0
 40
0.636358354079598
 41
0.9219305317359503
 42
6.513795318482858
  0
ELLIPSE
  5
83
330
7F
100
AcDbEntity
  8
중심선
100
AcDbEllipse
 10
20.54032771746488
 20
12.04717430159265
 30
0.0
 11
3.960054785062283
 21
1.540847449632565E-10
 31
0.0
210
0.0
220
0.0
230
1.0
 40
0.3939339440162632
 41
1.131841032648279
 42
5.62031148352944
  0
LINE
  5
84
330
7F
100
AcDbEntity
  8
중심선
100
AcDbLine
 10
2.268634060543552
 20
16.24717430164393
 30
0.0
 11
5.714909304380834
 21
16.24717430164393
 31
0.0
  0
LINE
  5
85
330
7F
100
AcDbEntity
  8
중심선
100
AcDbLine
 10
5.245725140726316
 20
7.84717430164391
 30
0.0
 11
8.692000384563599
 21
7.84717430164391
 31
0.0
  0
LINE
  5
86
330
7F
100
AcDbEntity
  8
중심선
100
AcDbLine
 10
15.74043728645272
 20
16.24717430164393
 30
0.0
 11
8.692000384563599
 21
7.84717430164391
 31
0.0
  0
LINE
  5
87
330
7F
100
AcDbEntity
  8
중심선
100
AcDbLine
 10
0.1404042013395286
 20
13.71084872107135
 30
0.0
 11
3.58671253028996
 21
13.71088815037384
 31
0.0
  0
LINE
  5
88
330
7F
100
AcDbEntity
  8
중심선
100
AcDbLine
 10
2.750260043222114
 20
10.84717430164391
 30
0.0
 11
6.196535287059397
 21
10.84717430164391
 31
0.0
  0
LINE
  5
89
330
7F
100
AcDbEntity
  8
중심선
100
AcDbLine
 10
12.29416204261559
 20
16.24717430164393
 30
0.0
 11
5.245725140726316
 21
7.84717430164391
 31
0.0
  0
LINE
  5
8A
330
7F
100
AcDbEntity
  8
중심선
100
AcDbLine
 10
10.72767329541681
 20
16.24717430164393
 30
0.0
 11
6.196535287059397
 21
10.84717430164391
 31
0.0
  0
LINE
  5
8B
330
7F
100
AcDbEntity
  8
중심선
100
AcDbLine
 10
7.28139805157953
 20
16.24717430164393
 30
0.0
 11
2.750260043222114
 21
10.84717430164391
 31
0.0
  0
LINE
  5
8C
330
7F
100
AcDbEntity
  8
중심선
100
AcDbLine
 10
5.714909304380834
 20
16.24717430164393
 30
0.0
 11
3.58671253028996
 21
13.71088815037384
 31
0.0
  0
LINE
  5
8D
330
7F
100
AcDbEntity
  8
중심선
100
AcDbLine
 10
2.268634060543552
 20
16.24717430164393
 30
0.0
 11
0.1404042013395286
 21
13.71084872107135
 31
0.0
  0
LINE
  5
8E
330
7F
100
AcDbEntity
  8
중심선
100
AcDbLine
 10
7.28139805157953
 20
16.24717430164393
 30
0.0
 11
10.72767329541681
 21
16.24717430164393
 31
0.0
  0
LINE
  5
8F
330
7F
100
AcDbEntity
  8
중심선
100
AcDbLine
 10
12.29416204261559
 20
16.24717430164393
 30
0.0
 11
15.74043728645272
 21
16.24717430164393
 31
0.0
  0
LINE
  5
90
330
7F
100
AcDbEntity
  8
중심선
100
AcDbLine
 10
19.22036997980202
 20
11.08717430171403
 30
0.0
 11
23.66174974927406
 21
11.08717430171406
 31
0.0
  0
LINE
  5
91
330
7F
100
AcDbEntity
  8
중심선
100
AcDbLine
 10
19.22039502424796
 20
13.00717430171391
 30
0.0
 11
19.22036997980202
 21
11.08717430171403
 31
0.0
  0
LINE
  5
92
330
7F
100
AcDbEntity
  8
중심선
100
AcDbLine
 10
19.22039502424796
 20
13.00717430171391
 30
0.0
 11
26.96566020931264
 21
13.00717430171391
 31
0.0
  0
LINE
  5
93
330
7F
100
AcDbEntity
  8
중심선
100
AcDbLine
 10
22.22332737316547
 20
13.45928029700563
 30
0.0
 11
24.52862924686651
 21
15.39360700705356
 31
0.0
  0
ATTDEF
  5
95
330
7F
100
AcDbEntity
  8
FORMAT
 62
     2
100
AcDbText
 10
4.408487351596664
 20
2.075366912832191
 30
0.0
 40
4.233333333333333
  1
E1015012
 41
0.75
  7
SLDTEXTSTYLE0
 11
4.408487351596664
 21
-0.0412997538344756
 31
0.0
100
AcDbAttributeDefinition
  3

  2
AUTOATTR0
 70
     0
 74
     1
  0
ENDBLK
  5
81
330
7F
100
AcDbEntity
  8
0
100
AcDbBlockEnd
  0
BLOCK
  5
CD
330
CC
100
AcDbEntity
  8
0
100
AcDbBlockBegin
  2
_D
 70
     0
 10
0.0
 20
0.0
 30
0.0
  3
_D
  1
_D
  0
LINE
  5
CF
330
CC
100
AcDbEntity
  8
치수문자_일반주서
 62
     0
370
    -2
100
AcDbLine
 10
42.8625
 20
2.443750000000001
 30
0.0
 11
42.8625
 21
12.38125
 31
0.0
  0
LINE
  5
D0
330
CC
100
AcDbEntity
  8
치수문자_일반주서
 62
     0
370
    -2
100
AcDbLine
 10
17.46250000000001
 20
2.44375
 30
0.0
 11
17.46250000000001
 21
12.38125
 31
0.0
  0
LINE
  5
D1
330
CC
100
AcDbEntity
  8
치수문자_일반주서
 62
     0
370
    -2
100
AcDbLine
 10
42.8625
 20
12.38125
 30
0.0
 11
65.852
 21
12.38125
 31
0.0
  0
LINE
  5
D2
330
CC
100
AcDbEntity
  8
치수문자_일반주서
 62
     0
370
    -2
100
AcDbLine
 10
42.8625
 20
12.38125
 30
0.0
 11
17.46250000000001
 21
12.38125
 31
0.0
  0
LINE
  5
D3
330
CC
100
AcDbEntity
  8
치수문자_일반주서
 62
     0
370
    -2
100
AcDbLine
 10
46.1645
 20
12.38125
 30
0.0
 11
49.4665
 21
12.38125
 31
0.0
  0
LINE
  5
D4
330
CC
100
AcDbEntity
  8
치수문자_일반주서
 62
     0
370
    -2
100
AcDbLine
 10
14.16050000000001
 20
12.38125
 30
0.0
 11
10.85850000000001
 21
12.38125
 31
0.0
  0
SOLID
  5
D5
330
CC
100
AcDbEntity
  8
치수문자_일반주서
 62
     0
100
AcDbTrace
 10
46.1645
 20
12.93158333333333
 30
0.0
 11
46.1645
 21
11.83091666666667
 31
0.0
 12
42.8625
 22
12.38125
 32
0.0
 13
42.8625
 23
12.38125
 33
0.0
  0
SOLID
  5
D6
330
CC
100
AcDbEntity
  8
치수문자_일반주서
 62
     0
100
AcDbTrace
 10
14.16050000000001
 20
11.83091666666667
 30
0.0
 11
14.16050000000001
 21
12.93158333333333
 31
0.0
 12
17.46250000000001
 22
12.38125
 32
0.0
 13
17.46250000000001
 23
12.38125
 33
0.0
  0
MTEXT
  5
D7
330
CC
100
AcDbEntity
  8
치수문자_일반주서
 62
     0
100
AcDbMText
 10
56.00825000000001
 20
16.75625
 30
0.0
 40
3.5
 41
0.0
 71
     2
 72
     1
  1
\A1;25.40 [1]
  7
SLDTEXTSTYLE0
 73
     1
 44
1.0
  0
POINT
  5
D8
330
CC
100
AcDbEntity
  8
Defpoints
 62
     0
100
AcDbPoint
 10
42.8625
 20
2.381250000000001
 30
0.0
  0
POINT
  5
1B5
330
CC
100
AcDbEntity
  8
Defpoints
 62
     0
100
AcDbPoint
 10
17.46250000000001
 20
2.38125
 30
0.0
  0
POINT
  5
1B6
330
CC
100
AcDbEntity
  8
Defpoints
 62
     0
100
AcDbPoint
 10
17.46250000000001
 20
12.38125
 30
0.0
  0
ENDBLK
  5
CE
330
CC
100
AcDbEntity
  8
0
100
AcDbBlockEnd
  0
BLOCK
  5
E2
330
E1
100
AcDbEntity
  8
0
100
AcDbBlockBegin
  2
_D_1
 70
     0
 10
0.0
 20
0.0
 30
0.0
  3
_D_1
  1
_D_1
  0
LINE
  5
E4
330
E1
100
AcDbEntity
  8
치수문자_일반주서
 62
     0
370
    -2
100
AcDbLine
 10
42.8625
 20
2.443750000000001
 30
0.0
 11
42.86250000000001
 21
22.38125
 31
0.0
  0
LINE
  5
E5
330
E1
100
AcDbEntity
  8
치수문자_일반주서
 62
     0
370
    -2
100
AcDbLine
 10
-42.86249999999998
 20
2.443750000000001
 30
0.0
 11
-42.86249999999998
 21
22.38125
 31
0.0
  0
LINE
  5
E6
330
E1
100
AcDbEntity
  8
치수문자_일반주서
 62
     0
370
    -2
100
AcDbLine
 10
39.56050000000001
 20
22.38125
 30
0.0
 11
-39.56049999999998
 21
22.38125
 31
0.0
  0
SOLID
  5
E7
330
E1
100
AcDbEntity
  8
치수문자_일반주서
 62
     0
100
AcDbTrace
 10
39.56050000000001
 20
21.83091666666666
 30
0.0
 11
39.56050000000001
 21
22.93158333333333
 31
0.0
 12
42.86250000000001
 22
22.38125
 32
0.0
 13
42.86250000000001
 23
22.38125
 33
0.0
  0
SOLID
  5
E8
330
E1
100
AcDbEntity
  8
치수문자_일반주서
 62
     0
100
AcDbTrace
 10
-39.56049999999998
 20
22.93158333333333
 30
0.0
 11
-39.56049999999998
 21
21.83091666666666
 31
0.0
 12
-42.86249999999998
 22
22.38125
 32
0.0
 13
-42.86249999999998
 23
22.38125
 33
0.0
  0
MTEXT
  5
E9
330
E1
100
AcDbEntity
  8
치수문자_일반주서
 62
     0
100
AcDbMText
 10
0.3751861539371149
 20
26.75625
 30
0.0
 40
3.5
 41
0.0
 71
     2
 72
     1
  1
\A1;85.73 [3 3/8]
  7
SLDTEXTSTYLE0
 73
     1
 44
1.0
  0
POINT
  5
EA
330
E1
100
AcDbEntity
  8
Defpoints
 62
     0
100
AcDbPoint
 10
42.8625
 20
2.381250000000001
 30
0.0
  0
POINT
  5
EB
330
E1
100
AcDbEntity
  8
Defpoints
 62
     0
100
AcDbPoint
 10
-42.86249999999998
 20
2.381250000000001
 30
0.0
  0
POINT
  5
EC
330
E1
100
AcDbEntity
  8
Defpoints
 62
     0
100
AcDbPoint
 10
-42.86249999999998
 20
22.38125
 30
0.0
  0
ENDBLK
  5
E3
330
E1
100
AcDbEntity
  8
0
100
AcDbBlockEnd
  0
BLOCK
  5
F6
330
F5
100
AcDbEntity
  8
0
100
AcDbBlockBegin
  2
_D_2
 70
     0
 10
0.0
 20
0.0
 30
0.0
  3
_D_2
  1
_D_2
  0
LINE
  5
F8
330
F5
100
AcDbEntity
  8
치수문자_일반주서
 62
     0
370
    -2
100
AcDbLine
 10
-17.52500000000003
 20
2.381249999999999
 30
0.0
 11
-52.8625
 21
2.38124999999987
 31
0.0
  0
LINE
  5
F9
330
F5
100
AcDbEntity
  8
치수문자_일반주서
 62
     0
370
    -2
100
AcDbLine
 10
-17.52500000000003
 20
-2.381250000000003
 30
0.0
 11
-52.86249999999999
 21
-2.381250000000133
 31
0.0
  0
LINE
  5
FA
330
F5
100
AcDbEntity
  8
치수문자_일반주서
 62
     0
370
    -2
100
AcDbLine
 10
-52.8625
 20
2.38124999999987
 30
0.0
 11
-52.86250000000011
 21
36.98524999999997
 31
0.0
  0
LINE
  5
FB
330
F5
100
AcDbEntity
  8
치수문자_일반주서
 62
     0
370
    -2
100
AcDbLine
 10
-52.86250000000001
 20
5.68324999999987
 30
0.0
 11
-52.86250000000002
 21
8.98524999999987
 31
0.0
  0
LINE
  5
FC
330
F5
100
AcDbEntity
  8
치수문자_일반주서
 62
     0
370
    -2
100
AcDbLine
 10
-52.86249999999998
 20
-5.683250000000132
 30
0.0
 11
-52.86249999999998
 21
-8.985250000000132
 31
0.0
  0
SOLID
  5
FD
330
F5
100
AcDbEntity
  8
치수문자_일반주서
 62
     0
100
AcDbTrace
 10
-53.41283333333335
 20
5.683249999999868
 30
0.0
 11
-52.31216666666668
 21
5.683249999999871
 31
0.0
 12
-52.8625
 22
2.38124999999987
 32
0.0
 13
-52.8625
 23
2.38124999999987
 33
0.0
  0
SOLID
  5
FE
330
F5
100
AcDbEntity
  8
치수문자_일반주서
 62
     0
100
AcDbTrace
 10
-52.31216666666665
 20
-5.683250000000131
 30
0.0
 11
-53.41283333333332
 21
-5.683250000000134
 31
0.0
 12
-52.86249999999999
 22
-2.381250000000133
 32
0.0
 13
-52.86249999999999
 23
-2.381250000000133
 33
0.0
  0
MTEXT
  5
FF
330
F5
100
AcDbEntity
  8
치수문자_일반주서
 62
     0
100
AcDbMText
 10
-57.23750000000007
 20
22.98524999999995
 30
0.0
 40
3.5
 41
0.0
 71
     2
 72
     1
  1
\A1;%%c4.76 [3/16]
  7
SLDTEXTSTYLE0
 11
-2.983906501879685E-15
 21
1.0
 31
0.0
 73
     1
 44
1.0
  0
POINT
  5
100
330
F5
100
AcDbEntity
  8
Defpoints
 62
     0
100
AcDbPoint
 10
-17.46250000000003
 20
2.38125
 30
0.0
  0
POINT
  5
101
330
F5
100
AcDbEntity
  8
Defpoints
 62
     0
100
AcDbPoint
 10
-17.46250000000003
 20
-2.381250000000003
 30
0.0
  0
POINT
  5
1B4
330
F5
100
AcDbEntity
  8
Defpoints
 62
     0
100
AcDbPoint
 10
-52.86249999999999
 20
-2.381250000000135
 30
0.0
  0
ENDBLK
  5
F7
330
F5
100
AcDbEntity
  8
0
100
AcDbBlockEnd
  0
BLOCK
  5
10A
330
109
100
AcDbEntity
  8
0
100
AcDbBlockBegin
  2
_D_3
 70
     0
 10
0.0
 20
0.0
 30
0.0
  3
_D_3
  1
_D_3
  0
LINE
  5
10C
330
109
100
AcDbEntity
  8
치수문자_일반주서
 62
     0
370
    -2
100
AcDbLine
 10
42.925
 20
2.381250000000002
 30
0.0
 11
72.27287091285004
 21
2.381250000000112
 31
0.0
  0
LINE
  5
10D
330
109
100
AcDbEntity
  8
치수문자_일반주서
 62
     0
370
    -2
100
AcDbLine
 10
42.925
 20
-2.381249999999997
 30
0.0
 11
72.27287091285005
 21
-2.381249999999888
 31
0.0
  0
LINE
  5
10E
330
109
100
AcDbEntity
  8
치수문자_일반주서
 62
     0
370
    -2
100
AcDbLine
 10
72.27287091285004
 20
2.381250000000112
 30
0.0
 11
72.27287091284994
 21
36.98525000000011
 31
0.0
  0
LINE
  5
10F
330
109
100
AcDbEntity
  8
치수문자_일반주서
 62
     0
370
    -2
100
AcDbLine
 10
72.27287091285002
 20
5.683250000000111
 30
0.0
 11
72.27287091285001
 21
8.98525000000011
 31
0.0
  0
LINE
  5
110
330
109
100
AcDbEntity
  8
치수문자_일반주서
 62
     0
370
    -2
100
AcDbLine
 10
72.27287091285007
 20
-5.683249999999887
 30
0.0
 11
72.27287091285008
 21
-8.985249999999887
 31
0.0
  0
SOLID
  5
111
330
109
100
AcDbEntity
  8
치수문자_일반주서
 62
     0
100
AcDbTrace
 10
71.7225375795167
 20
5.683250000000109
 30
0.0
 11
72.82320424618335
 21
5.683250000000113
 31
0.0
 12
72.27287091285004
 22
2.381250000000112
 32
0.0
 13
72.27287091285004
 23
2.381250000000112
 33
0.0
  0
SOLID
  5
112
330
109
100
AcDbEntity
  8
치수문자_일반주서
 62
     0
100
AcDbTrace
 10
72.8232042461834
 20
-5.683249999999886
 30
0.0
 11
71.72253757951674
 21
-5.683249999999889
 31
0.0
 12
72.27287091285005
 22
-2.381249999999888
 32
0.0
 13
72.27287091285005
 23
-2.381249999999888
 33
0.0
  0
MTEXT
  5
113
330
109
100
AcDbEntity
  8
치수문자_일반주서
 62
     0
100
AcDbMText
 10
67.89787091284998
 20
22.9852500000001
 30
0.0
 40
3.5
 41
0.0
 71
     2
 72
     1
  1
\A1;%%c4.76 [3/16]
  7
SLDTEXTSTYLE0
 11
-2.983906501879686E-15
 21
1.0
 31
0.0
 73
     1
 44
1.0
  0
POINT
  5
114
330
109
100
AcDbEntity
  8
Defpoints
 62
     0
100
AcDbPoint
 10
42.8625
 20
2.381250000000001
 30
0.0
  0
POINT
  5
115
330
109
100
AcDbEntity
  8
Defpoints
 62
     0
100
AcDbPoint
 10
42.8625
 20
-2.381249999999998
 30
0.0
  0
POINT
  5
116
330
109
100
AcDbEntity
  8
Defpoints
 62
     0
100
AcDbPoint
 10
72.27287091285007
 20
-2.381249999999888
 30
0.0
  0
ENDBLK
  5
10B
330
109
100
AcDbEntity
  8
0
100
AcDbBlockEnd
  0
BLOCK
  5
124
330
123
100
AcDbEntity
  8
0
100
AcDbBlockBegin
  2
SW_DOWELSYMBOL_0
 70
     0
 10
0.0
 20
0.0
 30
0.0
  3
SW_DOWELSYMBOL_0
  1
SW_DOWELSYMBOL_0
  0
CIRCLE
  5
126
330
123
100
AcDbEntity
  8
해칭선
 62
     0
100
AcDbCircle
 10
0.0
 20
0.0
 30
0.0
 40
3.000000000000001
  0
HATCH
  5
127
330
123
100
AcDbEntity
  8
0
  6
Continuous
 62
     0
370
     0
100
AcDbHatch
 10
0.0
 20
0.0
 30
0.0
210
0.0
220
0.0
230
1.0
  2
SOLID
 70
     1
 71
     0
 91
        1
 92
        0
 93
        3
 72
     2
 10
0.0
 20
0.0
 40
3.000000000000001
 50
0.0
 51
90.0
 73
     1
 72
     1
 10
0.0
 20
3.000000000000001
 11
0.0
 21
0.0
 72
     1
 10
0.0
 20
0.0
 11
3.000000000000001
 21
0.0
 97
        0
 75
     0
 76
     1
 98
        1
 10
0.0
 20
0.0
  0
HATCH
  5
128
330
123
100
AcDbEntity
  8
0
  6
Continuous
 62
     0
370
     0
100
AcDbHatch
 10
0.0
 20
0.0
 30
0.0
210
0.0
220
0.0
230
1.0
  2
SOLID
 70
     1
 71
     0
 91
        1
 92
        0
 93
        3
 72
     2
 10
0.0
 20
0.0
 40
3.000000000000001
 50
180.0
 51
270.0000000000007
 73
     1
 72
     1
 10
0.0
 20
-3.000000000000001
 11
0.0
 21
0.0
 72
     1
 10
0.0
 20
0.0
 11
-3.000000000000001
 21
0.0
 97
        0
 75
     0
 76
     1
 98
        1
 10
0.0
 20
0.0
  0
ENDBLK
  5
125
330
123
100
AcDbEntity
  8
0
100
AcDbBlockEnd
  0
BLOCK
  5
189
330
188
100
AcDbEntity
  8
0
100
AcDbBlockBegin
  2
*D7
 70
     1
 10
0.0
 20
0.0
 30
0.0
  3
*D7
  1
*D7
  0
LINE
  5
18B
330
188
100
AcDbEntity
  8
치수문자_일반주서
 62
     0
370
    -2
100
AcDbLine
 10
25.65399999999999
 20
3.219796927861744
 30
0.0
 11
25.65399999999999
 21
13.95104692786173
 31
0.0
  0
LINE
  5
18C
330
188
100
AcDbEntity
  8
치수문자_일반주서
 62
     0
370
    -2
100
AcDbLine
 10
6.603999999999999
 20
3.21799204054066
 30
0.0
 11
6.603999999999999
 21
13.95104692786173
 31
0.0
  0
LINE
  5
18D
330
188
100
AcDbEntity
  8
치수문자_일반주서
 62
     0
370
    -2
100
AcDbLine
 10
25.65399999999999
 20
13.95104692786173
 30
0.0
 11
54.11224999999998
 21
13.95104692786173
 31
0.0
  0
LINE
  5
18E
330
188
100
AcDbEntity
  8
치수문자_일반주서
 62
     0
370
    -2
100
AcDbLine
 10
25.65399999999999
 20
13.95104692786173
 30
0.0
 11
6.603999999999999
 21
13.95104692786173
 31
0.0
  0
LINE
  5
18F
330
188
100
AcDbEntity
  8
치수문자_일반주서
 62
     0
370
    -2
100
AcDbLine
 10
28.95599999999999
 20
13.95104692786173
 30
0.0
 11
32.25799999999999
 21
13.95104692786173
 31
0.0
  0
LINE
  5
190
330
188
100
AcDbEntity
  8
치수문자_일반주서
 62
     0
370
    -2
100
AcDbLine
 10
3.302
 20
13.95104692786173
 30
0.0
 11
0.0
 21
13.95104692786173
 31
0.0
  0
SOLID
  5
191
330
188
100
AcDbEntity
  8
치수문자_일반주서
 62
     0
100
AcDbTrace
 10
28.95599999999999
 20
14.50138026119506
 30
0.0
 11
28.95599999999999
 21
13.4007135945284
 31
0.0
 12
25.65399999999999
 22
13.95104692786173
 32
0.0
 13
25.65399999999999
 23
13.95104692786173
 33
0.0
  0
SOLID
  5
192
330
188
100
AcDbEntity
  8
치수문자_일반주서
 62
     0
100
AcDbTrace
 10
3.302
 20
13.4007135945284
 30
0.0
 11
3.302
 21
14.50138026119506
 31
0.0
 12
6.603999999999999
 22
13.95104692786173
 32
0.0
 13
6.603999999999999
 23
13.95104692786173
 33
0.0
  0
MTEXT
  5
193
330
188
100
AcDbEntity
  8
치수문자_일반주서
 62
     0
100
AcDbMText
 10
41.64349999999998
 20
18.32604692786173
 30
0.0
 40
3.5
 41
0.0
 71
     2
 72
     1
  1
\A1;19.05 [3/4]
  7
SLDTEXTSTYLE0
 73
     1
 44
1.0
  0
POINT
  5
194
330
188
100
AcDbEntity
  8
Defpoints
 62
     0
100
AcDbPoint
 10
25.65399999999999
 20
3.157296927861744
 30
0.0
  0
POINT
  5
195
330
188
100
AcDbEntity
  8
Defpoints
 62
     0
100
AcDbPoint
 10
6.603999999999999
 20
3.15549204054066
 30
0.0
  0
POINT
  5
196
330
188
100
AcDbEntity
  8
Defpoints
 62
     0
100
AcDbPoint
 10
6.603999999999999
 20
13.95104692786173
 30
0.0
  0
ENDBLK
  5
18A
330
188
100
AcDbEntity
  8
0
100
AcDbBlockEnd
  0
BLOCK
  5
19B
330
19A
100
AcDbEntity
  8
0
100
AcDbBlockBegin
  2
*D8
 70
     1
 10
0.0
 20
0.0
 30
0.0
  3
*D8
  1
*D8
  0
LINE
  5
19D
330
19A
100
AcDbEntity
  8
치수문자_일반주서
 62
     0
370
    -2
100
AcDbLine
 10
65.83936953539575
 20
-30.36517954341328
 30
0.0
 11
65.83936953539575
 21
-19.63392954341329
 31
0.0
  0
LINE
  5
19E
330
19A
100
AcDbEntity
  8
치수문자_일반주서
 62
     0
370
    -2
100
AcDbLine
 10
46.78936953539576
 20
-30.36698443073436
 30
0.0
 11
46.78936953539576
 21
-19.63392954341329
 31
0.0
  0
LINE
  5
19F
330
19A
100
AcDbEntity
  8
치수문자_일반주서
 62
     0
370
    -2
100
AcDbLine
 10
65.83936953539575
 20
-19.63392954341329
 30
0.0
 11
94.29761953539574
 21
-19.63392954341329
 31
0.0
  0
LINE
  5
1A0
330
19A
100
AcDbEntity
  8
치수문자_일반주서
 62
     0
370
    -2
100
AcDbLine
 10
65.83936953539575
 20
-19.63392954341329
 30
0.0
 11
46.78936953539576
 21
-19.63392954341329
 31
0.0
  0
LINE
  5
1A1
330
19A
100
AcDbEntity
  8
치수문자_일반주서
 62
     0
370
    -2
100
AcDbLine
 10
69.14136953539574
 20
-19.63392954341329
 30
0.0
 11
72.44336953539573
 21
-19.63392954341329
 31
0.0
  0
LINE
  5
1A2
330
19A
100
AcDbEntity
  8
치수문자_일반주서
 62
     0
370
    -2
100
AcDbLine
 10
43.48736953539576
 20
-19.63392954341329
 30
0.0
 11
40.18536953539576
 21
-19.63392954341329
 31
0.0
  0
SOLID
  5
1A3
330
19A
100
AcDbEntity
  8
치수문자_일반주서
 62
     0
100
AcDbTrace
 10
69.14136953539574
 20
-19.08359621007995
 30
0.0
 11
69.14136953539574
 21
-20.18426287674662
 31
0.0
 12
65.83936953539575
 22
-19.63392954341329
 32
0.0
 13
65.83936953539575
 23
-19.63392954341329
 33
0.0
  0
SOLID
  5
1A4
330
19A
100
AcDbEntity
  8
치수문자_일반주서
 62
     0
100
AcDbTrace
 10
43.48736953539576
 20
-20.18426287674662
 30
0.0
 11
43.48736953539576
 21
-19.08359621007995
 31
0.0
 12
46.78936953539576
 22
-19.63392954341329
 32
0.0
 13
46.78936953539576
 23
-19.63392954341329
 33
0.0
  0
MTEXT
  5
1A5
330
19A
100
AcDbEntity
  8
치수문자_일반주서
 62
     0
100
AcDbMText
 10
81.82886953539574
 20
-15.25892954341329
 30
0.0
 40
3.5
 41
0.0
 71
     2
 72
     1
  1
\A1;19.05 [3/4]
  7
SLDTEXTSTYLE0
 73
     1
 44
1.0
  0
POINT
  5
1A6
330
19A
100
AcDbEntity
  8
Defpoints
 62
     0
100
AcDbPoint
 10
65.83936953539575
 20
-30.42767954341328
 30
0.0
  0
POINT
  5
1A7
330
19A
100
AcDbEntity
  8
Defpoints
 62
     0
100
AcDbPoint
 10
46.78936953539576
 20
-30.42948443073436
 30
0.0
  0
POINT
  5
1A8
330
19A
100
AcDbEntity
  8
Defpoints
 62
     0
100
AcDbPoint
 10
46.78936953539576
 20
-19.63392954341329
 30
0.0
  0
ENDBLK
  5
19C
330
19A
100
AcDbEntity
  8
0
100
AcDbBlockEnd
  0
ENDSEC
  0
SECTION
  2
ENTITIES
  0
LINE
  5
96
330
1F
100
AcDbEntity
  8
외형선
  6
Continuous
370
    15
100
AcDbLine
 10
17.4625
 20
2.381250000000002
 30
0.0
 11
-17.46250000000003
 21
2.381249999999998
 31
0.0
  0
LINE
  5
97
330
1F
100
AcDbEntity
  8
외형선
  6
Continuous
370
    15
100
AcDbLine
 10
-17.46250000000003
 20
-2.381250000000003
 30
0.0
 11
17.4625
 21
-2.381249999999999
 31
0.0
  0
LINE
  5
9A
330
1F
100
AcDbEntity
  8
0
  6
Continuous
 62
     1
370
    15
100
AcDbLine
 10
40.00495715719178
 20
-2.381249999999998
 30
0.0
 11
40.48125
 21
-2.381249999999998
 31
0.0
1001
PE_URL
1000

  0
LINE
  5
9B
330
1F
100
AcDbEntity
  8
0
  6
Continuous
 62
     1
370
    15
100
AcDbLine
 10
17.4625
 20
-2.381249999999998
 30
0.0
 11
19.2665067175993
 21
-2.381249999999998
 31
0.0
1001
PE_URL
1000

  0
LINE
  5
9C
330
1F
100
AcDbEntity
  8
0
  6
Continuous
 62
     1
370
    15
100
AcDbLine
 10
32.22324046638595
 20
2.381250000000001
 30
0.0
 11
27.04778653836521
 21
2.381250000000001
 31
0.0
1001
PE_URL
1000

  0
LINE
  5
9D
330
1F
100
AcDbEntity
  8
0
  6
Continuous
 62
     1
370
    15
100
AcDbLine
 10
27.04778653836518
 20
-2.381249999999998
 30
0.0
 11
32.22324046638594
 21
-2.381249999999998
 31
0.0
1001
PE_URL
1000

  0
LINE
  5
9E
330
1F
100
AcDbEntity
  8
0
  6
Continuous
 62
     1
370
    15
100
AcDbLine
 10
19.2665067175993
 20
2.381250000000001
 30
0.0
 11
17.4625
 21
2.381250000000001
 31
0.0
1001
PE_URL
1000

  0
LINE
  5
9F
330
1F
100
AcDbEntity
  8
0
  6
Continuous
 62
     1
370
    15
100
AcDbLine
 10
40.48125
 20
2.381250000000001
 30
0.0
 11
40.0049571571918
 21
2.381250000000001
 31
0.0
1001
PE_URL
1000

  0
ARC
  5
A0
330
1F
100
AcDbEntity
  8
0
  6
Continuous
 62
     1
370
    15
100
AcDbCircle
 10
40.48125
 20
0.0000000000000018
 30
0.0
 40
2.381249999999998
100
AcDbArc
 50
270.0000000000007
 51
0.0
1001
PE_URL
1000

  0
ARC
  5
A1
330
1F
100
AcDbEntity
  8
0
  6
Continuous
 62
     1
370
    15
100
AcDbCircle
 10
40.48125
 20
0.0000000000000018
 30
0.0
 40
2.381249999999998
100
AcDbArc
 50
0.0
 51
90.0
1001
PE_URL
1000

  0
SPLINE
  5
A2
330
1F
100
AcDbEntity
  8
외형선
  6
Continuous
370
    15
100
AcDbSpline
210
0.0
220
0.0
230
1.0
 70
     8
 71
     3
 72
     8
 73
     4
 74
     0
 42
0.000000001
 43
0.00000001
 40
0.0
 40
0.0
 40
0.0
 40
0.0
 40
1.0
 40
1.0
 40
1.0
 40
1.0
 10
17.46250000000001
 20
1.628596063511588
 30
0.0
 10
17.16397468640556
 20
1.753930403237428
 30
0.0
 10
16.87058449217813
 20
1.865872305960271
 30
0.0
 10
16.57258430576316
 20
1.96305791292598
 30
0.0
  0
LINE
  5
A3
330
1F
100
AcDbEntity
  8
외형선
  6
Continuous
370
    15
100
AcDbLine
 10
16.57277780821991
 20
-1.891148921428801
 30
0.0
 11
16.57277780821991
 21
1.96312529323538
 31
0.0
  0
SPLINE
  5
A4
330
1F
100
AcDbEntity
  8
외형선
  6
Continuous
370
    15
100
AcDbSpline
210
0.0
220
0.0
230
1.0
 70
     8
 71
     3
 72
     8
 73
     4
 74
     0
 42
0.000000001
 43
0.00000001
 40
0.0
 40
0.0
 40
0.0
 40
0.0
 40
1.0
 40
1.0
 40
1.0
 40
1.0
 10
17.4625
 20
-2.157209705944045
 30
0.0
 10
17.16403930100325
 20
-2.08447664651555
 30
0.0
 10
16.87071241150723
 20
-1.995383555780837
 30
0.0
 10
16.57277780821991
 20
-1.891062537766362
 30
0.0
  0
LINE
  5
A5
330
1F
100
AcDbEntity
  8
외형선
  6
Continuous
370
    15
100
AcDbLine
 10
17.4625
 20
-2.157209705944044
 30
0.0
 11
17.4625
 21
-2.381249999999999
 31
0.0
  0
LINE
  5
A6
330
1F
100
AcDbEntity
  8
외형선
  6
Continuous
370
    15
100
AcDbLine
 10
17.4625
 20
2.381250000000002
 30
0.0
 11
17.4625
 21
1.628596063511595
 31
0.0
  0
SPLINE
  5
A9
330
1F
100
AcDbEntity
  8
외형선
  6
Continuous
370
    15
100
AcDbSpline
210
0.0
220
0.0
230
1.0
 70
     8
 71
     3
 72
     8
 73
     4
 74
     0
 42
0.000000001
 43
0.00000001
 40
0.0
 40
0.0
 40
0.0
 40
0.0
 40
1.0
 40
1.0
 40
1.0
 40
1.0
 10
17.4625
 20
-0.2019201756488621
 30
0.0
 10
17.16403930100325
 20
-0.0858643861154912
 30
0.0
 10
16.87071241150723
 20
0.0310949163241012
 30
0.0
 10
16.57277780821991
 20
0.1475076384907503
 30
0.0
  0
SPLINE
  5
AA
330
1F
100
AcDbEntity
  8
외형선
  6
Continuous
370
    15
100
AcDbSpline
210
0.0
220
0.0
230
1.0
 70
    24
 71
     3
 72
    14
 73
    10
 74
     0
 42
0.000000001
 43
0.00000001
 40
0.0
 40
0.0
 40
0.0
 40
0.0
 40
0.25
 40
0.25
 40
0.5
 40
0.5
 40
0.75
 40
0.75
 40
1.0
 40
1.0
 40
1.0
 40
1.0
 10
17.4625
 20
1.628596063509134
 30
0.0
 10
17.4625
 20
1.495687374294359
 30
0.0
 10
17.4625
 20
1.335547442612437
 30
0.0
 10
17.4625
 20
0.9945222032924503
 30
0.0
 10
17.4625
 20
0.8145487839647501
 30
0.0
 10
17.4625
 20
0.4725664926688409
 30
0.0
 10
17.4625
 20
0.3109185790912307
 30
0.0
 10
17.4625
 20
0.0258433740297583
 30
0.0
 10
17.4625
 20
-0.0978310101253269
 30
0.0
 10
17.4625
 20
-0.2019201756488618
 30
0.0
  0
SPLINE
  5
AB
330
1F
100
AcDbEntity
  8
외형선
  6
Continuous
370
    15
100
AcDbSpline
210
0.0
220
0.0
230
1.0
 70
    24
 71
     3
 72
    14
 73
    10
 74
     0
 42
0.000000001
 43
0.00000001
 40
0.0
 40
0.0
 40
0.0
 40
0.0
 40
0.25
 40
0.25
 40
0.5
 40
0.5
 40
0.75
 40
0.75
 40
1.0
 40
1.0
 40
1.0
 40
1.0
 10
17.4625
 20
-0.201920175648861
 30
0.0
 10
17.4625
 20
-0.2757840643949945
 30
0.0
 10
17.4625
 20
-0.3735199553719342
 30
0.0
 10
17.4625
 20
-0.6265845748228737
 30
0.0
 10
17.4625
 20
-0.7824734545338318
 30
0.0
 10
17.4625
 20
-1.142037735888175
 30
0.0
 10
17.4625
 20
-1.345589558958303
 30
0.0
 10
17.4625
 20
-1.759927797387225
 30
0.0
 10
17.4625
 20
-1.969509050581791
 30
0.0
 10
17.4625
 20
-2.15720970594283
 30
0.0
  0
SPLINE
  5
AC
330
1F
100
AcDbEntity
  8
0
  6
Continuous
 62
     1
370
    15
100
AcDbSpline
210
0.0
220
0.0
230
1.0
 70
     8
 71
     3
 72
    31
 73
    27
 74
     0
 42
0.000000001
 43
0.00000001
 40
0.0
 40
0.0
 40
0.0
 40
0.0
 40
0.0291836253078207
 40
0.071502133764361
 40
0.1131815368794385
 40
0.1551507353353764
 40
0.1980126789751652
 40
0.2411885483022546
 40
0.2832035504390798
 40
0.3255131803801283
 40
0.367259413896611
 40
0.409294677555066
 40
0.4522233110561394
 40
0.4954678191499815
 40
0.5374355908839331
 40
0.5797001147569094
 40
0.6214335234428333
 40
0.6634572046730565
 40
0.7051905033672212
 40
0.747213063712872
 40
0.7889465636986043
 40
0.830968675785608
 40
0.8738821193082753
 40
0.9171099499875076
 40
0.9591477605519534
 40
1.0
 40
1.0
 40
1.0
 40
1.0
 10
35.68758334258317
 20
-1.584612842020731
 30
0.0
 10
35.52786279223052
 20
-1.653168227164866
 30
0.0
 10
35.13653512009339
 20
-1.821134210387984
 30
0.0
 10
34.51733565984085
 20
-2.031154002781316
 30
0.0
 10
33.82708944195889
 20
-2.213662543005225
 30
0.0
 10
33.13552159569316
 20
-2.334520764222611
 30
0.0
 10
32.43391851124652
 20
-2.389733924832002
 30
0.0
 10
31.73353422818419
 20
-2.375850972395073
 30
0.0
 10
31.03566004012719
 20
-2.293758165016081
 30
0.0
 10
30.34507532439279
 20
-2.148904223632882
 30
0.0
 10
29.65572683268522
 20
-1.942784946663167
 30
0.0
 10
28.9611768596334
 20
-1.683155336187522
 30
0.0
 10
28.26014714949428
 20
-1.370058956833091
 30
0.0
 10
27.5584319973209
 20
-1.01849600811464
 30
0.0
 10
26.86044334606689
 20
-0.639778411317672
 30
0.0
 10
26.17163224263403
 20
-0.246018577861878
 30
0.0
 10
25.48086478232687
 20
0.1518693042697041
 30
0.0
 10
24.79487183926725
 20
0.5471041113428713
 30
0.0
 10
24.10570276904483
 20
0.925314927338553
 30
0.0
 10
23.41906637379039
 20
1.27866972784916
 30
0.0
 10
22.73092431032688
 20
1.597212596973286
 30
0.0
 10
22.03683661775262
 20
1.87210820168694
 30
0.0
 10
21.33620043682341
 20
2.098624755029437
 30
0.0
 10
20.63369092018557
 20
2.261171066427812
 30
0.0
 10
19.94388461198592
 20
2.363180407083719
 30
0.0
 10
19.49013603671838
 20
2.374519931333412
 30
0.0
 10
19.2665067175993
 20
2.380108599210986
 30
0.0
1001
PE_URL
1000

  0
SPLINE
  5
AD
330
1F
100
AcDbEntity
  8
0
  6
Continuous
 62
     1
370
    15
100
AcDbSpline
210
0.0
220
0.0
230
1.0
 70
     8
 71
     3
 72
    21
 73
    17
 74
     0
 42
0.000000001
 43
0.00000001
 40
0.0
 40
0.0
 40
0.0
 40
0.0
 40
0.0230536451025058
 40
0.1020031620527951
 40
0.1809522217632492
 40
0.2599041012638159
 40
0.3388620720604915
 40
0.4178293937382717
 40
0.4968093076133855
 40
0.575805030460884
 40
0.654819748343114
 40
0.7338446452096974
 40
0.8128505766388988
 40
0.8918389170893107
 40
0.9708128669518112
 40
0.9999999999999999
 40
0.9999999999999999
 40
0.9999999999999999
 40
0.9999999999999999
 10
36.60912134120804
 20
-1.607425894605426
 30
0.0
 10
36.50253561432344
 20
-1.61311816225821
 30
0.0
 10
36.03093638896963
 20
-1.638304170685647
 30
0.0
 10
35.19433184486444
 20
-1.567725656501557
 30
0.0
 10
34.09928916840809
 20
-1.396813842181749
 30
0.0
 10
33.0042040922765
 20
-1.119552624951695
 30
0.0
 10
31.90902615495595
 20
-0.7660358110320006
 30
0.0
 10
30.81370596643323
 20
-0.3581849855078949
 30
0.0
 10
29.7181939994243
 20
0.0746577665798792
 30
0.0
 10
28.62244191005897
 20
0.5023036447080423
 30
0.0
 10
27.52645437301402
 20
0.8948533792461694
 30
0.0
 10
26.43039610331865
 20
1.224084764876802
 30
0.0
 10
25.33449874409541
 20
1.469438656204377
 30
0.0
 10
24.23885868893834
 20
1.604419460551522
 30
0.0
 10
23.37357303702916
 20
1.643609863246574
 30
0.0
 10
22.87349852720268
 20
1.598304783756916
 30
0.0
 10
22.73855404569851
 20
1.586079264677052
 30
0.0
1001
PE_URL
1000

  0
SPLINE
  5
AE
330
1F
100
AcDbEntity
  8
0
  6
Continuous
 62
     1
370
    15
100
AcDbSpline
210
0.0
220
0.0
230
1.0
 70
     8
 71
     3
 72
    19
 73
    15
 74
     0
 42
0.000000001
 43
0.00000001
 40
0.0
 40
0.0
 40
0.0
 40
0.0
 40
0.1078177803712056
 40
0.2169111290574887
 40
0.2999413849771161
 40
0.3835463229583994
 40
0.4689267084457739
 40
0.554933740613982
 40
0.6384991827850777
 40
0.7226557646373382
 40
0.8055413914644168
 40
0.8890033189744125
 40
0.9742406016629848
 40
0.9999999999999999
 40
0.9999999999999999
 40
0.9999999999999999
 40
0.9999999999999999
 10
40.48125000000001
 20
-0.9954926040900979
 30
0.0
 10
40.18433013160795
 20
-0.8355115590347282
 30
0.0
 10
39.58697760152637
 20
-0.5136567685606261
 30
0.0
 10
38.76126423439489
 20
-0.033971428838963
 30
0.0
 10
38.00290961650784
 20
0.404437449283325
 30
0.0
 10
37.30837858672041
 20
0.7922699865994552
 30
0.0
 10
36.60741463149866
 20
1.164686571597034
 30
0.0
 10
35.90489392074796
 20
1.500633117594759
 30
0.0
 10
35.20682318013843
 20
1.793539531796204
 30
0.0
 10
34.51732297787707
 20
2.031942789951335
 30
0.0
 10
33.82708576673021
 20
2.214214286093869
 30
0.0
 10
33.13554948087301
 20
2.331470034815043
 30
0.0
 10
32.59949002985312
 20
2.385110125785596
 30
0.0
 10
32.29411089806732
 20
2.375974041026857
 30
0.0
 10
32.22324046638595
 20
2.37385379703067
 30
0.0
1001
PE_URL
1000

  0
SPLINE
  5
AF
330
1F
100
AcDbEntity
  8
0
  6
Continuous
 62
     1
370
    15
100
AcDbSpline
210
0.0
220
0.0
230
1.0
 70
     8
 71
     3
 72
    15
 73
    11
 74
     0
 42
0.000000001
 43
0.00000001
 40
0.0
 40
0.0
 40
0.0
 40
0.0
 40
0.0011805415363325
 40
0.1319841397686709
 40
0.2655622144185911
 40
0.4001188922199104
 40
0.5309713556147602
 40
0.662749146751622
 40
0.8303972466231808
 40
0.9999999999999999
 40
0.9999999999999999
 40
0.9999999999999999
 40
0.9999999999999999
 10
22.73855404569851
 20
-1.586079264677048
 30
0.0
 10
22.7364785133269
 20
-1.587035320479163
 30
0.0
 10
22.50443470444894
 20
-1.69392203198362
 30
0.0
 10
22.03678420490574
 20
-1.868890623997957
 30
0.0
 10
21.33621285215683
 20
-2.099292608767204
 30
0.0
 10
20.63369468617977
 20
-2.261777705423742
 30
0.0
 10
19.93574784501985
 20
-2.361396720141205
 30
0.0
 10
19.17918265154673
 20
-2.394388912681308
 30
0.0
 10
18.35370886522943
 20
-2.346000023895976
 30
0.0
 10
17.76071525466329
 20
-2.220382498476248
 30
0.0
 10
17.4625
 20
-2.157209705944044
 30
0.0
1001
PE_URL
1000

  0
SPLINE
  5
B0
330
1F
100
AcDbEntity
  8
외형선
  6
Continuous
370
    15
100
AcDbSpline
210
0.0
220
0.0
230
1.0
 70
    24
 71
     3
 72
    14
 73
    10
 74
     0
 42
0.000000001
 43
0.00000001
 40
0.0
 40
0.0
 40
0.0
 40
0.0
 40
0.2500000000000001
 40
0.2500000000000001
 40
0.5000000000000002
 40
0.5000000000000002
 40
0.7500000000000001
 40
0.7500000000000001
 40
1.0
 40
1.0
 40
1.0
 40
1.0
 10
17.4625
 20
-0.2019201756488621
 30
0.0
 10
17.4625
 20
-0.2757840643949955
 30
0.0
 10
17.4625
 20
-0.3735199553719351
 30
0.0
 10
17.4625
 20
-0.6265845748228747
 30
0.0
 10
17.4625
 20
-0.782473454533833
 30
0.0
 10
17.4625
 20
-1.142037735888176
 30
0.0
 10
17.4625
 20
-1.345589558958304
 30
0.0
 10
17.4625
 20
-1.759927797387227
 30
0.0
 10
17.4625
 20
-1.969509050581792
 30
0.0
 10
17.4625
 20
-2.157209705942832
 30
0.0
  0
SPLINE
  5
B1
330
1F
100
AcDbEntity
  8
0
  6
Continuous
 62
     1
370
    15
100
AcDbSpline
210
0.0
220
0.0
230
1.0
 70
     8
 71
     3
 72
    13
 73
     9
 74
     0
 42
0.000000001
 43
0.00000001
 40
0.0
 40
0.0
 40
0.0
 40
0.0
 40
0.2026776759498718
 40
0.4053035746053567
 40
0.5728680790881907
 40
0.7404108189574551
 40
0.9079387011356247
 40
1.0
 40
1.0
 40
1.0
 40
1.0
 10
42.22502288631829
 20
0.2495763127832105
 30
0.0
 10
41.78329603028813
 20
0.4186425413741309
 30
0.0
 10
40.8999551645063
 20
0.7567318078501004
 30
0.0
 10
39.65134569481079
 20
1.154815095460687
 30
0.0
 10
38.47971365544316
 20
1.434268674476772
 30
0.0
 10
37.38448301102109
 20
1.589286748704472
 30
0.0
 10
36.45379957692743
 20
1.643390944508303
 30
0.0
 10
35.88817701662957
 20
1.600000816071623
 30
0.0
 10
35.68758334258317
 20
1.584612842020739
 30
0.0
1001
PE_URL
1000

  0
SPLINE
  5
B2
330
1F
100
AcDbEntity
  8
0
  6
Continuous
 62
     1
370
    15
100
AcDbSpline
210
0.0
220
0.0
230
1.0
 70
     8
 71
     3
 72
    13
 73
     9
 74
     0
 42
0.000000001
 43
0.00000001
 40
0.0
 40
0.0
 40
0.0
 40
0.0
 40
0.0822298474515778
 40
0.2591763920046345
 40
0.4361052066098263
 40
0.6130236091924401
 40
0.806511942379857
 40
1.0
 40
1.0
 40
1.0
 40
1.0
 10
23.65236900179137
 20
-1.604979758639885
 30
0.0
 10
23.48270829523091
 20
-1.611695601694338
 30
0.0
 10
22.94796268698704
 20
-1.632862951824078
 30
0.0
 10
22.04818917998354
 20
-1.546123552740222
 30
0.0
 10
20.9530454691317
 20
-1.355662906990665
 30
0.0
 10
19.82383901689287
 20
-1.05446709479154
 30
0.0
 10
18.66023356981247
 20
-0.6642677002647005
 30
0.0
 10
17.86174433373514
 20
-0.3560359440231625
 30
0.0
 10
17.4625
 20
-0.2019201756488622
 30
0.0
1001
PE_URL
1000

  0
SPLINE
  5
B3
330
1F
100
AcDbEntity
  8
0
  6
Continuous
 62
     1
370
    15
100
AcDbSpline
210
0.0
220
0.0
230
1.0
 70
     8
 71
     3
 72
    22
 73
    18
 74
     0
 42
0.000000001
 43
0.00000001
 40
0.0
 40
0.0
 40
0.0
 40
0.0
 40
0.1249999999999999
 40
0.1249999999999999
 40
0.2499999999999998
 40
0.2499999999999998
 40
0.3749999999999998
 40
0.3749999999999998
 40
0.4999999999999999
 40
0.4999999999999999
 40
0.6249999999999999
 40
0.6249999999999999
 40
0.7499999999999999
 40
0.7499999999999999
 40
0.875
 40
0.875
 40
1.0
 40
1.0
 40
1.0
 40
1.0
 10
40.48125
 20
-0.9954926040900969
 30
0.0
 10
40.61331214279422
 20
-1.065170229700083
 30
0.0
 10
40.74339993608152
 20
-1.127412207592332
 30
0.0
 10
41.00317373941535
 20
-1.231999327162631
 30
0.0
 10
41.13420149514312
 20
-1.274820498497199
 30
0.0
 10
41.3928302287594
 20
-1.329886617268544
 30
0.0
 10
41.51954976206675
 20
-1.342515236564893
 30
0.0
 10
41.77339102795049
 20
-1.324189254553751
 30
0.0
 10
41.89719286891998
 20
-1.292723090304958
 30
0.0
 10
42.13067549020265
 20
-1.166458473358289
 30
0.0
 10
42.23924657799849
 20
-1.070726803781002
 30
0.0
 10
42.40433457542571
 20
-0.8165168988943183
 30
0.0
 10
42.45402966991274
 20
-0.6658824806324947
 30
0.0
 10
42.47910626109674
 20
-0.3713665044497047
 30
0.0
 10
42.45648543543248
 20
-0.2325789296373816
 30
0.0
 10
42.36900946787156
 20
0.0216209836670719
 30
0.0
 10
42.30422115695711
 20
0.138340072580176
 30
0.0
 10
42.22502288629043
 20
0.2495763127940014
 30
0.0
1001
PE_URL
1000

  0
SPLINE
  5
B4
330
1F
100
AcDbEntity
  8
0
  6
Continuous
 62
     1
370
    15
100
AcDbSpline
210
0.0
220
0.0
230
1.0
 70
     8
 71
     3
 72
     8
 73
     4
 74
     0
 42
0.000000001
 43
0.00000001
 40
0.0
 40
0.0
 40
0.0
 40
0.0
 40
1.0
 40
1.0
 40
1.0
 40
1.0
 10
40.9253821231997
 20
1.065974114515945
 30
0.0
 10
41.40950420771501
 20
0.931408970544047
 30
0.0
 10
41.90312368511314
 20
0.7798084115934021
 30
0.0
 10
42.39778924506798
 20
0.6167224762205032
 30
0.0
1001
PE_URL
1000

  0
SPLINE
  5
B5
330
1F
100
AcDbEntity
  8
0
  6
Continuous
 62
     1
370
    15
100
AcDbSpline
210
0.0
220
0.0
230
1.0
 70
     8
 71
     3
 72
    10
 73
     6
 74
     0
 42
0.000000001
 43
0.00000001
 40
0.0
 40
0.0
 40
0.0
 40
0.0
 40
0.5
 40
0.5
 40
1.0
 40
1.0
 40
1.0
 40
1.0
 10
42.22502288629042
 20
0.2495763127940017
 30
0.0
 10
42.27977568137338
 20
0.2826246161959342
 30
0.0
 10
42.32348852688785
 20
0.3328658661545691
 30
0.0
 10
42.38195868334551
 20
0.4602199967100046
 30
0.0
 10
42.39644266252871
 20
0.5369360668298176
 30
0.0
 10
42.39778924506799
 20
0.6167224762204845
 30
0.0
1001
PE_URL
1000

  0
SPLINE
  5
B6
330
1F
100
AcDbEntity
  8
외형선
  6
Continuous
370
    15
100
AcDbSpline
210
0.0
220
0.0
230
1.0
 70
    24
 71
     3
 72
    14
 73
    10
 74
     0
 42
0.000000001
 43
0.00000001
 40
0.0
 40
0.0
 40
0.0
 40
0.0
 40
0.25
 40
0.25
 40
0.5
 40
0.5
 40
0.75
 40
0.75
 40
1.0
 40
1.0
 40
1.0
 40
1.0
 10
17.4625
 20
1.628596063509134
 30
0.0
 10
17.4625
 20
1.495687374294359
 30
0.0
 10
17.4625
 20
1.335547442612437
 30
0.0
 10
17.4625
 20
0.9945222032924503
 30
0.0
 10
17.4625
 20
0.8145487839647501
 30
0.0
 10
17.4625
 20
0.4725664926688409
 30
0.0
 10
17.4625
 20
0.3109185790912307
 30
0.0
 10
17.4625
 20
0.0258433740297583
 30
0.0
 10
17.4625
 20
-0.0978310101253269
 30
0.0
 10
17.4625
 20
-0.2019201756488618
 30
0.0
  0
SPLINE
  5
B7
330
1F
100
AcDbEntity
  8
0
  6
Continuous
 62
     1
370
    15
100
AcDbSpline
210
0.0
220
0.0
230
1.0
 70
     8
 71
     3
 72
    16
 73
    12
 74
     0
 42
0.000000001
 43
0.00000001
 40
0.0
 40
0.0
 40
0.0
 40
0.0
 40
0.1185267118134273
 40
0.2370549721527662
 40
0.3555853378084162
 40
0.4741183645415673
 40
0.5926546068135444
 40
0.7069404693779648
 40
0.8212453910977817
 40
0.9355736103511744
 40
0.9999999999999999
 40
0.9999999999999999
 40
0.9999999999999999
 40
0.9999999999999999
 10
17.46250000000001
 20
1.628596063511587
 30
0.0
 10
17.84119991228217
 20
1.457103129302984
 30
0.0
 10
18.59860468447911
 20
1.1141150203676
 30
0.0
 10
19.73472394309266
 20
0.4826918290714849
 30
0.0
 10
20.8708695942499
 20
-0.1762785363660169
 30
0.0
 10
22.00703720176607
 20
-0.8244807889567944
 30
0.0
 10
23.12968141653006
 20
-1.402291832135873
 30
0.0
 10
24.23870697928626
 20
-1.873515219126972
 30
0.0
 10
25.33436277466932
 20
-2.199766333523749
 30
0.0
 10
26.27073670956378
 20
-2.37154197436862
 30
0.0
 10
26.84192129665139
 20
-2.363508032583256
 30
0.0
 10
27.04778653836518
 20
-2.360612454857689
 30
0.0
1001
PE_URL
1000

  0
SPLINE
  5
B8
330
1F
100
AcDbEntity
  8
0
  6
Continuous
 62
     1
370
    15
100
AcDbSpline
210
0.0
220
0.0
230
1.0
 70
     8
 71
     3
 72
    11
 73
     7
 74
     0
 42
0.000000001
 43
0.00000001
 40
0.0
 40
0.0
 40
0.0
 40
0.0
 40
0.1879005314038768
 40
0.4584749579439336
 40
0.729163499374933
 40
1.0
 40
1.0
 40
1.0
 40
1.0
 10
36.60912134120804
 20
1.607425894605434
 30
0.0
 10
36.85161551509017
 20
1.709903014139566
 30
0.0
 10
37.44329828118781
 20
1.959945910333619
 30
0.0
 10
38.38437571243693
 20
2.219468988893153
 30
0.0
 10
39.43256744517325
 20
2.391385801546232
 30
0.0
 10
40.13162548124392
 20
2.37406500953762
 30
0.0
 10
40.48125
 20
2.365402247280393
 30
0.0
1001
PE_URL
1000

  0
SPLINE
  5
B9
330
1F
100
AcDbEntity
  8
0
  6
Continuous
 62
     1
370
    15
100
AcDbSpline
210
0.0
220
0.0
230
1.0
 70
     8
 71
     3
 72
    10
 73
     6
 74
     0
 42
0.000000001
 43
0.00000001
 40
0.0
 40
0.0
 40
0.0
 40
0.0
 40
0.5
 40
0.5
 40
1.0
 40
1.0
 40
1.0
 40
1.0
 10
41.409064281543
 20
2.059309714436721
 30
0.0
 10
41.26164610379804
 20
2.149201946605512
 30
0.0
 10
41.1097728542107
 20
2.219795152015505
 30
0.0
 10
40.80006315674228
 20
2.32251098095595
 30
0.0
 10
40.64071939350289
 20
2.354734387094569
 30
0.0
 10
40.48125000000001
 20
2.36540224728039
 30
0.0
1001
PE_URL
1000

  0
SPLINE
  5
BA
330
1F
100
AcDbEntity
  8
0
  6
Continuous
 62
     1
370
    15
100
AcDbSpline
210
0.0
220
0.0
230
1.0
 70
     8
 71
     3
 72
    14
 73
    10
 74
     0
 42
0.000000001
 43
0.00000001
 40
0.0
 40
0.0
 40
0.0
 40
0.0
 40
0.25
 40
0.25
 40
0.5
 40
0.5
 40
0.75
 40
0.75
 40
1.0
 40
1.0
 40
1.0
 40
1.0
 10
41.409064281543
 20
2.059309714436722
 30
0.0
 10
41.42595426833112
 20
1.95932479838434
 30
0.0
 10
41.4335260542848
 20
1.857507827934898
 30
0.0
 10
41.41868102799408
 20
1.651445059296385
 30
0.0
 10
41.3956811747364
 20
1.549912348419268
 30
0.0
 10
41.31158731311881
 20
1.36523831676417
 30
0.0
 10
41.25019119256401
 20
1.283016166461405
 30
0.0
 10
41.10203406877795
 20
1.15170391688159
 30
0.0
 10
41.01527705170703
 20
1.101732572601488
 30
0.0
 10
40.92538212320084
 20
1.065974114515718
 30
0.0
1001
PE_URL
1000

  0
SPLINE
  5
BB
330
1F
100
AcDbEntity
  8
0
  6
Continuous
 62
     1
370
    15
100
AcDbSpline
210
0.0
220
0.0
230
1.0
 70
     8
 71
     3
 72
    23
 73
    19
 74
     0
 42
0.000000001
 43
0.00000001
 40
0.0
 40
0.0
 40
0.0
 40
0.0
 40
0.0358530298332586
 40
0.1028515147067708
 40
0.1698636551554532
 40
0.2368905049076264
 40
0.3039094218051288
 40
0.370913599894208
 40
0.4379055126628659
 40
0.5048876568612857
 40
0.5718625478249424
 40
0.6388327147225243
 40
0.7058006957477067
 40
0.7727690332742166
 40
0.836822462309156
 40
0.9008930486656693
 40
0.9649906568219448
 40
1.0
 40
1.0
 40
1.0
 40
1.0
 10
23.65236900179137
 20
1.60497975863989
 30
0.0
 10
23.84779786125242
 20
1.690092466761769
 30
0.0
 10
24.40842423805977
 20
1.93425512168501
 30
0.0
 10
25.33436185255911
 20
2.201146890152311
 30
0.0
 10
26.43026293239688
 20
2.383453972269336
 30
0.0
 10
27.52635020621341
 20
2.392968396068303
 30
0.0
 10
28.62234938373463
 20
2.236126384754326
 30
0.0
 10
29.71810703186486
 20
1.922028700377663
 30
0.0
 10
30.81362491326593
 20
1.473258507898472
 30
0.0
 10
31.90895126536715
 20
0.9211728209619288
 30
0.0
 10
33.00413444060099
 20
0.3045145262119269
 30
0.0
 10
34.09922857869793
 20
-0.333438128778052
 30
0.0
 10
35.19426626189804
 20
-0.9481580313363255
 30
0.0
 10
36.27345741288207
 20
-1.487867621289492
 30
0.0
 10
37.33668492375875
 20
-1.92209512240301
 30
0.0
 10
38.38437931715974
 20
-2.219134896183736
 30
0.0
 10
39.27381562895778
 20
-2.373614217815474
 30
0.0
 10
39.81410201340232
 20
-2.365190379102496
 30
0.0
 10
40.00495715719179
 20
-2.362214674004027
 30
0.0
1001
PE_URL
1000

  0
ARC
  5
BC
330
1F
100
AcDbEntity
  8
0
  6
Continuous
 62
     1
370
    15
100
AcDbCircle
 10
41.7232251835067
 20
-0.4139420338681978
 30
0.0
 40
1.231789757022861
100
AcDbArc
 50
23.84128576077877
 51
56.79548103001378
1001
PE_URL
1000

  0
ARC
  5
BD
330
1F
100
AcDbEntity
  8
0
  6
Continuous
 62
     1
370
    15
100
AcDbCircle
 10
40.7208636064072
 20
0.0441724748039094
 30
0.0
 40
2.129412657004821
100
AcDbArc
 50
1.070428387800105
 51
71.14416676675711
1001
PE_URL
1000

  0
LINE
  5
BE
330
1F
100
AcDbEntity
  8
중심선
 62
     1
100
AcDbLine
 10
-45.8625
 20
-0.0000000000000056
 30
0.0
 11
45.8625
 21
0.0000000000000056
 31
0.0
  0
LINE
  5
BF
330
1F
100
AcDbEntity
  8
참조1
100
AcDbLine
 10
0.0
 20
-0.0000000000000057
 30
0.0
 11
0.0000000000000053
 21
-40.00000000000001
 31
0.0
  0
LINE
  5
C0
330
1F
100
AcDbEntity
  8
참조1
100
AcDbLine
 10
42.8625
 20
-0.0000000000000057
 30
0.0
 11
42.8625
 21
0.6309734778393047
 31
0.0
  0
LINE
  5
C1
330
1F
100
AcDbEntity
  8
참조1
100
AcDbLine
 10
0.0000000000000053
 20
-40.00000000000001
 30
0.0
 11
-20.71510681430867
 21
-40.0
 31
0.0
  0
CIRCLE
  5
C2
330
1F
100
AcDbEntity
  8
해칭선
100
AcDbCircle
 10
0.0
 20
0.0
 30
0.0
 40
3.000000000000001
  0
INSERT
  5
C3
330
1F
100
AcDbEntity
  8
0
  6
Continuous
 62
     7
100
AcDbBlockReference
 66
     1
  2
블럭10
 10
-13.94027293212521
 20
-52.04717430164393
 30
0.0
  0
ATTRIB
  5
C4
330
C3
100
AcDbEntity
  8
FORMAT
 62
     2
100
AcDbText
 10
-23.12156822086649
 20
-49.97180738881174
 30
0.0
 40
4.233333333333333
  1
E2015012 [ 2 FLUTE ]
 41
0.75
  7
SLDTEXTSTYLE0
 11
-23.12156822086649
 21
-52.08847405547841
 31
0.0
100
AcDbAttribute
  2
AUTOATTR0
 70
     0
 74
     1
  0
SEQEND
  5
C5
330
C3
100
AcDbEntity
  8
0
  6
Continuous
 62
     7
  0
HATCH
  5
C6
330
1F
100
AcDbEntity
  8
중심선
100
AcDbHatch
 10
0.0
 20
0.0
 30
0.0
210
0.0
220
0.0
230
1.0
  2
SOLID
 70
     1
 71
     0
 91
        1
 92
        0
 93
        4
 72
     1
 10
-8.225363627744358
 20
-35.8
 11
-11.67163887158164
 21
-35.8
 72
     1
 10
-11.67163887158164
 20
-35.8
 11
-13.79986873078566
 21
-38.3363255805726
 72
     1
 10
-13.79986873078566
 20
-38.3363255805726
 11
-10.35356040183523
 21
-38.33628615127011
 72
     1
 10
-10.35356040183523
 20
-38.33628615127011
 11
-8.225363627744358
 21
-35.8
 97
        0
 75
     0
 76
     1
 98
        1
 10
8.537869342984436
 20
-0.0010749287238949
  0
HATCH
  5
C7
330
1F
100
AcDbEntity
  8
중심선
100
AcDbHatch
 10
0.0
 20
0.0
 30
0.0
210
0.0
220
0.0
230
1.0
  2
SOLID
 70
     1
 71
     0
 91
        1
 92
        0
 93
        4
 72
     1
 10
-3.212599636708378
 20
-35.8
 11
-6.658874880545659
 21
-35.8
 72
     1
 10
-6.658874880545659
 20
-35.8
 11
-11.19001288890308
 21
-41.20000000000002
 72
     1
 10
-11.19001288890308
 20
-41.20000000000002
 11
-7.743737645065792
 21
-41.20000000000002
 72
     1
 10
-7.743737645065792
 20
-41.20000000000002
 11
-3.212599636708378
 21
-35.8
 97
        0
 75
     0
 76
     1
 98
        1
 10
8.537869342984436
 20
-0.0010749287238949
  0
HATCH
  5
C8
330
1F
100
AcDbEntity
  8
중심선
100
AcDbHatch
 10
0.0
 20
0.0
 30
0.0
210
0.0
220
0.0
230
1.0
  2
SOLID
 70
     1
 71
     0
 91
        1
 92
        0
 93
        4
 72
     1
 10
1.800164354327491
 20
-35.8
 11
-1.646110889509625
 21
-35.8
 72
     1
 10
-1.646110889509625
 20
-35.8
 11
-8.694547791398875
 21
-44.20000000000002
 72
     1
 10
-8.694547791398875
 20
-44.20000000000002
 11
-5.248272547561591
 21
-44.20000000000002
 72
     1
 10
-5.248272547561591
 20
-44.20000000000002
 11
1.800164354327491
 21
-35.8
 97
        0
 75
     0
 76
     1
 98
        1
 10
8.537869342984436
 20
-0.0010749287238949
  0
HATCH
  5
C9
330
1F
100
AcDbEntity
  8
중심선
100
AcDbHatch
 10
0.0
 20
0.0
 30
0.0
210
0.0
220
0.0
230
1.0
  2
SOLID
 70
     1
 71
     0
 91
        1
 92
        0
 93
        6
 72
     3
 10
6.60005478533969
 20
-40.00000000005127
 11
3.960054785062283
 21
1.540882976769353E-10
 40
0.3939339440162628
 50
17.09539180608436
 51
320.0019657685086
 73
     0
 72
     1
 10
8.283054441040285
 20
-38.58789400463833
 11
10.58835631474135
 21
-36.65356729459038
 72
     3
 10
6.600054785286844
 20
-40.00000000000015
 11
6.600054785286829
 21
-1.278976924368180E-13
 40
0.636358354079598
 50
39.99873849337385
 51
368.4976242363724
 73
     1
 72
     1
 10
13.02538727718745
 20
-39.03999999993002
 11
5.280122092122793
 21
-39.03999999993002
 72
     1
 10
5.280122092122793
 20
-39.03999999993002
 11
5.280097047676832
 21
-40.95999999992991
 72
     1
 10
5.280097047676833
 20
-40.95999999992991
 11
9.721476817148869
 21
-40.95999999992988
 97
        0
 75
     0
 76
     1
 98
        1
 10
8.537869342984436
 20
-0.0010749287238949
  0
DIMENSION
  5
CA
330
1F
100
AcDbEntity
  8
치수문자_일반주서
100
AcDbDimension
  2
_D
 10
17.46250000000001
 20
12.38125
 30
0.0
 11
56.00825000000001
 21
12.38125
 31
0.0
 70
   160
  1
<>
 71
     2
 42
25.4
  3
SLDDIMSTYLE0
100
AcDbAlignedDimension
 13
42.8625
 23
2.381250000000001
 33
0.0
 14
17.46250000000001
 24
2.38125
 34
0.0
 50
0.000000000000004
100
AcDbRotatedDimension
1001
PE_URL
1000

1001
ACAD
1000
DSTYLE
1002
{
1070
   171
1070
     8
1070
   273
1070
     7
1002
}
1001
ACAD_DSTYLE_DIMFLIPARROW_SYMBOL
1070
   385
1070
     0
1001
ACAD_DSTYLE_DIMFLIPARROW_WHICH_SYMBOL
1070
   386
1070
     3
  0
DIMENSION
  5
DF
330
1F
100
AcDbEntity
  8
치수문자_일반주서
100
AcDbDimension
  2
_D_1
 10
-42.86249999999998
 20
22.38125
 30
0.0
 11
0.3751861539371149
 21
22.38125
 31
0.0
 70
   160
  1
<>
 71
     2
 42
85.725
  3
SLDDIMSTYLE0
100
AcDbAlignedDimension
 13
42.8625
 23
2.381250000000001
 33
0.0
 14
-42.86249999999998
 24
2.381250000000001
 34
0.0
 50
0.0000000000000071
100
AcDbRotatedDimension
1001
PE_URL
1000

1001
ACAD
1000
DSTYLE
1002
{
1070
   171
1070
     8
1070
   273
1070
     7
1002
}
  0
DIMENSION
  5
F3
330
1F
100
AcDbEntity
  8
치수문자_일반주서
100
AcDbDimension
  2
_D_2
 10
-52.86249999999999
 20
-2.381250000000133
 30
0.0
 11
-52.86250000000007
 21
22.98524999999997
 31
0.0
 70
   160
  1
%%c<>
 71
     2
 42
4.762500000000003
 52
-270.0
  3
SLDDIMSTYLE0
100
AcDbAlignedDimension
 13
-17.46250000000003
 23
2.38125
 33
0.0
 14
-17.46250000000003
 24
-2.381250000000003
 34
0.0
 50
90.0000000000002
100
AcDbRotatedDimension
1001
PE_URL
1000

1001
ACAD
1000
DSTYLE
1002
{
1070
   171
1070
     8
1070
   273
1070
     7
1002
}
  0
DIMENSION
  5
108
330
1F
100
AcDbEntity
  8
치수문자_일반주서
100
AcDbDimension
  2
_D_3
 10
72.27287091285005
 20
-2.381249999999888
 30
0.0
 11
72.27287091284998
 21
22.98525000000011
 31
0.0
 70
   160
  1
%%c<>
 71
     2
 42
4.762499999999999
 52
-270.0
  3
SLDDIMSTYLE0
100
AcDbAlignedDimension
 13
42.8625
 23
2.381250000000001
 33
0.0
 14
42.8625
 24
-2.381249999999998
 34
0.0
 50
90.0000000000002
100
AcDbRotatedDimension
1001
PE_URL
1000

1001
ACAD
1000
DSTYLE
1002
{
1070
   171
1070
     8
1070
   273
1070
     7
1002
}
  0
LINE
  5
11C
330
1F
100
AcDbEntity
  8
참조1
100
AcDbLine
 10
77.25723381534559
 20
7.44
 30
0.0
 11
77.25723381534559
 21
-7.440000000000004
 31
0.0
  0
LINE
  5
11D
330
1F
100
AcDbEntity
  8
참조1
100
AcDbLine
 10
89.95723381534559
 20
5.44
 30
0.0
 11
77.25723381534559
 21
5.44
 31
0.0
  0
SOLID
  5
11E
330
1F
100
AcDbEntity
  8
참조1
100
AcDbTrace
 10
77.25723381534559
 20
5.44
 30
0.0
 11
83.60723381534558
 21
4.424
 31
0.0
 12
83.60723381534558
 22
6.456
 32
0.0
 13
83.60723381534558
 23
6.456
 33
0.0
  0
LINE
  5
11F
330
1F
100
AcDbEntity
  8
참조1
100
AcDbLine
 10
89.95723381534559
 20
-5.440000000000004
 30
0.0
 11
77.25723381534559
 21
-5.440000000000004
 31
0.0
  0
SOLID
  5
120
330
1F
100
AcDbEntity
  8
참조1
100
AcDbTrace
 10
77.25723381534559
 20
-5.440000000000004
 30
0.0
 11
83.60723381534558
 21
-6.456000000000004
 31
0.0
 12
83.60723381534558
 22
-4.424000000000004
 32
0.0
 13
83.60723381534558
 23
-4.424000000000004
 33
0.0
  0
MTEXT
  5
121
330
1F
100
AcDbEntity
  8
참조1
100
AcDbMText
 10
86.65472390781586
 20
10.98821664464993
 30
0.0
 40
3.5
 41
0.0
 71
     1
 72
     1
  1
A
  7
SLDTEXTSTYLE0
 73
     1
 44
1.0
  0
MTEXT
  5
122
330
1F
100
AcDbEntity
  8
참조1
100
AcDbMText
 10
86.65472390781586
 20
0.1082166446499302
 30
0.0
 40
3.5
 41
0.0
 71
     1
 72
     1
  1
A
  7
SLDTEXTSTYLE0
 73
     1
 44
1.0
  0
INSERT
  5
129
330
1F
100
AcDbEntity
  8
해칭선
100
AcDbBlockReference
  2
SW_DOWELSYMBOL_0
 10
0.0
 20
0.0
 30
0.0
  0
LINE
  5
1D9
330
1F
100
AcDbEntity
  8
0
  6
Continuous
 62
     1
370
    15
100
AcDbLine
 10
-40.00495715719181
 20
2.381250000000044
 30
0.0
 11
-40.48125000000003
 21
2.381250000000044
 31
0.0
1001
PE_URL
1000

  0
LINE
  5
1DA
330
1F
100
AcDbEntity
  8
0
  6
Continuous
 62
     1
370
    15
100
AcDbLine
 10
-17.46250000000003
 20
2.38125
 30
0.0
 11
-19.26650671759933
 21
2.381250000000003
 31
0.0
1001
PE_URL
1000

  0
LINE
  5
1DB
330
1F
100
AcDbEntity
  8
0
  6
Continuous
 62
     1
370
    15
100
AcDbLine
 10
-32.22324046638597
 20
-2.381249999999969
 30
0.0
 11
-27.04778653836524
 21
-2.38124999999998
 31
0.0
1001
PE_URL
1000

  0
LINE
  5
1DC
330
1F
100
AcDbEntity
  8
0
  6
Continuous
 62
     1
370
    15
100
AcDbLine
 10
-27.04778653836521
 20
2.381250000000019
 30
0.0
 11
-32.22324046638596
 21
2.381250000000028
 31
0.0
1001
PE_URL
1000

  0
LINE
  5
1DD
330
1F
100
AcDbEntity
  8
0
  6
Continuous
 62
     1
370
    15
100
AcDbLine
 10
-19.26650671759933
 20
-2.381249999999994
 30
0.0
 11
-17.46250000000003
 21
-2.381249999999998
 31
0.0
1001
PE_URL
1000

  0
LINE
  5
1DE
330
1F
100
AcDbEntity
  8
0
  6
Continuous
 62
     1
370
    15
100
AcDbLine
 10
-40.48125000000003
 20
-2.381249999999955
 30
0.0
 11
-40.00495715719184
 21
-2.381249999999955
 31
0.0
1001
PE_URL
1000

  0
ARC
  5
1DF
330
1F
100
AcDbEntity
  8
0
  6
Continuous
 62
     1
370
    15
100
AcDbCircle
 10
-40.48125000000003
 20
0.0000000000000462
 30
0.0
 40
2.381249999999998
100
AcDbArc
 50
90.00000000000068
 51
179.9999999999999
1001
PE_URL
1000

  0
ARC
  5
1E0
330
1F
100
AcDbEntity
  8
0
  6
Continuous
 62
     1
370
    15
100
AcDbCircle
 10
-40.48125000000003
 20
0.0000000000000462
 30
0.0
 40
2.381249999999998
100
AcDbArc
 50
179.9999999999999
 51
270.0
1001
PE_URL
1000

  0
SPLINE
  5
1E1
330
1F
100
AcDbEntity
  8
외형선
  6
Continuous
370
    15
100
AcDbSpline
210
0.0
220
0.0
230
1.0
 70
     8
 71
     3
 72
     8
 73
     4
 74
     0
 42
0.000000001
 43
0.00000001
 40
0.0
 40
0.0
 40
0.0
 40
0.0
 40
1.0
 40
1.0
 40
1.0
 40
1.0
 10
-17.46250000000005
 20
-1.628596063511583
 30
0.0
 10
-17.1639746864056
 20
-1.75393040323743
 30
0.0
 10
-16.87058449217816
 20
-1.86587230596027
 30
0.0
 10
-16.5725843057632
 20
-1.963057912925979
 30
0.0
  0
LINE
  5
1E2
330
1F
100
AcDbEntity
  8
외형선
  6
Continuous
370
    15
100
AcDbLine
 10
-16.57277780821994
 20
1.891148921428801
 30
0.0
 11
-16.57277780821995
 21
-1.963125293235379
 31
0.0
  0
SPLINE
  5
1E3
330
1F
100
AcDbEntity
  8
외형선
  6
Continuous
370
    15
100
AcDbSpline
210
0.0
220
0.0
230
1.0
 70
     8
 71
     3
 72
     8
 73
     4
 74
     0
 42
0.000000001
 43
0.00000001
 40
0.0
 40
0.0
 40
0.0
 40
0.0
 40
1.0
 40
1.0
 40
1.0
 40
1.0
 10
-17.46250000000002
 20
2.157209705944046
 30
0.0
 10
-17.16403930100327
 20
2.084476646515551
 30
0.0
 10
-16.87071241150726
 20
1.995383555780837
 30
0.0
 10
-16.57277780821994
 20
1.891062537766363
 30
0.0
  0
LINE
  5
1E4
330
1F
100
AcDbEntity
  8
외형선
  6
Continuous
370
    15
100
AcDbLine
 10
-17.46250000000003
 20
2.157209705944046
 30
0.0
 11
-17.46250000000003
 21
2.38125
 31
0.0
  0
LINE
  5
1E5
330
1F
100
AcDbEntity
  8
외형선
  6
Continuous
370
    15
100
AcDbLine
 10
-17.46250000000003
 20
-2.381249999999998
 30
0.0
 11
-17.46250000000003
 21
-1.628596063511591
 31
0.0
  0
SPLINE
  5
1E6
330
1F
100
AcDbEntity
  8
외형선
  6
Continuous
370
    15
100
AcDbSpline
210
0.0
220
0.0
230
1.0
 70
     8
 71
     3
 72
     8
 73
     4
 74
     0
 42
0.000000001
 43
0.00000001
 40
0.0
 40
0.0
 40
0.0
 40
0.0
 40
1.0
 40
1.0
 40
1.0
 40
1.0
 10
-17.46250000000003
 20
0.2019201756488656
 30
0.0
 10
-17.16403930100328
 20
0.0858643861154924
 30
0.0
 10
-16.87071241150726
 20
-0.0310949163241006
 30
0.0
 10
-16.57277780821995
 20
-0.147507638490751
 30
0.0
  0
SPLINE
  5
1E7
330
1F
100
AcDbEntity
  8
외형선
  6
Continuous
370
    15
100
AcDbSpline
210
0.0
220
0.0
230
1.0
 70
    24
 71
     3
 72
    14
 73
    10
 74
     0
 42
0.000000001
 43
0.00000001
 40
0.0
 40
0.0
 40
0.0
 40
0.0
 40
0.25
 40
0.25
 40
0.5
 40
0.5
 40
0.75
 40
0.75
 40
1.0
 40
1.0
 40
1.0
 40
1.0
 10
-17.46250000000003
 20
-1.628596063509132
 30
0.0
 10
-17.46250000000003
 20
-1.495687374294356
 30
0.0
 10
-17.46250000000003
 20
-1.335547442612434
 30
0.0
 10
-17.46250000000003
 20
-0.9945222032924477
 30
0.0
 10
-17.46250000000003
 20
-0.8145487839647458
 30
0.0
 10
-17.46250000000003
 20
-0.472566492668836
 30
0.0
 10
-17.46250000000003
 20
-0.3109185790912257
 30
0.0
 10
-17.46250000000003
 20
-0.0258433740297548
 30
0.0
 10
-17.46250000000003
 20
0.0978310101253292
 30
0.0
 10
-17.46250000000003
 20
0.2019201756488656
 30
0.0
  0
SPLINE
  5
1E8
330
1F
100
AcDbEntity
  8
외형선
  6
Continuous
370
    15
100
AcDbSpline
210
0.0
220
0.0
230
1.0
 70
    24
 71
     3
 72
    14
 73
    10
 74
     0
 42
0.000000001
 43
0.00000001
 40
0.0
 40
0.0
 40
0.0
 40
0.0
 40
0.25
 40
0.25
 40
0.5
 40
0.5
 40
0.75
 40
0.75
 40
1.0
 40
1.0
 40
1.0
 40
1.0
 10
-17.46250000000003
 20
0.2019201756488656
 30
0.0
 10
-17.46250000000003
 20
0.2757840643949976
 30
0.0
 10
-17.46250000000003
 20
0.3735199553719362
 30
0.0
 10
-17.46250000000003
 20
0.6265845748228784
 30
0.0
 10
-17.46250000000003
 20
0.7824734545338341
 30
0.0
 10
-17.46250000000003
 20
1.142037735888177
 30
0.0
 10
-17.46250000000002
 20
1.345589558958304
 30
0.0
 10
-17.46250000000002
 20
1.759927797387228
 30
0.0
 10
-17.46250000000002
 20
1.969509050581793
 30
0.0
 10
-17.46250000000003
 20
2.157209705942831
 30
0.0
  0
SPLINE
  5
1E9
330
1F
100
AcDbEntity
  8
0
  6
Continuous
 62
     1
370
    15
100
AcDbSpline
210
0.0
220
0.0
230
1.0
 70
     8
 71
     3
 72
    31
 73
    27
 74
     0
 42
0.000000001
 43
0.00000001
 40
0.0
 40
0.0
 40
0.0
 40
0.0
 40
0.0291836253078207
 40
0.071502133764361
 40
0.1131815368794385
 40
0.1551507353353764
 40
0.1980126789751652
 40
0.2411885483022546
 40
0.2832035504390798
 40
0.3255131803801283
 40
0.367259413896611
 40
0.409294677555066
 40
0.4522233110561394
 40
0.4954678191499815
 40
0.5374355908839331
 40
0.5797001147569094
 40
0.6214335234428333
 40
0.6634572046730565
 40
0.7051905033672212
 40
0.747213063712872
 40
0.7889465636986043
 40
0.830968675785608
 40
0.8738821193082753
 40
0.9171099499875076
 40
0.9591477605519534
 40
1.0
 40
1.0
 40
1.0
 40
1.0
 10
-35.6875833425832
 20
1.584612842020769
 30
0.0
 10
-35.52786279223055
 20
1.653168227164903
 30
0.0
 10
-35.13653512009341
 20
1.821134210388021
 30
0.0
 10
-34.51733565984088
 20
2.031154002781351
 30
0.0
 10
-33.82708944195892
 20
2.21366254300526
 30
0.0
 10
-33.13552159569319
 20
2.334520764222642
 30
0.0
 10
-32.43391851124655
 20
2.389733924832033
 30
0.0
 10
-31.73353422818422
 20
2.375850972395103
 30
0.0
 10
-31.03566004012722
 20
2.29375816501611
 30
0.0
 10
-30.34507532439282
 20
2.148904223632909
 30
0.0
 10
-29.65572683268525
 20
1.942784946663192
 30
0.0
 10
-28.96117685963343
 20
1.683155336187546
 30
0.0
 10
-28.2601471494943
 20
1.370058956833114
 30
0.0
 10
-27.55843199732093
 20
1.018496008114662
 30
0.0
 10
-26.86044334606693
 20
0.6397784113176925
 30
0.0
 10
-26.17163224263406
 20
0.2460185778618964
 30
0.0
 10
-25.4808647823269
 20
-0.1518693042696846
 30
0.0
 10
-24.79487183926728
 20
-0.5471041113428541
 30
0.0
 10
-24.10570276904486
 20
-0.9253149273385404
 30
0.0
 10
-23.41906637379042
 20
-1.278669727849145
 30
0.0
 10
-22.73092431032692
 20
-1.597212596973275
 30
0.0
 10
-22.03683661775265
 20
-1.872108201686927
 30
0.0
 10
-21.33620043682345
 20
-2.098624755029427
 30
0.0
 10
-20.63369092018561
 20
-2.261171066427803
 30
0.0
 10
-19.94388461198595
 20
-2.363180407083714
 30
0.0
 10
-19.49013603671841
 20
-2.374519931333406
 30
0.0
 10
-19.26650671759933
 20
-2.380108599210981
 30
0.0
1001
PE_URL
1000

  0
SPLINE
  5
1EA
330
1F
100
AcDbEntity
  8
0
  6
Continuous
 62
     1
370
    15
100
AcDbSpline
210
0.0
220
0.0
230
1.0
 70
     8
 71
     3
 72
    21
 73
    17
 74
     0
 42
0.000000001
 43
0.00000001
 40
0.0
 40
0.0
 40
0.0
 40
0.0
 40
0.0230536451025058
 40
0.1020031620527951
 40
0.1809522217632492
 40
0.2599041012638159
 40
0.3388620720604915
 40
0.4178293937382717
 40
0.4968093076133855
 40
0.575805030460884
 40
0.654819748343114
 40
0.7338446452096974
 40
0.8128505766388988
 40
0.8918389170893107
 40
0.9708128669518112
 40
0.9999999999999999
 40
0.9999999999999999
 40
0.9999999999999999
 40
0.9999999999999999
 10
-36.60912134120807
 20
1.607425894605464
 30
0.0
 10
-36.50253561432346
 20
1.61311816225825
 30
0.0
 10
-36.03093638896965
 20
1.638304170685684
 30
0.0
 10
-35.19433184486446
 20
1.567725656501592
 30
0.0
 10
-34.09928916840812
 20
1.396813842181784
 30
0.0
 10
-33.00420409227652
 20
1.119552624951726
 30
0.0
 10
-31.90902615495598
 20
0.7660358110320313
 30
0.0
 10
-30.81370596643326
 20
0.358184985507922
 30
0.0
 10
-29.71819399942434
 20
-0.074657766579854
 30
0.0
 10
-28.622441910059
 20
-0.502303644708018
 30
0.0
 10
-27.52645437301406
 20
-0.8948533792461468
 30
0.0
 10
-26.43039610331868
 20
-1.224084764876785
 30
0.0
 10
-25.33449874409544
 20
-1.46943865620436
 30
0.0
 10
-24.23885868893838
 20
-1.604419460551508
 30
0.0
 10
-23.3735730370292
 20
-1.64360986324656
 30
0.0
 10
-22.87349852720272
 20
-1.598304783756902
 30
0.0
 10
-22.73855404569855
 20
-1.586079264677043
 30
0.0
1001
PE_URL
1000

  0
SPLINE
  5
1EB
330
1F
100
AcDbEntity
  8
0
  6
Continuous
 62
     1
370
    15
100
AcDbSpline
210
0.0
220
0.0
230
1.0
 70
     8
 71
     3
 72
    19
 73
    15
 74
     0
 42
0.000000001
 43
0.00000001
 40
0.0
 40
0.0
 40
0.0
 40
0.0
 40
0.1078177803712056
 40
0.2169111290574887
 40
0.2999413849771161
 40
0.3835463229583994
 40
0.4689267084457739
 40
0.554933740613982
 40
0.6384991827850777
 40
0.7226557646373382
 40
0.8055413914644168
 40
0.8890033189744125
 40
0.9742406016629848
 40
0.9999999999999999
 40
0.9999999999999999
 40
0.9999999999999999
 40
0.9999999999999999
 10
-40.48125000000003
 20
0.9954926040901437
 30
0.0
 10
-40.18433013160798
 20
0.8355115590347744
 30
0.0
 10
-39.5869776015264
 20
0.5136567685606721
 30
0.0
 10
-38.76126423439491
 20
0.0339714288390063
 30
0.0
 10
-38.00290961650786
 20
-0.4044374492832823
 30
0.0
 10
-37.30837858672044
 20
-0.7922699865994147
 30
0.0
 10
-36.6074146314987
 20
-1.164686571596995
 30
0.0
 10
-35.90489392074799
 20
-1.50063311759472
 30
0.0
 10
-35.20682318013846
 20
-1.793539531796167
 30
0.0
 10
-34.5173229778771
 20
-2.031942789951298
 30
0.0
 10
-33.82708576673025
 20
-2.214214286093835
 30
0.0
 10
-33.13554948087304
 20
-2.331470034815013
 30
0.0
 10
-32.59949002985316
 20
-2.385110125785562
 30
0.0
 10
-32.29411089806734
 20
-2.375974041026826
 30
0.0
 10
-32.22324046638597
 20
-2.373853797030637
 30
0.0
1001
PE_URL
1000

  0
SPLINE
  5
1EC
330
1F
100
AcDbEntity
  8
0
  6
Continuous
 62
     1
370
    15
100
AcDbSpline
210
0.0
220
0.0
230
1.0
 70
     8
 71
     3
 72
    15
 73
    11
 74
     0
 42
0.000000001
 43
0.00000001
 40
0.0
 40
0.0
 40
0.0
 40
0.0
 40
0.0011805415363325
 40
0.1319841397686709
 40
0.2655622144185911
 40
0.4001188922199104
 40
0.5309713556147602
 40
0.662749146751622
 40
0.8303972466231808
 40
0.9999999999999999
 40
0.9999999999999999
 40
0.9999999999999999
 40
0.9999999999999999
 10
-22.73855404569854
 20
1.586079264677061
 30
0.0
 10
-22.73647851332693
 20
1.587035320479176
 30
0.0
 10
-22.50443470444897
 20
1.693922031983632
 30
0.0
 10
-22.03678420490577
 20
1.868890623997968
 30
0.0
 10
-21.33621285215686
 20
2.099292608767213
 30
0.0
 10
-20.6336946861798
 20
2.261777705423752
 30
0.0
 10
-19.93574784501988
 20
2.361396720141212
 30
0.0
 10
-19.17918265154676
 20
2.394388912681313
 30
0.0
 10
-18.35370886522946
 20
2.346000023895979
 30
0.0
 10
-17.76071525466332
 20
2.220382498476249
 30
0.0
 10
-17.46250000000002
 20
2.157209705944046
 30
0.0
1001
PE_URL
1000

  0
SPLINE
  5
1ED
330
1F
100
AcDbEntity
  8
외형선
  6
Continuous
370
    15
100
AcDbSpline
210
0.0
220
0.0
230
1.0
 70
    24
 71
     3
 72
    14
 73
    10
 74
     0
 42
0.000000001
 43
0.00000001
 40
0.0
 40
0.0
 40
0.0
 40
0.0
 40
0.2500000000000001
 40
0.2500000000000001
 40
0.5000000000000002
 40
0.5000000000000002
 40
0.7500000000000001
 40
0.7500000000000001
 40
1.0
 40
1.0
 40
1.0
 40
1.0
 10
-17.46250000000003
 20
0.2019201756488656
 30
0.0
 10
-17.46250000000003
 20
0.2757840643949976
 30
0.0
 10
-17.46250000000003
 20
0.3735199553719397
 30
0.0
 10
-17.46250000000003
 20
0.6265845748228784
 30
0.0
 10
-17.46250000000003
 20
0.7824734545338341
 30
0.0
 10
-17.46250000000003
 20
1.142037735888177
 30
0.0
 10
-17.46250000000003
 20
1.345589558958306
 30
0.0
 10
-17.46250000000003
 20
1.759927797387229
 30
0.0
 10
-17.46250000000003
 20
1.969509050581793
 30
0.0
 10
-17.46250000000003
 20
2.157209705942835
 30
0.0
  0
SPLINE
  5
1EE
330
1F
100
AcDbEntity
  8
0
  6
Continuous
 62
     1
370
    15
100
AcDbSpline
210
0.0
220
0.0
230
1.0
 70
     8
 71
     3
 72
    13
 73
     9
 74
     0
 42
0.000000001
 43
0.00000001
 40
0.0
 40
0.0
 40
0.0
 40
0.0
 40
0.2026776759498718
 40
0.4053035746053567
 40
0.5728680790881907
 40
0.7404108189574551
 40
0.9079387011356247
 40
1.0
 40
1.0
 40
1.0
 40
1.0
 10
-42.22502288631833
 20
-0.2495763127831623
 30
0.0
 10
-41.78329603028816
 20
-0.41864254137408
 30
0.0
 10
-40.89995516450634
 20
-0.7567318078500556
 30
0.0
 10
-39.65134569481081
 20
-1.154815095460641
 30
0.0
 10
-38.47971365544319
 20
-1.43426867447673
 30
0.0
 10
-37.38448301102112
 20
-1.589286748704431
 30
0.0
 10
-36.45379957692747
 20
-1.643390944508266
 30
0.0
 10
-35.8881770166296
 20
-1.600000816071585
 30
0.0
 10
-35.6875833425832
 20
-1.5846128420207
 30
0.0
1001
PE_URL
1000

  0
SPLINE
  5
1EF
330
1F
100
AcDbEntity
  8
0
  6
Continuous
 62
     1
370
    15
100
AcDbSpline
210
0.0
220
0.0
230
1.0
 70
     8
 71
     3
 72
    13
 73
     9
 74
     0
 42
0.000000001
 43
0.00000001
 40
0.0
 40
0.0
 40
0.0
 40
0.0
 40
0.0822298474515778
 40
0.2591763920046345
 40
0.4361052066098263
 40
0.6130236091924401
 40
0.806511942379857
 40
1.0
 40
1.0
 40
1.0
 40
1.0
 10
-23.6523690017914
 20
1.6049797586399
 30
0.0
 10
-23.48270829523094
 20
1.611695601694352
 30
0.0
 10
-22.94796268698707
 20
1.632862951824091
 30
0.0
 10
-22.04818917998357
 20
1.546123552740232
 30
0.0
 10
-20.95304546913173
 20
1.355662906990675
 30
0.0
 10
-19.8238390168929
 20
1.054467094791546
 30
0.0
 10
-18.6602335698125
 20
0.6642677002647055
 30
0.0
 10
-17.86174433373517
 20
0.3560359440231657
 30
0.0
 10
-17.46250000000003
 20
0.2019201756488656
 30
0.0
1001
PE_URL
1000

  0
SPLINE
  5
1F0
330
1F
100
AcDbEntity
  8
0
  6
Continuous
 62
     1
370
    15
100
AcDbSpline
210
0.0
220
0.0
230
1.0
 70
     8
 71
     3
 72
    22
 73
    18
 74
     0
 42
0.000000001
 43
0.00000001
 40
0.0
 40
0.0
 40
0.0
 40
0.0
 40
0.1249999999999999
 40
0.1249999999999999
 40
0.2499999999999998
 40
0.2499999999999998
 40
0.3749999999999998
 40
0.3749999999999998
 40
0.4999999999999999
 40
0.4999999999999999
 40
0.6249999999999999
 40
0.6249999999999999
 40
0.7499999999999999
 40
0.7499999999999999
 40
0.875
 40
0.875
 40
1.0
 40
1.0
 40
1.0
 40
1.0
 10
-40.48125000000003
 20
0.9954926040901437
 30
0.0
 10
-40.61331214279424
 20
1.065170229700129
 30
0.0
 10
-40.74339993608154
 20
1.12741220759238
 30
0.0
 10
-41.00317373941537
 20
1.231999327162679
 30
0.0
 10
-41.13420149514315
 20
1.274820498497247
 30
0.0
 10
-41.39283022875942
 20
1.329886617268592
 30
0.0
 10
-41.51954976206677
 20
1.342515236564941
 30
0.0
 10
-41.77339102795051
 20
1.324189254553801
 30
0.0
 10
-41.89719286892
 20
1.292723090305007
 30
0.0
 10
-42.13067549020268
 20
1.16645847335834
 30
0.0
 10
-42.23924657799851
 20
1.070726803781051
 30
0.0
 10
-42.40433457542574
 20
0.8165168988943687
 30
0.0
 10
-42.45402966991277
 20
0.6658824806325434
 30
0.0
 10
-42.47910626109676
 20
0.3713665044497532
 30
0.0
 10
-42.45648543543251
 20
0.2325789296374303
 30
0.0
 10
-42.36900946787159
 20
-0.0216209836670238
 30
0.0
 10
-42.30422115695714
 20
-0.138340072580128
 30
0.0
 10
-42.22502288629046
 20
-0.2495763127939519
 30
0.0
1001
PE_URL
1000

  0
SPLINE
  5
1F1
330
1F
100
AcDbEntity
  8
0
  6
Continuous
 62
     1
370
    15
100
AcDbSpline
210
0.0
220
0.0
230
1.0
 70
     8
 71
     3
 72
     8
 73
     4
 74
     0
 42
0.000000001
 43
0.00000001
 40
0.0
 40
0.0
 40
0.0
 40
0.0
 40
1.0
 40
1.0
 40
1.0
 40
1.0
 10
-40.92538212319973
 20
-1.0659741145159
 30
0.0
 10
-41.40950420771505
 20
-0.9314089705439983
 30
0.0
 10
-41.90312368511317
 20
-0.7798084115933541
 30
0.0
 10
-42.39778924506801
 20
-0.6167224762204526
 30
0.0
1001
PE_URL
1000

  0
SPLINE
  5
1F2
330
1F
100
AcDbEntity
  8
0
  6
Continuous
 62
     1
370
    15
100
AcDbSpline
210
0.0
220
0.0
230
1.0
 70
     8
 71
     3
 72
    10
 73
     6
 74
     0
 42
0.000000001
 43
0.00000001
 40
0.0
 40
0.0
 40
0.0
 40
0.0
 40
0.5
 40
0.5
 40
1.0
 40
1.0
 40
1.0
 40
1.0
 10
-42.22502288629045
 20
-0.2495763127939519
 30
0.0
 10
-42.27977568137341
 20
-0.2826246161958856
 30
0.0
 10
-42.32348852688789
 20
-0.3328658661545205
 30
0.0
 10
-42.38195868334554
 20
-0.4602199967099558
 30
0.0
 10
-42.39644266252874
 20
-0.5369360668297674
 30
0.0
 10
-42.39778924506803
 20
-0.6167224762204349
 30
0.0
1001
PE_URL
1000

  0
SPLINE
  5
1F3
330
1F
100
AcDbEntity
  8
외형선
  6
Continuous
370
    15
100
AcDbSpline
210
0.0
220
0.0
230
1.0
 70
    24
 71
     3
 72
    14
 73
    10
 74
     0
 42
0.000000001
 43
0.00000001
 40
0.0
 40
0.0
 40
0.0
 40
0.0
 40
0.25
 40
0.25
 40
0.5
 40
0.5
 40
0.75
 40
0.75
 40
1.0
 40
1.0
 40
1.0
 40
1.0
 10
-17.46250000000003
 20
-1.628596063509132
 30
0.0
 10
-17.46250000000003
 20
-1.495687374294356
 30
0.0
 10
-17.46250000000003
 20
-1.335547442612434
 30
0.0
 10
-17.46250000000003
 20
-0.9945222032924477
 30
0.0
 10
-17.46250000000003
 20
-0.8145487839647458
 30
0.0
 10
-17.46250000000003
 20
-0.472566492668836
 30
0.0
 10
-17.46250000000003
 20
-0.3109185790912257
 30
0.0
 10
-17.46250000000003
 20
-0.0258433740297548
 30
0.0
 10
-17.46250000000003
 20
0.0978310101253292
 30
0.0
 10
-17.46250000000003
 20
0.2019201756488656
 30
0.0
  0
SPLINE
  5
1F4
330
1F
100
AcDbEntity
  8
0
  6
Continuous
 62
     1
370
    15
100
AcDbSpline
210
0.0
220
0.0
230
1.0
 70
     8
 71
     3
 72
    16
 73
    12
 74
     0
 42
0.000000001
 43
0.00000001
 40
0.0
 40
0.0
 40
0.0
 40
0.0
 40
0.1185267118134273
 40
0.2370549721527662
 40
0.3555853378084162
 40
0.4741183645415673
 40
0.5926546068135444
 40
0.7069404693779648
 40
0.8212453910977817
 40
0.9355736103511744
 40
0.9999999999999999
 40
0.9999999999999999
 40
0.9999999999999999
 40
0.9999999999999999
 10
-17.46250000000005
 20
-1.628596063511583
 30
0.0
 10
-17.84119991228221
 20
-1.457103129302979
 30
0.0
 10
-18.59860468447915
 20
-1.114115020367596
 30
0.0
 10
-19.73472394309269
 20
-0.4826918290714772
 30
0.0
 10
-20.87086959424994
 20
0.1762785363660235
 30
0.0
 10
-22.00703720176611
 20
0.8244807889568051
 30
0.0
 10
-23.12968141653009
 20
1.402291832135885
 30
0.0
 10
-24.23870697928629
 20
1.873515219126988
 30
0.0
 10
-25.33436277466935
 20
2.199766333523765
 30
0.0
 10
-26.27073670956381
 20
2.37154197436864
 30
0.0
 10
-26.84192129665142
 20
2.363508032583276
 30
0.0
 10
-27.04778653836521
 20
2.36061245485771
 30
0.0
1001
PE_URL
1000

  0
SPLINE
  5
1F5
330
1F
100
AcDbEntity
  8
0
  6
Continuous
 62
     1
370
    15
100
AcDbSpline
210
0.0
220
0.0
230
1.0
 70
     8
 71
     3
 72
    11
 73
     7
 74
     0
 42
0.000000001
 43
0.00000001
 40
0.0
 40
0.0
 40
0.0
 40
0.0
 40
0.1879005314038768
 40
0.4584749579439336
 40
0.729163499374933
 40
1.0
 40
1.0
 40
1.0
 40
1.0
 10
-36.60912134120807
 20
-1.607425894605395
 30
0.0
 10
-36.8516155150902
 20
-1.709903014139527
 30
0.0
 10
-37.44329828118784
 20
-1.95994591033358
 30
0.0
 10
-38.38437571243696
 20
-2.219468988893109
 30
0.0
 10
-39.43256744517328
 20
-2.391385801546186
 30
0.0
 10
-40.13162548124396
 20
-2.374065009537574
 30
0.0
 10
-40.48125000000003
 20
-2.365402247280347
 30
0.0
1001
PE_URL
1000

  0
SPLINE
  5
1F6
330
1F
100
AcDbEntity
  8
0
  6
Continuous
 62
     1
370
    15
100
AcDbSpline
210
0.0
220
0.0
230
1.0
 70
     8
 71
     3
 72
    10
 73
     6
 74
     0
 42
0.000000001
 43
0.00000001
 40
0.0
 40
0.0
 40
0.0
 40
0.0
 40
0.5
 40
0.5
 40
1.0
 40
1.0
 40
1.0
 40
1.0
 10
-41.40906428154302
 20
-2.059309714436672
 30
0.0
 10
-41.26164610379807
 20
-2.149201946605462
 30
0.0
 10
-41.10977285421073
 20
-2.219795152015458
 30
0.0
 10
-40.80006315674231
 20
-2.322510980955904
 30
0.0
 10
-40.64071939350292
 20
-2.354734387094524
 30
0.0
 10
-40.48125000000005
 20
-2.365402247280343
 30
0.0
1001
PE_URL
1000

  0
SPLINE
  5
1F7
330
1F
100
AcDbEntity
  8
0
  6
Continuous
 62
     1
370
    15
100
AcDbSpline
210
0.0
220
0.0
230
1.0
 70
     8
 71
     3
 72
    14
 73
    10
 74
     0
 42
0.000000001
 43
0.00000001
 40
0.0
 40
0.0
 40
0.0
 40
0.0
 40
0.25
 40
0.25
 40
0.5
 40
0.5
 40
0.75
 40
0.75
 40
1.0
 40
1.0
 40
1.0
 40
1.0
 10
-41.40906428154304
 20
-2.059309714436672
 30
0.0
 10
-41.42595426833115
 20
-1.959324798384291
 30
0.0
 10
-41.43352605428483
 20
-1.85750782793485
 30
0.0
 10
-41.41868102799411
 20
-1.651445059296336
 30
0.0
 10
-41.39568117473642
 20
-1.54991234841922
 30
0.0
 10
-41.31158731311884
 20
-1.36523831676412
 30
0.0
 10
-41.25019119256405
 20
-1.283016166461355
 30
0.0
 10
-41.10203406877798
 20
-1.151703916881544
 30
0.0
 10
-41.01527705170706
 20
-1.101732572601442
 30
0.0
 10
-40.92538212320088
 20
-1.065974114515672
 30
0.0
1001
PE_URL
1000

  0
SPLINE
  5
1F8
330
1F
100
AcDbEntity
  8
0
  6
Continuous
 62
     1
370
    15
100
AcDbSpline
210
0.0
220
0.0
230
1.0
 70
     8
 71
     3
 72
    23
 73
    19
 74
     0
 42
0.000000001
 43
0.00000001
 40
0.0
 40
0.0
 40
0.0
 40
0.0
 40
0.0358530298332586
 40
0.1028515147067708
 40
0.1698636551554532
 40
0.2368905049076264
 40
0.3039094218051288
 40
0.370913599894208
 40
0.4379055126628659
 40
0.5048876568612857
 40
0.5718625478249424
 40
0.6388327147225243
 40
0.7058006957477067
 40
0.7727690332742166
 40
0.836822462309156
 40
0.9008930486656693
 40
0.9649906568219448
 40
1.0
 40
1.0
 40
1.0
 40
1.0
 10
-23.65236900179141
 20
-1.604979758639875
 30
0.0
 10
-23.84779786125246
 20
-1.690092466761755
 30
0.0
 10
-24.40842423805981
 20
-1.934255121684995
 30
0.0
 10
-25.33436185255914
 20
-2.201146890152295
 30
0.0
 10
-26.43026293239691
 20
-2.383453972269319
 30
0.0
 10
-27.52635020621345
 20
-2.39296839606828
 30
0.0
 10
-28.62234938373467
 20
-2.2361263847543
 30
0.0
 10
-29.7181070318649
 20
-1.922028700377638
 30
0.0
 10
-30.81362491326597
 20
-1.473258507898443
 30
0.0
 10
-31.90895126536719
 20
-0.9211728209618997
 30
0.0
 10
-33.00413444060102
 20
-0.3045145262118965
 30
0.0
 10
-34.09922857869796
 20
0.3334381287780879
 30
0.0
 10
-35.19426626189806
 20
0.9481580313363605
 30
0.0
 10
-36.2734574128821
 20
1.487867621289531
 30
0.0
 10
-37.33668492375878
 20
1.922095122403052
 30
0.0
 10
-38.38437931715977
 20
2.219134896183778
 30
0.0
 10
-39.27381562895781
 20
2.373614217815518
 30
0.0
 10
-39.81410201340235
 20
2.365190379102541
 30
0.0
 10
-40.00495715719181
 20
2.362214674004072
 30
0.0
1001
PE_URL
1000

  0
ARC
  5
1F9
330
1F
100
AcDbEntity
  8
0
  6
Continuous
 62
     1
370
    15
100
AcDbCircle
 10
-41.72322518350673
 20
0.4139420338682491
 30
0.0
 40
1.231789757022861
100
AcDbArc
 50
203.8412857607788
 51
236.7954810300137
1001
PE_URL
1000

  0
ARC
  5
1FA
330
1F
100
AcDbEntity
  8
0
  6
Continuous
 62
     1
370
    15
100
AcDbCircle
 10
-40.72086360640724
 20
-0.0441724748038617
 30
0.0
 40
2.129412657004821
100
AcDbArc
 50
181.0704283878
 51
251.1441667667573
1001
PE_URL
1000

  0
ENDSEC
  0
SECTION
  2
OBJECTS
  0
DICTIONARY
  5
C
330
0
100
AcDbDictionary
281
     1
  3
ACAD_DETAILVIEWSTYLE
350
1AF
  3
ACAD_GROUP
350
D
  3
ACAD_IMAGE_VARS
350
220
  3
ACAD_LAYOUT
350
1A
  3
ACAD_MLINESTYLE
350
17
  3
ACAD_PLOTSETTINGS
350
19
  3
ACAD_PLOTSTYLENAME
350
E
  3
ACAD_SCALELIST
350
47
  3
ACAD_SECTIONVIEWSTYLE
350
1B0
  3
AcDbVariableDictionary
350
1AA
  3
APPDATA
350
14B
  3
DWGPROPS
350
221
  0
DICTIONARY
  5
184
330
2
100
AcDbDictionary
280
     1
281
     1
  3
ACAD_LAYERSTATES
360
185
  0
DICTIONARY
  5
1AF
102
{ACAD_REACTORS
330
C
102
}
330
C
100
AcDbDictionary
281
     1
  0
DICTIONARY
  5
D
102
{ACAD_REACTORS
330
C
102
}
330
C
100
AcDbDictionary
281
     1
  0
RASTERVARIABLES
  5
220
102
{ACAD_REACTORS
330
C
102
}
330
C
100
AcDbRasterVariables
 90
        0
 70
     1
 71
     1
 72
     1
  0
DICTIONARY
  5
1A
102
{ACAD_REACTORS
330
C
102
}
330
C
100
AcDbDictionary
281
     1
  3
Layout1
350
1E
  3
Layout2
350
26
  3
Model
350
22
  0
DICTIONARY
  5
17
102
{ACAD_REACTORS
330
C
102
}
330
C
100
AcDbDictionary
281
     1
  3
Standard
350
18
  0
DICTIONARY
  5
19
102
{ACAD_REACTORS
330
C
102
}
330
C
100
AcDbDictionary
281
     1
  0
ACDBDICTIONARYWDFLT
  5
E
102
{ACAD_REACTORS
330
C
102
}
330
C
100
AcDbDictionary
281
     1
  3
Normal
350
F
100
AcDbDictionaryWithDefault
340
F
  0
DICTIONARY
  5
47
102
{ACAD_REACTORS
330
C
102
}
330
C
100
AcDbDictionary
281
     1
  3
A0
350
48
  3
A1
350
49
  3
A2
350
4A
  3
A3
350
4B
  3
A4
350
4C
  3
A5
350
4D
  3
A6
350
4E
  3
A7
350
4F
  3
A8
350
50
  3
A9
350
51
  3
B0
350
52
  3
B1
350
53
  3
B2
350
54
  3
B3
350
55
  3
B4
350
56
  3
B5
350
57
  3
B6
350
58
  3
B7
350
59
  3
B8
350
5A
  3
B9
350
5B
  3
C0
350
5C
  3
C1
350
5D
  3
C2
350
5E
  3
C3
350
5F
  3
C4
350
60
  3
C5
350
61
  3
C6
350
62
  3
C7
350
63
  3
C8
350
64
  3
C9
350
65
  3
D0
350
66
  3
D1
350
67
  3
D2
350
68
  0
DICTIONARY
  5
1B0
102
{ACAD_REACTORS
330
C
102
}
330
C
100
AcDbDictionary
281
     1
  0
DICTIONARY
  5
1AA
102
{ACAD_REACTORS
330
C
102
}
330
C
100
AcDbDictionary
281
     1
  0
DICTIONARY
  5
14B
102
{ACAD_REACTORS
330
C
102
}
330
C
100
AcDbDictionary
281
     1
  0
XRECORD
  5
221
102
{ACAD_REACTORS
330
C
102
}
330
C
100
AcDbXrecord
280
     1
  1
DWGPROPS COOKIE
  2

  3

  4

  6

  7

  8
12017012
  9

300
=
301
=
302
=
303
=
304
=
305
=
306
=
307
=
308
=
309
=
 40
0.0
 41
2458319.366770949
 42
2458324.123483657
  1

 90
        0
  0
DICTIONARY
  5
185
102
{ACAD_REACTORS
330
184
102
}
330
184
100
AcDbDictionary
281
     1
  0
LAYOUT
  5
1E
102
{ACAD_REACTORS
330
1A
102
}
330
1A
100
AcDbPlotSettings
  1

  2
none_device
  4

  6

 40
0.0
 41
0.0
 42
0.0
 43
0.0
 44
0.0
 45
0.0
 46
0.0
 47
0.0
 48
0.0
 49
0.0
140
0.0
141
0.0
142
1.0
143
1.0
 70
   688
 72
     1
 73
     0
 74
     5
  7

 75
    16
147
1.0
148
0.0
149
0.0
100
AcDbLayout
  1
Layout1
 70
     1
 71
     1
 10
0.0
 20
0.0
 11
420.0
 21
297.0
 12
0.0
 22
0.0
 32
0.0
 14
1.000000000000000E+20
 24
1.000000000000000E+20
 34
1.000000000000000E+20
 15
-1.000000000000000E+20
 25
-1.000000000000000E+20
 35
-1.000000000000000E+20
146
0.0
 13
0.0
 23
0.0
 33
0.0
 16
1.0
 26
0.0
 36
0.0
 17
0.0
 27
1.0
 37
0.0
 76
     0
330
1B
  0
LAYOUT
  5
26
102
{ACAD_REACTORS
330
1A
102
}
330
1A
100
AcDbPlotSettings
  1

  2
none_device
  4

  6

 40
0.0
 41
0.0
 42
0.0
 43
0.0
 44
0.0
 45
0.0
 46
0.0
 47
0.0
 48
0.0
 49
0.0
140
0.0
141
0.0
142
1.0
143
1.0
 70
   688
 72
     1
 73
     0
 74
     5
  7

 75
    16
147
1.0
148
0.0
149
0.0
100
AcDbLayout
  1
Layout2
 70
     1
 71
     2
 10
0.0
 20
0.0
 11
0.0
 21
0.0
 12
0.0
 22
0.0
 32
0.0
 14
0.0
 24
0.0
 34
0.0
 15
0.0
 25
0.0
 35
0.0
146
0.0
 13
0.0
 23
0.0
 33
0.0
 16
1.0
 26
0.0
 36
0.0
 17
0.0
 27
1.0
 37
0.0
 76
     0
330
23
  0
LAYOUT
  5
22
102
{ACAD_REACTORS
330
1A
102
}
330
1A
100
AcDbPlotSettings
  1

  2
none_device
  4
ANSI_A_(11.00_x_8.50_Inches)
  6

 40
6.35
 41
19.05
 42
6.35000508
 43
19.05000254
 44
279.4
 45
215.9
 46
127.8517803433096
 47
98.28968267110804
 48
0.0
 49
0.0
140
0.0
141
0.0
142
0.0695346282484978
143
1.0
 70
  1696
 72
     0
 73
     0
 74
     0
  7

 75
     0
147
0.0235690232323232
148
0.0
149
0.0
100
AcDbLayout
  1
Model
 70
     1
 71
     0
 10
0.0
 20
0.0
 11
420.0
 21
297.0
 12
0.0
 22
0.0
 32
0.0
 14
-57.2375000000001
 24
-49.97180738881175
 34
0.0
 15
89.9572338153456
 25
36.98525000000011
 35
0.0
146
0.0
 13
0.0
 23
0.0
 33
0.0
 16
1.0
 26
0.0
 36
0.0
 17
0.0
 27
1.0
 37
0.0
 76
     0
330
1F
331
29
  0
MLINESTYLE
  5
18
102
{ACAD_REACTORS
330
17
102
}
330
17
100
AcDbMlineStyle
  2
Standard
 70
     0
  3

 62
   256
 51
90.0
 52
90.0
 71
     2
 49
0.5
 62
   256
  6
BYLAYER
 49
-0.5
 62
   256
  6
BYLAYER
  0
ACDBPLACEHOLDER
  5
F
102
{ACAD_REACTORS
330
E
102
}
330
E
  0
SCALE
  5
48
102
{ACAD_REACTORS
330
47
102
}
330
47
100
AcDbScale
 70
     0
300
1:1
140
1.0
141
1.0
290
     1
  0
SCALE
  5
49
102
{ACAD_REACTORS
330
47
102
}
330
47
100
AcDbScale
 70
     0
300
1:2
140
1.0
141
2.0
290
     0
  0
SCALE
  5
4A
102
{ACAD_REACTORS
330
47
102
}
330
47
100
AcDbScale
 70
     0
300
1:4
140
1.0
141
4.0
290
     0
  0
SCALE
  5
4B
102
{ACAD_REACTORS
330
47
102
}
330
47
100
AcDbScale
 70
     0
300
1:5
140
1.0
141
5.0
290
     0
  0
SCALE
  5
4C
102
{ACAD_REACTORS
330
47
102
}
330
47
100
AcDbScale
 70
     0
300
1:8
140
1.0
141
8.0
290
     0
  0
SCALE
  5
4D
102
{ACAD_REACTORS
330
47
102
}
330
47
100
AcDbScale
 70
     0
300
1:10
140
1.0
141
10.0
290
     0
  0
SCALE
  5
4E
102
{ACAD_REACTORS
330
47
102
}
330
47
100
AcDbScale
 70
     0
300
1:16
140
1.0
141
16.0
290
     0
  0
SCALE
  5
4F
102
{ACAD_REACTORS
330
47
102
}
330
47
100
AcDbScale
 70
     0
300
1:20
140
1.0
141
20.0
290
     0
  0
SCALE
  5
50
102
{ACAD_REACTORS
330
47
102
}
330
47
100
AcDbScale
 70
     0
300
1:30
140
1.0
141
30.0
290
     0
  0
SCALE
  5
51
102
{ACAD_REACTORS
330
47
102
}
330
47
100
AcDbScale
 70
     0
300
1:40
140
1.0
141
40.0
290
     0
  0
SCALE
  5
52
102
{ACAD_REACTORS
330
47
102
}
330
47
100
AcDbScale
 70
     0
300
1:50
140
1.0
141
50.0
290
     0
  0
SCALE
  5
53
102
{ACAD_REACTORS
330
47
102
}
330
47
100
AcDbScale
 70
     0
300
1:100
140
1.0
141
100.0
290
     0
  0
SCALE
  5
54
102
{ACAD_REACTORS
330
47
102
}
330
47
100
AcDbScale
 70
     0
300
2:1
140
2.0
141
1.0
290
     0
  0
SCALE
  5
55
102
{ACAD_REACTORS
330
47
102
}
330
47
100
AcDbScale
 70
     0
300
4:1
140
4.0
141
1.0
290
     0
  0
SCALE
  5
56
102
{ACAD_REACTORS
330
47
102
}
330
47
100
AcDbScale
 70
     0
300
8:1
140
8.0
141
1.0
290
     0
  0
SCALE
  5
57
102
{ACAD_REACTORS
330
47
102
}
330
47
100
AcDbScale
 70
     0
300
10:1
140
10.0
141
1.0
290
     0
  0
SCALE
  5
58
102
{ACAD_REACTORS
330
47
102
}
330
47
100
AcDbScale
 70
     0
300
100:1
140
100.0
141
1.0
290
     0
  0
SCALE
  5
59
102
{ACAD_REACTORS
330
47
102
}
330
47
100
AcDbScale
 70
     0
300
1/128" = 1'-0"
140
0.0078125
141
12.0
290
     0
  0
SCALE
  5
5A
102
{ACAD_REACTORS
330
47
102
}
330
47
100
AcDbScale
 70
     0
300
1/64" = 1'-0"
140
0.015625
141
12.0
290
     0
  0
SCALE
  5
5B
102
{ACAD_REACTORS
330
47
102
}
330
47
100
AcDbScale
 70
     0
300
1/32" = 1'-0"
140
0.03125
141
12.0
290
     0
  0
SCALE
  5
5C
102
{ACAD_REACTORS
330
47
102
}
330
47
100
AcDbScale
 70
     0
300
1/16" = 1'-0"
140
0.0625
141
12.0
290
     0
  0
SCALE
  5
5D
102
{ACAD_REACTORS
330
47
102
}
330
47
100
AcDbScale
 70
     0
300
3/32" = 1'-0"
140
0.09375
141
12.0
290
     0
  0
SCALE
  5
5E
102
{ACAD_REACTORS
330
47
102
}
330
47
100
AcDbScale
 70
     0
300
1/8" = 1'-0"
140
0.125
141
12.0
290
     0
  0
SCALE
  5
5F
102
{ACAD_REACTORS
330
47
102
}
330
47
100
AcDbScale
 70
     0
300
3/16" = 1'-0"
140
0.1875
141
12.0
290
     0
  0
SCALE
  5
60
102
{ACAD_REACTORS
330
47
102
}
330
47
100
AcDbScale
 70
     0
300
1/4" = 1'-0"
140
0.25
141
12.0
290
     0
  0
SCALE
  5
61
102
{ACAD_REACTORS
330
47
102
}
330
47
100
AcDbScale
 70
     0
300
3/8" = 1'-0"
140
0.375
141
12.0
290
     0
  0
SCALE
  5
62
102
{ACAD_REACTORS
330
47
102
}
330
47
100
AcDbScale
 70
     0
300
1/2" = 1'-0"
140
0.5
141
12.0
290
     0
  0
SCALE
  5
63
102
{ACAD_REACTORS
330
47
102
}
330
47
100
AcDbScale
 70
     0
300
3/4" = 1'-0"
140
0.75
141
12.0
290
     0
  0
SCALE
  5
64
102
{ACAD_REACTORS
330
47
102
}
330
47
100
AcDbScale
 70
     0
300
1" = 1'-0"
140
1.0
141
12.0
290
     0
  0
SCALE
  5
65
102
{ACAD_REACTORS
330
47
102
}
330
47
100
AcDbScale
 70
     0
300
1-1/2" = 1'-0"
140
1.5
141
12.0
290
     0
  0
SCALE
  5
66
102
{ACAD_REACTORS
330
47
102
}
330
47
100
AcDbScale
 70
     0
300
3" = 1'-0"
140
3.0
141
12.0
290
     0
  0
SCALE
  5
67
102
{ACAD_REACTORS
330
47
102
}
330
47
100
AcDbScale
 70
     0
300
6" = 1'-0"
140
6.0
141
12.0
290
     0
  0
SCALE
  5
68
102
{ACAD_REACTORS
330
47
102
}
330
47
100
AcDbScale
 70
     0
300
1'-0" = 1'-0"
140
12.0
141
12.0
290
     0
  0
ENDSEC
  0
EOF
