  0
SECTION
  2
HEADER
  9
$ACADVER
  1
AC1015
  9
$ACADMAINTVER
 70
     6
  9
$DWGCODEPAGE
  3
ANSI_949
  9
$INSBASE
 10
0.0
 20
0.0
 30
0.0
  9
$EXTMIN
 10
1.000000000000000E+20
 20
1.000000000000000E+20
 30
1.000000000000000E+20
  9
$EXTMAX
 10
-1.000000000000000E+20
 20
-1.000000000000000E+20
 30
-1.000000000000000E+20
  9
$LIMMIN
 10
0.0
 20
0.0
  9
$LIMMAX
 10
420.0
 20
297.0
  9
$ORTHOMODE
 70
     1
  9
$REGENMODE
 70
     1
  9
$FILLMODE
 70
     1
  9
$QTEXTMODE
 70
     0
  9
$MIRRTEXT
 70
     1
  9
$LTSCALE
 40
1.0
  9
$ATTMODE
 70
     1
  9
$TEXTSIZE
 40
3.5
  9
$TRACEWID
 40
1.0
  9
$TEXTSTYLE
  7
Standard
  9
$CLAYER
  8
0
  9
$CELTYPE
  6
ByLayer
  9
$CECOLOR
 62
   256
  9
$CELTSCALE
 40
1.0
  9
$DISPSILH
 70
     0
  9
$DIMSCALE
 40
1.0
  9
$DIMASZ
 40
3.302
  9
$DIMEXO
 40
1.0
  9
$DIMDLI
 40
3.75
  9
$DIMRND
 40
0.0
  9
$DIMDLE
 40
0.0
  9
$DIMEXE
 40
1.0
  9
$DIMTP
 40
0.0
  9
$DIMTM
 40
0.0
  9
$DIMTXT
 40
3.5
  9
$DIMCEN
 40
2.5
  9
$DIMTSZ
 40
0.0
  9
$DIMTOL
 70
     0
  9
$DIMLIM
 70
     0
  9
$DIMTIH
 70
     1
  9
$DIMTOH
 70
     1
  9
$DIMSE1
 70
     0
  9
$DIMSE2
 70
     0
  9
$DIMTAD
 70
     1
  9
$DIMZIN
 70
     0
  9
$DIMBLK
  1

  9
$DIMASO
 70
     1
  9
$DIMSHO
 70
     1
  9
$DIMPOST
  1

  9
$DIMAPOST
  1

  9
$DIMALT
 70
     0
  9
$DIMALTD
 70
     3
  9
$DIMALTF
 40
0.0393700787401575
  9
$DIMLFAC
 40
1.0
  9
$DIMTOFL
 70
     1
  9
$DIMTVP
 40
0.0
  9
$DIMTIX
 70
     0
  9
$DIMSOXD
 70
     0
  9
$DIMSAH
 70
     0
  9
$DIMBLK1
  1

  9
$DIMBLK2
  1

  9
$DIMSTYLE
  2
ISO-25
  9
$DIMCLRD
 70
     0
  9
$DIMCLRE
 70
     0
  9
$DIMCLRT
 70
     0
  9
$DIMTFAC
 40
1.0
  9
$DIMGAP
 40
1.524
  9
$DIMJUST
 70
     0
  9
$DIMSD1
 70
     0
  9
$DIMSD2
 70
     0
  9
$DIMTOLJ
 70
     0
  9
$DIMTZIN
 70
     0
  9
$DIMALTZ
 70
     0
  9
$DIMALTTZ
 70
     0
  9
$DIMUPT
 70
     0
  9
$DIMDEC
 70
     2
  9
$DIMTDEC
 70
     2
  9
$DIMALTU
 70
     2
  9
$DIMALTTD
 70
     3
  9
$DIMTXSTY
  7
Standard
  9
$DIMAUNIT
 70
     0
  9
$DIMADEC
 70
     2
  9
$DIMALTRND
 40
0.0
  9
$DIMAZIN
 70
     0
  9
$DIMDSEP
 70
    44
  9
$DIMATFIT
 70
     3
  9
$DIMFRAC
 70
     0
  9
$DIMLDRBLK
  1

  9
$DIMLUNIT
 70
     2
  9
$DIMLWD
 70
    -2
  9
$DIMLWE
 70
    -2
  9
$DIMTMOVE
 70
     0
  9
$LUNITS
 70
     2
  9
$LUPREC
 70
     2
  9
$SKETCHINC
 40
1.0
  9
$FILLETRAD
 40
10.0
  9
$AUNITS
 70
     0
  9
$AUPREC
 70
     2
  9
$MENU
  1
.
  9
$ELEVATION
 40
0.0
  9
$PELEVATION
 40
0.0
  9
$THICKNESS
 40
0.0
  9
$LIMCHECK
 70
     0
  9
$CHAMFERA
 40
0.0
  9
$CHAMFERB
 40
0.0
  9
$CHAMFERC
 40
0.0
  9
$CHAMFERD
 40
0.0
  9
$SKPOLY
 70
     0
  9
$TDCREATE
 40
2458323.675953357
  9
$TDUCREATE
 40
2458323.300953357
  9
$TDUPDATE
 40
2458324.449142789
  9
$TDUUPDATE
 40
2458324.074142789
  9
$TDINDWG
 40
0.0009277662
  9
$TDUSRTIMER
 40
2458324.074035694
  9
$USRTIMER
 70
     1
  9
$ANGBASE
 50
0.0
  9
$ANGDIR
 70
     0
  9
$PDMODE
 70
     0
  9
$PDSIZE
 40
-1.0
  9
$PLINEWID
 40
0.0
  9
$SPLFRAME
 70
     0
  9
$SPLINETYPE
 70
     6
  9
$SPLINESEGS
 70
     8
  9
$HANDSEED
  5
2D4
  9
$SURFTAB1
 70
     6
  9
$SURFTAB2
 70
     6
  9
$SURFTYPE
 70
     6
  9
$SURFU
 70
     6
  9
$SURFV
 70
     6
  9
$UCSBASE
  2

  9
$UCSNAME
  2

  9
$UCSORG
 10
0.0
 20
0.0
 30
0.0
  9
$UCSXDIR
 10
1.0
 20
0.0
 30
0.0
  9
$UCSYDIR
 10
0.0
 20
1.0
 30
0.0
  9
$UCSORTHOREF
  2

  9
$UCSORTHOVIEW
 70
     0
  9
$UCSORGTOP
 10
0.0
 20
0.0
 30
0.0
  9
$UCSORGBOTTOM
 10
0.0
 20
0.0
 30
0.0
  9
$UCSORGLEFT
 10
0.0
 20
0.0
 30
0.0
  9
$UCSORGRIGHT
 10
0.0
 20
0.0
 30
0.0
  9
$UCSORGFRONT
 10
0.0
 20
0.0
 30
0.0
  9
$UCSORGBACK
 10
0.0
 20
0.0
 30
0.0
  9
$PUCSBASE
  2

  9
$PUCSNAME
  2

  9
$PUCSORG
 10
0.0
 20
0.0
 30
0.0
  9
$PUCSXDIR
 10
1.0
 20
0.0
 30
0.0
  9
$PUCSYDIR
 10
0.0
 20
1.0
 30
0.0
  9
$PUCSORTHOREF
  2

  9
$PUCSORTHOVIEW
 70
     0
  9
$PUCSORGTOP
 10
0.0
 20
0.0
 30
0.0
  9
$PUCSORGBOTTOM
 10
0.0
 20
0.0
 30
0.0
  9
$PUCSORGLEFT
 10
0.0
 20
0.0
 30
0.0
  9
$PUCSORGRIGHT
 10
0.0
 20
0.0
 30
0.0
  9
$PUCSORGFRONT
 10
0.0
 20
0.0
 30
0.0
  9
$PUCSORGBACK
 10
0.0
 20
0.0
 30
0.0
  9
$USERI1
 70
     0
  9
$USERI2
 70
     0
  9
$USERI3
 70
     0
  9
$USERI4
 70
     0
  9
$USERI5
 70
     0
  9
$USERR1
 40
0.0
  9
$USERR2
 40
0.0
  9
$USERR3
 40
0.0
  9
$USERR4
 40
0.0
  9
$USERR5
 40
0.0
  9
$WORLDVIEW
 70
     1
  9
$SHADEDGE
 70
     3
  9
$SHADEDIF
 70
    70
  9
$TILEMODE
 70
     1
  9
$MAXACTVP
 70
    64
  9
$PINSBASE
 10
0.0
 20
0.0
 30
0.0
  9
$PLIMCHECK
 70
     0
  9
$PEXTMIN
 10
1.000000000000000E+20
 20
1.000000000000000E+20
 30
1.000000000000000E+20
  9
$PEXTMAX
 10
-1.000000000000000E+20
 20
-1.000000000000000E+20
 30
-1.000000000000000E+20
  9
$PLIMMIN
 10
0.0
 20
0.0
  9
$PLIMMAX
 10
0.0
 20
0.0
  9
$UNITMODE
 70
     0
  9
$VISRETAIN
 70
     1
  9
$PLINEGEN
 70
     0
  9
$PSLTSCALE
 70
     1
  9
$TREEDEPTH
 70
  3020
  9
$CMLSTYLE
  2
Standard
  9
$CMLJUST
 70
     0
  9
$CMLSCALE
 40
20.0
  9
$PROXYGRAPHICS
 70
     1
  9
$MEASUREMENT
 70
     1
  9
$CELWEIGHT
370
    -1
  9
$ENDCAPS
280
     0
  9
$JOINSTYLE
280
     0
  9
$LWDISPLAY
290
     1
  9
$INSUNITS
 70
     4
  9
$HYPERLINKBASE
  1

  9
$STYLESHEET
  1

  9
$XEDIT
290
     1
  9
$CEPSNTYPE
380
     0
  9
$PSTYLEMODE
290
     1
  9
$FINGERPRINTGUID
  2
{4BB49949-895B-44C9-BEFE-DD9037488971}
  9
$VERSIONGUID
  2
{FAEB1C32-E019-11D5-929B-00C0DF256EC4}
  9
$EXTNAMES
290
     1
  9
$PSVPSCALE
 40
0.0
  9
$OLESTARTUP
290
     0
  0
ENDSEC
  0
SECTION
  2
CLASSES
  0
CLASS
  1
ACDBDICTIONARYWDFLT
  2
AcDbDictionaryWithDefault
  3
ObjectDBX Classes
 90
        0
280
     0
281
     0
  0
CLASS
  1
VISUALSTYLE
  2
AcDbVisualStyle
  3
ObjectDBX Classes
 90
     4095
280
     0
281
     0
  0
CLASS
  1
MATERIAL
  2
AcDbMaterial
  3
ObjectDBX Classes
 90
     1153
280
     0
281
     0
  0
CLASS
  1
SCALE
  2
AcDbScale
  3
ObjectDBX Classes
 90
     1153
280
     0
281
     0
  0
CLASS
  1
SUN
  2
AcDbSun
  3
SCENEOE
 90
     1153
280
     0
281
     0
  0
CLASS
  1
ACDBPLACEHOLDER
  2
AcDbPlaceHolder
  3
ObjectDBX Classes
 90
        0
280
     0
281
     0
  0
CLASS
  1
LAYOUT
  2
AcDbLayout
  3
ObjectDBX Classes
 90
        0
280
     0
281
     0
  0
CLASS
  1
TABLESTYLE
  2
AcDbTableStyle
  3
ObjectDBX Classes
 90
     4095
280
     0
281
     0
  0
CLASS
  1
MLEADERSTYLE
  2
AcDbMLeaderStyle
  3
ACDB_MLEADERSTYLE_CLASS
 90
     4095
280
     0
281
     0
  0
CLASS
  1
RASTERVARIABLES
  2
AcDbRasterVariables
  3
ISM
 90
        0
280
     0
281
     0
  0
ENDSEC
  0
SECTION
  2
TABLES
  0
TABLE
  2
VPORT
  5
8
330
0
100
AcDbSymbolTable
 70
     1
  0
VPORT
  5
29
330
8
100
AcDbSymbolTableRecord
100
AcDbViewportTableRecord
  2
*Active
 70
     0
 10
0.0
 20
0.0
 11
1.0
 21
1.0
 12
16.70441336647335
 22
-18.243717487962
 13
0.0
 23
0.0
 14
10.0
 24
10.0
 15
10.0
 25
10.0
 16
0.0
 26
0.0
 36
1.0
 17
0.0
 27
0.0
 37
0.0
 40
150.5942384626532
 41
1.632093933463796
 42
50.0
 43
0.0
 44
0.0
 50
0.0
 51
0.0
 71
    16
 72
  2000
 73
     1
 74
     3
 75
     0
 76
     0
 77
     0
 78
     0
281
     0
 65
     1
110
0.0
120
0.0
130
0.0
111
1.0
121
0.0
131
0.0
112
0.0
122
1.0
132
0.0
 79
     0
146
0.0
  0
ENDTAB
  0
TABLE
  2
LTYPE
  5
5
330
0
100
AcDbSymbolTable
 70
     6
  0
LTYPE
  5
14
330
5
100
AcDbSymbolTableRecord
100
AcDbLinetypeTableRecord
  2
ByBlock
 70
     0
  3

 72
    65
 73
     0
 40
0.0
  0
LTYPE
  5
15
330
5
100
AcDbSymbolTableRecord
100
AcDbLinetypeTableRecord
  2
ByLayer
 70
     0
  3

 72
    65
 73
     0
 40
0.0
  0
LTYPE
  5
16
330
5
100
AcDbSymbolTableRecord
100
AcDbLinetypeTableRecord
  2
Continuous
 70
     0
  3
Solid line
 72
    65
 73
     0
 40
0.0
  0
LTYPE
  5
6A
330
5
100
AcDbSymbolTableRecord
100
AcDbLinetypeTableRecord
  2
HIDDEN
 70
     0
  3
Hidden __ __ __ __ __ __ __ __ __ __ __ __ __ __
 72
    65
 73
     2
 40
1.905
 49
1.27
 74
     0
 49
-0.635
 74
     0
  0
LTYPE
  5
6B
330
5
100
AcDbSymbolTableRecord
100
AcDbLinetypeTableRecord
  2
PHANTOM
 70
     0
  3
Phantom ______  __  __  ______  __  __  ______
 72
    65
 73
     6
 40
12.7
 49
6.35
 74
     0
 49
-1.27
 74
     0
 49
1.27
 74
     0
 49
-1.27
 74
     0
 49
1.27
 74
     0
 49
-1.27
 74
     0
  0
LTYPE
  5
6C
330
5
100
AcDbSymbolTableRecord
100
AcDbLinetypeTableRecord
  2
CENTER
 70
     0
  3
Center ____ _ ____ _ ____ _ ____ _ ____ _ ____
 72
    65
 73
     4
 40
10.16
 49
6.35
 74
     0
 49
-1.27
 74
     0
 49
1.27
 74
     0
 49
-1.27
 74
     0
  0
LTYPE
  5
6D
330
5
100
AcDbSymbolTableRecord
100
AcDbLinetypeTableRecord
  2
CENTERX2
 70
     0
  3
Center (2x) ________  __  ________  __  _____
 72
    65
 73
     4
 40
20.32
 49
12.7
 74
     0
 49
-2.54
 74
     0
 49
2.54
 74
     0
 49
-2.54
 74
     0
  0
LTYPE
  5
6E
330
5
100
AcDbSymbolTableRecord
100
AcDbLinetypeTableRecord
  2
DOT2
 70
     0
  3
Dot (.5x) ........................................
 72
    65
 73
     2
 40
0.635
 49
0.0
 74
     0
 49
-0.635
 74
     0
  0
ENDTAB
  0
TABLE
  2
LAYER
  5
2
102
{ACAD_XDICTIONARY
360
1DF
102
}
330
0
100
AcDbSymbolTable
 70
    18
  0
LAYER
  5
10
330
2
100
AcDbSymbolTableRecord
100
AcDbLayerTableRecord
  2
0
 70
     0
 62
     7
  6
Continuous
370
    -3
390
F
  0
LAYER
  5
6F
330
2
100
AcDbSymbolTableRecord
100
AcDbLayerTableRecord
  2
FORMAT
 70
     0
 62
     2
  6
Continuous
370
    -3
390
F
  0
LAYER
  5
70
330
2
100
AcDbSymbolTableRecord
100
AcDbLayerTableRecord
  2
외형선
 70
     0
 62
     4
  6
Continuous
370
    30
390
F
  0
LAYER
  5
71
330
2
100
AcDbSymbolTableRecord
100
AcDbLayerTableRecord
  2
숨은선
 70
     0
 62
     2
  6
HIDDEN
370
    15
390
F
  0
LAYER
  5
72
330
2
100
AcDbSymbolTableRecord
100
AcDbLayerTableRecord
  2
중심선
 70
     0
 62
     1
  6
CENTERX2
370
    -3
390
F
  0
LAYER
  5
73
330
2
100
AcDbSymbolTableRecord
100
AcDbLayerTableRecord
  2
파단선
 70
     0
 62
     4
  6
Continuous
370
    -3
390
F
  0
LAYER
  5
74
330
2
100
AcDbSymbolTableRecord
100
AcDbLayerTableRecord
  2
해칭선
 70
     0
 62
   100
  6
Continuous
370
    -3
390
F
  0
LAYER
  5
75
330
2
100
AcDbSymbolTableRecord
100
AcDbLayerTableRecord
  2
가는실선
 70
     0
 62
     4
  6
Continuous
370
    -3
390
F
  0
LAYER
  5
76
330
2
100
AcDbSymbolTableRecord
100
AcDbLayerTableRecord
  2
치수_보조선
 70
     0
 62
     4
  6
Continuous
370
    -3
390
F
  0
LAYER
  5
77
330
2
100
AcDbSymbolTableRecord
100
AcDbLayerTableRecord
  2
치수문자_일반주서
 70
     0
 62
     7
  6
Continuous
370
    15
390
F
  0
LAYER
  5
78
330
2
100
AcDbSymbolTableRecord
100
AcDbLayerTableRecord
  2
개별주서
 70
     0
 62
   100
  6
Continuous
370
    30
390
F
  0
LAYER
  5
79
330
2
100
AcDbSymbolTableRecord
100
AcDbLayerTableRecord
  2
중간선
 70
     0
 62
     2
  6
Continuous
370
    15
390
F
  0
LAYER
  5
7A
330
2
100
AcDbSymbolTableRecord
100
AcDbLayerTableRecord
  2
윤곽선
 70
     0
 62
     3
  6
Continuous
370
    40
390
F
  0
LAYER
  5
7B
330
2
100
AcDbSymbolTableRecord
100
AcDbLayerTableRecord
  2
중심마크
 70
     0
 62
   100
  6
Continuous
370
    30
390
F
  0
LAYER
  5
7C
330
2
100
AcDbSymbolTableRecord
100
AcDbLayerTableRecord
  2
가상선
 70
     0
 62
     4
  6
PHANTOM
370
    -3
390
F
  0
LAYER
  5
7D
330
2
100
AcDbSymbolTableRecord
100
AcDbLayerTableRecord
  2
특수지정선
 70
     0
 62
     5
  6
CENTERX2
370
    60
390
F
  0
LAYER
  5
7E
330
2
100
AcDbSymbolTableRecord
100
AcDbLayerTableRecord
  2
참조1
 70
     0
 62
    -4
  6
Continuous
370
    -3
390
F
  0
LAYER
  5
14C
330
2
100
AcDbSymbolTableRecord
100
AcDbLayerTableRecord
  2
Defpoints
 70
     0
 62
     7
  6
Continuous
290
     0
370
    -3
390
F
  0
ENDTAB
  0
TABLE
  2
STYLE
  5
3
330
0
100
AcDbSymbolTable
 70
     2
  0
STYLE
  5
11
330
3
100
AcDbSymbolTableRecord
100
AcDbTextStyleTableRecord
  2
Standard
 70
     0
 40
0.0
 41
1.0
 50
0.0
 71
     0
 42
3.5
  3
txt
  4

  0
STYLE
  5
94
330
3
100
AcDbSymbolTableRecord
100
AcDbTextStyleTableRecord
  2
SLDTEXTSTYLE0
 70
     0
 40
0.0
 41
0.75
 50
0.0
 71
     0
 42
3.5
  3
TXT
  4

  0
ENDTAB
  0
TABLE
  2
VIEW
  5
6
330
0
100
AcDbSymbolTable
 70
     0
  0
ENDTAB
  0
TABLE
  2
UCS
  5
7
330
0
100
AcDbSymbolTable
 70
     0
  0
ENDTAB
  0
TABLE
  2
APPID
  5
9
330
0
100
AcDbSymbolTable
 70
     1
  0
APPID
  5
12
330
9
100
AcDbSymbolTableRecord
100
AcDbRegAppTableRecord
  2
ACAD
 70
     0
  0
ENDTAB
  0
TABLE
  2
DIMSTYLE
  5
A
330
0
100
AcDbSymbolTable
 70
     3
100
AcDbDimStyleTable
  0
DIMSTYLE
105
27
330
A
100
AcDbSymbolTableRecord
100
AcDbDimStyleTableRecord
  2
ISO-25
 70
     0
 41
2.5
 42
0.625
 43
3.75
 44
1.25
 73
     0
 74
     0
 77
     1
 78
     8
140
2.5
141
2.5
143
0.03937007874016
147
0.625
171
     3
172
     1
178
     0
271
     2
272
     2
274
     3
278
    44
283
     0
284
     8
340
11
  0
DIMSTYLE
105
C9
330
A
100
AcDbSymbolTableRecord
100
AcDbDimStyleTableRecord
  2
SLDDIMSTYLE0
 70
     0
 41
3.302
 44
0.0
 45
0.000000001
 73
     0
 74
     0
 77
     1
 78
    12
 79
     3
140
3.5
143
0.0393700787401575
147
0.875
148
0.000000001
170
     1
173
     1
178
     0
271
     2
272
     2
276
     2
284
    12
340
94
  0
DIMSTYLE
105
F1
102
{ACAD_REACTORS
330
F0
330
105
330
C8
330
DD
102
}
330
A
100
AcDbSymbolTableRecord
100
AcDbDimStyleTableRecord
  2
SLDDIMSTYLE1
 70
     0
 41
3.302
 44
0.0
 45
0.000000001
 73
     0
 74
     0
 77
     1
 78
    12
 79
     3
140
3.5
143
0.0393700787401575
147
0.875
148
0.000000001
170
     1
172
     1
173
     1
178
     0
271
     2
272
     2
276
     2
284
    12
289
     0
340
94
  0
ENDTAB
  0
TABLE
  2
BLOCK_RECORD
  5
1
330
0
100
AcDbSymbolTable
 70
    16
  0
BLOCK_RECORD
  5
1F
330
1
100
AcDbSymbolTableRecord
100
AcDbBlockTableRecord
  2
*Model_Space
340
22
  0
BLOCK_RECORD
  5
1B
330
1
100
AcDbSymbolTableRecord
100
AcDbBlockTableRecord
  2
*Paper_Space
340
1E
  0
BLOCK_RECORD
  5
23
330
1
100
AcDbSymbolTableRecord
100
AcDbBlockTableRecord
  2
*Paper_Space0
340
26
  0
BLOCK_RECORD
  5
7F
330
1
100
AcDbSymbolTableRecord
100
AcDbBlockTableRecord
  2
블럭10
340
0
102
{BLKREFS
331
C1
102
}
  0
BLOCK_RECORD
  5
CA
330
1
100
AcDbSymbolTableRecord
100
AcDbBlockTableRecord
  2
_D
340
0
  0
BLOCK_RECORD
  5
DE
330
1
100
AcDbSymbolTableRecord
100
AcDbBlockTableRecord
  2
_D_1
340
0
  0
BLOCK_RECORD
  5
F2
330
1
100
AcDbSymbolTableRecord
100
AcDbBlockTableRecord
  2
_D_2
340
0
  0
BLOCK_RECORD
  5
106
330
1
100
AcDbSymbolTableRecord
100
AcDbBlockTableRecord
  2
_D_3
340
0
  0
BLOCK_RECORD
  5
120
330
1
100
AcDbSymbolTableRecord
100
AcDbBlockTableRecord
  2
SW_DOWELSYMBOL_0
340
0
102
{BLKREFS
331
126
102
}
  0
BLOCK_RECORD
  5
1E3
330
1
100
AcDbSymbolTableRecord
100
AcDbBlockTableRecord
  2
*D7
340
0
  0
BLOCK_RECORD
  5
1F2
330
1
100
AcDbSymbolTableRecord
100
AcDbBlockTableRecord
  2
*D8
340
0
  0
BLOCK_RECORD
  5
1FE
330
1
100
AcDbSymbolTableRecord
100
AcDbBlockTableRecord
  2
*D9
340
0
  0
BLOCK_RECORD
  5
20A
330
1
100
AcDbSymbolTableRecord
100
AcDbBlockTableRecord
  2
*D10
340
0
  0
BLOCK_RECORD
  5
24B
330
1
100
AcDbSymbolTableRecord
100
AcDbBlockTableRecord
  2
*D11
340
0
  0
BLOCK_RECORD
  5
25A
330
1
100
AcDbSymbolTableRecord
100
AcDbBlockTableRecord
  2
*D12
340
0
  0
BLOCK_RECORD
  5
266
330
1
100
AcDbSymbolTableRecord
100
AcDbBlockTableRecord
  2
*D13
340
0
  0
BLOCK_RECORD
  5
272
330
1
100
AcDbSymbolTableRecord
100
AcDbBlockTableRecord
  2
*D14
340
0
  0
ENDTAB
  0
ENDSEC
  0
SECTION
  2
BLOCKS
  0
BLOCK
  5
20
330
1F
100
AcDbEntity
  8
0
100
AcDbBlockBegin
  2
*Model_Space
 70
     0
 10
0.0
 20
0.0
 30
0.0
  3
*Model_Space
  1
*Model_Space
  0
ENDBLK
  5
21
330
1F
100
AcDbEntity
  8
0
100
AcDbBlockEnd
  0
BLOCK
  5
1C
330
1B
100
AcDbEntity
 67
     1
  8
0
100
AcDbBlockBegin
  2
*Paper_Space
 70
     0
 10
0.0
 20
0.0
 30
0.0
  3
*Paper_Space
  1
*Paper_Space
  0
ENDBLK
  5
1D
330
1B
100
AcDbEntity
 67
     1
  8
0
100
AcDbBlockEnd
  0
BLOCK
  5
24
330
23
100
AcDbEntity
  8
0
100
AcDbBlockBegin
  2
*Paper_Space0
 70
     0
 10
0.0
 20
0.0
 30
0.0
  3
*Paper_Space0
  1
*Paper_Space0
  0
ENDBLK
  5
25
330
23
100
AcDbEntity
  8
0
100
AcDbBlockEnd
  0
BLOCK
  5
80
330
7F
100
AcDbEntity
  8
0
100
AcDbBlockBegin
  2
블럭10
 70
     2
 10
0.0
 20
0.0
 30
0.0
  3
블럭10
  1
블럭10
  0
ELLIPSE
  5
82
330
7F
100
AcDbEntity
  8
중심선
100
AcDbEllipse
 10
20.54032771741204
 20
12.0471743016438
 30
0.0
 11
6.600054785286829
 21
-1.261213355974178E-13
 31
0.0
210
0.0
220
0.0
230
1.0
 40
0.636358354079598
 41
0.9219305317359503
 42
6.513795318482858
  0
ELLIPSE
  5
83
330
7F
100
AcDbEntity
  8
중심선
100
AcDbEllipse
 10
20.54032771746488
 20
12.04717430159265
 30
0.0
 11
3.960054785062283
 21
1.540847449632565E-10
 31
0.0
210
0.0
220
0.0
230
1.0
 40
0.3939339440162632
 41
1.131841032648279
 42
5.62031148352944
  0
LINE
  5
84
330
7F
100
AcDbEntity
  8
중심선
100
AcDbLine
 10
2.268634060543552
 20
16.24717430164393
 30
0.0
 11
5.714909304380834
 21
16.24717430164393
 31
0.0
  0
LINE
  5
85
330
7F
100
AcDbEntity
  8
중심선
100
AcDbLine
 10
5.245725140726316
 20
7.84717430164391
 30
0.0
 11
8.692000384563599
 21
7.84717430164391
 31
0.0
  0
LINE
  5
86
330
7F
100
AcDbEntity
  8
중심선
100
AcDbLine
 10
15.74043728645272
 20
16.24717430164393
 30
0.0
 11
8.692000384563599
 21
7.84717430164391
 31
0.0
  0
LINE
  5
87
330
7F
100
AcDbEntity
  8
중심선
100
AcDbLine
 10
0.1404042013395286
 20
13.71084872107135
 30
0.0
 11
3.58671253028996
 21
13.71088815037384
 31
0.0
  0
LINE
  5
88
330
7F
100
AcDbEntity
  8
중심선
100
AcDbLine
 10
2.750260043222114
 20
10.84717430164391
 30
0.0
 11
6.196535287059397
 21
10.84717430164391
 31
0.0
  0
LINE
  5
89
330
7F
100
AcDbEntity
  8
중심선
100
AcDbLine
 10
12.29416204261559
 20
16.24717430164393
 30
0.0
 11
5.245725140726316
 21
7.84717430164391
 31
0.0
  0
LINE
  5
8A
330
7F
100
AcDbEntity
  8
중심선
100
AcDbLine
 10
10.72767329541681
 20
16.24717430164393
 30
0.0
 11
6.196535287059397
 21
10.84717430164391
 31
0.0
  0
LINE
  5
8B
330
7F
100
AcDbEntity
  8
중심선
100
AcDbLine
 10
7.28139805157953
 20
16.24717430164393
 30
0.0
 11
2.750260043222114
 21
10.84717430164391
 31
0.0
  0
LINE
  5
8C
330
7F
100
AcDbEntity
  8
중심선
100
AcDbLine
 10
5.714909304380834
 20
16.24717430164393
 30
0.0
 11
3.58671253028996
 21
13.71088815037384
 31
0.0
  0
LINE
  5
8D
330
7F
100
AcDbEntity
  8
중심선
100
AcDbLine
 10
2.268634060543552
 20
16.24717430164393
 30
0.0
 11
0.1404042013395286
 21
13.71084872107135
 31
0.0
  0
LINE
  5
8E
330
7F
100
AcDbEntity
  8
중심선
100
AcDbLine
 10
7.28139805157953
 20
16.24717430164393
 30
0.0
 11
10.72767329541681
 21
16.24717430164393
 31
0.0
  0
LINE
  5
8F
330
7F
100
AcDbEntity
  8
중심선
100
AcDbLine
 10
12.29416204261559
 20
16.24717430164393
 30
0.0
 11
15.74043728645272
 21
16.24717430164393
 31
0.0
  0
LINE
  5
90
330
7F
100
AcDbEntity
  8
중심선
100
AcDbLine
 10
19.22036997980202
 20
11.08717430171403
 30
0.0
 11
23.66174974927406
 21
11.08717430171406
 31
0.0
  0
LINE
  5
91
330
7F
100
AcDbEntity
  8
중심선
100
AcDbLine
 10
19.22039502424796
 20
13.00717430171391
 30
0.0
 11
19.22036997980202
 21
11.08717430171403
 31
0.0
  0
LINE
  5
92
330
7F
100
AcDbEntity
  8
중심선
100
AcDbLine
 10
19.22039502424796
 20
13.00717430171391
 30
0.0
 11
26.96566020931264
 21
13.00717430171391
 31
0.0
  0
LINE
  5
93
330
7F
100
AcDbEntity
  8
중심선
100
AcDbLine
 10
22.22332737316547
 20
13.45928029700563
 30
0.0
 11
24.52862924686651
 21
15.39360700705356
 31
0.0
  0
ATTDEF
  5
95
330
7F
100
AcDbEntity
  8
FORMAT
 62
     2
100
AcDbText
 10
4.408487351596664
 20
2.075366912832191
 30
0.0
 40
4.233333333333333
  1
E2020016
 41
0.75
  7
SLDTEXTSTYLE0
 11
4.408487351596664
 21
-0.0412997538344756
 31
0.0
100
AcDbAttributeDefinition
  3

  2
AUTOATTR0
 70
     0
 74
     1
  0
ENDBLK
  5
81
330
7F
100
AcDbEntity
  8
0
100
AcDbBlockEnd
  0
BLOCK
  5
CB
330
CA
100
AcDbEntity
  8
0
100
AcDbBlockBegin
  2
_D
 70
     0
 10
0.0
 20
0.0
 30
0.0
  3
_D
  1
_D
  0
LINE
  5
CD
330
CA
100
AcDbEntity
  8
치수문자_일반주서
 62
     0
370
    -2
100
AcDbLine
 10
24.79963065701558
 20
3.238574928723897
 30
0.0
 11
24.79963065701558
 21
14.76357492872391
 31
0.0
  0
LINE
  5
CE
330
CA
100
AcDbEntity
  8
치수문자_일반주서
 62
     0
370
    -2
100
AcDbLine
 10
8.924630657015609
 20
3.226899156826314
 30
0.0
 11
8.924630657015612
 21
14.76357492872391
 31
0.0
  0
LINE
  5
CF
330
CA
100
AcDbEntity
  8
치수문자_일반주서
 62
     0
370
    -2
100
AcDbLine
 10
24.79963065701558
 20
14.76357492872391
 30
0.0
 11
56.77863065701558
 21
14.76357492872391
 31
0.0
  0
LINE
  5
D0
330
CA
100
AcDbEntity
  8
치수문자_일반주서
 62
     0
370
    -2
100
AcDbLine
 10
24.79963065701558
 20
14.76357492872391
 30
0.0
 11
8.924630657015612
 21
14.76357492872391
 31
0.0
  0
LINE
  5
D1
330
CA
100
AcDbEntity
  8
치수문자_일반주서
 62
     0
370
    -2
100
AcDbLine
 10
28.10163065701558
 20
14.76357492872391
 30
0.0
 11
31.40363065701558
 21
14.76357492872391
 31
0.0
  0
LINE
  5
D2
330
CA
100
AcDbEntity
  8
치수문자_일반주서
 62
     0
370
    -2
100
AcDbLine
 10
5.622630657015613
 20
14.76357492872391
 30
0.0
 11
2.320630657015613
 21
14.76357492872391
 31
0.0
  0
SOLID
  5
D3
330
CA
100
AcDbEntity
  8
치수문자_일반주서
 62
     0
100
AcDbTrace
 10
28.10163065701558
 20
15.31390826205724
 30
0.0
 11
28.10163065701558
 21
14.21324159539057
 31
0.0
 12
24.79963065701558
 22
14.76357492872391
 32
0.0
 13
24.79963065701558
 23
14.76357492872391
 33
0.0
  0
SOLID
  5
D4
330
CA
100
AcDbEntity
  8
치수문자_일반주서
 62
     0
100
AcDbTrace
 10
5.622630657015613
 20
14.21324159539057
 30
0.0
 11
5.622630657015613
 21
15.31390826205724
 31
0.0
 12
8.924630657015612
 22
14.76357492872391
 32
0.0
 13
8.924630657015612
 23
14.76357492872391
 33
0.0
  0
MTEXT
  5
D5
330
CA
100
AcDbEntity
  8
치수문자_일반주서
 62
     0
100
AcDbMText
 10
44.09113065701558
 20
19.13857492872391
 30
0.0
 40
3.5
 41
0.0
 71
     2
 72
     1
  1
\A1;15.88 [5/8]
  7
SLDTEXTSTYLE0
 73
     1
 44
1.0
  0
POINT
  5
D6
330
CA
100
AcDbEntity
  8
Defpoints
 62
     0
100
AcDbPoint
 10
24.79963065701558
 20
3.176074928723897
 30
0.0
  0
POINT
  5
281
330
CA
100
AcDbEntity
  8
Defpoints
 62
     0
100
AcDbPoint
 10
8.924630657015609
 20
3.164399156826314
 30
0.0
  0
POINT
  5
282
330
CA
100
AcDbEntity
  8
Defpoints
 62
     0
100
AcDbPoint
 10
8.924630657015609
 20
14.76357492872391
 30
0.0
  0
ENDBLK
  5
CC
330
CA
100
AcDbEntity
  8
0
100
AcDbBlockEnd
  0
BLOCK
  5
DF
330
DE
100
AcDbEntity
  8
0
100
AcDbBlockBegin
  2
_D_1
 70
     0
 10
0.0
 20
0.0
 30
0.0
  3
_D_1
  1
_D_1
  0
LINE
  5
E1
330
DE
100
AcDbEntity
  8
치수문자_일반주서
 62
     0
370
    -2
100
AcDbLine
 10
24.79963065701558
 20
3.238574928723897
 30
0.0
 11
24.79963065701558
 21
31.6102217220047
 31
0.0
  0
LINE
  5
E2
330
DE
100
AcDbEntity
  8
치수문자_일반주서
 62
     0
370
    -2
100
AcDbLine
 10
-37.1128693429844
 20
3.873574928723901
 30
0.0
 11
-37.1128693429844
 21
31.6102217220047
 31
0.0
  0
LINE
  5
E3
330
DE
100
AcDbEntity
  8
치수문자_일반주서
 62
     0
370
    -2
100
AcDbLine
 10
21.49763065701558
 20
31.6102217220047
 30
0.0
 11
-33.8108693429844
 21
31.6102217220047
 31
0.0
  0
SOLID
  5
E4
330
DE
100
AcDbEntity
  8
치수문자_일반주서
 62
     0
100
AcDbTrace
 10
21.49763065701558
 20
31.05988838867136
 30
0.0
 11
21.49763065701558
 21
32.16055505533803
 31
0.0
 12
24.79963065701558
 22
31.6102217220047
 32
0.0
 13
24.79963065701558
 23
31.6102217220047
 33
0.0
  0
SOLID
  5
E5
330
DE
100
AcDbEntity
  8
치수문자_일반주서
 62
     0
100
AcDbTrace
 10
-33.8108693429844
 20
32.16055505533803
 30
0.0
 11
-33.8108693429844
 21
31.05988838867136
 31
0.0
 12
-37.1128693429844
 22
31.6102217220047
 32
0.0
 13
-37.1128693429844
 23
31.6102217220047
 33
0.0
  0
MTEXT
  5
E6
330
DE
100
AcDbEntity
  8
치수문자_일반주서
 62
     0
100
AcDbMText
 10
-6.15661934298441
 20
35.9852217220047
 30
0.0
 40
3.5
 41
0.0
 71
     2
 72
     1
  1
\A1;61.91 [2 7/16]
  7
SLDTEXTSTYLE0
 73
     1
 44
1.0
  0
POINT
  5
E7
330
DE
100
AcDbEntity
  8
Defpoints
 62
     0
100
AcDbPoint
 10
24.79963065701558
 20
3.176074928723897
 30
0.0
  0
POINT
  5
E8
330
DE
100
AcDbEntity
  8
Defpoints
 62
     0
100
AcDbPoint
 10
-37.1128693429844
 20
3.811074928723901
 30
0.0
  0
POINT
  5
E9
330
DE
100
AcDbEntity
  8
Defpoints
 62
     0
100
AcDbPoint
 10
-37.1128693429844
 20
31.6102217220047
 30
0.0
  0
ENDBLK
  5
E0
330
DE
100
AcDbEntity
  8
0
100
AcDbBlockEnd
  0
BLOCK
  5
F3
330
F2
100
AcDbEntity
  8
0
100
AcDbBlockBegin
  2
_D_2
 70
     0
 10
0.0
 20
0.0
 30
0.0
  3
_D_2
  1
_D_2
  0
LINE
  5
F5
330
F2
100
AcDbEntity
  8
치수문자_일반주서
 62
     0
370
    -2
100
AcDbLine
 10
-36.22286934298439
 20
4.763574928723896
 30
0.0
 11
-50.11286934298441
 21
4.763574928723846
 31
0.0
  0
LINE
  5
F6
330
F2
100
AcDbEntity
  8
치수문자_일반주서
 62
     0
370
    -2
100
AcDbLine
 10
-36.22286934298439
 20
-4.761425071276109
 30
0.0
 11
-50.11286934298438
 21
-4.76142507127616
 31
0.0
  0
LINE
  5
F7
330
F2
100
AcDbEntity
  8
치수문자_일반주서
 62
     0
370
    -2
100
AcDbLine
 10
-50.1128693429844
 20
1.461574928723846
 30
0.0
 11
-50.11286934298439
 21
-1.459425071276161
 31
0.0
  0
SOLID
  5
F8
330
F2
100
AcDbEntity
  8
치수문자_일반주서
 62
     0
100
AcDbTrace
 10
-49.56253600965106
 20
1.461574928723848
 30
0.0
 11
-50.66320267631773
 21
1.461574928723844
 31
0.0
 12
-50.11286934298441
 22
4.763574928723846
 32
0.0
 13
-50.11286934298441
 23
4.763574928723846
 33
0.0
  0
SOLID
  5
F9
330
F2
100
AcDbEntity
  8
치수문자_일반주서
 62
     0
100
AcDbTrace
 10
-50.66320267631772
 20
-1.459425071276162
 30
0.0
 11
-49.56253600965105
 21
-1.459425071276159
 31
0.0
 12
-50.11286934298438
 22
-4.76142507127616
 32
0.0
 13
-50.11286934298438
 23
-4.76142507127616
 33
0.0
  0
MTEXT
  5
FA
330
F2
100
AcDbEntity
  8
치수문자_일반주서
 62
     0
100
AcDbMText
 10
-54.4878693429844
 20
0.0010749287238777
 30
0.0
 40
3.5
 41
0.0
 71
     2
 72
     1
  1
\A1;%%c9.53 [3/8]
  7
SLDTEXTSTYLE0
 11
-3.729883127349604E-15
 21
1.0
 31
0.0
 73
     1
 44
1.0
  0
POINT
  5
FB
330
F2
100
AcDbEntity
  8
Defpoints
 62
     0
100
AcDbPoint
 10
-36.16036934298439
 20
4.763574928723896
 30
0.0
  0
POINT
  5
FC
330
F2
100
AcDbEntity
  8
Defpoints
 62
     0
100
AcDbPoint
 10
-36.16036934298439
 20
-4.761425071276109
 30
0.0
  0
POINT
  5
FD
330
F2
100
AcDbEntity
  8
Defpoints
 62
     0
100
AcDbPoint
 10
-50.11286934298438
 20
-4.761425071276162
 30
0.0
  0
ENDBLK
  5
F4
330
F2
100
AcDbEntity
  8
0
100
AcDbBlockEnd
  0
BLOCK
  5
107
330
106
100
AcDbEntity
  8
0
100
AcDbBlockBegin
  2
_D_3
 70
     0
 10
0.0
 20
0.0
 30
0.0
  3
_D_3
  1
_D_3
  0
LINE
  5
109
330
106
100
AcDbEntity
  8
치수문자_일반주서
 62
     0
370
    -2
100
AcDbLine
 10
24.86213065701558
 20
3.176074928723898
 30
0.0
 11
63.97354975764006
 21
3.176074928724042
 31
0.0
  0
LINE
  5
10A
330
106
100
AcDbEntity
  8
치수문자_일반주서
 62
     0
370
    -2
100
AcDbLine
 10
24.86213065701561
 20
-3.173925071276102
 30
0.0
 11
63.97354975764008
 21
-3.173925071275956
 31
0.0
  0
LINE
  5
10B
330
106
100
AcDbEntity
  8
치수문자_일반주서
 62
     0
370
    -2
100
AcDbLine
 10
63.97354975764006
 20
3.176074928724042
 30
0.0
 11
63.97354975763993
 21
42.21357492872379
 31
0.0
  0
LINE
  5
10C
330
106
100
AcDbEntity
  8
치수문자_일반주서
 62
     0
370
    -2
100
AcDbLine
 10
63.97354975764006
 20
3.176074928724042
 30
0.0
 11
63.97354975764008
 21
-3.173925071275956
 31
0.0
  0
LINE
  5
10D
330
106
100
AcDbEntity
  8
치수문자_일반주서
 62
     0
370
    -2
100
AcDbLine
 10
63.97354975764004
 20
6.478074928724041
 30
0.0
 11
63.97354975764003
 21
9.78007492872404
 31
0.0
  0
LINE
  5
10E
330
106
100
AcDbEntity
  8
치수문자_일반주서
 62
     0
370
    -2
100
AcDbLine
 10
63.97354975764009
 20
-6.475925071275956
 30
0.0
 11
63.97354975764011
 21
-9.777925071275956
 31
0.0
  0
SOLID
  5
10F
330
106
100
AcDbEntity
  8
치수문자_일반주서
 62
     0
100
AcDbTrace
 10
63.42321642430671
 20
6.478074928724039
 30
0.0
 11
64.52388309097337
 21
6.478074928724043
 31
0.0
 12
63.97354975764006
 22
3.176074928724042
 32
0.0
 13
63.97354975764006
 23
3.176074928724042
 33
0.0
  0
SOLID
  5
110
330
106
100
AcDbEntity
  8
치수문자_일반주서
 62
     0
100
AcDbTrace
 10
64.52388309097343
 20
-6.475925071275954
 30
0.0
 11
63.42321642430676
 21
-6.475925071275958
 31
0.0
 12
63.97354975764008
 22
-3.173925071275956
 32
0.0
 13
63.97354975764008
 23
-3.173925071275956
 33
0.0
  0
MTEXT
  5
111
330
106
100
AcDbEntity
  8
치수문자_일반주서
 62
     0
100
AcDbMText
 10
59.59854975763997
 20
29.52607492872378
 30
0.0
 40
3.5
 41
0.0
 71
     2
 72
     1
  1
\A1;%%c6.35 [1/4]
  7
SLDTEXTSTYLE0
 11
-3.356894814614647E-15
 21
1.0
 31
0.0
 73
     1
 44
1.0
  0
POINT
  5
112
330
106
100
AcDbEntity
  8
Defpoints
 62
     0
100
AcDbPoint
 10
24.79963065701558
 20
3.176074928723897
 30
0.0
  0
POINT
  5
113
330
106
100
AcDbEntity
  8
Defpoints
 62
     0
100
AcDbPoint
 10
24.79963065701561
 20
-3.173925071276102
 30
0.0
  0
POINT
  5
114
330
106
100
AcDbEntity
  8
Defpoints
 62
     0
100
AcDbPoint
 10
63.97354975764011
 20
-3.173925071275956
 30
0.0
  0
ENDBLK
  5
108
330
106
100
AcDbEntity
  8
0
100
AcDbBlockEnd
  0
BLOCK
  5
121
330
120
100
AcDbEntity
  8
0
100
AcDbBlockBegin
  2
SW_DOWELSYMBOL_0
 70
     0
 10
0.0
 20
0.0
 30
0.0
  3
SW_DOWELSYMBOL_0
  1
SW_DOWELSYMBOL_0
  0
CIRCLE
  5
123
330
120
100
AcDbEntity
  8
해칭선
 62
     0
100
AcDbCircle
 10
0.0
 20
0.0
 30
0.0
 40
3.000000000000001
  0
HATCH
  5
124
330
120
100
AcDbEntity
  8
0
  6
Continuous
 62
     0
370
     0
100
AcDbHatch
 10
0.0
 20
0.0
 30
0.0
210
0.0
220
0.0
230
1.0
  2
SOLID
 70
     1
 71
     0
 91
        1
 92
        0
 93
        3
 72
     2
 10
0.0
 20
0.0
 40
3.000000000000001
 50
0.0
 51
90.0
 73
     1
 72
     1
 10
0.0
 20
3.000000000000001
 11
0.0
 21
0.0
 72
     1
 10
0.0
 20
0.0
 11
3.000000000000001
 21
0.0
 97
        0
 75
     0
 76
     1
 98
        1
 10
0.0
 20
0.0
  0
HATCH
  5
125
330
120
100
AcDbEntity
  8
0
  6
Continuous
 62
     0
370
     0
100
AcDbHatch
 10
0.0
 20
0.0
 30
0.0
210
0.0
220
0.0
230
1.0
  2
SOLID
 70
     1
 71
     0
 91
        1
 92
        0
 93
        3
 72
     2
 10
0.0
 20
0.0
 40
3.000000000000001
 50
180.0
 51
270.0000000000007
 73
     1
 72
     1
 10
0.0
 20
-3.000000000000001
 11
0.0
 21
0.0
 72
     1
 10
0.0
 20
0.0
 11
-3.000000000000001
 21
0.0
 97
        0
 75
     0
 76
     1
 98
        1
 10
0.0
 20
0.0
  0
ENDBLK
  5
122
330
120
100
AcDbEntity
  8
0
100
AcDbBlockEnd
  0
BLOCK
  5
1E4
330
1E3
100
AcDbEntity
  8
0
100
AcDbBlockBegin
  2
*D7
 70
     1
 10
0.0
 20
0.0
 30
0.0
  3
*D7
  1
*D8
  0
LINE
  5
1E6
330
1E3
100
AcDbEntity
  8
치수문자_일반주서
 62
     0
370
    -2
100
AcDbLine
 10
77.70000000000002
 20
14.69375000000001
 30
0.0
 11
77.70000000000002
 21
26.09073190547024
 31
0.0
  0
LINE
  5
1E7
330
1E3
100
AcDbEntity
  8
치수문자_일반주서
 62
     0
370
    -2
100
AcDbLine
 10
65.00000000000004
 20
14.68499317107683
 30
0.0
 11
65.00000000000004
 21
26.09073190547024
 31
0.0
  0
LINE
  5
1E8
330
1E3
100
AcDbEntity
  8
치수문자_일반주서
 62
     0
370
    -2
100
AcDbLine
 10
65.00000000000004
 20
26.09073190547024
 30
0.0
 11
36.52100000000004
 21
26.09073190547024
 31
0.0
  0
LINE
  5
1E9
330
1E3
100
AcDbEntity
  8
치수문자_일반주서
 62
     0
370
    -2
100
AcDbLine
 10
77.70000000000002
 20
26.09073190547024
 30
0.0
 11
65.00000000000004
 21
26.09073190547024
 31
0.0
  0
LINE
  5
1EA
330
1E3
100
AcDbEntity
  8
치수문자_일반주서
 62
     0
370
    -2
100
AcDbLine
 10
81.00200000000001
 20
26.09073190547024
 30
0.0
 11
84.304
 21
26.09073190547024
 31
0.0
  0
LINE
  5
1EB
330
1E3
100
AcDbEntity
  8
치수문자_일반주서
 62
     0
370
    -2
100
AcDbLine
 10
61.69800000000004
 20
26.09073190547024
 30
0.0
 11
58.39600000000004
 21
26.09073190547024
 31
0.0
  0
SOLID
  5
1EC
330
1E3
100
AcDbEntity
  8
치수문자_일반주서
 62
     0
100
AcDbTrace
 10
81.00200000000001
 20
26.64106523880357
 30
0.0
 11
81.00200000000001
 21
25.5403985721369
 31
0.0
 12
77.70000000000002
 22
26.09073190547024
 32
0.0
 13
77.70000000000002
 23
26.09073190547024
 33
0.0
  0
SOLID
  5
1ED
330
1E3
100
AcDbEntity
  8
치수문자_일반주서
 62
     0
100
AcDbTrace
 10
61.69800000000004
 20
25.5403985721369
 30
0.0
 11
61.69800000000004
 21
26.64106523880357
 31
0.0
 12
65.00000000000004
 22
26.09073190547024
 32
0.0
 13
65.00000000000004
 23
26.09073190547024
 33
0.0
  0
MTEXT
  5
1EE
330
1E3
100
AcDbEntity
  8
치수문자_일반주서
 62
     0
100
AcDbMText
 10
47.45850000000004
 20
30.46573190547024
 30
0.0
 40
3.5
 41
0.0
 71
     2
 72
     1
  1
\A1;12.7 [1/2]
  7
SLDTEXTSTYLE0
 73
     1
 44
1.0
  0
POINT
  5
1EF
330
1E3
100
AcDbEntity
  8
Defpoints
 62
     0
100
AcDbPoint
 10
77.70000000000002
 20
14.63125000000001
 30
0.0
  0
POINT
  5
1F0
330
1E3
100
AcDbEntity
  8
Defpoints
 62
     0
100
AcDbPoint
 10
65.00000000000004
 20
14.62249317107683
 30
0.0
  0
POINT
  5
1F1
330
1E3
100
AcDbEntity
  8
Defpoints
 62
     0
100
AcDbPoint
 10
65.00000000000004
 20
26.09073190547024
 30
0.0
  0
ENDBLK
  5
1E5
330
1E3
100
AcDbEntity
  8
0
100
AcDbBlockEnd
  0
BLOCK
  5
1F3
330
1F2
100
AcDbEntity
  8
0
100
AcDbBlockBegin
  2
*D8
 70
     1
 10
0.0
 20
0.0
 30
0.0
  3
*D8
  1
*D9
  0
LINE
  5
1F5
330
1F2
100
AcDbEntity
  8
치수문자_일반주서
 62
     0
370
    -2
100
AcDbLine
 10
77.70000000000002
 20
14.69375000000001
 30
0.0
 11
77.70000000000002
 21
43.85914679328081
 31
0.0
  0
LINE
  5
1F6
330
1F2
100
AcDbEntity
  8
치수문자_일반주서
 62
     0
370
    -2
100
AcDbLine
 10
17.37500000000004
 20
16.12250000000002
 30
0.0
 11
17.37500000000004
 21
43.85914679328081
 31
0.0
  0
LINE
  5
1F7
330
1F2
100
AcDbEntity
  8
치수문자_일반주서
 62
     0
370
    -2
100
AcDbLine
 10
74.39800000000002
 20
43.85914679328081
 30
0.0
 11
20.67700000000004
 21
43.85914679328081
 31
0.0
  0
SOLID
  5
1F8
330
1F2
100
AcDbEntity
  8
치수문자_일반주서
 62
     0
100
AcDbTrace
 10
74.39800000000002
 20
43.30881345994748
 30
0.0
 11
74.39800000000002
 21
44.40948012661415
 31
0.0
 12
77.70000000000002
 22
43.85914679328081
 32
0.0
 13
77.70000000000002
 23
43.85914679328081
 33
0.0
  0
SOLID
  5
1F9
330
1F2
100
AcDbEntity
  8
치수문자_일반주서
 62
     0
100
AcDbTrace
 10
20.67700000000004
 20
44.40948012661415
 30
0.0
 11
20.67700000000004
 21
43.30881345994748
 31
0.0
 12
17.37500000000004
 22
43.85914679328081
 32
0.0
 13
17.37500000000004
 23
43.85914679328081
 33
0.0
  0
MTEXT
  5
1FA
330
1F2
100
AcDbEntity
  8
치수문자_일반주서
 62
     0
100
AcDbMText
 10
47.53750000000003
 20
48.23414679328081
 30
0.0
 40
3.5
 41
0.0
 71
     2
 72
     1
  1
\A1;60.33 [2 3/8]
  7
SLDTEXTSTYLE0
 73
     1
 44
1.0
  0
POINT
  5
1FB
330
1F2
100
AcDbEntity
  8
Defpoints
 62
     0
100
AcDbPoint
 10
77.70000000000002
 20
14.63125000000001
 30
0.0
  0
POINT
  5
1FC
330
1F2
100
AcDbEntity
  8
Defpoints
 62
     0
100
AcDbPoint
 10
17.37500000000004
 20
16.06000000000002
 30
0.0
  0
POINT
  5
1FD
330
1F2
100
AcDbEntity
  8
Defpoints
 62
     0
100
AcDbPoint
 10
17.37500000000004
 20
43.85914679328081
 30
0.0
  0
ENDBLK
  5
1F4
330
1F2
100
AcDbEntity
  8
0
100
AcDbBlockEnd
  0
BLOCK
  5
1FF
330
1FE
100
AcDbEntity
  8
0
100
AcDbBlockBegin
  2
*D9
 70
     1
 10
0.0
 20
0.0
 30
0.0
  3
*D9
  1
*D10
  0
LINE
  5
201
330
1FE
100
AcDbEntity
  8
치수문자_일반주서
 62
     0
370
    -2
100
AcDbLine
 10
18.26500000000005
 20
17.01250000000001
 30
0.0
 11
4.375000000000027
 21
17.01249999999996
 31
0.0
  0
LINE
  5
202
330
1FE
100
AcDbEntity
  8
치수문자_일반주서
 62
     0
370
    -2
100
AcDbLine
 10
18.26500000000005
 20
7.487500000000008
 30
0.0
 11
4.37500000000006
 21
7.487499999999958
 31
0.0
  0
LINE
  5
203
330
1FE
100
AcDbEntity
  8
치수문자_일반주서
 62
     0
370
    -2
100
AcDbLine
 10
4.375000000000038
 20
13.71049999999996
 30
0.0
 11
4.375000000000048
 21
10.78949999999996
 31
0.0
  0
SOLID
  5
204
330
1FE
100
AcDbEntity
  8
치수문자_일반주서
 62
     0
100
AcDbTrace
 10
4.925333333333372
 20
13.71049999999997
 30
0.0
 11
3.824666666666705
 21
13.71049999999996
 31
0.0
 12
4.375000000000027
 22
17.01249999999996
 32
0.0
 13
4.375000000000027
 23
17.01249999999996
 33
0.0
  0
SOLID
  5
205
330
1FE
100
AcDbEntity
  8
치수문자_일반주서
 62
     0
100
AcDbTrace
 10
3.824666666666715
 20
10.78949999999996
 30
0.0
 11
4.925333333333382
 21
10.78949999999996
 31
0.0
 12
4.37500000000006
 22
7.487499999999958
 32
0.0
 13
4.37500000000006
 23
7.487499999999958
 33
0.0
  0
MTEXT
  5
206
330
1FE
100
AcDbEntity
  8
치수문자_일반주서
 62
     0
100
AcDbMText
 10
0.0000000000000426
 20
12.25
 30
0.0
 40
3.5
 41
0.0
 71
     2
 72
     1
  1
\A1;%%c9.53 [3/8]
  7
SLDTEXTSTYLE0
 11
-3.450141892798383E-15
 21
1.0
 31
0.0
 73
     1
 44
1.0
  0
POINT
  5
207
330
1FE
100
AcDbEntity
  8
Defpoints
 62
     0
100
AcDbPoint
 10
18.32750000000005
 20
17.01250000000001
 30
0.0
  0
POINT
  5
208
330
1FE
100
AcDbEntity
  8
Defpoints
 62
     0
100
AcDbPoint
 10
18.32750000000005
 20
7.487500000000008
 30
0.0
  0
POINT
  5
209
330
1FE
100
AcDbEntity
  8
Defpoints
 62
     0
100
AcDbPoint
 10
4.375000000000064
 20
7.487499999999955
 30
0.0
  0
ENDBLK
  5
200
330
1FE
100
AcDbEntity
  8
0
100
AcDbBlockEnd
  0
BLOCK
  5
20B
330
20A
100
AcDbEntity
  8
0
100
AcDbBlockBegin
  2
*D10
 70
     1
 10
0.0
 20
0.0
 30
0.0
  3
*D10
  1
*D11
  0
LINE
  5
20D
330
20A
100
AcDbEntity
  8
치수문자_일반주서
 62
     0
370
    -2
100
AcDbLine
 10
77.76250000000002
 20
14.63125000000002
 30
0.0
 11
87.79233259479794
 21
14.63125000000005
 31
0.0
  0
LINE
  5
20E
330
20A
100
AcDbEntity
  8
치수문자_일반주서
 62
     0
370
    -2
100
AcDbLine
 10
77.76250000000005
 20
9.868750000000015
 30
0.0
 11
87.79233259479795
 21
9.868750000000048
 31
0.0
  0
LINE
  5
20F
330
20A
100
AcDbEntity
  8
치수문자_일반주서
 62
     0
370
    -2
100
AcDbLine
 10
87.79233259479794
 20
14.63125000000005
 30
0.0
 11
87.79233259479783
 21
50.79264499285742
 31
0.0
  0
LINE
  5
210
330
20A
100
AcDbEntity
  8
치수문자_일반주서
 62
     0
370
    -2
100
AcDbLine
 10
87.79233259479794
 20
14.63125000000005
 30
0.0
 11
87.79233259479795
 21
9.868750000000048
 31
0.0
  0
LINE
  5
211
330
20A
100
AcDbEntity
  8
치수문자_일반주서
 62
     0
370
    -2
100
AcDbLine
 10
87.79233259479793
 20
17.93325000000005
 30
0.0
 11
87.79233259479791
 21
21.23525000000005
 31
0.0
  0
LINE
  5
212
330
20A
100
AcDbEntity
  8
치수문자_일반주서
 62
     0
370
    -2
100
AcDbLine
 10
87.79233259479797
 20
6.566750000000049
 30
0.0
 11
87.79233259479798
 21
3.264750000000049
 31
0.0
  0
SOLID
  5
213
330
20A
100
AcDbEntity
  8
치수문자_일반주서
 62
     0
100
AcDbTrace
 10
87.2419992614646
 20
17.93325000000005
 30
0.0
 11
88.34266592813125
 21
17.93325000000005
 31
0.0
 12
87.79233259479794
 22
14.63125000000005
 32
0.0
 13
87.79233259479794
 23
14.63125000000005
 33
0.0
  0
SOLID
  5
214
330
20A
100
AcDbEntity
  8
치수문자_일반주서
 62
     0
100
AcDbTrace
 10
88.3426659281313
 20
6.56675000000005
 30
0.0
 11
87.24199926146464
 21
6.566750000000047
 31
0.0
 12
87.79233259479795
 22
9.868750000000048
 32
0.0
 13
87.79233259479795
 23
9.868750000000048
 33
0.0
  0
MTEXT
  5
215
330
20A
100
AcDbEntity
  8
치수문자_일반주서
 62
     0
100
AcDbMText
 10
83.41733259479787
 20
36.7926449928574
 30
0.0
 40
3.5
 41
0.0
 71
     2
 72
     1
  1
\A1;%%c4.76 [3/16]
  7
SLDTEXTSTYLE0
 11
-2.983906501879683E-15
 21
1.0
 31
0.0
 73
     1
 44
1.0
  0
POINT
  5
216
330
20A
100
AcDbEntity
  8
Defpoints
 62
     0
100
AcDbPoint
 10
77.70000000000002
 20
14.63125000000002
 30
0.0
  0
POINT
  5
217
330
20A
100
AcDbEntity
  8
Defpoints
 62
     0
100
AcDbPoint
 10
77.70000000000005
 20
9.868750000000015
 30
0.0
  0
POINT
  5
218
330
20A
100
AcDbEntity
  8
Defpoints
 62
     0
100
AcDbPoint
 10
87.79233259479795
 20
9.868750000000052
 30
0.0
  0
ENDBLK
  5
20C
330
20A
100
AcDbEntity
  8
0
100
AcDbBlockEnd
  0
BLOCK
  5
24C
330
24B
100
AcDbEntity
  8
0
100
AcDbBlockBegin
  2
*D11
 70
     1
 10
0.0
 20
0.0
 30
0.0
  3
*D11
  1
*D12
  0
LINE
  5
24E
330
24B
100
AcDbEntity
  8
치수문자_일반주서
 62
     0
370
    -2
100
AcDbLine
 10
158.822624032235
 20
-41.13235724560399
 30
0.0
 11
158.822624032235
 21
-29.73537534013377
 31
0.0
  0
LINE
  5
24F
330
24B
100
AcDbEntity
  8
치수문자_일반주서
 62
     0
370
    -2
100
AcDbLine
 10
146.122624032235
 20
-41.14111407452717
 30
0.0
 11
146.122624032235
 21
-29.73537534013377
 31
0.0
  0
LINE
  5
250
330
24B
100
AcDbEntity
  8
치수문자_일반주서
 62
     0
370
    -2
100
AcDbLine
 10
146.122624032235
 20
-29.73537534013377
 30
0.0
 11
117.643624032235
 21
-29.73537534013377
 31
0.0
  0
LINE
  5
251
330
24B
100
AcDbEntity
  8
치수문자_일반주서
 62
     0
370
    -2
100
AcDbLine
 10
158.822624032235
 20
-29.73537534013377
 30
0.0
 11
146.122624032235
 21
-29.73537534013377
 31
0.0
  0
LINE
  5
252
330
24B
100
AcDbEntity
  8
치수문자_일반주서
 62
     0
370
    -2
100
AcDbLine
 10
162.1246240322349
 20
-29.73537534013377
 30
0.0
 11
165.4266240322349
 21
-29.73537534013377
 31
0.0
  0
LINE
  5
253
330
24B
100
AcDbEntity
  8
치수문자_일반주서
 62
     0
370
    -2
100
AcDbLine
 10
142.820624032235
 20
-29.73537534013377
 30
0.0
 11
139.518624032235
 21
-29.73537534013377
 31
0.0
  0
SOLID
  5
254
330
24B
100
AcDbEntity
  8
치수문자_일반주서
 62
     0
100
AcDbTrace
 10
162.1246240322349
 20
-29.18504200680044
 30
0.0
 11
162.1246240322349
 21
-30.28570867346711
 31
0.0
 12
158.822624032235
 22
-29.73537534013377
 32
0.0
 13
158.822624032235
 23
-29.73537534013377
 33
0.0
  0
SOLID
  5
255
330
24B
100
AcDbEntity
  8
치수문자_일반주서
 62
     0
100
AcDbTrace
 10
142.820624032235
 20
-30.28570867346711
 30
0.0
 11
142.820624032235
 21
-29.18504200680044
 31
0.0
 12
146.122624032235
 22
-29.73537534013377
 32
0.0
 13
146.122624032235
 23
-29.73537534013377
 33
0.0
  0
MTEXT
  5
256
330
24B
100
AcDbEntity
  8
치수문자_일반주서
 62
     0
100
AcDbMText
 10
128.581124032235
 20
-25.36037534013377
 30
0.0
 40
3.5
 41
0.0
 71
     2
 72
     1
  1
\A1;12.7 [1/2]
  7
SLDTEXTSTYLE0
 73
     1
 44
1.0
  0
POINT
  5
257
330
24B
100
AcDbEntity
  8
Defpoints
 62
     0
100
AcDbPoint
 10
158.822624032235
 20
-41.19485724560399
 30
0.0
  0
POINT
  5
258
330
24B
100
AcDbEntity
  8
Defpoints
 62
     0
100
AcDbPoint
 10
146.122624032235
 20
-41.20361407452717
 30
0.0
  0
POINT
  5
259
330
24B
100
AcDbEntity
  8
Defpoints
 62
     0
100
AcDbPoint
 10
146.122624032235
 20
-29.73537534013377
 30
0.0
  0
ENDBLK
  5
24D
330
24B
100
AcDbEntity
  8
0
100
AcDbBlockEnd
  0
BLOCK
  5
25B
330
25A
100
AcDbEntity
  8
0
100
AcDbBlockBegin
  2
*D12
 70
     1
 10
0.0
 20
0.0
 30
0.0
  3
*D12
  1
*D13
  0
LINE
  5
25D
330
25A
100
AcDbEntity
  8
치수문자_일반주서
 62
     0
370
    -2
100
AcDbLine
 10
158.822624032235
 20
-41.13235724560399
 30
0.0
 11
158.822624032235
 21
-11.96696045232319
 31
0.0
  0
LINE
  5
25E
330
25A
100
AcDbEntity
  8
치수문자_일반주서
 62
     0
370
    -2
100
AcDbLine
 10
98.49762403223497
 20
-39.70360724560399
 30
0.0
 11
98.49762403223497
 21
-11.96696045232319
 31
0.0
  0
LINE
  5
25F
330
25A
100
AcDbEntity
  8
치수문자_일반주서
 62
     0
370
    -2
100
AcDbLine
 10
155.520624032235
 20
-11.96696045232319
 30
0.0
 11
101.799624032235
 21
-11.96696045232319
 31
0.0
  0
SOLID
  5
260
330
25A
100
AcDbEntity
  8
치수문자_일반주서
 62
     0
100
AcDbTrace
 10
155.520624032235
 20
-12.51729378565653
 30
0.0
 11
155.520624032235
 21
-11.41662711898986
 31
0.0
 12
158.822624032235
 22
-11.96696045232319
 32
0.0
 13
158.822624032235
 23
-11.96696045232319
 33
0.0
  0
SOLID
  5
261
330
25A
100
AcDbEntity
  8
치수문자_일반주서
 62
     0
100
AcDbTrace
 10
101.799624032235
 20
-11.41662711898986
 30
0.0
 11
101.799624032235
 21
-12.51729378565653
 31
0.0
 12
98.49762403223497
 22
-11.96696045232319
 32
0.0
 13
98.49762403223497
 23
-11.96696045232319
 33
0.0
  0
MTEXT
  5
262
330
25A
100
AcDbEntity
  8
치수문자_일반주서
 62
     0
100
AcDbMText
 10
128.660124032235
 20
-7.591960452323192
 30
0.0
 40
3.5
 41
0.0
 71
     2
 72
     1
  1
\A1;60.33 [2 3/8]
  7
SLDTEXTSTYLE0
 73
     1
 44
1.0
  0
POINT
  5
263
330
25A
100
AcDbEntity
  8
Defpoints
 62
     0
100
AcDbPoint
 10
158.822624032235
 20
-41.19485724560399
 30
0.0
  0
POINT
  5
264
330
25A
100
AcDbEntity
  8
Defpoints
 62
     0
100
AcDbPoint
 10
98.49762403223497
 20
-39.76610724560399
 30
0.0
  0
POINT
  5
265
330
25A
100
AcDbEntity
  8
Defpoints
 62
     0
100
AcDbPoint
 10
98.49762403223497
 20
-11.96696045232319
 30
0.0
  0
ENDBLK
  5
25C
330
25A
100
AcDbEntity
  8
0
100
AcDbBlockEnd
  0
BLOCK
  5
267
330
266
100
AcDbEntity
  8
0
100
AcDbBlockBegin
  2
*D13
 70
     1
 10
0.0
 20
0.0
 30
0.0
  3
*D13
  1
*D14
  0
LINE
  5
269
330
266
100
AcDbEntity
  8
치수문자_일반주서
 62
     0
370
    -2
100
AcDbLine
 10
99.38762403223498
 20
-38.81360724560399
 30
0.0
 11
85.49762403223495
 21
-38.81360724560404
 31
0.0
  0
LINE
  5
26A
330
266
100
AcDbEntity
  8
치수문자_일반주서
 62
     0
370
    -2
100
AcDbLine
 10
99.38762403223498
 20
-48.338607245604
 30
0.0
 11
85.49762403223498
 21
-48.33860724560405
 31
0.0
  0
LINE
  5
26B
330
266
100
AcDbEntity
  8
치수문자_일반주서
 62
     0
370
    -2
100
AcDbLine
 10
85.49762403223497
 20
-42.11560724560404
 30
0.0
 11
85.49762403223497
 21
-45.03660724560405
 31
0.0
  0
SOLID
  5
26C
330
266
100
AcDbEntity
  8
치수문자_일반주서
 62
     0
100
AcDbTrace
 10
86.0479573655683
 20
-42.11560724560404
 30
0.0
 11
84.94729069890164
 21
-42.11560724560404
 31
0.0
 12
85.49762403223495
 22
-38.81360724560404
 32
0.0
 13
85.49762403223495
 23
-38.81360724560404
 33
0.0
  0
SOLID
  5
26D
330
266
100
AcDbEntity
  8
치수문자_일반주서
 62
     0
100
AcDbTrace
 10
84.94729069890164
 20
-45.03660724560405
 30
0.0
 11
86.0479573655683
 21
-45.03660724560405
 31
0.0
 12
85.49762403223498
 22
-48.33860724560405
 32
0.0
 13
85.49762403223498
 23
-48.33860724560405
 33
0.0
  0
MTEXT
  5
26E
330
266
100
AcDbEntity
  8
치수문자_일반주서
 62
     0
100
AcDbMText
 10
81.12262403223497
 20
-43.57610724560401
 30
0.0
 40
3.5
 41
0.0
 71
     2
 72
     1
  1
\A1;%%c9.53 [3/8]
  7
SLDTEXTSTYLE0
 11
-2.983906501879684E-15
 21
1.0
 31
0.0
 73
     1
 44
1.0
  0
POINT
  5
26F
330
266
100
AcDbEntity
  8
Defpoints
 62
     0
100
AcDbPoint
 10
99.45012403223498
 20
-38.81360724560399
 30
0.0
  0
POINT
  5
270
330
266
100
AcDbEntity
  8
Defpoints
 62
     0
100
AcDbPoint
 10
99.45012403223498
 20
-48.338607245604
 30
0.0
  0
POINT
  5
271
330
266
100
AcDbEntity
  8
Defpoints
 62
     0
100
AcDbPoint
 10
85.49762403223498
 20
-48.33860724560405
 30
0.0
  0
ENDBLK
  5
268
330
266
100
AcDbEntity
  8
0
100
AcDbBlockEnd
  0
BLOCK
  5
273
330
272
100
AcDbEntity
  8
0
100
AcDbBlockBegin
  2
*D14
 70
     1
 10
0.0
 20
0.0
 30
0.0
  3
*D14
  1
*D15
  0
LINE
  5
275
330
272
100
AcDbEntity
  8
치수문자_일반주서
 62
     0
370
    -2
100
AcDbLine
 10
158.885124032235
 20
-41.19485724560398
 30
0.0
 11
168.9149566270329
 21
-41.19485724560395
 31
0.0
  0
LINE
  5
276
330
272
100
AcDbEntity
  8
치수문자_일반주서
 62
     0
370
    -2
100
AcDbLine
 10
158.885124032235
 20
-45.95735724560399
 30
0.0
 11
168.914956627033
 21
-45.95735724560396
 31
0.0
  0
LINE
  5
277
330
272
100
AcDbEntity
  8
치수문자_일반주서
 62
     0
370
    -2
100
AcDbLine
 10
168.9149566270329
 20
-41.19485724560395
 30
0.0
 11
168.9149566270327
 21
-5.033462252746588
 31
0.0
  0
LINE
  5
278
330
272
100
AcDbEntity
  8
치수문자_일반주서
 62
     0
370
    -2
100
AcDbLine
 10
168.9149566270329
 20
-41.19485724560395
 30
0.0
 11
168.914956627033
 21
-45.95735724560396
 31
0.0
  0
LINE
  5
279
330
272
100
AcDbEntity
  8
치수문자_일반주서
 62
     0
370
    -2
100
AcDbLine
 10
168.9149566270329
 20
-37.89285724560395
 30
0.0
 11
168.9149566270329
 21
-34.59085724560395
 31
0.0
  0
LINE
  5
27A
330
272
100
AcDbEntity
  8
치수문자_일반주서
 62
     0
370
    -2
100
AcDbLine
 10
168.914956627033
 20
-49.25935724560396
 30
0.0
 11
168.914956627033
 21
-52.56135724560396
 31
0.0
  0
SOLID
  5
27B
330
272
100
AcDbEntity
  8
치수문자_일반주서
 62
     0
100
AcDbTrace
 10
168.3646232936996
 20
-37.89285724560395
 30
0.0
 11
169.4652899603662
 21
-37.89285724560395
 31
0.0
 12
168.9149566270329
 22
-41.19485724560395
 32
0.0
 13
168.9149566270329
 23
-41.19485724560395
 33
0.0
  0
SOLID
  5
27C
330
272
100
AcDbEntity
  8
치수문자_일반주서
 62
     0
100
AcDbTrace
 10
169.4652899603663
 20
-49.25935724560396
 30
0.0
 11
168.3646232936997
 21
-49.25935724560396
 31
0.0
 12
168.914956627033
 22
-45.95735724560396
 32
0.0
 13
168.914956627033
 23
-45.95735724560396
 33
0.0
  0
MTEXT
  5
27D
330
272
100
AcDbEntity
  8
치수문자_일반주서
 62
     0
100
AcDbMText
 10
164.5399566270328
 20
-19.03346225274661
 30
0.0
 40
3.5
 41
0.0
 71
     2
 72
     1
  1
\A1;%%c4.76 [3/16]
  7
SLDTEXTSTYLE0
 11
-5.967813003759359E-15
 21
1.0
 31
0.0
 73
     1
 44
1.0
  0
POINT
  5
27E
330
272
100
AcDbEntity
  8
Defpoints
 62
     0
100
AcDbPoint
 10
158.822624032235
 20
-41.19485724560398
 30
0.0
  0
POINT
  5
27F
330
272
100
AcDbEntity
  8
Defpoints
 62
     0
100
AcDbPoint
 10
158.822624032235
 20
-45.95735724560399
 30
0.0
  0
POINT
  5
280
330
272
100
AcDbEntity
  8
Defpoints
 62
     0
100
AcDbPoint
 10
168.9149566270329
 20
-45.95735724560396
 30
0.0
  0
ENDBLK
  5
274
330
272
100
AcDbEntity
  8
0
100
AcDbBlockEnd
  0
ENDSEC
  0
SECTION
  2
ENTITIES
  0
LINE
  5
96
330
1F
100
AcDbEntity
  8
0
  6
Continuous
 62
     1
370
    15
100
AcDbLine
 10
18.03510904860821
 20
-3.17392507127611
 30
0.0
 11
19.9704353245584
 21
-3.17392507127611
 31
0.0
  0
ARC
  5
97
330
1F
100
AcDbEntity
  8
0
  6
Continuous
 62
     1
370
    15
100
AcDbCircle
 10
21.6246306570156
 20
0.0010749287238943
 30
0.0
 40
3.175000000000008
100
AcDbArc
 50
335.309806664943
 51
0.0
  0
ARC
  5
98
330
1F
100
AcDbEntity
  8
0
  6
Continuous
 62
     1
370
    15
100
AcDbCircle
 10
21.6246306570156
 20
0.0010749287238943
 30
0.0
 40
3.175000000000004
100
AcDbArc
 50
0.0
 51
24.69463733441512
  0
LINE
  5
99
330
1F
100
AcDbEntity
  8
0
  6
Continuous
 62
     1
370
    15
100
AcDbLine
 10
11.33201227125895
 20
3.176074928723896
 30
0.0
 11
9.396476315150586
 21
3.176074928723896
 31
0.0
  0
LINE
  5
9A
330
1F
100
AcDbEntity
  8
0
  6
Continuous
 62
     1
370
    15
100
AcDbLine
 10
19.9704353245584
 20
3.176074928723896
 30
0.0
 11
18.03510904860816
 21
3.176074928723896
 31
0.0
  0
LINE
  5
9B
330
1F
100
AcDbEntity
  8
0
  6
Continuous
 62
     1
370
    15
100
AcDbLine
 10
9.396476315150593
 20
-3.17392507127611
 30
0.0
 11
11.332012271259
 21
-3.17392507127611
 31
0.0
  0
LINE
  5
9C
330
1F
100
AcDbEntity
  8
외형선
  6
Continuous
370
    15
100
AcDbLine
 10
-36.16036934298439
 20
-4.761425071276109
 30
0.0
 11
2.000000000000014
 21
-4.761425071276109
 31
0.0
  0
LINE
  5
9D
330
1F
100
AcDbEntity
  8
외형선
  6
Continuous
370
    15
100
AcDbLine
 10
2.000000000000014
 20
4.763574928723896
 30
0.0
 11
-12.43041934298427
 21
4.763574928723896
 31
0.0
  0
LINE
  5
9E
330
1F
100
AcDbEntity
  8
외형선
  6
Continuous
370
    15
100
AcDbLine
 10
2.000000000000014
 20
-4.761425071276111
 30
0.0
 11
7.924630657015617
 21
-3.173925071276107
 31
0.0
  0
LINE
  5
9F
330
1F
100
AcDbEntity
  8
외형선
  6
Continuous
370
    15
100
AcDbLine
 10
7.924630657015617
 20
3.176074928723893
 30
0.0
 11
2.000000000000014
 21
4.763574928723898
 31
0.0
  0
LINE
  5
A0
330
1F
100
AcDbEntity
  8
외형선
  6
Continuous
370
    15
100
AcDbLine
 10
-36.16036934298439
 20
4.763574928723894
 30
0.0
 11
-37.11286934298439
 21
3.811074928723897
 31
0.0
  0
LINE
  5
A1
330
1F
100
AcDbEntity
  8
외형선
  6
Continuous
370
    15
100
AcDbLine
 10
-37.11286934298439
 20
-3.80892507127611
 30
0.0
 11
-36.16036934298439
 21
-4.761425071276108
 31
0.0
  0
LINE
  5
A2
330
1F
100
AcDbEntity
  8
외형선
  6
Continuous
370
    15
100
AcDbLine
 10
7.924630657015617
 20
-3.173925071276107
 30
0.0
 11
8.924630657015616
 21
-3.173925071276107
 31
0.0
  0
LINE
  5
A3
330
1F
100
AcDbEntity
  8
외형선
  6
Continuous
370
    15
100
AcDbLine
 10
8.924630657015616
 20
3.176074928723893
 30
0.0
 11
7.924630657015617
 21
3.176074928723893
 31
0.0
  0
SPLINE
  5
A4
330
1F
100
AcDbEntity
  8
0
  6
Continuous
 62
     1
370
    15
100
AcDbSpline
210
0.0
220
0.0
230
1.0
 70
     8
 71
     3
 72
    15
 73
    11
 74
     0
 42
0.000000001
 43
0.00000001
 40
0.0
 40
0.0
 40
0.0
 40
0.0
 40
0.1301998392530255
 40
0.2602628819163064
 40
0.3902636546187313
 40
0.5202773106078357
 40
0.6503788733317609
 40
0.7806178310025557
 40
0.903326908825762
 40
0.9999999999999999
 40
0.9999999999999999
 40
0.9999999999999999
 40
0.9999999999999999
 10
8.924630657015623
 20
0.2731132126109241
 30
0.0
 10
9.320112205539548
 20
0.0445948589922636
 30
0.0
 10
10.11065978343272
 20
-0.412201751700788
 30
0.0
 10
11.29573345792821
 20
-1.081994364585188
 30
0.0
 10
12.48015232291687
 20
-1.700681053402509
 30
0.0
 10
13.66471505143704
 20
-2.240593249238555
 30
0.0
 10
14.85012404129609
 20
-2.677984401997097
 30
0.0
 10
16.01378545957978
 20
-2.980916682944977
 30
0.0
 10
17.07554971294173
 20
-3.151606869166135
 30
0.0
 10
17.741604782634
 20
-3.159535265836263
 30
0.0
 10
18.03510904860821
 20
-3.163028998338131
 30
0.0
  0
SPLINE
  5
A5
330
1F
100
AcDbEntity
  8
0
  6
Continuous
 62
     1
370
    15
100
AcDbSpline
210
0.0
220
0.0
230
1.0
 70
     8
 71
     3
 72
    13
 73
     9
 74
     0
 42
0.000000001
 43
0.00000001
 40
0.0
 40
0.0
 40
0.0
 40
0.0
 40
0.0295455261554865
 40
0.2238829796423342
 40
0.4179482496882843
 40
0.6118288990551457
 40
0.8057660700244353
 40
1.0
 40
1.0
 40
1.0
 40
1.0
 10
14.68325043953037
 20
-2.595556473556853
 30
0.0
 10
14.62653596474935
 20
-2.616590691304916
 30
0.0
 10
14.19677866288224
 20
-2.775978725862128
 30
0.0
 10
13.39411778163383
 20
-2.966884855538576
 30
0.0
 10
12.27651608901584
 20
-3.150911088275345
 30
0.0
 10
11.15983912835879
 20
-3.192386969495302
 30
0.0
 10
10.04282883353279
 20
-3.113649614707429
 30
0.0
 10
9.297553304976265
 20
-2.954232733380919
 30
0.0
 10
8.924630657015623
 20
-2.874463355163102
 30
0.0
  0
SPLINE
  5
A6
330
1F
100
AcDbEntity
  8
0
  6
Continuous
 62
     1
370
    15
100
AcDbSpline
210
0.0
220
0.0
230
1.0
 70
     8
 71
     3
 72
    38
 73
    34
 74
     0
 42
0.000000001
 43
0.00000001
 40
0.0
 40
0.0
 40
0.0
 40
0.0
 40
0.0625
 40
0.0625
 40
0.125
 40
0.125
 40
0.1875
 40
0.1875
 40
0.25
 40
0.25
 40
0.3125
 40
0.3125
 40
0.375
 40
0.375
 40
0.4375
 40
0.4375
 40
0.5
 40
0.5
 40
0.5625
 40
0.5625
 40
0.625
 40
0.625
 40
0.6875
 40
0.6875
 40
0.75
 40
0.75
 40
0.8125
 40
0.8125
 40
0.875
 40
0.875
 40
0.9375
 40
0.9375
 40
1.0
 40
1.0
 40
1.0
 40
1.0
 10
8.924630657015623
 20
3.164399156826323
 30
0.0
 10
9.186926363623808
 20
3.177449061010111
 30
0.0
 10
9.452962031026043
 20
3.179584533605265
 30
0.0
 10
9.98428115947313
 20
3.161681686170306
 30
0.0
 10
10.2475406670992
 20
3.141729358160879
 30
0.0
 10
10.77462414316951
 20
3.08027707150727
 30
0.0
 10
11.04115145051605
 20
3.038610387912718
 30
0.0
 10
11.57189476215939
 20
2.934546205654068
 30
0.0
 10
11.83364406031543
 20
2.872403116957932
 30
0.0
 10
12.36265900648397
 20
2.728254813022724
 30
0.0
 10
12.62938693324725
 20
2.646213089226507
 30
0.0
 10
13.15898068966823
 20
2.464728190373137
 30
0.0
 10
13.42049114548089
 20
2.365523641475637
 30
0.0
 10
13.95087004525571
 20
2.150489359095016
 30
0.0
 10
14.21750683642991
 20
2.03489084731781
 30
0.0
 10
14.74538144024499
 20
1.791196700829914
 30
0.0
 10
15.00792527829312
 20
1.662948131282921
 30
0.0
 10
15.53909570716171
 20
1.394809144304671
 30
0.0
 10
15.80534994147798
 20
1.255286020379932
 30
0.0
 10
16.33094196772307
 20
0.9697645423916772
 30
0.0
 10
16.5957877042257
 20
0.8227807884201737
 30
0.0
 10
17.12717438237245
 20
0.5237934009186641
 30
0.0
 10
17.39132796947737
 20
0.3722490095055788
 30
0.0
 10
17.91754131405265
 20
0.0680481104241809
 30
0.0
 10
18.18391812391756
 20
-0.0854416710621447
 30
0.0
 10
18.71494499054073
 20
-0.3904273310777005
 30
0.0
 10
18.97711230454711
 20
-0.5414482602969276
 30
0.0
 10
19.50546846067829
 20
-0.8394580681372251
 30
0.0
 10
19.7721552702471
 20
-0.9865209732853734
 30
0.0
 10
20.30224756379301
 20
-1.272164746033041
 30
0.0
 10
20.56369847164384
 20
-1.410428811750164
 30
0.0
 10
21.09363228788274
 20
-1.677443645565448
 30
0.0
 10
21.36033749273752
 20
-1.805842908499592
 30
0.0
 10
21.62463065701522
 20
-1.927150955206829
 30
0.0
  0
SPLINE
  5
A7
330
1F
100
AcDbEntity
  8
0
  6
Continuous
 62
     1
370
    15
100
AcDbSpline
210
0.0
220
0.0
230
1.0
 70
     8
 71
     3
 72
    17
 73
    13
 74
     0
 42
0.000000001
 43
0.00000001
 40
0.0
 40
0.0
 40
0.0
 40
0.0
 40
0.1199327108508608
 40
0.2433800048199172
 40
0.3620046227638709
 40
0.4842323716320011
 40
0.6008207972743838
 40
0.7203296596537508
 40
0.816811737976367
 40
0.9154731516685417
 40
0.9754658153931703
 40
1.0
 40
1.0
 40
1.0
 40
1.0
 10
21.6246306570156
 20
-1.927150955206996
 30
0.0
 10
21.77050056161904
 20
-1.988202030141911
 30
0.0
 10
22.06651503368091
 20
-2.112093258869307
 30
0.0
 10
22.51245945582693
 20
-2.204519072171613
 30
0.0
 10
22.95261381104636
 20
-2.218672832497337
 30
0.0
 10
23.36291110551903
 20
-2.151984042762345
 30
0.0
 10
23.73817645145791
 20
-2.013748510290838
 30
0.0
 10
24.04005358346567
 20
-1.834430415434448
 30
0.0
 10
24.27433138321457
 20
-1.639407582687837
 30
0.0
 10
24.41410743280396
 20
-1.480614628824813
 30
0.0
 10
24.4875531359688
 20
-1.373225941425675
 30
0.0
 10
24.50267914505122
 20
-1.335231401531882
 30
0.0
 10
24.5070695169451
 20
-1.324203366366647
 30
0.0
  0
SPLINE
  5
A8
330
1F
100
AcDbEntity
  8
0
  6
Continuous
 62
     1
370
    15
100
AcDbSpline
210
0.0
220
0.0
230
1.0
 70
     8
 71
     3
 72
    12
 73
     8
 74
     0
 42
0.000000001
 43
0.00000001
 40
0.0
 40
0.0
 40
0.0
 40
0.0
 40
0.1430993181311212
 40
0.3732839297060339
 40
0.6100116767307086
 40
0.8034283252038512
 40
1.0
 40
1.0
 40
1.0
 40
1.0
 10
23.32485816936838
 20
-2.14458315736486
 30
0.0
 10
23.24858370478493
 20
-2.207099963955288
 30
0.0
 10
23.04961677574727
 20
-2.37017914239948
 30
0.0
 10
22.71185776021436
 20
-2.604506438560143
 30
0.0
 10
22.33696773425213
 20
-2.80968836497609
 30
0.0
 10
21.97313819352232
 20
-2.956289005548158
 30
0.0
 10
21.74142469403851
 20
-3.006299355736523
 30
0.0
 10
21.6246306570156
 20
-3.031506824030081
 30
0.0
  0
SPLINE
  5
A9
330
1F
100
AcDbEntity
  8
0
  6
Continuous
 62
     1
370
    15
100
AcDbSpline
210
0.0
220
0.0
230
1.0
 70
     8
 71
     3
 72
    38
 73
    34
 74
     0
 42
0.000000001
 43
0.00000001
 40
0.0
 40
0.0
 40
0.0
 40
0.0
 40
0.0625
 40
0.0625
 40
0.125
 40
0.125
 40
0.1875
 40
0.1875
 40
0.25
 40
0.25
 40
0.3125
 40
0.3125
 40
0.375
 40
0.375
 40
0.4375
 40
0.4375
 40
0.5
 40
0.5
 40
0.5625
 40
0.5625
 40
0.625
 40
0.625
 40
0.6875
 40
0.6875
 40
0.75
 40
0.75
 40
0.8125
 40
0.8125
 40
0.875
 40
0.875
 40
0.9375
 40
0.9375
 40
1.0
 40
1.0
 40
1.0
 40
1.0
 10
8.924630657015623
 20
1.347144978127038
 30
0.0
 10
9.186926363623808
 20
1.209202999721056
 30
0.0
 10
9.452962031026043
 20
1.065937100807619
 30
0.0
 10
9.984281159473117
 20
0.7731063078898771
 30
0.0
 10
10.24754066709919
 20
0.6239393272282288
 30
0.0
 10
10.77462414316951
 20
0.3222343893774284
 30
0.0
 10
11.04115145051605
 20
0.169171853579903
 30
0.0
 10
11.57189476215941
 20
-0.1366237109474505
 30
0.0
 10
11.83364406031545
 20
-0.2888775129915598
 30
0.0
 10
12.36265900648397
 20
-0.5913807620757939
 30
0.0
 10
12.62938693324727
 20
-0.741513173988318
 30
0.0
 10
13.15898068966825
 20
-1.03486093072286
 30
0.0
 10
13.42049114548087
 20
-1.177852984836579
 30
0.0
 10
13.95087004525572
 20
-1.455995420374854
 30
0.0
 10
14.21750683642989
 20
-1.590709610633409
 30
0.0
 10
14.745381440245
 20
-1.847281446574224
 30
0.0
 10
15.00792527829311
 20
-1.969393378972828
 30
0.0
 10
15.53909570716171
 20
-2.20001084813313
 30
0.0
 10
15.80534994147799
 20
-2.308115689679791
 30
0.0
 10
16.33094196772307
 20
-2.506722104561224
 30
0.0
 10
16.5957877042257
 20
-2.597936218204397
 30
0.0
 10
17.12717438237244
 20
-2.761825160671998
 30
0.0
 10
17.39132796947734
 20
-2.834263314094516
 30
0.0
 10
17.91754131405265
 20
-2.958901413887605
 30
0.0
 10
18.18391812391758
 20
-3.011402524975419
 30
0.0
 10
18.71494499054074
 20
-3.094949301618763
 30
0.0
 10
18.97711230454713
 20
-3.125947481869159
 30
0.0
 10
19.5054684606783
 20
-3.166275197352103
 30
0.0
 10
19.7721552702471
 20
-3.175530238518466
 30
0.0
 10
20.30224756379303
 20
-3.171862866045802
 30
0.0
 10
20.56369847164384
 20
-3.15904908890185
 30
0.0
 10
21.09363228788272
 20
-3.111505016635695
 30
0.0
 10
21.36033749273754
 20
-3.076725450600081
 30
0.0
 10
21.62463065701525
 20
-3.031506824030148
 30
0.0
  0
SPLINE
  5
AA
330
1F
100
AcDbEntity
  8
0
  6
Continuous
 62
     1
370
    15
100
AcDbSpline
210
0.0
220
0.0
230
1.0
 70
     8
 71
     3
 72
    14
 73
    10
 74
     0
 42
0.000000001
 43
0.00000001
 40
0.0
 40
0.0
 40
0.0
 40
0.0
 40
0.0239908313272125
 40
0.194930762325316
 40
0.3559876509174369
 40
0.5168520028845199
 40
0.6777236465217811
 40
0.8388022933714792
 40
1.0
 40
1.0
 40
1.0
 40
1.0
 10
14.68325043953034
 20
2.597706331004639
 30
0.0
 10
14.73875951106315
 20
2.618296214678217
 30
0.0
 10
15.1897828825455
 20
2.785593531971581
 30
0.0
 10
16.01380597000671
 20
2.979152351609577
 30
0.0
 10
17.15416118295943
 20
3.158666120166582
 30
0.0
 10
18.27094150660381
 20
3.194923516548331
 30
0.0
 10
19.38775785776856
 20
3.100440947550364
 30
0.0
 10
20.50574319399403
 20
2.885168706204156
 30
0.0
 10
21.25157632401832
 20
2.644078220193805
 30
0.0
 10
21.62463065701522
 20
2.523488443701095
 30
0.0
  0
SPLINE
  5
AB
330
1F
100
AcDbEntity
  8
0
  6
Continuous
 62
     1
370
    15
100
AcDbSpline
210
0.0
220
0.0
230
1.0
 70
     8
 71
     3
 72
    42
 73
    38
 74
     0
 42
0.000000001
 43
0.00000001
 40
0.0
 40
0.0
 40
0.0
 40
0.0
 40
0.0625
 40
0.0625
 40
0.125
 40
0.125
 40
0.1874999999999999
 40
0.1874999999999999
 40
0.2499999999999999
 40
0.2499999999999999
 40
0.3124999999999999
 40
0.3124999999999999
 40
0.3749999999999999
 40
0.3749999999999999
 40
0.4374999999999999
 40
0.4374999999999999
 40
0.4687500000000002
 40
0.4687500000000002
 40
0.5000000000000006
 40
0.5000000000000006
 40
0.5625000000000011
 40
0.5625000000000011
 40
0.593750000000001
 40
0.593750000000001
 40
0.6250000000000009
 40
0.6250000000000009
 40
0.6875000000000008
 40
0.6875000000000008
 40
0.7500000000000006
 40
0.7500000000000006
 40
0.8125000000000004
 40
0.8125000000000004
 40
0.8750000000000003
 40
0.8750000000000003
 40
0.9375000000000002
 40
0.9375000000000002
 40
1.0
 40
1.0
 40
1.0
 40
1.0
 10
21.6246306570156
 20
2.523488443700969
 30
0.0
 10
21.78587952112339
 20
2.466911176419583
 30
0.0
 10
21.94615221823095
 20
2.399770083867884
 30
0.0
 10
22.26822545070336
 20
2.249280002536868
 30
0.0
 10
22.43123627359559
 20
2.165089174650546
 30
0.0
 10
22.75358285953759
 20
1.983745714928124
 30
0.0
 10
22.91051527724533
 20
1.888087132464184
 30
0.0
 10
23.21552458525326
 20
1.685994973293522
 30
0.0
 10
23.3649269325188
 20
1.578308442892889
 30
0.0
 10
23.64436692013008
 20
1.355541048283209
 30
0.0
 10
23.77455600397716
 20
1.240473579964983
 30
0.0
 10
24.01316722910001
 20
0.9962378860282788
 30
0.0
 10
24.121969988876
 20
0.8662051946371067
 30
0.0
 10
24.30572681243431
 20
0.5911857869310662
 30
0.0
 10
24.38219644919377
 20
0.444749267751171
 30
0.0
 10
24.46613791540728
 20
0.204817702602388
 30
0.0
 10
24.48852819054393
 20
0.1226439830618357
 30
0.0
 10
24.52099902675338
 20
-0.0475074368962815
 30
0.0
 10
24.53110354104307
 20
-0.1364658594637837
 30
0.0
 10
24.53923345790211
 20
-0.4067429125646814
 30
0.0
 10
24.51427552492222
 20
-0.5959990596332618
 30
0.0
 10
24.43036411459048
 20
-0.8579315573526108
 30
0.0
 10
24.39407182418118
 20
-0.9434487150260275
 30
0.0
 10
24.30966957336536
 20
-1.098967162815043
 30
0.0
 10
24.26119972016181
 20
-1.170172235631979
 30
0.0
 10
24.10113696049109
 20
-1.360069501776288
 30
0.0
 10
23.9773082743789
 20
-1.451908883664377
 30
0.0
 10
23.71784978078836
 20
-1.571327262366695
 30
0.0
 10
23.57910333175721
 20
-1.600516891283926
 30
0.0
 10
23.29895979572097
 20
-1.610787675053223
 30
0.0
 10
23.15446147219798
 20
-1.592468574217797
 30
0.0
 10
22.86055903140998
 20
-1.522995554262005
 30
0.0
 10
22.7127868902796
 20
-1.472336190919626
 30
0.0
 10
22.41076812083103
 20
-1.348458936865816
 30
0.0
 10
22.25538044060011
 20
-1.274462543940445
 30
0.0
 10
21.94322895525215
 20
-1.114499095558373
 30
0.0
 10
21.78583103774223
 20
-1.028130688078246
 30
0.0
 10
21.6246306570156
 20
-0.939176587022622
 30
0.0
  0
SPLINE
  5
AC
330
1F
100
AcDbEntity
  8
0
  6
Continuous
 62
     1
370
    15
100
AcDbSpline
210
0.0
220
0.0
230
1.0
 70
     8
 71
     3
 72
    16
 73
    12
 74
     0
 42
0.000000001
 43
0.00000001
 40
0.0
 40
0.0
 40
0.0
 40
0.0
 40
0.1152445385665374
 40
0.2304938829300558
 40
0.3456211544089564
 40
0.4606922601730194
 40
0.5757737188816697
 40
0.6909319448872033
 40
0.7996644131669184
 40
0.9082445938827965
 40
1.0
 40
1.0
 40
1.0
 40
1.0
 10
21.62463065701525
 20
-0.939176587022418
 30
0.0
 10
21.22918471590096
 20
-0.7170129684019027
 30
0.0
 10
20.43827634323446
 20
-0.2726764667457343
 30
0.0
 10
19.25221390687852
 20
0.4177473555856989
 30
0.0
 10
18.06712913410296
 20
1.086054018166822
 30
0.0
 10
16.88270545173635
 20
1.704883429193146
 30
0.0
 10
15.69814713482585
 20
2.244403199477307
 30
0.0
 10
14.53523533011623
 20
2.673079431968933
 30
0.0
 10
13.39413888688376
 20
2.973461781596871
 30
0.0
 10
12.3338721475917
 20
3.149737355481105
 30
0.0
 10
11.64672947255617
 20
3.161955719563679
 30
0.0
 10
11.33201227125895
 20
3.167551834443751
 30
0.0
  0
LINE
  5
AD
330
1F
100
AcDbEntity
  8
외형선
  6
Continuous
370
    15
100
AcDbLine
 10
8.924630657015616
 20
0.2731132126109244
 30
0.0
 11
8.924630657015623
 21
1.347144978127038
 31
0.0
  0
LWPOLYLINE
  5
AE
330
1F
100
AcDbEntity
  8
0
  6
Continuous
 62
     1
370
    15
100
AcDbPolyline
 90
       21
 70
   128
 43
0.0
 10
23.32485816936838
 20
2.146733014812646
 10
23.36309120465975
 20
2.140619804288558
 10
23.72708120451491
 20
2.008193801350779
 10
24.05016810713774
 20
1.818833166872662
 10
24.26332512648769
 20
1.64278508139507
 10
24.42627800364147
 20
1.460916488294387
 10
24.49231764681048
 20
1.360410955419651
 10
24.52914148767291
 20
1.275395531793988
 10
24.5136731060831
 20
1.202225363173989
 10
24.39869818198681
 20
1.235883041564901
 10
24.22829135845546
 20
1.356963104781435
 10
24.00900712932053
 20
1.544380403955373
 10
23.83277035809898
 20
1.702922324861818
 10
23.64142568385054
 20
1.875076057282866
 10
23.37626796297532
 20
2.105450674720268
 10
23.09490059512291
 20
2.331390180709921
 10
22.71388745490615
 20
2.595812437435224
 10
22.3107108772116
 20
2.815289442543187
 10
21.9736631187794
 20
2.947563077662742
 10
21.6246306570156
 20
3.033656681477867
 10
21.6246306570156
 20
3.033656681477867
  0
LINE
  5
AF
330
1F
100
AcDbEntity
  8
0
  6
Continuous
 62
     1
370
    15
100
AcDbLine
 10
8.924630657015623
 20
-3.162249299378537
 30
0.0
 11
9.396476315150593
 21
-3.156269104840926
 31
0.0
  0
SPLINE
  5
B0
330
1F
100
AcDbEntity
  8
0
  6
Continuous
 62
     1
370
    15
100
AcDbSpline
210
0.0
220
0.0
230
1.0
 70
     8
 71
     3
 72
     9
 73
     5
 74
     0
 42
0.000000001
 43
0.00000001
 40
0.0
 40
0.0
 40
0.0
 40
0.0
 40
0.7171819509153678
 40
0.9999999999999999
 40
0.9999999999999999
 40
0.9999999999999999
 40
0.9999999999999999
 10
21.62463065701525
 20
3.033656681477933
 30
0.0
 10
21.22917975326892
 20
3.094811299797035
 30
0.0
 10
20.67778424862523
 20
3.180082015604994
 30
0.0
 10
20.12638186964285
 20
3.163235286983119
 30
0.0
 10
19.9704353245584
 20
3.158470728060821
 30
0.0
  0
LINE
  5
B1
330
1F
100
AcDbEntity
  8
외형선
  6
Continuous
370
    15
100
AcDbLine
 10
8.924630657015616
 20
-3.162249299378537
 30
0.0
 11
8.924630657015623
 21
-2.874463355163101
 31
0.0
  0
LINE
  5
B2
330
1F
100
AcDbEntity
  8
외형선
  6
Continuous
370
    15
100
AcDbLine
 10
2.000000000000014
 20
0.0010749287238931
 30
0.0
 11
2.000000000000014
 21
4.763574928723896
 31
0.0
  0
LINE
  5
B3
330
1F
100
AcDbEntity
  8
외형선
  6
Continuous
370
    15
100
AcDbLine
 10
2.000000000000014
 20
-4.761425071276109
 30
0.0
 11
2.000000000000014
 21
0.0010749287238931
 31
0.0
  0
LINE
  5
B4
330
1F
100
AcDbEntity
  8
외형선
  6
Continuous
370
    15
100
AcDbLine
 10
-36.16036934298439
 20
0.0010749287238931
 30
0.0
 11
-36.16036934298439
 21
4.763574928723896
 31
0.0
  0
LINE
  5
B5
330
1F
100
AcDbEntity
  8
외형선
  6
Continuous
370
    15
100
AcDbLine
 10
-36.16036934298439
 20
-4.761425071276109
 30
0.0
 11
-36.16036934298439
 21
0.0010749287238931
 31
0.0
  0
LINE
  5
B6
330
1F
100
AcDbEntity
  8
외형선
  6
Continuous
370
    15
100
AcDbLine
 10
7.924630657015617
 20
0.0010749287238931
 30
0.0
 11
7.924630657015617
 21
3.176074928723893
 31
0.0
  0
LINE
  5
B7
330
1F
100
AcDbEntity
  8
외형선
  6
Continuous
370
    15
100
AcDbLine
 10
7.924630657015617
 20
-3.173925071276107
 30
0.0
 11
7.924630657015617
 21
0.0010749287238931
 31
0.0
  0
LINE
  5
B8
330
1F
100
AcDbEntity
  8
외형선
  6
Continuous
370
    15
100
AcDbLine
 10
-37.11286934298439
 20
0.0010749287238931
 30
0.0
 11
-37.11286934298439
 21
3.811074928723897
 31
0.0
  0
LINE
  5
B9
330
1F
100
AcDbEntity
  8
외형선
  6
Continuous
370
    15
100
AcDbLine
 10
-37.11286934298439
 20
-3.80892507127611
 30
0.0
 11
-37.11286934298439
 21
0.0010749287238931
 31
0.0
  0
LINE
  5
BA
330
1F
100
AcDbEntity
  8
외형선
  6
Continuous
370
    15
100
AcDbLine
 10
8.924630657015616
 20
0.0010749287238931
 30
0.0
 11
8.924630657015616
 21
3.176074928723893
 31
0.0
  0
LINE
  5
BB
330
1F
100
AcDbEntity
  8
외형선
  6
Continuous
370
    15
100
AcDbLine
 10
8.924630657015616
 20
-3.173925071276107
 30
0.0
 11
8.924630657015616
 21
0.0010749287238931
 31
0.0
  0
LINE
  5
BC
330
1F
100
AcDbEntity
  8
중심선
 48
0.8
100
AcDbLine
 10
-40.1128693429844
 20
0.0010749287238931
 30
0.0
 11
27.7996306570156
 21
0.0010749287238976
 31
0.0
  0
LINE
  5
BD
330
1F
100
AcDbEntity
  8
참조1
100
AcDbLine
 10
27.54926131403117
 20
0.0010749287238892
 30
0.0
 11
27.54926131403117
 21
1.655200094750598
 31
0.0
  0
LINE
  5
BE
330
1F
100
AcDbEntity
  8
참조1
100
AcDbLine
 10
-3.40698868596883
 20
0.0010749287238892
 30
0.0
 11
-3.406988685968825
 21
-39.99892507127611
 31
0.0
  0
LINE
  5
BF
330
1F
100
AcDbEntity
  8
참조1
100
AcDbLine
 10
-3.406988685968825
 20
-39.99892507127611
 30
0.0
 11
-20.1533455002775
 21
-39.9989250712761
 31
0.0
  0
CIRCLE
  5
C0
330
1F
100
AcDbEntity
  8
해칭선
100
AcDbCircle
 10
0.0
 20
0.0
 30
0.0
 40
3.000000000000001
  0
INSERT
  5
C1
330
1F
100
AcDbEntity
  8
0
  6
Continuous
 62
     7
100
AcDbBlockReference
 66
     1
  2
블럭10
 10
-17.34726161809404
 20
-52.04609937292004
 30
0.0
  0
ATTRIB
  5
C2
330
C1
100
AcDbEntity
  8
FORMAT
 62
     2
100
AcDbText
 10
-26.52855690683532
 20
-49.97073246008785
 30
0.0
 40
4.233333333333333
  1
E2020016 [ 4 FLUTE ]
 41
0.75
  7
SLDTEXTSTYLE0
 11
-26.52855690683532
 21
-52.08739912675452
 31
0.0
100
AcDbAttribute
  2
AUTOATTR0
 70
     0
 74
     1
  0
SEQEND
  5
C3
330
C1
100
AcDbEntity
  8
0
  6
Continuous
 62
     7
  0
HATCH
  5
C4
330
1F
100
AcDbEntity
  8
중심선
100
AcDbHatch
 10
0.0
 20
0.0
 30
0.0
210
0.0
220
0.0
230
1.0
  2
SOLID
 70
     1
 71
     0
 91
        1
 92
        0
 93
        4
 72
     1
 10
-11.63235231371318
 20
-35.7989250712761
 11
-15.07862755755046
 21
-35.7989250712761
 72
     1
 10
-15.07862755755046
 20
-35.7989250712761
 11
-17.20685741675448
 21
-38.3352506518487
 72
     1
 10
-17.20685741675448
 20
-38.3352506518487
 11
-13.76054908780405
 21
-38.33521122254621
 72
     1
 10
-13.76054908780405
 20
-38.33521122254621
 11
-11.63235231371318
 21
-35.7989250712761
 97
        0
 75
     0
 76
     1
 98
        1
 10
0.0
 20
0.0
  0
HATCH
  5
C5
330
1F
100
AcDbEntity
  8
중심선
100
AcDbHatch
 10
0.0
 20
0.0
 30
0.0
210
0.0
220
0.0
230
1.0
  2
SOLID
 70
     1
 71
     0
 91
        1
 92
        0
 93
        4
 72
     1
 10
-6.6195883226772
 20
-35.7989250712761
 11
-10.06586356651448
 21
-35.7989250712761
 72
     1
 10
-10.06586356651448
 20
-35.7989250712761
 11
-14.5970015748719
 21
-41.19892507127612
 72
     1
 10
-14.5970015748719
 20
-41.19892507127612
 11
-11.15072633103462
 21
-41.19892507127612
 72
     1
 10
-11.15072633103462
 20
-41.19892507127612
 11
-6.6195883226772
 21
-35.7989250712761
 97
        0
 75
     0
 76
     1
 98
        1
 10
0.0
 20
0.0
  0
HATCH
  5
C6
330
1F
100
AcDbEntity
  8
중심선
100
AcDbHatch
 10
0.0
 20
0.0
 30
0.0
210
0.0
220
0.0
230
1.0
  2
SOLID
 70
     1
 71
     0
 91
        1
 92
        0
 93
        4
 72
     1
 10
-1.60682433164136
 20
-35.79892507127613
 11
-5.053099575478448
 21
-35.79892507127608
 72
     1
 10
-5.053099575478448
 20
-35.79892507127608
 11
-12.1015364773677
 21
-44.19892507127612
 72
     1
 10
-12.1015364773677
 20
-44.19892507127612
 11
-8.655261233530414
 21
-44.19892507127612
 72
     1
 10
-8.655261233530414
 20
-44.19892507127612
 11
-1.60682433164136
 21
-35.79892507127613
 97
        0
 75
     0
 76
     1
 98
        1
 10
0.0
 20
0.0
  0
HATCH
  5
C7
330
1F
100
AcDbEntity
  8
중심선
100
AcDbHatch
 10
0.0
 20
0.0
 30
0.0
210
0.0
220
0.0
230
1.0
  2
SOLID
 70
     1
 71
     0
 91
        1
 92
        0
 93
        6
 72
     3
 10
3.193066099370867
 20
-39.99892507132738
 11
3.960054785062284
 21
1.540850780301639E-10
 40
0.3939339440162633
 50
17.09539180608433
 51
320.0019657685079
 73
     0
 72
     1
 10
4.876065755071463
 20
-38.58681907591441
 11
7.181367628772528
 21
-36.65249236586646
 72
     3
 10
3.19306609931802
 20
-39.99892507127625
 11
6.600054785286829
 21
-1.249000902703301E-13
 40
0.6363583540795982
 50
39.99873849337412
 51
368.4976242363724
 73
     1
 72
     1
 10
9.61839859121863
 20
-39.03892507120613
 11
1.87313340615397
 21
-39.03892507120613
 72
     1
 10
1.873133406153971
 20
-39.03892507120613
 11
1.873108361708009
 21
-40.95892507120602
 72
     1
 10
1.873108361708009
 20
-40.95892507120602
 11
6.314488131180047
 21
-40.95892507120599
 97
        0
 75
     0
 76
     1
 98
        1
 10
0.0
 20
0.0
  0
DIMENSION
  5
C8
330
1F
100
AcDbEntity
  8
치수문자_일반주서
100
AcDbDimension
  2
_D
 10
8.924630657015612
 20
14.76357492872391
 30
0.0
 11
44.09113065701558
 21
14.76357492872391
 31
0.0
 70
   160
  1
<>
 71
     2
 42
15.87499999999998
  3
SLDDIMSTYLE1
100
AcDbAlignedDimension
 13
24.79963065701558
 23
3.176074928723897
 33
0.0
 14
8.924630657015609
 24
3.164399156826314
 34
0.0
100
AcDbRotatedDimension
1001
ACAD
1000
DSTYLE
1002
{
1070
   171
1070
     6
1070
   273
1070
     7
1002
}
  0
DIMENSION
  5
DD
330
1F
100
AcDbEntity
  8
치수문자_일반주서
100
AcDbDimension
  2
_D_1
 10
-37.1128693429844
 20
31.6102217220047
 30
0.0
 11
-6.15661934298441
 21
31.6102217220047
 31
0.0
 70
   160
  1
<>
 71
     2
 42
61.91249999999999
  3
SLDDIMSTYLE1
100
AcDbAlignedDimension
 13
24.79963065701558
 23
3.176074928723897
 33
0.0
 14
-37.1128693429844
 24
3.811074928723901
 34
0.0
 50
0.0000000000000066
100
AcDbRotatedDimension
1001
ACAD
1000
DSTYLE
1002
{
1070
   171
1070
     6
1070
   273
1070
     7
1002
}
  0
DIMENSION
  5
F0
330
1F
100
AcDbEntity
  8
치수문자_일반주서
100
AcDbDimension
  2
_D_2
 10
-50.11286934298438
 20
-4.76142507127616
 30
0.0
 11
-50.1128693429844
 21
0.001074928723894
 31
0.0
 70
   160
  1
%%c<>
 71
     2
 42
9.525000000000006
 52
-270.0
  3
SLDDIMSTYLE1
100
AcDbAlignedDimension
 13
-36.16036934298439
 23
4.763574928723896
 33
0.0
 14
-36.16036934298439
 24
-4.761425071276109
 34
0.0
 50
90.0000000000002
100
AcDbRotatedDimension
1001
ACAD
1000
DSTYLE
1002
{
1070
   171
1070
     6
1070
   273
1070
     7
1002
}
  0
DIMENSION
  5
105
330
1F
100
AcDbEntity
  8
치수문자_일반주서
100
AcDbDimension
  2
_D_3
 10
63.97354975764008
 20
-3.173925071275956
 30
0.0
 11
63.97354975763997
 21
29.52607492872379
 31
0.0
 70
   160
  1
%%c<>
 71
     2
 42
6.35
 52
-270.0
  3
SLDDIMSTYLE1
100
AcDbAlignedDimension
 13
24.79963065701558
 23
3.176074928723897
 33
0.0
 14
24.79963065701561
 24
-3.173925071276102
 34
0.0
 50
90.0000000000002
100
AcDbRotatedDimension
1001
ACAD
1000
DSTYLE
1002
{
1070
   171
1070
     6
1070
   273
1070
     7
1002
}
  0
LINE
  5
119
330
1F
100
AcDbEntity
  8
참조1
100
AcDbLine
 10
77.81899512937676
 20
7.441074928723896
 30
0.0
 11
77.81899512937676
 21
-7.438925071276109
 31
0.0
  0
LINE
  5
11A
330
1F
100
AcDbEntity
  8
참조1
100
AcDbLine
 10
90.51899512937676
 20
5.441074928723896
 30
0.0
 11
77.81899512937676
 21
5.441074928723896
 31
0.0
  0
SOLID
  5
11B
330
1F
100
AcDbEntity
  8
참조1
100
AcDbTrace
 10
77.81899512937676
 20
5.441074928723896
 30
0.0
 11
84.16899512937675
 21
4.425074928723896
 31
0.0
 12
84.16899512937675
 22
6.457074928723896
 32
0.0
 13
84.16899512937675
 23
6.457074928723896
 33
0.0
  0
LINE
  5
11C
330
1F
100
AcDbEntity
  8
참조1
100
AcDbLine
 10
90.51899512937676
 20
-5.438925071276109
 30
0.0
 11
77.81899512937676
 21
-5.438925071276109
 31
0.0
  0
SOLID
  5
11D
330
1F
100
AcDbEntity
  8
참조1
100
AcDbTrace
 10
77.81899512937676
 20
-5.438925071276109
 30
0.0
 11
84.16899512937675
 21
-6.454925071276109
 31
0.0
 12
84.16899512937675
 22
-4.422925071276109
 32
0.0
 13
84.16899512937675
 23
-4.422925071276109
 33
0.0
  0
MTEXT
  5
11E
330
1F
100
AcDbEntity
  8
참조1
100
AcDbMText
 10
87.21648522184704
 20
10.98929157337383
 30
0.0
 40
3.5
 41
0.0
 71
     1
 72
     1
  1
A
  7
SLDTEXTSTYLE0
 73
     1
 44
1.0
  0
MTEXT
  5
11F
330
1F
100
AcDbEntity
  8
참조1
100
AcDbMText
 10
87.21648522184704
 20
0.1092915733738259
 30
0.0
 40
3.5
 41
0.0
 71
     1
 72
     1
  1
A
  7
SLDTEXTSTYLE0
 73
     1
 44
1.0
  0
INSERT
  5
126
330
1F
100
AcDbEntity
  8
해칭선
100
AcDbBlockReference
  2
SW_DOWELSYMBOL_0
 10
0.0
 20
0.0
 30
0.0
  0
LINE
  5
246
330
1F
100
AcDbEntity
  8
외형선
  6
Continuous
370
    15
100
AcDbLine
 10
-20.8378193429845
 20
3.493574928723902
 30
0.0
 11
-13.70041934298438
 21
3.493574928723902
 31
0.0
  0
LINE
  5
247
330
1F
100
AcDbEntity
  8
외형선
  6
Continuous
370
    15
100
AcDbLine
 10
-20.8378193429845
 20
3.493574928723902
 30
0.0
 11
-22.10781934298448
 21
4.763574928723884
 31
0.0
  0
LINE
  5
248
330
1F
100
AcDbEntity
  8
외형선
  6
Continuous
370
    15
100
AcDbLine
 10
-13.70041934298438
 20
3.493574928723902
 30
0.0
 11
-12.43041934298428
 21
4.763574928723884
 31
0.0
  0
LINE
  5
286
330
1F
100
AcDbEntity
  8
외형선
  6
Continuous
370
    15
100
AcDbLine
 10
-22.1078193429845
 20
4.763574928723896
 30
0.0
 11
-36.16036934298439
 21
4.763574928723896
 31
0.0
  0
ENDSEC
  0
SECTION
  2
OBJECTS
  0
DICTIONARY
  5
C
330
0
100
AcDbDictionary
281
     1
  3
ACAD_GROUP
350
D
  3
ACAD_IMAGE_VARS
350
14A
  3
ACAD_LAYOUT
350
1A
  3
ACAD_MLINESTYLE
350
17
  3
ACAD_PLOTSETTINGS
350
19
  3
ACAD_PLOTSTYLENAME
350
E
  3
ACAD_SCALELIST
350
47
  3
APPDATA
350
148
  3
DWGPROPS
350
2D3
  0
DICTIONARY
  5
1DF
330
2
100
AcDbDictionary
280
     1
281
     1
  3
ACAD_LAYERSTATES
360
1E0
  0
DICTIONARY
  5
D
102
{ACAD_REACTORS
330
C
102
}
330
C
100
AcDbDictionary
281
     1
  0
RASTERVARIABLES
  5
14A
102
{ACAD_REACTORS
330
C
102
}
330
C
100
AcDbRasterVariables
 90
        0
 70
     1
 71
     1
 72
     1
  0
DICTIONARY
  5
1A
102
{ACAD_REACTORS
330
C
102
}
330
C
100
AcDbDictionary
281
     1
  3
Layout1
350
1E
  3
Layout2
350
26
  3
Model
350
22
  0
DICTIONARY
  5
17
102
{ACAD_REACTORS
330
C
102
}
330
C
100
AcDbDictionary
281
     1
  3
Standard
350
18
  0
DICTIONARY
  5
19
102
{ACAD_REACTORS
330
C
102
}
330
C
100
AcDbDictionary
281
     1
  0
ACDBDICTIONARYWDFLT
  5
E
102
{ACAD_REACTORS
330
C
102
}
330
C
100
AcDbDictionary
281
     1
  3
Normal
350
F
100
AcDbDictionaryWithDefault
340
F
  0
DICTIONARY
  5
47
102
{ACAD_REACTORS
330
C
102
}
330
C
100
AcDbDictionary
281
     1
  3
A0
350
48
  3
A1
350
49
  3
A2
350
4A
  3
A3
350
4B
  3
A4
350
4C
  3
A5
350
4D
  3
A6
350
4E
  3
A7
350
4F
  3
A8
350
50
  3
A9
350
51
  3
B0
350
52
  3
B1
350
53
  3
B2
350
54
  3
B3
350
55
  3
B4
350
56
  3
B5
350
57
  3
B6
350
58
  3
B7
350
59
  3
B8
350
5A
  3
B9
350
5B
  3
C0
350
5C
  3
C1
350
5D
  3
C2
350
5E
  3
C3
350
5F
  3
C4
350
60
  3
C5
350
61
  3
C6
350
62
  3
C7
350
63
  3
C8
350
64
  3
C9
350
65
  3
D0
350
66
  3
D1
350
67
  3
D2
350
68
  0
DICTIONARY
  5
148
102
{ACAD_REACTORS
330
C
102
}
330
C
100
AcDbDictionary
281
     1
  0
XRECORD
  5
2D3
102
{ACAD_REACTORS
330
C
102
}
330
C
100
AcDbXrecord
280
     1
  1
DWGPROPS COOKIE
  2

  3

  4

  6

  7

  8
12017012
  9

300
=
301
=
302
=
303
=
304
=
305
=
306
=
307
=
308
=
309
=
 40
0.0
 41
2458323.300953357
 42
2458324.074142789
  1

 90
        0
  0
DICTIONARY
  5
1E0
102
{ACAD_REACTORS
330
1DF
102
}
330
1DF
100
AcDbDictionary
281
     1
  0
LAYOUT
  5
1E
102
{ACAD_REACTORS
330
1A
102
}
330
1A
100
AcDbPlotSettings
  1

  2
none_device
  4

  6

 40
0.0
 41
0.0
 42
0.0
 43
0.0
 44
0.0
 45
0.0
 46
0.0
 47
0.0
 48
0.0
 49
0.0
140
0.0
141
0.0
142
1.0
143
1.0
 70
   688
 72
     1
 73
     0
 74
     5
  7

 75
    16
147
1.0
148
0.0
149
0.0
100
AcDbLayout
  1
Layout1
 70
     1
 71
     1
 10
0.0
 20
0.0
 11
420.0
 21
297.0
 12
0.0
 22
0.0
 32
0.0
 14
1.000000000000000E+20
 24
1.000000000000000E+20
 34
1.000000000000000E+20
 15
-1.000000000000000E+20
 25
-1.000000000000000E+20
 35
-1.000000000000000E+20
146
0.0
 13
0.0
 23
0.0
 33
0.0
 16
1.0
 26
0.0
 36
0.0
 17
0.0
 27
1.0
 37
0.0
 76
     0
330
1B
  0
LAYOUT
  5
26
102
{ACAD_REACTORS
330
1A
102
}
330
1A
100
AcDbPlotSettings
  1

  2
none_device
  4

  6

 40
0.0
 41
0.0
 42
0.0
 43
0.0
 44
0.0
 45
0.0
 46
0.0
 47
0.0
 48
0.0
 49
0.0
140
0.0
141
0.0
142
1.0
143
1.0
 70
   688
 72
     1
 73
     0
 74
     5
  7

 75
    16
147
1.0
148
0.0
149
0.0
100
AcDbLayout
  1
Layout2
 70
     1
 71
     2
 10
0.0
 20
0.0
 11
0.0
 21
0.0
 12
0.0
 22
0.0
 32
0.0
 14
0.0
 24
0.0
 34
0.0
 15
0.0
 25
0.0
 35
0.0
146
0.0
 13
0.0
 23
0.0
 33
0.0
 16
1.0
 26
0.0
 36
0.0
 17
0.0
 27
1.0
 37
0.0
 76
     0
330
23
  0
LAYOUT
  5
22
102
{ACAD_REACTORS
330
1A
102
}
330
1A
100
AcDbPlotSettings
  1

  2
none_device
  4
ANSI_A_(11.00_x_8.50_Inches)
  6

 40
6.35
 41
19.05
 42
6.35000508
 43
19.05000254
 44
279.4
 45
215.9
 46
103.2448743032345
 47
96.631746480603
 48
0.0
 49
0.0
140
0.0
141
0.0
142
0.0732469583835696
143
1.0
 70
  1696
 72
     0
 73
     0
 74
     0
  7

 75
     0
147
0.0235690232323232
148
0.0
149
0.0
100
AcDbLayout
  1
Model
 70
     1
 71
     0
 10
0.0
 20
0.0
 11
420.0
 21
297.0
 12
0.0
 22
0.0
 32
0.0
 14
1.000000000000000E+20
 24
1.000000000000000E+20
 34
1.000000000000000E+20
 15
-1.000000000000000E+20
 25
-1.000000000000000E+20
 35
-1.000000000000000E+20
146
0.0
 13
0.0
 23
0.0
 33
0.0
 16
1.0
 26
0.0
 36
0.0
 17
0.0
 27
1.0
 37
0.0
 76
     0
330
1F
331
29
  0
MLINESTYLE
  5
18
102
{ACAD_REACTORS
330
17
102
}
330
17
100
AcDbMlineStyle
  2
Standard
 70
     0
  3

 62
   256
 51
90.0
 52
90.0
 71
     2
 49
0.5
 62
   256
  6
BYLAYER
 49
-0.5
 62
   256
  6
BYLAYER
  0
ACDBPLACEHOLDER
  5
F
102
{ACAD_REACTORS
330
E
102
}
330
E
  0
SCALE
  5
48
102
{ACAD_REACTORS
330
47
102
}
330
47
100
AcDbScale
 70
     0
300
1:1
140
1.0
141
1.0
290
     1
  0
SCALE
  5
49
102
{ACAD_REACTORS
330
47
102
}
330
47
100
AcDbScale
 70
     0
300
1:2
140
1.0
141
2.0
290
     0
  0
SCALE
  5
4A
102
{ACAD_REACTORS
330
47
102
}
330
47
100
AcDbScale
 70
     0
300
1:4
140
1.0
141
4.0
290
     0
  0
SCALE
  5
4B
102
{ACAD_REACTORS
330
47
102
}
330
47
100
AcDbScale
 70
     0
300
1:5
140
1.0
141
5.0
290
     0
  0
SCALE
  5
4C
102
{ACAD_REACTORS
330
47
102
}
330
47
100
AcDbScale
 70
     0
300
1:8
140
1.0
141
8.0
290
     0
  0
SCALE
  5
4D
102
{ACAD_REACTORS
330
47
102
}
330
47
100
AcDbScale
 70
     0
300
1:10
140
1.0
141
10.0
290
     0
  0
SCALE
  5
4E
102
{ACAD_REACTORS
330
47
102
}
330
47
100
AcDbScale
 70
     0
300
1:16
140
1.0
141
16.0
290
     0
  0
SCALE
  5
4F
102
{ACAD_REACTORS
330
47
102
}
330
47
100
AcDbScale
 70
     0
300
1:20
140
1.0
141
20.0
290
     0
  0
SCALE
  5
50
102
{ACAD_REACTORS
330
47
102
}
330
47
100
AcDbScale
 70
     0
300
1:30
140
1.0
141
30.0
290
     0
  0
SCALE
  5
51
102
{ACAD_REACTORS
330
47
102
}
330
47
100
AcDbScale
 70
     0
300
1:40
140
1.0
141
40.0
290
     0
  0
SCALE
  5
52
102
{ACAD_REACTORS
330
47
102
}
330
47
100
AcDbScale
 70
     0
300
1:50
140
1.0
141
50.0
290
     0
  0
SCALE
  5
53
102
{ACAD_REACTORS
330
47
102
}
330
47
100
AcDbScale
 70
     0
300
1:100
140
1.0
141
100.0
290
     0
  0
SCALE
  5
54
102
{ACAD_REACTORS
330
47
102
}
330
47
100
AcDbScale
 70
     0
300
2:1
140
2.0
141
1.0
290
     0
  0
SCALE
  5
55
102
{ACAD_REACTORS
330
47
102
}
330
47
100
AcDbScale
 70
     0
300
4:1
140
4.0
141
1.0
290
     0
  0
SCALE
  5
56
102
{ACAD_REACTORS
330
47
102
}
330
47
100
AcDbScale
 70
     0
300
8:1
140
8.0
141
1.0
290
     0
  0
SCALE
  5
57
102
{ACAD_REACTORS
330
47
102
}
330
47
100
AcDbScale
 70
     0
300
10:1
140
10.0
141
1.0
290
     0
  0
SCALE
  5
58
102
{ACAD_REACTORS
330
47
102
}
330
47
100
AcDbScale
 70
     0
300
100:1
140
100.0
141
1.0
290
     0
  0
SCALE
  5
59
102
{ACAD_REACTORS
330
47
102
}
330
47
100
AcDbScale
 70
     0
300
1/128" = 1'-0"
140
0.0078125
141
12.0
290
     0
  0
SCALE
  5
5A
102
{ACAD_REACTORS
330
47
102
}
330
47
100
AcDbScale
 70
     0
300
1/64" = 1'-0"
140
0.015625
141
12.0
290
     0
  0
SCALE
  5
5B
102
{ACAD_REACTORS
330
47
102
}
330
47
100
AcDbScale
 70
     0
300
1/32" = 1'-0"
140
0.03125
141
12.0
290
     0
  0
SCALE
  5
5C
102
{ACAD_REACTORS
330
47
102
}
330
47
100
AcDbScale
 70
     0
300
1/16" = 1'-0"
140
0.0625
141
12.0
290
     0
  0
SCALE
  5
5D
102
{ACAD_REACTORS
330
47
102
}
330
47
100
AcDbScale
 70
     0
300
3/32" = 1'-0"
140
0.09375
141
12.0
290
     0
  0
SCALE
  5
5E
102
{ACAD_REACTORS
330
47
102
}
330
47
100
AcDbScale
 70
     0
300
1/8" = 1'-0"
140
0.125
141
12.0
290
     0
  0
SCALE
  5
5F
102
{ACAD_REACTORS
330
47
102
}
330
47
100
AcDbScale
 70
     0
300
3/16" = 1'-0"
140
0.1875
141
12.0
290
     0
  0
SCALE
  5
60
102
{ACAD_REACTORS
330
47
102
}
330
47
100
AcDbScale
 70
     0
300
1/4" = 1'-0"
140
0.25
141
12.0
290
     0
  0
SCALE
  5
61
102
{ACAD_REACTORS
330
47
102
}
330
47
100
AcDbScale
 70
     0
300
3/8" = 1'-0"
140
0.375
141
12.0
290
     0
  0
SCALE
  5
62
102
{ACAD_REACTORS
330
47
102
}
330
47
100
AcDbScale
 70
     0
300
1/2" = 1'-0"
140
0.5
141
12.0
290
     0
  0
SCALE
  5
63
102
{ACAD_REACTORS
330
47
102
}
330
47
100
AcDbScale
 70
     0
300
3/4" = 1'-0"
140
0.75
141
12.0
290
     0
  0
SCALE
  5
64
102
{ACAD_REACTORS
330
47
102
}
330
47
100
AcDbScale
 70
     0
300
1" = 1'-0"
140
1.0
141
12.0
290
     0
  0
SCALE
  5
65
102
{ACAD_REACTORS
330
47
102
}
330
47
100
AcDbScale
 70
     0
300
1-1/2" = 1'-0"
140
1.5
141
12.0
290
     0
  0
SCALE
  5
66
102
{ACAD_REACTORS
330
47
102
}
330
47
100
AcDbScale
 70
     0
300
3" = 1'-0"
140
3.0
141
12.0
290
     0
  0
SCALE
  5
67
102
{ACAD_REACTORS
330
47
102
}
330
47
100
AcDbScale
 70
     0
300
6" = 1'-0"
140
6.0
141
12.0
290
     0
  0
SCALE
  5
68
102
{ACAD_REACTORS
330
47
102
}
330
47
100
AcDbScale
 70
     0
300
1'-0" = 1'-0"
140
12.0
141
12.0
290
     0
  0
ENDSEC
  0
EOF
