  0
SECTION
  2
HEADER
  9
$ACADVER
  1
AC1015
  9
$ACADMAINTVER
 70
     6
  9
$DWGCODEPAGE
  3
ANSI_949
  9
$INSBASE
 10
0.0
 20
0.0
 30
0.0
  9
$EXTMIN
 10
1.000000000000000E+20
 20
1.000000000000000E+20
 30
1.000000000000000E+20
  9
$EXTMAX
 10
-1.000000000000000E+20
 20
-1.000000000000000E+20
 30
-1.000000000000000E+20
  9
$LIMMIN
 10
0.0
 20
0.0
  9
$LIMMAX
 10
420.0
 20
297.0
  9
$ORTHOMODE
 70
     1
  9
$REGENMODE
 70
     1
  9
$FILLMODE
 70
     1
  9
$QTEXTMODE
 70
     0
  9
$MIRRTEXT
 70
     1
  9
$LTSCALE
 40
1.0
  9
$ATTMODE
 70
     1
  9
$TEXTSIZE
 40
3.5
  9
$TRACEWID
 40
1.0
  9
$TEXTSTYLE
  7
Standard
  9
$CLAYER
  8
0
  9
$CELTYPE
  6
ByLayer
  9
$CECOLOR
 62
   256
  9
$CELTSCALE
 40
1.0
  9
$DISPSILH
 70
     0
  9
$DIMSCALE
 40
1.0
  9
$DIMASZ
 40
3.302
  9
$DIMEXO
 40
1.0
  9
$DIMDLI
 40
3.75
  9
$DIMRND
 40
0.0
  9
$DIMDLE
 40
0.0
  9
$DIMEXE
 40
1.0
  9
$DIMTP
 40
0.0
  9
$DIMTM
 40
0.0
  9
$DIMTXT
 40
3.5
  9
$DIMCEN
 40
2.5
  9
$DIMTSZ
 40
0.0
  9
$DIMTOL
 70
     0
  9
$DIMLIM
 70
     0
  9
$DIMTIH
 70
     1
  9
$DIMTOH
 70
     1
  9
$DIMSE1
 70
     0
  9
$DIMSE2
 70
     0
  9
$DIMTAD
 70
     1
  9
$DIMZIN
 70
     0
  9
$DIMBLK
  1

  9
$DIMASO
 70
     1
  9
$DIMSHO
 70
     1
  9
$DIMPOST
  1

  9
$DIMAPOST
  1

  9
$DIMALT
 70
     0
  9
$DIMALTD
 70
     3
  9
$DIMALTF
 40
0.0393700787401575
  9
$DIMLFAC
 40
1.0
  9
$DIMTOFL
 70
     1
  9
$DIMTVP
 40
0.0
  9
$DIMTIX
 70
     0
  9
$DIMSOXD
 70
     0
  9
$DIMSAH
 70
     0
  9
$DIMBLK1
  1

  9
$DIMBLK2
  1

  9
$DIMSTYLE
  2
ISO-25
  9
$DIMCLRD
 70
     0
  9
$DIMCLRE
 70
     0
  9
$DIMCLRT
 70
     0
  9
$DIMTFAC
 40
1.0
  9
$DIMGAP
 40
1.524
  9
$DIMJUST
 70
     0
  9
$DIMSD1
 70
     0
  9
$DIMSD2
 70
     0
  9
$DIMTOLJ
 70
     0
  9
$DIMTZIN
 70
     0
  9
$DIMALTZ
 70
     0
  9
$DIMALTTZ
 70
     0
  9
$DIMUPT
 70
     0
  9
$DIMDEC
 70
     2
  9
$DIMTDEC
 70
     2
  9
$DIMALTU
 70
     2
  9
$DIMALTTD
 70
     3
  9
$DIMTXSTY
  7
Standard
  9
$DIMAUNIT
 70
     0
  9
$DIMADEC
 70
     2
  9
$DIMALTRND
 40
0.0
  9
$DIMAZIN
 70
     0
  9
$DIMDSEP
 70
    44
  9
$DIMATFIT
 70
     3
  9
$DIMFRAC
 70
     0
  9
$DIMLDRBLK
  1

  9
$DIMLUNIT
 70
     2
  9
$DIMLWD
 70
    -2
  9
$DIMLWE
 70
    -2
  9
$DIMTMOVE
 70
     0
  9
$LUNITS
 70
     2
  9
$LUPREC
 70
     2
  9
$SKETCHINC
 40
1.0
  9
$FILLETRAD
 40
10.0
  9
$AUNITS
 70
     0
  9
$AUPREC
 70
     2
  9
$MENU
  1
.
  9
$ELEVATION
 40
0.0
  9
$PELEVATION
 40
0.0
  9
$THICKNESS
 40
0.0
  9
$LIMCHECK
 70
     0
  9
$CHAMFERA
 40
0.0
  9
$CHAMFERB
 40
0.0
  9
$CHAMFERC
 40
0.0
  9
$CHAMFERD
 40
0.0
  9
$SKPOLY
 70
     0
  9
$TDCREATE
 40
2458323.67616515
  9
$TDUCREATE
 40
2458323.30116515
  9
$TDUPDATE
 40
2458324.450068762
  9
$TDUUPDATE
 40
2458324.075068762
  9
$TDINDWG
 40
0.0008992708
  9
$TDUSRTIMER
 40
2458324.074169861
  9
$USRTIMER
 70
     1
  9
$ANGBASE
 50
0.0
  9
$ANGDIR
 70
     0
  9
$PDMODE
 70
     0
  9
$PDSIZE
 40
-1.0
  9
$PLINEWID
 40
0.0
  9
$SPLFRAME
 70
     0
  9
$SPLINETYPE
 70
     6
  9
$SPLINESEGS
 70
     8
  9
$HANDSEED
  5
4E0
  9
$SURFTAB1
 70
     6
  9
$SURFTAB2
 70
     6
  9
$SURFTYPE
 70
     6
  9
$SURFU
 70
     6
  9
$SURFV
 70
     6
  9
$UCSBASE
  2

  9
$UCSNAME
  2

  9
$UCSORG
 10
0.0
 20
0.0
 30
0.0
  9
$UCSXDIR
 10
1.0
 20
0.0
 30
0.0
  9
$UCSYDIR
 10
0.0
 20
1.0
 30
0.0
  9
$UCSORTHOREF
  2

  9
$UCSORTHOVIEW
 70
     0
  9
$UCSORGTOP
 10
0.0
 20
0.0
 30
0.0
  9
$UCSORGBOTTOM
 10
0.0
 20
0.0
 30
0.0
  9
$UCSORGLEFT
 10
0.0
 20
0.0
 30
0.0
  9
$UCSORGRIGHT
 10
0.0
 20
0.0
 30
0.0
  9
$UCSORGFRONT
 10
0.0
 20
0.0
 30
0.0
  9
$UCSORGBACK
 10
0.0
 20
0.0
 30
0.0
  9
$PUCSBASE
  2

  9
$PUCSNAME
  2

  9
$PUCSORG
 10
0.0
 20
0.0
 30
0.0
  9
$PUCSXDIR
 10
1.0
 20
0.0
 30
0.0
  9
$PUCSYDIR
 10
0.0
 20
1.0
 30
0.0
  9
$PUCSORTHOREF
  2

  9
$PUCSORTHOVIEW
 70
     0
  9
$PUCSORGTOP
 10
0.0
 20
0.0
 30
0.0
  9
$PUCSORGBOTTOM
 10
0.0
 20
0.0
 30
0.0
  9
$PUCSORGLEFT
 10
0.0
 20
0.0
 30
0.0
  9
$PUCSORGRIGHT
 10
0.0
 20
0.0
 30
0.0
  9
$PUCSORGFRONT
 10
0.0
 20
0.0
 30
0.0
  9
$PUCSORGBACK
 10
0.0
 20
0.0
 30
0.0
  9
$USERI1
 70
     0
  9
$USERI2
 70
     0
  9
$USERI3
 70
     0
  9
$USERI4
 70
     0
  9
$USERI5
 70
     0
  9
$USERR1
 40
0.0
  9
$USERR2
 40
0.0
  9
$USERR3
 40
0.0
  9
$USERR4
 40
0.0
  9
$USERR5
 40
0.0
  9
$WORLDVIEW
 70
     1
  9
$SHADEDGE
 70
     3
  9
$SHADEDIF
 70
    70
  9
$TILEMODE
 70
     1
  9
$MAXACTVP
 70
    64
  9
$PINSBASE
 10
0.0
 20
0.0
 30
0.0
  9
$PLIMCHECK
 70
     0
  9
$PEXTMIN
 10
1.000000000000000E+20
 20
1.000000000000000E+20
 30
1.000000000000000E+20
  9
$PEXTMAX
 10
-1.000000000000000E+20
 20
-1.000000000000000E+20
 30
-1.000000000000000E+20
  9
$PLIMMIN
 10
0.0
 20
0.0
  9
$PLIMMAX
 10
0.0
 20
0.0
  9
$UNITMODE
 70
     0
  9
$VISRETAIN
 70
     1
  9
$PLINEGEN
 70
     0
  9
$PSLTSCALE
 70
     1
  9
$TREEDEPTH
 70
  3020
  9
$CMLSTYLE
  2
Standard
  9
$CMLJUST
 70
     0
  9
$CMLSCALE
 40
20.0
  9
$PROXYGRAPHICS
 70
     1
  9
$MEASUREMENT
 70
     1
  9
$CELWEIGHT
370
    -1
  9
$ENDCAPS
280
     0
  9
$JOINSTYLE
280
     0
  9
$LWDISPLAY
290
     1
  9
$INSUNITS
 70
     4
  9
$HYPERLINKBASE
  1

  9
$STYLESHEET
  1

  9
$XEDIT
290
     1
  9
$CEPSNTYPE
380
     0
  9
$PSTYLEMODE
290
     1
  9
$FINGERPRINTGUID
  2
{D1DA440D-FC2B-40DD-8915-1B7FC5AD61CB}
  9
$VERSIONGUID
  2
{FAEB1C32-E019-11D5-929B-00C0DF256EC4}
  9
$EXTNAMES
290
     1
  9
$PSVPSCALE
 40
0.0
  9
$OLESTARTUP
290
     0
  0
ENDSEC
  0
SECTION
  2
CLASSES
  0
CLASS
  1
ACDBDICTIONARYWDFLT
  2
AcDbDictionaryWithDefault
  3
ObjectDBX Classes
 90
        0
280
     0
281
     0
  0
CLASS
  1
VISUALSTYLE
  2
AcDbVisualStyle
  3
ObjectDBX Classes
 90
     4095
280
     0
281
     0
  0
CLASS
  1
MATERIAL
  2
AcDbMaterial
  3
ObjectDBX Classes
 90
     1153
280
     0
281
     0
  0
CLASS
  1
SCALE
  2
AcDbScale
  3
ObjectDBX Classes
 90
     1153
280
     0
281
     0
  0
CLASS
  1
SUN
  2
AcDbSun
  3
SCENEOE
 90
     1153
280
     0
281
     0
  0
CLASS
  1
ACDBPLACEHOLDER
  2
AcDbPlaceHolder
  3
ObjectDBX Classes
 90
        0
280
     0
281
     0
  0
CLASS
  1
LAYOUT
  2
AcDbLayout
  3
ObjectDBX Classes
 90
        0
280
     0
281
     0
  0
CLASS
  1
TABLESTYLE
  2
AcDbTableStyle
  3
ObjectDBX Classes
 90
     4095
280
     0
281
     0
  0
CLASS
  1
MLEADERSTYLE
  2
AcDbMLeaderStyle
  3
ACDB_MLEADERSTYLE_CLASS
 90
     4095
280
     0
281
     0
  0
CLASS
  1
RASTERVARIABLES
  2
AcDbRasterVariables
  3
ISM
 90
        0
280
     0
281
     0
  0
ENDSEC
  0
SECTION
  2
TABLES
  0
TABLE
  2
VPORT
  5
8
330
0
100
AcDbSymbolTable
 70
     1
  0
VPORT
  5
29
330
8
100
AcDbSymbolTableRecord
100
AcDbViewportTableRecord
  2
*Active
 70
     0
 10
0.0
 20
0.0
 11
1.0
 21
1.0
 12
5.285961094727922
 22
9.638297770472477
 13
0.0
 23
0.0
 14
10.0
 24
10.0
 15
10.0
 25
10.0
 16
0.0
 26
0.0
 36
1.0
 17
0.0
 27
0.0
 37
0.0
 40
153.2544226653118
 41
1.632093933463797
 42
50.0
 43
0.0
 44
0.0
 50
0.0
 51
0.0
 71
    16
 72
  2000
 73
     1
 74
     3
 75
     0
 76
     0
 77
     0
 78
     0
281
     0
 65
     1
110
0.0
120
0.0
130
0.0
111
1.0
121
0.0
131
0.0
112
0.0
122
1.0
132
0.0
 79
     0
146
0.0
  0
ENDTAB
  0
TABLE
  2
LTYPE
  5
5
330
0
100
AcDbSymbolTable
 70
     6
  0
LTYPE
  5
14
330
5
100
AcDbSymbolTableRecord
100
AcDbLinetypeTableRecord
  2
ByBlock
 70
     0
  3

 72
    65
 73
     0
 40
0.0
  0
LTYPE
  5
15
330
5
100
AcDbSymbolTableRecord
100
AcDbLinetypeTableRecord
  2
ByLayer
 70
     0
  3

 72
    65
 73
     0
 40
0.0
  0
LTYPE
  5
16
330
5
100
AcDbSymbolTableRecord
100
AcDbLinetypeTableRecord
  2
Continuous
 70
     0
  3
Solid line
 72
    65
 73
     0
 40
0.0
  0
LTYPE
  5
6A
330
5
100
AcDbSymbolTableRecord
100
AcDbLinetypeTableRecord
  2
HIDDEN
 70
     0
  3
Hidden __ __ __ __ __ __ __ __ __ __ __ __ __ __
 72
    65
 73
     2
 40
1.905
 49
1.27
 74
     0
 49
-0.635
 74
     0
  0
LTYPE
  5
6B
330
5
100
AcDbSymbolTableRecord
100
AcDbLinetypeTableRecord
  2
PHANTOM
 70
     0
  3
Phantom ______  __  __  ______  __  __  ______
 72
    65
 73
     6
 40
12.7
 49
6.35
 74
     0
 49
-1.27
 74
     0
 49
1.27
 74
     0
 49
-1.27
 74
     0
 49
1.27
 74
     0
 49
-1.27
 74
     0
  0
LTYPE
  5
6C
330
5
100
AcDbSymbolTableRecord
100
AcDbLinetypeTableRecord
  2
CENTER
 70
     0
  3
Center ____ _ ____ _ ____ _ ____ _ ____ _ ____
 72
    65
 73
     4
 40
10.16
 49
6.35
 74
     0
 49
-1.27
 74
     0
 49
1.27
 74
     0
 49
-1.27
 74
     0
  0
LTYPE
  5
6D
330
5
100
AcDbSymbolTableRecord
100
AcDbLinetypeTableRecord
  2
CENTERX2
 70
     0
  3
Center (2x) ________  __  ________  __  _____
 72
    65
 73
     4
 40
20.32
 49
12.7
 74
     0
 49
-2.54
 74
     0
 49
2.54
 74
     0
 49
-2.54
 74
     0
  0
LTYPE
  5
6E
330
5
100
AcDbSymbolTableRecord
100
AcDbLinetypeTableRecord
  2
DOT2
 70
     0
  3
Dot (.5x) ........................................
 72
    65
 73
     2
 40
0.635
 49
0.0
 74
     0
 49
-0.635
 74
     0
  0
ENDTAB
  0
TABLE
  2
LAYER
  5
2
102
{ACAD_XDICTIONARY
360
1E0
102
}
330
0
100
AcDbSymbolTable
 70
    18
  0
LAYER
  5
10
330
2
100
AcDbSymbolTableRecord
100
AcDbLayerTableRecord
  2
0
 70
     0
 62
     7
  6
Continuous
370
    -3
390
F
  0
LAYER
  5
6F
330
2
100
AcDbSymbolTableRecord
100
AcDbLayerTableRecord
  2
FORMAT
 70
     0
 62
     2
  6
Continuous
370
    -3
390
F
  0
LAYER
  5
70
330
2
100
AcDbSymbolTableRecord
100
AcDbLayerTableRecord
  2
외형선
 70
     0
 62
     4
  6
Continuous
370
    30
390
F
  0
LAYER
  5
71
330
2
100
AcDbSymbolTableRecord
100
AcDbLayerTableRecord
  2
숨은선
 70
     0
 62
     2
  6
HIDDEN
370
    15
390
F
  0
LAYER
  5
72
330
2
100
AcDbSymbolTableRecord
100
AcDbLayerTableRecord
  2
중심선
 70
     0
 62
     1
  6
CENTERX2
370
    -3
390
F
  0
LAYER
  5
73
330
2
100
AcDbSymbolTableRecord
100
AcDbLayerTableRecord
  2
파단선
 70
     0
 62
     4
  6
Continuous
370
    -3
390
F
  0
LAYER
  5
74
330
2
100
AcDbSymbolTableRecord
100
AcDbLayerTableRecord
  2
해칭선
 70
     0
 62
   100
  6
Continuous
370
    -3
390
F
  0
LAYER
  5
75
330
2
100
AcDbSymbolTableRecord
100
AcDbLayerTableRecord
  2
가는실선
 70
     0
 62
     4
  6
Continuous
370
    -3
390
F
  0
LAYER
  5
76
330
2
100
AcDbSymbolTableRecord
100
AcDbLayerTableRecord
  2
치수_보조선
 70
     0
 62
     4
  6
Continuous
370
    -3
390
F
  0
LAYER
  5
77
330
2
100
AcDbSymbolTableRecord
100
AcDbLayerTableRecord
  2
치수문자_일반주서
 70
     0
 62
     7
  6
Continuous
370
    15
390
F
  0
LAYER
  5
78
330
2
100
AcDbSymbolTableRecord
100
AcDbLayerTableRecord
  2
개별주서
 70
     0
 62
   100
  6
Continuous
370
    30
390
F
  0
LAYER
  5
79
330
2
100
AcDbSymbolTableRecord
100
AcDbLayerTableRecord
  2
중간선
 70
     0
 62
     2
  6
Continuous
370
    15
390
F
  0
LAYER
  5
7A
330
2
100
AcDbSymbolTableRecord
100
AcDbLayerTableRecord
  2
윤곽선
 70
     0
 62
     3
  6
Continuous
370
    40
390
F
  0
LAYER
  5
7B
330
2
100
AcDbSymbolTableRecord
100
AcDbLayerTableRecord
  2
중심마크
 70
     0
 62
   100
  6
Continuous
370
    30
390
F
  0
LAYER
  5
7C
330
2
100
AcDbSymbolTableRecord
100
AcDbLayerTableRecord
  2
가상선
 70
     0
 62
     4
  6
PHANTOM
370
    -3
390
F
  0
LAYER
  5
7D
330
2
100
AcDbSymbolTableRecord
100
AcDbLayerTableRecord
  2
특수지정선
 70
     0
 62
     5
  6
CENTERX2
370
    60
390
F
  0
LAYER
  5
7E
330
2
100
AcDbSymbolTableRecord
100
AcDbLayerTableRecord
  2
참조1
 70
     0
 62
    -4
  6
Continuous
370
    -3
390
F
  0
LAYER
  5
14C
330
2
100
AcDbSymbolTableRecord
100
AcDbLayerTableRecord
  2
Defpoints
 70
     0
 62
     7
  6
Continuous
290
     0
370
    -3
390
F
  0
ENDTAB
  0
TABLE
  2
STYLE
  5
3
330
0
100
AcDbSymbolTable
 70
     2
  0
STYLE
  5
11
330
3
100
AcDbSymbolTableRecord
100
AcDbTextStyleTableRecord
  2
Standard
 70
     0
 40
0.0
 41
1.0
 50
0.0
 71
     0
 42
3.5
  3
txt
  4

  0
STYLE
  5
94
330
3
100
AcDbSymbolTableRecord
100
AcDbTextStyleTableRecord
  2
SLDTEXTSTYLE0
 70
     0
 40
0.0
 41
0.75
 50
0.0
 71
     0
 42
3.5
  3
TXT
  4

  0
ENDTAB
  0
TABLE
  2
VIEW
  5
6
330
0
100
AcDbSymbolTable
 70
     0
  0
ENDTAB
  0
TABLE
  2
UCS
  5
7
330
0
100
AcDbSymbolTable
 70
     0
  0
ENDTAB
  0
TABLE
  2
APPID
  5
9
330
0
100
AcDbSymbolTable
 70
     1
  0
APPID
  5
12
330
9
100
AcDbSymbolTableRecord
100
AcDbRegAppTableRecord
  2
ACAD
 70
     0
  0
ENDTAB
  0
TABLE
  2
DIMSTYLE
  5
A
330
0
100
AcDbSymbolTable
 70
     4
100
AcDbDimStyleTable
  0
DIMSTYLE
105
27
330
A
100
AcDbSymbolTableRecord
100
AcDbDimStyleTableRecord
  2
ISO-25
 70
     0
 41
2.5
 42
0.625
 43
3.75
 44
1.25
 73
     0
 74
     0
 77
     1
 78
     8
140
2.5
141
2.5
143
0.03937007874016
147
0.625
171
     3
172
     1
178
     0
271
     2
272
     2
274
     3
278
    44
283
     0
284
     8
340
11
  0
DIMSTYLE
105
C9
330
A
100
AcDbSymbolTableRecord
100
AcDbDimStyleTableRecord
  2
SLDDIMSTYLE0
 70
     0
 41
3.302
 44
0.0
 45
0.000000001
 73
     0
 74
     0
 77
     1
 78
    12
 79
     3
140
3.5
143
0.0393700787401575
147
0.875
148
0.000000001
170
     1
173
     1
178
     0
271
     2
272
     2
276
     2
284
    12
340
94
  0
DIMSTYLE
105
DE
102
{ACAD_REACTORS
330
DD
330
2CA
330
2DA
330
2E7
330
2F4
330
3FC
330
40C
330
419
330
426
330
C8
330
F1
330
106
102
}
330
A
100
AcDbSymbolTableRecord
100
AcDbDimStyleTableRecord
  2
SLDDIMSTYLE1
 70
     0
 41
3.302
 44
0.0
 45
0.000000001
 73
     0
 74
     0
 77
     1
 78
     4
 79
     1
140
3.5
143
0.0393700787401575
147
0.875
148
0.000000001
170
     1
173
     1
178
     0
271
     2
272
     2
276
     2
284
    12
340
94
  0
DIMSTYLE
105
F2
330
A
100
AcDbSymbolTableRecord
100
AcDbDimStyleTableRecord
  2
SLDDIMSTYLE2
 70
     0
 41
3.302
 44
0.0
 45
0.000000001
 73
     0
 74
     0
 77
     1
 78
    12
 79
     3
140
3.5
143
0.0393700787401575
147
0.875
148
0.000000001
170
     1
172
     1
173
     1
178
     0
271
     2
272
     2
276
     2
284
    12
289
     0
340
94
  0
ENDTAB
  0
TABLE
  2
BLOCK_RECORD
  5
1
330
0
100
AcDbSymbolTable
 70
    25
  0
BLOCK_RECORD
  5
1F
330
1
100
AcDbSymbolTableRecord
100
AcDbBlockTableRecord
  2
*Model_Space
340
22
  0
BLOCK_RECORD
  5
1B
330
1
100
AcDbSymbolTableRecord
100
AcDbBlockTableRecord
  2
*Paper_Space
340
1E
  0
BLOCK_RECORD
  5
23
330
1
100
AcDbSymbolTableRecord
100
AcDbBlockTableRecord
  2
*Paper_Space0
340
26
  0
BLOCK_RECORD
  5
7F
330
1
100
AcDbSymbolTableRecord
100
AcDbBlockTableRecord
  2
블럭10
340
0
102
{BLKREFS
331
C1
102
}
  0
BLOCK_RECORD
  5
CA
330
1
100
AcDbSymbolTableRecord
100
AcDbBlockTableRecord
  2
_D
340
0
  0
BLOCK_RECORD
  5
DF
330
1
100
AcDbSymbolTableRecord
100
AcDbBlockTableRecord
  2
_D_1
340
0
  0
BLOCK_RECORD
  5
F3
330
1
100
AcDbSymbolTableRecord
100
AcDbBlockTableRecord
  2
_D_2
340
0
  0
BLOCK_RECORD
  5
107
330
1
100
AcDbSymbolTableRecord
100
AcDbBlockTableRecord
  2
_D_3
340
0
  0
BLOCK_RECORD
  5
120
330
1
100
AcDbSymbolTableRecord
100
AcDbBlockTableRecord
  2
SW_DOWELSYMBOL_0
340
0
102
{BLKREFS
331
126
331
304
331
0
331
436
331
0
102
}
  0
BLOCK_RECORD
  5
313
330
1
100
AcDbSymbolTableRecord
100
AcDbBlockTableRecord
  2
*D8
340
0
  0
BLOCK_RECORD
  5
320
330
1
100
AcDbSymbolTableRecord
100
AcDbBlockTableRecord
  2
*D9
340
0
  0
BLOCK_RECORD
  5
32C
330
1
100
AcDbSymbolTableRecord
100
AcDbBlockTableRecord
  2
*D10
340
0
  0
BLOCK_RECORD
  5
338
330
1
100
AcDbSymbolTableRecord
100
AcDbBlockTableRecord
  2
*D11
340
0
  0
BLOCK_RECORD
  5
378
330
1
100
AcDbSymbolTableRecord
100
AcDbBlockTableRecord
  2
*D12
340
0
  0
BLOCK_RECORD
  5
385
330
1
100
AcDbSymbolTableRecord
100
AcDbBlockTableRecord
  2
*D13
340
0
  0
BLOCK_RECORD
  5
391
330
1
100
AcDbSymbolTableRecord
100
AcDbBlockTableRecord
  2
*D14
340
0
  0
BLOCK_RECORD
  5
39D
330
1
100
AcDbSymbolTableRecord
100
AcDbBlockTableRecord
  2
*D15
340
0
  0
BLOCK_RECORD
  5
443
330
1
100
AcDbSymbolTableRecord
100
AcDbBlockTableRecord
  2
*D17
340
0
  0
BLOCK_RECORD
  5
450
330
1
100
AcDbSymbolTableRecord
100
AcDbBlockTableRecord
  2
*D18
340
0
  0
BLOCK_RECORD
  5
45C
330
1
100
AcDbSymbolTableRecord
100
AcDbBlockTableRecord
  2
*D19
340
0
  0
BLOCK_RECORD
  5
468
330
1
100
AcDbSymbolTableRecord
100
AcDbBlockTableRecord
  2
*D20
340
0
  0
BLOCK_RECORD
  5
4A8
330
1
100
AcDbSymbolTableRecord
100
AcDbBlockTableRecord
  2
*D21
340
0
  0
BLOCK_RECORD
  5
4B5
330
1
100
AcDbSymbolTableRecord
100
AcDbBlockTableRecord
  2
*D22
340
0
  0
BLOCK_RECORD
  5
4C1
330
1
100
AcDbSymbolTableRecord
100
AcDbBlockTableRecord
  2
*D23
340
0
  0
BLOCK_RECORD
  5
4CD
330
1
100
AcDbSymbolTableRecord
100
AcDbBlockTableRecord
  2
*D24
340
0
  0
ENDTAB
  0
ENDSEC
  0
SECTION
  2
BLOCKS
  0
BLOCK
  5
20
330
1F
100
AcDbEntity
  8
0
100
AcDbBlockBegin
  2
*Model_Space
 70
     0
 10
0.0
 20
0.0
 30
0.0
  3
*Model_Space
  1
*Model_Space
  0
ENDBLK
  5
21
330
1F
100
AcDbEntity
  8
0
100
AcDbBlockEnd
  0
BLOCK
  5
1C
330
1B
100
AcDbEntity
 67
     1
  8
0
100
AcDbBlockBegin
  2
*Paper_Space
 70
     0
 10
0.0
 20
0.0
 30
0.0
  3
*Paper_Space
  1
*Paper_Space
  0
ENDBLK
  5
1D
330
1B
100
AcDbEntity
 67
     1
  8
0
100
AcDbBlockEnd
  0
BLOCK
  5
24
330
23
100
AcDbEntity
  8
0
100
AcDbBlockBegin
  2
*Paper_Space0
 70
     0
 10
0.0
 20
0.0
 30
0.0
  3
*Paper_Space0
  1
*Paper_Space0
  0
ENDBLK
  5
25
330
23
100
AcDbEntity
  8
0
100
AcDbBlockEnd
  0
BLOCK
  5
80
330
7F
100
AcDbEntity
  8
0
100
AcDbBlockBegin
  2
블럭10
 70
     2
 10
0.0
 20
0.0
 30
0.0
  3
블럭10
  1
블럭10
  0
ELLIPSE
  5
82
330
7F
100
AcDbEntity
  8
중심선
100
AcDbEllipse
 10
20.54032771741204
 20
12.0471743016438
 30
0.0
 11
6.600054785286829
 21
-1.261213355974178E-13
 31
0.0
210
0.0
220
0.0
230
1.0
 40
0.636358354079598
 41
0.9219305317359503
 42
6.513795318482858
  0
ELLIPSE
  5
83
330
7F
100
AcDbEntity
  8
중심선
100
AcDbEllipse
 10
20.54032771746488
 20
12.04717430159265
 30
0.0
 11
3.960054785062283
 21
1.540847449632565E-10
 31
0.0
210
0.0
220
0.0
230
1.0
 40
0.3939339440162632
 41
1.131841032648279
 42
5.62031148352944
  0
LINE
  5
84
330
7F
100
AcDbEntity
  8
중심선
100
AcDbLine
 10
2.268634060543552
 20
16.24717430164393
 30
0.0
 11
5.714909304380834
 21
16.24717430164393
 31
0.0
  0
LINE
  5
85
330
7F
100
AcDbEntity
  8
중심선
100
AcDbLine
 10
5.245725140726316
 20
7.84717430164391
 30
0.0
 11
8.692000384563599
 21
7.84717430164391
 31
0.0
  0
LINE
  5
86
330
7F
100
AcDbEntity
  8
중심선
100
AcDbLine
 10
15.74043728645272
 20
16.24717430164393
 30
0.0
 11
8.692000384563599
 21
7.84717430164391
 31
0.0
  0
LINE
  5
87
330
7F
100
AcDbEntity
  8
중심선
100
AcDbLine
 10
0.1404042013395286
 20
13.71084872107135
 30
0.0
 11
3.58671253028996
 21
13.71088815037384
 31
0.0
  0
LINE
  5
88
330
7F
100
AcDbEntity
  8
중심선
100
AcDbLine
 10
2.750260043222114
 20
10.84717430164391
 30
0.0
 11
6.196535287059397
 21
10.84717430164391
 31
0.0
  0
LINE
  5
89
330
7F
100
AcDbEntity
  8
중심선
100
AcDbLine
 10
12.29416204261559
 20
16.24717430164393
 30
0.0
 11
5.245725140726316
 21
7.84717430164391
 31
0.0
  0
LINE
  5
8A
330
7F
100
AcDbEntity
  8
중심선
100
AcDbLine
 10
10.72767329541681
 20
16.24717430164393
 30
0.0
 11
6.196535287059397
 21
10.84717430164391
 31
0.0
  0
LINE
  5
8B
330
7F
100
AcDbEntity
  8
중심선
100
AcDbLine
 10
7.28139805157953
 20
16.24717430164393
 30
0.0
 11
2.750260043222114
 21
10.84717430164391
 31
0.0
  0
LINE
  5
8C
330
7F
100
AcDbEntity
  8
중심선
100
AcDbLine
 10
5.714909304380834
 20
16.24717430164393
 30
0.0
 11
3.58671253028996
 21
13.71088815037384
 31
0.0
  0
LINE
  5
8D
330
7F
100
AcDbEntity
  8
중심선
100
AcDbLine
 10
2.268634060543552
 20
16.24717430164393
 30
0.0
 11
0.1404042013395286
 21
13.71084872107135
 31
0.0
  0
LINE
  5
8E
330
7F
100
AcDbEntity
  8
중심선
100
AcDbLine
 10
7.28139805157953
 20
16.24717430164393
 30
0.0
 11
10.72767329541681
 21
16.24717430164393
 31
0.0
  0
LINE
  5
8F
330
7F
100
AcDbEntity
  8
중심선
100
AcDbLine
 10
12.29416204261559
 20
16.24717430164393
 30
0.0
 11
15.74043728645272
 21
16.24717430164393
 31
0.0
  0
LINE
  5
90
330
7F
100
AcDbEntity
  8
중심선
100
AcDbLine
 10
19.22036997980202
 20
11.08717430171403
 30
0.0
 11
23.66174974927406
 21
11.08717430171406
 31
0.0
  0
LINE
  5
91
330
7F
100
AcDbEntity
  8
중심선
100
AcDbLine
 10
19.22039502424796
 20
13.00717430171391
 30
0.0
 11
19.22036997980202
 21
11.08717430171403
 31
0.0
  0
LINE
  5
92
330
7F
100
AcDbEntity
  8
중심선
100
AcDbLine
 10
19.22039502424796
 20
13.00717430171391
 30
0.0
 11
26.96566020931264
 21
13.00717430171391
 31
0.0
  0
LINE
  5
93
330
7F
100
AcDbEntity
  8
중심선
100
AcDbLine
 10
22.22332737316547
 20
13.45928029700563
 30
0.0
 11
24.52862924686651
 21
15.39360700705356
 31
0.0
  0
ATTDEF
  5
95
330
7F
100
AcDbEntity
  8
FORMAT
 62
     2
100
AcDbText
 10
4.408487351596664
 20
2.075366912832191
 30
0.0
 40
4.233333333333333
  1
E2020020
 41
0.75
  7
SLDTEXTSTYLE0
 11
4.408487351596664
 21
-0.0412997538344756
 31
0.0
100
AcDbAttributeDefinition
  3

  2
AUTOATTR0
 70
     0
 74
     1
  0
ENDBLK
  5
81
330
7F
100
AcDbEntity
  8
0
100
AcDbBlockEnd
  0
BLOCK
  5
CB
330
CA
100
AcDbEntity
  8
0
100
AcDbBlockBegin
  2
_D
 70
     0
 10
0.0
 20
0.0
 30
0.0
  3
_D
  1
_D
  0
LINE
  5
CD
330
CA
100
AcDbEntity
  8
치수문자_일반주서
 62
     0
370
    -2
100
AcDbLine
 10
25.01231532850781
 20
4.032324928723898
 30
0.0
 11
25.01231532850782
 21
15.0839919811562
 31
0.0
  0
LINE
  5
CE
330
CA
100
AcDbEntity
  8
치수문자_일반주서
 62
     0
370
    -2
100
AcDbLine
 10
5.962315328507798
 20
4.01773021385194
 30
0.0
 11
5.962315328507799
 21
15.0839919811562
 31
0.0
  0
LINE
  5
CF
330
CA
100
AcDbEntity
  8
치수문자_일반주서
 62
     0
370
    -2
100
AcDbLine
 10
5.962315328507799
 20
15.0839919811562
 30
0.0
 11
-22.2771846714922
 21
15.0839919811562
 31
0.0
  0
LINE
  5
D0
330
CA
100
AcDbEntity
  8
치수문자_일반주서
 62
     0
370
    -2
100
AcDbLine
 10
21.71031532850782
 20
15.0839919811562
 30
0.0
 11
9.264315328507799
 21
15.0839919811562
 31
0.0
  0
SOLID
  5
D1
330
CA
100
AcDbEntity
  8
치수문자_일반주서
 62
     0
100
AcDbTrace
 10
21.71031532850782
 20
14.53365864782287
 30
0.0
 11
21.71031532850782
 21
15.63432531448954
 31
0.0
 12
25.01231532850782
 22
15.0839919811562
 32
0.0
 13
25.01231532850782
 23
15.0839919811562
 33
0.0
  0
SOLID
  5
D2
330
CA
100
AcDbEntity
  8
치수문자_일반주서
 62
     0
100
AcDbTrace
 10
9.264315328507799
 20
15.63432531448954
 30
0.0
 11
9.264315328507799
 21
14.53365864782287
 31
0.0
 12
5.962315328507799
 22
15.0839919811562
 32
0.0
 13
5.962315328507799
 23
15.0839919811562
 33
0.0
  0
MTEXT
  5
D3
330
CA
100
AcDbEntity
  8
치수문자_일반주서
 62
     0
100
AcDbMText
 10
-9.8084346714922
 20
19.4589919811562
 30
0.0
 40
3.5
 41
0.0
 71
     2
 72
     1
  1
\A1;19.05 [3/4]
  7
SLDTEXTSTYLE0
 73
     1
 44
1.0
  0
POINT
  5
D4
330
CA
100
AcDbEntity
  8
Defpoints
 62
     0
100
AcDbPoint
 10
25.01231532850781
 20
3.969824928723898
 30
0.0
  0
POINT
  5
D5
330
CA
100
AcDbEntity
  8
Defpoints
 62
     0
100
AcDbPoint
 10
5.962315328507798
 20
3.95523021385194
 30
0.0
  0
POINT
  5
D6
330
CA
100
AcDbEntity
  8
Defpoints
 62
     0
100
AcDbPoint
 10
5.962315328507798
 20
15.0839919811562
 30
0.0
  0
ENDBLK
  5
CC
330
CA
100
AcDbEntity
  8
0
100
AcDbBlockEnd
  0
BLOCK
  5
E0
330
DF
100
AcDbEntity
  8
0
100
AcDbBlockBegin
  2
_D_1
 70
     0
 10
0.0
 20
0.0
 30
0.0
  3
_D_1
  1
_D_1
  0
LINE
  5
E2
330
DF
100
AcDbEntity
  8
치수문자_일반주서
 62
     0
370
    -2
100
AcDbLine
 10
25.01231532850781
 20
4.032324928723898
 30
0.0
 11
25.01231532850782
 21
31.6102217220047
 31
0.0
  0
LINE
  5
E3
330
DF
100
AcDbEntity
  8
치수문자_일반주서
 62
     0
370
    -2
100
AcDbLine
 10
-38.4876846714922
 20
3.873574928723901
 30
0.0
 11
-38.4876846714922
 21
31.6102217220047
 31
0.0
  0
LINE
  5
E4
330
DF
100
AcDbEntity
  8
치수문자_일반주서
 62
     0
370
    -2
100
AcDbLine
 10
21.71031532850782
 20
31.6102217220047
 30
0.0
 11
-35.1856846714922
 21
31.6102217220047
 31
0.0
  0
SOLID
  5
E5
330
DF
100
AcDbEntity
  8
치수문자_일반주서
 62
     0
100
AcDbTrace
 10
21.71031532850782
 20
31.05988838867136
 30
0.0
 11
21.71031532850782
 21
32.16055505533803
 31
0.0
 12
25.01231532850782
 22
31.6102217220047
 32
0.0
 13
25.01231532850782
 23
31.6102217220047
 33
0.0
  0
SOLID
  5
E6
330
DF
100
AcDbEntity
  8
치수문자_일반주서
 62
     0
100
AcDbTrace
 10
-35.1856846714922
 20
32.16055505533803
 30
0.0
 11
-35.1856846714922
 21
31.05988838867136
 31
0.0
 12
-38.4876846714922
 22
31.6102217220047
 32
0.0
 13
-38.4876846714922
 23
31.6102217220047
 33
0.0
  0
MTEXT
  5
E7
330
DF
100
AcDbEntity
  8
치수문자_일반주서
 62
     0
100
AcDbMText
 10
-6.737684671492191
 20
35.9852217220047
 30
0.0
 40
3.5
 41
0.0
 71
     2
 72
     1
  1
\A1;63.50 [2 1/2]
  7
SLDTEXTSTYLE0
 73
     1
 44
1.0
  0
POINT
  5
E8
330
DF
100
AcDbEntity
  8
Defpoints
 62
     0
100
AcDbPoint
 10
25.01231532850781
 20
3.969824928723898
 30
0.0
  0
POINT
  5
E9
330
DF
100
AcDbEntity
  8
Defpoints
 62
     0
100
AcDbPoint
 10
-38.4876846714922
 20
3.811074928723901
 30
0.0
  0
POINT
  5
EA
330
DF
100
AcDbEntity
  8
Defpoints
 62
     0
100
AcDbPoint
 10
-38.4876846714922
 20
31.6102217220047
 30
0.0
  0
ENDBLK
  5
E1
330
DF
100
AcDbEntity
  8
0
100
AcDbBlockEnd
  0
BLOCK
  5
F4
330
F3
100
AcDbEntity
  8
0
100
AcDbBlockBegin
  2
_D_2
 70
     0
 10
0.0
 20
0.0
 30
0.0
  3
_D_2
  1
_D_2
  0
LINE
  5
F6
330
F3
100
AcDbEntity
  8
치수문자_일반주서
 62
     0
370
    -2
100
AcDbLine
 10
-37.59768467149218
 20
4.763574928723896
 30
0.0
 11
-51.4876846714922
 21
4.763574928723846
 31
0.0
  0
LINE
  5
F7
330
F3
100
AcDbEntity
  8
치수문자_일반주서
 62
     0
370
    -2
100
AcDbLine
 10
-37.59768467149218
 20
-4.761425071276109
 30
0.0
 11
-51.48768467149217
 21
-4.76142507127616
 31
0.0
  0
LINE
  5
F8
330
F3
100
AcDbEntity
  8
치수문자_일반주서
 62
     0
370
    -2
100
AcDbLine
 10
-51.48768467149219
 20
1.461574928723846
 30
0.0
 11
-51.48768467149218
 21
-1.459425071276161
 31
0.0
  0
SOLID
  5
F9
330
F3
100
AcDbEntity
  8
치수문자_일반주서
 62
     0
100
AcDbTrace
 10
-50.93735133815886
 20
1.461574928723848
 30
0.0
 11
-52.03801800482552
 21
1.461574928723844
 31
0.0
 12
-51.4876846714922
 22
4.763574928723846
 32
0.0
 13
-51.4876846714922
 23
4.763574928723846
 33
0.0
  0
SOLID
  5
FA
330
F3
100
AcDbEntity
  8
치수문자_일반주서
 62
     0
100
AcDbTrace
 10
-52.03801800482552
 20
-1.459425071276162
 30
0.0
 11
-50.93735133815885
 21
-1.459425071276159
 31
0.0
 12
-51.48768467149217
 22
-4.76142507127616
 32
0.0
 13
-51.48768467149217
 23
-4.76142507127616
 33
0.0
  0
MTEXT
  5
FB
330
F3
100
AcDbEntity
  8
치수문자_일반주서
 62
     0
100
AcDbMText
 10
-55.86268467149219
 20
0.0010749287238777
 30
0.0
 40
3.5
 41
0.0
 71
     2
 72
     1
  1
\A1;%%c9.53 [3/8]
  7
SLDTEXTSTYLE0
 11
-3.729883127349604E-15
 21
1.0
 31
0.0
 73
     1
 44
1.0
  0
POINT
  5
FC
330
F3
100
AcDbEntity
  8
Defpoints
 62
     0
100
AcDbPoint
 10
-37.53518467149218
 20
4.763574928723896
 30
0.0
  0
POINT
  5
FD
330
F3
100
AcDbEntity
  8
Defpoints
 62
     0
100
AcDbPoint
 10
-37.53518467149218
 20
-4.761425071276109
 30
0.0
  0
POINT
  5
FE
330
F3
100
AcDbEntity
  8
Defpoints
 62
     0
100
AcDbPoint
 10
-51.48768467149217
 20
-4.761425071276162
 30
0.0
  0
ENDBLK
  5
F5
330
F3
100
AcDbEntity
  8
0
100
AcDbBlockEnd
  0
BLOCK
  5
108
330
107
100
AcDbEntity
  8
0
100
AcDbBlockBegin
  2
_D_3
 70
     0
 10
0.0
 20
0.0
 30
0.0
  3
_D_3
  1
_D_3
  0
LINE
  5
10A
330
107
100
AcDbEntity
  8
치수문자_일반주서
 62
     0
370
    -2
100
AcDbLine
 10
25.07481532850781
 20
3.969824928723898
 30
0.0
 11
38.43384699262391
 21
3.969824928723948
 31
0.0
  0
LINE
  5
10B
330
107
100
AcDbEntity
  8
치수문자_일반주서
 62
     0
370
    -2
100
AcDbLine
 10
25.07481532850781
 20
-3.967675071276102
 30
0.0
 11
38.43384699262394
 21
-3.967675071276055
 31
0.0
  0
LINE
  5
10C
330
107
100
AcDbEntity
  8
치수문자_일반주서
 62
     0
370
    -2
100
AcDbLine
 10
38.43384699262391
 20
3.969824928723948
 30
0.0
 11
38.43384699262376
 21
46.42612998781699
 31
0.0
  0
LINE
  5
10D
330
107
100
AcDbEntity
  8
치수문자_일반주서
 62
     0
370
    -2
100
AcDbLine
 10
38.4338469926239
 20
7.271824928723948
 30
0.0
 11
38.43384699262388
 21
10.57382492872395
 31
0.0
  0
LINE
  5
10E
330
107
100
AcDbEntity
  8
치수문자_일반주서
 62
     0
370
    -2
100
AcDbLine
 10
38.43384699262396
 20
-7.269675071276055
 30
0.0
 11
38.43384699262397
 21
-10.57167507127605
 31
0.0
  0
SOLID
  5
10F
330
107
100
AcDbEntity
  8
치수문자_일반주서
 62
     0
100
AcDbTrace
 10
37.88351365929056
 20
7.271824928723946
 30
0.0
 11
38.98418032595723
 21
7.27182492872395
 31
0.0
 12
38.43384699262391
 22
3.969824928723948
 32
0.0
 13
38.43384699262391
 23
3.969824928723948
 33
0.0
  0
SOLID
  5
110
330
107
100
AcDbEntity
  8
치수문자_일반주서
 62
     0
100
AcDbTrace
 10
38.98418032595729
 20
-7.269675071276053
 30
0.0
 11
37.88351365929062
 21
-7.269675071276056
 31
0.0
 12
38.43384699262394
 22
-3.967675071276055
 32
0.0
 13
38.43384699262394
 23
-3.967675071276055
 33
0.0
  0
MTEXT
  5
111
330
107
100
AcDbEntity
  8
치수문자_일반주서
 62
     0
100
AcDbMText
 10
34.05884699262381
 20
32.42612998781697
 30
0.0
 40
3.5
 41
0.0
 71
     2
 72
     1
  1
\A1;%%c7.94 [5/16]
  7
SLDTEXTSTYLE0
 11
-3.580687802255623E-15
 21
1.0
 31
0.0
 73
     1
 44
1.0
  0
POINT
  5
112
330
107
100
AcDbEntity
  8
Defpoints
 62
     0
100
AcDbPoint
 10
25.01231532850781
 20
3.969824928723898
 30
0.0
  0
POINT
  5
113
330
107
100
AcDbEntity
  8
Defpoints
 62
     0
100
AcDbPoint
 10
25.01231532850781
 20
-3.967675071276102
 30
0.0
  0
POINT
  5
114
330
107
100
AcDbEntity
  8
Defpoints
 62
     0
100
AcDbPoint
 10
38.43384699262394
 20
-3.967675071276052
 30
0.0
  0
ENDBLK
  5
109
330
107
100
AcDbEntity
  8
0
100
AcDbBlockEnd
  0
BLOCK
  5
121
330
120
100
AcDbEntity
  8
0
100
AcDbBlockBegin
  2
SW_DOWELSYMBOL_0
 70
     0
 10
0.0
 20
0.0
 30
0.0
  3
SW_DOWELSYMBOL_0
  1
SW_DOWELSYMBOL_0
  0
CIRCLE
  5
123
330
120
100
AcDbEntity
  8
해칭선
 62
     0
100
AcDbCircle
 10
0.0
 20
0.0
 30
0.0
 40
3.000000000000001
  0
HATCH
  5
124
330
120
100
AcDbEntity
  8
0
  6
Continuous
 62
     0
370
     0
100
AcDbHatch
 10
0.0
 20
0.0
 30
0.0
210
0.0
220
0.0
230
1.0
  2
SOLID
 70
     1
 71
     0
 91
        1
 92
        0
 93
        3
 72
     2
 10
0.0
 20
0.0
 40
3.000000000000001
 50
0.0
 51
90.0
 73
     1
 72
     1
 10
0.0
 20
3.000000000000001
 11
0.0
 21
0.0
 72
     1
 10
0.0
 20
0.0
 11
3.000000000000001
 21
0.0
 97
        0
 75
     0
 76
     1
 98
        1
 10
0.0
 20
0.0
  0
HATCH
  5
125
330
120
100
AcDbEntity
  8
0
  6
Continuous
 62
     0
370
     0
100
AcDbHatch
 10
0.0
 20
0.0
 30
0.0
210
0.0
220
0.0
230
1.0
  2
SOLID
 70
     1
 71
     0
 91
        1
 92
        0
 93
        3
 72
     2
 10
0.0
 20
0.0
 40
3.000000000000001
 50
180.0
 51
270.0000000000008
 73
     1
 72
     1
 10
0.0
 20
-3.000000000000001
 11
0.0
 21
0.0
 72
     1
 10
0.0
 20
0.0
 11
-3.000000000000001
 21
0.0
 97
        0
 75
     0
 76
     1
 98
        1
 10
0.0
 20
0.0
  0
ENDBLK
  5
122
330
120
100
AcDbEntity
  8
0
100
AcDbBlockEnd
  0
BLOCK
  5
314
330
313
100
AcDbEntity
  8
0
100
AcDbBlockBegin
  2
*D8
 70
     1
 10
0.0
 20
0.0
 30
0.0
  3
*D8
  1
*D8
  0
LINE
  5
316
330
313
100
AcDbEntity
  8
치수문자_일반주서
 62
     0
370
    -2
100
AcDbLine
 10
79.28750000000002
 20
15.48750000000001
 30
0.0
 11
79.28750000000002
 21
27.01250000000002
 31
0.0
  0
LINE
  5
317
330
313
100
AcDbEntity
  8
치수문자_일반주서
 62
     0
370
    -2
100
AcDbLine
 10
63.41250000000005
 20
15.47582422810243
 30
0.0
 11
63.41250000000005
 21
27.01250000000002
 31
0.0
  0
LINE
  5
318
330
313
100
AcDbEntity
  8
치수문자_일반주서
 62
     0
370
    -2
100
AcDbLine
 10
79.28750000000002
 20
27.01250000000002
 30
0.0
 11
111.2665
 21
27.01250000000002
 31
0.0
  0
LINE
  5
319
330
313
100
AcDbEntity
  8
치수문자_일반주서
 62
     0
370
    -2
100
AcDbLine
 10
75.98550000000003
 20
27.01250000000002
 30
0.0
 11
66.71450000000004
 21
27.01250000000002
 31
0.0
  0
SOLID
  5
31A
330
313
100
AcDbEntity
  8
치수문자_일반주서
 62
     0
100
AcDbTrace
 10
75.98550000000003
 20
26.46216666666669
 30
0.0
 11
75.98550000000003
 21
27.56283333333336
 31
0.0
 12
79.28750000000002
 22
27.01250000000002
 32
0.0
 13
79.28750000000002
 23
27.01250000000002
 33
0.0
  0
SOLID
  5
31B
330
313
100
AcDbEntity
  8
치수문자_일반주서
 62
     0
100
AcDbTrace
 10
66.71450000000004
 20
27.56283333333336
 30
0.0
 11
66.71450000000004
 21
26.46216666666669
 31
0.0
 12
63.41250000000005
 22
27.01250000000002
 32
0.0
 13
63.41250000000005
 23
27.01250000000002
 33
0.0
  0
MTEXT
  5
31C
330
313
100
AcDbEntity
  8
치수문자_일반주서
 62
     0
100
AcDbMText
 10
98.57900000000004
 20
31.38750000000002
 30
0.0
 40
3.5
 41
0.0
 71
     2
 72
     1
  1
\A1;15.88 [5/8]
  7
SLDTEXTSTYLE0
 73
     1
 44
1.0
  0
POINT
  5
31D
330
313
100
AcDbEntity
  8
Defpoints
 62
     0
100
AcDbPoint
 10
79.28750000000002
 20
15.42500000000001
 30
0.0
  0
POINT
  5
31E
330
313
100
AcDbEntity
  8
Defpoints
 62
     0
100
AcDbPoint
 10
63.41250000000005
 20
15.41332422810243
 30
0.0
  0
POINT
  5
31F
330
313
100
AcDbEntity
  8
Defpoints
 62
     0
100
AcDbPoint
 10
63.41250000000005
 20
27.01250000000002
 30
0.0
  0
ENDBLK
  5
315
330
313
100
AcDbEntity
  8
0
100
AcDbBlockEnd
  0
BLOCK
  5
321
330
320
100
AcDbEntity
  8
0
100
AcDbBlockBegin
  2
*D9
 70
     1
 10
0.0
 20
0.0
 30
0.0
  3
*D9
  1
*D9
  0
LINE
  5
323
330
320
100
AcDbEntity
  8
치수문자_일반주서
 62
     0
370
    -2
100
AcDbLine
 10
79.28750000000002
 20
15.48750000000001
 30
0.0
 11
79.28750000000002
 21
43.85914679328081
 31
0.0
  0
LINE
  5
324
330
320
100
AcDbEntity
  8
치수문자_일반주서
 62
     0
370
    -2
100
AcDbLine
 10
17.37500000000004
 20
16.12250000000002
 30
0.0
 11
17.37500000000004
 21
43.85914679328081
 31
0.0
  0
LINE
  5
325
330
320
100
AcDbEntity
  8
치수문자_일반주서
 62
     0
370
    -2
100
AcDbLine
 10
75.98550000000003
 20
43.85914679328081
 30
0.0
 11
20.67700000000004
 21
43.85914679328081
 31
0.0
  0
SOLID
  5
326
330
320
100
AcDbEntity
  8
치수문자_일반주서
 62
     0
100
AcDbTrace
 10
75.98550000000003
 20
43.30881345994748
 30
0.0
 11
75.98550000000003
 21
44.40948012661415
 31
0.0
 12
79.28750000000002
 22
43.85914679328081
 32
0.0
 13
79.28750000000002
 23
43.85914679328081
 33
0.0
  0
SOLID
  5
327
330
320
100
AcDbEntity
  8
치수문자_일반주서
 62
     0
100
AcDbTrace
 10
20.67700000000004
 20
44.40948012661415
 30
0.0
 11
20.67700000000004
 21
43.30881345994748
 31
0.0
 12
17.37500000000004
 22
43.85914679328081
 32
0.0
 13
17.37500000000004
 23
43.85914679328081
 33
0.0
  0
MTEXT
  5
328
330
320
100
AcDbEntity
  8
치수문자_일반주서
 62
     0
100
AcDbMText
 10
48.33125000000004
 20
48.23414679328081
 30
0.0
 40
3.5
 41
0.0
 71
     2
 72
     1
  1
\A1;61.91 [2 7/16]
  7
SLDTEXTSTYLE0
 73
     1
 44
1.0
  0
POINT
  5
329
330
320
100
AcDbEntity
  8
Defpoints
 62
     0
100
AcDbPoint
 10
79.28750000000002
 20
15.42500000000001
 30
0.0
  0
POINT
  5
32A
330
320
100
AcDbEntity
  8
Defpoints
 62
     0
100
AcDbPoint
 10
17.37500000000004
 20
16.06000000000002
 30
0.0
  0
POINT
  5
32B
330
320
100
AcDbEntity
  8
Defpoints
 62
     0
100
AcDbPoint
 10
17.37500000000004
 20
43.85914679328081
 30
0.0
  0
ENDBLK
  5
322
330
320
100
AcDbEntity
  8
0
100
AcDbBlockEnd
  0
BLOCK
  5
32D
330
32C
100
AcDbEntity
  8
0
100
AcDbBlockBegin
  2
*D10
 70
     1
 10
0.0
 20
0.0
 30
0.0
  3
*D10
  1
*D10
  0
LINE
  5
32F
330
32C
100
AcDbEntity
  8
치수문자_일반주서
 62
     0
370
    -2
100
AcDbLine
 10
18.26500000000006
 20
17.01250000000001
 30
0.0
 11
4.375000000000034
 21
17.01249999999996
 31
0.0
  0
LINE
  5
330
330
32C
100
AcDbEntity
  8
치수문자_일반주서
 62
     0
370
    -2
100
AcDbLine
 10
18.26500000000006
 20
7.487500000000008
 30
0.0
 11
4.375000000000067
 21
7.487499999999958
 31
0.0
  0
LINE
  5
331
330
32C
100
AcDbEntity
  8
치수문자_일반주서
 62
     0
370
    -2
100
AcDbLine
 10
4.375000000000045
 20
13.71049999999996
 30
0.0
 11
4.375000000000055
 21
10.78949999999996
 31
0.0
  0
SOLID
  5
332
330
32C
100
AcDbEntity
  8
치수문자_일반주서
 62
     0
100
AcDbTrace
 10
4.925333333333379
 20
13.71049999999997
 30
0.0
 11
3.824666666666712
 21
13.71049999999996
 31
0.0
 12
4.375000000000034
 22
17.01249999999996
 32
0.0
 13
4.375000000000034
 23
17.01249999999996
 33
0.0
  0
SOLID
  5
333
330
32C
100
AcDbEntity
  8
치수문자_일반주서
 62
     0
100
AcDbTrace
 10
3.824666666666722
 20
10.78949999999996
 30
0.0
 11
4.925333333333389
 21
10.78949999999996
 31
0.0
 12
4.375000000000067
 22
7.487499999999958
 32
0.0
 13
4.375000000000067
 23
7.487499999999958
 33
0.0
  0
MTEXT
  5
334
330
32C
100
AcDbEntity
  8
치수문자_일반주서
 62
     0
100
AcDbMText
 10
0.0000000000000497
 20
12.25
 30
0.0
 40
3.5
 41
0.0
 71
     2
 72
     1
  1
\A1;%%c9.53 [3/8]
  7
SLDTEXTSTYLE0
 11
-3.450141892798383E-15
 21
1.0
 31
0.0
 73
     1
 44
1.0
  0
POINT
  5
335
330
32C
100
AcDbEntity
  8
Defpoints
 62
     0
100
AcDbPoint
 10
18.32750000000006
 20
17.01250000000001
 30
0.0
  0
POINT
  5
336
330
32C
100
AcDbEntity
  8
Defpoints
 62
     0
100
AcDbPoint
 10
18.32750000000006
 20
7.487500000000008
 30
0.0
  0
POINT
  5
337
330
32C
100
AcDbEntity
  8
Defpoints
 62
     0
100
AcDbPoint
 10
4.375000000000071
 20
7.487499999999955
 30
0.0
  0
ENDBLK
  5
32E
330
32C
100
AcDbEntity
  8
0
100
AcDbBlockEnd
  0
BLOCK
  5
339
330
338
100
AcDbEntity
  8
0
100
AcDbBlockBegin
  2
*D11
 70
     1
 10
0.0
 20
0.0
 30
0.0
  3
*D11
  1
*D11
  0
LINE
  5
33B
330
338
100
AcDbEntity
  8
치수문자_일반주서
 62
     0
370
    -2
100
AcDbLine
 10
79.35000000000002
 20
15.42500000000001
 30
0.0
 11
118.4614191006245
 21
15.42500000000016
 31
0.0
  0
LINE
  5
33C
330
338
100
AcDbEntity
  8
치수문자_일반주서
 62
     0
370
    -2
100
AcDbLine
 10
79.35000000000005
 20
9.075000000000015
 30
0.0
 11
118.4614191006246
 21
9.07500000000016
 31
0.0
  0
LINE
  5
33D
330
338
100
AcDbEntity
  8
치수문자_일반주서
 62
     0
370
    -2
100
AcDbLine
 10
118.4614191006245
 20
15.42500000000016
 30
0.0
 11
118.4614191006244
 21
54.46249999999991
 31
0.0
  0
LINE
  5
33E
330
338
100
AcDbEntity
  8
치수문자_일반주서
 62
     0
370
    -2
100
AcDbLine
 10
118.4614191006245
 20
18.72700000000016
 30
0.0
 11
118.4614191006245
 21
22.02900000000016
 31
0.0
  0
LINE
  5
33F
330
338
100
AcDbEntity
  8
치수문자_일반주서
 62
     0
370
    -2
100
AcDbLine
 10
118.4614191006246
 20
5.77300000000016
 30
0.0
 11
118.4614191006246
 21
2.47100000000016
 31
0.0
  0
SOLID
  5
340
330
338
100
AcDbEntity
  8
치수문자_일반주서
 62
     0
100
AcDbTrace
 10
117.9110857672912
 20
18.72700000000016
 30
0.0
 11
119.0117524339579
 21
18.72700000000016
 31
0.0
 12
118.4614191006245
 22
15.42500000000016
 32
0.0
 13
118.4614191006245
 23
15.42500000000016
 33
0.0
  0
SOLID
  5
341
330
338
100
AcDbEntity
  8
치수문자_일반주서
 62
     0
100
AcDbTrace
 10
119.0117524339579
 20
5.773000000000162
 30
0.0
 11
117.9110857672913
 21
5.773000000000157
 31
0.0
 12
118.4614191006246
 22
9.07500000000016
 32
0.0
 13
118.4614191006246
 23
9.07500000000016
 33
0.0
  0
MTEXT
  5
342
330
338
100
AcDbEntity
  8
치수문자_일반주서
 62
     0
100
AcDbMText
 10
114.0864191006244
 20
41.77499999999988
 30
0.0
 40
3.5
 41
0.0
 71
     2
 72
     1
  1
\A1;%%c6.35 [1/4]
  7
SLDTEXTSTYLE0
 11
-4.475859752819529E-15
 21
1.0
 31
0.0
 73
     1
 44
1.0
  0
POINT
  5
343
330
338
100
AcDbEntity
  8
Defpoints
 62
     0
100
AcDbPoint
 10
79.28750000000002
 20
15.42500000000001
 30
0.0
  0
POINT
  5
344
330
338
100
AcDbEntity
  8
Defpoints
 62
     0
100
AcDbPoint
 10
79.28750000000005
 20
9.075000000000015
 30
0.0
  0
POINT
  5
345
330
338
100
AcDbEntity
  8
Defpoints
 62
     0
100
AcDbPoint
 10
118.4614191006245
 20
9.075000000000161
 30
0.0
  0
ENDBLK
  5
33A
330
338
100
AcDbEntity
  8
0
100
AcDbBlockEnd
  0
BLOCK
  5
379
330
378
100
AcDbEntity
  8
0
100
AcDbBlockBegin
  2
*D12
 70
     1
 10
0.0
 20
0.0
 30
0.0
  3
*D12
  1
*D12
  0
LINE
  5
37B
330
378
100
AcDbEntity
  8
치수문자_일반주서
 62
     0
370
    -2
100
AcDbLine
 10
135.9688928171536
 20
-37.77743128570859
 30
0.0
 11
135.9688928171536
 21
-26.25243128570857
 31
0.0
  0
LINE
  5
37C
330
378
100
AcDbEntity
  8
치수문자_일반주서
 62
     0
370
    -2
100
AcDbLine
 10
120.0938928171536
 20
-37.78910705760617
 30
0.0
 11
120.0938928171536
 21
-26.25243128570857
 31
0.0
  0
LINE
  5
37D
330
378
100
AcDbEntity
  8
치수문자_일반주서
 62
     0
370
    -2
100
AcDbLine
 10
135.9688928171536
 20
-26.25243128570857
 30
0.0
 11
167.9478928171536
 21
-26.25243128570857
 31
0.0
  0
LINE
  5
37E
330
378
100
AcDbEntity
  8
치수문자_일반주서
 62
     0
370
    -2
100
AcDbLine
 10
132.6668928171536
 20
-26.25243128570857
 30
0.0
 11
123.3958928171536
 21
-26.25243128570857
 31
0.0
  0
SOLID
  5
37F
330
378
100
AcDbEntity
  8
치수문자_일반주서
 62
     0
100
AcDbTrace
 10
132.6668928171536
 20
-26.80276461904191
 30
0.0
 11
132.6668928171536
 21
-25.70209795237524
 31
0.0
 12
135.9688928171536
 22
-26.25243128570857
 32
0.0
 13
135.9688928171536
 23
-26.25243128570857
 33
0.0
  0
SOLID
  5
380
330
378
100
AcDbEntity
  8
치수문자_일반주서
 62
     0
100
AcDbTrace
 10
123.3958928171536
 20
-25.70209795237524
 30
0.0
 11
123.3958928171536
 21
-26.80276461904191
 31
0.0
 12
120.0938928171536
 22
-26.25243128570857
 32
0.0
 13
120.0938928171536
 23
-26.25243128570857
 33
0.0
  0
MTEXT
  5
381
330
378
100
AcDbEntity
  8
치수문자_일반주서
 62
     0
100
AcDbMText
 10
155.2603928171536
 20
-21.87743128570857
 30
0.0
 40
3.5
 41
0.0
 71
     2
 72
     1
  1
\A1;15.88 [5/8]
  7
SLDTEXTSTYLE0
 73
     1
 44
1.0
  0
POINT
  5
382
330
378
100
AcDbEntity
  8
Defpoints
 62
     0
100
AcDbPoint
 10
135.9688928171536
 20
-37.83993128570859
 30
0.0
  0
POINT
  5
383
330
378
100
AcDbEntity
  8
Defpoints
 62
     0
100
AcDbPoint
 10
120.0938928171536
 20
-37.85160705760617
 30
0.0
  0
POINT
  5
384
330
378
100
AcDbEntity
  8
Defpoints
 62
     0
100
AcDbPoint
 10
120.0938928171536
 20
-26.25243128570857
 30
0.0
  0
ENDBLK
  5
37A
330
378
100
AcDbEntity
  8
0
100
AcDbBlockEnd
  0
BLOCK
  5
386
330
385
100
AcDbEntity
  8
0
100
AcDbBlockBegin
  2
*D13
 70
     1
 10
0.0
 20
0.0
 30
0.0
  3
*D13
  1
*D13
  0
LINE
  5
388
330
385
100
AcDbEntity
  8
치수문자_일반주서
 62
     0
370
    -2
100
AcDbLine
 10
135.9688928171536
 20
-37.77743128570859
 30
0.0
 11
135.9688928171536
 21
-9.405784492427784
 31
0.0
  0
LINE
  5
389
330
385
100
AcDbEntity
  8
치수문자_일반주서
 62
     0
370
    -2
100
AcDbLine
 10
74.05639281715361
 20
-37.14243128570858
 30
0.0
 11
74.05639281715361
 21
-9.405784492427784
 31
0.0
  0
LINE
  5
38A
330
385
100
AcDbEntity
  8
치수문자_일반주서
 62
     0
370
    -2
100
AcDbLine
 10
132.6668928171536
 20
-9.405784492427784
 30
0.0
 11
77.3583928171536
 21
-9.405784492427784
 31
0.0
  0
SOLID
  5
38B
330
385
100
AcDbEntity
  8
치수문자_일반주서
 62
     0
100
AcDbTrace
 10
132.6668928171536
 20
-9.956117825761117
 30
0.0
 11
132.6668928171536
 21
-8.855451159094452
 31
0.0
 12
135.9688928171536
 22
-9.405784492427784
 32
0.0
 13
135.9688928171536
 23
-9.405784492427784
 33
0.0
  0
SOLID
  5
38C
330
385
100
AcDbEntity
  8
치수문자_일반주서
 62
     0
100
AcDbTrace
 10
77.3583928171536
 20
-8.855451159094452
 30
0.0
 11
77.3583928171536
 21
-9.956117825761117
 31
0.0
 12
74.05639281715361
 22
-9.405784492427784
 32
0.0
 13
74.05639281715361
 23
-9.405784492427784
 33
0.0
  0
MTEXT
  5
38D
330
385
100
AcDbEntity
  8
치수문자_일반주서
 62
     0
100
AcDbMText
 10
105.0126428171536
 20
-5.030784492427784
 30
0.0
 40
3.5
 41
0.0
 71
     2
 72
     1
  1
\A1;61.91 [2 7/16]
  7
SLDTEXTSTYLE0
 73
     1
 44
1.0
  0
POINT
  5
38E
330
385
100
AcDbEntity
  8
Defpoints
 62
     0
100
AcDbPoint
 10
135.9688928171536
 20
-37.83993128570859
 30
0.0
  0
POINT
  5
38F
330
385
100
AcDbEntity
  8
Defpoints
 62
     0
100
AcDbPoint
 10
74.05639281715361
 20
-37.20493128570858
 30
0.0
  0
POINT
  5
390
330
385
100
AcDbEntity
  8
Defpoints
 62
     0
100
AcDbPoint
 10
74.05639281715361
 20
-9.405784492427784
 30
0.0
  0
ENDBLK
  5
387
330
385
100
AcDbEntity
  8
0
100
AcDbBlockEnd
  0
BLOCK
  5
392
330
391
100
AcDbEntity
  8
0
100
AcDbBlockBegin
  2
*D14
 70
     1
 10
0.0
 20
0.0
 30
0.0
  3
*D14
  1
*D14
  0
LINE
  5
394
330
391
100
AcDbEntity
  8
치수문자_일반주서
 62
     0
370
    -2
100
AcDbLine
 10
74.94639281715362
 20
-36.25243128570858
 30
0.0
 11
61.0563928171536
 21
-36.25243128570863
 31
0.0
  0
LINE
  5
395
330
391
100
AcDbEntity
  8
치수문자_일반주서
 62
     0
370
    -2
100
AcDbLine
 10
74.94639281715362
 20
-45.77743128570859
 30
0.0
 11
61.05639281715364
 21
-45.77743128570864
 31
0.0
  0
LINE
  5
396
330
391
100
AcDbEntity
  8
치수문자_일반주서
 62
     0
370
    -2
100
AcDbLine
 10
61.05639281715361
 20
-39.55443128570863
 30
0.0
 11
61.05639281715362
 21
-42.47543128570864
 31
0.0
  0
SOLID
  5
397
330
391
100
AcDbEntity
  8
치수문자_일반주서
 62
     0
100
AcDbTrace
 10
61.60672615048695
 20
-39.55443128570863
 30
0.0
 11
60.50605948382028
 21
-39.55443128570863
 31
0.0
 12
61.0563928171536
 22
-36.25243128570863
 32
0.0
 13
61.0563928171536
 23
-36.25243128570863
 33
0.0
  0
SOLID
  5
398
330
391
100
AcDbEntity
  8
치수문자_일반주서
 62
     0
100
AcDbTrace
 10
60.50605948382029
 20
-42.47543128570864
 30
0.0
 11
61.60672615048696
 21
-42.47543128570864
 31
0.0
 12
61.05639281715364
 22
-45.77743128570864
 32
0.0
 13
61.05639281715364
 23
-45.77743128570864
 33
0.0
  0
MTEXT
  5
399
330
391
100
AcDbEntity
  8
치수문자_일반주서
 62
     0
100
AcDbMText
 10
56.68139281715361
 20
-41.0149312857086
 30
0.0
 40
3.5
 41
0.0
 71
     2
 72
     1
  1
\A1;%%c9.53 [3/8]
  7
SLDTEXTSTYLE0
 11
-3.729883127349605E-15
 21
1.0
 31
0.0
 73
     1
 44
1.0
  0
POINT
  5
39A
330
391
100
AcDbEntity
  8
Defpoints
 62
     0
100
AcDbPoint
 10
75.00889281715362
 20
-36.25243128570858
 30
0.0
  0
POINT
  5
39B
330
391
100
AcDbEntity
  8
Defpoints
 62
     0
100
AcDbPoint
 10
75.00889281715362
 20
-45.77743128570859
 30
0.0
  0
POINT
  5
39C
330
391
100
AcDbEntity
  8
Defpoints
 62
     0
100
AcDbPoint
 10
61.05639281715363
 20
-45.77743128570864
 30
0.0
  0
ENDBLK
  5
393
330
391
100
AcDbEntity
  8
0
100
AcDbBlockEnd
  0
BLOCK
  5
39E
330
39D
100
AcDbEntity
  8
0
100
AcDbBlockBegin
  2
*D15
 70
     1
 10
0.0
 20
0.0
 30
0.0
  3
*D15
  1
*D15
  0
LINE
  5
3A0
330
39D
100
AcDbEntity
  8
치수문자_일반주서
 62
     0
370
    -2
100
AcDbLine
 10
136.0313928171536
 20
-37.83993128570859
 30
0.0
 11
175.1428119177781
 21
-37.83993128570844
 31
0.0
  0
LINE
  5
3A1
330
39D
100
AcDbEntity
  8
치수문자_일반주서
 62
     0
370
    -2
100
AcDbLine
 10
136.0313928171536
 20
-44.18993128570858
 30
0.0
 11
175.1428119177781
 21
-44.18993128570843
 31
0.0
  0
LINE
  5
3A2
330
39D
100
AcDbEntity
  8
치수문자_일반주서
 62
     0
370
    -2
100
AcDbLine
 10
175.1428119177781
 20
-37.83993128570844
 30
0.0
 11
175.1428119177779
 21
1.197568714291307
 31
0.0
  0
LINE
  5
3A3
330
39D
100
AcDbEntity
  8
치수문자_일반주서
 62
     0
370
    -2
100
AcDbLine
 10
175.1428119177781
 20
-34.53793128570844
 30
0.0
 11
175.142811917778
 21
-31.23593128570844
 31
0.0
  0
LINE
  5
3A4
330
39D
100
AcDbEntity
  8
치수문자_일반주서
 62
     0
370
    -2
100
AcDbLine
 10
175.1428119177781
 20
-47.49193128570843
 30
0.0
 11
175.1428119177782
 21
-50.79393128570843
 31
0.0
  0
SOLID
  5
3A5
330
39D
100
AcDbEntity
  8
치수문자_일반주서
 62
     0
100
AcDbTrace
 10
174.5924785844447
 20
-34.53793128570844
 30
0.0
 11
175.6931452511114
 21
-34.53793128570844
 31
0.0
 12
175.1428119177781
 22
-37.83993128570844
 32
0.0
 13
175.1428119177781
 23
-37.83993128570844
 33
0.0
  0
SOLID
  5
3A6
330
39D
100
AcDbEntity
  8
치수문자_일반주서
 62
     0
100
AcDbTrace
 10
175.6931452511115
 20
-47.49193128570843
 30
0.0
 11
174.5924785844448
 21
-47.49193128570843
 31
0.0
 12
175.1428119177781
 22
-44.18993128570843
 32
0.0
 13
175.1428119177781
 23
-44.18993128570843
 33
0.0
  0
MTEXT
  5
3A7
330
39D
100
AcDbEntity
  8
치수문자_일반주서
 62
     0
100
AcDbMText
 10
170.767811917778
 20
-11.48993128570871
 30
0.0
 40
3.5
 41
0.0
 71
     2
 72
     1
  1
\A1;%%c6.35 [1/4]
  7
SLDTEXTSTYLE0
 11
-4.475859752819533E-15
 21
1.0
 31
0.0
 73
     1
 44
1.0
  0
POINT
  5
3A8
330
39D
100
AcDbEntity
  8
Defpoints
 62
     0
100
AcDbPoint
 10
135.9688928171536
 20
-37.83993128570859
 30
0.0
  0
POINT
  5
3A9
330
39D
100
AcDbEntity
  8
Defpoints
 62
     0
100
AcDbPoint
 10
135.9688928171536
 20
-44.18993128570858
 30
0.0
  0
POINT
  5
3AA
330
39D
100
AcDbEntity
  8
Defpoints
 62
     0
100
AcDbPoint
 10
175.1428119177781
 20
-44.18993128570843
 30
0.0
  0
ENDBLK
  5
39F
330
39D
100
AcDbEntity
  8
0
100
AcDbBlockEnd
  0
BLOCK
  5
444
330
443
100
AcDbEntity
  8
0
100
AcDbBlockBegin
  2
*D17
 70
     1
 10
0.0
 20
0.0
 30
0.0
  3
*D17
  1
*D17
  0
LINE
  5
446
330
443
100
AcDbEntity
  8
치수문자_일반주서
 62
     0
370
    -2
100
AcDbLine
 10
79.28750000000002
 20
15.48750000000001
 30
0.0
 11
79.28750000000002
 21
27.01250000000002
 31
0.0
  0
LINE
  5
447
330
443
100
AcDbEntity
  8
치수문자_일반주서
 62
     0
370
    -2
100
AcDbLine
 10
63.41250000000005
 20
15.47582422810243
 30
0.0
 11
63.41250000000005
 21
27.01250000000002
 31
0.0
  0
LINE
  5
448
330
443
100
AcDbEntity
  8
치수문자_일반주서
 62
     0
370
    -2
100
AcDbLine
 10
79.28750000000002
 20
27.01250000000002
 30
0.0
 11
111.2665
 21
27.01250000000002
 31
0.0
  0
LINE
  5
449
330
443
100
AcDbEntity
  8
치수문자_일반주서
 62
     0
370
    -2
100
AcDbLine
 10
75.98550000000003
 20
27.01250000000002
 30
0.0
 11
66.71450000000004
 21
27.01250000000002
 31
0.0
  0
SOLID
  5
44A
330
443
100
AcDbEntity
  8
치수문자_일반주서
 62
     0
100
AcDbTrace
 10
75.98550000000003
 20
26.46216666666669
 30
0.0
 11
75.98550000000003
 21
27.56283333333336
 31
0.0
 12
79.28750000000002
 22
27.01250000000002
 32
0.0
 13
79.28750000000002
 23
27.01250000000002
 33
0.0
  0
SOLID
  5
44B
330
443
100
AcDbEntity
  8
치수문자_일반주서
 62
     0
100
AcDbTrace
 10
66.71450000000004
 20
27.56283333333336
 30
0.0
 11
66.71450000000004
 21
26.46216666666669
 31
0.0
 12
63.41250000000005
 22
27.01250000000002
 32
0.0
 13
63.41250000000005
 23
27.01250000000002
 33
0.0
  0
MTEXT
  5
44C
330
443
100
AcDbEntity
  8
치수문자_일반주서
 62
     0
100
AcDbMText
 10
98.57900000000004
 20
31.38750000000002
 30
0.0
 40
3.5
 41
0.0
 71
     2
 72
     1
  1
\A1;15.88 [5/8]
  7
SLDTEXTSTYLE0
 73
     1
 44
1.0
  0
POINT
  5
44D
330
443
100
AcDbEntity
  8
Defpoints
 62
     0
100
AcDbPoint
 10
79.28750000000002
 20
15.42500000000001
 30
0.0
  0
POINT
  5
44E
330
443
100
AcDbEntity
  8
Defpoints
 62
     0
100
AcDbPoint
 10
63.41250000000005
 20
15.41332422810243
 30
0.0
  0
POINT
  5
44F
330
443
100
AcDbEntity
  8
Defpoints
 62
     0
100
AcDbPoint
 10
63.41250000000005
 20
27.01250000000002
 30
0.0
  0
ENDBLK
  5
445
330
443
100
AcDbEntity
  8
0
100
AcDbBlockEnd
  0
BLOCK
  5
451
330
450
100
AcDbEntity
  8
0
100
AcDbBlockBegin
  2
*D18
 70
     1
 10
0.0
 20
0.0
 30
0.0
  3
*D18
  1
*D18
  0
LINE
  5
453
330
450
100
AcDbEntity
  8
치수문자_일반주서
 62
     0
370
    -2
100
AcDbLine
 10
79.28750000000002
 20
15.48750000000001
 30
0.0
 11
79.28750000000002
 21
43.85914679328081
 31
0.0
  0
LINE
  5
454
330
450
100
AcDbEntity
  8
치수문자_일반주서
 62
     0
370
    -2
100
AcDbLine
 10
17.37500000000004
 20
16.12250000000001
 30
0.0
 11
17.37500000000004
 21
43.85914679328081
 31
0.0
  0
LINE
  5
455
330
450
100
AcDbEntity
  8
치수문자_일반주서
 62
     0
370
    -2
100
AcDbLine
 10
75.98550000000003
 20
43.85914679328081
 30
0.0
 11
20.67700000000004
 21
43.85914679328081
 31
0.0
  0
SOLID
  5
456
330
450
100
AcDbEntity
  8
치수문자_일반주서
 62
     0
100
AcDbTrace
 10
75.98550000000003
 20
43.30881345994747
 30
0.0
 11
75.98550000000003
 21
44.40948012661414
 31
0.0
 12
79.28750000000002
 22
43.85914679328081
 32
0.0
 13
79.28750000000002
 23
43.85914679328081
 33
0.0
  0
SOLID
  5
457
330
450
100
AcDbEntity
  8
치수문자_일반주서
 62
     0
100
AcDbTrace
 10
20.67700000000004
 20
44.40948012661414
 30
0.0
 11
20.67700000000004
 21
43.30881345994747
 31
0.0
 12
17.37500000000004
 22
43.85914679328081
 32
0.0
 13
17.37500000000004
 23
43.85914679328081
 33
0.0
  0
MTEXT
  5
458
330
450
100
AcDbEntity
  8
치수문자_일반주서
 62
     0
100
AcDbMText
 10
48.33125000000004
 20
48.23414679328081
 30
0.0
 40
3.5
 41
0.0
 71
     2
 72
     1
  1
\A1;61.91 [2 7/16]
  7
SLDTEXTSTYLE0
 73
     1
 44
1.0
  0
POINT
  5
459
330
450
100
AcDbEntity
  8
Defpoints
 62
     0
100
AcDbPoint
 10
79.28750000000002
 20
15.42500000000001
 30
0.0
  0
POINT
  5
45A
330
450
100
AcDbEntity
  8
Defpoints
 62
     0
100
AcDbPoint
 10
17.37500000000004
 20
16.06000000000001
 30
0.0
  0
POINT
  5
45B
330
450
100
AcDbEntity
  8
Defpoints
 62
     0
100
AcDbPoint
 10
17.37500000000004
 20
43.85914679328081
 30
0.0
  0
ENDBLK
  5
452
330
450
100
AcDbEntity
  8
0
100
AcDbBlockEnd
  0
BLOCK
  5
45D
330
45C
100
AcDbEntity
  8
0
100
AcDbBlockBegin
  2
*D19
 70
     1
 10
0.0
 20
0.0
 30
0.0
  3
*D19
  1
*D19
  0
LINE
  5
45F
330
45C
100
AcDbEntity
  8
치수문자_일반주서
 62
     0
370
    -2
100
AcDbLine
 10
18.26500000000006
 20
17.01250000000001
 30
0.0
 11
4.375000000000027
 21
17.01249999999995
 31
0.0
  0
LINE
  5
460
330
45C
100
AcDbEntity
  8
치수문자_일반주서
 62
     0
370
    -2
100
AcDbLine
 10
18.26500000000006
 20
7.487500000000002
 30
0.0
 11
4.37500000000006
 21
7.487499999999948
 31
0.0
  0
LINE
  5
461
330
45C
100
AcDbEntity
  8
치수문자_일반주서
 62
     0
370
    -2
100
AcDbLine
 10
4.375000000000038
 20
13.71049999999995
 30
0.0
 11
4.375000000000048
 21
10.78949999999995
 31
0.0
  0
SOLID
  5
462
330
45C
100
AcDbEntity
  8
치수문자_일반주서
 62
     0
100
AcDbTrace
 10
4.925333333333372
 20
13.71049999999996
 30
0.0
 11
3.824666666666705
 21
13.71049999999995
 31
0.0
 12
4.375000000000027
 22
17.01249999999995
 32
0.0
 13
4.375000000000027
 23
17.01249999999995
 33
0.0
  0
SOLID
  5
463
330
45C
100
AcDbEntity
  8
치수문자_일반주서
 62
     0
100
AcDbTrace
 10
3.824666666666715
 20
10.78949999999995
 30
0.0
 11
4.925333333333382
 21
10.78949999999995
 31
0.0
 12
4.37500000000006
 22
7.487499999999948
 32
0.0
 13
4.37500000000006
 23
7.487499999999948
 33
0.0
  0
MTEXT
  5
464
330
45C
100
AcDbEntity
  8
치수문자_일반주서
 62
     0
100
AcDbMText
 10
0.0000000000000426
 20
12.24999999999999
 30
0.0
 40
3.5
 41
0.0
 71
     2
 72
     1
  1
\A1;%%c9.53 [3/8]
  7
SLDTEXTSTYLE0
 11
-3.450141892798385E-15
 21
1.0
 31
0.0
 73
     1
 44
1.0
  0
POINT
  5
465
330
45C
100
AcDbEntity
  8
Defpoints
 62
     0
100
AcDbPoint
 10
18.32750000000006
 20
17.01250000000001
 30
0.0
  0
POINT
  5
466
330
45C
100
AcDbEntity
  8
Defpoints
 62
     0
100
AcDbPoint
 10
18.32750000000006
 20
7.487500000000002
 30
0.0
  0
POINT
  5
467
330
45C
100
AcDbEntity
  8
Defpoints
 62
     0
100
AcDbPoint
 10
4.375000000000064
 20
7.487499999999949
 30
0.0
  0
ENDBLK
  5
45E
330
45C
100
AcDbEntity
  8
0
100
AcDbBlockEnd
  0
BLOCK
  5
469
330
468
100
AcDbEntity
  8
0
100
AcDbBlockBegin
  2
*D20
 70
     1
 10
0.0
 20
0.0
 30
0.0
  3
*D20
  1
*D20
  0
LINE
  5
46B
330
468
100
AcDbEntity
  8
치수문자_일반주서
 62
     0
370
    -2
100
AcDbLine
 10
79.35000000000002
 20
15.42500000000001
 30
0.0
 11
118.4614191006245
 21
15.42500000000015
 31
0.0
  0
LINE
  5
46C
330
468
100
AcDbEntity
  8
치수문자_일반주서
 62
     0
370
    -2
100
AcDbLine
 10
79.35000000000005
 20
9.075000000000008
 30
0.0
 11
118.4614191006246
 21
9.075000000000152
 31
0.0
  0
LINE
  5
46D
330
468
100
AcDbEntity
  8
치수문자_일반주서
 62
     0
370
    -2
100
AcDbLine
 10
118.4614191006245
 20
15.42500000000015
 30
0.0
 11
118.4614191006244
 21
54.4624999999999
 31
0.0
  0
LINE
  5
46E
330
468
100
AcDbEntity
  8
치수문자_일반주서
 62
     0
370
    -2
100
AcDbLine
 10
118.4614191006245
 20
18.72700000000015
 30
0.0
 11
118.4614191006245
 21
22.02900000000015
 31
0.0
  0
LINE
  5
46F
330
468
100
AcDbEntity
  8
치수문자_일반주서
 62
     0
370
    -2
100
AcDbLine
 10
118.4614191006246
 20
5.773000000000152
 30
0.0
 11
118.4614191006246
 21
2.471000000000153
 31
0.0
  0
SOLID
  5
470
330
468
100
AcDbEntity
  8
치수문자_일반주서
 62
     0
100
AcDbTrace
 10
117.9110857672912
 20
18.72700000000015
 30
0.0
 11
119.0117524339579
 21
18.72700000000016
 31
0.0
 12
118.4614191006245
 22
15.42500000000015
 32
0.0
 13
118.4614191006245
 23
15.42500000000015
 33
0.0
  0
SOLID
  5
471
330
468
100
AcDbEntity
  8
치수문자_일반주서
 62
     0
100
AcDbTrace
 10
119.0117524339579
 20
5.773000000000155
 30
0.0
 11
117.9110857672913
 21
5.77300000000015
 31
0.0
 12
118.4614191006246
 22
9.075000000000152
 32
0.0
 13
118.4614191006246
 23
9.075000000000152
 33
0.0
  0
MTEXT
  5
472
330
468
100
AcDbEntity
  8
치수문자_일반주서
 62
     0
100
AcDbMText
 10
114.0864191006244
 20
41.77499999999988
 30
0.0
 40
3.5
 41
0.0
 71
     2
 72
     1
  1
\A1;%%c6.35 [1/4]
  7
SLDTEXTSTYLE0
 11
-4.475859752819529E-15
 21
1.0
 31
0.0
 73
     1
 44
1.0
  0
POINT
  5
473
330
468
100
AcDbEntity
  8
Defpoints
 62
     0
100
AcDbPoint
 10
79.28750000000002
 20
15.42500000000001
 30
0.0
  0
POINT
  5
474
330
468
100
AcDbEntity
  8
Defpoints
 62
     0
100
AcDbPoint
 10
79.28750000000005
 20
9.075000000000008
 30
0.0
  0
POINT
  5
475
330
468
100
AcDbEntity
  8
Defpoints
 62
     0
100
AcDbPoint
 10
118.4614191006245
 20
9.075000000000154
 30
0.0
  0
ENDBLK
  5
46A
330
468
100
AcDbEntity
  8
0
100
AcDbBlockEnd
  0
BLOCK
  5
4A9
330
4A8
100
AcDbEntity
  8
0
100
AcDbBlockBegin
  2
*D21
 70
     1
 10
0.0
 20
0.0
 30
0.0
  3
*D21
  1
*D21
  0
LINE
  5
4AB
330
4A8
100
AcDbEntity
  8
치수문자_일반주서
 62
     0
370
    -2
100
AcDbLine
 10
155.650539563555
 20
-39.6518738329849
 30
0.0
 11
155.650539563555
 21
-28.1268738329849
 31
0.0
  0
LINE
  5
4AC
330
4A8
100
AcDbEntity
  8
치수문자_일반주서
 62
     0
370
    -2
100
AcDbLine
 10
139.775539563555
 20
-39.66354960488249
 30
0.0
 11
139.775539563555
 21
-28.1268738329849
 31
0.0
  0
LINE
  5
4AD
330
4A8
100
AcDbEntity
  8
치수문자_일반주서
 62
     0
370
    -2
100
AcDbLine
 10
155.650539563555
 20
-28.1268738329849
 30
0.0
 11
187.6295395635549
 21
-28.1268738329849
 31
0.0
  0
LINE
  5
4AE
330
4A8
100
AcDbEntity
  8
치수문자_일반주서
 62
     0
370
    -2
100
AcDbLine
 10
152.348539563555
 20
-28.1268738329849
 30
0.0
 11
143.077539563555
 21
-28.1268738329849
 31
0.0
  0
SOLID
  5
4AF
330
4A8
100
AcDbEntity
  8
치수문자_일반주서
 62
     0
100
AcDbTrace
 10
152.348539563555
 20
-28.67720716631823
 30
0.0
 11
152.348539563555
 21
-27.57654049965156
 31
0.0
 12
155.650539563555
 22
-28.1268738329849
 32
0.0
 13
155.650539563555
 23
-28.1268738329849
 33
0.0
  0
SOLID
  5
4B0
330
4A8
100
AcDbEntity
  8
치수문자_일반주서
 62
     0
100
AcDbTrace
 10
143.077539563555
 20
-27.57654049965156
 30
0.0
 11
143.077539563555
 21
-28.67720716631823
 31
0.0
 12
139.775539563555
 22
-28.1268738329849
 32
0.0
 13
139.775539563555
 23
-28.1268738329849
 33
0.0
  0
MTEXT
  5
4B1
330
4A8
100
AcDbEntity
  8
치수문자_일반주서
 62
     0
100
AcDbMText
 10
174.9420395635549
 20
-23.7518738329849
 30
0.0
 40
3.5
 41
0.0
 71
     2
 72
     1
  1
\A1;15.88 [5/8]
  7
SLDTEXTSTYLE0
 73
     1
 44
1.0
  0
POINT
  5
4B2
330
4A8
100
AcDbEntity
  8
Defpoints
 62
     0
100
AcDbPoint
 10
155.650539563555
 20
-39.7143738329849
 30
0.0
  0
POINT
  5
4B3
330
4A8
100
AcDbEntity
  8
Defpoints
 62
     0
100
AcDbPoint
 10
139.775539563555
 20
-39.72604960488249
 30
0.0
  0
POINT
  5
4B4
330
4A8
100
AcDbEntity
  8
Defpoints
 62
     0
100
AcDbPoint
 10
139.775539563555
 20
-28.1268738329849
 30
0.0
  0
ENDBLK
  5
4AA
330
4A8
100
AcDbEntity
  8
0
100
AcDbBlockEnd
  0
BLOCK
  5
4B6
330
4B5
100
AcDbEntity
  8
0
100
AcDbBlockBegin
  2
*D22
 70
     1
 10
0.0
 20
0.0
 30
0.0
  3
*D22
  1
*D22
  0
LINE
  5
4B8
330
4B5
100
AcDbEntity
  8
치수문자_일반주서
 62
     0
370
    -2
100
AcDbLine
 10
155.650539563555
 20
-39.6518738329849
 30
0.0
 11
155.650539563555
 21
-11.28022703970411
 31
0.0
  0
LINE
  5
4B9
330
4B5
100
AcDbEntity
  8
치수문자_일반주서
 62
     0
370
    -2
100
AcDbLine
 10
93.73803956355496
 20
-39.01687383298491
 30
0.0
 11
93.73803956355496
 21
-11.28022703970411
 31
0.0
  0
LINE
  5
4BA
330
4B5
100
AcDbEntity
  8
치수문자_일반주서
 62
     0
370
    -2
100
AcDbLine
 10
152.348539563555
 20
-11.28022703970411
 30
0.0
 11
97.04003956355496
 21
-11.28022703970411
 31
0.0
  0
SOLID
  5
4BB
330
4B5
100
AcDbEntity
  8
치수문자_일반주서
 62
     0
100
AcDbTrace
 10
152.348539563555
 20
-11.83056037303744
 30
0.0
 11
152.348539563555
 21
-10.72989370637078
 31
0.0
 12
155.650539563555
 22
-11.28022703970411
 32
0.0
 13
155.650539563555
 23
-11.28022703970411
 33
0.0
  0
SOLID
  5
4BC
330
4B5
100
AcDbEntity
  8
치수문자_일반주서
 62
     0
100
AcDbTrace
 10
97.04003956355496
 20
-10.72989370637078
 30
0.0
 11
97.04003956355496
 21
-11.83056037303744
 31
0.0
 12
93.73803956355496
 22
-11.28022703970411
 32
0.0
 13
93.73803956355496
 23
-11.28022703970411
 33
0.0
  0
MTEXT
  5
4BD
330
4B5
100
AcDbEntity
  8
치수문자_일반주서
 62
     0
100
AcDbMText
 10
124.694289563555
 20
-6.905227039704108
 30
0.0
 40
3.5
 41
0.0
 71
     2
 72
     1
  1
\A1;61.91 [2 7/16]
  7
SLDTEXTSTYLE0
 73
     1
 44
1.0
  0
POINT
  5
4BE
330
4B5
100
AcDbEntity
  8
Defpoints
 62
     0
100
AcDbPoint
 10
155.650539563555
 20
-39.7143738329849
 30
0.0
  0
POINT
  5
4BF
330
4B5
100
AcDbEntity
  8
Defpoints
 62
     0
100
AcDbPoint
 10
93.73803956355496
 20
-39.07937383298491
 30
0.0
  0
POINT
  5
4C0
330
4B5
100
AcDbEntity
  8
Defpoints
 62
     0
100
AcDbPoint
 10
93.73803956355496
 20
-11.28022703970411
 30
0.0
  0
ENDBLK
  5
4B7
330
4B5
100
AcDbEntity
  8
0
100
AcDbBlockEnd
  0
BLOCK
  5
4C2
330
4C1
100
AcDbEntity
  8
0
100
AcDbBlockBegin
  2
*D23
 70
     1
 10
0.0
 20
0.0
 30
0.0
  3
*D23
  1
*D23
  0
LINE
  5
4C4
330
4C1
100
AcDbEntity
  8
치수문자_일반주서
 62
     0
370
    -2
100
AcDbLine
 10
94.62803956355498
 20
-38.12687383298491
 30
0.0
 11
80.73803956355495
 21
-38.12687383298496
 31
0.0
  0
LINE
  5
4C5
330
4C1
100
AcDbEntity
  8
치수문자_일반주서
 62
     0
370
    -2
100
AcDbLine
 10
94.62803956355498
 20
-47.65187383298491
 30
0.0
 11
80.73803956355498
 21
-47.65187383298496
 31
0.0
  0
LINE
  5
4C6
330
4C1
100
AcDbEntity
  8
치수문자_일반주서
 62
     0
370
    -2
100
AcDbLine
 10
80.73803956355496
 20
-41.42887383298496
 30
0.0
 11
80.73803956355496
 21
-44.34987383298496
 31
0.0
  0
SOLID
  5
4C7
330
4C1
100
AcDbEntity
  8
치수문자_일반주서
 62
     0
100
AcDbTrace
 10
81.28837289688829
 20
-41.42887383298496
 30
0.0
 11
80.18770623022164
 21
-41.42887383298496
 31
0.0
 12
80.73803956355495
 22
-38.12687383298496
 32
0.0
 13
80.73803956355495
 23
-38.12687383298496
 33
0.0
  0
SOLID
  5
4C8
330
4C1
100
AcDbEntity
  8
치수문자_일반주서
 62
     0
100
AcDbTrace
 10
80.18770623022164
 20
-44.34987383298496
 30
0.0
 11
81.28837289688829
 21
-44.34987383298496
 31
0.0
 12
80.73803956355498
 22
-47.65187383298496
 32
0.0
 13
80.73803956355498
 23
-47.65187383298496
 33
0.0
  0
MTEXT
  5
4C9
330
4C1
100
AcDbEntity
  8
치수문자_일반주서
 62
     0
100
AcDbMText
 10
76.36303956355496
 20
-42.88937383298493
 30
0.0
 40
3.5
 41
0.0
 71
     2
 72
     1
  1
\A1;%%c9.53 [3/8]
  7
SLDTEXTSTYLE0
 11
-2.983906501879686E-15
 21
1.0
 31
0.0
 73
     1
 44
1.0
  0
POINT
  5
4CA
330
4C1
100
AcDbEntity
  8
Defpoints
 62
     0
100
AcDbPoint
 10
94.69053956355498
 20
-38.12687383298491
 30
0.0
  0
POINT
  5
4CB
330
4C1
100
AcDbEntity
  8
Defpoints
 62
     0
100
AcDbPoint
 10
94.69053956355498
 20
-47.65187383298491
 30
0.0
  0
POINT
  5
4CC
330
4C1
100
AcDbEntity
  8
Defpoints
 62
     0
100
AcDbPoint
 10
80.73803956355498
 20
-47.65187383298496
 30
0.0
  0
ENDBLK
  5
4C3
330
4C1
100
AcDbEntity
  8
0
100
AcDbBlockEnd
  0
BLOCK
  5
4CE
330
4CD
100
AcDbEntity
  8
0
100
AcDbBlockBegin
  2
*D24
 70
     1
 10
0.0
 20
0.0
 30
0.0
  3
*D24
  1
*D24
  0
LINE
  5
4D0
330
4CD
100
AcDbEntity
  8
치수문자_일반주서
 62
     0
370
    -2
100
AcDbLine
 10
155.713039563555
 20
-39.7143738329849
 30
0.0
 11
194.8244586641795
 21
-39.71437383298476
 31
0.0
  0
LINE
  5
4D1
330
4CD
100
AcDbEntity
  8
치수문자_일반주서
 62
     0
370
    -2
100
AcDbLine
 10
155.713039563555
 20
-46.06437383298491
 30
0.0
 11
194.8244586641795
 21
-46.06437383298476
 31
0.0
  0
LINE
  5
4D2
330
4CD
100
AcDbEntity
  8
치수문자_일반주서
 62
     0
370
    -2
100
AcDbLine
 10
194.8244586641795
 20
-39.71437383298476
 30
0.0
 11
194.8244586641793
 21
-0.6768738329850166
 31
0.0
  0
LINE
  5
4D3
330
4CD
100
AcDbEntity
  8
치수문자_일반주서
 62
     0
370
    -2
100
AcDbLine
 10
194.8244586641794
 20
-36.41237383298476
 30
0.0
 11
194.8244586641794
 21
-33.11037383298476
 31
0.0
  0
LINE
  5
4D4
330
4CD
100
AcDbEntity
  8
치수문자_일반주서
 62
     0
370
    -2
100
AcDbLine
 10
194.8244586641795
 20
-49.36637383298476
 30
0.0
 11
194.8244586641796
 21
-52.66837383298476
 31
0.0
  0
SOLID
  5
4D5
330
4CD
100
AcDbEntity
  8
치수문자_일반주서
 62
     0
100
AcDbTrace
 10
194.2741253308461
 20
-36.41237383298476
 30
0.0
 11
195.3747919975128
 21
-36.41237383298476
 31
0.0
 12
194.8244586641795
 22
-39.71437383298476
 32
0.0
 13
194.8244586641795
 23
-39.71437383298476
 33
0.0
  0
SOLID
  5
4D6
330
4CD
100
AcDbEntity
  8
치수문자_일반주서
 62
     0
100
AcDbTrace
 10
195.3747919975129
 20
-49.36637383298476
 30
0.0
 11
194.2741253308462
 21
-49.36637383298476
 31
0.0
 12
194.8244586641795
 22
-46.06437383298476
 32
0.0
 13
194.8244586641795
 23
-46.06437383298476
 33
0.0
  0
MTEXT
  5
4D7
330
4CD
100
AcDbEntity
  8
치수문자_일반주서
 62
     0
100
AcDbMText
 10
190.4494586641794
 20
-13.36437383298504
 30
0.0
 40
3.5
 41
0.0
 71
     2
 72
     1
  1
\A1;%%c6.35 [1/4]
  7
SLDTEXTSTYLE0
 11
-4.475859752819528E-15
 21
1.0
 31
0.0
 73
     1
 44
1.0
  0
POINT
  5
4D8
330
4CD
100
AcDbEntity
  8
Defpoints
 62
     0
100
AcDbPoint
 10
155.650539563555
 20
-39.7143738329849
 30
0.0
  0
POINT
  5
4D9
330
4CD
100
AcDbEntity
  8
Defpoints
 62
     0
100
AcDbPoint
 10
155.650539563555
 20
-46.06437383298491
 30
0.0
  0
POINT
  5
4DA
330
4CD
100
AcDbEntity
  8
Defpoints
 62
     0
100
AcDbPoint
 10
194.8244586641795
 20
-46.06437383298476
 30
0.0
  0
ENDBLK
  5
4CF
330
4CD
100
AcDbEntity
  8
0
100
AcDbBlockEnd
  0
ENDSEC
  0
SECTION
  2
ENTITIES
  0
LINE
  5
96
330
1F
100
AcDbEntity
  8
0
  6
Continuous
 62
     1
370
    15
100
AcDbLine
 10
17.34988161526736
 20
-3.967675071276116
 30
0.0
 11
19.76855497201518
 21
-3.967675071276116
 31
0.0
  0
ARC
  5
97
330
1F
100
AcDbEntity
  8
0
  6
Continuous
 62
     1
370
    15
100
AcDbCircle
 10
21.04356532850779
 20
0.0010749287238944
 30
0.0
 40
3.968750000000021
100
AcDbArc
 50
336.1908061412506
 51
0.0
  0
ARC
  5
98
330
1F
100
AcDbEntity
  8
0
  6
Continuous
 62
     1
370
    15
100
AcDbCircle
 10
21.04356532850779
 20
0.0010749287238944
 30
0.0
 40
3.968750000000023
100
AcDbArc
 50
0.0
 51
23.8153122299932
  0
LINE
  5
99
330
1F
100
AcDbEntity
  8
0
  6
Continuous
 62
     1
370
    15
100
AcDbLine
 10
8.971667225873556
 20
3.969824928723902
 30
0.0
 11
6.552128119426041
 21
3.969824928723902
 31
0.0
  0
LINE
  5
9A
330
1F
100
AcDbEntity
  8
0
  6
Continuous
 62
     1
370
    15
100
AcDbLine
 10
19.7685549720152
 20
3.969824928723902
 30
0.0
 11
17.34988161526734
 21
3.969824928723902
 31
0.0
  0
LINE
  5
9B
330
1F
100
AcDbEntity
  8
0
  6
Continuous
 62
     1
370
    15
100
AcDbLine
 10
6.552128119426048
 20
-3.967675071276116
 30
0.0
 11
8.971667225873599
 21
-3.967675071276116
 31
0.0
  0
LINE
  5
9C
330
1F
100
AcDbEntity
  8
외형선
  6
Continuous
370
    15
100
AcDbLine
 10
-37.53518467149218
 20
-4.761425071276109
 30
0.0
 11
2.000000000000014
 21
-4.761425071276109
 31
0.0
  0
LINE
  5
9D
330
1F
100
AcDbEntity
  8
외형선
  6
Continuous
370
    15
100
AcDbLine
 10
2.000000000000014
 20
4.763574928723896
 30
0.0
 11
-13.80523467149206
 21
4.763574928723896
 31
0.0
  0
LINE
  5
9E
330
1F
100
AcDbEntity
  8
외형선
  6
Continuous
370
    15
100
AcDbLine
 10
2.000000000000014
 20
-4.761425071276112
 30
0.0
 11
4.962315328507827
 21
-3.967675071276107
 31
0.0
  0
LINE
  5
9F
330
1F
100
AcDbEntity
  8
외형선
  6
Continuous
370
    15
100
AcDbLine
 10
4.962315328507827
 20
3.969824928723893
 30
0.0
 11
2.000000000000014
 21
4.763574928723899
 31
0.0
  0
LINE
  5
A0
330
1F
100
AcDbEntity
  8
외형선
  6
Continuous
370
    15
100
AcDbLine
 10
-37.53518467149218
 20
4.763574928723894
 30
0.0
 11
-38.48768467149218
 21
3.811074928723897
 31
0.0
  0
LINE
  5
A1
330
1F
100
AcDbEntity
  8
외형선
  6
Continuous
370
    15
100
AcDbLine
 10
-38.48768467149218
 20
-3.80892507127611
 30
0.0
 11
-37.53518467149218
 21
-4.761425071276108
 31
0.0
  0
LINE
  5
A2
330
1F
100
AcDbEntity
  8
외형선
  6
Continuous
370
    15
100
AcDbLine
 10
4.962315328507827
 20
-3.967675071276107
 30
0.0
 11
5.962315328507827
 21
-3.967675071276107
 31
0.0
  0
LINE
  5
A3
330
1F
100
AcDbEntity
  8
외형선
  6
Continuous
370
    15
100
AcDbLine
 10
5.962315328507827
 20
3.969824928723893
 30
0.0
 11
4.962315328507827
 21
3.969824928723893
 31
0.0
  0
SPLINE
  5
A4
330
1F
100
AcDbEntity
  8
0
  6
Continuous
 62
     1
370
    15
100
AcDbSpline
210
0.0
220
0.0
230
1.0
 70
     8
 71
     3
 72
    16
 73
    12
 74
     0
 42
0.000000001
 43
0.00000001
 40
0.0
 40
0.0
 40
0.0
 40
0.0
 40
0.1236926996300435
 40
0.2472992378479625
 40
0.370857287694071
 40
0.4944048331896273
 40
0.6179799258490097
 40
0.7416204402824828
 40
0.85830251798141
 40
0.9748575016707494
 40
1.0
 40
1.0
 40
1.0
 40
1.0
 10
5.962315328507819
 20
0.3411227835826814
 30
0.0
 10
6.431911419198202
 20
0.0697983777641309
 30
0.0
 10
7.370776491037137
 20
-0.4726614357023497
 30
0.0
 10
8.778455161783867
 20
-1.270640966786887
 30
0.0
 10
10.18549293133539
 20
-2.014231438372058
 30
0.0
 10
11.59237948220863
 20
-2.674143473912155
 30
0.0
 10
12.99965271472068
 20
-3.221271136009535
 30
0.0
 10
14.38097913905291
 20
-3.629596935463145
 30
0.0
 10
15.73599820847493
 20
-3.874905635492615
 30
0.0
 10
16.71670054631052
 20
-3.980731299394493
 30
0.0
 10
17.25446231627699
 20
-3.959030363790068
 30
0.0
 10
17.34988161526737
 20
-3.955179796162438
 30
0.0
  0
SPLINE
  5
A5
330
1F
100
AcDbEntity
  8
0
  6
Continuous
 62
     1
370
    15
100
AcDbSpline
210
0.0
220
0.0
230
1.0
 70
     8
 71
     3
 72
    13
 73
     9
 74
     0
 42
0.000000001
 43
0.00000001
 40
0.0
 40
0.0
 40
0.0
 40
0.0
 40
0.0762454402293306
 40
0.2611370798692951
 40
0.4458212374431671
 40
0.630434700544885
 40
0.8151152687873595
 40
1.0
 40
1.0
 40
1.0
 40
1.0
 10
13.14628563982875
 20
-3.24214106001979
 30
0.0
 10
12.96367638137423
 20
-3.306378578249023
 30
0.0
 10
12.33824818046829
 20
-3.52638908481804
 30
0.0
 10
11.27043355577085
 20
-3.765945395049473
 30
0.0
 10
9.943522245229708
 20
-3.954303103087482
 30
0.0
 10
8.617166002683007
 20
-3.985121607311989
 30
0.0
 10
7.29027889166736
 20
-3.879450910989293
 30
0.0
 10
6.405132846507121
 20
-3.688750704614713
 30
0.0
 10
5.962315328507834
 20
-3.593347926134853
 30
0.0
  0
SPLINE
  5
A6
330
1F
100
AcDbEntity
  8
0
  6
Continuous
 62
     1
370
    15
100
AcDbSpline
210
0.0
220
0.0
230
1.0
 70
     8
 71
     3
 72
    13
 73
     9
 74
     0
 42
0.000000001
 43
0.00000001
 40
0.0
 40
0.0
 40
0.0
 40
0.0
 40
0.1596841134739282
 40
0.3279298670284824
 40
0.4959923616984104
 40
0.6639414111728866
 40
0.831902254425002
 40
1.0
 40
1.0
 40
1.0
 40
1.0
 10
13.1462856398287
 20
3.244290917467576
 30
0.0
 10
13.5666558344729
 20
3.37578637374935
 30
0.0
 10
14.42993483595552
 20
3.645827560409865
 30
0.0
 10
15.7360054519744
 20
3.882837106507829
 30
0.0
 10
17.06334661764307
 20
3.992006428554722
 30
0.0
 10
18.38979683211296
 20
3.947271241415407
 30
0.0
 10
19.71632082065277
 20
3.765766554575681
 30
0.0
 10
20.60103035597431
 20
3.528860322227426
 30
0.0
 10
21.0435653285078
 20
3.410358951054627
 30
0.0
  0
SPLINE
  5
A7
330
1F
100
AcDbEntity
  8
0
  6
Continuous
 62
     1
370
    15
100
AcDbSpline
210
0.0
220
0.0
230
1.0
 70
     8
 71
     3
 72
    44
 73
    40
 74
     0
 42
0.000000001
 43
0.00000001
 40
0.0
 40
0.0
 40
0.0
 40
0.0
 40
0.0625000000000009
 40
0.0625000000000009
 40
0.1250000000000019
 40
0.1250000000000019
 40
0.1875000000000028
 40
0.1875000000000028
 40
0.2500000000000037
 40
0.2500000000000037
 40
0.3125000000000047
 40
0.3125000000000047
 40
0.3750000000000056
 40
0.3750000000000056
 40
0.4375000000000066
 40
0.4375000000000066
 40
0.4687500000000066
 40
0.4687500000000066
 40
0.5000000000000064
 40
0.5000000000000064
 40
0.5312500000000064
 40
0.5312500000000064
 40
0.5625000000000063
 40
0.5625000000000063
 40
0.5937500000000063
 40
0.5937500000000063
 40
0.6250000000000062
 40
0.6250000000000062
 40
0.6875000000000061
 40
0.6875000000000061
 40
0.750000000000006
 40
0.750000000000006
 40
0.8125000000000046
 40
0.8125000000000046
 40
0.875000000000003
 40
0.875000000000003
 40
0.9375000000000016
 40
0.9375000000000016
 40
1.0
 40
1.0
 40
1.0
 40
1.0
 10
21.04356532850779
 20
3.410358951054636
 30
0.0
 10
21.24501198693525
 20
3.350655593269226
 30
0.0
 10
21.44577020924824
 20
3.276507433782282
 30
0.0
 10
21.8486557082207
 20
3.10322987792909
 30
0.0
 10
22.05241567007524
 20
3.003192608885192
 30
0.0
 10
22.45495451131797
 20
2.781953663998698
 30
0.0
 10
22.6507427243603
 20
2.662440760625389
 30
0.0
 10
23.03189077125334
 20
2.40646973469786
 30
0.0
 10
23.21889230692006
 20
2.268386963200869
 30
0.0
 10
23.56834773882935
 20
1.978511825671898
 30
0.0
 10
23.73108297541077
 20
1.826900289934588
 30
0.0
 10
24.02929079069348
 20
1.503263591824423
 30
0.0
 10
24.16518249082828
 20
1.330098733103713
 30
0.0
 10
24.39474693499932
 20
0.9649414060837056
 30
0.0
 10
24.49035923081816
 20
0.7709742274796566
 30
0.0
 10
24.59532250976966
 20
0.4563794169360118
 30
0.0
 10
24.62333032610526
 20
0.3491217271724271
 30
0.0
 10
24.66396331804821
 20
0.1284709637238813
 30
0.0
 10
24.67661738767435
 20
0.013823131446793
 30
0.0
 10
24.68344196341338
 20
-0.2163924998800712
 30
0.0
 10
24.67785090518804
 20
-0.3317086788919502
 30
0.0
 10
24.64645928199178
 20
-0.5629953943960381
 30
0.0
 10
24.62079807312222
 20
-0.6762615888547512
 30
0.0
 10
24.55094092652782
 20
-0.8902774518638803
 30
0.0
 10
24.5056033945457
 20
-0.9936655940199614
 30
0.0
 10
24.40014671223745
 20
-1.178674102632509
 30
0.0
 10
24.33956794108079
 20
-1.261793979835834
 30
0.0
 10
24.13950364770298
 20
-1.478591827425515
 30
0.0
 10
23.98475776004981
 20
-1.576247307812506
 30
0.0
 10
23.66051489309404
 20
-1.690603075535297
 30
0.0
 10
23.48709932270599
 20
-1.708896438585506
 30
0.0
 10
23.13669241199794
 20
-1.6879341837122
 30
0.0
 10
22.95585828347261
 20
-1.648966984018827
 30
0.0
 10
22.58855144258279
 20
-1.531515673470233
 30
0.0
 10
22.40419131110194
 20
-1.453982190666739
 30
0.0
 10
22.02691186543678
 20
-1.275206903423779
 30
0.0
 10
21.8326905674753
 20
-1.172725662132166
 30
0.0
 10
21.44215917423908
 20
-0.9578552933850919
 30
0.0
 10
21.24494670841504
 20
-0.8450920202784775
 30
0.0
 10
21.04356532850812
 20
-0.7305017265813755
 30
0.0
  0
SPLINE
  5
A8
330
1F
100
AcDbEntity
  8
0
  6
Continuous
 62
     1
370
    15
100
AcDbSpline
210
0.0
220
0.0
230
1.0
 70
     8
 71
     3
 72
    16
 73
    12
 74
     0
 42
0.000000001
 43
0.00000001
 40
0.0
 40
0.0
 40
0.0
 40
0.0
 40
0.1166312393400652
 40
0.2331995459448003
 40
0.3497406366342522
 40
0.466290402994859
 40
0.5828846808685098
 40
0.699559020592705
 40
0.8095883943089651
 40
0.9194942950448687
 40
1.0
 40
1.0
 40
1.0
 40
1.0
 10
21.04356532850781
 20
-0.7305017265811913
 30
0.0
 10
20.57419672311315
 20
-0.4612759706617962
 30
0.0
 10
19.63571277766147
 20
0.0770302703787317
 30
0.0
 10
18.22843821231518
 20
0.8897443338024628
 30
0.0
 10
16.82154173436695
 20
1.663003253473962
 30
0.0
 10
15.41451921739764
 20
2.367546332183055
 30
0.0
 10
14.00687056541853
 20
2.972755947005894
 30
0.0
 10
12.62520069515031
 20
3.446041787735425
 30
0.0
 10
11.27043783427767
 20
3.770001808611636
 30
0.0
 10
10.0616418241161
 20
3.949018626600485
 30
0.0
 10
9.29556374324785
 20
3.953480371702476
 30
0.0
 10
8.97166722587355
 20
3.955366789988075
 30
0.0
  0
SPLINE
  5
A9
330
1F
100
AcDbEntity
  8
0
  6
Continuous
 62
     1
370
    15
100
AcDbSpline
210
0.0
220
0.0
230
1.0
 70
     8
 71
     3
 72
    36
 73
    32
 74
     0
 42
0.000000001
 43
0.00000001
 40
0.0
 40
0.0
 40
0.0
 40
0.0
 40
0.0625
 40
0.0625
 40
0.125
 40
0.125
 40
0.1875000000000001
 40
0.1875000000000001
 40
0.2500000000000001
 40
0.2500000000000001
 40
0.3125000000000001
 40
0.3125000000000001
 40
0.3750000000000001
 40
0.3750000000000001
 40
0.4375000000000001
 40
0.4375000000000001
 40
0.5000000000000001
 40
0.5000000000000001
 40
0.5625000000000001
 40
0.5625000000000001
 40
0.6250000000000001
 40
0.6250000000000001
 40
0.6875000000000001
 40
0.6875000000000001
 40
0.7500000000000002
 40
0.7500000000000002
 40
0.8125000000000002
 40
0.8125000000000002
 40
0.8750000000000001
 40
0.8750000000000001
 40
1.0
 40
1.0
 40
1.0
 40
1.0
 10
5.962315328507819
 20
3.955230213851936
 30
0.0
 10
6.274232580012243
 20
3.970735716953762
 30
0.0
 10
6.590047411597118
 20
3.973915342669903
 30
0.0
 10
7.220637164593229
 20
3.955267685269851
 30
0.0
 10
7.533012750085844
 20
3.93353882455799
 30
0.0
 10
8.16004850337222
 20
3.865631074409008
 30
0.0
 10
8.476425044704236
 20
3.819316956330453
 30
0.0
 10
9.106008390117726
 20
3.703172705939301
 30
0.0
 10
9.417086942497686
 20
3.633571884612086
 30
0.0
 10
10.04633637544396
 20
3.471561244501002
 30
0.0
 10
10.36276569249164
 20
3.37921001349538
 30
0.0
 10
10.9903415701169
 20
3.174468118940392
 30
0.0
 10
11.30227216483649
 20
3.062062208735869
 30
0.0
 10
11.93273598912061
 20
2.817972967100547
 30
0.0
 10
12.24870886362642
 20
2.686561970390955
 30
0.0
 10
12.87328684845127
 20
2.408855904580555
 30
0.0
 10
13.18821405198916
 20
2.261638718305711
 30
0.0
 10
13.81888652970024
 20
1.953786725897928
 30
0.0
 10
14.13179906857092
 20
1.793642127386628
 30
0.0
 10
14.75825230254646
 20
1.463070727372615
 30
0.0
 10
15.07455422005756
 20
1.292133139398887
 30
0.0
 10
15.70442850360541
 20
0.9437099135277313
 30
0.0
 10
16.01559931332474
 20
0.7666993380611667
 30
0.0
 10
16.64447193557129
 20
0.4077749285982118
 30
0.0
 10
16.96093216802187
 20
0.2260842547935145
 30
0.0
 10
17.58900565242171
 20
-0.1366445123099527
 30
0.0
 10
17.90058332005307
 20
-0.3176737918050656
 30
0.0
 10
18.53087804038985
 20
-0.6779704851264657
 30
0.0
 10
18.84698720299897
 20
-0.8567239350836767
 30
0.0
 10
19.78490664481752
 20
-1.381328426953954
 30
0.0
 10
20.41773687674499
 20
-1.719370484169712
 30
0.0
 10
21.0435653285078
 20
-2.030613782073229
 30
0.0
  0
SPLINE
  5
AA
330
1F
100
AcDbEntity
  8
0
  6
Continuous
 62
     1
370
    15
100
AcDbSpline
210
0.0
220
0.0
230
1.0
 70
     8
 71
     3
 72
    18
 73
    14
 74
     0
 42
0.000000001
 43
0.00000001
 40
0.0
 40
0.0
 40
0.0
 40
0.0
 40
0.1153488499117493
 40
0.2340715691288117
 40
0.3484097938964543
 40
0.4662511069086765
 40
0.5781877183467583
 40
0.6928999046619222
 40
0.7862923356054284
 40
0.8817969729242467
 40
0.9395848509809357
 40
0.9985725695305722
 40
1.0
 40
1.0
 40
1.0
 40
1.0
 10
21.0435653285078
 20
-2.030613782073233
 30
0.0
 10
21.22573049918092
 20
-2.114119477400636
 30
0.0
 10
21.59538903823609
 20
-2.28357334843127
 30
0.0
 10
22.15242349494438
 20
-2.430663398648152
 30
0.0
 10
22.70158967321402
 20
-2.487612352020617
 30
0.0
 10
23.21458305617893
 20
-2.444578429089594
 30
0.0
 10
23.68287361637254
 20
-2.316789930457888
 30
0.0
 10
24.06057551160123
 20
-2.139056379499972
 30
0.0
 10
24.3526936311893
 20
-1.944388356000599
 30
0.0
 10
24.53338472027039
 20
-1.784198886832882
 30
0.0
 10
24.63198474742235
 20
-1.671288511640933
 30
0.0
 10
24.67183365641151
 20
-1.615100861696836
 30
0.0
 10
24.67416874015627
 20
-1.60156066698681
 30
0.0
 10
24.67422391124728
 20
-1.601240752415632
 30
0.0
  0
SPLINE
  5
AB
330
1F
100
AcDbEntity
  8
0
  6
Continuous
 62
     1
370
    15
100
AcDbSpline
210
0.0
220
0.0
230
1.0
 70
     8
 71
     3
 72
    15
 73
    11
 74
     0
 42
0.000000001
 43
0.00000001
 40
0.0
 40
0.0
 40
0.0
 40
0.0
 40
0.0676487862354087
 40
0.1576015543137078
 40
0.2774062027587924
 40
0.4005791703521918
 40
0.5616089305609236
 40
0.7272034290566373
 40
0.8625016323510707
 40
1.0
 40
1.0
 40
1.0
 40
1.0
 10
23.97558480462802
 20
-2.166253406181919
 30
0.0
 10
23.91927344349291
 20
-2.220578444316848
 30
0.0
 10
23.78808471810277
 20
-2.34713962781573
 30
0.0
 10
23.53943120092134
 20
-2.579405817679637
 30
0.0
 10
23.23074640900528
 20
-2.850561957862065
 30
0.0
 10
22.84368780181271
 20
-3.155253626439523
 30
0.0
 10
22.40122149807486
 20
-3.448709159931735
 30
0.0
 10
21.93328589205935
 20
-3.679134216839442
 30
0.0
 10
21.47883292269189
 20
-3.834127492008661
 30
0.0
 10
21.18943255245215
 20
-3.877702032306542
 30
0.0
 10
21.04356532850812
 20
-3.899665021582001
 30
0.0
  0
SPLINE
  5
AC
330
1F
100
AcDbEntity
  8
0
  6
Continuous
 62
     1
370
    15
100
AcDbSpline
210
0.0
220
0.0
230
1.0
 70
     8
 71
     3
 72
    36
 73
    32
 74
     0
 42
0.000000001
 43
0.00000001
 40
0.0
 40
0.0
 40
0.0
 40
0.0
 40
0.0625000000000001
 40
0.0625000000000001
 40
0.1250000000000001
 40
0.1250000000000001
 40
0.1875000000000002
 40
0.1875000000000002
 40
0.2500000000000003
 40
0.2500000000000003
 40
0.3125000000000003
 40
0.3125000000000003
 40
0.3750000000000004
 40
0.3750000000000004
 40
0.4375000000000005
 40
0.4375000000000005
 40
0.5000000000000006
 40
0.5000000000000006
 40
0.5625000000000007
 40
0.5625000000000007
 40
0.6250000000000007
 40
0.6250000000000007
 40
0.6875000000000008
 40
0.6875000000000008
 40
0.7500000000000009
 40
0.7500000000000009
 40
0.8125000000000009
 40
0.8125000000000009
 40
0.875000000000001
 40
0.875000000000001
 40
1.0
 40
1.0
 40
1.0
 40
1.0
 10
5.962315328507834
 20
1.683662490477826
 30
0.0
 10
6.27423258001225
 20
1.519763986402759
 30
0.0
 10
6.590047411597118
 20
1.349912712455843
 30
0.0
 10
7.220637164593243
 20
1.00297326877656
 30
0.0
 10
7.533012750085844
 20
0.8263540142113418
 30
0.0
 10
8.160048503372213
 20
0.4686444441340828
 30
0.0
 10
8.476425044704236
 20
0.2872161915729668
 30
0.0
 10
9.10600839011774
 20
-0.0756984492055174
 30
0.0
 10
9.417086942497686
 20
-0.2567699293254443
 30
0.0
 10
10.04633637544396
 20
-0.6175271831009724
 30
0.0
 10
10.36276569249163
 20
-0.7968662721771903
 30
0.0
 10
10.99034157011689
 20
-1.148436689463646
 30
0.0
 10
11.30227216483651
 20
-1.320834462212258
 30
0.0
 10
11.9327359891206
 20
-1.657467171321999
 30
0.0
 10
12.24870886362641
 20
-1.821208908428497
 30
0.0
 10
12.87328684845124
 20
-2.135049159736868
 30
0.0
 10
13.18821405198915
 20
-2.286213385564515
 30
0.0
 10
13.81888652970026
 20
-2.573352056465542
 30
0.0
 10
14.13179906857093
 20
-2.708917609933168
 30
0.0
 10
14.75825230254647
 20
-2.962393912000487
 30
0.0
 10
15.07455422005754
 20
-3.080631431516164
 30
0.0
 10
15.70442850360539
 20
-3.296680888480164
 30
0.0
 10
16.01559931332475
 20
-3.394296829440226
 30
0.0
 10
16.6444719355713
 20
-3.568366020890436
 30
0.0
 10
16.96093216802187
 20
-3.644615352101199
 30
0.0
 10
17.58900565242173
 20
-3.773428820715397
 30
0.0
 10
17.90058332005308
 20
-3.826076205180432
 30
0.0
 10
18.53087804038987
 20
-3.907452436578764
 30
0.0
 10
18.84698720299898
 20
-3.935978248796689
 30
0.0
 10
19.78490664481755
 20
-3.984159894295251
 30
0.0
 10
20.41773687674501
 20
-3.966452748675158
 30
0.0
 10
21.04356532850781
 20
-3.899665021582031
 30
0.0
  0
LINE
  5
AD
330
1F
100
AcDbEntity
  8
외형선
  6
Continuous
370
    15
100
AcDbLine
 10
5.962315328507827
 20
0.3411227835826813
 30
0.0
 11
5.962315328507834
 21
1.683662490477826
 31
0.0
  0
SPLINE
  5
AE
330
1F
100
AcDbEntity
  8
0
  6
Continuous
 62
     1
370
    15
100
AcDbSpline
210
0.0
220
0.0
230
1.0
 70
     8
 71
     3
 72
    26
 73
    22
 74
     0
 42
0.000000001
 43
0.00000001
 40
0.0
 40
0.0
 40
0.0
 40
0.0
 40
0.0199621351974743
 40
0.0878869663929523
 40
0.1573480169591401
 40
0.1993774600573701
 40
0.2422795537775145
 40
0.2757276359285973
 40
0.3100485828165939
 40
0.3435501222116952
 40
0.3783554557410522
 40
0.4370697310450382
 40
0.4964955933067965
 40
0.5396726287596328
 40
0.584084778016225
 40
0.643235619530576
 40
0.7040494926108769
 40
0.7835543027232048
 40
0.8653128493513701
 40
0.9321132839264428
 40
0.9999999999999999
 40
0.9999999999999999
 40
0.9999999999999999
 40
0.9999999999999999
 10
23.97558480462802
 20
2.168403263629706
 30
0.0
 10
24.00828294958868
 20
2.153880753938139
 30
0.0
 10
24.15224253802159
 20
2.089942737860301
 30
0.0
 10
24.34999869550163
 20
1.944350470793273
 30
0.0
 10
24.53268725650681
 20
1.787648746341253
 30
0.0
 10
24.63440490743366
 20
1.671199270110719
 30
0.0
 10
24.67799253643788
 20
1.603746062405172
 30
0.0
 10
24.68465438690304
 20
1.568228548021977
 30
0.0
 10
24.66071216784403
 20
1.564290255655156
 30
0.0
 10
24.60445364206748
 20
1.594469949789955
 30
0.0
 10
24.49608043482104
 20
1.676760374757333
 30
0.0
 10
24.30706906442397
 20
1.847556995244932
 30
0.0
 10
24.05621419386314
 20
2.091038893421834
 30
0.0
 10
23.80467365756723
 20
2.333615522472334
 30
0.0
 10
23.53986339818632
 20
2.581218340816807
 30
0.0
 10
23.23061415191253
 20
2.852815043300434
 30
0.0
 10
22.84373606750656
 20
3.157365812028013
 30
0.0
 10
22.40120659509101
 20
3.450870649308218
 30
0.0
 10
21.93328909942658
 20
3.681281570904875
 30
0.0
 10
21.47883217524513
 20
3.836277932846131
 30
0.0
 10
21.18943230196719
 20
3.879852085260346
 30
0.0
 10
21.04356532850812
 20
3.901814879029788
 30
0.0
  0
LINE
  5
AF
330
1F
100
AcDbEntity
  8
0
  6
Continuous
 62
     1
370
    15
100
AcDbLine
 10
5.962315328507819
 20
-3.95308035640415
 30
0.0
 11
6.552128119426048
 21
-3.947430986392556
 31
0.0
  0
LINE
  5
B0
330
1F
100
AcDbEntity
  8
0
  6
Continuous
 62
     1
370
    15
100
AcDbLine
 10
21.04356532850782
 20
3.901814879029818
 30
0.0
 11
19.7685549720152
 21
3.962721694574004
 31
0.0
  0
LINE
  5
B1
330
1F
100
AcDbEntity
  8
외형선
  6
Continuous
370
    15
100
AcDbLine
 10
5.962315328507827
 20
-3.95308035640415
 30
0.0
 11
5.962315328507834
 21
-3.593347926134852
 31
0.0
  0
LINE
  5
B2
330
1F
100
AcDbEntity
  8
외형선
  6
Continuous
370
    15
100
AcDbLine
 10
2.000000000000014
 20
0.0010749287238931
 30
0.0
 11
2.000000000000014
 21
4.763574928723896
 31
0.0
  0
LINE
  5
B3
330
1F
100
AcDbEntity
  8
외형선
  6
Continuous
370
    15
100
AcDbLine
 10
2.000000000000014
 20
-4.761425071276109
 30
0.0
 11
2.000000000000014
 21
0.0010749287238931
 31
0.0
  0
LINE
  5
B4
330
1F
100
AcDbEntity
  8
외형선
  6
Continuous
370
    15
100
AcDbLine
 10
-37.53518467149218
 20
0.0010749287238931
 30
0.0
 11
-37.53518467149218
 21
4.763574928723896
 31
0.0
  0
LINE
  5
B5
330
1F
100
AcDbEntity
  8
외형선
  6
Continuous
370
    15
100
AcDbLine
 10
-37.53518467149218
 20
-4.761425071276109
 30
0.0
 11
-37.53518467149218
 21
0.0010749287238931
 31
0.0
  0
LINE
  5
B6
330
1F
100
AcDbEntity
  8
외형선
  6
Continuous
370
    15
100
AcDbLine
 10
4.962315328507827
 20
0.0010749287238931
 30
0.0
 11
4.962315328507827
 21
3.969824928723893
 31
0.0
  0
LINE
  5
B7
330
1F
100
AcDbEntity
  8
외형선
  6
Continuous
370
    15
100
AcDbLine
 10
4.962315328507827
 20
-3.967675071276107
 30
0.0
 11
4.962315328507827
 21
0.0010749287238931
 31
0.0
  0
LINE
  5
B8
330
1F
100
AcDbEntity
  8
외형선
  6
Continuous
370
    15
100
AcDbLine
 10
-38.48768467149218
 20
0.0010749287238931
 30
0.0
 11
-38.48768467149218
 21
3.811074928723897
 31
0.0
  0
LINE
  5
B9
330
1F
100
AcDbEntity
  8
외형선
  6
Continuous
370
    15
100
AcDbLine
 10
-38.48768467149218
 20
-3.80892507127611
 30
0.0
 11
-38.48768467149218
 21
0.0010749287238931
 31
0.0
  0
LINE
  5
BA
330
1F
100
AcDbEntity
  8
외형선
  6
Continuous
370
    15
100
AcDbLine
 10
5.962315328507827
 20
0.0010749287238931
 30
0.0
 11
5.962315328507827
 21
3.969824928723893
 31
0.0
  0
LINE
  5
BB
330
1F
100
AcDbEntity
  8
외형선
  6
Continuous
370
    15
100
AcDbLine
 10
5.962315328507827
 20
-3.967675071276107
 30
0.0
 11
5.962315328507827
 21
0.0010749287238931
 31
0.0
  0
LINE
  5
BC
330
1F
100
AcDbEntity
  8
중심선
 48
0.8
100
AcDbLine
 10
-41.4876846714922
 20
0.0010749287238931
 30
0.0
 11
28.0123153285078
 21
0.0010749287238978
 31
0.0
  0
LINE
  5
BD
330
1F
100
AcDbEntity
  8
참조1
100
AcDbLine
 10
29.13676131403116
 20
0.0010749287238931
 30
0.0
 11
29.13676131403116
 21
1.655200094750598
 31
0.0
  0
LINE
  5
BE
330
1F
100
AcDbEntity
  8
참조1
100
AcDbLine
 10
-2.613238685968834
 20
0.0010749287238892
 30
0.0
 11
-2.613238685968829
 21
-39.99892507127611
 31
0.0
  0
LINE
  5
BF
330
1F
100
AcDbEntity
  8
참조1
100
AcDbLine
 10
-2.613238685968829
 20
-39.99892507127611
 30
0.0
 11
-20.1533455002775
 21
-39.9989250712761
 31
0.0
  0
CIRCLE
  5
C0
330
1F
100
AcDbEntity
  8
해칭선
100
AcDbCircle
 10
0.0
 20
0.0
 30
0.0
 40
3.000000000000002
  0
INSERT
  5
C1
330
1F
100
AcDbEntity
  8
0
  6
Continuous
 62
     7
100
AcDbBlockReference
 66
     1
  2
블럭10
 10
-20.6779576036174
 20
-52.04609937292004
 30
0.0
  0
ATTRIB
  5
C2
330
C1
100
AcDbEntity
  8
FORMAT
 62
     2
100
AcDbText
 10
-29.85925289235868
 20
-49.97073246008785
 30
0.0
 40
4.233333333333333
  1
E2020020 [ 4 FLUTE ]
 41
0.75
  7
SLDTEXTSTYLE0
 11
-29.85925289235868
 21
-52.08739912675452
 31
0.0
100
AcDbAttribute
  2
AUTOATTR0
 70
     0
 74
     1
  0
SEQEND
  5
C3
330
C1
100
AcDbEntity
  8
0
  6
Continuous
 62
     7
  0
HATCH
  5
C4
330
1F
100
AcDbEntity
  8
중심선
100
AcDbHatch
 10
0.0
 20
0.0
 30
0.0
210
0.0
220
0.0
230
1.0
  2
SOLID
 70
     1
 71
     0
 91
        1
 92
        0
 93
        4
 72
     1
 10
-14.96304829923656
 20
-35.7989250712761
 11
-18.40932354307385
 21
-35.7989250712761
 72
     1
 10
-18.40932354307384
 20
-35.7989250712761
 11
-20.53755340227787
 21
-38.3352506518487
 72
     1
 10
-20.53755340227787
 20
-38.3352506518487
 11
-17.09124507332743
 21
-38.33521122254621
 72
     1
 10
-17.09124507332743
 20
-38.33521122254621
 11
-14.96304829923656
 21
-35.7989250712761
 97
        0
 75
     0
 76
     1
 98
        1
 10
-4.124445985523363
 20
0.0
  0
HATCH
  5
C5
330
1F
100
AcDbEntity
  8
중심선
100
AcDbHatch
 10
0.0
 20
0.0
 30
0.0
210
0.0
220
0.0
230
1.0
  2
SOLID
 70
     1
 71
     0
 91
        1
 92
        0
 93
        4
 72
     1
 10
-9.950284308200581
 20
-35.7989250712761
 11
-13.39655955203786
 21
-35.7989250712761
 72
     1
 10
-13.39655955203786
 20
-35.7989250712761
 11
-17.92769756039528
 21
-41.19892507127612
 72
     1
 10
-17.92769756039528
 20
-41.19892507127612
 11
-14.481422316558
 21
-41.19892507127612
 72
     1
 10
-14.481422316558
 20
-41.19892507127612
 11
-9.95028430820058
 21
-35.7989250712761
 97
        0
 75
     0
 76
     1
 98
        1
 10
-4.124445985523363
 20
0.0
  0
HATCH
  5
C6
330
1F
100
AcDbEntity
  8
중심선
100
AcDbHatch
 10
0.0
 20
0.0
 30
0.0
210
0.0
220
0.0
230
1.0
  2
SOLID
 70
     1
 71
     0
 91
        1
 92
        0
 93
        4
 72
     1
 10
-4.937520317164713
 20
-35.7989250712761
 11
-8.383795561001829
 21
-35.7989250712761
 72
     1
 10
-8.383795561001829
 20
-35.7989250712761
 11
-15.43223246289108
 21
-44.19892507127612
 72
     1
 10
-15.43223246289108
 20
-44.19892507127612
 11
-11.9859572190538
 21
-44.19892507127612
 72
     1
 10
-11.98595721905379
 20
-44.19892507127612
 11
-4.937520317164712
 21
-35.7989250712761
 97
        0
 75
     0
 76
     1
 98
        1
 10
-4.124445985523363
 20
0.0
  0
HATCH
  5
C7
330
1F
100
AcDbEntity
  8
중심선
100
AcDbHatch
 10
0.0
 20
0.0
 30
0.0
210
0.0
220
0.0
230
1.0
  2
SOLID
 70
     1
 71
     0
 91
        1
 92
        0
 93
        6
 72
     3
 10
-0.137629886152514
 20
-39.99892507132738
 11
3.960054785062284
 21
1.540882976769353E-10
 40
0.3939339440162627
 50
17.09539180608438
 51
320.0019657685086
 73
     0
 72
     1
 10
1.545369769548081
 20
-38.58681907591443
 11
3.850671643249119
 21
-36.65249236586649
 72
     3
 10
-0.1376298862053607
 20
-39.99892507127625
 11
6.600054785286829
 21
-1.278976924368180E-13
 40
0.636358354079598
 50
39.99873849337411
 51
368.4976242363725
 73
     1
 72
     1
 10
6.287702605695249
 20
-39.03892507120613
 11
-1.457562579369438
 21
-39.03892507120613
 72
     1
 10
-1.457562579369438
 20
-39.03892507120613
 11
-1.457587623815372
 21
-40.95892507120602
 72
     1
 10
-1.457587623815372
 20
-40.95892507120602
 11
2.983792145656665
 21
-40.95892507120599
 97
        0
 75
     0
 76
     1
 98
        1
 10
-4.124445985523363
 20
0.0
  0
DIMENSION
  5
C8
330
1F
100
AcDbEntity
  8
치수문자_일반주서
100
AcDbDimension
  2
_D
 10
5.962315328507799
 20
15.0839919811562
 30
0.0
 11
-9.8084346714922
 21
15.0839919811562
 31
0.0
 70
   160
  1
<>
 71
     2
 42
19.05000000000001
  3
SLDDIMSTYLE1
100
AcDbAlignedDimension
 13
25.01231532850781
 23
3.969824928723898
 33
0.0
 14
5.962315328507798
 24
3.95523021385194
 34
0.0
 50
0.0000000000000107
100
AcDbRotatedDimension
1001
ACAD
1000
DSTYLE
1002
{
1070
   171
1070
     6
1070
   273
1070
     7
1002
}
  0
DIMENSION
  5
DD
330
1F
100
AcDbEntity
  8
치수문자_일반주서
100
AcDbDimension
  2
_D_1
 10
-38.4876846714922
 20
31.6102217220047
 30
0.0
 11
-6.737684671492191
 21
31.6102217220047
 31
0.0
 70
   160
  1
<>
 71
     2
 42
63.50000000000001
  3
SLDDIMSTYLE1
100
AcDbAlignedDimension
 13
25.01231532850781
 23
3.969824928723898
 33
0.0
 14
-38.4876846714922
 24
3.811074928723901
 34
0.0
 50
0.0000000000000064
100
AcDbRotatedDimension
1001
ACAD
1000
DSTYLE
1002
{
1070
   171
1070
     6
1070
   273
1070
     7
1002
}
  0
DIMENSION
  5
F1
330
1F
100
AcDbEntity
  8
치수문자_일반주서
100
AcDbDimension
  2
_D_2
 10
-51.48768467149217
 20
-4.76142507127616
 30
0.0
 11
-51.48768467149219
 21
0.001074928723894
 31
0.0
 70
   160
  1
%%c<>
 71
     2
 42
9.525000000000006
 52
-270.0
  3
SLDDIMSTYLE1
100
AcDbAlignedDimension
 13
-37.53518467149218
 23
4.763574928723896
 33
0.0
 14
-37.53518467149218
 24
-4.761425071276109
 34
0.0
 50
90.0000000000002
100
AcDbRotatedDimension
1001
ACAD
1000
DSTYLE
1002
{
1070
   171
1070
     6
1070
   273
1070
     7
1002
}
  0
DIMENSION
  5
106
330
1F
100
AcDbEntity
  8
치수문자_일반주서
100
AcDbDimension
  2
_D_3
 10
38.43384699262394
 20
-3.967675071276055
 30
0.0
 11
38.43384699262381
 21
32.42612998781699
 31
0.0
 70
   160
  1
%%c<>
 71
     2
 42
7.9375
 52
-270.0
  3
SLDDIMSTYLE1
100
AcDbAlignedDimension
 13
25.01231532850781
 23
3.969824928723898
 33
0.0
 14
25.01231532850781
 24
-3.967675071276102
 34
0.0
 50
90.0000000000002
100
AcDbRotatedDimension
1001
ACAD
1000
DSTYLE
1002
{
1070
   171
1070
     6
1070
   273
1070
     7
1002
}
  0
LINE
  5
119
330
1F
100
AcDbEntity
  8
참조1
100
AcDbLine
 10
77.81899512937676
 20
7.441074928723896
 30
0.0
 11
77.81899512937676
 21
-7.438925071276109
 31
0.0
  0
LINE
  5
11A
330
1F
100
AcDbEntity
  8
참조1
100
AcDbLine
 10
90.51899512937676
 20
5.441074928723896
 30
0.0
 11
77.81899512937676
 21
5.441074928723896
 31
0.0
  0
SOLID
  5
11B
330
1F
100
AcDbEntity
  8
참조1
100
AcDbTrace
 10
77.81899512937676
 20
5.441074928723896
 30
0.0
 11
84.16899512937675
 21
4.425074928723896
 31
0.0
 12
84.16899512937675
 22
6.457074928723896
 32
0.0
 13
84.16899512937675
 23
6.457074928723896
 33
0.0
  0
LINE
  5
11C
330
1F
100
AcDbEntity
  8
참조1
100
AcDbLine
 10
90.51899512937676
 20
-5.438925071276109
 30
0.0
 11
77.81899512937676
 21
-5.438925071276109
 31
0.0
  0
SOLID
  5
11D
330
1F
100
AcDbEntity
  8
참조1
100
AcDbTrace
 10
77.81899512937676
 20
-5.438925071276109
 30
0.0
 11
84.16899512937675
 21
-6.454925071276109
 31
0.0
 12
84.16899512937675
 22
-4.422925071276109
 32
0.0
 13
84.16899512937675
 23
-4.422925071276109
 33
0.0
  0
MTEXT
  5
11E
330
1F
100
AcDbEntity
  8
참조1
100
AcDbMText
 10
87.21648522184704
 20
10.98929157337383
 30
0.0
 40
3.5
 41
0.0
 71
     1
 72
     1
  1
A
  7
SLDTEXTSTYLE0
 73
     1
 44
1.0
  0
MTEXT
  5
11F
330
1F
100
AcDbEntity
  8
참조1
100
AcDbMText
 10
87.21648522184704
 20
0.1092915733738259
 30
0.0
 40
3.5
 41
0.0
 71
     1
 72
     1
  1
A
  7
SLDTEXTSTYLE0
 73
     1
 44
1.0
  0
INSERT
  5
126
330
1F
100
AcDbEntity
  8
해칭선
100
AcDbBlockReference
  2
SW_DOWELSYMBOL_0
 10
0.0
 20
0.0
 30
0.0
  0
LINE
  5
4A4
330
1F
100
AcDbEntity
  8
외형선
  6
Continuous
370
    15
100
AcDbLine
 10
-22.21263467149229
 20
3.493574928723909
 30
0.0
 11
-15.07523467149218
 21
3.493574928723909
 31
0.0
  0
LINE
  5
4A5
330
1F
100
AcDbEntity
  8
외형선
  6
Continuous
370
    15
100
AcDbLine
 10
-22.21263467149229
 20
3.493574928723909
 30
0.0
 11
-23.48263467149227
 21
4.763574928723891
 31
0.0
  0
LINE
  5
4A6
330
1F
100
AcDbEntity
  8
외형선
  6
Continuous
370
    15
100
AcDbLine
 10
-15.07523467149218
 20
3.493574928723909
 30
0.0
 11
-13.80523467149207
 21
4.763574928723891
 31
0.0
  0
LINE
  5
4DE
330
1F
100
AcDbEntity
  8
외형선
  6
Continuous
370
    15
100
AcDbLine
 10
-23.48263467149228
 20
4.763574928723896
 30
0.0
 11
-37.53518467149218
 21
4.763574928723896
 31
0.0
  0
ENDSEC
  0
SECTION
  2
OBJECTS
  0
DICTIONARY
  5
C
330
0
100
AcDbDictionary
281
     1
  3
ACAD_GROUP
350
D
  3
ACAD_IMAGE_VARS
350
14A
  3
ACAD_LAYOUT
350
1A
  3
ACAD_MLINESTYLE
350
17
  3
ACAD_PLOTSETTINGS
350
19
  3
ACAD_PLOTSTYLENAME
350
E
  3
ACAD_SCALELIST
350
47
  3
APPDATA
350
148
  3
DWGPROPS
350
4DF
  0
DICTIONARY
  5
1E0
330
2
100
AcDbDictionary
280
     1
281
     1
  3
ACAD_LAYERSTATES
360
310
  0
DICTIONARY
  5
D
102
{ACAD_REACTORS
330
C
102
}
330
C
100
AcDbDictionary
281
     1
  0
RASTERVARIABLES
  5
14A
102
{ACAD_REACTORS
330
C
102
}
330
C
100
AcDbRasterVariables
 90
        0
 70
     1
 71
     1
 72
     1
  0
DICTIONARY
  5
1A
102
{ACAD_REACTORS
330
C
102
}
330
C
100
AcDbDictionary
281
     1
  3
Layout1
350
1E
  3
Layout2
350
26
  3
Model
350
22
  0
DICTIONARY
  5
17
102
{ACAD_REACTORS
330
C
102
}
330
C
100
AcDbDictionary
281
     1
  3
Standard
350
18
  0
DICTIONARY
  5
19
102
{ACAD_REACTORS
330
C
102
}
330
C
100
AcDbDictionary
281
     1
  0
ACDBDICTIONARYWDFLT
  5
E
102
{ACAD_REACTORS
330
C
102
}
330
C
100
AcDbDictionary
281
     1
  3
Normal
350
F
100
AcDbDictionaryWithDefault
340
F
  0
DICTIONARY
  5
47
102
{ACAD_REACTORS
330
C
102
}
330
C
100
AcDbDictionary
281
     1
  3
A0
350
48
  3
A1
350
49
  3
A2
350
4A
  3
A3
350
4B
  3
A4
350
4C
  3
A5
350
4D
  3
A6
350
4E
  3
A7
350
4F
  3
A8
350
50
  3
A9
350
51
  3
B0
350
52
  3
B1
350
53
  3
B2
350
54
  3
B3
350
55
  3
B4
350
56
  3
B5
350
57
  3
B6
350
58
  3
B7
350
59
  3
B8
350
5A
  3
B9
350
5B
  3
C0
350
5C
  3
C1
350
5D
  3
C2
350
5E
  3
C3
350
5F
  3
C4
350
60
  3
C5
350
61
  3
C6
350
62
  3
C7
350
63
  3
C8
350
64
  3
C9
350
65
  3
D0
350
66
  3
D1
350
67
  3
D2
350
68
  0
DICTIONARY
  5
148
102
{ACAD_REACTORS
330
C
102
}
330
C
100
AcDbDictionary
281
     1
  0
XRECORD
  5
4DF
102
{ACAD_REACTORS
330
C
102
}
330
C
100
AcDbXrecord
280
     1
  1
DWGPROPS COOKIE
  2

  3

  4

  6

  7

  8
12017012
  9

300
=
301
=
302
=
303
=
304
=
305
=
306
=
307
=
308
=
309
=
 40
0.0
 41
2458323.30116515
 42
2458324.075068762
  1

 90
        0
  0
DICTIONARY
  5
310
102
{ACAD_REACTORS
330
1E0
102
}
330
1E0
100
AcDbDictionary
281
     1
  0
LAYOUT
  5
1E
102
{ACAD_REACTORS
330
1A
102
}
330
1A
100
AcDbPlotSettings
  1

  2
none_device
  4

  6

 40
0.0
 41
0.0
 42
0.0
 43
0.0
 44
0.0
 45
0.0
 46
0.0
 47
0.0
 48
0.0
 49
0.0
140
0.0
141
0.0
142
1.0
143
1.0
 70
   688
 72
     1
 73
     0
 74
     5
  7

 75
    16
147
1.0
148
0.0
149
0.0
100
AcDbLayout
  1
Layout1
 70
     1
 71
     1
 10
0.0
 20
0.0
 11
420.0
 21
297.0
 12
0.0
 22
0.0
 32
0.0
 14
1.000000000000000E+20
 24
1.000000000000000E+20
 34
1.000000000000000E+20
 15
-1.000000000000000E+20
 25
-1.000000000000000E+20
 35
-1.000000000000000E+20
146
0.0
 13
0.0
 23
0.0
 33
0.0
 16
1.0
 26
0.0
 36
0.0
 17
0.0
 27
1.0
 37
0.0
 76
     0
330
1B
  0
LAYOUT
  5
26
102
{ACAD_REACTORS
330
1A
102
}
330
1A
100
AcDbPlotSettings
  1

  2
none_device
  4

  6

 40
0.0
 41
0.0
 42
0.0
 43
0.0
 44
0.0
 45
0.0
 46
0.0
 47
0.0
 48
0.0
 49
0.0
140
0.0
141
0.0
142
1.0
143
1.0
 70
   688
 72
     1
 73
     0
 74
     5
  7

 75
    16
147
1.0
148
0.0
149
0.0
100
AcDbLayout
  1
Layout2
 70
     1
 71
     2
 10
0.0
 20
0.0
 11
0.0
 21
0.0
 12
0.0
 22
0.0
 32
0.0
 14
0.0
 24
0.0
 34
0.0
 15
0.0
 25
0.0
 35
0.0
146
0.0
 13
0.0
 23
0.0
 33
0.0
 16
1.0
 26
0.0
 36
0.0
 17
0.0
 27
1.0
 37
0.0
 76
     0
330
23
  0
LAYOUT
  5
22
102
{ACAD_REACTORS
330
1A
102
}
330
1A
100
AcDbPlotSettings
  1

  2
none_device
  4
ANSI_A_(11.00_x_8.50_Inches)
  6

 40
6.35
 41
19.05
 42
6.35000508
 43
19.05000254
 44
279.4
 45
215.9
 46
103.2448743032345
 47
95.07905622170001
 48
0.0
 49
0.0
140
0.0
141
0.0
142
0.0732469583835696
143
1.0
 70
  1696
 72
     0
 73
     0
 74
     0
  7

 75
     0
147
0.0235690232323232
148
0.0
149
0.0
100
AcDbLayout
  1
Model
 70
     1
 71
     0
 10
0.0
 20
0.0
 11
420.0
 21
297.0
 12
0.0
 22
0.0
 32
0.0
 14
1.000000000000000E+20
 24
1.000000000000000E+20
 34
1.000000000000000E+20
 15
-1.000000000000000E+20
 25
-1.000000000000000E+20
 35
-1.000000000000000E+20
146
0.0
 13
0.0
 23
0.0
 33
0.0
 16
1.0
 26
0.0
 36
0.0
 17
0.0
 27
1.0
 37
0.0
 76
     0
330
1F
331
29
  0
MLINESTYLE
  5
18
102
{ACAD_REACTORS
330
17
102
}
330
17
100
AcDbMlineStyle
  2
Standard
 70
     0
  3

 62
   256
 51
90.0
 52
90.0
 71
     2
 49
0.5
 62
   256
  6
BYLAYER
 49
-0.5
 62
   256
  6
BYLAYER
  0
ACDBPLACEHOLDER
  5
F
102
{ACAD_REACTORS
330
E
102
}
330
E
  0
SCALE
  5
48
102
{ACAD_REACTORS
330
47
102
}
330
47
100
AcDbScale
 70
     0
300
1:1
140
1.0
141
1.0
290
     1
  0
SCALE
  5
49
102
{ACAD_REACTORS
330
47
102
}
330
47
100
AcDbScale
 70
     0
300
1:2
140
1.0
141
2.0
290
     0
  0
SCALE
  5
4A
102
{ACAD_REACTORS
330
47
102
}
330
47
100
AcDbScale
 70
     0
300
1:4
140
1.0
141
4.0
290
     0
  0
SCALE
  5
4B
102
{ACAD_REACTORS
330
47
102
}
330
47
100
AcDbScale
 70
     0
300
1:5
140
1.0
141
5.0
290
     0
  0
SCALE
  5
4C
102
{ACAD_REACTORS
330
47
102
}
330
47
100
AcDbScale
 70
     0
300
1:8
140
1.0
141
8.0
290
     0
  0
SCALE
  5
4D
102
{ACAD_REACTORS
330
47
102
}
330
47
100
AcDbScale
 70
     0
300
1:10
140
1.0
141
10.0
290
     0
  0
SCALE
  5
4E
102
{ACAD_REACTORS
330
47
102
}
330
47
100
AcDbScale
 70
     0
300
1:16
140
1.0
141
16.0
290
     0
  0
SCALE
  5
4F
102
{ACAD_REACTORS
330
47
102
}
330
47
100
AcDbScale
 70
     0
300
1:20
140
1.0
141
20.0
290
     0
  0
SCALE
  5
50
102
{ACAD_REACTORS
330
47
102
}
330
47
100
AcDbScale
 70
     0
300
1:30
140
1.0
141
30.0
290
     0
  0
SCALE
  5
51
102
{ACAD_REACTORS
330
47
102
}
330
47
100
AcDbScale
 70
     0
300
1:40
140
1.0
141
40.0
290
     0
  0
SCALE
  5
52
102
{ACAD_REACTORS
330
47
102
}
330
47
100
AcDbScale
 70
     0
300
1:50
140
1.0
141
50.0
290
     0
  0
SCALE
  5
53
102
{ACAD_REACTORS
330
47
102
}
330
47
100
AcDbScale
 70
     0
300
1:100
140
1.0
141
100.0
290
     0
  0
SCALE
  5
54
102
{ACAD_REACTORS
330
47
102
}
330
47
100
AcDbScale
 70
     0
300
2:1
140
2.0
141
1.0
290
     0
  0
SCALE
  5
55
102
{ACAD_REACTORS
330
47
102
}
330
47
100
AcDbScale
 70
     0
300
4:1
140
4.0
141
1.0
290
     0
  0
SCALE
  5
56
102
{ACAD_REACTORS
330
47
102
}
330
47
100
AcDbScale
 70
     0
300
8:1
140
8.0
141
1.0
290
     0
  0
SCALE
  5
57
102
{ACAD_REACTORS
330
47
102
}
330
47
100
AcDbScale
 70
     0
300
10:1
140
10.0
141
1.0
290
     0
  0
SCALE
  5
58
102
{ACAD_REACTORS
330
47
102
}
330
47
100
AcDbScale
 70
     0
300
100:1
140
100.0
141
1.0
290
     0
  0
SCALE
  5
59
102
{ACAD_REACTORS
330
47
102
}
330
47
100
AcDbScale
 70
     0
300
1/128" = 1'-0"
140
0.0078125
141
12.0
290
     0
  0
SCALE
  5
5A
102
{ACAD_REACTORS
330
47
102
}
330
47
100
AcDbScale
 70
     0
300
1/64" = 1'-0"
140
0.015625
141
12.0
290
     0
  0
SCALE
  5
5B
102
{ACAD_REACTORS
330
47
102
}
330
47
100
AcDbScale
 70
     0
300
1/32" = 1'-0"
140
0.03125
141
12.0
290
     0
  0
SCALE
  5
5C
102
{ACAD_REACTORS
330
47
102
}
330
47
100
AcDbScale
 70
     0
300
1/16" = 1'-0"
140
0.0625
141
12.0
290
     0
  0
SCALE
  5
5D
102
{ACAD_REACTORS
330
47
102
}
330
47
100
AcDbScale
 70
     0
300
3/32" = 1'-0"
140
0.09375
141
12.0
290
     0
  0
SCALE
  5
5E
102
{ACAD_REACTORS
330
47
102
}
330
47
100
AcDbScale
 70
     0
300
1/8" = 1'-0"
140
0.125
141
12.0
290
     0
  0
SCALE
  5
5F
102
{ACAD_REACTORS
330
47
102
}
330
47
100
AcDbScale
 70
     0
300
3/16" = 1'-0"
140
0.1875
141
12.0
290
     0
  0
SCALE
  5
60
102
{ACAD_REACTORS
330
47
102
}
330
47
100
AcDbScale
 70
     0
300
1/4" = 1'-0"
140
0.25
141
12.0
290
     0
  0
SCALE
  5
61
102
{ACAD_REACTORS
330
47
102
}
330
47
100
AcDbScale
 70
     0
300
3/8" = 1'-0"
140
0.375
141
12.0
290
     0
  0
SCALE
  5
62
102
{ACAD_REACTORS
330
47
102
}
330
47
100
AcDbScale
 70
     0
300
1/2" = 1'-0"
140
0.5
141
12.0
290
     0
  0
SCALE
  5
63
102
{ACAD_REACTORS
330
47
102
}
330
47
100
AcDbScale
 70
     0
300
3/4" = 1'-0"
140
0.75
141
12.0
290
     0
  0
SCALE
  5
64
102
{ACAD_REACTORS
330
47
102
}
330
47
100
AcDbScale
 70
     0
300
1" = 1'-0"
140
1.0
141
12.0
290
     0
  0
SCALE
  5
65
102
{ACAD_REACTORS
330
47
102
}
330
47
100
AcDbScale
 70
     0
300
1-1/2" = 1'-0"
140
1.5
141
12.0
290
     0
  0
SCALE
  5
66
102
{ACAD_REACTORS
330
47
102
}
330
47
100
AcDbScale
 70
     0
300
3" = 1'-0"
140
3.0
141
12.0
290
     0
  0
SCALE
  5
67
102
{ACAD_REACTORS
330
47
102
}
330
47
100
AcDbScale
 70
     0
300
6" = 1'-0"
140
6.0
141
12.0
290
     0
  0
SCALE
  5
68
102
{ACAD_REACTORS
330
47
102
}
330
47
100
AcDbScale
 70
     0
300
1'-0" = 1'-0"
140
12.0
141
12.0
290
     0
  0
ENDSEC
  0
EOF
